  0
SECTION
  2
HEADER
  9
$ACADVER
  1
AC1015
  9
$ACADMAINTVER
 70
     6
  9
$DWGCODEPAGE
  3
ANSI_1252
  9
$INSBASE
 10
0.0
 20
0.0
 30
0.0
  9
$EXTMIN
 10
1.000000000000000E+20
 20
1.000000000000000E+20
 30
1.000000000000000E+20
  9
$EXTMAX
 10
-1.000000000000000E+20
 20
-1.000000000000000E+20
 30
-1.000000000000000E+20
  9
$LIMMIN
 10
-170.0
 20
-170.0
  9
$LIMMAX
 10
519.0
 20
260.0
  9
$ORTHOMODE
 70
     0
  9
$REGENMODE
 70
     1
  9
$FILLMODE
 70
     1
  9
$QTEXTMODE
 70
     0
  9
$MIRRTEXT
 70
     0
  9
$LTSCALE
 40
1.0
  9
$ATTMODE
 70
     1
  9
$TEXTSIZE
 40
3.5
  9
$TRACEWID
 40
1.0
  9
$TEXTSTYLE
  7
SIMPLEX
  9
$CLAYER
  8
1
  9
$CELTYPE
  6
BYLAYER
  9
$CECOLOR
 62
   256
  9
$CELTSCALE
 40
1.0
  9
$DISPSILH
 70
     0
  9
$DIMSCALE
 40
1.0
  9
$DIMASZ
 40
2.5
  9
$DIMEXO
 40
0.0
  9
$DIMDLI
 40
3.75
  9
$DIMRND
 40
0.0
  9
$DIMDLE
 40
0.0
  9
$DIMEXE
 40
1.25
  9
$DIMTP
 40
0.0
  9
$DIMTM
 40
0.0
  9
$DIMTXT
 40
3.5
  9
$DIMCEN
 40
0.0
  9
$DIMTSZ
 40
0.0
  9
$DIMTOL
 70
     0
  9
$DIMLIM
 70
     0
  9
$DIMTIH
 70
     0
  9
$DIMTOH
 70
     0
  9
$DIMSE1
 70
     0
  9
$DIMSE2
 70
     0
  9
$DIMTAD
 70
     1
  9
$DIMZIN
 70
     8
  9
$DIMBLK
  1

  9
$DIMASO
 70
     1
  9
$DIMSHO
 70
     1
  9
$DIMPOST
  1

  9
$DIMAPOST
  1

  9
$DIMALT
 70
     0
  9
$DIMALTD
 70
     3
  9
$DIMALTF
 40
0.039370078
  9
$DIMLFAC
 40
1.0
  9
$DIMTOFL
 70
     0
  9
$DIMTVP
 40
0.0
  9
$DIMTIX
 70
     0
  9
$DIMSOXD
 70
     0
  9
$DIMSAH
 70
     0
  9
$DIMBLK1
  1

  9
$DIMBLK2
  1

  9
$DIMSTYLE
  2
STANDARD
  9
$DIMCLRD
 70
     0
  9
$DIMCLRE
 70
     0
  9
$DIMCLRT
 70
     0
  9
$DIMTFAC
 40
1.0
  9
$DIMGAP
 40
0.625
  9
$DIMJUST
 70
     0
  9
$DIMSD1
 70
     0
  9
$DIMSD2
 70
     0
  9
$DIMTOLJ
 70
     0
  9
$DIMTZIN
 70
     8
  9
$DIMALTZ
 70
     0
  9
$DIMALTTZ
 70
     0
  9
$DIMUPT
 70
     0
  9
$DIMDEC
 70
     2
  9
$DIMTDEC
 70
     2
  9
$DIMALTU
 70
     2
  9
$DIMALTTD
 70
     3
  9
$DIMTXSTY
  7
SIMPLEX
  9
$DIMAUNIT
 70
     0
  9
$DIMADEC
 70
     2
  9
$DIMALTRND
 40
0.0
  9
$DIMAZIN
 70
     2
  9
$DIMDSEP
 70
    46
  9
$DIMATFIT
 70
     3
  9
$DIMFRAC
 70
     0
  9
$DIMLDRBLK
  1

  9
$DIMLUNIT
 70
     2
  9
$DIMLWD
 70
    -2
  9
$DIMLWE
 70
    -2
  9
$DIMTMOVE
 70
     0
  9
$LUNITS
 70
     2
  9
$LUPREC
 70
     4
  9
$SKETCHINC
 40
1.0
  9
$FILLETRAD
 40
0.0
  9
$AUNITS
 70
     0
  9
$AUPREC
 70
     0
  9
$MENU
  1
c:\tdm21\cad\caduti13\tdm13
  9
$ELEVATION
 40
0.0
  9
$PELEVATION
 40
0.0
  9
$THICKNESS
 40
0.0
  9
$LIMCHECK
 70
     0
  9
$CHAMFERA
 40
0.0
  9
$CHAMFERB
 40
0.0
  9
$CHAMFERC
 40
0.0
  9
$CHAMFERD
 40
0.0
  9
$SKPOLY
 70
     0
  9
$TDCREATE
 40
2454957.551975972
  9
$TDUCREATE
 40
2454957.510309306
  9
$TDUPDATE
 40
2456961.559214282
  9
$TDUUPDATE
 40
2456961.517547616
  9
$TDINDWG
 40
0.0009643519
  9
$TDUSRTIMER
 40
0.0009475231
  9
$USRTIMER
 70
     1
  9
$ANGBASE
 50
0.0
  9
$ANGDIR
 70
     0
  9
$PDMODE
 70
     1
  9
$PDSIZE
 40
0.0
  9
$PLINEWID
 40
0.0
  9
$SPLFRAME
 70
     0
  9
$SPLINETYPE
 70
     6
  9
$SPLINESEGS
 70
     8
  9
$HANDSEED
  5
613
  9
$SURFTAB1
 70
     6
  9
$SURFTAB2
 70
     6
  9
$SURFTYPE
 70
     6
  9
$SURFU
 70
     6
  9
$SURFV
 70
     6
  9
$UCSBASE
  2

  9
$UCSNAME
  2

  9
$UCSORG
 10
0.0
 20
0.0
 30
0.0
  9
$UCSXDIR
 10
1.0
 20
0.0
 30
0.0
  9
$UCSYDIR
 10
0.0
 20
1.0
 30
0.0
  9
$UCSORTHOREF
  2

  9
$UCSORTHOVIEW
 70
     0
  9
$UCSORGTOP
 10
0.0
 20
0.0
 30
0.0
  9
$UCSORGBOTTOM
 10
0.0
 20
0.0
 30
0.0
  9
$UCSORGLEFT
 10
0.0
 20
0.0
 30
0.0
  9
$UCSORGRIGHT
 10
0.0
 20
0.0
 30
0.0
  9
$UCSORGFRONT
 10
0.0
 20
0.0
 30
0.0
  9
$UCSORGBACK
 10
0.0
 20
0.0
 30
0.0
  9
$PUCSBASE
  2

  9
$PUCSNAME
  2

  9
$PUCSORG
 10
0.0
 20
0.0
 30
0.0
  9
$PUCSXDIR
 10
1.0
 20
0.0
 30
0.0
  9
$PUCSYDIR
 10
0.0
 20
1.0
 30
0.0
  9
$PUCSORTHOREF
  2

  9
$PUCSORTHOVIEW
 70
     0
  9
$PUCSORGTOP
 10
0.0
 20
0.0
 30
0.0
  9
$PUCSORGBOTTOM
 10
0.0
 20
0.0
 30
0.0
  9
$PUCSORGLEFT
 10
0.0
 20
0.0
 30
0.0
  9
$PUCSORGRIGHT
 10
0.0
 20
0.0
 30
0.0
  9
$PUCSORGFRONT
 10
0.0
 20
0.0
 30
0.0
  9
$PUCSORGBACK
 10
0.0
 20
0.0
 30
0.0
  9
$USERI1
 70
     0
  9
$USERI2
 70
     0
  9
$USERI3
 70
     0
  9
$USERI4
 70
     0
  9
$USERI5
 70
     0
  9
$USERR1
 40
0.0
  9
$USERR2
 40
0.0
  9
$USERR3
 40
0.0
  9
$USERR4
 40
0.0
  9
$USERR5
 40
0.0
  9
$WORLDVIEW
 70
     1
  9
$SHADEDGE
 70
     3
  9
$SHADEDIF
 70
    70
  9
$TILEMODE
 70
     1
  9
$MAXACTVP
 70
    64
  9
$PINSBASE
 10
0.0
 20
0.0
 30
0.0
  9
$PLIMCHECK
 70
     0
  9
$PEXTMIN
 10
0.0
 20
0.0
 30
0.0
  9
$PEXTMAX
 10
0.0
 20
0.0
 30
0.0
  9
$PLIMMIN
 10
0.0
 20
0.0
  9
$PLIMMAX
 10
12.0
 20
9.0
  9
$UNITMODE
 70
     0
  9
$VISRETAIN
 70
     0
  9
$PLINEGEN
 70
     0
  9
$PSLTSCALE
 70
     1
  9
$TREEDEPTH
 70
  3020
  9
$CMLSTYLE
  2
STANDARD
  9
$CMLJUST
 70
     0
  9
$CMLSCALE
 40
20.0
  9
$PROXYGRAPHICS
 70
     1
  9
$MEASUREMENT
 70
     1
  9
$CELWEIGHT
370
    -1
  9
$ENDCAPS
280
     0
  9
$JOINSTYLE
280
     0
  9
$LWDISPLAY
290
     0
  9
$INSUNITS
 70
     4
  9
$HYPERLINKBASE
  1

  9
$STYLESHEET
  1
MONOCHROME.CTB
  9
$XEDIT
290
     1
  9
$CEPSNTYPE
380
     0
  9
$PSTYLEMODE
290
     1
  9
$FINGERPRINTGUID
  2
{46B44192-1510-48B1-B61B-CBE2ADA013A7}
  9
$VERSIONGUID
  2
{6160D478-9A74-4C97-9D8A-D4A65CE74B12}
  9
$EXTNAMES
290
     1
  9
$PSVPSCALE
 40
0.0
  9
$OLESTARTUP
290
     0
  0
ENDSEC
  0
SECTION
  2
CLASSES
  0
CLASS
  1
ACDBDICTIONARYWDFLT
  2
AcDbDictionaryWithDefault
  3
ObjectDBX Classes
 90
        0
280
     0
281
     0
  0
CLASS
  1
ACDBPLACEHOLDER
  2
AcDbPlaceHolder
  3
ObjectDBX Classes
 90
        0
280
     0
281
     0
  0
CLASS
  1
LAYOUT
  2
AcDbLayout
  3
ObjectDBX Classes
 90
        0
280
     0
281
     0
  0
CLASS
  1
DICTIONARYVAR
  2
AcDbDictionaryVar
  3
ObjectDBX Classes
 90
        0
280
     0
281
     0
  0
CLASS
  1
TABLESTYLE
  2
AcDbTableStyle
  3
ObjectDBX Classes
 90
     4095
280
     0
281
     0
  0
CLASS
  1
SCALE
  2
AcDbScale
  3
ObjectDBX Classes
 90
     1153
280
     0
281
     0
  0
CLASS
  1
MATERIAL
  2
AcDbMaterial
  3
ObjectDBX Classes
 90
     1153
280
     0
281
     0
  0
CLASS
  1
VISUALSTYLE
  2
AcDbVisualStyle
  3
ObjectDBX Classes
 90
     4095
280
     0
281
     0
  0
ENDSEC
  0
SECTION
  2
TABLES
  0
TABLE
  2
VPORT
  5
8
330
0
100
AcDbSymbolTable
 70
     1
  0
VPORT
  5
39A
330
8
100
AcDbSymbolTableRecord
100
AcDbViewportTableRecord
  2
*Active
 70
     0
 10
0.0
 20
0.0
 11
1.0
 21
1.0
 12
218.9201881351169
 22
109.7549380673833
 13
0.0
 23
0.0
 14
5.0
 24
5.0
 15
5.0
 25
5.0
 16
0.0
 26
0.0
 36
1.0
 17
0.0
 27
0.0
 37
0.0
 40
564.6711112651689
 41
1.066073697585768
 42
50.0
 43
0.0
 44
0.0
 50
0.0
 51
0.0
 71
     0
 72
  2000
 73
     1
 74
     1
 75
     0
 76
     0
 77
     0
 78
     0
281
     0
 65
     1
110
0.0
120
0.0
130
0.0
111
1.0
121
0.0
131
0.0
112
0.0
122
1.0
132
0.0
 79
     0
146
0.0
  0
ENDTAB
  0
TABLE
  2
LTYPE
  5
5
330
0
100
AcDbSymbolTable
 70
     3
  0
LTYPE
  5
12
330
5
100
AcDbSymbolTableRecord
100
AcDbLinetypeTableRecord
  2
BYBLOCK
 70
     0
  3

 72
    65
 73
     0
 40
0.0
  0
LTYPE
  5
13
330
5
100
AcDbSymbolTableRecord
100
AcDbLinetypeTableRecord
  2
BYLAYER
 70
     0
  3

 72
    65
 73
     0
 40
0.0
  0
LTYPE
  5
14
330
5
100
AcDbSymbolTableRecord
100
AcDbLinetypeTableRecord
  2
CONTINUOUS
 70
     0
  3
Solid line
 72
    65
 73
     0
 40
0.0
  0
LTYPE
  5
20
330
5
100
AcDbSymbolTableRecord
100
AcDbLinetypeTableRecord
  2
HIDDEN
 70
     0
  3
Hidden __ __ __ __ __ __ __ __ __ __ __ __ __ _
 72
    65
 73
     2
 40
9.524999999999997
 49
6.349999999999998
 74
     0
 49
-3.174999999999998
 74
     0
  0
LTYPE
  5
351
330
5
100
AcDbSymbolTableRecord
100
AcDbLinetypeTableRecord
  2
CENTER
 70
     0
  3
Dash dot __ . __ . __ . __ . __ . __ . __ . __
 72
    65
 73
     4
 40
25.4
 49
12.7
 74
     0
 49
-6.349999999999998
 74
     0
 49
0.0
 74
     0
 49
-6.349999999999998
 74
     0
  0
ENDTAB
  0
TABLE
  2
LAYER
  5
2
330
0
100
AcDbSymbolTable
 70
    16
  0
LAYER
  5
F
330
2
100
AcDbSymbolTableRecord
100
AcDbLayerTableRecord
  2
0
 70
     0
 62
     7
  6
CONTINUOUS
370
    -3
390
300
  0
LAYER
  5
23
330
2
100
AcDbSymbolTableRecord
100
AcDbLayerTableRecord
  2
1
 70
     0
 62
     4
  6
CONTINUOUS
370
    -3
390
300
  0
LAYER
  5
24
330
2
100
AcDbSymbolTableRecord
100
AcDbLayerTableRecord
  2
SK1
 70
     0
 62
     4
  6
CONTINUOUS
370
    -3
390
300
  0
LAYER
  5
25
330
2
100
AcDbSymbolTableRecord
100
AcDbLayerTableRecord
  2
2
 70
     0
 62
     7
  6
CONTINUOUS
370
    -3
390
300
  0
LAYER
  5
26
330
2
100
AcDbSymbolTableRecord
100
AcDbLayerTableRecord
  2
2L
 70
     0
 62
     7
  6
CONTINUOUS
370
    -3
390
300
  0
LAYER
  5
27
330
2
100
AcDbSymbolTableRecord
100
AcDbLayerTableRecord
  2
SK2
 70
     0
 62
     7
  6
CONTINUOUS
370
    -3
390
300
  0
LAYER
  5
28
330
2
100
AcDbSymbolTableRecord
100
AcDbLayerTableRecord
  2
3
 70
     0
 62
     1
  6
HIDDEN
370
    -3
390
300
  0
LAYER
  5
29
330
2
100
AcDbSymbolTableRecord
100
AcDbLayerTableRecord
  2
SK3
 70
     0
 62
     1
  6
HIDDEN
370
    -3
390
300
  0
LAYER
  5
2A
330
2
100
AcDbSymbolTableRecord
100
AcDbLayerTableRecord
  2
4
 70
     0
 62
     2
  6
CENTER
370
    -3
390
300
  0
LAYER
  5
2B
330
2
100
AcDbSymbolTableRecord
100
AcDbLayerTableRecord
  2
SK4
 70
     0
 62
     2
  6
CENTER
370
    -3
390
300
  0
LAYER
  5
2C
330
2
100
AcDbSymbolTableRecord
100
AcDbLayerTableRecord
  2
5
 70
     0
 62
    -7
  6
CONTINUOUS
370
    -3
390
300
  0
LAYER
  5
2D
330
2
100
AcDbSymbolTableRecord
100
AcDbLayerTableRecord
  2
6
 70
     0
 62
     5
  6
CONTINUOUS
370
    -3
390
300
  0
LAYER
  5
2E
330
2
100
AcDbSymbolTableRecord
100
AcDbLayerTableRecord
  2
SK6
 70
     0
 62
     5
  6
CONTINUOUS
370
    -3
390
300
  0
LAYER
  5
2F
330
2
100
AcDbSymbolTableRecord
100
AcDbLayerTableRecord
  2
DEFPOINTS
 70
     0
 62
     7
  6
CONTINUOUS
290
     0
370
    -3
390
300
  0
LAYER
  5
375
330
2
100
AcDbSymbolTableRecord
100
AcDbLayerTableRecord
  2
CUT
 70
     0
 62
     1
  6
CONTINUOUS
370
    -3
390
300
  0
LAYER
  5
376
330
2
100
AcDbSymbolTableRecord
100
AcDbLayerTableRecord
  2
NOCUT
 70
     0
 62
     7
  6
CONTINUOUS
370
    -3
390
300
  0
ENDTAB
  0
TABLE
  2
STYLE
  5
3
330
0
100
AcDbSymbolTable
 70
     4
  0
STYLE
  5
10
330
3
100
AcDbSymbolTableRecord
100
AcDbTextStyleTableRecord
  2
STANDARD
 70
     0
 40
0.0
 41
1.0
 50
0.0
 71
     0
 42
5.0
  3
txt
  4

  0
STYLE
  5
1D
330
3
100
AcDbSymbolTableRecord
100
AcDbTextStyleTableRecord
  2
TXT
 70
     0
 40
8.0
 41
1.0
 50
0.0
 71
     0
 42
8.0
  3
txt
  4

  0
STYLE
  5
1E
330
3
100
AcDbSymbolTableRecord
100
AcDbTextStyleTableRecord
  2
SIMPLEX
 70
     0
 40
0.0
 41
1.0
 50
0.0
 71
     0
 42
3.5
  3
simplex
  4

  0
STYLE
  5
34C
330
3
100
AcDbSymbolTableRecord
100
AcDbTextStyleTableRecord
  2

 70
     1
 40
0.0
 41
1.0
 50
0.0
 71
     0
 42
2.5
  3
ltypeshp.shx
  4

  0
ENDTAB
  0
TABLE
  2
VIEW
  5
6
330
0
100
AcDbSymbolTable
 70
     0
  0
ENDTAB
  0
TABLE
  2
UCS
  5
7
330
0
100
AcDbSymbolTable
 70
     0
  0
ENDTAB
  0
TABLE
  2
APPID
  5
9
330
0
100
AcDbSymbolTable
 70
     1
  0
APPID
  5
11
330
9
100
AcDbSymbolTableRecord
100
AcDbRegAppTableRecord
  2
ACAD
 70
     0
  0
ENDTAB
  0
TABLE
  2
DIMSTYLE
  5
A
330
0
100
AcDbSymbolTable
 70
     1
100
AcDbDimStyleTable
  0
DIMSTYLE
105
3F
102
{ACAD_REACTORS
330
59C
330
5AA
330
5B7
330
5C4
330
5D2
330
5DF
102
}
330
A
100
AcDbSymbolTableRecord
100
AcDbDimStyleTableRecord
  2
STANDARD
 70
     0
 41
2.5
 42
0.0
 43
3.75
 44
1.25
 73
     0
 74
     0
 77
     1
 78
     8
 79
     2
140
3.5
141
0.0
143
0.039370078
147
0.625
171
     3
178
     0
179
     2
271
     2
272
     2
274
     3
283
     0
284
     8
340
1E
  0
ENDTAB
  0
TABLE
  2
BLOCK_RECORD
  5
1
330
0
100
AcDbSymbolTable
 70
     6
  0
BLOCK_RECORD
  5
18
330
1
100
AcDbSymbolTableRecord
100
AcDbBlockTableRecord
  2
*MODEL_SPACE
340
303
  0
BLOCK_RECORD
  5
338
330
1
100
AcDbSymbolTableRecord
100
AcDbBlockTableRecord
  2
*Paper_Space
340
33B
  0
BLOCK_RECORD
  5
59D
330
1
100
AcDbSymbolTableRecord
100
AcDbBlockTableRecord
  2
*D0
340
0
  0
BLOCK_RECORD
  5
5AB
330
1
100
AcDbSymbolTableRecord
100
AcDbBlockTableRecord
  2
*D1
340
0
  0
BLOCK_RECORD
  5
5B8
330
1
100
AcDbSymbolTableRecord
100
AcDbBlockTableRecord
  2
*D2
340
0
  0
BLOCK_RECORD
  5
5C5
330
1
100
AcDbSymbolTableRecord
100
AcDbBlockTableRecord
  2
*D3
340
0
  0
BLOCK_RECORD
  5
5D3
330
1
100
AcDbSymbolTableRecord
100
AcDbBlockTableRecord
  2
*D4
340
0
  0
BLOCK_RECORD
  5
5E0
330
1
100
AcDbSymbolTableRecord
100
AcDbBlockTableRecord
  2
*D5
340
0
  0
ENDTAB
  0
ENDSEC
  0
SECTION
  2
BLOCKS
  0
BLOCK
  5
32
330
18
100
AcDbEntity
  8
0
100
AcDbBlockBegin
  2
*MODEL_SPACE
 70
     0
 10
0.0
 20
0.0
 30
0.0
  3
*MODEL_SPACE
  1

  0
ENDBLK
  5
33
330
18
100
AcDbEntity
  8
0
100
AcDbBlockEnd
  0
BLOCK
  5
339
330
338
100
AcDbEntity
 67
     1
  8
0
100
AcDbBlockBegin
  2
*Paper_Space
 70
     0
 10
0.0
 20
0.0
 30
0.0
  3
*Paper_Space
  1

  0
ENDBLK
  5
33A
330
338
100
AcDbEntity
 67
     1
  8
0
100
AcDbBlockEnd
  0
BLOCK
  5
59E
330
59D
100
AcDbEntity
  8
0
100
AcDbBlockBegin
  2
*D0
 70
     1
 10
0.0
 20
0.0
 30
0.0
  3
*D0
  1

  0
LINE
  5
5A0
330
59D
100
AcDbEntity
  8
2
 62
     0
370
    -2
100
AcDbLine
 10
27.5
 20
4.7625
 30
0.0
 11
43.74999999999998
 21
4.762500000000057
 31
0.0
  0
LINE
  5
5A1
330
59D
100
AcDbEntity
  8
2
 62
     0
370
    -2
100
AcDbLine
 10
27.5
 20
-4.7625
 30
0.0
 11
43.75000000000001
 21
-4.762499999999943
 31
0.0
  0
LINE
  5
5A2
330
59D
100
AcDbEntity
  8
2
 62
     0
370
    -2
100
AcDbLine
 10
42.50000000000001
 20
-4.762499999999948
 30
0.0
 11
42.50000000000008
 21
-22.69099999999995
 31
0.0
  0
LINE
  5
5A3
330
59D
100
AcDbEntity
  8
2
 62
     0
370
    -2
100
AcDbLine
 10
42.49999999999999
 20
2.262500000000053
 30
0.0
 11
42.50000000000001
 21
-2.262499999999948
 31
0.0
  0
SOLID
  5
5A4
330
59D
100
AcDbEntity
  8
2
 62
     0
100
AcDbTrace
 10
42.91666666666665
 20
2.262500000000054
 30
0.0
 11
42.08333333333332
 21
2.262500000000051
 31
0.0
 12
42.49999999999998
 22
4.762500000000053
 32
0.0
 13
42.49999999999998
 23
4.762500000000053
 33
0.0
  0
SOLID
  5
5A5
330
59D
100
AcDbEntity
  8
2
 62
     0
100
AcDbTrace
 10
42.08333333333334
 20
-2.262499999999949
 30
0.0
 11
42.91666666666667
 21
-2.262499999999946
 31
0.0
 12
42.50000000000001
 22
-4.762499999999948
 32
0.0
 13
42.50000000000001
 23
-4.762499999999948
 33
0.0
  0
MTEXT
  5
5A6
330
59D
100
AcDbEntity
  8
2
 62
     0
100
AcDbMText
 10
40.10225000000005
 20
-14.97674999999996
 30
0.0
 40
3.5
 41
0.0
 71
     5
 72
     1
  1
%%c9.53
  7
SIMPLEX
 11
-3.729883127349607E-15
 21
1.0
 31
0.0
 73
     1
 44
1.0
  0
POINT
  5
5A7
330
59D
100
AcDbEntity
  8
DEFPOINTS
 62
     0
100
AcDbPoint
 10
27.5
 20
4.7625
 30
0.0
  0
POINT
  5
5A8
330
59D
100
AcDbEntity
  8
DEFPOINTS
 62
     0
100
AcDbPoint
 10
27.5
 20
-4.7625
 30
0.0
  0
POINT
  5
5A9
330
59D
100
AcDbEntity
  8
DEFPOINTS
 62
     0
100
AcDbPoint
 10
42.50000000000001
 20
-4.762499999999948
 30
0.0
  0
ENDBLK
  5
59F
330
59D
100
AcDbEntity
  8
0
100
AcDbBlockEnd
  0
BLOCK
  5
5AC
330
5AB
100
AcDbEntity
  8
0
100
AcDbBlockBegin
  2
*D1
 70
     1
 10
0.0
 20
0.0
 30
0.0
  3
*D1
  1

  0
LINE
  5
5AE
330
5AB
100
AcDbEntity
  8
2
 62
     0
370
    -2
100
AcDbLine
 10
0.0
 20
0.0
 30
0.0
 11
0.0
 21
76.25
 31
0.0
  0
LINE
  5
5AF
330
5AB
100
AcDbEntity
  8
2
 62
     0
370
    -2
100
AcDbLine
 10
27.5
 20
0.0
 30
0.0
 11
27.5
 21
76.25
 31
0.0
  0
LINE
  5
5B0
330
5AB
100
AcDbEntity
  8
2
 62
     0
370
    -2
100
AcDbLine
 10
2.5
 20
75.0
 30
0.0
 11
25.0
 21
75.0
 31
0.0
  0
SOLID
  5
5B1
330
5AB
100
AcDbEntity
  8
2
 62
     0
100
AcDbTrace
 10
2.5
 20
75.41666666666667
 30
0.0
 11
2.5
 21
74.58333333333333
 31
0.0
 12
0.0
 22
75.0
 32
0.0
 13
0.0
 23
75.0
 33
0.0
  0
SOLID
  5
5B2
330
5AB
100
AcDbEntity
  8
2
 62
     0
100
AcDbTrace
 10
25.0
 20
74.58333333333333
 30
0.0
 11
25.0
 21
75.41666666666667
 31
0.0
 12
27.5
 22
75.0
 32
0.0
 13
27.5
 23
75.0
 33
0.0
  0
MTEXT
  5
5B3
330
5AB
100
AcDbEntity
  8
2
 62
     0
100
AcDbMText
 10
13.75
 20
77.39775
 30
0.0
 40
3.5
 41
0.0
 71
     5
 72
     1
  1
27.5
  7
SIMPLEX
 73
     1
 44
1.0
  0
POINT
  5
5B4
330
5AB
100
AcDbEntity
  8
DEFPOINTS
 62
     0
100
AcDbPoint
 10
0.0
 20
0.0
 30
0.0
  0
POINT
  5
5B5
330
5AB
100
AcDbEntity
  8
DEFPOINTS
 62
     0
100
AcDbPoint
 10
27.5
 20
0.0
 30
0.0
  0
POINT
  5
5B6
330
5AB
100
AcDbEntity
  8
DEFPOINTS
 62
     0
100
AcDbPoint
 10
27.5
 20
75.0
 30
0.0
  0
ENDBLK
  5
5AD
330
5AB
100
AcDbEntity
  8
0
100
AcDbBlockEnd
  0
BLOCK
  5
5B9
330
5B8
100
AcDbEntity
  8
0
100
AcDbBlockBegin
  2
*D2
 70
     1
 10
0.0
 20
0.0
 30
0.0
  3
*D2
  1

  0
LINE
  5
5BB
330
5B8
100
AcDbEntity
  8
2
 62
     0
370
    -2
100
AcDbLine
 10
5.300000000000001
 20
4.7625
 30
0.0
 11
5.300000000000001
 21
61.25
 31
0.0
  0
LINE
  5
5BC
330
5B8
100
AcDbEntity
  8
2
 62
     0
370
    -2
100
AcDbLine
 10
27.5
 20
4.7625
 30
0.0
 11
27.5
 21
61.25
 31
0.0
  0
LINE
  5
5BD
330
5B8
100
AcDbEntity
  8
2
 62
     0
370
    -2
100
AcDbLine
 10
7.800000000000001
 20
60.0
 30
0.0
 11
25.0
 21
60.0
 31
0.0
  0
SOLID
  5
5BE
330
5B8
100
AcDbEntity
  8
2
 62
     0
100
AcDbTrace
 10
7.800000000000001
 20
60.41666666666666
 30
0.0
 11
7.800000000000001
 21
59.58333333333334
 31
0.0
 12
5.300000000000001
 22
60.0
 32
0.0
 13
5.300000000000001
 23
60.0
 33
0.0
  0
SOLID
  5
5BF
330
5B8
100
AcDbEntity
  8
2
 62
     0
100
AcDbTrace
 10
25.0
 20
59.58333333333334
 30
0.0
 11
25.0
 21
60.41666666666666
 31
0.0
 12
27.5
 22
60.0
 32
0.0
 13
27.5
 23
60.0
 33
0.0
  0
MTEXT
  5
5C0
330
5B8
100
AcDbEntity
  8
2
 62
     0
100
AcDbMText
 10
16.4
 20
62.39775
 30
0.0
 40
3.5
 41
0.0
 71
     5
 72
     1
  1
22.2
  7
SIMPLEX
 73
     1
 44
1.0
  0
POINT
  5
5C1
330
5B8
100
AcDbEntity
  8
DEFPOINTS
 62
     0
100
AcDbPoint
 10
5.300000000000001
 20
4.7625
 30
0.0
  0
POINT
  5
5C2
330
5B8
100
AcDbEntity
  8
DEFPOINTS
 62
     0
100
AcDbPoint
 10
27.5
 20
4.7625
 30
0.0
  0
POINT
  5
5C3
330
5B8
100
AcDbEntity
  8
DEFPOINTS
 62
     0
100
AcDbPoint
 10
27.5
 20
60.0
 30
0.0
  0
ENDBLK
  5
5BA
330
5B8
100
AcDbEntity
  8
0
100
AcDbBlockEnd
  0
BLOCK
  5
5C6
330
5C5
100
AcDbEntity
  8
0
100
AcDbBlockBegin
  2
*D3
 70
     1
 10
0.0
 20
0.0
 30
0.0
  3
*D3
  1

  0
LINE
  5
5C8
330
5C5
100
AcDbEntity
  8
SK2
 62
     0
370
    -2
100
AcDbLine
 10
-36.0
 20
4.7625
 30
0.0
 11
-52.2500000000243
 21
4.762499999917071
 31
0.0
  0
LINE
  5
5C9
330
5C5
100
AcDbEntity
  8
SK2
 62
     0
370
    -2
100
AcDbLine
 10
-36.0
 20
-4.7625
 30
0.0
 11
-52.24999999997569
 21
-4.762500000082929
 31
0.0
  0
LINE
  5
5CA
330
5C5
100
AcDbEntity
  8
SK2
 62
     0
370
    -2
100
AcDbLine
 10
-50.99999999997569
 20
-4.76250000007655
 30
0.0
 11
-50.9999999998842
 21
-22.69100000007655
 31
0.0
  0
LINE
  5
5CB
330
5C5
100
AcDbEntity
  8
SK2
 62
     0
370
    -2
100
AcDbLine
 10
-51.00000000001154
 20
2.26249999992345
 30
0.0
 11
-50.99999999998845
 21
-2.26250000007655
 31
0.0
  0
SOLID
  5
5CC
330
5C5
100
AcDbEntity
  8
SK2
 62
     0
100
AcDbTrace
 10
-50.58333333334487
 20
2.262499999925576
 30
0.0
 11
-51.4166666666782
 21
2.262499999921324
 31
0.0
 12
-51.0000000000243
 22
4.76249999992345
 32
0.0
 13
-51.0000000000243
 23
4.76249999992345
 33
0.0
  0
SOLID
  5
5CD
330
5C5
100
AcDbEntity
  8
SK2
 62
     0
100
AcDbTrace
 10
-51.41666666665512
 20
-2.262500000078677
 30
0.0
 11
-50.58333333332179
 21
-2.262500000074424
 31
0.0
 12
-50.99999999997569
 22
-4.76250000007655
 32
0.0
 13
-50.99999999997569
 23
-4.76250000007655
 33
0.0
  0
MTEXT
  5
5CE
330
5C5
100
AcDbEntity
  8
SK2
 62
     0
100
AcDbMText
 10
-53.39774999992357
 20
-14.97675000008878
 30
0.0
 40
3.5
 41
0.0
 71
     5
 72
     1
  1
%%c9.53
  7
SIMPLEX
 11
-5.103226094839732E-12
 21
1.0
 31
0.0
 73
     1
 44
1.0
  0
POINT
  5
5CF
330
5C5
100
AcDbEntity
  8
DEFPOINTS
 62
     0
100
AcDbPoint
 10
-36.0
 20
4.7625
 30
0.0
  0
POINT
  5
5D0
330
5C5
100
AcDbEntity
  8
DEFPOINTS
 62
     0
100
AcDbPoint
 10
-36.0
 20
-4.7625
 30
0.0
  0
POINT
  5
5D1
330
5C5
100
AcDbEntity
  8
DEFPOINTS
 62
     0
100
AcDbPoint
 10
-50.99999999997569
 20
-4.76250000007655
 30
0.0
  0
ENDBLK
  5
5C7
330
5C5
100
AcDbEntity
  8
0
100
AcDbBlockEnd
  0
BLOCK
  5
5D4
330
5D3
100
AcDbEntity
  8
0
100
AcDbBlockBegin
  2
*D4
 70
     1
 10
0.0
 20
0.0
 30
0.0
  3
*D4
  1

  0
LINE
  5
5D6
330
5D3
100
AcDbEntity
  8
SK2
 62
     0
370
    -2
100
AcDbLine
 10
-36.0
 20
0.0
 30
0.0
 11
-36.0
 21
91.25
 31
0.0
  0
LINE
  5
5D7
330
5D3
100
AcDbEntity
  8
SK2
 62
     0
370
    -2
100
AcDbLine
 10
27.5
 20
0.0
 30
0.0
 11
27.5
 21
91.25
 31
0.0
  0
LINE
  5
5D8
330
5D3
100
AcDbEntity
  8
SK2
 62
     0
370
    -2
100
AcDbLine
 10
-33.5
 20
90.0
 30
0.0
 11
25.0
 21
90.0
 31
0.0
  0
SOLID
  5
5D9
330
5D3
100
AcDbEntity
  8
SK2
 62
     0
100
AcDbTrace
 10
-33.5
 20
90.41666666666667
 30
0.0
 11
-33.5
 21
89.58333333333333
 31
0.0
 12
-36.0
 22
90.0
 32
0.0
 13
-36.0
 23
90.0
 33
0.0
  0
SOLID
  5
5DA
330
5D3
100
AcDbEntity
  8
SK2
 62
     0
100
AcDbTrace
 10
25.0
 20
89.58333333333333
 30
0.0
 11
25.0
 21
90.41666666666667
 31
0.0
 12
27.5
 22
90.0
 32
0.0
 13
27.5
 23
90.0
 33
0.0
  0
MTEXT
  5
5DB
330
5D3
100
AcDbEntity
  8
SK2
 62
     0
100
AcDbMText
 10
-4.25
 20
92.39775
 30
0.0
 40
3.5
 41
0.0
 71
     5
 72
     1
  1
63.5
  7
SIMPLEX
 73
     1
 44
1.0
  0
POINT
  5
5DC
330
5D3
100
AcDbEntity
  8
DEFPOINTS
 62
     0
100
AcDbPoint
 10
-36.0
 20
0.0
 30
0.0
  0
POINT
  5
5DD
330
5D3
100
AcDbEntity
  8
DEFPOINTS
 62
     0
100
AcDbPoint
 10
27.5
 20
0.0
 30
0.0
  0
POINT
  5
5DE
330
5D3
100
AcDbEntity
  8
DEFPOINTS
 62
     0
100
AcDbPoint
 10
27.5
 20
90.0
 30
0.0
  0
ENDBLK
  5
5D5
330
5D3
100
AcDbEntity
  8
0
100
AcDbBlockEnd
  0
BLOCK
  5
5E1
330
5E0
100
AcDbEntity
  8
0
100
AcDbBlockBegin
  2
*D5
 70
     1
 10
0.0
 20
0.0
 30
0.0
  3
*D5
  1

  0
LINE
  5
5E3
330
5E0
100
AcDbEntity
  8
2
 62
     0
370
    -2
100
AcDbLine
 10
27.30444035554952
 20
-7.212942890325824
 30
0.0
 11
31.14601563522005
 21
-28.99959893261413
 31
0.0
  0
MTEXT
  5
5E4
330
5E0
100
AcDbEntity
  8
2
 62
     0
100
AcDbMText
 10
32.19633809566417
 20
-21.14818168130933
 30
0.0
 40
3.5
 41
0.0
 71
     5
 72
     1
  1
R0.76
  7
SIMPLEX
 11
0.1736481776669301
 21
-0.9848077530122081
 31
0.0
 73
     1
 44
1.0
  0
SOLID
  5
5E5
330
5E0
100
AcDbEntity
  8
2
 62
     0
100
AcDbTrace
 10
27.71477691930461
 20
-7.140589482964603
 30
0.0
 11
26.89410379179444
 21
-7.285296297687045
 31
0.0
 12
26.8703199113822
 22
-4.750923507795303
 32
0.0
 13
26.8703199113822
 23
-4.750923507795303
 33
0.0
  0
POINT
  5
5E6
330
5E0
100
AcDbEntity
  8
DEFPOINTS
 62
     0
100
AcDbPoint
 10
26.8703199113822
 20
-4.750923507795303
 30
0.0
  0
POINT
  5
5E7
330
5E0
100
AcDbEntity
  8
DEFPOINTS
 62
     0
100
AcDbPoint
 10
26.738
 20
-4.000500000000001
 30
0.0
  0
ENDBLK
  5
5E2
330
5E0
100
AcDbEntity
  8
0
100
AcDbBlockEnd
  0
ENDSEC
  0
SECTION
  2
ENTITIES
  0
LINE
  5
3D6
330
18
100
AcDbEntity
  8
SK4
100
AcDbLine
 10
-38.0
 20
0.0
 30
0.0
 11
5.299999999999997
 21
0.0
 31
0.0
  0
LINE
  5
3D7
330
18
100
AcDbEntity
  8
4
100
AcDbLine
 10
3.300000000000001
 20
0.0
 30
0.0
 11
29.5
 21
0.0
 31
0.0
  0
LINE
  5
3D8
330
18
100
AcDbEntity
  8
SK4
100
AcDbLine
 10
3.300000000000001
 20
0.0
 30
0.0
 11
29.5
 21
0.0
 31
0.0
  0
ARC
  5
3D9
330
18
100
AcDbEntity
  8
1
100
AcDbCircle
 10
2.02881945031529
 20
-9.128092604152002
 30
0.0
 40
12.04509040568932
100
AcDbArc
 50
74.2418439433705
 51
79.13134408586862
  0
LINE
  5
3DA
330
18
100
AcDbEntity
  8
1
100
AcDbLine
 10
5.300000000000001
 20
2.464321971299122
 30
0.0
 11
5.300000000000001
 21
4.066540582335465
 31
0.0
  0
LINE
  5
3DB
330
18
100
AcDbEntity
  8
1
100
AcDbLine
 10
5.300000000000001
 20
4.066540582335465
 30
0.0
 11
5.300000000000001
 21
4.066544528653745
 31
0.0
  0
LINE
  5
3DC
330
18
100
AcDbEntity
  8
1
100
AcDbLine
 10
4.300000000000008
 20
4.456810527116357
 30
0.0
 11
4.300000000000006
 21
0.4986121900650942
 31
0.0
  0
LINE
  5
3DD
330
18
100
AcDbEntity
  8
1
100
AcDbLine
 10
4.300000000000006
 20
-1.678763287478263
 30
0.0
 11
4.30000000000001
 21
-4.736326860967102
 31
0.0
  0
ARC
  5
3DE
330
18
100
AcDbEntity
  8
1
100
AcDbCircle
 10
4.861440008858266
 20
1.270306845626763
 30
0.0
 40
6.032814132657195
100
AcDbArc
 50
264.660078829174
 51
269.9848886128123
  0
LINE
  5
3DF
330
18
100
AcDbEntity
  8
1
100
AcDbLine
 10
4.859848895469631
 20
-4.762499980708548
 30
0.0
 11
4.859907251758181
 21
-4.762499985107148
 31
0.0
  0
LINE
  5
3E0
330
18
100
AcDbEntity
  8
1
100
AcDbLine
 10
4.859907251758181
 20
-4.762499985107148
 30
0.0
 11
4.860329712881323
 21
-4.762499999999642
 31
0.0
  0
ARC
  5
3E1
330
18
100
AcDbEntity
  8
1
100
AcDbCircle
 10
23.20208701442096
 20
20.91216167650833
 30
0.0
 40
29.45566823559653
100
AcDbArc
 50
230.0803890743524
 51
232.5716985584578
  0
LINE
  5
3E2
330
18
100
AcDbEntity
  8
1
100
AcDbLine
 10
4.300000000000004
 20
0.4986121900650946
 30
0.0
 11
5.299999999999993
 21
-0.3915217633008999
 31
0.0
  0
ARC
  5
3E3
330
18
100
AcDbEntity
  8
1
100
AcDbCircle
 10
1.837437416417392
 20
-3.322634852242379
 30
0.0
 40
8.159950914646142
100
AcDbArc
 50
64.89224360314914
 51
72.43495629984287
  0
ARC
  5
3E4
330
18
100
AcDbEntity
  8
1
100
AcDbCircle
 10
4.860020990816373
 20
-1.24835362891047
 30
0.0
 40
6.01085419153667
100
AcDbArc
 50
85.8023448865951
 51
89.9970572447055
  0
LINE
  5
3E5
330
18
100
AcDbEntity
  8
1
100
AcDbLine
 10
4.860329712881189
 20
4.7625
 30
0.0
 11
-0.0000000000000036
 21
4.7625
 31
0.0
  0
LINE
  5
3E6
330
18
100
AcDbEntity
  8
1
100
AcDbLine
 10
5.300000000000002
 20
4.746379352607816
 30
0.0
 11
5.300000000000001
 21
4.066544528653358
 31
0.0
  0
LINE
  5
3E7
330
18
100
AcDbEntity
  8
1
100
AcDbLine
 10
5.300000000000003
 20
-0.391521763300872
 30
0.0
 11
5.300000000000001
 21
2.464321971299122
 31
0.0
  0
LINE
  5
3E8
330
18
100
AcDbEntity
  8
1
100
AcDbLine
 10
5.300000000000002
 20
-0.3915217633009231
 30
0.0
 11
5.300000000000002
 21
-2.478841249902611
 31
0.0
  0
LINE
  5
3E9
330
18
100
AcDbEntity
  8
1
100
AcDbLine
 10
5.300000000000001
 20
-4.746379352607836
 30
0.0
 11
5.300000000000001
 21
-2.478843655411295
 31
0.0
  0
LINE
  5
3EA
330
18
100
AcDbEntity
  8
1
100
AcDbLine
 10
5.300000000000001
 20
-2.478843655411295
 30
0.0
 11
5.300000000000001
 21
-2.478841249902611
 31
0.0
  0
ARC
  5
3EB
330
18
100
AcDbEntity
  8
1
100
AcDbCircle
 10
4.860053823207428
 20
1.247368867362555
 30
0.0
 40
6.009869456591891
100
AcDbArc
 50
270.0026302260936
 51
274.1980301431858
  0
LINE
  5
3EC
330
18
100
AcDbEntity
  8
1
100
AcDbLine
 10
0.0000000000000004
 20
-4.762499999999998
 30
0.0
 11
4.860329712881323
 21
-4.762499999999998
 31
0.0
  0
LINE
  5
3ED
330
18
100
AcDbEntity
  8
1
 62
     1
100
AcDbLine
 10
27.5
 20
-3.243889336630231
 30
0.0
 11
27.49749437005855
 21
-3.328706040730412
 31
0.0
  0
LINE
  5
3EE
330
18
100
AcDbEntity
  8
1
 62
     1
100
AcDbLine
 10
27.49749437005855
 20
-3.328706040730412
 30
0.0
 11
27.48947411178615
 21
-3.413574005171189
 31
0.0
  0
LINE
  5
3EF
330
18
100
AcDbEntity
  8
1
 62
     1
100
AcDbLine
 10
27.48947411178615
 20
-3.413574005171189
 30
0.0
 11
27.48313442266928
 21
-3.455872458703324
 31
0.0
  0
LINE
  5
3F0
330
18
100
AcDbEntity
  8
1
 62
     1
100
AcDbLine
 10
27.48313442266928
 20
-3.455872458703324
 30
0.0
 11
27.47508460360374
 21
-3.497954372664358
 31
0.0
  0
LINE
  5
3F1
330
18
100
AcDbEntity
  8
1
 62
     1
100
AcDbLine
 10
27.47508460360374
 20
-3.497954372664358
 30
0.0
 11
27.46519819313928
 21
-3.539696128182818
 31
0.0
  0
LINE
  5
3F2
330
18
100
AcDbEntity
  8
1
 62
     1
100
AcDbLine
 10
27.46519819313928
 20
-3.539696128182818
 30
0.0
 11
27.45334858010294
 21
-3.580927505928553
 31
0.0
  0
LINE
  5
3F3
330
18
100
AcDbEntity
  8
1
 62
     1
100
AcDbLine
 10
27.45334858010294
 20
-3.580927505928553
 30
0.0
 11
27.43940986945097
 21
-3.621462098728712
 31
0.0
  0
LINE
  5
3F4
330
18
100
AcDbEntity
  8
1
 62
     1
100
AcDbLine
 10
27.43940986945097
 20
-3.621462098728712
 30
0.0
 11
27.42327470996974
 21
-3.661033165162106
 31
0.0
  0
LINE
  5
3F5
330
18
100
AcDbEntity
  8
1
 62
     1
100
AcDbLine
 10
27.42327470996974
 20
-3.661033165162106
 30
0.0
 11
27.40484883168891
 21
-3.699382694239064
 31
0.0
  0
LINE
  5
3F6
330
18
100
AcDbEntity
  8
1
 62
     1
100
AcDbLine
 10
27.40484883168891
 20
-3.699382694239064
 30
0.0
 11
27.38410690042715
 21
-3.736124294405557
 31
0.0
  0
LINE
  5
3F7
330
18
100
AcDbEntity
  8
1
 62
     1
100
AcDbLine
 10
27.38410690042715
 20
-3.736124294405557
 30
0.0
 11
27.37286065072372
 21
-3.753795432685582
 31
0.0
  0
LINE
  5
3F8
330
18
100
AcDbEntity
  8
1
 62
     1
100
AcDbLine
 10
27.37286065072372
 20
-3.753795432685582
 30
0.0
 11
27.36104253723449
 21
-3.770928763759715
 31
0.0
  0
LINE
  5
3F9
330
18
100
AcDbEntity
  8
1
 62
     1
100
AcDbLine
 10
27.36104253723449
 20
-3.770928763759715
 30
0.0
 11
27.34865275979372
 21
-3.787494389356692
 31
0.0
  0
LINE
  5
3FA
330
18
100
AcDbEntity
  8
1
 62
     1
100
AcDbLine
 10
27.34865275979372
 20
-3.787494389356692
 30
0.0
 11
27.33571852841489
 21
-3.80343286546995
 31
0.0
  0
LINE
  5
3FB
330
18
100
AcDbEntity
  8
1
 62
     1
100
AcDbLine
 10
27.33571852841489
 20
-3.80343286546995
 30
0.0
 11
27.32225514663763
 21
-3.818701039677741
 31
0.0
  0
LINE
  5
3FC
330
18
100
AcDbEntity
  8
1
 62
     1
100
AcDbLine
 10
27.32225514663763
 20
-3.818701039677741
 30
0.0
 11
27.30828008960714
 21
-3.83326956927815
 31
0.0
  0
LINE
  5
3FD
330
18
100
AcDbEntity
  8
1
 62
     1
100
AcDbLine
 10
27.30828008960714
 20
-3.83326956927815
 30
0.0
 11
27.29383578358928
 21
-3.847085829037535
 31
0.0
  0
LINE
  5
3FE
330
18
100
AcDbEntity
  8
1
 62
     1
100
AcDbLine
 10
27.29383578358928
 20
-3.847085829037535
 30
0.0
 11
27.27893987374622
 21
-3.860126728787241
 31
0.0
  0
LINE
  5
3FF
330
18
100
AcDbEntity
  8
1
 62
     1
100
AcDbLine
 10
27.27893987374622
 20
-3.860126728787241
 30
0.0
 11
27.26362878473731
 21
-3.872367307604323
 31
0.0
  0
LINE
  5
400
330
18
100
AcDbEntity
  8
1
 62
     1
100
AcDbLine
 10
27.26362878473731
 20
-3.872367307604323
 30
0.0
 11
27.24795028276057
 21
-3.883773822186182
 31
0.0
  0
LINE
  5
401
330
18
100
AcDbEntity
  8
1
 62
     1
100
AcDbLine
 10
27.24795028276057
 20
-3.883773822186182
 30
0.0
 11
27.23192369257291
 21
-3.894342827580142
 31
0.0
  0
LINE
  5
402
330
18
100
AcDbEntity
  8
1
 62
     1
100
AcDbLine
 10
27.23192369257291
 20
-3.894342827580142
 30
0.0
 11
27.2155961716509
 21
-3.904060683918272
 31
0.0
  0
LINE
  5
403
330
18
100
AcDbEntity
  8
1
 62
     1
100
AcDbLine
 10
27.2155961716509
 20
-3.904060683918272
 30
0.0
 11
27.19901050507355
 21
-3.912916592817595
 31
0.0
  0
LINE
  5
404
330
18
100
AcDbEntity
  8
1
 62
     1
100
AcDbLine
 10
27.19901050507355
 20
-3.912916592817595
 30
0.0
 11
27.1821874644161
 21
-3.920921338341234
 31
0.0
  0
LINE
  5
405
330
18
100
AcDbEntity
  8
1
 62
     1
100
AcDbLine
 10
27.1821874644161
 20
-3.920921338341234
 30
0.0
 11
27.16517555621956
 21
-3.928074667923009
 31
0.0
  0
LINE
  5
406
330
18
100
AcDbEntity
  8
1
 62
     1
100
AcDbLine
 10
27.16517555621956
 20
-3.928074667923009
 30
0.0
 11
27.14800423912651
 21
-3.934385732655499
 31
0.0
  0
LINE
  5
407
330
18
100
AcDbEntity
  8
1
 62
     1
100
AcDbLine
 10
27.14800423912651
 20
-3.934385732655499
 30
0.0
 11
27.13069717156472
 21
-3.939872308762003
 31
0.0
  0
LINE
  5
408
330
18
100
AcDbEntity
  8
1
 62
     1
100
AcDbLine
 10
27.13069717156472
 20
-3.939872308762003
 30
0.0
 11
27.11329587478518
 21
-3.944545980418484
 31
0.0
  0
LINE
  5
409
330
18
100
AcDbEntity
  8
1
 62
     1
100
AcDbLine
 10
27.11329587478518
 20
-3.944545980418484
 30
0.0
 11
27.09581609970329
 21
-3.948427338567032
 31
0.0
  0
LINE
  5
40A
330
18
100
AcDbEntity
  8
1
 62
     1
100
AcDbLine
 10
27.09581609970329
 20
-3.948427338567032
 30
0.0
 11
27.07828335970271
 21
-3.951537120950173
 31
0.0
  0
LINE
  5
40B
330
18
100
AcDbEntity
  8
1
 62
     1
100
AcDbLine
 10
27.07828335970271
 20
-3.951537120950173
 30
0.0
 11
27.06072741613044
 21
-3.953894637920039
 31
0.0
  0
LINE
  5
40C
330
18
100
AcDbEntity
  8
1
 62
     1
100
AcDbLine
 10
27.06072741613044
 20
-3.953894637920039
 30
0.0
 11
27.04315641236903
 21
-3.955523690651189
 31
0.0
  0
LINE
  5
40D
330
18
100
AcDbEntity
  8
1
 62
     1
100
AcDbLine
 10
27.04315641236903
 20
-3.955523690651189
 30
0.0
 11
27.02559399577521
 21
-3.956446474337517
 31
0.0
  0
LINE
  5
40E
330
18
100
AcDbEntity
  8
1
 62
     1
100
AcDbLine
 10
27.02559399577521
 20
-3.956446474337517
 30
0.0
 11
27.00805644732293
 21
-3.956685047602332
 31
0.0
  0
LINE
  5
40F
330
18
100
AcDbEntity
  8
1
 62
     1
100
AcDbLine
 10
27.00805644732293
 20
-3.956685047602332
 30
0.0
 11
26.99054654077697
 21
-3.956261962599774
 31
0.0
  0
LINE
  5
410
330
18
100
AcDbEntity
  8
1
 62
     1
100
AcDbLine
 10
26.99054654077697
 20
-3.956261962599774
 30
0.0
 11
26.97308272155403
 21
-3.955199380599981
 31
0.0
  0
LINE
  5
411
330
18
100
AcDbEntity
  8
1
 62
     1
100
AcDbLine
 10
26.97308272155403
 20
-3.955199380599981
 30
0.0
 11
26.95568386149627
 21
-3.953519451089203
 31
0.0
  0
LINE
  5
412
330
18
100
AcDbEntity
  8
1
 62
     1
100
AcDbLine
 10
26.95568386149627
 20
-3.953519451089203
 30
0.0
 11
26.92110763105202
 21
-3.948390248085893
 31
0.0
  0
LINE
  5
413
330
18
100
AcDbEntity
  8
1
 62
     1
100
AcDbLine
 10
26.92110763105202
 20
-3.948390248085893
 30
0.0
 11
26.88686053996295
 21
-3.941032646725709
 31
0.0
  0
LINE
  5
414
330
18
100
AcDbEntity
  8
1
 62
     1
100
AcDbLine
 10
26.88686053996295
 20
-3.941032646725709
 30
0.0
 11
26.85300776126633
 21
-3.931598083269466
 31
0.0
  0
LINE
  5
415
330
18
100
AcDbEntity
  8
1
 62
     1
100
AcDbLine
 10
26.85300776126633
 20
-3.931598083269466
 30
0.0
 11
26.81957009757128
 21
-3.920217629799496
 31
0.0
  0
LINE
  5
416
330
18
100
AcDbEntity
  8
1
 62
     1
100
AcDbLine
 10
26.81957009757128
 20
-3.920217629799496
 30
0.0
 11
26.78658916634884
 21
-3.907019087328652
 31
0.0
  0
LINE
  5
417
330
18
100
AcDbEntity
  8
1
 62
     1
100
AcDbLine
 10
26.78658916634884
 20
-3.907019087328652
 30
0.0
 11
26.76215495662457
 21
-3.89598963318716
 31
0.0
  0
LINE
  5
418
330
18
100
AcDbEntity
  8
1
 62
     1
100
AcDbLine
 10
26.76215495662457
 20
-3.89598963318716
 30
0.0
 11
26.738
 21
-3.884044935872424
 31
0.0
  0
LINE
  5
419
330
18
100
AcDbEntity
  8
1
 62
     1
100
AcDbLine
 10
27.5
 20
-4.000324774191971
 30
0.0
 11
27.49874572432454
 21
-4.043975460337299
 31
0.0
  0
LINE
  5
41A
330
18
100
AcDbEntity
  8
1
 62
     1
100
AcDbLine
 10
27.49874572432454
 20
-4.043975460337299
 30
0.0
 11
27.49500574958097
 21
-4.087382666125709
 31
0.0
  0
LINE
  5
41B
330
18
100
AcDbEntity
  8
1
 62
     1
100
AcDbLine
 10
27.49500574958097
 20
-4.087382666125709
 30
0.0
 11
27.4888123490316
 21
-4.130311254877311
 31
0.0
  0
LINE
  5
41C
330
18
100
AcDbEntity
  8
1
 62
     1
100
AcDbLine
 10
27.4888123490316
 20
-4.130311254877311
 30
0.0
 11
27.48024016248074
 21
-4.17254924577212
 31
0.0
  0
LINE
  5
41D
330
18
100
AcDbEntity
  8
1
 62
     1
100
AcDbLine
 10
27.48024016248074
 20
-4.17254924577212
 30
0.0
 11
27.4693754765565
 21
-4.213868019358388
 31
0.0
  0
LINE
  5
41E
330
18
100
AcDbEntity
  8
1
 62
     1
100
AcDbLine
 10
27.4693754765565
 20
-4.213868019358388
 30
0.0
 11
27.45633298938956
 21
-4.2540931977036
 31
0.0
  0
LINE
  5
41F
330
18
100
AcDbEntity
  8
1
 62
     1
100
AcDbLine
 10
27.45633298938956
 20
-4.2540931977036
 30
0.0
 11
27.44124054976939
 21
-4.293028637208294
 31
0.0
  0
LINE
  5
420
330
18
100
AcDbEntity
  8
1
 62
     1
100
AcDbLine
 10
27.44124054976939
 20
-4.293028637208294
 30
0.0
 11
27.42423421336237
 21
-4.330549566092666
 31
0.0
  0
LINE
  5
421
330
18
100
AcDbEntity
  8
1
 62
     1
100
AcDbLine
 10
27.42423421336237
 20
-4.330549566092666
 30
0.0
 11
27.40546385818647
 21
-4.366507495378902
 31
0.0
  0
LINE
  5
422
330
18
100
AcDbEntity
  8
1
 62
     1
100
AcDbLine
 10
27.40546385818647
 20
-4.366507495378902
 30
0.0
 11
27.38506849322839
 21
-4.40082725313632
 31
0.0
  0
LINE
  5
423
330
18
100
AcDbEntity
  8
1
 62
     1
100
AcDbLine
 10
27.38506849322839
 20
-4.40082725313632
 30
0.0
 11
27.36320109052648
 21
-4.433410129759514
 31
0.0
  0
LINE
  5
424
330
18
100
AcDbEntity
  8
1
 62
     1
100
AcDbLine
 10
27.36320109052648
 20
-4.433410129759514
 30
0.0
 11
27.33999044766502
 21
-4.464222098033003
 31
0.0
  0
LINE
  5
425
330
18
100
AcDbEntity
  8
1
 62
     1
100
AcDbLine
 10
27.33999044766502
 20
-4.464222098033003
 30
0.0
 11
27.31557929231311
 21
-4.49320710139042
 31
0.0
  0
LINE
  5
426
330
18
100
AcDbEntity
  8
1
 62
     1
100
AcDbLine
 10
27.31557929231311
 20
-4.49320710139042
 30
0.0
 11
27.29007943861855
 21
-4.520360628826062
 31
0.0
  0
LINE
  5
427
330
18
100
AcDbEntity
  8
1
 62
     1
100
AcDbLine
 10
27.29007943861855
 20
-4.520360628826062
 30
0.0
 11
27.26361657429245
 21
-4.54565841924078
 31
0.0
  0
LINE
  5
428
330
18
100
AcDbEntity
  8
1
 62
     1
100
AcDbLine
 10
27.26361657429245
 20
-4.54565841924078
 30
0.0
 11
27.23628377506856
 21
-4.569114533529992
 31
0.0
  0
LINE
  5
429
330
18
100
AcDbEntity
  8
1
 62
     1
100
AcDbLine
 10
27.23628377506856
 20
-4.569114533529992
 30
0.0
 11
27.20818791293838
 21
-4.590725921070709
 31
0.0
  0
LINE
  5
42A
330
18
100
AcDbEntity
  8
1
 62
     1
100
AcDbLine
 10
27.20818791293838
 20
-4.590725921070709
 30
0.0
 11
27.1794045490993
 21
-4.610516657789023
 31
0.0
  0
LINE
  5
42B
330
18
100
AcDbEntity
  8
1
 62
     1
100
AcDbLine
 10
27.1794045490993
 20
-4.610516657789023
 30
0.0
 11
27.15002291504218
 21
-4.628496406139362
 31
0.0
  0
LINE
  5
42C
330
18
100
AcDbEntity
  8
1
 62
     1
100
AcDbLine
 10
27.15002291504218
 20
-4.628496406139362
 30
0.0
 11
27.12010361729639
 21
-4.644693294553258
 31
0.0
  0
LINE
  5
42D
330
18
100
AcDbEntity
  8
1
 62
     1
100
AcDbLine
 10
27.12010361729639
 20
-4.644693294553258
 30
0.0
 11
27.08971684031907
 21
-4.659124966612002
 31
0.0
  0
LINE
  5
42E
330
18
100
AcDbEntity
  8
1
 62
     1
100
AcDbLine
 10
27.08971684031907
 20
-4.659124966612002
 30
0.0
 11
27.05890205115779
 21
-4.671822853688102
 31
0.0
  0
LINE
  5
42F
330
18
100
AcDbEntity
  8
1
 62
     1
100
AcDbLine
 10
27.05890205115779
 20
-4.671822853688102
 30
0.0
 11
27.0277363466809
 21
-4.682799917155765
 31
0.0
  0
LINE
  5
430
330
18
100
AcDbEntity
  8
1
 62
     1
100
AcDbLine
 10
27.0277363466809
 20
-4.682799917155765
 30
0.0
 11
26.9962713404271
 21
-4.692077035405462
 31
0.0
  0
LINE
  5
431
330
18
100
AcDbEntity
  8
1
 62
     1
100
AcDbLine
 10
26.9962713404271
 20
-4.692077035405462
 30
0.0
 11
26.9645250896169
 21
-4.699684486028192
 31
0.0
  0
LINE
  5
432
330
18
100
AcDbEntity
  8
1
 62
     1
100
AcDbLine
 10
26.9645250896169
 20
-4.699684486028192
 30
0.0
 11
26.93255980937199
 21
-4.705637516539519
 31
0.0
  0
LINE
  5
433
330
18
100
AcDbEntity
  8
1
 62
     1
100
AcDbLine
 10
26.93255980937199
 20
-4.705637516539519
 30
0.0
 11
26.90041544542964
 21
-4.709954452787085
 31
0.0
  0
LINE
  5
434
330
18
100
AcDbEntity
  8
1
 62
     1
100
AcDbLine
 10
26.90041544542964
 20
-4.709954452787085
 30
0.0
 11
26.86810382687416
 21
-4.712656577856746
 31
0.0
  0
LINE
  5
435
330
18
100
AcDbEntity
  8
1
 62
     1
100
AcDbLine
 10
26.86810382687416
 20
-4.712656577856746
 30
0.0
 11
26.8356783980513
 21
-4.713757990371273
 31
0.0
  0
LINE
  5
436
330
18
100
AcDbEntity
  8
1
 62
     1
100
AcDbLine
 10
26.8356783980513
 20
-4.713757990371273
 30
0.0
 11
26.80317254633176
 21
-4.713272549686877
 31
0.0
  0
LINE
  5
437
330
18
100
AcDbEntity
  8
1
 62
     1
100
AcDbLine
 10
26.80317254633176
 20
-4.713272549686877
 30
0.0
 11
26.77059655881556
 21
-4.711212949796082
 31
0.0
  0
LINE
  5
438
330
18
100
AcDbEntity
  8
1
 62
     1
100
AcDbLine
 10
26.77059655881556
 20
-4.711212949796082
 30
0.0
 11
26.738
 21
-4.707591049107346
 31
0.0
  0
LINE
  5
439
330
18
100
AcDbEntity
  8
1
 62
     1
100
AcDbLine
 10
5.299999999999997
 20
4.06654057963066
 30
0.0
 11
5.641697463620703
 21
3.899780352322003
 31
0.0
  0
LINE
  5
43A
330
18
100
AcDbEntity
  8
1
 62
     1
100
AcDbLine
 10
5.641697463620703
 20
3.899780352322003
 30
0.0
 11
5.983376270315945
 21
3.717081898833213
 31
0.0
  0
LINE
  5
43B
330
18
100
AcDbEntity
  8
1
 62
     1
100
AcDbLine
 10
5.983376270315945
 20
3.717081898833213
 30
0.0
 11
6.666767559511042
 21
3.306872886399856
 31
0.0
  0
LINE
  5
43C
330
18
100
AcDbEntity
  8
1
 62
     1
100
AcDbLine
 10
6.666767559511042
 20
3.306872886399856
 30
0.0
 11
7.350132525955017
 21
2.842641123997129
 31
0.0
  0
LINE
  5
43D
330
18
100
AcDbEntity
  8
1
 62
     1
100
AcDbLine
 10
7.350132525955017
 20
2.842641123997129
 30
0.0
 11
8.033519186531635
 21
2.33194021818357
 31
0.0
  0
LINE
  5
43E
330
18
100
AcDbEntity
  8
1
 62
     1
100
AcDbLine
 10
8.033519186531635
 20
2.33194021818357
 30
0.0
 11
9.400269388969823
 21
1.205203634851035
 31
0.0
  0
LINE
  5
43F
330
18
100
AcDbEntity
  8
1
 62
     1
100
AcDbLine
 10
9.400269388969823
 20
1.205203634851035
 30
0.0
 11
10.76703080978137
 21
-0.0000000000011193
 31
0.0
  0
LINE
  5
440
330
18
100
AcDbEntity
  8
1
 62
     1
100
AcDbLine
 10
5.299999999999999
 20
4.746379352607816
 30
0.0
 11
5.583455882324255
 21
4.718933855690544
 31
0.0
  0
LINE
  5
441
330
18
100
AcDbEntity
  8
1
 62
     1
100
AcDbLine
 10
5.583455882324255
 20
4.718933855690544
 30
0.0
 11
5.866918677264277
 21
4.67820795553763
 31
0.0
  0
LINE
  5
442
330
18
100
AcDbEntity
  8
1
 62
     1
100
AcDbLine
 10
5.866918677264277
 20
4.67820795553763
 30
0.0
 11
6.150385706339184
 21
4.624309275574483
 31
0.0
  0
LINE
  5
443
330
18
100
AcDbEntity
  8
1
 62
     1
100
AcDbLine
 10
6.150385706339184
 20
4.624309275574483
 30
0.0
 11
6.433837626298821
 21
4.557400433691316
 31
0.0
  0
LINE
  5
444
330
18
100
AcDbEntity
  8
1
 62
     1
100
AcDbLine
 10
6.433837626298821
 20
4.557400433691316
 30
0.0
 11
6.717314683238598
 21
4.477654929986637
 31
0.0
  0
LINE
  5
445
330
18
100
AcDbEntity
  8
1
 62
     1
100
AcDbLine
 10
6.717314683238598
 20
4.477654929986637
 30
0.0
 11
7.000763273098994
 21
4.385314661753235
 31
0.0
  0
LINE
  5
446
330
18
100
AcDbEntity
  8
1
 62
     1
100
AcDbLine
 10
7.000763273098994
 20
4.385314661753235
 30
0.0
 11
7.28423930377484
 21
4.280621924460711
 31
0.0
  0
LINE
  5
447
330
18
100
AcDbEntity
  8
1
 62
     1
100
AcDbLine
 10
7.28423930377484
 20
4.280621924460711
 30
0.0
 11
7.567692630101162
 21
4.163886682972251
 31
0.0
  0
LINE
  5
448
330
18
100
AcDbEntity
  8
1
 62
     1
100
AcDbLine
 10
7.567692630101162
 20
4.163886682972251
 30
0.0
 11
8.134623224890312
 21
3.895608554585468
 31
0.0
  0
LINE
  5
449
330
18
100
AcDbEntity
  8
1
 62
     1
100
AcDbLine
 10
8.134623224890312
 20
3.895608554585468
 30
0.0
 11
8.70155205264721
 21
3.583499823686491
 31
0.0
  0
LINE
  5
44A
330
18
100
AcDbEntity
  8
1
 62
     1
100
AcDbLine
 10
8.70155205264721
 20
3.583499823686491
 30
0.0
 11
9.268476384988904
 21
3.231073961372398
 31
0.0
  0
LINE
  5
44B
330
18
100
AcDbEntity
  8
1
 62
     1
100
AcDbLine
 10
9.268476384988904
 20
3.231073961372398
 30
0.0
 11
9.835393768458324
 21
2.842298890304717
 31
0.0
  0
LINE
  5
44C
330
18
100
AcDbEntity
  8
1
 62
     1
100
AcDbLine
 10
13.25181338336441
 20
4.762499999999999
 30
0.0
 11
13.56275971359277
 21
4.754433198987101
 31
0.0
  0
LINE
  5
44D
330
18
100
AcDbEntity
  8
1
 62
     1
100
AcDbLine
 10
13.56275971359277
 20
4.754433198987101
 30
0.0
 11
13.87368945494811
 21
4.730267221396241
 31
0.0
  0
LINE
  5
44E
330
18
100
AcDbEntity
  8
1
 62
     1
100
AcDbLine
 10
13.87368945494811
 20
4.730267221396241
 30
0.0
 11
14.18464516306895
 21
4.690077627063197
 31
0.0
  0
LINE
  5
44F
330
18
100
AcDbEntity
  8
1
 62
     1
100
AcDbLine
 10
14.18464516306895
 20
4.690077627063197
 30
0.0
 11
14.49558024424853
 21
4.634004328694278
 31
0.0
  0
LINE
  5
450
330
18
100
AcDbEntity
  8
1
 62
     1
100
AcDbLine
 10
14.49558024424853
 20
4.634004328694278
 30
0.0
 11
14.80651554963889
 21
4.562239544158546
 31
0.0
  0
LINE
  5
451
330
18
100
AcDbEntity
  8
1
 62
     1
100
AcDbLine
 10
14.80651554963889
 20
4.562239544158546
 30
0.0
 11
15.11747140200068
 21
4.475015691890848
 31
0.0
  0
LINE
  5
452
330
18
100
AcDbEntity
  8
1
 62
     1
100
AcDbLine
 10
15.11747140200068
 20
4.475015691890848
 30
0.0
 11
15.42840065917813
 21
4.372643487357337
 31
0.0
  0
LINE
  5
453
330
18
100
AcDbEntity
  8
1
 62
     1
100
AcDbLine
 10
15.42840065917813
 20
4.372643487357337
 30
0.0
 11
15.73934766872418
 21
4.255457952185774
 31
0.0
  0
LINE
  5
454
330
18
100
AcDbEntity
  8
1
 62
     1
100
AcDbLine
 10
15.73934766872418
 20
4.255457952185774
 30
0.0
 11
16.05029347354818
 21
4.123856962264439
 31
0.0
  0
LINE
  5
455
330
18
100
AcDbEntity
  8
1
 62
     1
100
AcDbLine
 10
16.05029347354818
 20
4.123856962264439
 30
0.0
 11
16.36122299244617
 21
3.978298430436098
 31
0.0
  0
LINE
  5
456
330
18
100
AcDbEntity
  8
1
 62
     1
100
AcDbLine
 10
16.36122299244617
 20
3.978298430436098
 30
0.0
 11
16.98311333034347
 21
3.647281679124857
 31
0.0
  0
LINE
  5
457
330
18
100
AcDbEntity
  8
1
 62
     1
100
AcDbLine
 10
16.98311333034347
 20
3.647281679124857
 30
0.0
 11
17.60500340624325
 21
3.266895302649261
 31
0.0
  0
LINE
  5
458
330
18
100
AcDbEntity
  8
1
 62
     1
100
AcDbLine
 10
17.60500340624325
 20
3.266895302649261
 30
0.0
 11
18.22687841799184
 21
2.842298471921203
 31
0.0
  0
LINE
  5
459
330
18
100
AcDbEntity
  8
1
 62
     1
100
AcDbLine
 10
10.7670308097824
 20
4.762500000000001
 30
0.0
 11
11.0292675377722
 21
4.756761476234741
 31
0.0
  0
LINE
  5
45A
330
18
100
AcDbEntity
  8
1
 62
     1
100
AcDbLine
 10
11.0292675377722
 20
4.756761476234741
 30
0.0
 11
11.29149865634442
 21
4.739567188891004
 31
0.0
  0
LINE
  5
45B
330
18
100
AcDbEntity
  8
1
 62
     1
100
AcDbLine
 10
11.29149865634442
 20
4.739567188891004
 30
0.0
 11
11.55374088477566
 21
4.710950364194055
 31
0.0
  0
LINE
  5
45C
330
18
100
AcDbEntity
  8
1
 62
     1
100
AcDbLine
 10
11.55374088477566
 20
4.710950364194055
 30
0.0
 11
11.81596755339832
 21
4.670989456752139
 31
0.0
  0
LINE
  5
45D
330
18
100
AcDbEntity
  8
1
 62
     1
100
AcDbLine
 10
11.81596755339832
 20
4.670989456752139
 30
0.0
 11
12.07821392681153
 21
4.619769391227998
 31
0.0
  0
LINE
  5
45E
330
18
100
AcDbEntity
  8
1
 62
     1
100
AcDbLine
 10
12.07821392681153
 20
4.619769391227998
 30
0.0
 11
12.34043739318654
 21
4.55742704317078
 31
0.0
  0
LINE
  5
45F
330
18
100
AcDbEntity
  8
1
 62
     1
100
AcDbLine
 10
12.34043739318654
 20
4.55742704317078
 30
0.0
 11
12.60268652892523
 21
4.484096803902382
 31
0.0
  0
LINE
  5
460
330
18
100
AcDbEntity
  8
1
 62
     1
100
AcDbLine
 10
12.60268652892523
 20
4.484096803902382
 30
0.0
 11
12.86490806186255
 21
4.399973461321901
 31
0.0
  0
LINE
  5
461
330
18
100
AcDbEntity
  8
1
 62
     1
100
AcDbLine
 10
12.86490806186255
 20
4.399973461321901
 30
0.0
 11
13.12715854370857
 21
4.305239379850677
 31
0.0
  0
LINE
  5
462
330
18
100
AcDbEntity
  8
1
 62
     1
100
AcDbLine
 10
13.12715854370857
 20
4.305239379850677
 30
0.0
 11
13.65162980772165
 21
4.084919837252391
 31
0.0
  0
LINE
  5
463
330
18
100
AcDbEntity
  8
1
 62
     1
100
AcDbLine
 10
13.65162980772165
 20
4.084919837252391
 30
0.0
 11
14.17610014132636
 21
3.825260238491701
 31
0.0
  0
LINE
  5
464
330
18
100
AcDbEntity
  8
1
 62
     1
100
AcDbLine
 10
14.17610014132636
 20
3.825260238491701
 30
0.0
 11
14.70056935144443
 21
3.528761547973089
 31
0.0
  0
LINE
  5
465
330
18
100
AcDbEntity
  8
1
 62
     1
100
AcDbLine
 10
14.70056935144443
 20
3.528761547973089
 30
0.0
 11
15.22503723967081
 21
3.198279545321324
 31
0.0
  0
LINE
  5
466
330
18
100
AcDbEntity
  8
1
 62
     1
100
AcDbLine
 10
15.22503723967081
 20
3.198279545321324
 30
0.0
 11
15.74950377238529
 21
2.836997202088977
 31
0.0
  0
LINE
  5
467
330
18
100
AcDbEntity
  8
1
 62
     1
100
AcDbLine
 10
15.74950377238529
 20
2.836997202088977
 30
0.0
 11
16.79843942792269
 21
2.036207538335919
 31
0.0
  0
LINE
  5
468
330
18
100
AcDbEntity
  8
1
 62
     1
100
AcDbLine
 10
16.79843942792269
 20
2.036207538335919
 30
0.0
 11
19.15851544608147
 21
-0.0000000000049107
 31
0.0
  0
LINE
  5
469
330
18
100
AcDbEntity
  8
1
 62
     1
100
AcDbLine
 10
27.5
 20
2.341192478566565
 30
0.0
 11
27.49996254565096
 21
2.339450355349592
 31
0.0
  0
LINE
  5
46A
330
18
100
AcDbEntity
  8
1
 62
     1
100
AcDbLine
 10
27.49996254565096
 20
2.339450355349592
 30
0.0
 11
27.49984921339309
 21
2.337747723733723
 31
0.0
  0
LINE
  5
46B
330
18
100
AcDbEntity
  8
1
 62
     1
100
AcDbLine
 10
27.49984921339309
 20
2.337747723733723
 30
0.0
 11
27.49965854941031
 21
2.336086091314435
 31
0.0
  0
LINE
  5
46C
330
18
100
AcDbEntity
  8
1
 62
     1
100
AcDbLine
 10
27.49965854941031
 20
2.336086091314435
 30
0.0
 11
27.49938909988646
 21
2.334466965687206
 31
0.0
  0
LINE
  5
46D
330
18
100
AcDbEntity
  8
1
 62
     1
100
AcDbLine
 10
27.49938909988646
 20
2.334466965687206
 30
0.0
 11
27.49903941100548
 21
2.332891854447512
 31
0.0
  0
LINE
  5
46E
330
18
100
AcDbEntity
  8
1
 62
     1
100
AcDbLine
 10
27.49903941100548
 20
2.332891854447512
 30
0.0
 11
27.49860802895124
 21
2.331362265190833
 31
0.0
  0
LINE
  5
46F
330
18
100
AcDbEntity
  8
1
 62
     1
100
AcDbLine
 10
27.49860802895124
 20
2.331362265190833
 30
0.0
 11
27.49809349990762
 21
2.329879705512645
 31
0.0
  0
LINE
  5
470
330
18
100
AcDbEntity
  8
1
 62
     1
100
AcDbLine
 10
27.49809349990762
 20
2.329879705512645
 30
0.0
 11
27.49749437005855
 21
2.328445683008427
 31
0.0
  0
LINE
  5
471
330
18
100
AcDbEntity
  8
1
 62
     1
100
AcDbLine
 10
27.49749437005855
 20
2.328445683008427
 30
0.0
 11
27.49680918558788
 21
2.327061705273654
 31
0.0
  0
LINE
  5
472
330
18
100
AcDbEntity
  8
1
 62
     1
100
AcDbLine
 10
27.49680918558788
 20
2.327061705273654
 30
0.0
 11
27.49603649267953
 21
2.325729279903806
 31
0.0
  0
LINE
  5
473
330
18
100
AcDbEntity
  8
1
 62
     1
100
AcDbLine
 10
27.49603649267953
 20
2.325729279903806
 30
0.0
 11
27.49517483751738
 21
2.32444991449436
 31
0.0
  0
LINE
  5
474
330
18
100
AcDbEntity
  8
1
 62
     1
100
AcDbLine
 10
27.49517483751738
 20
2.32444991449436
 30
0.0
 11
27.49422276628532
 21
2.323225116640794
 31
0.0
  0
LINE
  5
475
330
18
100
AcDbEntity
  8
1
 62
     1
100
AcDbLine
 10
27.49422276628532
 20
2.323225116640794
 30
0.0
 11
27.4931786655242
 21
2.322056345207854
 31
0.0
  0
LINE
  5
476
330
18
100
AcDbEntity
  8
1
 62
     1
100
AcDbLine
 10
27.4931786655242
 20
2.322056345207854
 30
0.0
 11
27.49204036897477
 21
2.320945129034497
 31
0.0
  0
LINE
  5
477
330
18
100
AcDbEntity
  8
1
 62
     1
100
AcDbLine
 10
27.49204036897477
 20
2.320945129034497
 30
0.0
 11
27.49080609532852
 21
2.319893402281908
 31
0.0
  0
LINE
  5
478
330
18
100
AcDbEntity
  8
1
 62
     1
100
AcDbLine
 10
27.49080609532852
 20
2.319893402281908
 30
0.0
 11
27.48947411178615
 21
2.318903126183316
 31
0.0
  0
LINE
  5
479
330
18
100
AcDbEntity
  8
1
 62
     1
100
AcDbLine
 10
27.48947411178615
 20
2.318903126183316
 30
0.0
 11
27.48804268554835
 21
2.317976261971946
 31
0.0
  0
LINE
  5
47A
330
18
100
AcDbEntity
  8
1
 62
     1
100
AcDbLine
 10
27.48804268554835
 20
2.317976261971946
 30
0.0
 11
27.48651008381581
 21
2.317114770881023
 31
0.0
  0
LINE
  5
47B
330
18
100
AcDbEntity
  8
1
 62
     1
100
AcDbLine
 10
27.48651008381581
 20
2.317114770881023
 30
0.0
 11
27.48487457378922
 21
2.316320614143775
 31
0.0
  0
LINE
  5
47C
330
18
100
AcDbEntity
  8
1
 62
     1
100
AcDbLine
 10
27.48487457378922
 20
2.316320614143775
 30
0.0
 11
27.48313442266928
 21
2.315595752993426
 31
0.0
  0
LINE
  5
47D
330
18
100
AcDbEntity
  8
1
 62
     1
100
AcDbLine
 10
27.48313442266928
 20
2.315595752993426
 30
0.0
 11
27.4812877834079
 21
2.314942127186114
 31
0.0
  0
LINE
  5
47E
330
18
100
AcDbEntity
  8
1
 62
     1
100
AcDbLine
 10
27.4812877834079
 20
2.314942127186114
 30
0.0
 11
27.47933190068601
 21
2.314361617350191
 31
0.0
  0
LINE
  5
47F
330
18
100
AcDbEntity
  8
1
 62
     1
100
AcDbLine
 10
27.47933190068601
 20
2.314361617350191
 30
0.0
 11
27.47726476562922
 21
2.313856450140091
 31
0.0
  0
LINE
  5
480
330
18
100
AcDbEntity
  8
1
 62
     1
100
AcDbLine
 10
27.47726476562922
 20
2.313856450140091
 30
0.0
 11
27.47508460360374
 21
2.313428915790668
 31
0.0
  0
LINE
  5
481
330
18
100
AcDbEntity
  8
1
 62
     1
100
AcDbLine
 10
27.47508460360374
 20
2.313428915790668
 30
0.0
 11
27.4727896399758
 21
2.313081304536779
 31
0.0
  0
LINE
  5
482
330
18
100
AcDbEntity
  8
1
 62
     1
100
AcDbLine
 10
27.4727896399758
 20
2.313081304536779
 30
0.0
 11
27.4703781001116
 21
2.312815906613279
 31
0.0
  0
LINE
  5
483
330
18
100
AcDbEntity
  8
1
 62
     1
100
AcDbLine
 10
27.4703781001116
 20
2.312815906613279
 30
0.0
 11
27.46784820937736
 21
2.312635012255022
 31
0.0
  0
LINE
  5
484
330
18
100
AcDbEntity
  8
1
 62
     1
100
AcDbLine
 10
27.46784820937736
 20
2.312635012255022
 30
0.0
 11
27.46242622481991
 21
2.312535900899932
 31
0.0
  0
LINE
  5
485
330
18
100
AcDbEntity
  8
1
 62
     1
100
AcDbLine
 10
27.46242622481991
 20
2.312535900899932
 30
0.0
 11
27.45650328290434
 21
2.312803163132089
 31
0.0
  0
LINE
  5
486
330
18
100
AcDbEntity
  8
1
 62
     1
100
AcDbLine
 10
27.45650328290434
 20
2.312803163132089
 30
0.0
 11
27.45006324537783
 21
2.313456142223953
 31
0.0
  0
LINE
  5
487
330
18
100
AcDbEntity
  8
1
 62
     1
100
AcDbLine
 10
27.45006324537783
 20
2.313456142223953
 30
0.0
 11
27.44309524807282
 21
2.314513727975306
 31
0.0
  0
LINE
  5
488
330
18
100
AcDbEntity
  8
1
 62
     1
100
AcDbLine
 10
27.44309524807282
 20
2.314513727975306
 30
0.0
 11
27.43558842682167
 21
2.315994810185921
 31
0.0
  0
LINE
  5
489
330
18
100
AcDbEntity
  8
1
 62
     1
100
AcDbLine
 10
27.43558842682167
 20
2.315994810185921
 30
0.0
 11
27.4275225597193
 21
2.317920790651494
 31
0.0
  0
LINE
  5
48A
330
18
100
AcDbEntity
  8
1
 62
     1
100
AcDbLine
 10
27.4275225597193
 20
2.317920790651494
 30
0.0
 11
27.40967061824706
 21
2.323177136198145
 31
0.0
  0
LINE
  5
48B
330
18
100
AcDbEntity
  8
1
 62
     1
100
AcDbLine
 10
27.40967061824706
 20
2.323177136198145
 30
0.0
 11
27.38951321728529
 21
2.330402734480221
 31
0.0
  0
LINE
  5
48C
330
18
100
AcDbEntity
  8
1
 62
     1
100
AcDbLine
 10
27.38951321728529
 20
2.330402734480221
 30
0.0
 11
27.3670240578392
 21
2.339700328445422
 31
0.0
  0
LINE
  5
48D
330
18
100
AcDbEntity
  8
1
 62
     1
100
AcDbLine
 10
27.3670240578392
 20
2.339700328445422
 30
0.0
 11
27.34225186126877
 21
2.351122308678883
 31
0.0
  0
LINE
  5
48E
330
18
100
AcDbEntity
  8
1
 62
     1
100
AcDbLine
 10
27.34225186126877
 20
2.351122308678883
 30
0.0
 11
27.28644298688212
 21
2.380219124706999
 31
0.0
  0
LINE
  5
48F
330
18
100
AcDbEntity
  8
1
 62
     1
100
AcDbLine
 10
27.28644298688212
 20
2.380219124706999
 30
0.0
 11
27.22379415829741
 21
2.416848074868772
 31
0.0
  0
LINE
  5
490
330
18
100
AcDbEntity
  8
1
 62
     1
100
AcDbLine
 10
27.22379415829741
 20
2.416848074868772
 30
0.0
 11
27.08705420368682
 21
2.505829310644326
 31
0.0
  0
LINE
  5
491
330
18
100
AcDbEntity
  8
1
 62
     1
100
AcDbLine
 10
27.08705420368682
 20
2.505829310644326
 30
0.0
 11
26.738
 21
2.7560118261945
 31
0.0
  0
LINE
  5
492
330
18
100
AcDbEntity
  8
1
 62
     1
100
AcDbLine
 10
27.5
 20
0.0374426359377348
 30
0.0
 11
27.49999992309912
 21
0.0374458860647812
 31
0.0
  0
LINE
  5
493
330
18
100
AcDbEntity
  8
1
 62
     1
100
AcDbLine
 10
27.49999992309912
 20
0.0374458860647812
 30
0.0
 11
27.49999969240736
 21
0.0374492514921014
 31
0.0
  0
LINE
  5
494
330
18
100
AcDbEntity
  8
1
 62
     1
100
AcDbLine
 10
27.49999969240736
 20
0.0374492514921014
 30
0.0
 11
27.49999930794106
 21
0.0374527322345344
 31
0.0
  0
LINE
  5
495
330
18
100
AcDbEntity
  8
1
 62
     1
100
AcDbLine
 10
27.49999930794106
 20
0.0374527322345344
 30
0.0
 11
27.49999876971658
 21
0.0374563283069195
 31
0.0
  0
LINE
  5
496
330
18
100
AcDbEntity
  8
1
 62
     1
100
AcDbLine
 10
27.49999876971658
 20
0.0374563283069195
 30
0.0
 11
27.49999723205847
 21
0.037463866500903
 31
0.0
  0
LINE
  5
497
330
18
100
AcDbEntity
  8
1
 62
     1
100
AcDbLine
 10
27.49999723205847
 20
0.037463866500903
 30
0.0
 11
27.49999507956375
 21
0.0374718661927656
 31
0.0
  0
LINE
  5
498
330
18
100
AcDbEntity
  8
1
 62
     1
100
AcDbLine
 10
27.49999507956375
 20
0.0374718661927656
 30
0.0
 11
27.49999231236321
 21
0.0374803275012211
 31
0.0
  0
LINE
  5
499
330
18
100
AcDbEntity
  8
1
 62
     1
100
AcDbLine
 10
27.49999231236321
 20
0.0374803275012211
 30
0.0
 11
27.49998893058758
 21
0.0374892505449833
 31
0.0
  0
LINE
  5
49A
330
18
100
AcDbEntity
  8
1
 62
     1
100
AcDbLine
 10
27.49998893058758
 20
0.0374892505449833
 30
0.0
 11
27.49998493436765
 21
0.0374986354427661
 31
0.0
  0
LINE
  5
49B
330
18
100
AcDbEntity
  8
1
 62
     1
100
AcDbLine
 10
27.49998493436765
 20
0.0374986354427661
 30
0.0
 11
27.49997509911792
 21
0.0375187912752482
 31
0.0
  0
LINE
  5
49C
330
18
100
AcDbEntity
  8
1
 62
     1
100
AcDbLine
 10
27.49997509911792
 20
0.0375187912752482
 30
0.0
 11
27.49996280766009
 21
0.0375407959483779
 31
0.0
  0
LINE
  5
49D
330
18
100
AcDbEntity
  8
1
 62
     1
100
AcDbLine
 10
27.49996280766009
 20
0.0375407959483779
 30
0.0
 11
27.49994806104026
 21
0.0375646504118655
 31
0.0
  0
LINE
  5
49E
330
18
100
AcDbEntity
  8
1
 62
     1
100
AcDbLine
 10
27.49994806104026
 20
0.0375646504118655
 30
0.0
 11
27.49991120649898
 21
0.0376179125087558
 31
0.0
  0
LINE
  5
49F
330
18
100
AcDbEntity
  8
1
 62
     1
100
AcDbLine
 10
27.49991120649898
 20
0.0376179125087558
 30
0.0
 11
27.49986454386283
 21
0.0376785851636017
 31
0.0
  0
LINE
  5
4A0
330
18
100
AcDbEntity
  8
1
 62
     1
100
AcDbLine
 10
27.49986454386283
 20
0.0376785851636017
 30
0.0
 11
27.49974182778095
 21
0.0378221925378915
 31
0.0
  0
LINE
  5
4A1
330
18
100
AcDbEntity
  8
1
 62
     1
100
AcDbLine
 10
27.49974182778095
 20
0.0378221925378915
 30
0.0
 11
27.49957997974467
 21
0.037995533316197
 31
0.0
  0
LINE
  5
4A2
330
18
100
AcDbEntity
  8
1
 62
     1
100
AcDbLine
 10
27.49957997974467
 20
0.037995533316197
 30
0.0
 11
27.49913915560912
 21
0.0384316582107035
 31
0.0
  0
LINE
  5
4A3
330
18
100
AcDbEntity
  8
1
 62
     1
100
AcDbLine
 10
27.49913915560912
 20
0.0384316582107035
 30
0.0
 11
27.49779086968735
 21
0.039663383232235
 31
0.0
  0
LINE
  5
4A4
330
18
100
AcDbEntity
  8
1
 62
     1
100
AcDbLine
 10
27.49779086968735
 20
0.039663383232235
 30
0.0
 11
26.738
 21
0.7211052380648051
 31
0.0
  0
LINE
  5
4A5
330
18
100
AcDbEntity
  8
1
 62
     1
100
AcDbLine
 10
27.5
 20
2.341192478566565
 30
0.0
 11
27.5
 21
0.0374426359377331
 31
0.0
  0
LINE
  5
4A6
330
18
100
AcDbEntity
  8
1
 62
     1
100
AcDbLine
 10
21.64329737603076
 20
4.7625
 30
0.0
 11
21.95424695523454
 21
4.754433078676735
 31
0.0
  0
LINE
  5
4A7
330
18
100
AcDbEntity
  8
1
 62
     1
100
AcDbLine
 10
21.95424695523454
 20
4.754433078676735
 30
0.0
 11
22.26517948636401
 21
4.730266624761792
 31
0.0
  0
LINE
  5
4A8
330
18
100
AcDbEntity
  8
1
 62
     1
100
AcDbLine
 10
22.26517948636401
 20
4.730266624761792
 30
0.0
 11
22.5761386248493
 21
4.690076345369397
 31
0.0
  0
LINE
  5
4A9
330
18
100
AcDbEntity
  8
1
 62
     1
100
AcDbLine
 10
22.5761386248493
 20
4.690076345369397
 30
0.0
 11
22.88707657713041
 21
4.634001993110125
 31
0.0
  0
LINE
  5
4AA
330
18
100
AcDbEntity
  8
1
 62
     1
100
AcDbLine
 10
22.88707657713041
 20
4.634001993110125
 30
0.0
 11
23.19801495496307
 21
4.562235885106053
 31
0.0
  0
LINE
  5
4AB
330
18
100
AcDbEntity
  8
1
 62
     1
100
AcDbLine
 10
23.19801495496307
 20
4.562235885106053
 30
0.0
 11
23.50897380739124
 21
4.475010424294721
 31
0.0
  0
LINE
  5
4AC
330
18
100
AcDbEntity
  8
1
 62
     1
100
AcDbLine
 10
23.50897380739124
 20
4.475010424294721
 30
0.0
 11
23.81990598123431
 21
4.372636285240146
 31
0.0
  0
LINE
  5
4AD
330
18
100
AcDbEntity
  8
1
 62
     1
100
AcDbLine
 10
23.81990598123431
 20
4.372636285240146
 30
0.0
 11
24.13085596364321
 21
4.255448611379363
 31
0.0
  0
LINE
  5
4AE
330
18
100
AcDbEntity
  8
1
 62
     1
100
AcDbLine
 10
24.13085596364321
 20
4.255448611379363
 30
0.0
 11
24.44180441703048
 21
4.123845006698247
 31
0.0
  0
LINE
  5
4AF
330
18
100
AcDbEntity
  8
1
 62
     1
100
AcDbLine
 10
24.44180441703048
 20
4.123845006698247
 30
0.0
 11
24.75273720445305
 21
3.978284022153532
 31
0.0
  0
LINE
  5
4B0
330
18
100
AcDbEntity
  8
1
 62
     1
100
AcDbLine
 10
24.75273720445305
 20
3.978284022153532
 30
0.0
 11
25.37463323026688
 21
3.64726120958275
 31
0.0
  0
LINE
  5
4B1
330
18
100
AcDbEntity
  8
1
 62
     1
100
AcDbLine
 10
25.37463323026688
 20
3.64726120958275
 30
0.0
 11
25.99652969932306
 21
3.266868623127448
 31
0.0
  0
LINE
  5
4B2
330
18
100
AcDbEntity
  8
1
 62
     1
100
AcDbLine
 10
25.99652969932306
 20
3.266868623127448
 30
0.0
 11
26.61836333167861
 21
2.842296442675754
 31
0.0
  0
LINE
  5
4B3
330
18
100
AcDbEntity
  8
1
 62
     1
100
AcDbLine
 10
21.64329737603076
 20
4.7625
 30
0.0
 11
19.15851544608312
 21
4.7625
 31
0.0
  0
LINE
  5
4B4
330
18
100
AcDbEntity
  8
1
 62
     1
100
AcDbLine
 10
19.15851544608312
 20
4.762499999999999
 30
0.0
 11
19.3953754518259
 21
4.757817873254094
 31
0.0
  0
LINE
  5
4B5
330
18
100
AcDbEntity
  8
1
 62
     1
100
AcDbLine
 10
19.3953754518259
 20
4.757817873254094
 30
0.0
 11
19.63224086241167
 21
4.74378725738269
 31
0.0
  0
LINE
  5
4B6
330
18
100
AcDbEntity
  8
1
 62
     1
100
AcDbLine
 10
19.63224086241167
 20
4.74378725738269
 30
0.0
 11
19.86909552956483
 21
4.720430227957033
 31
0.0
  0
LINE
  5
4B7
330
18
100
AcDbEntity
  8
1
 62
     1
100
AcDbLine
 10
19.86909552956483
 20
4.720430227957033
 30
0.0
 11
20.10596509213068
 21
4.687796294447899
 31
0.0
  0
LINE
  5
4B8
330
18
100
AcDbEntity
  8
1
 62
     1
100
AcDbLine
 10
20.10596509213068
 20
4.687796294447899
 30
0.0
 11
20.34281571926995
 21
4.645948700910736
 31
0.0
  0
LINE
  5
4B9
330
18
100
AcDbEntity
  8
1
 62
     1
100
AcDbLine
 10
20.34281571926995
 20
4.645948700910736
 30
0.0
 11
20.57968831272411
 21
4.594967392265008
 31
0.0
  0
LINE
  5
4BA
330
18
100
AcDbEntity
  8
1
 62
     1
100
AcDbLine
 10
20.57968831272411
 20
4.594967392265008
 30
0.0
 11
20.81653612208128
 21
4.534958506142273
 31
0.0
  0
LINE
  5
4BB
330
18
100
AcDbEntity
  8
1
 62
     1
100
AcDbLine
 10
20.81653612208128
 20
4.534958506142273
 30
0.0
 11
21.2902568490064
 21
4.38833172171808
 31
0.0
  0
LINE
  5
4BC
330
18
100
AcDbEntity
  8
1
 62
     1
100
AcDbLine
 10
21.2902568490064
 20
4.38833172171808
 30
0.0
 11
21.76397800171873
 21
4.207220442223568
 31
0.0
  0
LINE
  5
4BD
330
18
100
AcDbEntity
  8
1
 62
     1
100
AcDbLine
 10
21.76397800171873
 20
4.207220442223568
 30
0.0
 11
22.23769966844555
 21
3.993047728623157
 31
0.0
  0
LINE
  5
4BE
330
18
100
AcDbEntity
  8
1
 62
     1
100
AcDbLine
 10
22.23769966844555
 20
3.993047728623157
 30
0.0
 11
22.71142192268684
 21
3.747496428948033
 31
0.0
  0
LINE
  5
4BF
330
18
100
AcDbEntity
  8
1
 62
     1
100
AcDbLine
 10
22.71142192268684
 20
3.747496428948033
 30
0.0
 11
23.18514482717327
 21
3.472495961632132
 31
0.0
  0
LINE
  5
4C0
330
18
100
AcDbEntity
  8
1
 62
     1
100
AcDbLine
 10
23.18514482717327
 20
3.472495961632132
 30
0.0
 11
23.65886843623333
 21
3.170207162547537
 31
0.0
  0
LINE
  5
4C1
330
18
100
AcDbEntity
  8
1
 62
     1
100
AcDbLine
 10
23.65886843623333
 20
3.170207162547537
 30
0.0
 11
24.60631717424791
 21
2.493462253398448
 31
0.0
  0
LINE
  5
4C2
330
18
100
AcDbEntity
  8
1
 62
     1
100
AcDbLine
 10
24.60631717424791
 20
2.493462253398448
 30
0.0
 11
25.55376320222625
 21
1.738496052054594
 31
0.0
  0
LINE
  5
4C3
330
18
100
AcDbEntity
  8
1
 62
     1
100
AcDbLine
 10
25.55376320222625
 20
1.738496052054594
 30
0.0
 11
26.738
 21
0.7211052380647962
 31
0.0
  0
LINE
  5
4C4
330
18
100
AcDbEntity
  8
1
 62
     1
100
AcDbLine
 10
27.50000000000001
 20
4.000324774191971
 30
0.0
 11
27.49874572432455
 21
4.0439754603373
 31
0.0
  0
LINE
  5
4C5
330
18
100
AcDbEntity
  8
1
 62
     1
100
AcDbLine
 10
27.49874572432455
 20
4.0439754603373
 30
0.0
 11
27.49500574958097
 21
4.087382666125709
 31
0.0
  0
LINE
  5
4C6
330
18
100
AcDbEntity
  8
1
 62
     1
100
AcDbLine
 10
27.49500574958097
 20
4.087382666125709
 30
0.0
 11
27.4888123490316
 21
4.130311254877311
 31
0.0
  0
LINE
  5
4C7
330
18
100
AcDbEntity
  8
1
 62
     1
100
AcDbLine
 10
27.4888123490316
 20
4.130311254877311
 30
0.0
 11
27.48024016248073
 21
4.172549245772118
 31
0.0
  0
LINE
  5
4C8
330
18
100
AcDbEntity
  8
1
 62
     1
100
AcDbLine
 10
27.48024016248073
 20
4.172549245772118
 30
0.0
 11
27.46937547655649
 21
4.213868019358386
 31
0.0
  0
LINE
  5
4C9
330
18
100
AcDbEntity
  8
1
 62
     1
100
AcDbLine
 10
27.46937547655649
 20
4.213868019358386
 30
0.0
 11
27.45633298938956
 21
4.254093197703599
 31
0.0
  0
LINE
  5
4CA
330
18
100
AcDbEntity
  8
1
 62
     1
100
AcDbLine
 10
27.45633298938956
 20
4.254093197703599
 30
0.0
 11
27.44124054976939
 21
4.293028637208295
 31
0.0
  0
LINE
  5
4CB
330
18
100
AcDbEntity
  8
1
 62
     1
100
AcDbLine
 10
27.44124054976939
 20
4.293028637208295
 30
0.0
 11
27.42423421336237
 21
4.330549566092668
 31
0.0
  0
LINE
  5
4CC
330
18
100
AcDbEntity
  8
1
 62
     1
100
AcDbLine
 10
27.42423421336237
 20
4.330549566092668
 30
0.0
 11
27.40546385818647
 21
4.366507495378904
 31
0.0
  0
LINE
  5
4CD
330
18
100
AcDbEntity
  8
1
 62
     1
100
AcDbLine
 10
27.40546385818647
 20
4.366507495378904
 30
0.0
 11
27.3850684932284
 21
4.400827253136319
 31
0.0
  0
LINE
  5
4CE
330
18
100
AcDbEntity
  8
1
 62
     1
100
AcDbLine
 10
27.3850684932284
 20
4.400827253136319
 30
0.0
 11
27.36320109052648
 21
4.433410129759515
 31
0.0
  0
LINE
  5
4CF
330
18
100
AcDbEntity
  8
1
 62
     1
100
AcDbLine
 10
27.36320109052648
 20
4.433410129759515
 30
0.0
 11
27.33999044766503
 21
4.464222098033011
 31
0.0
  0
LINE
  5
4D0
330
18
100
AcDbEntity
  8
1
 62
     1
100
AcDbLine
 10
27.33999044766503
 20
4.464222098033011
 30
0.0
 11
27.31557929231311
 21
4.493207101390425
 31
0.0
  0
LINE
  5
4D1
330
18
100
AcDbEntity
  8
1
 62
     1
100
AcDbLine
 10
27.31557929231311
 20
4.493207101390425
 30
0.0
 11
27.29007943861856
 21
4.520360628826064
 31
0.0
  0
LINE
  5
4D2
330
18
100
AcDbEntity
  8
1
 62
     1
100
AcDbLine
 10
27.29007943861856
 20
4.520360628826064
 30
0.0
 11
27.26361657429244
 21
4.545658419240784
 31
0.0
  0
LINE
  5
4D3
330
18
100
AcDbEntity
  8
1
 62
     1
100
AcDbLine
 10
27.26361657429244
 20
4.545658419240784
 30
0.0
 11
27.23628377506856
 21
4.569114533529997
 31
0.0
  0
LINE
  5
4D4
330
18
100
AcDbEntity
  8
1
 62
     1
100
AcDbLine
 10
27.23628377506856
 20
4.569114533529997
 30
0.0
 11
27.20818791293838
 21
4.590725921070716
 31
0.0
  0
LINE
  5
4D5
330
18
100
AcDbEntity
  8
1
 62
     1
100
AcDbLine
 10
27.20818791293838
 20
4.590725921070716
 30
0.0
 11
27.17940454909931
 21
4.61051665778903
 31
0.0
  0
LINE
  5
4D6
330
18
100
AcDbEntity
  8
1
 62
     1
100
AcDbLine
 10
27.17940454909931
 20
4.61051665778903
 30
0.0
 11
27.15002291504218
 21
4.628496406139367
 31
0.0
  0
LINE
  5
4D7
330
18
100
AcDbEntity
  8
1
 62
     1
100
AcDbLine
 10
27.15002291504218
 20
4.628496406139367
 30
0.0
 11
27.12010361729639
 21
4.644693294553258
 31
0.0
  0
LINE
  5
4D8
330
18
100
AcDbEntity
  8
1
 62
     1
100
AcDbLine
 10
27.12010361729639
 20
4.644693294553258
 30
0.0
 11
27.08971684031907
 21
4.659124966612003
 31
0.0
  0
LINE
  5
4D9
330
18
100
AcDbEntity
  8
1
 62
     1
100
AcDbLine
 10
27.08971684031907
 20
4.659124966612003
 30
0.0
 11
27.05890205115779
 21
4.6718228536881
 31
0.0
  0
LINE
  5
4DA
330
18
100
AcDbEntity
  8
1
 62
     1
100
AcDbLine
 10
27.05890205115779
 20
4.6718228536881
 30
0.0
 11
27.02773634668089
 21
4.682799917155762
 31
0.0
  0
LINE
  5
4DB
330
18
100
AcDbEntity
  8
1
 62
     1
100
AcDbLine
 10
27.02773634668089
 20
4.682799917155762
 30
0.0
 11
26.99627134042709
 21
4.692077035405461
 31
0.0
  0
LINE
  5
4DC
330
18
100
AcDbEntity
  8
1
 62
     1
100
AcDbLine
 10
26.99627134042709
 20
4.692077035405461
 30
0.0
 11
26.9645250896169
 21
4.699684486028191
 31
0.0
  0
LINE
  5
4DD
330
18
100
AcDbEntity
  8
1
 62
     1
100
AcDbLine
 10
26.9645250896169
 20
4.699684486028191
 30
0.0
 11
26.93255980937198
 21
4.705637516539516
 31
0.0
  0
LINE
  5
4DE
330
18
100
AcDbEntity
  8
1
 62
     1
100
AcDbLine
 10
26.93255980937198
 20
4.705637516539516
 30
0.0
 11
26.90041544542964
 21
4.709954452787086
 31
0.0
  0
LINE
  5
4DF
330
18
100
AcDbEntity
  8
1
 62
     1
100
AcDbLine
 10
26.90041544542964
 20
4.709954452787086
 30
0.0
 11
26.86810382687415
 21
4.712656577856745
 31
0.0
  0
LINE
  5
4E0
330
18
100
AcDbEntity
  8
1
 62
     1
100
AcDbLine
 10
26.86810382687415
 20
4.712656577856745
 30
0.0
 11
26.83567839805129
 21
4.713757990371272
 31
0.0
  0
LINE
  5
4E1
330
18
100
AcDbEntity
  8
1
 62
     1
100
AcDbLine
 10
26.83567839805129
 20
4.713757990371272
 30
0.0
 11
26.80317254633175
 21
4.713272549686876
 31
0.0
  0
LINE
  5
4E2
330
18
100
AcDbEntity
  8
1
 62
     1
100
AcDbLine
 10
26.80317254633175
 20
4.713272549686876
 30
0.0
 11
26.77059655881556
 21
4.711212949796082
 31
0.0
  0
LINE
  5
4E3
330
18
100
AcDbEntity
  8
1
 62
     1
100
AcDbLine
 10
26.77059655881556
 20
4.711212949796082
 30
0.0
 11
26.738
 21
4.707591049107345
 31
0.0
  0
LINE
  5
4E4
330
18
100
AcDbEntity
  8
1
 62
     1
100
AcDbLine
 10
27.5
 20
2.885953413164785
 30
0.0
 11
27.5
 21
4.000324774191972
 31
0.0
  0
LINE
  5
4E5
330
18
100
AcDbEntity
  8
1
 62
     1
100
AcDbLine
 10
27.5
 20
0.0270122325265972
 30
0.0
 11
27.5
 21
0.0374426359377327
 31
0.0
  0
LINE
  5
4E6
330
18
100
AcDbEntity
  8
1
 62
     1
100
AcDbLine
 10
27.5
 20
0.0270122325265972
 30
0.0
 11
27.5
 21
-3.243889336630234
 31
0.0
  0
LINE
  5
4E7
330
18
100
AcDbEntity
  8
1
 62
     1
100
AcDbLine
 10
27.5
 20
-3.243889336630233
 30
0.0
 11
27.5
 21
-4.000324774191971
 31
0.0
  0
LINE
  5
4E8
330
18
100
AcDbEntity
  8
1
 62
     1
100
AcDbLine
 10
5.299999999999999
 20
-2.478841248253842
 30
0.0
 11
5.983376270315787
 21
-2.977363507286202
 31
0.0
  0
LINE
  5
4E9
330
18
100
AcDbEntity
  8
1
 62
     1
100
AcDbLine
 10
5.983376270315787
 20
-2.977363507286202
 30
0.0
 11
6.666767559510726
 21
-3.42724222167146
 31
0.0
  0
LINE
  5
4EA
330
18
100
AcDbEntity
  8
1
 62
     1
100
AcDbLine
 10
6.666767559510726
 20
-3.42724222167146
 30
0.0
 11
7.350132525954544
 21
-3.821098518081791
 31
0.0
  0
LINE
  5
4EB
330
18
100
AcDbEntity
  8
1
 62
     1
100
AcDbLine
 10
7.350132525954544
 20
-3.821098518081791
 30
0.0
 11
7.691836312830429
 21
-3.994985178815787
 31
0.0
  0
LINE
  5
4EC
330
18
100
AcDbEntity
  8
1
 62
     1
100
AcDbLine
 10
7.691836312830429
 20
-3.994985178815787
 30
0.0
 11
8.033519186531008
 21
-4.152522675818835
 31
0.0
  0
LINE
  5
4ED
330
18
100
AcDbEntity
  8
1
 62
     1
100
AcDbLine
 10
8.033519186531008
 20
-4.152522675818835
 30
0.0
 11
8.375200491962662
 21
-4.293080057137994
 31
0.0
  0
LINE
  5
4EE
330
18
100
AcDbEntity
  8
1
 62
     1
100
AcDbLine
 10
8.375200491962662
 20
-4.293080057137994
 30
0.0
 11
8.716903318904498
 21
-4.416088288597649
 31
0.0
  0
LINE
  5
4EF
330
18
100
AcDbEntity
  8
1
 62
     1
100
AcDbLine
 10
8.716903318904498
 20
-4.416088288597649
 30
0.0
 11
9.058590265029075
 21
-4.521028947667922
 31
0.0
  0
LINE
  5
4F0
330
18
100
AcDbEntity
  8
1
 62
     1
100
AcDbLine
 10
9.058590265029075
 20
-4.521028947667922
 30
0.0
 11
9.400269388968875
 21
-4.607480869801439
 31
0.0
  0
LINE
  5
4F1
330
18
100
AcDbEntity
  8
1
 62
     1
100
AcDbLine
 10
9.400269388968875
 20
-4.607480869801439
 30
0.0
 11
9.74196820175918
 21
-4.675095235280769
 31
0.0
  0
LINE
  5
4F2
330
18
100
AcDbEntity
  8
1
 62
     1
100
AcDbLine
 10
9.74196820175918
 20
-4.675095235280769
 30
0.0
 11
10.08366071135003
 21
-4.723586326834104
 31
0.0
  0
LINE
  5
4F3
330
18
100
AcDbEntity
  8
1
 62
     1
100
AcDbLine
 10
10.08366071135003
 20
-4.723586326834104
 30
0.0
 11
10.42533906945807
 21
-4.75276018442305
 31
0.0
  0
LINE
  5
4F4
330
18
100
AcDbEntity
  8
1
 62
     1
100
AcDbLine
 10
10.42533906945807
 20
-4.75276018442305
 30
0.0
 11
10.76703080978011
 21
-4.762499999899808
 31
0.0
  0
LINE
  5
4F5
330
18
100
AcDbEntity
  8
1
 62
     1
100
AcDbLine
 10
5.299999999999993
 20
-0.3915217633008999
 30
0.0
 11
7.28796674305977
 21
-2.090491523853611
 31
0.0
  0
LINE
  5
4F6
330
18
100
AcDbEntity
  8
1
 62
     1
100
AcDbLine
 10
7.28796674305977
 20
-2.090491523853611
 30
0.0
 11
8.281949643675073
 21
-2.846017364213665
 31
0.0
  0
LINE
  5
4F7
330
18
100
AcDbEntity
  8
1
 62
     1
100
AcDbLine
 10
8.281949643675073
 20
-2.846017364213665
 30
0.0
 11
8.778940943251639
 21
-3.188446337665958
 31
0.0
  0
LINE
  5
4F8
330
18
100
AcDbEntity
  8
1
 62
     1
100
AcDbLine
 10
8.778940943251639
 20
-3.188446337665958
 30
0.0
 11
9.275931957460559
 21
-3.503299823655251
 31
0.0
  0
LINE
  5
4F9
330
18
100
AcDbEntity
  8
1
 62
     1
100
AcDbLine
 10
9.275931957460559
 20
-3.503299823655251
 30
0.0
 11
9.772922771350313
 21
-3.787854687115901
 31
0.0
  0
LINE
  5
4FA
330
18
100
AcDbEntity
  8
1
 62
     1
100
AcDbLine
 10
9.772922771350313
 20
-3.787854687115901
 30
0.0
 11
10.26991356257648
 21
-4.039649807972508
 31
0.0
  0
LINE
  5
4FB
330
18
100
AcDbEntity
  8
1
 62
     1
100
AcDbLine
 10
10.26991356257648
 20
-4.039649807972508
 30
0.0
 11
10.76690435727873
 21
-4.256507524804407
 31
0.0
  0
LINE
  5
4FC
330
18
100
AcDbEntity
  8
1
 62
     1
100
AcDbLine
 10
10.76690435727873
 20
-4.256507524804407
 30
0.0
 11
11.26389520380607
 21
-4.436552334483793
 31
0.0
  0
LINE
  5
4FD
330
18
100
AcDbEntity
  8
1
 62
     1
100
AcDbLine
 10
11.26389520380607
 20
-4.436552334483793
 30
0.0
 11
11.51237583732198
 21
-4.512266252634366
 31
0.0
  0
LINE
  5
4FE
330
18
100
AcDbEntity
  8
1
 62
     1
100
AcDbLine
 10
11.51237583732198
 20
-4.512266252634366
 30
0.0
 11
11.7608860913062
 21
-4.578227154153777
 31
0.0
  0
LINE
  5
4FF
330
18
100
AcDbEntity
  8
1
 62
     1
100
AcDbLine
 10
11.7608860913062
 20
-4.578227154153777
 30
0.0
 11
12.00936657255915
 21
-4.634276612528728
 31
0.0
  0
LINE
  5
500
330
18
100
AcDbEntity
  8
1
 62
     1
100
AcDbLine
 10
12.00936657255915
 20
-4.634276612528728
 30
0.0
 11
12.25787695167773
 21
-4.680306758894428
 31
0.0
  0
LINE
  5
501
330
18
100
AcDbEntity
  8
1
 62
     1
100
AcDbLine
 10
12.25787695167773
 20
-4.680306758894428
 30
0.0
 11
12.506357352592
 21
-4.716206965945602
 31
0.0
  0
LINE
  5
502
330
18
100
AcDbEntity
  8
1
 62
     1
100
AcDbLine
 10
12.506357352592
 20
-4.716206965945602
 30
0.0
 11
12.75486766161532
 21
-4.74190834809971
 31
0.0
  0
LINE
  5
503
330
18
100
AcDbEntity
  8
1
 62
     1
100
AcDbLine
 10
12.75486766161532
 20
-4.74190834809971
 30
0.0
 11
13.00334230341363
 21
-4.757349296553576
 31
0.0
  0
LINE
  5
504
330
18
100
AcDbEntity
  8
1
 62
     1
100
AcDbLine
 10
13.00334230341363
 20
-4.757349296553576
 30
0.0
 11
13.25181338337104
 21
-4.762499999987503
 31
0.0
  0
LINE
  5
505
330
18
100
AcDbEntity
  8
1
 62
     1
100
AcDbLine
 10
5.299999999999994
 20
-4.746379352607811
 30
0.0
 11
5.614199621753973
 21
-4.715157317127551
 31
0.0
  0
LINE
  5
506
330
18
100
AcDbEntity
  8
1
 62
     1
100
AcDbLine
 10
5.614199621753973
 20
-4.715157317127551
 30
0.0
 11
5.928412518289465
 21
-4.667629747541111
 31
0.0
  0
LINE
  5
507
330
18
100
AcDbEntity
  8
1
 62
     1
100
AcDbLine
 10
5.928412518289465
 20
-4.667629747541111
 30
0.0
 11
6.242628025628078
 21
-4.603955486571614
 31
0.0
  0
LINE
  5
508
330
18
100
AcDbEntity
  8
1
 62
     1
100
AcDbLine
 10
6.242628025628078
 20
-4.603955486571614
 30
0.0
 11
6.556825718085979
 21
-4.524365498686033
 31
0.0
  0
LINE
  5
509
330
18
100
AcDbEntity
  8
1
 62
     1
100
AcDbLine
 10
6.556825718085979
 20
-4.524365498686033
 30
0.0
 11
6.871047813517318
 21
-4.429121726922531
 31
0.0
  0
LINE
  5
50A
330
18
100
AcDbEntity
  8
1
 62
     1
100
AcDbLine
 10
6.871047813517318
 20
-4.429121726922531
 30
0.0
 11
7.185253657407404
 21
-4.318563141660279
 31
0.0
  0
LINE
  5
50B
330
18
100
AcDbEntity
  8
1
 62
     1
100
AcDbLine
 10
7.185253657407404
 20
-4.318563141660279
 30
0.0
 11
7.4994543044513
 21
-4.193074051729402
 31
0.0
  0
LINE
  5
50C
330
18
100
AcDbEntity
  8
1
 62
     1
100
AcDbLine
 10
7.4994543044513
 20
-4.193074051729402
 30
0.0
 11
7.813679197143071
 21
-4.053072218492413
 31
0.0
  0
LINE
  5
50D
330
18
100
AcDbEntity
  8
1
 62
     1
100
AcDbLine
 10
7.813679896299802
 20
4.053072545780016
 30
0.0
 11
8.182860714289053
 21
4.216082438302132
 31
0.0
  0
LINE
  5
50E
330
18
100
AcDbEntity
  8
1
 62
     1
100
AcDbLine
 10
8.182860714289053
 20
4.216082438302132
 30
0.0
 11
8.55202448705877
 21
4.35895870167459
 31
0.0
  0
LINE
  5
50F
330
18
100
AcDbEntity
  8
1
 62
     1
100
AcDbLine
 10
8.55202448705877
 20
4.35895870167459
 30
0.0
 11
8.921184353591382
 21
4.481028082327631
 31
0.0
  0
LINE
  5
510
330
18
100
AcDbEntity
  8
1
 62
     1
100
AcDbLine
 10
8.921184353591382
 20
4.481028082327631
 30
0.0
 11
9.290355873440372
 21
4.581711814081928
 31
0.0
  0
LINE
  5
511
330
18
100
AcDbEntity
  8
1
 62
     1
100
AcDbLine
 10
9.290355873440372
 20
4.581711814081928
 30
0.0
 11
9.659535633082246
 21
4.660524052504445
 31
0.0
  0
LINE
  5
512
330
18
100
AcDbEntity
  8
1
 62
     1
100
AcDbLine
 10
9.659535633082246
 20
4.660524052504445
 30
0.0
 11
10.02869847889842
 21
4.71708540287864
 31
0.0
  0
LINE
  5
513
330
18
100
AcDbEntity
  8
1
 62
     1
100
AcDbLine
 10
10.02869847889842
 20
4.71708540287864
 30
0.0
 11
10.39785749685209
 21
4.751131531274593
 31
0.0
  0
LINE
  5
514
330
18
100
AcDbEntity
  8
1
 62
     1
100
AcDbLine
 10
10.39785749685209
 20
4.751131531274593
 30
0.0
 11
10.7670308097824
 21
4.762500000000001
 31
0.0
  0
LINE
  5
515
330
18
100
AcDbEntity
  8
1
 62
     1
100
AcDbLine
 10
13.25181338336441
 20
4.7625
 30
0.0
 11
10.7670308097824
 21
4.7625
 31
0.0
  0
ARC
  5
516
330
18
100
AcDbEntity
  8
1
 62
     1
100
AcDbCircle
 10
27.55146976079783
 20
-7.07128995739297
 30
0.0
 40
9.957380535497984
100
AcDbArc
 50
90.29616367621105
 51
95.37706614748089
  0
LINE
  5
517
330
18
100
AcDbEntity
  8
1
 62
     1
100
AcDbLine
 10
27.5
 20
2.885953413164785
 30
0.0
 11
27.5
 21
2.341192478566568
 31
0.0
  0
LINE
  5
518
330
18
100
AcDbEntity
  8
1
 62
     1
100
AcDbLine
 10
27.5
 20
0.027012232526596
 30
0.0
 11
25.18171960453465
 21
1.237947082031345
 31
0.0
  0
LINE
  5
519
330
18
100
AcDbEntity
  8
1
 62
     1
100
AcDbLine
 10
25.18171960453465
 20
1.237947082031345
 30
0.0
 11
24.02257940680198
 21
1.770174514057597
 31
0.0
  0
LINE
  5
51A
330
18
100
AcDbEntity
  8
1
 62
     1
100
AcDbLine
 10
24.02257940680198
 20
1.770174514057597
 30
0.0
 11
23.44300930793564
 21
2.006578836224421
 31
0.0
  0
LINE
  5
51B
330
18
100
AcDbEntity
  8
1
 62
     1
100
AcDbLine
 10
23.44300930793564
 20
2.006578836224421
 30
0.0
 11
22.8634392090693
 21
2.219389002013984
 31
0.0
  0
LINE
  5
51C
330
18
100
AcDbEntity
  8
1
 62
     1
100
AcDbLine
 10
22.8634392090693
 20
2.219389002013984
 30
0.0
 11
22.28386911020296
 21
2.406102706515197
 31
0.0
  0
LINE
  5
51D
330
18
100
AcDbEntity
  8
1
 62
     1
100
AcDbLine
 10
22.28386911020296
 20
2.406102706515197
 30
0.0
 11
21.70429901133662
 21
2.564524498499613
 31
0.0
  0
LINE
  5
51E
330
18
100
AcDbEntity
  8
1
 62
     1
100
AcDbLine
 10
21.70429901133662
 20
2.564524498499613
 30
0.0
 11
21.12472891247028
 21
2.692791594011388
 31
0.0
  0
LINE
  5
51F
330
18
100
AcDbEntity
  8
1
 62
     1
100
AcDbLine
 10
21.12472891247028
 20
2.692791594011388
 30
0.0
 11
20.54515881360395
 21
2.789395779956653
 31
0.0
  0
LINE
  5
520
330
18
100
AcDbEntity
  8
1
 62
     1
100
AcDbLine
 10
20.54515881360395
 20
2.789395779956653
 30
0.0
 11
19.96558871473761
 21
2.853201148065198
 31
0.0
  0
LINE
  5
521
330
18
100
AcDbEntity
  8
1
 62
     1
100
AcDbLine
 10
19.96558871473761
 20
2.853201148065198
 30
0.0
 11
19.38601861587128
 21
2.883457451281665
 31
0.0
  0
LINE
  5
522
330
18
100
AcDbEntity
  8
1
 62
     1
100
AcDbLine
 10
19.38601861587128
 20
2.883457451281665
 30
0.0
 11
18.80644851700494
 21
2.879808925381085
 31
0.0
  0
LINE
  5
523
330
18
100
AcDbEntity
  8
1
 62
     1
100
AcDbLine
 10
18.80644851700494
 20
2.879808925381085
 30
0.0
 11
18.2268784181386
 21
2.842298472126418
 31
0.0
  0
LINE
  5
524
330
18
100
AcDbEntity
  8
1
 62
     1
100
AcDbLine
 10
5.300000000000001
 20
2.464321971299122
 30
0.0
 11
5.300000000000001
 21
4.066540582335465
 31
0.0
  0
LINE
  5
525
330
18
100
AcDbEntity
  8
1
 62
     1
100
AcDbLine
 10
5.300000000000001
 20
4.066540582335465
 30
0.0
 11
5.300000000000001
 21
4.066544528653745
 31
0.0
  0
LINE
  5
526
330
18
100
AcDbEntity
  8
1
 62
     1
100
AcDbLine
 10
5.300000000000003
 20
-0.391521763300872
 30
0.0
 11
5.300000000000001
 21
2.464321971299122
 31
0.0
  0
LINE
  5
527
330
18
100
AcDbEntity
  8
1
 62
     1
100
AcDbLine
 10
5.300000000000002
 20
4.746379352607816
 30
0.0
 11
5.300000000000001
 21
4.066544528653358
 31
0.0
  0
LINE
  5
528
330
18
100
AcDbEntity
  8
1
 62
     1
100
AcDbLine
 10
5.300000000000001
 20
-4.746379352607836
 30
0.0
 11
5.300000000000001
 21
-2.478843655411295
 31
0.0
  0
LINE
  5
529
330
18
100
AcDbEntity
  8
1
 62
     1
100
AcDbLine
 10
5.300000000000001
 20
-2.478843655411295
 30
0.0
 11
5.300000000000001
 21
-2.478841249902611
 31
0.0
  0
LINE
  5
52A
330
18
100
AcDbEntity
  8
1
 62
     1
100
AcDbLine
 10
5.300000000000002
 20
-0.3915217633009231
 30
0.0
 11
5.300000000000002
 21
-2.478841249902611
 31
0.0
  0
LINE
  5
52B
330
18
100
AcDbEntity
  8
1
 62
     1
100
AcDbLine
 10
21.64329737607653
 20
-4.762499999902026
 30
0.0
 11
22.01247001886802
 21
-4.751131579696015
 31
0.0
  0
LINE
  5
52C
330
18
100
AcDbEntity
  8
1
 62
     1
100
AcDbLine
 10
22.01247001886802
 20
-4.751131579696015
 30
0.0
 11
22.38162974329514
 21
-4.71708539998297
 31
0.0
  0
LINE
  5
52D
330
18
100
AcDbEntity
  8
1
 62
     1
100
AcDbLine
 10
22.38162974329514
 20
-4.71708539998297
 30
0.0
 11
22.75079285961251
 21
-4.660524055203463
 31
0.0
  0
LINE
  5
52E
330
18
100
AcDbEntity
  8
1
 62
     1
100
AcDbLine
 10
22.75079285961251
 20
-4.660524055203463
 30
0.0
 11
23.11997397727264
 21
-4.581711523384978
 31
0.0
  0
LINE
  5
52F
330
18
100
AcDbEntity
  8
1
 62
     1
100
AcDbLine
 10
23.11997397727264
 20
-4.581711523384978
 30
0.0
 11
23.48914398829922
 21
-4.481028253889479
 31
0.0
  0
LINE
  5
530
330
18
100
AcDbEntity
  8
1
 62
     1
100
AcDbLine
 10
23.48914398829922
 20
-4.481028253889479
 30
0.0
 11
23.8583029055581
 21
-4.35895926056756
 31
0.0
  0
LINE
  5
531
330
18
100
AcDbEntity
  8
1
 62
     1
100
AcDbLine
 10
23.8583029055581
 20
-4.35895926056756
 30
0.0
 11
24.22746785356834
 21
-4.216082875871172
 31
0.0
  0
LINE
  5
532
330
18
100
AcDbEntity
  8
1
 62
     1
100
AcDbLine
 10
24.22746785356834
 20
-4.216082875871172
 30
0.0
 11
24.5966490648508
 21
-4.053072444866897
 31
0.0
  0
LINE
  5
533
330
18
100
AcDbEntity
  8
1
 62
     1
100
AcDbLine
 10
19.1585154460757
 20
-4.762499999999999
 30
0.0
 11
21.64329737607653
 21
-4.762499999999999
 31
0.0
  0
LINE
  5
534
330
18
100
AcDbEntity
  8
1
 62
     1
100
AcDbLine
 10
13.25181338337104
 20
-4.762499999987503
 30
0.0
 11
13.62098519882886
 21
-4.751131556202296
 31
0.0
  0
LINE
  5
535
330
18
100
AcDbEntity
  8
1
 62
     1
100
AcDbLine
 10
13.62098519882886
 20
-4.751131556202296
 30
0.0
 11
13.99014489683698
 21
-4.717085441503
 31
0.0
  0
LINE
  5
536
330
18
100
AcDbEntity
  8
1
 62
     1
100
AcDbLine
 10
13.99014489683698
 20
-4.717085441503
 30
0.0
 11
14.35930824668228
 21
-4.660524108438288
 31
0.0
  0
LINE
  5
537
330
18
100
AcDbEntity
  8
1
 62
     1
100
AcDbLine
 10
14.35930824668228
 20
-4.660524108438288
 30
0.0
 11
14.72848917519261
 21
-4.581711375710714
 31
0.0
  0
LINE
  5
538
330
18
100
AcDbEntity
  8
1
 62
     1
100
AcDbLine
 10
14.72848917519261
 20
-4.581711375710714
 30
0.0
 11
15.09765884895971
 21
-4.481028217765042
 31
0.0
  0
LINE
  5
539
330
18
100
AcDbEntity
  8
1
 62
     1
100
AcDbLine
 10
15.09765884895971
 20
-4.481028217765042
 30
0.0
 11
15.46681780465311
 21
-4.358959335558049
 31
0.0
  0
LINE
  5
53A
330
18
100
AcDbEntity
  8
1
 62
     1
100
AcDbLine
 10
15.46681780465311
 20
-4.358959335558049
 30
0.0
 11
15.83598285457677
 21
-4.216082744878935
 31
0.0
  0
LINE
  5
53B
330
18
100
AcDbEntity
  8
1
 62
     1
100
AcDbLine
 10
15.83598285457677
 20
-4.216082744878935
 30
0.0
 11
16.20516473562706
 21
-4.053072557520246
 31
0.0
  0
LINE
  5
53C
330
18
100
AcDbEntity
  8
1
 62
     1
100
AcDbLine
 10
10.7670308097801
 20
-4.762499999999999
 30
0.0
 11
13.25181338337104
 21
-4.762499999999998
 31
0.0
  0
LINE
  5
53D
330
18
100
AcDbEntity
  8
1
 62
     1
100
AcDbLine
 10
24.59664909621737
 20
4.053072517498154
 30
0.0
 11
25.13199881374282
 21
4.282928906196133
 31
0.0
  0
LINE
  5
53E
330
18
100
AcDbEntity
  8
1
 62
     1
100
AcDbLine
 10
25.13199881374282
 20
4.282928906196133
 30
0.0
 11
25.3996754124822
 21
4.381867958987483
 31
0.0
  0
LINE
  5
53F
330
18
100
AcDbEntity
  8
1
 62
     1
100
AcDbLine
 10
25.3996754124822
 20
4.381867958987483
 30
0.0
 11
25.66734743634425
 21
4.469809756811924
 31
0.0
  0
LINE
  5
540
330
18
100
AcDbEntity
  8
1
 62
     1
100
AcDbLine
 10
25.66734743634425
 20
4.469809756811924
 30
0.0
 11
25.93503223325344
 21
4.546532762738074
 31
0.0
  0
LINE
  5
541
330
18
100
AcDbEntity
  8
1
 62
     1
100
AcDbLine
 10
25.93503223325344
 20
4.546532762738074
 30
0.0
 11
26.20269668432787
 21
4.611841024631413
 31
0.0
  0
LINE
  5
542
330
18
100
AcDbEntity
  8
1
 62
     1
100
AcDbLine
 10
26.20269668432787
 20
4.611841024631413
 30
0.0
 11
26.47035188439978
 21
4.665571157750065
 31
0.0
  0
LINE
  5
543
330
18
100
AcDbEntity
  8
1
 62
     1
100
AcDbLine
 10
26.47035188439978
 20
4.665571157750065
 30
0.0
 11
26.738
 21
4.707591049107343
 31
0.0
  0
LINE
  5
544
330
18
100
AcDbEntity
  8
1
 62
     1
100
AcDbLine
 10
26.61836333167861
 20
2.842296442675754
 30
0.0
 11
26.738
 21
2.756011826194504
 31
0.0
  0
LINE
  5
545
330
18
100
AcDbEntity
  8
1
 62
     1
100
AcDbLine
 10
16.20516487642491
 20
4.05307262343199
 30
0.0
 11
16.57433563343766
 21
4.216077633338541
 31
0.0
  0
LINE
  5
546
330
18
100
AcDbEntity
  8
1
 62
     1
100
AcDbLine
 10
16.57433563343766
 20
4.216077633338541
 30
0.0
 11
16.94349822875223
 21
4.35895491459164
 31
0.0
  0
LINE
  5
547
330
18
100
AcDbEntity
  8
1
 62
     1
100
AcDbLine
 10
16.94349822875223
 20
4.35895491459164
 30
0.0
 11
17.31266827557366
 21
4.481028766796023
 31
0.0
  0
LINE
  5
548
330
18
100
AcDbEntity
  8
1
 62
     1
100
AcDbLine
 10
17.31266827557366
 20
4.481028766796023
 30
0.0
 11
17.68185314359254
 21
4.581714614426067
 31
0.0
  0
LINE
  5
549
330
18
100
AcDbEntity
  8
1
 62
     1
100
AcDbLine
 10
17.68185314359254
 20
4.581714614426067
 30
0.0
 11
18.05102260603203
 21
4.660523661826051
 31
0.0
  0
LINE
  5
54A
330
18
100
AcDbEntity
  8
1
 62
     1
100
AcDbLine
 10
18.05102260603203
 20
4.660523661826051
 30
0.0
 11
18.42018509846352
 21
4.717085880190856
 31
0.0
  0
LINE
  5
54B
330
18
100
AcDbEntity
  8
1
 62
     1
100
AcDbLine
 10
18.42018509846352
 20
4.717085880190856
 30
0.0
 11
18.78935568350185
 21
4.751133429578482
 31
0.0
  0
LINE
  5
54C
330
18
100
AcDbEntity
  8
1
 62
     1
100
AcDbLine
 10
18.78935568350185
 20
4.751133429578482
 30
0.0
 11
19.15851544608311
 21
4.762499999999998
 31
0.0
  0
LINE
  5
54D
330
18
100
AcDbEntity
  8
1
 62
     1
100
AcDbLine
 10
18.22687841799184
 20
2.842298471921203
 30
0.0
 11
19.29077545981131
 21
2.030117789666821
 31
0.0
  0
LINE
  5
54E
330
18
100
AcDbEntity
  8
1
 62
     1
100
AcDbLine
 10
19.29077545981131
 20
2.030117789666821
 30
0.0
 11
21.41857138110933
 21
0.2002822984173923
 31
0.0
  0
LINE
  5
54F
330
18
100
AcDbEntity
  8
1
 62
     1
100
AcDbLine
 10
21.41857138110933
 20
0.2002822984173923
 30
0.0
 11
23.54635610579901
 21
-1.660899327777043
 31
0.0
  0
LINE
  5
550
330
18
100
AcDbEntity
  8
1
 62
     1
100
AcDbLine
 10
23.54635610579901
 20
-1.660899327777043
 30
0.0
 11
24.34427220167861
 21
-2.306605420390563
 31
0.0
  0
LINE
  5
551
330
18
100
AcDbEntity
  8
1
 62
     1
100
AcDbLine
 10
24.34427220167861
 20
-2.306605420390563
 30
0.0
 11
25.14220667054286
 21
-2.900963635176536
 31
0.0
  0
LINE
  5
552
330
18
100
AcDbEntity
  8
1
 62
     1
100
AcDbLine
 10
25.14220667054286
 20
-2.900963635176536
 30
0.0
 11
25.94013656433328
 21
-3.430716971073736
 31
0.0
  0
LINE
  5
553
330
18
100
AcDbEntity
  8
1
 62
     1
100
AcDbLine
 10
25.94013656433328
 20
-3.430716971073736
 30
0.0
 11
26.33908154661683
 21
-3.667608579739172
 31
0.0
  0
LINE
  5
554
330
18
100
AcDbEntity
  8
1
 62
     1
100
AcDbLine
 10
26.33908154661683
 20
-3.667608579739172
 30
0.0
 11
26.738
 21
-3.884044935872431
 31
0.0
  0
LINE
  5
555
330
18
100
AcDbEntity
  8
1
 62
     1
100
AcDbLine
 10
19.15851544608147
 20
-0.0000000000049107
 30
0.0
 11
21.0534074329742
 21
-1.65407498846842
 31
0.0
  0
LINE
  5
556
330
18
100
AcDbEntity
  8
1
 62
     1
100
AcDbLine
 10
21.0534074329742
 20
-1.65407498846842
 30
0.0
 11
22.00084946196194
 21
-2.416039293328802
 31
0.0
  0
LINE
  5
557
330
18
100
AcDbEntity
  8
1
 62
     1
100
AcDbLine
 10
22.00084946196194
 20
-2.416039293328802
 30
0.0
 11
22.94828991192605
 21
-3.10220889829194
 31
0.0
  0
LINE
  5
558
330
18
100
AcDbEntity
  8
1
 62
     1
100
AcDbLine
 10
22.94828991192605
 20
-3.10220889829194
 30
0.0
 11
23.42200981080579
 21
-3.410032261085984
 31
0.0
  0
LINE
  5
559
330
18
100
AcDbEntity
  8
1
 62
     1
100
AcDbLine
 10
23.42200981080579
 20
-3.410032261085984
 30
0.0
 11
23.89572962357915
 21
-3.691059041638978
 31
0.0
  0
LINE
  5
55A
330
18
100
AcDbEntity
  8
1
 62
     1
100
AcDbLine
 10
23.89572962357915
 20
-3.691059041638978
 30
0.0
 11
24.36944945268543
 21
-3.943080948059746
 31
0.0
  0
LINE
  5
55B
330
18
100
AcDbEntity
  8
1
 62
     1
100
AcDbLine
 10
24.36944945268543
 20
-3.943080948059746
 30
0.0
 11
24.84316934423064
 21
-4.164117614672787
 31
0.0
  0
LINE
  5
55C
330
18
100
AcDbEntity
  8
1
 62
     1
100
AcDbLine
 10
24.84316934423064
 20
-4.164117614672787
 30
0.0
 11
25.31688942831222
 21
-4.352432079264614
 31
0.0
  0
LINE
  5
55D
330
18
100
AcDbEntity
  8
1
 62
     1
100
AcDbLine
 10
25.31688942831222
 20
-4.352432079264614
 30
0.0
 11
25.79060974911921
 21
-4.506544528054748
 31
0.0
  0
LINE
  5
55E
330
18
100
AcDbEntity
  8
1
 62
     1
100
AcDbLine
 10
25.79060974911921
 20
-4.506544528054748
 30
0.0
 11
26.02748454993834
 21
-4.570389673875567
 31
0.0
  0
LINE
  5
55F
330
18
100
AcDbEntity
  8
1
 62
     1
100
AcDbLine
 10
26.02748454993834
 20
-4.570389673875567
 30
0.0
 11
26.26432532181583
 21
-4.625243500197481
 31
0.0
  0
LINE
  5
560
330
18
100
AcDbEntity
  8
1
 62
     1
100
AcDbLine
 10
26.26432532181583
 20
-4.625243500197481
 30
0.0
 11
26.50116490494174
 21
-4.671007315331864
 31
0.0
  0
LINE
  5
561
330
18
100
AcDbEntity
  8
1
 62
     1
100
AcDbLine
 10
26.50116490494174
 20
-4.671007315331864
 30
0.0
 11
26.73800000000001
 21
-4.707591049107346
 31
0.0
  0
LINE
  5
562
330
18
100
AcDbEntity
  8
1
 62
     1
100
AcDbLine
 10
19.15851544608466
 20
-0.0000000000008364
 30
0.0
 11
16.82773502672109
 21
1.219616124057922
 31
0.0
  0
LINE
  5
563
330
18
100
AcDbEntity
  8
1
 62
     1
100
AcDbLine
 10
16.82773502672109
 20
1.219616124057922
 30
0.0
 11
15.66234481703932
 21
1.756810546117528
 31
0.0
  0
LINE
  5
564
330
18
100
AcDbEntity
  8
1
 62
     1
100
AcDbLine
 10
15.66234481703932
 20
1.756810546117528
 30
0.0
 11
15.07964971219843
 21
1.995630446425748
 31
0.0
  0
LINE
  5
565
330
18
100
AcDbEntity
  8
1
 62
     1
100
AcDbLine
 10
15.07964971219843
 20
1.995630446425748
 30
0.0
 11
14.49695460735753
 21
2.210731442118142
 31
0.0
  0
LINE
  5
566
330
18
100
AcDbEntity
  8
1
 62
     1
100
AcDbLine
 10
14.49695460735753
 20
2.210731442118142
 30
0.0
 11
13.91425950251665
 21
2.399556965314239
 31
0.0
  0
LINE
  5
567
330
18
100
AcDbEntity
  8
1
 62
     1
100
AcDbLine
 10
13.91425950251665
 20
2.399556965314239
 30
0.0
 11
13.33156439767576
 21
2.55986274641195
 31
0.0
  0
LINE
  5
568
330
18
100
AcDbEntity
  8
1
 62
     1
100
AcDbLine
 10
13.33156439767576
 20
2.55986274641195
 30
0.0
 11
12.74886929283486
 21
2.689743486191905
 31
0.0
  0
LINE
  5
569
330
18
100
AcDbEntity
  8
1
 62
     1
100
AcDbLine
 10
12.74886929283486
 20
2.689743486191905
 30
0.0
 11
12.16617418799397
 21
2.787655500758694
 31
0.0
  0
LINE
  5
56A
330
18
100
AcDbEntity
  8
1
 62
     1
100
AcDbLine
 10
12.16617418799397
 20
2.787655500758694
 30
0.0
 11
11.58347908315308
 21
2.852435068557246
 31
0.0
  0
LINE
  5
56B
330
18
100
AcDbEntity
  8
1
 62
     1
100
AcDbLine
 10
11.58347908315308
 20
2.852435068557246
 30
0.0
 11
11.00078397831219
 21
2.883312261376534
 31
0.0
  0
LINE
  5
56C
330
18
100
AcDbEntity
  8
1
 62
     1
100
AcDbLine
 10
11.00078397831219
 20
2.883312261376534
 30
0.0
 11
10.4180888734713
 21
2.879920094980637
 31
0.0
  0
LINE
  5
56D
330
18
100
AcDbEntity
  8
1
 62
     1
100
AcDbLine
 10
10.4180888734713
 20
2.879920094980637
 30
0.0
 11
9.835393768630409
 21
2.842298890545282
 31
0.0
  0
LINE
  5
56E
330
18
100
AcDbEntity
  8
1
 62
     1
100
AcDbLine
 10
9.835393768458324
 20
2.842298890304717
 30
0.0
 11
10.57339337825163
 21
2.288993603506643
 31
0.0
  0
LINE
  5
56F
330
18
100
AcDbEntity
  8
1
 62
     1
100
AcDbLine
 10
10.57339337825163
 20
2.288993603506643
 30
0.0
 11
12.04939169513194
 21
1.062917446283015
 31
0.0
  0
LINE
  5
570
330
18
100
AcDbEntity
  8
1
 62
     1
100
AcDbLine
 10
12.04939169513194
 20
1.062917446283015
 30
0.0
 11
15.00134086558842
 21
-1.531953839428469
 31
0.0
  0
LINE
  5
571
330
18
100
AcDbEntity
  8
1
 62
     1
100
AcDbLine
 10
15.00134086558842
 20
-1.531953839428469
 30
0.0
 11
16.47734061065665
 21
-2.703964091382023
 31
0.0
  0
LINE
  5
572
330
18
100
AcDbEntity
  8
1
 62
     1
100
AcDbLine
 10
16.47734061065665
 20
-2.703964091382023
 30
0.0
 11
17.21534860800693
 21
-3.218082971746527
 31
0.0
  0
LINE
  5
573
330
18
100
AcDbEntity
  8
1
 62
     1
100
AcDbLine
 10
17.21534860800693
 20
-3.218082971746527
 30
0.0
 11
17.95333964049436
 21
-3.670871826406953
 31
0.0
  0
LINE
  5
574
330
18
100
AcDbEntity
  8
1
 62
     1
100
AcDbLine
 10
17.95333964049436
 20
-3.670871826406953
 30
0.0
 11
18.32233620433813
 21
-3.871528802805973
 31
0.0
  0
LINE
  5
575
330
18
100
AcDbEntity
  8
1
 62
     1
100
AcDbLine
 10
18.32233620433813
 20
-3.871528802805973
 30
0.0
 11
18.6913490119482
 21
-4.053728844276968
 31
0.0
  0
LINE
  5
576
330
18
100
AcDbEntity
  8
1
 62
     1
100
AcDbLine
 10
18.6913490119482
 20
-4.053728844276968
 30
0.0
 11
19.06034784594319
 21
-4.216587396025473
 31
0.0
  0
LINE
  5
577
330
18
100
AcDbEntity
  8
1
 62
     1
100
AcDbLine
 10
19.06034784594319
 20
-4.216587396025473
 30
0.0
 11
19.42933816050292
 21
-4.359334690666526
 31
0.0
  0
LINE
  5
578
330
18
100
AcDbEntity
  8
1
 62
     1
100
AcDbLine
 10
19.42933816050292
 20
-4.359334690666526
 30
0.0
 11
19.79833611429495
 21
-4.481296045047392
 31
0.0
  0
LINE
  5
579
330
18
100
AcDbEntity
  8
1
 62
     1
100
AcDbLine
 10
19.79833611429495
 20
-4.481296045047392
 30
0.0
 11
20.16734921789062
 21
-4.581887980912793
 31
0.0
  0
LINE
  5
57A
330
18
100
AcDbEntity
  8
1
 62
     1
100
AcDbLine
 10
20.16734921789062
 20
-4.581887980912793
 30
0.0
 11
20.53634622649021
 21
-4.660622875595525
 31
0.0
  0
LINE
  5
57B
330
18
100
AcDbEntity
  8
1
 62
     1
100
AcDbLine
 10
20.53634622649021
 20
-4.660622875595525
 30
0.0
 11
20.90533665779471
 21
-4.717131117347302
 31
0.0
  0
LINE
  5
57C
330
18
100
AcDbEntity
  8
1
 62
     1
100
AcDbLine
 10
20.90533665779471
 20
-4.717131117347302
 30
0.0
 11
21.2743347128503
 21
-4.751145563931729
 31
0.0
  0
LINE
  5
57D
330
18
100
AcDbEntity
  8
1
 62
     1
100
AcDbLine
 10
21.2743347128503
 20
-4.751145563931729
 30
0.0
 11
21.64329737607653
 21
-4.762499999902026
 31
0.0
  0
LINE
  5
57E
330
18
100
AcDbEntity
  8
1
 62
     1
100
AcDbLine
 10
10.76703080978137
 20
-0.0000000000011193
 30
0.0
 11
12.86490460646854
 21
-1.822531826468539
 31
0.0
  0
LINE
  5
57F
330
18
100
AcDbEntity
  8
1
 62
     1
100
AcDbLine
 10
12.86490460646854
 20
-1.822531826468539
 30
0.0
 11
13.91384670103321
 21
-2.645909463269769
 31
0.0
  0
LINE
  5
580
330
18
100
AcDbEntity
  8
1
 62
     1
100
AcDbLine
 10
13.91384670103321
 20
-2.645909463269769
 30
0.0
 11
14.4383187111816
 21
-3.021306415123007
 31
0.0
  0
LINE
  5
581
330
18
100
AcDbEntity
  8
1
 62
     1
100
AcDbLine
 10
14.4383187111816
 20
-3.021306415123007
 30
0.0
 11
14.96279116455433
 21
-3.367606334844143
 31
0.0
  0
LINE
  5
582
330
18
100
AcDbEntity
  8
1
 62
     1
100
AcDbLine
 10
14.96279116455433
 20
-3.367606334844143
 30
0.0
 11
15.48726389171959
 21
-3.681473979566842
 31
0.0
  0
LINE
  5
583
330
18
100
AcDbEntity
  8
1
 62
     1
100
AcDbLine
 10
15.48726389171959
 20
-3.681473979566842
 30
0.0
 11
16.01173671679873
 21
-3.959886471000134
 31
0.0
  0
LINE
  5
584
330
18
100
AcDbEntity
  8
1
 62
     1
100
AcDbLine
 10
16.01173671679873
 20
-3.959886471000134
 30
0.0
 11
16.53620946770945
 21
-4.200162411930865
 31
0.0
  0
LINE
  5
585
330
18
100
AcDbEntity
  8
1
 62
     1
100
AcDbLine
 10
16.53620946770945
 20
-4.200162411930865
 30
0.0
 11
17.06068197276439
 21
-4.399987724806381
 31
0.0
  0
LINE
  5
586
330
18
100
AcDbEntity
  8
1
 62
     1
100
AcDbLine
 10
17.06068197276439
 20
-4.399987724806381
 30
0.0
 11
17.32290602826427
 21
-4.484111603387249
 31
0.0
  0
LINE
  5
587
330
18
100
AcDbEntity
  8
1
 62
     1
100
AcDbLine
 10
17.32290602826427
 20
-4.484111603387249
 30
0.0
 11
17.58515404510515
 21
-4.557437954293107
 31
0.0
  0
LINE
  5
588
330
18
100
AcDbEntity
  8
1
 62
     1
100
AcDbLine
 10
17.58515404510515
 20
-4.557437954293107
 30
0.0
 11
17.84737566684007
 21
-4.61977959903022
 31
0.0
  0
LINE
  5
589
330
18
100
AcDbEntity
  8
1
 62
     1
100
AcDbLine
 10
17.84737566684007
 20
-4.61977959903022
 30
0.0
 11
18.10962548411727
 21
-4.670996805418871
 31
0.0
  0
LINE
  5
58A
330
18
100
AcDbEntity
  8
1
 62
     1
100
AcDbLine
 10
18.10962548411727
 20
-4.670996805418871
 30
0.0
 11
18.37184621890402
 21
-4.710956367745765
 31
0.0
  0
LINE
  5
58B
330
18
100
AcDbEntity
  8
1
 62
     1
100
AcDbLine
 10
18.37184621890402
 20
-4.710956367745765
 30
0.0
 11
18.63409606615326
 21
-4.739570752319866
 31
0.0
  0
LINE
  5
58C
330
18
100
AcDbEntity
  8
1
 62
     1
100
AcDbLine
 10
18.63409606615326
 20
-4.739570752319866
 30
0.0
 11
18.89630938340356
 21
-4.756764241944643
 31
0.0
  0
LINE
  5
58D
330
18
100
AcDbEntity
  8
1
 62
     1
100
AcDbLine
 10
18.89630938340356
 20
-4.756764241944643
 30
0.0
 11
19.15851544607571
 21
-4.762499999904821
 31
0.0
  0
LINE
  5
58E
330
18
100
AcDbEntity
  8
1
 62
     1
100
AcDbLine
 10
10.7670308097824
 20
-0.0000000000000011
 30
0.0
 11
8.033515404891107
 21
1.413157612454682
 31
0.0
  0
LINE
  5
58F
330
18
100
AcDbEntity
  8
1
 62
     1
100
AcDbLine
 10
8.033515404891107
 20
1.413157612454682
 30
0.0
 11
6.666757702445463
 21
2.003969004927943
 31
0.0
  0
LINE
  5
590
330
18
100
AcDbEntity
  8
1
 62
     1
100
AcDbLine
 10
6.666757702445463
 20
2.003969004927943
 30
0.0
 11
5.983378851222639
 21
2.252551516021551
 31
0.0
  0
LINE
  5
591
330
18
100
AcDbEntity
  8
1
 62
     1
100
AcDbLine
 10
5.983378851222639
 20
2.252551516021551
 30
0.0
 11
5.299999999999817
 21
2.464321971299175
 31
0.0
  0
LINE
  5
592
330
18
100
AcDbEntity
  8
SK1
100
AcDbLine
 10
-35.52374999999999
 20
4.7625
 30
0.0
 11
-36.0
 21
4.28625
 31
0.0
  0
LINE
  5
593
330
18
100
AcDbEntity
  8
SK1
100
AcDbLine
 10
-36.0
 20
4.28625
 30
0.0
 11
-36.00000000000001
 21
4.281988638992177
 31
0.0
  0
LINE
  5
594
330
18
100
AcDbEntity
  8
SK1
100
AcDbLine
 10
-36.00000000000001
 20
4.281988638992177
 30
0.0
 11
-36.0
 21
3.901659308272384
 31
0.0
  0
LINE
  5
595
330
18
100
AcDbEntity
  8
SK1
100
AcDbLine
 10
-36.0
 20
3.901659308272384
 30
0.0
 11
-36.0
 21
-4.28625
 31
0.0
  0
LINE
  5
596
330
18
100
AcDbEntity
  8
SK1
100
AcDbLine
 10
0.0
 20
4.7625
 30
0.0
 11
-35.52374999999999
 21
4.7625
 31
0.0
  0
LINE
  5
597
330
18
100
AcDbEntity
  8
SK1
100
AcDbLine
 10
-35.52374999999999
 20
4.7625
 30
0.0
 11
-35.52375
 21
4.757765154435752
 31
0.0
  0
LINE
  5
598
330
18
100
AcDbEntity
  8
SK1
100
AcDbLine
 10
-35.52375
 20
4.757765154435752
 30
0.0
 11
-35.52374999999999
 21
4.335177009191538
 31
0.0
  0
LINE
  5
599
330
18
100
AcDbEntity
  8
SK1
100
AcDbLine
 10
-35.52374999999999
 20
4.335177009191538
 30
0.0
 11
-35.52374999999999
 21
-4.7625
 31
0.0
  0
LINE
  5
59A
330
18
100
AcDbEntity
  8
SK1
100
AcDbLine
 10
-36.0
 20
-4.28625
 30
0.0
 11
-35.52374999999999
 21
-4.7625
 31
0.0
  0
LINE
  5
59B
330
18
100
AcDbEntity
  8
SK1
100
AcDbLine
 10
-35.52374999999999
 20
-4.762499999999998
 30
0.0
 11
0.0000000000000004
 21
-4.762499999999998
 31
0.0
  0
DIMENSION
  5
59C
330
18
100
AcDbEntity
  8
2
100
AcDbDimension
  2
*D0
 10
42.50000000000001
 20
-4.762499999999948
 30
0.0
 11
40.10225000000005
 21
-14.97674999999996
 31
0.0
 70
    32
  1
%%c<>
 71
     5
 42
9.525
  3
STANDARD
100
AcDbAlignedDimension
 13
27.5
 23
4.7625
 33
0.0
 14
27.5
 24
-4.7625
 34
0.0
 50
90.0000000000002
100
AcDbRotatedDimension
  0
DIMENSION
  5
5AA
330
18
100
AcDbEntity
  8
2
100
AcDbDimension
  2
*D1
 10
27.5
 20
75.0
 30
0.0
 11
13.75
 21
77.39775
 31
0.0
 70
    32
  1
<>
 71
     5
 42
27.5
  3
STANDARD
100
AcDbAlignedDimension
 13
0.0
 23
0.0
 33
0.0
 14
27.5
 24
0.0
 34
0.0
100
AcDbRotatedDimension
  0
DIMENSION
  5
5B7
330
18
100
AcDbEntity
  8
2
100
AcDbDimension
  2
*D2
 10
27.5
 20
60.0
 30
0.0
 11
16.4
 21
62.39775
 31
0.0
 70
    32
  1
<>
 71
     5
 42
22.2
  3
STANDARD
100
AcDbAlignedDimension
 13
5.300000000000001
 23
4.7625
 33
0.0
 14
27.5
 24
4.7625
 34
0.0
100
AcDbRotatedDimension
  0
DIMENSION
  5
5C4
330
18
100
AcDbEntity
  8
SK2
100
AcDbDimension
  2
*D3
 10
-50.99999999997569
 20
-4.76250000007655
 30
0.0
 11
-53.39774999992357
 21
-14.97675000008878
 31
0.0
 70
    32
  1
%%c<>
 71
     5
 42
9.525
  3
STANDARD
100
AcDbAlignedDimension
 13
-36.0
 23
4.7625
 33
0.0
 14
-36.0
 24
-4.7625
 34
0.0
 50
90.0000000002924
100
AcDbRotatedDimension
  0
DIMENSION
  5
5D2
330
18
100
AcDbEntity
  8
SK2
100
AcDbDimension
  2
*D4
 10
27.5
 20
90.0
 30
0.0
 11
-4.25
 21
92.39775
 31
0.0
 70
    32
  1
<>
 71
     5
 42
63.5
  3
STANDARD
100
AcDbAlignedDimension
 13
-36.0
 23
0.0
 33
0.0
 14
27.5
 24
0.0
 34
0.0
100
AcDbRotatedDimension
  0
DIMENSION
  5
5DF
330
18
100
AcDbEntity
  8
2
100
AcDbDimension
  2
*D5
 10
26.738
 20
-4.000500000000001
 30
0.0
 11
29.83501530587915
 21
-21.56454659931021
 31
0.0
 70
   164
  1
<>
 71
     5
 42
0.7619999999999998
  3
STANDARD
100
AcDbRadialDimension
 15
26.8703199113822
 25
-4.750923507795303
 35
0.0
 40
0.0
  0
ENDSEC
  0
SECTION
  2
OBJECTS
  0
DICTIONARY
  5
C
330
0
100
AcDbDictionary
281
     1
  3
ACAD_COLOR
350
387
  3
ACAD_GROUP
350
D
  3
ACAD_LAYOUT
350
301
  3
ACAD_MATERIAL
350
386
  3
ACAD_MLEADERSTYLE
350
5E8
  3
ACAD_MLINESTYLE
350
E
  3
ACAD_PLOTSETTINGS
350
302
  3
ACAD_PLOTSTYLENAME
350
2FF
  3
ACAD_SCALELIST
350
3A0
  3
ACAD_TABLESTYLE
350
388
  3
ACAD_VISUALSTYLE
350
3C5
  3
ACDBHEADERROUNDTRIPXREC
350
5E9
  3
AcDbVariableDictionary
350
357
  0
DICTIONARY
  5
387
102
{ACAD_REACTORS
330
C
102
}
330
C
100
AcDbDictionary
281
     1
  0
DICTIONARY
  5
D
102
{ACAD_REACTORS
330
C
102
}
330
C
100
AcDbDictionary
281
     1
  0
DICTIONARY
  5
301
102
{ACAD_REACTORS
330
C
102
}
330
C
100
AcDbDictionary
281
     1
  3
Layout1
350
33B
  3
Model
350
303
  0
DICTIONARY
  5
386
102
{ACAD_REACTORS
330
C
102
}
330
C
100
AcDbDictionary
281
     1
  3
ByBlock
350
3C3
  3
ByLayer
350
3C2
  3
Global
350
3C4
  0
DICTIONARY
  5
5E8
102
{ACAD_REACTORS
330
C
102
}
330
C
100
AcDbDictionary
281
     1
  0
DICTIONARY
  5
E
102
{ACAD_REACTORS
330
C
102
}
330
C
100
AcDbDictionary
281
     1
  3
STANDARD
350
1B
  0
DICTIONARY
  5
302
102
{ACAD_REACTORS
330
C
102
}
330
C
100
AcDbDictionary
281
     1
  0
ACDBDICTIONARYWDFLT
  5
2FF
102
{ACAD_REACTORS
330
C
102
}
330
C
100
AcDbDictionary
281
     1
  3
Normal
350
300
100
AcDbDictionaryWithDefault
340
300
  0
DICTIONARY
  5
3A0
102
{ACAD_REACTORS
330
C
102
}
330
C
100
AcDbDictionary
281
     1
  3
A0
350
3A1
  3
A1
350
3A2
  3
A2
350
3A3
  3
A3
350
3A4
  3
A4
350
3A5
  3
A5
350
3A6
  3
A6
350
3A7
  3
A7
350
3A8
  3
A8
350
3A9
  3
A9
350
3AA
  3
B0
350
3AB
  3
B1
350
3AC
  3
B2
350
3AD
  3
B3
350
3AE
  3
B4
350
3AF
  3
B5
350
3B0
  3
B6
350
3B1
  3
B7
350
3B2
  3
B8
350
3B3
  3
B9
350
3B4
  3
C0
350
3B5
  3
C1
350
3B6
  3
C2
350
3B7
  3
C3
350
3B8
  3
C4
350
3B9
  3
C5
350
3BA
  3
C6
350
3BB
  3
C7
350
3BC
  3
C8
350
3BD
  3
C9
350
3BE
  3
D0
350
3BF
  3
D1
350
3C0
  3
D2
350
3C1
  0
DICTIONARY
  5
388
102
{ACAD_REACTORS
330
C
102
}
330
C
100
AcDbDictionary
281
     1
  3
Standard
350
389
  0
DICTIONARY
  5
3C5
102
{ACAD_REACTORS
330
C
102
}
330
C
100
AcDbDictionary
281
     1
  3
2dWireframe
350
3CA
  3
3D Hidden
350
3CC
  3
3dWireframe
350
3CB
  3
Basic
350
3CD
  3
Brighten
350
3D1
  3
ColorChange
350
3D5
  3
Conceptual
350
3CF
  3
Dim
350
3D0
  3
Facepattern
350
3D4
  3
Flat
350
3C6
  3
FlatWithEdges
350
3C7
  3
Gouraud
350
3C8
  3
GouraudWithEdges
350
3C9
  3
Linepattern
350
3D3
  3
Realistic
350
3CE
  3
Thicken
350
3D2
  0
DICTIONARY
  5
5E9
102
{ACAD_REACTORS
330
C
102
}
330
C
100
AcDbDictionary
281
     1
  3
COLORDICT
350
5EA
  3
MATERIALDICT
350
5EB
  0
DICTIONARY
  5
357
102
{ACAD_REACTORS
330
C
102
}
330
C
100
AcDbDictionary
281
     1
  3
CANNOSCALE
350
5EC
  3
CTABLESTYLE
350
38D
  3
DIMASSOC
350
359
  3
HIDETEXT
350
358
  3
PROJECTNAME
350
38E
  0
LAYOUT
  5
33B
102
{ACAD_REACTORS
330
301
102
}
330
301
100
AcDbPlotSettings
  1

  2
Lexmark Optra PS2
  4

  6

 40
0.0
 41
0.0
 42
0.0
 43
0.0
 44
0.0
 45
0.0
 46
0.0
 47
0.0
 48
0.0
 49
0.0
140
0.0
141
0.0
142
1.0
143
1.0
 70
   688
 72
     0
 73
     0
 74
     5
  7
monochrome.ctb
 75
    16
147
1.0
148
0.0
149
0.0
100
AcDbLayout
  1
Layout1
 70
     1
 71
     1
 10
0.0
 20
0.0
 11
12.0
 21
9.0
 12
0.0
 22
0.0
 32
0.0
 14
0.0
 24
0.0
 34
0.0
 15
0.0
 25
0.0
 35
0.0
146
0.0
 13
0.0
 23
0.0
 33
0.0
 16
1.0
 26
0.0
 36
0.0
 17
0.0
 27
1.0
 37
0.0
 76
     0
330
338
  0
LAYOUT
  5
303
102
{ACAD_REACTORS
330
301
102
}
330
301
100
AcDbPlotSettings
  1

  2
Lexmark Optra Rx
  4
A4
  6

 40
6.805083274841307
 41
5.535083293914794
 42
6.974411010742187
 43
7.14373779296875
 44
209.9733276367186
 45
296.9259948730469
 46
0.0
 47
0.0
 48
0.0
 49
0.0
140
0.0
141
0.0
142
1.0
143
2.976565420630886
 70
 11952
 72
     1
 73
     1
 74
     0
  7
monochrome.ctb
 75
     0
147
0.335957675604539
148
204.1199660668592
149
172.3933209647495
100
AcDbLayout
  1
Model
 70
     1
 71
     0
 10
0.0
 20
0.0
 11
12.0
 21
9.0
 12
0.0
 22
0.0
 32
0.0
 14
0.0
 24
0.0
 34
0.0
 15
0.0
 25
0.0
 35
0.0
146
0.0
 13
0.0
 23
0.0
 33
0.0
 16
1.0
 26
0.0
 36
0.0
 17
0.0
 27
1.0
 37
0.0
 76
     0
330
18
331
39A
  0
MATERIAL
  5
3C3
102
{ACAD_REACTORS
330
386
102
}
102
{ACAD_XDICTIONARY
360
5EF
102
}
330
386
100
AcDbMaterial
  1
ByBlock
  0
MATERIAL
  5
3C2
102
{ACAD_REACTORS
330
386
102
}
102
{ACAD_XDICTIONARY
360
5ED
102
}
330
386
100
AcDbMaterial
  1
ByLayer
  0
MATERIAL
  5
3C4
102
{ACAD_REACTORS
330
386
102
}
102
{ACAD_XDICTIONARY
360
5F1
102
}
330
386
100
AcDbMaterial
  1
Global
  0
MLINESTYLE
  5
1B
102
{ACAD_REACTORS
330
E
102
}
330
E
100
AcDbMlineStyle
  2
STANDARD
 70
     0
  3

 62
     0
 51
90.0
 52
90.0
 71
     2
 49
0.5
 62
   256
  6
BYLAYER
 49
-0.5
 62
   256
  6
BYLAYER
  0
ACDBPLACEHOLDER
  5
300
102
{ACAD_REACTORS
330
2FF
102
}
330
2FF
  0
SCALE
  5
3A1
102
{ACAD_REACTORS
330
3A0
102
}
330
3A0
100
AcDbScale
 70
     0
300
1:1
140
1.0
141
1.0
290
     1
  0
SCALE
  5
3A2
102
{ACAD_REACTORS
330
3A0
102
}
330
3A0
100
AcDbScale
 70
     0
300
1:2
140
1.0
141
2.0
290
     0
  0
SCALE
  5
3A3
102
{ACAD_REACTORS
330
3A0
102
}
330
3A0
100
AcDbScale
 70
     0
300
1:4
140
1.0
141
4.0
290
     0
  0
SCALE
  5
3A4
102
{ACAD_REACTORS
330
3A0
102
}
330
3A0
100
AcDbScale
 70
     0
300
1:5
140
1.0
141
5.0
290
     0
  0
SCALE
  5
3A5
102
{ACAD_REACTORS
330
3A0
102
}
330
3A0
100
AcDbScale
 70
     0
300
1:8
140
1.0
141
8.0
290
     0
  0
SCALE
  5
3A6
102
{ACAD_REACTORS
330
3A0
102
}
330
3A0
100
AcDbScale
 70
     0
300
1:10
140
1.0
141
10.0
290
     0
  0
SCALE
  5
3A7
102
{ACAD_REACTORS
330
3A0
102
}
330
3A0
100
AcDbScale
 70
     0
300
1:16
140
1.0
141
16.0
290
     0
  0
SCALE
  5
3A8
102
{ACAD_REACTORS
330
3A0
102
}
330
3A0
100
AcDbScale
 70
     0
300
1:20
140
1.0
141
20.0
290
     0
  0
SCALE
  5
3A9
102
{ACAD_REACTORS
330
3A0
102
}
330
3A0
100
AcDbScale
 70
     0
300
1:30
140
1.0
141
30.0
290
     0
  0
SCALE
  5
3AA
102
{ACAD_REACTORS
330
3A0
102
}
330
3A0
100
AcDbScale
 70
     0
300
1:40
140
1.0
141
40.0
290
     0
  0
SCALE
  5
3AB
102
{ACAD_REACTORS
330
3A0
102
}
330
3A0
100
AcDbScale
 70
     0
300
1:50
140
1.0
141
50.0
290
     0
  0
SCALE
  5
3AC
102
{ACAD_REACTORS
330
3A0
102
}
330
3A0
100
AcDbScale
 70
     0
300
1:100
140
1.0
141
100.0
290
     0
  0
SCALE
  5
3AD
102
{ACAD_REACTORS
330
3A0
102
}
330
3A0
100
AcDbScale
 70
     0
300
2:1
140
2.0
141
1.0
290
     0
  0
SCALE
  5
3AE
102
{ACAD_REACTORS
330
3A0
102
}
330
3A0
100
AcDbScale
 70
     0
300
4:1
140
4.0
141
1.0
290
     0
  0
SCALE
  5
3AF
102
{ACAD_REACTORS
330
3A0
102
}
330
3A0
100
AcDbScale
 70
     0
300
8:1
140
8.0
141
1.0
290
     0
  0
SCALE
  5
3B0
102
{ACAD_REACTORS
330
3A0
102
}
330
3A0
100
AcDbScale
 70
     0
300
10:1
140
10.0
141
1.0
290
     0
  0
SCALE
  5
3B1
102
{ACAD_REACTORS
330
3A0
102
}
330
3A0
100
AcDbScale
 70
     0
300
100:1
140
100.0
141
1.0
290
     0
  0
SCALE
  5
3B2
102
{ACAD_REACTORS
330
3A0
102
}
330
3A0
100
AcDbScale
 70
     0
300
1/128" = 1'-0"
140
0.0078125
141
12.0
290
     0
  0
SCALE
  5
3B3
102
{ACAD_REACTORS
330
3A0
102
}
330
3A0
100
AcDbScale
 70
     0
300
1/64" = 1'-0"
140
0.015625
141
12.0
290
     0
  0
SCALE
  5
3B4
102
{ACAD_REACTORS
330
3A0
102
}
330
3A0
100
AcDbScale
 70
     0
300
1/32" = 1'-0"
140
0.03125
141
12.0
290
     0
  0
SCALE
  5
3B5
102
{ACAD_REACTORS
330
3A0
102
}
330
3A0
100
AcDbScale
 70
     0
300
1/16" = 1'-0"
140
0.0625
141
12.0
290
     0
  0
SCALE
  5
3B6
102
{ACAD_REACTORS
330
3A0
102
}
330
3A0
100
AcDbScale
 70
     0
300
3/32" = 1'-0"
140
0.09375
141
12.0
290
     0
  0
SCALE
  5
3B7
102
{ACAD_REACTORS
330
3A0
102
}
330
3A0
100
AcDbScale
 70
     0
300
1/8" = 1'-0"
140
0.125
141
12.0
290
     0
  0
SCALE
  5
3B8
102
{ACAD_REACTORS
330
3A0
102
}
330
3A0
100
AcDbScale
 70
     0
300
3/16" = 1'-0"
140
0.1875
141
12.0
290
     0
  0
SCALE
  5
3B9
102
{ACAD_REACTORS
330
3A0
102
}
330
3A0
100
AcDbScale
 70
     0
300
1/4" = 1'-0"
140
0.25
141
12.0
290
     0
  0
SCALE
  5
3BA
102
{ACAD_REACTORS
330
3A0
102
}
330
3A0
100
AcDbScale
 70
     0
300
3/8" = 1'-0"
140
0.375
141
12.0
290
     0
  0
SCALE
  5
3BB
102
{ACAD_REACTORS
330
3A0
102
}
330
3A0
100
AcDbScale
 70
     0
300
1/2" = 1'-0"
140
0.5
141
12.0
290
     0
  0
SCALE
  5
3BC
102
{ACAD_REACTORS
330
3A0
102
}
330
3A0
100
AcDbScale
 70
     0
300
3/4" = 1'-0"
140
0.75
141
12.0
290
     0
  0
SCALE
  5
3BD
102
{ACAD_REACTORS
330
3A0
102
}
330
3A0
100
AcDbScale
 70
     0
300
1" = 1'-0"
140
1.0
141
12.0
290
     0
  0
SCALE
  5
3BE
102
{ACAD_REACTORS
330
3A0
102
}
330
3A0
100
AcDbScale
 70
     0
300
1-1/2" = 1'-0"
140
1.5
141
12.0
290
     0
  0
SCALE
  5
3BF
102
{ACAD_REACTORS
330
3A0
102
}
330
3A0
100
AcDbScale
 70
     0
300
3" = 1'-0"
140
3.0
141
12.0
290
     0
  0
SCALE
  5
3C0
102
{ACAD_REACTORS
330
3A0
102
}
330
3A0
100
AcDbScale
 70
     0
300
6" = 1'-0"
140
6.0
141
12.0
290
     0
  0
SCALE
  5
3C1
102
{ACAD_REACTORS
330
3A0
102
}
330
3A0
100
AcDbScale
 70
     0
300
1'-0" = 1'-0"
140
12.0
141
12.0
290
     0
  0
TABLESTYLE
  5
389
102
{ACAD_REACTORS
330
388
102
}
330
388
100
AcDbTableStyle
  3
Standard
 70
     0
 71
     0
 40
1.5
 41
1.5
280
     0
281
     0
  7
STANDARD
140
4.5
170
     2
 62
     0
 63
   257
283
     0
274
    -2
284
     1
 64
     0
275
    -2
285
     1
 65
     0
276
    -2
286
     1
 66
     0
277
    -2
287
     1
 67
     0
278
    -2
288
     1
 68
     0
279
    -2
289
     1
 69
     0
  7
STANDARD
140
6.0
170
     5
 62
     0
 63
   257
283
     0
274
    -2
284
     1
 64
     0
275
    -2
285
     1
 65
     0
276
    -2
286
     1
 66
     0
277
    -2
287
     1
 67
     0
278
    -2
288
     1
 68
     0
279
    -2
289
     1
 69
     0
  7
STANDARD
140
4.5
170
     5
 62
     0
 63
   257
283
     0
274
    -2
284
     1
 64
     0
275
    -2
285
     1
 65
     0
276
    -2
286
     1
 66
     0
277
    -2
287
     1
 67
     0
278
    -2
288
     1
 68
     0
279
    -2
289
     1
 69
     0
  0
VISUALSTYLE
  5
3CA
102
{ACAD_REACTORS
330
3C5
102
}
102
{ACAD_XDICTIONARY
360
5FB
102
}
330
3C5
100
AcDbVisualStyle
  2
2dWireframe
 70
     4
 71
     0
 72
     2
 73
     0
 90
        0
 40
-0.6
 41
-30.0
 62
     5
 63
     7
 74
     1
 91
        4
 64
     7
 65
   257
 75
     1
175
     1
 42
1.0
 92
        0
 66
   257
 43
1.0
 76
     1
 77
     6
 78
     2
 67
     7
 79
     5
170
     0
171
     0
290
     0
174
     0
 93
        1
 44
0.0
173
     0
291
     0
 45
0.0
1001
ACAD
1000
AcDbSavedByObjectVersion
1070
     0
  0
VISUALSTYLE
  5
3CC
102
{ACAD_REACTORS
330
3C5
102
}
102
{ACAD_XDICTIONARY
360
5FF
102
}
330
3C5
100
AcDbVisualStyle
  2
3D Hidden
 70
     6
 71
     1
 72
     2
 73
     2
 90
        0
 40
-0.6
 41
-30.0
 62
     5
 63
     7
 74
     2
 91
        2
 64
     7
 65
   257
 75
     2
175
     1
 42
40.0
 92
        0
 66
   257
 43
1.0
 76
     1
 77
     6
 78
     2
 67
     7
 79
     3
170
     0
171
     0
290
     0
174
     0
 93
        1
 44
0.0
173
     0
291
     0
 45
0.0
1001
ACAD
1000
AcDbSavedByObjectVersion
1070
     0
  0
VISUALSTYLE
  5
3CB
102
{ACAD_REACTORS
330
3C5
102
}
102
{ACAD_XDICTIONARY
360
5FD
102
}
330
3C5
100
AcDbVisualStyle
  2
3dWireframe
 70
     5
 71
     0
 72
     2
 73
     0
 90
        0
 40
-0.6
 41
-30.0
 62
     5
 63
     7
 74
     1
 91
        4
 64
     7
 65
   257
 75
     1
175
     1
 42
1.0
 92
        0
 66
   257
 43
1.0
 76
     1
 77
     6
 78
     2
 67
     7
 79
     5
170
     0
171
     0
290
     0
174
     0
 93
        1
 44
0.0
173
     0
291
     0
 45
0.0
1001
ACAD
1000
AcDbSavedByObjectVersion
1070
     0
  0
VISUALSTYLE
  5
3CD
102
{ACAD_REACTORS
330
3C5
102
}
102
{ACAD_XDICTIONARY
360
601
102
}
330
3C5
100
AcDbVisualStyle
  2
Basic
 70
     7
 71
     1
 72
     0
 73
     1
 90
        0
 40
-0.6
 41
-30.0
 62
     5
 63
     7
 74
     0
 91
        4
 64
     7
 65
   257
 75
     1
175
     1
 42
1.0
 92
        8
 66
     7
 43
1.0
 76
     1
 77
     6
 78
     2
 67
     7
 79
     5
170
     0
171
     0
290
     0
174
     0
 93
        1
 44
0.0
173
     0
291
     1
 45
0.0
1001
ACAD
1000
AcDbSavedByObjectVersion
1070
     0
  0
VISUALSTYLE
  5
3D1
102
{ACAD_REACTORS
330
3C5
102
}
102
{ACAD_XDICTIONARY
360
609
102
}
330
3C5
100
AcDbVisualStyle
  2
Brighten
 70
    12
 71
     2
 72
     2
 73
     0
 90
        0
 40
-0.6
 41
-30.0
 62
     5
 63
     7
 74
     1
 91
        4
 64
     7
 65
   257
 75
     1
175
     1
 42
1.0
 92
        8
 66
     7
 43
1.0
 76
     1
 77
     6
 78
     2
 67
     7
 79
     5
170
     0
171
     0
290
     0
174
     0
 93
        1
 44
50.0
173
     0
291
     1
 45
0.0
1001
ACAD
1000
AcDbSavedByObjectVersion
1070
     0
  0
VISUALSTYLE
  5
3D5
102
{ACAD_REACTORS
330
3C5
102
}
102
{ACAD_XDICTIONARY
360
611
102
}
330
3C5
100
AcDbVisualStyle
  2
ColorChange
 70
    16
 71
     2
 72
     2
 73
     3
 90
        0
 40
-0.6
 41
-30.0
 62
     5
 63
     8
 74
     1
 91
        4
 64
     7
 65
   257
 75
     1
175
     1
 42
1.0
 92
        8
 66
     8
 43
1.0
 76
     1
 77
     6
 78
     2
 67
     7
 79
     5
170
     0
171
     0
290
     0
174
     0
 93
        1
 44
0.0
173
     0
291
     1
 45
0.0
1001
ACAD
1000
AcDbSavedByObjectVersion
1070
     0
  0
VISUALSTYLE
  5
3CF
102
{ACAD_REACTORS
330
3C5
102
}
102
{ACAD_XDICTIONARY
360
605
102
}
330
3C5
100
AcDbVisualStyle
  2
Conceptual
 70
     9
 71
     3
 72
     2
 73
     0
 90
        0
 40
-0.6
 41
-30.0
 62
     5
 63
     7
 74
     2
 91
        2
 64
     7
 65
   257
 75
     1
175
     1
 42
40.0
 92
        8
 66
     7
 43
1.0
 76
     1
 77
     6
 78
     2
 67
     7
 79
     3
170
     0
171
     0
290
     0
174
     0
 93
        1
 44
0.0
173
     0
291
     0
 45
0.0
1001
ACAD
1000
AcDbSavedByObjectVersion
1070
     0
  0
VISUALSTYLE
  5
3D0
102
{ACAD_REACTORS
330
3C5
102
}
102
{ACAD_XDICTIONARY
360
607
102
}
330
3C5
100
AcDbVisualStyle
  2
Dim
 70
    11
 71
     2
 72
     2
 73
     0
 90
        0
 40
-0.6
 41
-30.0
 62
     5
 63
     7
 74
     1
 91
        4
 64
     7
 65
   257
 75
     1
175
     1
 42
1.0
 92
        8
 66
     7
 43
1.0
 76
     1
 77
     6
 78
     2
 67
     7
 79
     5
170
     0
171
     0
290
     0
174
     0
 93
        1
 44
-50.0
173
     0
291
     1
 45
0.0
1001
ACAD
1000
AcDbSavedByObjectVersion
1070
     0
  0
VISUALSTYLE
  5
3D4
102
{ACAD_REACTORS
330
3C5
102
}
102
{ACAD_XDICTIONARY
360
60F
102
}
330
3C5
100
AcDbVisualStyle
  2
Facepattern
 70
    15
 71
     2
 72
     2
 73
     0
 90
        0
 40
-0.6
 41
-30.0
 62
     5
 63
     7
 74
     1
 91
        4
 64
     7
 65
   257
 75
     1
175
     1
 42
1.0
 92
        8
 66
     7
 43
1.0
 76
     1
 77
     6
 78
     2
 67
     7
 79
     5
170
     0
171
     0
290
     0
174
     0
 93
        1
 44
0.0
173
     0
291
     1
 45
0.0
1001
ACAD
1000
AcDbSavedByObjectVersion
1070
     0
  0
VISUALSTYLE
  5
3C6
102
{ACAD_REACTORS
330
3C5
102
}
102
{ACAD_XDICTIONARY
360
5F3
102
}
330
3C5
100
AcDbVisualStyle
  2
Flat
 70
     0
 71
     2
 72
     1
 73
     1
 90
        2
 40
-0.6
 41
30.0
 62
     5
 63
     7
 74
     0
 91
        4
 64
     7
 65
   257
 75
     1
175
     1
 42
1.0
 92
        8
 66
     7
 43
1.0
 76
     1
 77
     6
 78
     2
 67
     7
 79
     5
170
     0
171
     0
290
     0
174
     0
 93
       13
 44
0.0
173
     0
291
     1
 45
0.0
1001
ACAD
1000
AcDbSavedByObjectVersion
1070
     0
  0
VISUALSTYLE
  5
3C7
102
{ACAD_REACTORS
330
3C5
102
}
102
{ACAD_XDICTIONARY
360
5F5
102
}
330
3C5
100
AcDbVisualStyle
  2
FlatWithEdges
 70
     1
 71
     2
 72
     1
 73
     1
 90
        2
 40
-0.6
 41
30.0
 62
     5
 63
     7
 74
     1
 91
        4
 64
     7
 65
   257
 75
     1
175
     1
 42
1.0
 92
        0
 66
   257
 43
1.0
 76
     1
 77
     6
 78
     2
 67
     7
 79
     5
170
     0
171
     0
290
     0
174
     0
 93
       13
 44
0.0
173
     0
291
     1
 45
0.0
1001
ACAD
1000
AcDbSavedByObjectVersion
1070
     0
  0
VISUALSTYLE
  5
3C8
102
{ACAD_REACTORS
330
3C5
102
}
102
{ACAD_XDICTIONARY
360
5F7
102
}
330
3C5
100
AcDbVisualStyle
  2
Gouraud
 70
     2
 71
     2
 72
     2
 73
     1
 90
        2
 40
-0.6
 41
30.0
 62
     5
 63
     7
 74
     0
 91
        4
 64
     7
 65
   257
 75
     1
175
     1
 42
1.0
 92
        0
 66
     7
 43
1.0
 76
     1
 77
     6
 78
     2
 67
     7
 79
     5
170
     0
171
     0
290
     0
174
     0
 93
       13
 44
0.0
173
     0
291
     1
 45
0.0
1001
ACAD
1000
AcDbSavedByObjectVersion
1070
     0
  0
VISUALSTYLE
  5
3C9
102
{ACAD_REACTORS
330
3C5
102
}
102
{ACAD_XDICTIONARY
360
5F9
102
}
330
3C5
100
AcDbVisualStyle
  2
GouraudWithEdges
 70
     3
 71
     2
 72
     2
 73
     1
 90
        2
 40
-0.6
 41
30.0
 62
     5
 63
     7
 74
     1
 91
        4
 64
     7
 65
   257
 75
     1
175
     1
 42
1.0
 92
        0
 66
   257
 43
1.0
 76
     1
 77
     6
 78
     2
 67
     7
 79
     5
170
     0
171
     0
290
     0
174
     0
 93
       13
 44
0.0
173
     0
291
     1
 45
0.0
1001
ACAD
1000
AcDbSavedByObjectVersion
1070
     0
  0
VISUALSTYLE
  5
3D3
102
{ACAD_REACTORS
330
3C5
102
}
102
{ACAD_XDICTIONARY
360
60D
102
}
330
3C5
100
AcDbVisualStyle
  2
Linepattern
 70
    14
 71
     2
 72
     2
 73
     0
 90
        0
 40
-0.6
 41
-30.0
 62
     5
 63
     7
 74
     1
 91
        4
 64
     7
 65
   257
 75
     7
175
     7
 42
1.0
 92
        8
 66
     7
 43
1.0
 76
     1
 77
     6
 78
     2
 67
     7
 79
     5
170
     0
171
     0
290
     0
174
     0
 93
        1
 44
0.0
173
     0
291
     1
 45
0.0
1001
ACAD
1000
AcDbSavedByObjectVersion
1070
     0
  0
VISUALSTYLE
  5
3CE
102
{ACAD_REACTORS
330
3C5
102
}
102
{ACAD_XDICTIONARY
360
603
102
}
330
3C5
100
AcDbVisualStyle
  2
Realistic
 70
     8
 71
     2
 72
     2
 73
     0
 90
        0
 40
-0.6
 41
-30.0
 62
     5
 63
     7
 74
     1
 91
        0
 64
     7
 65
   257
 75
     1
175
     1
 42
1.0
 92
        8
 66
     8
 43
1.0
 76
     1
 77
     6
 78
     2
 67
     7
 79
     5
170
     0
171
     0
290
     0
174
     0
 93
       13
 44
0.0
173
     0
291
     0
 45
0.0
1001
ACAD
1000
AcDbSavedByObjectVersion
1070
     0
  0
VISUALSTYLE
  5
3D2
102
{ACAD_REACTORS
330
3C5
102
}
102
{ACAD_XDICTIONARY
360
60B
102
}
330
3C5
100
AcDbVisualStyle
  2
Thicken
 70
    13
 71
     2
 72
     2
 73
     0
 90
        0
 40
-0.6
 41
-30.0
 62
     5
 63
     7
 74
     1
 91
        4
 64
     7
 65
   257
 75
     1
175
     1
 42
1.0
 92
       12
 66
     7
 43
1.0
 76
     1
 77
     6
 78
     2
 67
     7
 79
     5
170
     0
171
     0
290
     0
174
     0
 93
        1
 44
0.0
173
     0
291
     1
 45
0.0
1001
ACAD
1000
AcDbSavedByObjectVersion
1070
     0
  0
XRECORD
  5
5EA
102
{ACAD_REACTORS
330
5E9
102
}
330
5E9
100
AcDbXrecord
280
     1
340
387
  0
XRECORD
  5
5EB
102
{ACAD_REACTORS
330
5E9
102
}
330
5E9
100
AcDbXrecord
280
     1
340
386
  0
DICTIONARYVAR
  5
5EC
102
{ACAD_REACTORS
330
357
102
}
330
357
100
DictionaryVariables
280
     0
  1
1:1
  0
DICTIONARYVAR
  5
38D
102
{ACAD_REACTORS
330
357
102
}
330
357
100
DictionaryVariables
280
     0
  1
Standard
  0
DICTIONARYVAR
  5
359
102
{ACAD_REACTORS
330
357
102
}
330
357
100
DictionaryVariables
280
     0
  1
2
  0
DICTIONARYVAR
  5
358
102
{ACAD_REACTORS
330
357
102
}
330
357
100
DictionaryVariables
280
     0
  1
1
  0
DICTIONARYVAR
  5
38E
102
{ACAD_REACTORS
330
357
102
}
330
357
100
DictionaryVariables
280
     0
  1

  0
DICTIONARY
  5
5EF
330
3C3
100
AcDbDictionary
280
     1
281
     1
  3
ACAD_XREC_ROUNDTRIP
360
5F0
  0
DICTIONARY
  5
5ED
330
3C2
100
AcDbDictionary
280
     1
281
     1
  3
ACAD_XREC_ROUNDTRIP
360
5EE
  0
DICTIONARY
  5
5F1
330
3C4
100
AcDbDictionary
280
     1
281
     1
  3
ACAD_XREC_ROUNDTRIP
360
5F2
  0
DICTIONARY
  5
5FB
330
3CA
100
AcDbDictionary
280
     1
281
     1
  3
ACAD_XREC_ROUNDTRIP
360
5FC
  0
DICTIONARY
  5
5FF
330
3CC
100
AcDbDictionary
280
     1
281
     1
  3
ACAD_XREC_ROUNDTRIP
360
600
  0
DICTIONARY
  5
5FD
330
3CB
100
AcDbDictionary
280
     1
281
     1
  3
ACAD_XREC_ROUNDTRIP
360
5FE
  0
DICTIONARY
  5
601
330
3CD
100
AcDbDictionary
280
     1
281
     1
  3
ACAD_XREC_ROUNDTRIP
360
602
  0
DICTIONARY
  5
609
330
3D1
100
AcDbDictionary
280
     1
281
     1
  3
ACAD_XREC_ROUNDTRIP
360
60A
  0
DICTIONARY
  5
611
330
3D5
100
AcDbDictionary
280
     1
281
     1
  3
ACAD_XREC_ROUNDTRIP
360
612
  0
DICTIONARY
  5
605
330
3CF
100
AcDbDictionary
280
     1
281
     1
  3
ACAD_XREC_ROUNDTRIP
360
606
  0
DICTIONARY
  5
607
330
3D0
100
AcDbDictionary
280
     1
281
     1
  3
ACAD_XREC_ROUNDTRIP
360
608
  0
DICTIONARY
  5
60F
330
3D4
100
AcDbDictionary
280
     1
281
     1
  3
ACAD_XREC_ROUNDTRIP
360
610
  0
DICTIONARY
  5
5F3
330
3C6
100
AcDbDictionary
280
     1
281
     1
  3
ACAD_XREC_ROUNDTRIP
360
5F4
  0
DICTIONARY
  5
5F5
330
3C7
100
AcDbDictionary
280
     1
281
     1
  3
ACAD_XREC_ROUNDTRIP
360
5F6
  0
DICTIONARY
  5
5F7
330
3C8
100
AcDbDictionary
280
     1
281
     1
  3
ACAD_XREC_ROUNDTRIP
360
5F8
  0
DICTIONARY
  5
5F9
330
3C9
100
AcDbDictionary
280
     1
281
     1
  3
ACAD_XREC_ROUNDTRIP
360
5FA
  0
DICTIONARY
  5
60D
330
3D3
100
AcDbDictionary
280
     1
281
     1
  3
ACAD_XREC_ROUNDTRIP
360
60E
  0
DICTIONARY
  5
603
330
3CE
100
AcDbDictionary
280
     1
281
     1
  3
ACAD_XREC_ROUNDTRIP
360
604
  0
DICTIONARY
  5
60B
330
3D2
100
AcDbDictionary
280
     1
281
     1
  3
ACAD_XREC_ROUNDTRIP
360
60C
  0
XRECORD
  5
5F0
102
{ACAD_REACTORS
330
5EF
102
}
330
5EF
100
AcDbXrecord
280
     1
102
MATERIAL
148
0.0
149
0.0
149
0.0
 93
        0
 94
      127
282
     0
 72
     1
 77
     1
171
     1
175
     1
179
     1
273
     0
  0
XRECORD
  5
5EE
102
{ACAD_REACTORS
330
5ED
102
}
330
5ED
100
AcDbXrecord
280
     1
102
MATERIAL
148
0.0
149
0.0
149
0.0
 93
        0
 94
      127
282
     0
 72
     1
 77
     1
171
     1
175
     1
179
     1
273
     0
  0
XRECORD
  5
5F2
102
{ACAD_REACTORS
330
5F1
102
}
330
5F1
100
AcDbXrecord
280
     1
102
MATERIAL
148
0.0
149
0.0
149
0.0
 93
        0
 94
      127
282
     0
 72
     1
 77
     1
171
     1
175
     1
179
     1
273
     0
  0
XRECORD
  5
5FC
102
{ACAD_REACTORS
330
5FB
102
}
330
5FB
100
AcDbXrecord
280
     1
102
RTVSPropertyOp0
 70
     1
102
RTVSPropertyOp1
 70
     1
102
RTVSPropertyOp2
 70
     1
102
RTVSPropertyOp3
 70
     1
102
RTVSPropertyOp4
 70
     1
102
RTVSPropertyOp5
 70
     1
102
RTVSPropertyOp6
 70
     1
102
RTVSPropertyOp7
 70
     1
102
RTVSPropertyOp8
 70
     1
102
RTVSPropertyOp9
 70
     1
102
RTVSPropertyOp10
 70
     1
102
RTVSPropertyOp11
 70
     1
102
RTVSPropertyOp12
 70
     1
102
RTVSPropertyOp13
 70
     1
102
RTVSPropertyOp14
 70
     1
102
RTVSPropertyOp15
 70
     1
102
RTVSPropertyOp16
 70
     1
102
RTVSPropertyOp17
 70
     1
102
RTVSPropertyOp18
 70
     1
102
RTVSPropertyOp19
 70
     1
102
RTVSPropertyOp20
 70
     1
102
RTVSPropertyOp21
 70
     1
102
RTVSPropertyOp22
 70
     1
102
RTVSPropertyOp23
 70
     1
102
RTVSPropertyOp24
 70
     1
102
RTVSPropertyOp25
 70
     1
102
RTVSPropertyOp26
 70
     1
102
RTVSPropertyOp27
 70
     1
102
RTVSPropertyOp28
 70
     1
102
RTVSPropertyOp29
 70
     1
102
RTVSPropertyOp30
 70
     1
102
RTVSPropertyOp31
 70
     1
102
RTVSPropertyOp32
 70
     1
  0
XRECORD
  5
600
102
{ACAD_REACTORS
330
5FF
102
}
330
5FF
100
AcDbXrecord
280
     1
102
RTVSPropertyOp0
 70
     1
102
RTVSPropertyOp1
 70
     1
102
RTVSPropertyOp2
 70
     1
102
RTVSPropertyOp3
 70
     1
102
RTVSPropertyOp4
 70
     1
102
RTVSPropertyOp5
 70
     1
102
RTVSPropertyOp6
 70
     1
102
RTVSPropertyOp7
 70
     1
102
RTVSPropertyOp8
 70
     1
102
RTVSPropertyOp9
 70
     1
102
RTVSPropertyOp10
 70
     1
102
RTVSPropertyOp11
 70
     1
102
RTVSPropertyOp12
 70
     1
102
RTVSPropertyOp13
 70
     1
102
RTVSPropertyOp14
 70
     1
102
RTVSPropertyOp15
 70
     1
102
RTVSPropertyOp16
 70
     1
102
RTVSPropertyOp17
 70
     1
102
RTVSPropertyOp18
 70
     1
102
RTVSPropertyOp19
 70
     1
102
RTVSPropertyOp20
 70
     1
102
RTVSPropertyOp21
 70
     1
102
RTVSPropertyOp22
 70
     1
102
RTVSPropertyOp23
 70
     1
102
RTVSPropertyOp24
 70
     1
102
RTVSPropertyOp25
 70
     1
102
RTVSPropertyOp26
 70
     1
102
RTVSPropertyOp27
 70
     1
102
RTVSPropertyOp28
 70
     1
102
RTVSPropertyOp29
 70
     1
102
RTVSPropertyOp30
 70
     1
102
RTVSPropertyOp31
 70
     1
102
RTVSPropertyOp32
 70
     1
  0
XRECORD
  5
5FE
102
{ACAD_REACTORS
330
5FD
102
}
330
5FD
100
AcDbXrecord
280
     1
102
RTVSPropertyOp0
 70
     1
102
RTVSPropertyOp1
 70
     1
102
RTVSPropertyOp2
 70
     1
102
RTVSPropertyOp3
 70
     1
102
RTVSPropertyOp4
 70
     1
102
RTVSPropertyOp5
 70
     1
102
RTVSPropertyOp6
 70
     1
102
RTVSPropertyOp7
 70
     1
102
RTVSPropertyOp8
 70
     1
102
RTVSPropertyOp9
 70
     1
102
RTVSPropertyOp10
 70
     1
102
RTVSPropertyOp11
 70
     1
102
RTVSPropertyOp12
 70
     1
102
RTVSPropertyOp13
 70
     1
102
RTVSPropertyOp14
 70
     1
102
RTVSPropertyOp15
 70
     1
102
RTVSPropertyOp16
 70
     1
102
RTVSPropertyOp17
 70
     1
102
RTVSPropertyOp18
 70
     1
102
RTVSPropertyOp19
 70
     1
102
RTVSPropertyOp20
 70
     1
102
RTVSPropertyOp21
 70
     1
102
RTVSPropertyOp22
 70
     1
102
RTVSPropertyOp23
 70
     1
102
RTVSPropertyOp24
 70
     1
102
RTVSPropertyOp25
 70
     1
102
RTVSPropertyOp26
 70
     1
102
RTVSPropertyOp27
 70
     1
102
RTVSPropertyOp28
 70
     1
102
RTVSPropertyOp29
 70
     1
102
RTVSPropertyOp30
 70
     1
102
RTVSPropertyOp31
 70
     1
102
RTVSPropertyOp32
 70
     1
  0
XRECORD
  5
602
102
{ACAD_REACTORS
330
601
102
}
330
601
100
AcDbXrecord
280
     1
102
RTVSPropertyOp0
 70
     1
102
RTVSPropertyOp1
 70
     1
102
RTVSPropertyOp2
 70
     1
102
RTVSPropertyOp3
 70
     1
102
RTVSPropertyOp4
 70
     1
102
RTVSPropertyOp5
 70
     1
102
RTVSPropertyOp6
 70
     1
102
RTVSPropertyOp7
 70
     1
102
RTVSPropertyOp8
 70
     1
102
RTVSPropertyOp9
 70
     1
102
RTVSPropertyOp10
 70
     1
102
RTVSPropertyOp11
 70
     1
102
RTVSPropertyOp12
 70
     1
102
RTVSPropertyOp13
 70
     1
102
RTVSPropertyOp14
 70
     1
102
RTVSPropertyOp15
 70
     1
102
RTVSPropertyOp16
 70
     1
102
RTVSPropertyOp17
 70
     1
102
RTVSPropertyOp18
 70
     1
102
RTVSPropertyOp19
 70
     1
102
RTVSPropertyOp20
 70
     1
102
RTVSPropertyOp21
 70
     1
102
RTVSPropertyOp22
 70
     1
102
RTVSPropertyOp23
 70
     1
102
RTVSPropertyOp24
 70
     1
102
RTVSPropertyOp25
 70
     1
102
RTVSPropertyOp26
 70
     1
102
RTVSPropertyOp27
 70
     1
102
RTVSPropertyOp28
 70
     1
102
RTVSPropertyOp29
 70
     1
102
RTVSPropertyOp30
 70
     1
102
RTVSPropertyOp31
 70
     1
102
RTVSPropertyOp32
 70
     1
  0
XRECORD
  5
60A
102
{ACAD_REACTORS
330
609
102
}
330
609
100
AcDbXrecord
280
     1
102
RTVSPropertyOp0
 70
     1
102
RTVSPropertyOp1
 70
     1
102
RTVSPropertyOp2
 70
     1
102
RTVSPropertyOp3
 70
     1
102
RTVSPropertyOp4
 70
     1
102
RTVSPropertyOp5
 70
     1
102
RTVSPropertyOp6
 70
     1
102
RTVSPropertyOp7
 70
     1
102
RTVSPropertyOp8
 70
     1
102
RTVSPropertyOp9
 70
     1
102
RTVSPropertyOp10
 70
     1
102
RTVSPropertyOp11
 70
     1
102
RTVSPropertyOp12
 70
     1
102
RTVSPropertyOp13
 70
     1
102
RTVSPropertyOp14
 70
     1
102
RTVSPropertyOp15
 70
     1
102
RTVSPropertyOp16
 70
     1
102
RTVSPropertyOp17
 70
     1
102
RTVSPropertyOp18
 70
     1
102
RTVSPropertyOp19
 70
     1
102
RTVSPropertyOp20
 70
     1
102
RTVSPropertyOp21
 70
     1
102
RTVSPropertyOp22
 70
     1
102
RTVSPropertyOp23
 70
     1
102
RTVSPropertyOp24
 70
     1
102
RTVSPropertyOp25
 70
     1
102
RTVSPropertyOp26
 70
     1
102
RTVSPropertyOp27
 70
     1
102
RTVSPropertyOp28
 70
     1
102
RTVSPropertyOp29
 70
     1
102
RTVSPropertyOp30
 70
     1
102
RTVSPropertyOp31
 70
     1
102
RTVSPropertyOp32
 70
     1
  0
XRECORD
  5
612
102
{ACAD_REACTORS
330
611
102
}
330
611
100
AcDbXrecord
280
     1
102
RTVSPropertyOp0
 70
     1
102
RTVSPropertyOp1
 70
     1
102
RTVSPropertyOp2
 70
     1
102
RTVSPropertyOp3
 70
     1
102
RTVSPropertyOp4
 70
     1
102
RTVSPropertyOp5
 70
     1
102
RTVSPropertyOp6
 70
     1
102
RTVSPropertyOp7
 70
     1
102
RTVSPropertyOp8
 70
     1
102
RTVSPropertyOp9
 70
     1
102
RTVSPropertyOp10
 70
     1
102
RTVSPropertyOp11
 70
     1
102
RTVSPropertyOp12
 70
     1
102
RTVSPropertyOp13
 70
     1
102
RTVSPropertyOp14
 70
     1
102
RTVSPropertyOp15
 70
     1
102
RTVSPropertyOp16
 70
     1
102
RTVSPropertyOp17
 70
     1
102
RTVSPropertyOp18
 70
     1
102
RTVSPropertyOp19
 70
     1
102
RTVSPropertyOp20
 70
     1
102
RTVSPropertyOp21
 70
     1
102
RTVSPropertyOp22
 70
     1
102
RTVSPropertyOp23
 70
     1
102
RTVSPropertyOp24
 70
     1
102
RTVSPropertyOp25
 70
     1
102
RTVSPropertyOp26
 70
     1
102
RTVSPropertyOp27
 70
     1
102
RTVSPropertyOp28
 70
     1
102
RTVSPropertyOp29
 70
     1
102
RTVSPropertyOp30
 70
     1
102
RTVSPropertyOp31
 70
     1
102
RTVSPropertyOp32
 70
     1
  0
XRECORD
  5
606
102
{ACAD_REACTORS
330
605
102
}
330
605
100
AcDbXrecord
280
     1
102
RTVSPropertyOp0
 70
     1
102
RTVSPropertyOp1
 70
     1
102
RTVSPropertyOp2
 70
     1
102
RTVSPropertyOp3
 70
     1
102
RTVSPropertyOp4
 70
     1
102
RTVSPropertyOp5
 70
     1
102
RTVSPropertyOp6
 70
     1
102
RTVSPropertyOp7
 70
     1
102
RTVSPropertyOp8
 70
     1
102
RTVSPropertyOp9
 70
     1
102
RTVSPropertyOp10
 70
     1
102
RTVSPropertyOp11
 70
     1
102
RTVSPropertyOp12
 70
     1
102
RTVSPropertyOp13
 70
     1
102
RTVSPropertyOp14
 70
     1
102
RTVSPropertyOp15
 70
     1
102
RTVSPropertyOp16
 70
     1
102
RTVSPropertyOp17
 70
     1
102
RTVSPropertyOp18
 70
     1
102
RTVSPropertyOp19
 70
     1
102
RTVSPropertyOp20
 70
     1
102
RTVSPropertyOp21
 70
     1
102
RTVSPropertyOp22
 70
     1
102
RTVSPropertyOp23
 70
     1
102
RTVSPropertyOp24
 70
     1
102
RTVSPropertyOp25
 70
     1
102
RTVSPropertyOp26
 70
     1
102
RTVSPropertyOp27
 70
     1
102
RTVSPropertyOp28
 70
     1
102
RTVSPropertyOp29
 70
     1
102
RTVSPropertyOp30
 70
     1
102
RTVSPropertyOp31
 70
     1
102
RTVSPropertyOp32
 70
     1
  0
XRECORD
  5
608
102
{ACAD_REACTORS
330
607
102
}
330
607
100
AcDbXrecord
280
     1
102
RTVSPropertyOp0
 70
     1
102
RTVSPropertyOp1
 70
     1
102
RTVSPropertyOp2
 70
     1
102
RTVSPropertyOp3
 70
     1
102
RTVSPropertyOp4
 70
     1
102
RTVSPropertyOp5
 70
     1
102
RTVSPropertyOp6
 70
     1
102
RTVSPropertyOp7
 70
     1
102
RTVSPropertyOp8
 70
     1
102
RTVSPropertyOp9
 70
     1
102
RTVSPropertyOp10
 70
     1
102
RTVSPropertyOp11
 70
     1
102
RTVSPropertyOp12
 70
     1
102
RTVSPropertyOp13
 70
     1
102
RTVSPropertyOp14
 70
     1
102
RTVSPropertyOp15
 70
     1
102
RTVSPropertyOp16
 70
     1
102
RTVSPropertyOp17
 70
     1
102
RTVSPropertyOp18
 70
     1
102
RTVSPropertyOp19
 70
     1
102
RTVSPropertyOp20
 70
     1
102
RTVSPropertyOp21
 70
     1
102
RTVSPropertyOp22
 70
     1
102
RTVSPropertyOp23
 70
     1
102
RTVSPropertyOp24
 70
     1
102
RTVSPropertyOp25
 70
     1
102
RTVSPropertyOp26
 70
     1
102
RTVSPropertyOp27
 70
     1
102
RTVSPropertyOp28
 70
     1
102
RTVSPropertyOp29
 70
     1
102
RTVSPropertyOp30
 70
     1
102
RTVSPropertyOp31
 70
     1
102
RTVSPropertyOp32
 70
     1
  0
XRECORD
  5
610
102
{ACAD_REACTORS
330
60F
102
}
330
60F
100
AcDbXrecord
280
     1
102
RTVSPropertyOp0
 70
     1
102
RTVSPropertyOp1
 70
     1
102
RTVSPropertyOp2
 70
     1
102
RTVSPropertyOp3
 70
     1
102
RTVSPropertyOp4
 70
     1
102
RTVSPropertyOp5
 70
     1
102
RTVSPropertyOp6
 70
     1
102
RTVSPropertyOp7
 70
     1
102
RTVSPropertyOp8
 70
     1
102
RTVSPropertyOp9
 70
     1
102
RTVSPropertyOp10
 70
     1
102
RTVSPropertyOp11
 70
     1
102
RTVSPropertyOp12
 70
     1
102
RTVSPropertyOp13
 70
     1
102
RTVSPropertyOp14
 70
     1
102
RTVSPropertyOp15
 70
     1
102
RTVSPropertyOp16
 70
     1
102
RTVSPropertyOp17
 70
     1
102
RTVSPropertyOp18
 70
     1
102
RTVSPropertyOp19
 70
     1
102
RTVSPropertyOp20
 70
     1
102
RTVSPropertyOp21
 70
     1
102
RTVSPropertyOp22
 70
     1
102
RTVSPropertyOp23
 70
     1
102
RTVSPropertyOp24
 70
     1
102
RTVSPropertyOp25
 70
     1
102
RTVSPropertyOp26
 70
     1
102
RTVSPropertyOp27
 70
     1
102
RTVSPropertyOp28
 70
     1
102
RTVSPropertyOp29
 70
     1
102
RTVSPropertyOp30
 70
     1
102
RTVSPropertyOp31
 70
     1
102
RTVSPropertyOp32
 70
     1
  0
XRECORD
  5
5F4
102
{ACAD_REACTORS
330
5F3
102
}
330
5F3
100
AcDbXrecord
280
     1
102
RTVSPropertyOp0
 70
     1
102
RTVSPropertyOp1
 70
     1
102
RTVSPropertyOp2
 70
     1
102
RTVSPropertyOp3
 70
     1
102
RTVSPropertyOp4
 70
     1
102
RTVSPropertyOp5
 70
     1
102
RTVSPropertyOp6
 70
     1
102
RTVSPropertyOp7
 70
     1
102
RTVSPropertyOp8
 70
     1
102
RTVSPropertyOp9
 70
     1
102
RTVSPropertyOp10
 70
     1
102
RTVSPropertyOp11
 70
     1
102
RTVSPropertyOp12
 70
     1
102
RTVSPropertyOp13
 70
     1
102
RTVSPropertyOp14
 70
     1
102
RTVSPropertyOp15
 70
     1
102
RTVSPropertyOp16
 70
     1
102
RTVSPropertyOp17
 70
     1
102
RTVSPropertyOp18
 70
     1
102
RTVSPropertyOp19
 70
     1
102
RTVSPropertyOp20
 70
     1
102
RTVSPropertyOp21
 70
     1
102
RTVSPropertyOp22
 70
     1
102
RTVSPropertyOp23
 70
     1
102
RTVSPropertyOp24
 70
     1
102
RTVSPropertyOp25
 70
     1
102
RTVSPropertyOp26
 70
     1
102
RTVSPropertyOp27
 70
     1
102
RTVSPropertyOp28
 70
     1
102
RTVSPropertyOp29
 70
     1
102
RTVSPropertyOp30
 70
     1
102
RTVSPropertyOp31
 70
     1
102
RTVSPropertyOp32
 70
     1
  0
XRECORD
  5
5F6
102
{ACAD_REACTORS
330
5F5
102
}
330
5F5
100
AcDbXrecord
280
     1
102
RTVSPropertyOp0
 70
     1
102
RTVSPropertyOp1
 70
     1
102
RTVSPropertyOp2
 70
     1
102
RTVSPropertyOp3
 70
     1
102
RTVSPropertyOp4
 70
     1
102
RTVSPropertyOp5
 70
     1
102
RTVSPropertyOp6
 70
     1
102
RTVSPropertyOp7
 70
     1
102
RTVSPropertyOp8
 70
     1
102
RTVSPropertyOp9
 70
     1
102
RTVSPropertyOp10
 70
     1
102
RTVSPropertyOp11
 70
     1
102
RTVSPropertyOp12
 70
     1
102
RTVSPropertyOp13
 70
     1
102
RTVSPropertyOp14
 70
     1
102
RTVSPropertyOp15
 70
     1
102
RTVSPropertyOp16
 70
     1
102
RTVSPropertyOp17
 70
     1
102
RTVSPropertyOp18
 70
     1
102
RTVSPropertyOp19
 70
     1
102
RTVSPropertyOp20
 70
     1
102
RTVSPropertyOp21
 70
     1
102
RTVSPropertyOp22
 70
     1
102
RTVSPropertyOp23
 70
     1
102
RTVSPropertyOp24
 70
     1
102
RTVSPropertyOp25
 70
     1
102
RTVSPropertyOp26
 70
     1
102
RTVSPropertyOp27
 70
     1
102
RTVSPropertyOp28
 70
     1
102
RTVSPropertyOp29
 70
     1
102
RTVSPropertyOp30
 70
     1
102
RTVSPropertyOp31
 70
     1
102
RTVSPropertyOp32
 70
     1
  0
XRECORD
  5
5F8
102
{ACAD_REACTORS
330
5F7
102
}
330
5F7
100
AcDbXrecord
280
     1
102
RTVSPropertyOp0
 70
     1
102
RTVSPropertyOp1
 70
     1
102
RTVSPropertyOp2
 70
     1
102
RTVSPropertyOp3
 70
     1
102
RTVSPropertyOp4
 70
     1
102
RTVSPropertyOp5
 70
     1
102
RTVSPropertyOp6
 70
     1
102
RTVSPropertyOp7
 70
     1
102
RTVSPropertyOp8
 70
     1
102
RTVSPropertyOp9
 70
     1
102
RTVSPropertyOp10
 70
     1
102
RTVSPropertyOp11
 70
     1
102
RTVSPropertyOp12
 70
     1
102
RTVSPropertyOp13
 70
     1
102
RTVSPropertyOp14
 70
     1
102
RTVSPropertyOp15
 70
     1
102
RTVSPropertyOp16
 70
     1
102
RTVSPropertyOp17
 70
     1
102
RTVSPropertyOp18
 70
     1
102
RTVSPropertyOp19
 70
     1
102
RTVSPropertyOp20
 70
     1
102
RTVSPropertyOp21
 70
     1
102
RTVSPropertyOp22
 70
     1
102
RTVSPropertyOp23
 70
     1
102
RTVSPropertyOp24
 70
     1
102
RTVSPropertyOp25
 70
     1
102
RTVSPropertyOp26
 70
     1
102
RTVSPropertyOp27
 70
     1
102
RTVSPropertyOp28
 70
     1
102
RTVSPropertyOp29
 70
     1
102
RTVSPropertyOp30
 70
     1
102
RTVSPropertyOp31
 70
     1
102
RTVSPropertyOp32
 70
     1
  0
XRECORD
  5
5FA
102
{ACAD_REACTORS
330
5F9
102
}
330
5F9
100
AcDbXrecord
280
     1
102
RTVSPropertyOp0
 70
     1
102
RTVSPropertyOp1
 70
     1
102
RTVSPropertyOp2
 70
     1
102
RTVSPropertyOp3
 70
     1
102
RTVSPropertyOp4
 70
     1
102
RTVSPropertyOp5
 70
     1
102
RTVSPropertyOp6
 70
     1
102
RTVSPropertyOp7
 70
     1
102
RTVSPropertyOp8
 70
     1
102
RTVSPropertyOp9
 70
     1
102
RTVSPropertyOp10
 70
     1
102
RTVSPropertyOp11
 70
     1
102
RTVSPropertyOp12
 70
     1
102
RTVSPropertyOp13
 70
     1
102
RTVSPropertyOp14
 70
     1
102
RTVSPropertyOp15
 70
     1
102
RTVSPropertyOp16
 70
     1
102
RTVSPropertyOp17
 70
     1
102
RTVSPropertyOp18
 70
     1
102
RTVSPropertyOp19
 70
     1
102
RTVSPropertyOp20
 70
     1
102
RTVSPropertyOp21
 70
     1
102
RTVSPropertyOp22
 70
     1
102
RTVSPropertyOp23
 70
     1
102
RTVSPropertyOp24
 70
     1
102
RTVSPropertyOp25
 70
     1
102
RTVSPropertyOp26
 70
     1
102
RTVSPropertyOp27
 70
     1
102
RTVSPropertyOp28
 70
     1
102
RTVSPropertyOp29
 70
     1
102
RTVSPropertyOp30
 70
     1
102
RTVSPropertyOp31
 70
     1
102
RTVSPropertyOp32
 70
     1
  0
XRECORD
  5
60E
102
{ACAD_REACTORS
330
60D
102
}
330
60D
100
AcDbXrecord
280
     1
102
RTVSPropertyOp0
 70
     1
102
RTVSPropertyOp1
 70
     1
102
RTVSPropertyOp2
 70
     1
102
RTVSPropertyOp3
 70
     1
102
RTVSPropertyOp4
 70
     1
102
RTVSPropertyOp5
 70
     1
102
RTVSPropertyOp6
 70
     1
102
RTVSPropertyOp7
 70
     1
102
RTVSPropertyOp8
 70
     1
102
RTVSPropertyOp9
 70
     1
102
RTVSPropertyOp10
 70
     1
102
RTVSPropertyOp11
 70
     1
102
RTVSPropertyOp12
 70
     1
102
RTVSPropertyOp13
 70
     1
102
RTVSPropertyOp14
 70
     1
102
RTVSPropertyOp15
 70
     1
102
RTVSPropertyOp16
 70
     1
102
RTVSPropertyOp17
 70
     1
102
RTVSPropertyOp18
 70
     1
102
RTVSPropertyOp19
 70
     1
102
RTVSPropertyOp20
 70
     1
102
RTVSPropertyOp21
 70
     1
102
RTVSPropertyOp22
 70
     1
102
RTVSPropertyOp23
 70
     1
102
RTVSPropertyOp24
 70
     1
102
RTVSPropertyOp25
 70
     1
102
RTVSPropertyOp26
 70
     1
102
RTVSPropertyOp27
 70
     1
102
RTVSPropertyOp28
 70
     1
102
RTVSPropertyOp29
 70
     1
102
RTVSPropertyOp30
 70
     1
102
RTVSPropertyOp31
 70
     1
102
RTVSPropertyOp32
 70
     1
  0
XRECORD
  5
604
102
{ACAD_REACTORS
330
603
102
}
330
603
100
AcDbXrecord
280
     1
102
RTVSPropertyOp0
 70
     1
102
RTVSPropertyOp1
 70
     1
102
RTVSPropertyOp2
 70
     1
102
RTVSPropertyOp3
 70
     1
102
RTVSPropertyOp4
 70
     1
102
RTVSPropertyOp5
 70
     1
102
RTVSPropertyOp6
 70
     1
102
RTVSPropertyOp7
 70
     1
102
RTVSPropertyOp8
 70
     1
102
RTVSPropertyOp9
 70
     1
102
RTVSPropertyOp10
 70
     1
102
RTVSPropertyOp11
 70
     1
102
RTVSPropertyOp12
 70
     1
102
RTVSPropertyOp13
 70
     1
102
RTVSPropertyOp14
 70
     1
102
RTVSPropertyOp15
 70
     1
102
RTVSPropertyOp16
 70
     1
102
RTVSPropertyOp17
 70
     1
102
RTVSPropertyOp18
 70
     1
102
RTVSPropertyOp19
 70
     1
102
RTVSPropertyOp20
 70
     1
102
RTVSPropertyOp21
 70
     1
102
RTVSPropertyOp22
 70
     1
102
RTVSPropertyOp23
 70
     1
102
RTVSPropertyOp24
 70
     1
102
RTVSPropertyOp25
 70
     1
102
RTVSPropertyOp26
 70
     1
102
RTVSPropertyOp27
 70
     1
102
RTVSPropertyOp28
 70
     1
102
RTVSPropertyOp29
 70
     1
102
RTVSPropertyOp30
 70
     1
102
RTVSPropertyOp31
 70
     1
102
RTVSPropertyOp32
 70
     1
  0
XRECORD
  5
60C
102
{ACAD_REACTORS
330
60B
102
}
330
60B
100
AcDbXrecord
280
     1
102
RTVSPropertyOp0
 70
     1
102
RTVSPropertyOp1
 70
     1
102
RTVSPropertyOp2
 70
     1
102
RTVSPropertyOp3
 70
     1
102
RTVSPropertyOp4
 70
     1
102
RTVSPropertyOp5
 70
     1
102
RTVSPropertyOp6
 70
     1
102
RTVSPropertyOp7
 70
     1
102
RTVSPropertyOp8
 70
     1
102
RTVSPropertyOp9
 70
     1
102
RTVSPropertyOp10
 70
     1
102
RTVSPropertyOp11
 70
     1
102
RTVSPropertyOp12
 70
     1
102
RTVSPropertyOp13
 70
     1
102
RTVSPropertyOp14
 70
     1
102
RTVSPropertyOp15
 70
     1
102
RTVSPropertyOp16
 70
     1
102
RTVSPropertyOp17
 70
     1
102
RTVSPropertyOp18
 70
     1
102
RTVSPropertyOp19
 70
     1
102
RTVSPropertyOp20
 70
     1
102
RTVSPropertyOp21
 70
     1
102
RTVSPropertyOp22
 70
     1
102
RTVSPropertyOp23
 70
     1
102
RTVSPropertyOp24
 70
     1
102
RTVSPropertyOp25
 70
     1
102
RTVSPropertyOp26
 70
     1
102
RTVSPropertyOp27
 70
     1
102
RTVSPropertyOp28
 70
     1
102
RTVSPropertyOp29
 70
     1
102
RTVSPropertyOp30
 70
     1
102
RTVSPropertyOp31
 70
     1
102
RTVSPropertyOp32
 70
     1
  0
ENDSEC
  0
EOF
