  0
SECTION
  2
HEADER
  9
$ACADVER
  1
AC1018
  9
$ACADMAINTVER
 70
   104
  9
$DWGCODEPAGE
  3
ANSI_1252
  9
$LASTSAVEDBY
  1
TITADI
  9
$INSBASE
 10
0.0
 20
0.0
 30
0.0
  9
$EXTMIN
 10
-84.12731763176543
 20
-10.04913211340215
 30
-0.0000000000112498
  9
$EXTMAX
 10
126.0336620354019
 20
94.17678913820623
 30
0.0000000000002956
  9
$LIMMIN
 10
-170.0
 20
-170.0
  9
$LIMMAX
 10
519.0
 20
260.0
  9
$ORTHOMODE
 70
     0
  9
$REGENMODE
 70
     1
  9
$FILLMODE
 70
     1
  9
$QTEXTMODE
 70
     0
  9
$MIRRTEXT
 70
     0
  9
$LTSCALE
 40
1.0
  9
$ATTMODE
 70
     1
  9
$TEXTSIZE
 40
3.5
  9
$TRACEWID
 40
1.0
  9
$TEXTSTYLE
  7
SIMPLEX
  9
$CLAYER
  8
1
  9
$CELTYPE
  6
BYLAYER
  9
$CECOLOR
 62
   256
  9
$CELTSCALE
 40
1.0
  9
$DISPSILH
 70
     0
  9
$DIMSCALE
 40
1.0
  9
$DIMASZ
 40
2.5
  9
$DIMEXO
 40
0.0
  9
$DIMDLI
 40
3.75
  9
$DIMRND
 40
0.0
  9
$DIMDLE
 40
0.0
  9
$DIMEXE
 40
1.25
  9
$DIMTP
 40
0.0
  9
$DIMTM
 40
0.0
  9
$DIMTXT
 40
3.5
  9
$DIMCEN
 40
0.0
  9
$DIMTSZ
 40
0.0
  9
$DIMTOL
 70
     0
  9
$DIMLIM
 70
     0
  9
$DIMTIH
 70
     0
  9
$DIMTOH
 70
     0
  9
$DIMSE1
 70
     0
  9
$DIMSE2
 70
     0
  9
$DIMTAD
 70
     1
  9
$DIMZIN
 70
     8
  9
$DIMBLK
  1

  9
$DIMASO
 70
     1
  9
$DIMSHO
 70
     1
  9
$DIMPOST
  1

  9
$DIMAPOST
  1

  9
$DIMALT
 70
     0
  9
$DIMALTD
 70
     3
  9
$DIMALTF
 40
0.039370078
  9
$DIMLFAC
 40
1.0
  9
$DIMTOFL
 70
     0
  9
$DIMTVP
 40
0.0
  9
$DIMTIX
 70
     0
  9
$DIMSOXD
 70
     0
  9
$DIMSAH
 70
     0
  9
$DIMBLK1
  1

  9
$DIMBLK2
  1

  9
$DIMSTYLE
  2
STANDARD
  9
$DIMCLRD
 70
     0
  9
$DIMCLRE
 70
     0
  9
$DIMCLRT
 70
     0
  9
$DIMTFAC
 40
1.0
  9
$DIMGAP
 40
0.625
  9
$DIMJUST
 70
     0
  9
$DIMSD1
 70
     0
  9
$DIMSD2
 70
     0
  9
$DIMTOLJ
 70
     0
  9
$DIMTZIN
 70
     8
  9
$DIMALTZ
 70
     0
  9
$DIMALTTZ
 70
     0
  9
$DIMUPT
 70
     0
  9
$DIMDEC
 70
     2
  9
$DIMTDEC
 70
     2
  9
$DIMALTU
 70
     2
  9
$DIMALTTD
 70
     3
  9
$DIMTXSTY
  7
SIMPLEX
  9
$DIMAUNIT
 70
     0
  9
$DIMADEC
 70
     2
  9
$DIMALTRND
 40
0.0
  9
$DIMAZIN
 70
     2
  9
$DIMDSEP
 70
    46
  9
$DIMATFIT
 70
     3
  9
$DIMFRAC
 70
     0
  9
$DIMLDRBLK
  1

  9
$DIMLUNIT
 70
     2
  9
$DIMLWD
 70
    -2
  9
$DIMLWE
 70
    -2
  9
$DIMTMOVE
 70
     0
  9
$LUNITS
 70
     2
  9
$LUPREC
 70
     2
  9
$SKETCHINC
 40
1.0
  9
$FILLETRAD
 40
0.0
  9
$AUNITS
 70
     0
  9
$AUPREC
 70
     0
  9
$MENU
  1
c:\tdm21\cad\caduti13\tdm13
  9
$ELEVATION
 40
0.0
  9
$PELEVATION
 40
0.0
  9
$THICKNESS
 40
0.0
  9
$LIMCHECK
 70
     0
  9
$CHAMFERA
 40
0.25
  9
$CHAMFERB
 40
0.25
  9
$CHAMFERC
 40
0.0
  9
$CHAMFERD
 40
0.0
  9
$SKPOLY
 70
     0
  9
$TDCREATE
 40
2454957.593642639
  9
$TDUCREATE
 40
2454957.510309306
  9
$TDUPDATE
 40
2457134.395804549
  9
$TDUUPDATE
 40
2457134.312471215
  9
$TDINDWG
 40
0.1875860995
  9
$TDUSRTIMER
 40
0.1875691435
  9
$USRTIMER
 70
     1
  9
$ANGBASE
 50
0.0
  9
$ANGDIR
 70
     0
  9
$PDMODE
 70
     1
  9
$PDSIZE
 40
0.0
  9
$PLINEWID
 40
0.0
  9
$SPLFRAME
 70
     0
  9
$SPLINETYPE
 70
     6
  9
$SPLINESEGS
 70
     8
  9
$HANDSEED
  5
10BB
  9
$SURFTAB1
 70
     6
  9
$SURFTAB2
 70
     6
  9
$SURFTYPE
 70
     6
  9
$SURFU
 70
     6
  9
$SURFV
 70
     6
  9
$UCSBASE
  2

  9
$UCSNAME
  2

  9
$UCSORG
 10
0.0
 20
0.0
 30
0.0
  9
$UCSXDIR
 10
1.0
 20
0.0
 30
0.0
  9
$UCSYDIR
 10
0.0
 20
1.0
 30
0.0
  9
$UCSORTHOREF
  2

  9
$UCSORTHOVIEW
 70
     0
  9
$UCSORGTOP
 10
0.0
 20
0.0
 30
0.0
  9
$UCSORGBOTTOM
 10
0.0
 20
0.0
 30
0.0
  9
$UCSORGLEFT
 10
0.0
 20
0.0
 30
0.0
  9
$UCSORGRIGHT
 10
0.0
 20
0.0
 30
0.0
  9
$UCSORGFRONT
 10
0.0
 20
0.0
 30
0.0
  9
$UCSORGBACK
 10
0.0
 20
0.0
 30
0.0
  9
$PUCSBASE
  2

  9
$PUCSNAME
  2

  9
$PUCSORG
 10
0.0
 20
0.0
 30
0.0
  9
$PUCSXDIR
 10
1.0
 20
0.0
 30
0.0
  9
$PUCSYDIR
 10
0.0
 20
1.0
 30
0.0
  9
$PUCSORTHOREF
  2

  9
$PUCSORTHOVIEW
 70
     0
  9
$PUCSORGTOP
 10
0.0
 20
0.0
 30
0.0
  9
$PUCSORGBOTTOM
 10
0.0
 20
0.0
 30
0.0
  9
$PUCSORGLEFT
 10
0.0
 20
0.0
 30
0.0
  9
$PUCSORGRIGHT
 10
0.0
 20
0.0
 30
0.0
  9
$PUCSORGFRONT
 10
0.0
 20
0.0
 30
0.0
  9
$PUCSORGBACK
 10
0.0
 20
0.0
 30
0.0
  9
$USERI1
 70
     0
  9
$USERI2
 70
     0
  9
$USERI3
 70
     0
  9
$USERI4
 70
     0
  9
$USERI5
 70
     0
  9
$USERR1
 40
0.0
  9
$USERR2
 40
0.0
  9
$USERR3
 40
0.0
  9
$USERR4
 40
0.0
  9
$USERR5
 40
0.0
  9
$WORLDVIEW
 70
     1
  9
$SHADEDGE
 70
     3
  9
$SHADEDIF
 70
    70
  9
$TILEMODE
 70
     1
  9
$MAXACTVP
 70
    64
  9
$PINSBASE
 10
0.0
 20
0.0
 30
0.0
  9
$PLIMCHECK
 70
     0
  9
$PEXTMIN
 10
0.0
 20
0.0
 30
0.0
  9
$PEXTMAX
 10
0.0
 20
0.0
 30
0.0
  9
$PLIMMIN
 10
0.0
 20
0.0
  9
$PLIMMAX
 10
12.0
 20
9.0
  9
$UNITMODE
 70
     0
  9
$VISRETAIN
 70
     0
  9
$PLINEGEN
 70
     0
  9
$PSLTSCALE
 70
     1
  9
$TREEDEPTH
 70
  3020
  9
$CMLSTYLE
  2
STANDARD
  9
$CMLJUST
 70
     0
  9
$CMLSCALE
 40
20.0
  9
$PROXYGRAPHICS
 70
     1
  9
$MEASUREMENT
 70
     1
  9
$CELWEIGHT
370
    -1
  9
$ENDCAPS
280
     0
  9
$JOINSTYLE
280
     0
  9
$LWDISPLAY
290
     0
  9
$INSUNITS
 70
     4
  9
$HYPERLINKBASE
  1

  9
$STYLESHEET
  1
MONOCHROME.CTB
  9
$XEDIT
290
     1
  9
$CEPSNTYPE
380
     0
  9
$PSTYLEMODE
290
     1
  9
$FINGERPRINTGUID
  2
{46B44192-1510-48B1-B61B-CBE2ADA013A7}
  9
$VERSIONGUID
  2
{6BBF891E-BBCC-4057-9045-1F067FDA5A89}
  9
$EXTNAMES
290
     1
  9
$PSVPSCALE
 40
0.0
  9
$OLESTARTUP
290
     0
  9
$SORTENTS
280
   127
  9
$INDEXCTL
280
     0
  9
$HIDETEXT
280
     1
  9
$XCLIPFRAME
290
     0
  9
$HALOGAP
280
     0
  9
$OBSCOLOR
 70
   257
  9
$OBSLTYPE
280
     0
  9
$INTERSECTIONDISPLAY
280
     0
  9
$INTERSECTIONCOLOR
 70
   257
  9
$DIMASSOC
280
     2
  9
$PROJECTNAME
  1

  0
ENDSEC
  0
SECTION
  2
CLASSES
  0
CLASS
  1
ACDBDICTIONARYWDFLT
  2
AcDbDictionaryWithDefault
  3
ObjectDBX Classes
 90
        0
 91
        1
280
     0
281
     0
  0
CLASS
  1
DICTIONARYVAR
  2
AcDbDictionaryVar
  3
ObjectDBX Classes
 90
        0
 91
       16
280
     0
281
     0
  0
CLASS
  1
TABLESTYLE
  2
AcDbTableStyle
  3
ObjectDBX Classes
 90
     4095
 91
        1
280
     0
281
     0
  0
CLASS
  1
SCALE
  2
AcDbScale
  3
ObjectDBX Classes
 90
     1153
 91
       33
280
     0
281
     0
  0
CLASS
  1
MATERIAL
  2
AcDbMaterial
  3
ObjectDBX Classes
 90
     1153
 91
        3
280
     0
281
     0
  0
CLASS
  1
VISUALSTYLE
  2
AcDbVisualStyle
  3
ObjectDBX Classes
 90
     4095
 91
       24
280
     0
281
     0
  0
CLASS
  1
MLEADERSTYLE
  2
AcDbMLeaderStyle
  3
ACDB_MLEADERSTYLE_CLASS
 90
     4095
 91
        1
280
     0
281
     0
  0
CLASS
  1
ACDBSECTIONVIEWSTYLE
  2
AcDbSectionViewStyle
  3
ObjectDBX Classes
 90
     1025
 91
        1
280
     0
281
     0
  0
CLASS
  1
ACDBDETAILVIEWSTYLE
  2
AcDbDetailViewStyle
  3
ObjectDBX Classes
 90
     1025
 91
        1
280
     0
281
     0
  0
CLASS
  1
EXACXREFPANELOBJECT
  2
ExAcXREFPanelObject
  3
EXAC_ESW
 90
     1025
 91
        0
280
     0
281
     0
  0
CLASS
  1
NPOCOLLECTION
  2
AcDbImpNonPersistentObjectsCollection
  3
ObjectDBX Classes
 90
     1153
 91
        0
280
     0
281
     0
  0
CLASS
  1
CELLSTYLEMAP
  2
AcDbCellStyleMap
  3
ObjectDBX Classes
 90
     1152
 91
        2
280
     0
281
     0
  0
CLASS
  1
AMGSETTINGSOBJ
  2
AmgSettingsObj
  3
"AcadM|Product Description: AutoCAD Mechanical|Company: Autodesk, Inc."
 90
     1024
 91
        0
280
     0
281
     0
  0
CLASS
  1
ACME_DOCUMENT
  2
AcMeDbDoc
  3
AcMeServices
 90
     1024
 91
        0
280
     0
281
     0
  0
CLASS
  1
ACMESCOPE
  2
AcMeScope
  3
AcMeServices
 90
     1024
 91
        0
280
     0
281
     0
  0
CLASS
  1
ACMECOMMANDHISTORY
  2
AcMeCommandHistory
  3
AcMeServices
 90
     1024
 91
        0
280
     0
281
     0
  0
CLASS
  1
ACIMSYSVARMAN
  2
AcImSysVarManager
  3
AcMeServices
 90
     1024
 91
        0
280
     0
281
     0
  0
CLASS
  1
ACIMINTSYSVAR
  2
AcImIntSysVar
  3
AcMeServices
 90
     1024
 91
        0
280
     0
281
     0
  0
CLASS
  1
ACMESTATEMGR
  2
AcMeStateMgr
  3
AcMeServices
 90
     1024
 91
        0
280
     0
281
     0
  0
CLASS
  1
ACDBENTITYCACHE
  2
AcMeEntityCache
  3
AcMeServices
 90
     1024
 91
        0
280
     0
281
     0
  0
CLASS
  1
ACGREFMASTER
  2
AcGrefMaster
  3
AcAttribServices
 90
     1024
 91
        0
280
     0
281
     0
  0
CLASS
  1
ACME_DATABASE
  2
AcMeDbDatabase
  3
AcMeServices
 90
     1024
 91
        0
280
     0
281
     0
  0
CLASS
  1
ACRFINSADJUSTERMGR
  2
AcRfInsAdjusterMgr
  3
AcMeServices
 90
     1024
 91
        0
280
     0
281
     0
  0
CLASS
  1
ACGREFACADMASTER
  2
AcGrefacadMaster
  3
AcGrefServices
 90
     1024
 91
        0
280
     0
281
     0
  0
CLASS
  1
AMDTMENUSTATEMGR
  2
AmdtMenuStateMgr
  3
McadcomServices
 90
     1024
 91
        0
280
     0
281
     0
  0
CLASS
  1
AMDTMCOMMENUSTATE
  2
AmdtMcomMenuState
  3
McadcomServices
 90
     1024
 91
        0
280
     0
281
     0
  0
CLASS
  1
AMIMASTER
  2
AmiMaster
  3
AmiServices
 90
     1024
 91
        0
280
     0
281
     0
  0
CLASS
  1
MAPIAMMOUDLE
  2
MApiAmModule
  3
MApiAmServices
 90
     1024
 91
        0
280
     0
281
     0
  0
CLASS
  1
ACIMSTRSYSVAR
  2
AcImStrSysVar
  3
AcMeServices
 90
     1024
 91
        0
280
     0
281
     0
  0
CLASS
  1
AMDTAMMENUSTATE
  2
AmdtAmMenuState
  3
DesignerAssemblies
 90
     1024
 91
        0
280
     0
281
     0
  0
CLASS
  1
ACAMPROJECT
  2
AcAmProject
  3
DesignerAssemblies
 90
     1024
 91
        0
280
     0
281
     0
  0
CLASS
  1
ACAMGRCOMPDEF
  2
AcAmGrCompDef
  3
DesignerAssemblies
 90
     1024
 91
        0
280
     0
281
     0
  0
CLASS
  1
ACAMCOMPDEF
  2
AcAmCompDef
  3
DesignerAssemblies
 90
     1024
 91
        0
280
     0
281
     0
  0
CLASS
  1
ACAMCOMPDEFMGR
  2
AcAmCompDefMgr
  3
DesignerAssemblies
 90
     1024
 91
        0
280
     0
281
     0
  0
CLASS
  1
AMCONTEXTMGR
  2
AcAmContextMgr
  3
DesignerAssemblies
 90
     1024
 91
        0
280
     0
281
     0
  0
CLASS
  1
ACAMCONTEXTMODELER
  2
AcAmContextModeler
  3
DesignerAssemblies
 90
     1024
 91
        0
280
     0
281
     0
  0
CLASS
  1
ACMDATADICTIONARY
  2
AcmDataDictionary
  3
"AcmSymBB|Product Description: AutoCAD Mechanical|Company: Autodesk, Inc."
 90
     1024
 91
        0
280
     0
281
     0
  0
CLASS
  1
ACAMGRCOMPDEFSET
  2
AcAmGrCompDefSet
  3
DesignerAssemblies
 90
     1024
 91
        0
280
     0
281
     0
  0
CLASS
  1
AMDTBROWSERDBTAB
  2
AmdtBrowserDbTab
  3
McadcomServices
 90
     1024
 91
        0
280
     0
281
     0
  0
CLASS
  1
CBROWSERAPPOBJECT
  2
CBrowserAppObject
  3
McadcomServices
 90
     1024
 91
        0
280
     0
281
     0
  0
CLASS
  1
DM_PLACEHOLDER
  2
AcDmSelsetPlaceholder
  3
McadcomServices
 90
     1024
 91
        0
280
     0
281
     0
  0
CLASS
  1
ACMSTANDARDISO
  2
AcmStandardISO
  3
"Amdt_StdImp|Product Description: AutoCAD Mechanical|Company: Autodesk, Inc."
 90
     1024
 91
        0
280
     0
281
     0
  0
CLASS
  1
AMDTEDGESTANDARDISO13715
  2
AmdtEdgeStdISO13715
  3
"Amdt_StdImp|Product Description: AutoCAD Mechanical|Company: Autodesk, Inc."
 90
     1024
 91
        0
280
     0
281
     0
  0
CLASS
  1
ACMSURFSTANDARDISO2002
  2
AcmSurfTextStdISO2002
  3
"Amdt_StdImp|Product Description: AutoCAD Mechanical|Company: Autodesk, Inc."
 90
     1024
 91
        0
280
     0
281
     0
  0
CLASS
  1
ACMFCFSTANDARDISO2004
  2
AcmFCFStdISO2004
  3
"Amdt_StdImp|Product Description: AutoCAD Mechanical|Company: Autodesk, Inc."
 90
     1024
 91
        0
280
     0
281
     0
  0
CLASS
  1
ACMWELDSTANDARDISO
  2
AcmWeldingStdISO
  3
"Amdt_StdImp|Product Description: AutoCAD Mechanical|Company: Autodesk, Inc."
 90
     1024
 91
        0
280
     0
281
     0
  0
CLASS
  1
ACMIDSTANDARDISO2004
  2
AcmIdStdISO2004
  3
"Amdt_StdImp|Product Description: AutoCAD Mechanical|Company: Autodesk, Inc."
 90
     1024
 91
        0
280
     0
281
     0
  0
CLASS
  1
ACMDATUMSTANDARDISO
  2
AcmDatumStdISO
  3
"Amdt_StdImp|Product Description: AutoCAD Mechanical|Company: Autodesk, Inc."
 90
     1024
 91
        0
280
     0
281
     0
  0
CLASS
  1
ACMBOMSTANDARDISO
  2
AcmBOMStdISO
  3
"Amdt_StdImp|Product Description: AutoCAD Mechanical|Company: Autodesk, Inc."
 90
     1024
 91
        0
280
     0
281
     0
  0
CLASS
  1
ACMDETAILSTANDARDISO
  2
AmdtDetailSymStdISO
  3
"Amdt_StdImp|Product Description: AutoCAD Mechanical|Company: Autodesk, Inc."
 90
     1024
 91
        0
280
     0
281
     0
  0
CLASS
  1
ACMSECTIONSTANDARDISO2001
  2
AmdtSectionSymStdISO2001
  3
"Amdt_StdImp|Product Description: AutoCAD Mechanical|Company: Autodesk, Inc."
 90
     1024
 91
        0
280
     0
281
     0
  0
CLASS
  1
ACMCENTERLINESTANDARDISO
  2
AmdtCenterLineStdISO
  3
"Amdt_StdImp|Product Description: AutoCAD Mechanical|Company: Autodesk, Inc."
 90
     1024
 91
        0
280
     0
281
     0
  0
CLASS
  1
ACMTHREADLINESTANDARDISO
  2
AmdtThreadLineStdISO
  3
"Amdt_StdImp|Product Description: AutoCAD Mechanical|Company: Autodesk, Inc."
 90
     1024
 91
        0
280
     0
281
     0
  0
CLASS
  1
ACMNOTESTANDARDISO
  2
AmdtNoteStdISO
  3
"Amdt_StdImp|Product Description: AutoCAD Mechanical|Company: Autodesk, Inc."
 90
     1024
 91
        0
280
     0
281
     0
  0
CLASS
  1
ACMTAPERSTANDARDISO
  2
AcmTaperStdISO
  3
"Amdt_StdImp|Product Description: AutoCAD Mechanical|Company: Autodesk, Inc."
 90
     1024
 91
        0
280
     0
281
     0
  0
CLASS
  1
ACMANOOTATIONVIEWSTANDARDISO
  2
AmdtAnViewStdISO
  3
"Amdt_StdImp|Product Description: AutoCAD Mechanical|Company: Autodesk, Inc."
 90
     1024
 91
        0
280
     0
281
     0
  0
CLASS
  1
ACAMGLAYSTD
  2
AcAmgLayStd
  3
"AmgLay|Product Description: AutoCAD Mechanical|Company: Autodesk, Inc."
 90
     1024
 91
        0
280
     0
281
     0
  0
CLASS
  1
ACAMGDIMSTD
  2
AcAmgDimStd
  3
"AmgDim|Product Description: AutoCAD Mechanical|Company: Autodesk, Inc."
 90
     1024
 91
        0
280
     0
281
     0
  0
CLASS
  1
AMGOBJPROPCFG
  2
AmgObjPropCfg
  3
"AmgLay|Product Description: AutoCAD Mechanical|Company: Autodesk, Inc."
 90
     1024
 91
        0
280
     0
281
     0
  0
CLASS
  1
ACAMGHOLECHARTSTDISO
  2
AcAmgHoleChartStdISO
  3
AmgDim|Product Description: AutoCAD Mechanical|Company: Autodesk, Inc.
 90
     1024
 91
        0
280
     0
281
     0
  0
CLASS
  1
ACAMGTITLESTD
  2
AcAmgTitleStd
  3
"AmgTitle|Product Description: AutoCAD Mechanical|Company: Autodesk, Inc."
 90
     1024
 91
        0
280
     0
281
     0
  0
CLASS
  1
ACMSECTIONSTANDARDCUSTOM
  2
AmdtSectionSymStdCustom
  3
"Amdt_StdImp|Product Description: AutoCAD Mechanical|Company: Autodesk, Inc."
 90
     1024
 91
        0
280
     0
281
     0
  0
CLASS
  1
ACMDETAILTANDARDCUSTOM
  2
AmdtDetailSymStdCustom
  3
"Amdt_StdImp|Product Description: AutoCAD Mechanical|Company: Autodesk, Inc."
 90
     1024
 91
        0
280
     0
281
     0
  0
CLASS
  1
FIELD
  2
AcDbField
  3
ObjectDBX Classes
 90
     1152
 91
        0
280
     0
281
     0
  0
CLASS
  1
FIELDLIST
  2
AcDbFieldList
  3
ObjectDBX Classes
 90
     1152
 91
        1
280
     0
281
     0
  0
CLASS
  1
AMDTNOTETEMPLATEDB
  2
AmdtNoteTemplateDB
  3
AcmSymBB|Product Description: AutoCAD Mechanical|Company: Autodesk, Inc.
 90
     1024
 91
        0
280
     0
281
     0
  0
CLASS
  1
CAMSSTRUCTBTNSTATE
  2
StructBtnState
  3
DesignerAssemblies
 90
     1024
 91
        0
280
     0
281
     0
  0
CLASS
  1
ACAMGFILTERDAT
  2
AcAmgFilterDat
  3
"AcadM|Product Description: AutoCAD Mechanical|Company: Autodesk, Inc."
 90
     1024
 91
        0
280
     0
281
     0
  0
CLASS
  1
DIMASSOC
  2
AcDbDimAssoc
  3
"AcDbDimAssoc|Product Desc:     AcDim ARX App For Dimension|Company:          Autodesk, Inc.|WEB Address:      www.autodesk.com"
 90
        0
 91
        0
280
     0
281
     0
  0
CLASS
  1
SORTENTSTABLE
  2
AcDbSortentsTable
  3
ObjectDBX Classes
 90
        0
 91
        1
280
     0
281
     0
  0
ENDSEC
  0
SECTION
  2
TABLES
  0
TABLE
  2
VPORT
  5
8
330
0
100
AcDbSymbolTable
 70
     1
  0
VPORT
  5
39A
330
8
100
AcDbSymbolTableRecord
100
AcDbViewportTableRecord
  2
*Active
 70
     0
 10
0.0
 20
0.0
 11
1.0
 21
1.0
 12
20.95317220181824
 22
42.06382851240203
 13
0.0
 23
0.0
 14
5.0
 24
5.0
 15
5.0
 25
5.0
 16
0.0
 26
0.0
 36
1.0
 17
0.0
 27
0.0
 37
0.0
 40
104.9857700092142
 41
2.329683698296836
 42
50.0
 43
0.0
 44
0.0
 50
0.0
 51
0.0
 71
     0
 72
  2000
 73
     1
 74
     1
 75
     0
 76
     0
 77
     0
 78
     0
281
     0
 65
     0
110
0.0
120
0.0
130
0.0
111
1.0
121
0.0
131
0.0
112
0.0
122
1.0
132
0.0
 79
     0
146
0.0
1001
ACAD_NAV_VCDISPLAY
1070
     3
  0
ENDTAB
  0
TABLE
  2
LTYPE
  5
5
330
0
100
AcDbSymbolTable
 70
     7
  0
LTYPE
  5
12
330
5
100
AcDbSymbolTableRecord
100
AcDbLinetypeTableRecord
  2
BYBLOCK
 70
     0
  3

 72
    65
 73
     0
 40
0.0
  0
LTYPE
  5
13
330
5
100
AcDbSymbolTableRecord
100
AcDbLinetypeTableRecord
  2
BYLAYER
 70
     0
  3

 72
    65
 73
     0
 40
0.0
  0
LTYPE
  5
14
330
5
100
AcDbSymbolTableRecord
100
AcDbLinetypeTableRecord
  2
CONTINUOUS
 70
     0
  3
Solid line
 72
    65
 73
     0
 40
0.0
  0
LTYPE
  5
20
330
5
100
AcDbSymbolTableRecord
100
AcDbLinetypeTableRecord
  2
HIDDEN
 70
     0
  3
Hidden __ __ __ __ __ __ __ __ __ __ __ __ __ _
 72
    65
 73
     2
 40
9.524999999999996
 49
6.349999999999997
 74
     0
 49
-3.174999999999998
 74
     0
  0
LTYPE
  5
351
330
5
100
AcDbSymbolTableRecord
100
AcDbLinetypeTableRecord
  2
CENTER
 70
     0
  3
Dash dot __ . __ . __ . __ . __ . __ . __ . __
 72
    65
 73
     4
 40
25.4
 49
12.7
 74
     0
 49
-6.349999999999997
 74
     0
 49
0.0
 74
     0
 49
-6.349999999999997
 74
     0
  0
LTYPE
  5
601
330
5
100
AcDbSymbolTableRecord
100
AcDbLinetypeTableRecord
  2
PHANTOM2
 70
     0
  3
Phantom (.5x) ___ _ _ ___ _ _ ___ _ _ ___ _ _
 72
    65
 73
     6
 40
31.75
 49
15.875
 74
     0
 49
-3.174999999999998
 74
     0
 49
3.174999999999998
 74
     0
 49
-3.174999999999998
 74
     0
 49
3.174999999999998
 74
     0
 49
-3.174999999999998
 74
     0
  0
LTYPE
  5
64C
330
5
100
AcDbSymbolTableRecord
100
AcDbLinetypeTableRecord
  2
ACISOWELD
 70
     0
  3
_ _ _ _ _
 72
    65
 73
     2
 40
2.0
 49
2.0
 74
     0
 49
-1.0
 74
     0
  0
LTYPE
  5
64D
330
5
100
AcDbSymbolTableRecord
100
AcDbLinetypeTableRecord
  2
ACISOTGL
 70
     0
  3
_ _ _ _ _
 72
    65
 73
     2
 40
3.0
 49
2.0
 74
     0
 49
-1.0
 74
     0
  0
LTYPE
  5
64E
330
5
100
AcDbSymbolTableRecord
100
AcDbLinetypeTableRecord
  2
ACISOTGB
 70
     0
  3
__ . . __ . .
 72
    65
 73
     6
 40
9.0
 49
4.0
 74
     0
 49
-1.0
 74
     0
 49
1.0
 74
     0
 49
-1.0
 74
     0
 49
1.0
 74
     0
 49
-1.0
 74
     0
  0
ENDTAB
  0
TABLE
  2
LAYER
  5
2
102
{ACAD_XDICTIONARY
360
D20
102
}
330
0
100
AcDbSymbolTable
 70
    17
  0
LAYER
  5
F
102
{ACAD_XDICTIONARY
360
58D
102
}
330
2
100
AcDbSymbolTableRecord
100
AcDbLayerTableRecord
  2
0
 70
     0
 62
     7
  6
CONTINUOUS
370
    -3
390
300
  0
LAYER
  5
23
102
{ACAD_XDICTIONARY
360
58F
102
}
330
2
100
AcDbSymbolTableRecord
100
AcDbLayerTableRecord
  2
1
 70
     0
 62
     4
  6
CONTINUOUS
370
    -3
390
300
  0
LAYER
  5
24
102
{ACAD_XDICTIONARY
360
591
102
}
330
2
100
AcDbSymbolTableRecord
100
AcDbLayerTableRecord
  2
SK1
 70
     0
 62
     4
  6
CONTINUOUS
370
    -3
390
300
  0
LAYER
  5
25
102
{ACAD_XDICTIONARY
360
593
102
}
330
2
100
AcDbSymbolTableRecord
100
AcDbLayerTableRecord
  2
2
 70
     0
 62
     7
  6
CONTINUOUS
370
    -3
390
300
  0
LAYER
  5
26
102
{ACAD_XDICTIONARY
360
595
102
}
330
2
100
AcDbSymbolTableRecord
100
AcDbLayerTableRecord
  2
2L
 70
     0
 62
     7
  6
CONTINUOUS
370
    -3
390
300
  0
LAYER
  5
27
102
{ACAD_XDICTIONARY
360
597
102
}
330
2
100
AcDbSymbolTableRecord
100
AcDbLayerTableRecord
  2
SK2
 70
     0
 62
     7
  6
CONTINUOUS
370
    -3
390
300
  0
LAYER
  5
28
102
{ACAD_XDICTIONARY
360
599
102
}
330
2
100
AcDbSymbolTableRecord
100
AcDbLayerTableRecord
  2
3
 70
     0
 62
     1
  6
HIDDEN
370
    -3
390
300
  0
LAYER
  5
29
102
{ACAD_XDICTIONARY
360
59B
102
}
330
2
100
AcDbSymbolTableRecord
100
AcDbLayerTableRecord
  2
SK3
 70
     0
 62
     1
  6
HIDDEN
370
    -3
390
300
  0
LAYER
  5
2A
102
{ACAD_XDICTIONARY
360
59D
102
}
330
2
100
AcDbSymbolTableRecord
100
AcDbLayerTableRecord
  2
4
 70
     0
 62
     2
  6
CENTER
370
    -3
390
300
  0
LAYER
  5
2B
102
{ACAD_XDICTIONARY
360
59F
102
}
330
2
100
AcDbSymbolTableRecord
100
AcDbLayerTableRecord
  2
SK4
 70
     0
 62
     2
  6
CENTER
370
    -3
390
300
  0
LAYER
  5
2C
102
{ACAD_XDICTIONARY
360
5A1
102
}
330
2
100
AcDbSymbolTableRecord
100
AcDbLayerTableRecord
  2
5
 70
     0
 62
    -7
  6
CONTINUOUS
370
    -3
390
300
  0
LAYER
  5
2D
102
{ACAD_XDICTIONARY
360
5A3
102
}
330
2
100
AcDbSymbolTableRecord
100
AcDbLayerTableRecord
  2
6
 70
     0
 62
     5
  6
CONTINUOUS
370
    -3
390
300
  0
LAYER
  5
2E
102
{ACAD_XDICTIONARY
360
5A5
102
}
330
2
100
AcDbSymbolTableRecord
100
AcDbLayerTableRecord
  2
SK6
 70
     0
 62
     5
  6
CONTINUOUS
370
    -3
390
300
  0
LAYER
  5
2F
330
2
100
AcDbSymbolTableRecord
100
AcDbLayerTableRecord
  2
DEFPOINTS
 70
     0
 62
     7
  6
CONTINUOUS
290
     0
370
    -3
390
300
  0
LAYER
  5
375
102
{ACAD_XDICTIONARY
360
5A7
102
}
330
2
100
AcDbSymbolTableRecord
100
AcDbLayerTableRecord
  2
CUT
 70
     0
 62
     1
  6
CONTINUOUS
370
    -3
390
300
  0
LAYER
  5
376
102
{ACAD_XDICTIONARY
360
5A9
102
}
330
2
100
AcDbSymbolTableRecord
100
AcDbLayerTableRecord
  2
NOCUT
 70
     0
 62
     7
  6
CONTINUOUS
370
    -3
390
300
  0
LAYER
  5
684
330
2
100
AcDbSymbolTableRecord
100
AcDbLayerTableRecord
  2
AM_5
 70
     0
 62
    92
  6
CONTINUOUS
370
    25
390
300
1001
AcAecLayerStandard
1000

1000

  0
ENDTAB
  0
TABLE
  2
STYLE
  5
3
330
0
100
AcDbSymbolTable
 70
     6
  0
STYLE
  5
10
330
3
100
AcDbSymbolTableRecord
100
AcDbTextStyleTableRecord
  2
STANDARD
 70
     0
 40
0.0
 41
1.0
 50
0.0
 71
     0
 42
5.0
  3
txt
  4

  0
STYLE
  5
1D
330
3
100
AcDbSymbolTableRecord
100
AcDbTextStyleTableRecord
  2
TXT
 70
     0
 40
8.0
 41
1.0
 50
0.0
 71
     0
 42
8.0
  3
txt
  4

  0
STYLE
  5
1E
330
3
100
AcDbSymbolTableRecord
100
AcDbTextStyleTableRecord
  2
SIMPLEX
 70
     0
 40
0.0
 41
1.0
 50
0.0
 71
     0
 42
3.5
  3
simplex
  4

  0
STYLE
  5
34C
330
3
100
AcDbSymbolTableRecord
100
AcDbTextStyleTableRecord
  2

 70
     1
 40
0.0
 41
1.0
 50
0.0
 71
     0
 42
2.5
  3
ltypeshp.shx
  4

  0
STYLE
  5
64A
330
3
100
AcDbSymbolTableRecord
100
AcDbTextStyleTableRecord
  2
ACISOTS
 70
     0
 40
0.0
 41
1.0
 50
0.0
 71
     0
 42
3.5
  3
isocp.shx
  4

  0
STYLE
  5
64B
330
3
100
AcDbSymbolTableRecord
100
AcDbTextStyleTableRecord
  2
ACISOGDT
 70
     0
 40
0.0
 41
1.0
 50
0.0
 71
     0
 42
3.5
  3
amgdt.shx
  4

  0
ENDTAB
  0
TABLE
  2
VIEW
  5
6
330
0
100
AcDbSymbolTable
 70
     0
  0
ENDTAB
  0
TABLE
  2
UCS
  5
7
330
0
100
AcDbSymbolTable
 70
     0
  0
ENDTAB
  0
TABLE
  2
APPID
  5
9
330
0
100
AcDbSymbolTable
 70
    18
  0
APPID
  5
11
330
9
100
AcDbSymbolTableRecord
100
AcDbRegAppTableRecord
  2
ACAD
 70
     0
  0
APPID
  5
5B1
330
9
100
AcDbSymbolTableRecord
100
AcDbRegAppTableRecord
  2
ACAD_NAV_VCDISPLAY
 70
     0
  0
APPID
  5
5EF
330
9
100
AcDbSymbolTableRecord
100
AcDbRegAppTableRecord
  2
ACAD_MLEADERVER
 70
     0
  0
APPID
  5
5FA
330
9
100
AcDbSymbolTableRecord
100
AcDbRegAppTableRecord
  2
MCAD_NO_VIS
 70
     0
  0
APPID
  5
5FB
330
9
100
AcDbSymbolTableRecord
100
AcDbRegAppTableRecord
  2
ACAD_TEMP_GRAPHIC
 70
     0
  0
APPID
  5
606
330
9
100
AcDbSymbolTableRecord
100
AcDbRegAppTableRecord
  2
ACATTRIBSERVICES
 70
     0
  0
APPID
  5
61E
330
9
100
AcDbSymbolTableRecord
100
AcDbRegAppTableRecord
  2
DESIGNERASSEMBLIES
 70
     0
  0
APPID
  5
639
330
9
100
AcDbSymbolTableRecord
100
AcDbRegAppTableRecord
  2
ACAD_DSTYLE_DIMJAG
 70
     0
  0
APPID
  5
63A
330
9
100
AcDbSymbolTableRecord
100
AcDbRegAppTableRecord
  2
ACAD_DSTYLE_DIMBREAK
 70
     0
  0
APPID
  5
685
330
9
100
AcDbSymbolTableRecord
100
AcDbRegAppTableRecord
  2
AcAecLayerStandard
 70
     0
  0
APPID
  5
6A3
330
9
100
AcDbSymbolTableRecord
100
AcDbRegAppTableRecord
  2
GENIUS_GENDTOL_13
 70
     0
  0
APPID
  5
6A4
330
9
100
AcDbSymbolTableRecord
100
AcDbRegAppTableRecord
  2
ACAD_DSTYLE_DIMINSPECT
 70
     0
  0
APPID
  5
D97
330
9
100
AcDbSymbolTableRecord
100
AcDbRegAppTableRecord
  2
ACAD_DSTYLE_DIMARC_LENGTH_SYMBOL
 70
     0
  0
APPID
  5
D98
330
9
100
AcDbSymbolTableRecord
100
AcDbRegAppTableRecord
  2
ACAD_DSTYLE_DIM_LINETYPE
 70
     0
  0
APPID
  5
D99
330
9
100
AcDbSymbolTableRecord
100
AcDbRegAppTableRecord
  2
ACAD_DSTYLE_DIM_EXT1_LINETYPE
 70
     0
  0
APPID
  5
D9A
330
9
100
AcDbSymbolTableRecord
100
AcDbRegAppTableRecord
  2
ACAD_DSTYLE_DIM_EXT2_LINETYPE
 70
     0
  0
APPID
  5
DA2
330
9
100
AcDbSymbolTableRecord
100
AcDbRegAppTableRecord
  2
ACAD_EXEMPT_FROM_CAD_STANDARDS
 70
     0
  0
APPID
  5
F7E
330
9
100
AcDbSymbolTableRecord
100
AcDbRegAppTableRecord
  2
AcadAnnoMonitorAlertIconDisabled
 70
     0
  0
ENDTAB
  0
TABLE
  2
DIMSTYLE
  5
A
330
0
100
AcDbSymbolTable
 70
     9
100
AcDbDimStyleTable
 71
     1
340
3F
  0
DIMSTYLE
105
3F
102
{ACAD_REACTORS
330
506
330
513
330
520
330
52D
330
AFF
330
B00
102
}
330
A
100
AcDbSymbolTableRecord
100
AcDbDimStyleTableRecord
  2
STANDARD
 70
     0
 41
2.5
 42
0.0
 43
3.75
 44
1.25
 73
     0
 74
     0
 77
     1
 78
     8
 79
     2
140
3.5
141
0.0
143
0.039370078
147
0.625
171
     3
179
     2
271
     2
272
     2
274
     3
283
     0
284
     8
340
1E
  0
DIMSTYLE
105
638
330
A
100
AcDbSymbolTableRecord
100
AcDbDimStyleTableRecord
  2
AM_ISO
 70
     0
  4
"
 41
3.5
 42
1.0
 43
10.0
 44
1.0
 47
0.1
 48
0.1
 73
     0
 74
     0
 77
     1
 78
     8
 79
     2
140
3.5
141
0.0
143
0.0393701
146
0.71
147
1.5
172
     1
176
   256
177
   256
178
   140
271
     2
272
     3
274
     4
283
     0
284
     8
340
10
371
    -1
372
    -1
1001
ACAD_DSTYLE_DIMJAG
1070
   388
1040
1.5
1001
ACAD_DSTYLE_DIMBREAK
1070
   391
1040
3.75
1001
ACAD_DSTYLE_DIMARC_LENGTH_SYMBOL
1070
   379
1070
     1
1001
ACAD_DSTYLE_DIM_LINETYPE
1070
   380
1005
12
1001
ACAD_DSTYLE_DIM_EXT1_LINETYPE
1070
   381
1005
12
1001
ACAD_DSTYLE_DIM_EXT2_LINETYPE
1070
   382
1005
12
  0
DIMSTYLE
105
63C
330
A
100
AcDbSymbolTableRecord
100
AcDbDimStyleTableRecord
  2
AM_ISO$3
 70
     0
  4
"
 41
3.5
 42
1.0
 43
10.0
 44
1.0
 47
0.1
 48
0.1
 73
     0
 77
     1
 78
     8
 79
     2
140
3.5
141
0.0
143
0.0393701
146
0.71
147
1.5
176
   256
177
   256
178
   140
271
     2
272
     3
274
     4
283
     0
284
     8
288
     1
289
     0
340
10
371
    -1
372
    -1
1001
ACAD_DSTYLE_DIMBREAK
1070
   391
1040
3.75
1001
ACAD_DSTYLE_DIMJAG
1070
   388
1040
1.5
1001
ACAD_DSTYLE_DIMARC_LENGTH_SYMBOL
1070
   379
1070
     1
1001
ACAD_DSTYLE_DIM_LINETYPE
1070
   380
1005
12
1001
ACAD_DSTYLE_DIM_EXT1_LINETYPE
1070
   381
1005
12
1001
ACAD_DSTYLE_DIM_EXT2_LINETYPE
1070
   382
1005
12
  0
DIMSTYLE
105
63D
330
A
100
AcDbSymbolTableRecord
100
AcDbDimStyleTableRecord
  2
AM_ISO$4
 70
     0
  4
"
 41
3.5
 42
1.0
 43
10.0
 44
1.0
 47
0.1
 48
0.1
 73
     0
 77
     1
 78
     8
 79
     2
140
3.5
141
0.0
143
0.0393701
146
0.71
147
1.5
176
   256
177
   256
178
   140
271
     2
272
     3
274
     4
283
     0
284
     8
288
     1
289
     0
340
10
371
    -1
372
    -1
1001
ACAD_DSTYLE_DIMBREAK
1070
   391
1040
3.75
1001
ACAD_DSTYLE_DIMJAG
1070
   388
1040
1.5
1001
ACAD_DSTYLE_DIMARC_LENGTH_SYMBOL
1070
   379
1070
     1
1001
ACAD_DSTYLE_DIM_LINETYPE
1070
   380
1005
12
1001
ACAD_DSTYLE_DIM_EXT1_LINETYPE
1070
   381
1005
12
1001
ACAD_DSTYLE_DIM_EXT2_LINETYPE
1070
   382
1005
12
  0
DIMSTYLE
105
63E
330
A
100
AcDbSymbolTableRecord
100
AcDbDimStyleTableRecord
  2
AM_ISO$6
 70
     0
  4
"
 41
3.5
 42
1.0
 43
10.0
 44
1.0
 47
0.1
 48
0.1
 73
     0
 74
     0
 78
     8
 79
     2
140
3.5
141
0.0
143
0.0393701
146
0.71
147
1.5
172
     1
176
   256
177
   256
178
   140
271
     2
272
     3
274
     4
283
     0
284
     8
340
10
371
    -1
372
    -1
1001
ACAD_DSTYLE_DIMBREAK
1070
   391
1040
3.75
1001
ACAD_DSTYLE_DIMJAG
1070
   388
1040
1.5
1001
ACAD_DSTYLE_DIMARC_LENGTH_SYMBOL
1070
   379
1070
     1
1001
ACAD_DSTYLE_DIM_LINETYPE
1070
   380
1005
12
1001
ACAD_DSTYLE_DIM_EXT1_LINETYPE
1070
   381
1005
12
1001
ACAD_DSTYLE_DIM_EXT2_LINETYPE
1070
   382
1005
12
  0
DIMSTYLE
105
63F
330
A
100
AcDbSymbolTableRecord
100
AcDbDimStyleTableRecord
  2
AM_ISO$7
 70
     0
  4
"
 41
3.5
 42
1.0
 43
10.0
 44
1.0
 47
0.1
 48
0.1
 73
     0
 74
     0
 77
     1
 78
     8
 79
     2
140
3.5
141
0.0
143
0.0393701
146
0.71
147
1.5
172
     1
176
   256
177
   256
178
   140
271
     2
272
     3
274
     4
283
     0
284
     8
340
10
371
    -1
372
    -1
1001
ACAD_DSTYLE_DIMBREAK
1070
   391
1040
3.75
1001
ACAD_DSTYLE_DIMJAG
1070
   388
1040
1.5
1001
ACAD_DSTYLE_DIMARC_LENGTH_SYMBOL
1070
   379
1070
     1
1001
ACAD_DSTYLE_DIM_LINETYPE
1070
   380
1005
12
1001
ACAD_DSTYLE_DIM_EXT1_LINETYPE
1070
   381
1005
12
1001
ACAD_DSTYLE_DIM_EXT2_LINETYPE
1070
   382
1005
12
  0
DIMSTYLE
105
640
330
A
100
AcDbSymbolTableRecord
100
AcDbDimStyleTableRecord
  2
AM_ISO$SF
 70
     0
  4
"
 41
3.5
 42
1.0
 43
10.0
 44
1.0
 47
0.1
 48
0.1
 73
     0
 74
     0
 75
     1
 76
     1
 77
     1
 78
     8
 79
     2
140
3.5
141
0.0
143
0.0393701
146
0.71
147
1.5
172
     1
176
   256
177
   256
178
   140
271
     2
272
     3
274
     4
283
     0
284
     8
340
10
371
    -1
372
    -1
1001
ACAD_DSTYLE_DIMBREAK
1070
   391
1040
3.75
1001
ACAD_DSTYLE_DIMJAG
1070
   388
1040
1.5
1001
ACAD_DSTYLE_DIMARC_LENGTH_SYMBOL
1070
   379
1070
     1
1001
ACAD_DSTYLE_DIM_LINETYPE
1070
   380
1005
12
1001
ACAD_DSTYLE_DIM_EXT1_LINETYPE
1070
   381
1005
12
1001
ACAD_DSTYLE_DIM_EXT2_LINETYPE
1070
   382
1005
12
  0
DIMSTYLE
105
645
330
A
100
AcDbSymbolTableRecord
100
AcDbDimStyleTableRecord
  2
AM_ISO$SH
 70
     0
  4
"
 41
3.5
 42
1.0
 43
10.0
 44
1.0
 47
0.1
 48
0.1
 73
     0
 74
     0
 75
     1
 76
     1
 77
     1
 78
     8
 79
     2
140
3.5
141
0.0
143
0.0393701
144
2.0
146
0.71
147
1.5
172
     1
173
     1
176
   256
177
   256
178
   140
271
     2
272
     3
274
     4
283
     0
284
     8
340
10
343
641
371
    -1
372
    -1
1001
ACAD_DSTYLE_DIMBREAK
1070
   391
1040
3.75
1001
ACAD_DSTYLE_DIMJAG
1070
   388
1040
1.5
1001
ACAD_DSTYLE_DIMARC_LENGTH_SYMBOL
1070
   379
1070
     1
1001
ACAD_DSTYLE_DIM_LINETYPE
1070
   380
1005
12
1001
ACAD_DSTYLE_DIM_EXT1_LINETYPE
1070
   381
1005
12
1001
ACAD_DSTYLE_DIM_EXT2_LINETYPE
1070
   382
1005
12
  0
DIMSTYLE
105
689
330
A
100
AcDbSymbolTableRecord
100
AcDbDimStyleTableRecord
  2
STANDARD$0
 70
     0
 41
2.5
 42
0.0
 43
3.75
 44
1.25
 73
     0
 74
     0
 77
     1
 78
     8
 79
     2
140
3.5
141
0.0
143
0.039370078
147
0.625
171
     3
179
     2
271
     2
272
     2
274
     3
283
     0
284
     8
340
1E
1001
ACAD_DSTYLE_DIMBREAK
1070
   391
1040
3.75
1001
ACAD_DSTYLE_DIMJAG
1070
   388
1040
1.5
  0
ENDTAB
  0
TABLE
  2
BLOCK_RECORD
  5
1
330
0
100
AcDbSymbolTable
 70
    12
  0
BLOCK_RECORD
  5
18
102
{ACAD_XDICTIONARY
360
B89
102
}
330
1
100
AcDbSymbolTableRecord
100
AcDbBlockTableRecord
  2
*MODEL_SPACE
340
303
  0
BLOCK_RECORD
  5
338
330
1
100
AcDbSymbolTableRecord
100
AcDbBlockTableRecord
  2
*Paper_Space
340
33B
  0
BLOCK_RECORD
  5
507
330
1
100
AcDbSymbolTableRecord
100
AcDbBlockTableRecord
  2
*D0
340
0
  0
BLOCK_RECORD
  5
514
330
1
100
AcDbSymbolTableRecord
100
AcDbBlockTableRecord
  2
*D1
340
0
  0
BLOCK_RECORD
  5
521
330
1
100
AcDbSymbolTableRecord
100
AcDbBlockTableRecord
  2
*D2
340
0
  0
BLOCK_RECORD
  5
52E
330
1
100
AcDbSymbolTableRecord
100
AcDbBlockTableRecord
  2
*D3
340
0
  0
BLOCK_RECORD
  5
641
330
1
100
AcDbSymbolTableRecord
100
AcDbBlockTableRecord
  2
GENAXEH
340
0
  0
BLOCK_RECORD
  5
B01
330
1
100
AcDbSymbolTableRecord
100
AcDbBlockTableRecord
  2
*D5
340
0
  0
BLOCK_RECORD
  5
B0D
330
1
100
AcDbSymbolTableRecord
100
AcDbBlockTableRecord
  2
*D6
340
0
  0
BLOCK_RECORD
  5
E02
330
1
100
AcDbSymbolTableRecord
100
AcDbBlockTableRecord
  2
*D7
340
0
  0
BLOCK_RECORD
  5
E32
330
1
100
AcDbSymbolTableRecord
100
AcDbBlockTableRecord
  2
*D8
340
0
  0
BLOCK_RECORD
  5
E5C
330
1
100
AcDbSymbolTableRecord
100
AcDbBlockTableRecord
  2
*D9
340
0
  0
BLOCK_RECORD
  5
F5A
330
1
100
AcDbSymbolTableRecord
100
AcDbBlockTableRecord
  2
*D10
340
0
  0
BLOCK_RECORD
  5
F72
330
1
100
AcDbSymbolTableRecord
100
AcDbBlockTableRecord
  2
*D11
340
0
  0
ENDTAB
  0
ENDSEC
  0
SECTION
  2
BLOCKS
  0
BLOCK
  5
32
330
18
100
AcDbEntity
  8
0
100
AcDbBlockBegin
  2
*MODEL_SPACE
 70
     0
 10
0.0
 20
0.0
 30
0.0
  3
*MODEL_SPACE
  1

  0
ENDBLK
  5
33
330
18
100
AcDbEntity
  8
0
100
AcDbBlockEnd
  0
BLOCK
  5
339
330
338
100
AcDbEntity
 67
     1
  8
0
100
AcDbBlockBegin
  2
*Paper_Space
 70
     0
 10
0.0
 20
0.0
 30
0.0
  3
*Paper_Space
  1

  0
ENDBLK
  5
33A
330
338
100
AcDbEntity
 67
     1
  8
0
100
AcDbBlockEnd
  0
BLOCK
  5
511
330
507
100
AcDbEntity
  8
0
100
AcDbBlockBegin
  2
*D0
 70
     1
 10
0.0
 20
0.0
 30
0.0
  3
*D0
  1

  0
LINE
  5
FDD
330
507
100
AcDbEntity
  8
2
 62
     0
440
 16777216
370
    -2
100
AcDbLine
 10
-0.0000000000000036
 20
0.0000000000000061
 30
0.0
 11
0.0000000000000011
 21
76.27226149688365
 31
0.0
  0
LINE
  5
FDE
330
507
100
AcDbEntity
  8
2
 62
     0
440
 16777216
370
    -2
100
AcDbLine
 10
95.0
 20
0.0581019787268727
 30
0.0
 11
95.0
 21
76.27226149688365
 31
0.0
  0
LINE
  5
FDF
330
507
100
AcDbEntity
  8
2
 62
     0
440
 16777216
370
    -2
100
AcDbLine
 10
2.5
 20
75.02226149688365
 30
0.0
 11
92.5
 21
75.02226149688365
 31
0.0
  0
SOLID
  5
FE0
330
507
100
AcDbEntity
  8
2
 62
     0
440
 16777216
100
AcDbTrace
 10
2.5
 20
75.43892816355032
 30
0.0
 11
2.5
 21
74.60559483021699
 31
0.0
 12
0.000000000000001
 22
75.02226149688365
 32
0.0
 13
0.000000000000001
 23
75.02226149688365
 33
0.0
  0
SOLID
  5
FE1
330
507
100
AcDbEntity
  8
2
 62
     0
440
 16777216
100
AcDbTrace
 10
92.5
 20
75.43892816355032
 30
0.0
 11
92.5
 21
74.60559483021699
 31
0.0
 12
95.0
 22
75.02226149688365
 32
0.0
 13
95.0
 23
75.02226149688365
 33
0.0
  0
MTEXT
  5
FE2
330
507
100
AcDbEntity
  8
2
 62
     0
440
 16777216
100
AcDbMText
 10
47.5
 20
77.39726149688365
 30
0.0
 40
3.5
 41
0.0
 71
     5
 72
     1
  1
95
  7
SIMPLEX
 73
     1
 44
1.0
  0
POINT
  5
FE3
330
507
100
AcDbEntity
  8
DEFPOINTS
 62
     0
440
 16777216
100
AcDbPoint
 10
-0.0000000000000036
 20
0.0000000000000061
 30
0.0
  0
POINT
  5
FE4
330
507
100
AcDbEntity
  8
DEFPOINTS
 62
     0
440
 16777216
100
AcDbPoint
 10
95.0
 20
0.0581019787268727
 30
0.0
  0
POINT
  5
FE5
330
507
100
AcDbEntity
  8
DEFPOINTS
 62
     0
440
 16777216
100
AcDbPoint
 10
95.0
 20
75.02226149688365
 30
0.0
  0
ENDBLK
  5
512
330
507
100
AcDbEntity
  8
0
100
AcDbBlockEnd
  0
BLOCK
  5
51E
330
514
100
AcDbEntity
  8
0
100
AcDbBlockBegin
  2
*D1
 70
     1
 10
0.0
 20
0.0
 30
0.0
  3
*D1
  1

  0
LINE
  5
FB8
330
514
100
AcDbEntity
  8
2
 62
     0
440
 16777216
370
    -2
100
AcDbLine
 10
15.0
 20
10.0
 30
0.0
 11
15.0
 21
61.27226149688365
 31
0.0
  0
LINE
  5
FB9
330
514
100
AcDbEntity
  8
2
 62
     0
440
 16777216
370
    -2
100
AcDbLine
 10
95.0
 20
4.871781144723148
 30
0.0
 11
95.0
 21
61.27226149688365
 31
0.0
  0
LINE
  5
FBA
330
514
100
AcDbEntity
  8
2
 62
     0
440
 16777216
370
    -2
100
AcDbLine
 10
17.5
 20
60.02226149688365
 30
0.0
 11
92.5
 21
60.02226149688365
 31
0.0
  0
SOLID
  5
FBB
330
514
100
AcDbEntity
  8
2
 62
     0
440
 16777216
100
AcDbTrace
 10
17.5
 20
60.43892816355032
 30
0.0
 11
17.5
 21
59.60559483021699
 31
0.0
 12
15.0
 22
60.02226149688365
 32
0.0
 13
15.0
 23
60.02226149688365
 33
0.0
  0
SOLID
  5
FBC
330
514
100
AcDbEntity
  8
2
 62
     0
440
 16777216
100
AcDbTrace
 10
92.5
 20
60.43892816355032
 30
0.0
 11
92.5
 21
59.60559483021699
 31
0.0
 12
95.0
 22
60.02226149688365
 32
0.0
 13
95.0
 23
60.02226149688365
 33
0.0
  0
MTEXT
  5
FBD
330
514
100
AcDbEntity
  8
2
 62
     0
440
 16777216
100
AcDbMText
 10
55.0
 20
62.39726149688365
 30
0.0
 40
3.5
 41
0.0
 71
     5
 72
     1
  1
80
  7
SIMPLEX
 73
     1
 44
1.0
  0
POINT
  5
FBE
330
514
100
AcDbEntity
  8
DEFPOINTS
 62
     0
440
 16777216
100
AcDbPoint
 10
15.0
 20
10.0
 30
0.0
  0
POINT
  5
FBF
330
514
100
AcDbEntity
  8
DEFPOINTS
 62
     0
440
 16777216
100
AcDbPoint
 10
95.0
 20
4.871781144723148
 30
0.0
  0
POINT
  5
FC0
330
514
100
AcDbEntity
  8
DEFPOINTS
 62
     0
440
 16777216
100
AcDbPoint
 10
95.0
 20
60.02226149688365
 30
0.0
  0
ENDBLK
  5
51F
330
514
100
AcDbEntity
  8
0
100
AcDbBlockEnd
  0
BLOCK
  5
52B
330
521
100
AcDbEntity
  8
0
100
AcDbBlockBegin
  2
*D2
 70
     1
 10
0.0
 20
0.0
 30
0.0
  3
*D2
  1

  0
LINE
  5
F9D
330
521
100
AcDbEntity
  8
SK2
 62
     0
440
 16777216
370
    -2
100
AcDbLine
 10
-50.0
 20
9.977738503116343
 30
0.0
 11
-81.24999999994896
 21
9.977738503116354
 31
0.0
  0
LINE
  5
F9E
330
521
100
AcDbEntity
  8
SK2
 62
     0
440
 16777216
370
    -2
100
AcDbLine
 10
-50.0
 20
-10.02226149688365
 30
0.0
 11
-81.24999999994896
 21
-10.02226149688364
 31
0.0
  0
LINE
  5
F9F
330
521
100
AcDbEntity
  8
SK2
 62
     0
440
 16777216
370
    -2
100
AcDbLine
 10
-79.99999999994895
 20
7.477738503116353
 30
0.0
 11
-79.99999999994895
 21
-7.522261496883644
 31
0.0
  0
SOLID
  5
FA0
330
521
100
AcDbEntity
  8
SK2
 62
     0
440
 16777216
100
AcDbTrace
 10
-80.41666666661562
 20
7.477738503116353
 30
0.0
 11
-79.58333333328228
 21
7.477738503116353
 31
0.0
 12
-79.99999999994895
 22
9.977738503116354
 32
0.0
 13
-79.99999999994895
 23
9.977738503116354
 33
0.0
  0
SOLID
  5
FA1
330
521
100
AcDbEntity
  8
SK2
 62
     0
440
 16777216
100
AcDbTrace
 10
-80.41666666661562
 20
-7.522261496883644
 30
0.0
 11
-79.58333333328228
 21
-7.522261496883644
 31
0.0
 12
-79.99999999994895
 22
-10.02226149688364
 32
0.0
 13
-79.99999999994895
 23
-10.02226149688364
 33
0.0
  0
MTEXT
  5
FA2
330
521
100
AcDbEntity
  8
SK2
 62
     0
440
 16777216
100
AcDbMText
 10
-82.37499999994895
 20
-0.0222614968836582
 30
0.0
 40
3.5
 41
0.0
 71
     5
 72
     1
  1
%%c20
  7
SIMPLEX
 11
0.0000000000000001
 21
1.0
 31
0.0
 73
     1
 44
1.0
  0
POINT
  5
FA3
330
521
100
AcDbEntity
  8
DEFPOINTS
 62
     0
440
 16777216
100
AcDbPoint
 10
-50.0
 20
9.977738503116343
 30
0.0
  0
POINT
  5
FA4
330
521
100
AcDbEntity
  8
DEFPOINTS
 62
     0
440
 16777216
100
AcDbPoint
 10
-50.0
 20
-10.02226149688365
 30
0.0
  0
POINT
  5
FA5
330
521
100
AcDbEntity
  8
DEFPOINTS
 62
     0
440
 16777216
100
AcDbPoint
 10
-79.99999999994895
 20
-10.02226149688364
 30
0.0
  0
ENDBLK
  5
52C
330
521
100
AcDbEntity
  8
0
100
AcDbBlockEnd
  0
BLOCK
  5
538
330
52E
100
AcDbEntity
  8
0
100
AcDbBlockBegin
  2
*D3
 70
     1
 10
0.0
 20
0.0
 30
0.0
  3
*D3
  1

  0
LINE
  5
FE6
330
52E
100
AcDbEntity
  8
SK2
 62
     0
440
 16777216
370
    -2
100
AcDbLine
 10
-50.0
 20
-0.0222614968836492
 30
0.0
 11
-50.0
 21
91.27226149688366
 31
0.0
  0
LINE
  5
FE7
330
52E
100
AcDbEntity
  8
SK2
 62
     0
440
 16777216
370
    -2
100
AcDbLine
 10
95.0
 20
10.00174368001486
 30
0.0
 11
95.0
 21
91.27226149688366
 31
0.0
  0
LINE
  5
FE8
330
52E
100
AcDbEntity
  8
SK2
 62
     0
440
 16777216
370
    -2
100
AcDbLine
 10
-47.49999999999999
 20
90.02226149688366
 30
0.0
 11
92.5
 21
90.02226149688366
 31
0.0
  0
SOLID
  5
FE9
330
52E
100
AcDbEntity
  8
SK2
 62
     0
440
 16777216
100
AcDbTrace
 10
-47.49999999999999
 20
90.43892816355031
 30
0.0
 11
-47.49999999999999
 21
89.60559483021699
 31
0.0
 12
-50.0
 22
90.02226149688366
 32
0.0
 13
-50.0
 23
90.02226149688366
 33
0.0
  0
SOLID
  5
FEA
330
52E
100
AcDbEntity
  8
SK2
 62
     0
440
 16777216
100
AcDbTrace
 10
92.5
 20
90.43892816355031
 30
0.0
 11
92.5
 21
89.60559483021699
 31
0.0
 12
95.0
 22
90.02226149688366
 32
0.0
 13
95.0
 23
90.02226149688366
 33
0.0
  0
MTEXT
  5
FEB
330
52E
100
AcDbEntity
  8
SK2
 62
     0
440
 16777216
100
AcDbMText
 10
22.5
 20
92.39726149688364
 30
0.0
 40
3.5
 41
0.0
 71
     5
 72
     1
  1
145
  7
SIMPLEX
 73
     1
 44
1.0
  0
POINT
  5
FEC
330
52E
100
AcDbEntity
  8
DEFPOINTS
 62
     0
440
 16777216
100
AcDbPoint
 10
-50.0
 20
-0.0222614968836492
 30
0.0
  0
POINT
  5
FED
330
52E
100
AcDbEntity
  8
DEFPOINTS
 62
     0
440
 16777216
100
AcDbPoint
 10
95.0
 20
10.00174368001486
 30
0.0
  0
POINT
  5
FEE
330
52E
100
AcDbEntity
  8
DEFPOINTS
 62
     0
440
 16777216
100
AcDbPoint
 10
95.0
 20
90.02226149688366
 30
0.0
  0
ENDBLK
  5
539
330
52E
100
AcDbEntity
  8
0
100
AcDbBlockEnd
  0
BLOCK
  5
643
330
641
100
AcDbEntity
  8
0
100
AcDbBlockBegin
  2
GENAXEH
 70
     0
 10
0.0
 20
0.0
 30
0.0
  3
GENAXEH
  1

  0
LINE
  5
642
330
641
100
AcDbEntity
  8
0
100
AcDbLine
 10
-1.0
 20
0.0
 30
0.0
 11
1.0
 21
0.0
 31
0.0
  0
ENDBLK
  5
644
330
641
100
AcDbEntity
  8
0
100
AcDbBlockEnd
  0
BLOCK
  5
B02
330
B01
100
AcDbEntity
  8
0
100
AcDbBlockBegin
  2
*D5
 70
     1
 10
0.0
 20
0.0
 30
0.0
  3
*D5
  1

  0
LINE
  5
FCA
330
B01
100
AcDbEntity
  8
2
 62
     0
440
 16777216
370
    -2
100
AcDbLine
 10
94.75020185592113
 20
9.997127104855804
 30
0.0
 11
126.0002018559211
 21
9.997127104855792
 31
0.0
  0
LINE
  5
FCB
330
B01
100
AcDbEntity
  8
2
 62
     0
440
 16777216
370
    -2
100
AcDbLine
 10
94.75020185592113
 20
-10.00287289514419
 30
0.0
 11
126.0002018559211
 21
-10.0028728951442
 31
0.0
  0
LINE
  5
FCC
330
B01
100
AcDbEntity
  8
2
 62
     0
440
 16777216
370
    -2
100
AcDbLine
 10
124.7502018559211
 20
7.497127104855795
 30
0.0
 11
124.7502018559211
 21
-7.502872895144198
 31
0.0
  0
SOLID
  5
FCD
330
B01
100
AcDbEntity
  8
2
 62
     0
440
 16777216
100
AcDbTrace
 10
124.3335351892544
 20
7.497127104855795
 30
0.0
 11
125.1668685225878
 21
7.497127104855795
 31
0.0
 12
124.7502018559211
 22
9.997127104855792
 32
0.0
 13
124.7502018559211
 23
9.997127104855792
 33
0.0
  0
SOLID
  5
FCE
330
B01
100
AcDbEntity
  8
2
 62
     0
440
 16777216
100
AcDbTrace
 10
124.3335351892544
 20
-7.502872895144198
 30
0.0
 11
125.1668685225878
 21
-7.502872895144198
 31
0.0
 12
124.7502018559211
 22
-10.0028728951442
 32
0.0
 13
124.7502018559211
 23
-10.0028728951442
 33
0.0
  0
MTEXT
  5
FCF
330
B01
100
AcDbEntity
  8
2
 62
     0
440
 16777216
100
AcDbMText
 10
122.3752018559211
 20
-0.0028728951441821
 30
0.0
 40
3.5
 41
0.0
 71
     5
 72
     1
  1
%%c20
  7
SIMPLEX
 11
0.0000000000000001
 21
1.0
 31
0.0
 73
     1
 44
1.0
  0
POINT
  5
FD0
330
B01
100
AcDbEntity
  8
DEFPOINTS
 62
     0
440
 16777216
100
AcDbPoint
 10
94.75020185592113
 20
9.997127104855804
 30
0.0
  0
POINT
  5
FD1
330
B01
100
AcDbEntity
  8
DEFPOINTS
 62
     0
440
 16777216
100
AcDbPoint
 10
94.75020185592113
 20
-10.00287289514419
 30
0.0
  0
POINT
  5
FD2
330
B01
100
AcDbEntity
  8
DEFPOINTS
 62
     0
440
 16777216
100
AcDbPoint
 10
124.7502018559211
 20
-10.0028728951442
 30
0.0
  0
ENDBLK
  5
B03
330
B01
100
AcDbEntity
  8
0
100
AcDbBlockEnd
  0
BLOCK
  5
B0E
330
B0D
100
AcDbEntity
  8
0
100
AcDbBlockBegin
  2
*D6
 70
     1
 10
0.0
 20
0.0
 30
0.0
  3
*D6
  1

  0
LINE
  5
FD3
330
B0D
100
AcDbEntity
  8
2
 62
     0
440
 16777216
370
    -2
100
AcDbLine
 10
94.75020185592113
 20
10.00174368001486
 30
0.0
 11
94.75020185592113
 21
21.12464012810142
 31
0.0
  0
LINE
  5
FD4
330
B0D
100
AcDbEntity
  8
2
 62
     0
440
 16777216
370
    -2
100
AcDbLine
 10
95.0
 20
10.00174368001486
 30
0.0
 11
95.0
 21
21.12464012810142
 31
0.0
  0
LINE
  5
FD5
330
B0D
100
AcDbEntity
  8
2
 62
     0
440
 16777216
370
    -2
100
AcDbLine
 10
92.25020185592113
 20
19.87464012810142
 30
0.0
 11
89.75020185592113
 21
19.87464012810142
 31
0.0
  0
LINE
  5
FD6
330
B0D
100
AcDbEntity
  8
2
 62
     0
440
 16777216
370
    -2
100
AcDbLine
 10
97.5
 20
19.87464012810142
 30
0.0
 11
123.0833333333333
 21
19.87464012810142
 31
0.0
  0
SOLID
  5
FD7
330
B0D
100
AcDbEntity
  8
2
 62
     0
440
 16777216
100
AcDbTrace
 10
92.25020185592113
 20
20.29130679476809
 30
0.0
 11
92.25020185592113
 21
19.45797346143475
 31
0.0
 12
94.75020185592113
 22
19.87464012810142
 32
0.0
 13
94.75020185592113
 23
19.87464012810142
 33
0.0
  0
SOLID
  5
FD8
330
B0D
100
AcDbEntity
  8
2
 62
     0
440
 16777216
100
AcDbTrace
 10
97.5
 20
20.29130679476809
 30
0.0
 11
97.5
 21
19.45797346143475
 31
0.0
 12
95.0
 22
19.87464012810142
 32
0.0
 13
95.0
 23
19.87464012810142
 33
0.0
  0
MTEXT
  5
FD9
330
B0D
100
AcDbEntity
  8
2
 62
     0
440
 16777216
100
AcDbMText
 10
111.5416666666666
 20
22.24964012810142
 30
0.0
 40
3.5
 41
0.0
 71
     5
 72
     1
  1
0.25x45°
  7
SIMPLEX
 73
     1
 44
1.0
  0
POINT
  5
FDA
330
B0D
100
AcDbEntity
  8
DEFPOINTS
 62
     0
440
 16777216
100
AcDbPoint
 10
94.75020185592113
 20
10.00174368001486
 30
0.0
  0
POINT
  5
FDB
330
B0D
100
AcDbEntity
  8
DEFPOINTS
 62
     0
440
 16777216
100
AcDbPoint
 10
95.0
 20
10.00174368001486
 30
0.0
  0
POINT
  5
FDC
330
B0D
100
AcDbEntity
  8
DEFPOINTS
 62
     0
440
 16777216
100
AcDbPoint
 10
95.0
 20
19.87464012810142
 30
0.0
  0
ENDBLK
  5
B0F
330
B0D
100
AcDbEntity
  8
0
100
AcDbBlockEnd
  0
BLOCK
  5
E03
330
E02
100
AcDbEntity
  8
0
100
AcDbBlockBegin
  2
*D7
 70
     1
 10
0.0
 20
0.0
 30
0.0
  3
*D7
  1

  0
LINE
  5
E0F
330
E02
100
AcDbEntity
  8
1
  6
ByBlock
 62
     0
440
 16777216
370
    -2
100
AcDbLine
 10
-40.0
 20
0.0
 30
0.0
 11
-40.0
 21
16.89519826364412
 31
0.0
  0
LINE
  5
E10
330
E02
100
AcDbEntity
  8
1
  6
ByBlock
 62
     0
440
 16777216
370
    -2
100
AcDbLine
 10
-20.0
 20
3.570714214271422
 30
0.0
 11
-20.0
 21
16.89519826364412
 31
0.0
  0
LINE
  5
E11
330
E02
100
AcDbEntity
  8
1
  6
ByBlock
 62
     0
440
 16777216
370
    -2
100
AcDbLine
 10
-37.5
 20
15.64519826364412
 30
0.0
 11
-22.5
 21
15.64519826364412
 31
0.0
  0
SOLID
  5
E12
330
E02
100
AcDbEntity
  8
1
 62
     0
440
 16777216
100
AcDbTrace
 10
-37.5
 20
16.06186493031079
 30
0.0
 11
-37.5
 21
15.22853159697745
 31
0.0
 12
-40.0
 22
15.64519826364412
 32
0.0
 13
-40.0
 23
15.64519826364412
 33
0.0
  0
SOLID
  5
E13
330
E02
100
AcDbEntity
  8
1
 62
     0
440
 16777216
100
AcDbTrace
 10
-22.5
 20
16.06186493031079
 30
0.0
 11
-22.5
 21
15.22853159697745
 31
0.0
 12
-20.0
 22
15.64519826364412
 32
0.0
 13
-20.0
 23
15.64519826364412
 33
0.0
  0
MTEXT
  5
E14
330
E02
100
AcDbEntity
  8
1
 62
     0
440
 16777216
100
AcDbMText
 10
-30.0
 20
18.02019826364412
 30
0.0
 40
3.5
 41
0.0
 71
     5
 72
     1
  1
20
  7
SIMPLEX
 73
     1
 44
1.0
  0
POINT
  5
E15
330
E02
100
AcDbEntity
  8
DEFPOINTS
 62
     0
440
 16777216
100
AcDbPoint
 10
-40.0
 20
0.0
 30
0.0
  0
POINT
  5
E16
330
E02
100
AcDbEntity
  8
DEFPOINTS
 62
     0
440
 16777216
100
AcDbPoint
 10
-20.0
 20
3.570714214271422
 30
0.0
  0
POINT
  5
E17
330
E02
100
AcDbEntity
  8
DEFPOINTS
 62
     0
440
 16777216
100
AcDbPoint
 10
-20.0
 20
15.64519826364412
 30
0.0
  0
ENDBLK
  5
E04
330
E02
100
AcDbEntity
  8
0
100
AcDbBlockEnd
  0
BLOCK
  5
E33
330
E32
100
AcDbEntity
  8
0
100
AcDbBlockBegin
  2
*D8
 70
     1
 10
0.0
 20
0.0
 30
0.0
  3
*D8
  1

  0
LINE
  5
E52
330
E32
100
AcDbEntity
  8
1
  6
ByBlock
 62
     0
440
 16777216
370
    -2
100
AcDbLine
 10
-80.0
 20
0.0000000000000053
 30
0.0
 11
-80.0
 21
-24.44907420917701
 31
0.0
  0
LINE
  5
E53
330
E32
100
AcDbEntity
  8
1
  6
ByBlock
 62
     0
440
 16777216
370
    -2
100
AcDbLine
 10
-55.5
 20
-7.14142842854285
 30
0.0
 11
-55.5
 21
-24.44907420917701
 31
0.0
  0
LINE
  5
E54
330
E32
100
AcDbEntity
  8
1
  6
ByBlock
 62
     0
440
 16777216
370
    -2
100
AcDbLine
 10
-77.5
 20
-23.19907420917701
 30
0.0
 11
-58.0
 21
-23.19907420917701
 31
0.0
  0
SOLID
  5
E55
330
E32
100
AcDbEntity
  8
1
 62
     0
440
 16777216
100
AcDbTrace
 10
-77.5
 20
-22.78240754251035
 30
0.0
 11
-77.5
 21
-23.61574087584368
 31
0.0
 12
-80.0
 22
-23.19907420917701
 32
0.0
 13
-80.0
 23
-23.19907420917701
 33
0.0
  0
SOLID
  5
E56
330
E32
100
AcDbEntity
  8
1
 62
     0
440
 16777216
100
AcDbTrace
 10
-58.0
 20
-22.78240754251035
 30
0.0
 11
-58.0
 21
-23.61574087584368
 31
0.0
 12
-55.5
 22
-23.19907420917701
 32
0.0
 13
-55.5
 23
-23.19907420917701
 33
0.0
  0
MTEXT
  5
E57
330
E32
100
AcDbEntity
  8
1
 62
     0
440
 16777216
100
AcDbMText
 10
-67.75
 20
-20.82407420917701
 30
0.0
 40
3.5
 41
0.0
 71
     5
 72
     1
  1
24.5
  7
SIMPLEX
 73
     1
 44
1.0
  0
POINT
  5
E58
330
E32
100
AcDbEntity
  8
DEFPOINTS
 62
     0
440
 16777216
100
AcDbPoint
 10
-80.0
 20
0.0000000000000053
 30
0.0
  0
POINT
  5
E59
330
E32
100
AcDbEntity
  8
DEFPOINTS
 62
     0
440
 16777216
100
AcDbPoint
 10
-55.5
 20
-7.14142842854285
 30
0.0
  0
POINT
  5
E5A
330
E32
100
AcDbEntity
  8
DEFPOINTS
 62
     0
440
 16777216
100
AcDbPoint
 10
-55.5
 20
-23.19907420917701
 30
0.0
  0
ENDBLK
  5
E34
330
E32
100
AcDbEntity
  8
0
100
AcDbBlockEnd
  0
BLOCK
  5
E5D
330
E5C
100
AcDbEntity
  8
0
100
AcDbBlockBegin
  2
*D9
 70
     1
 10
0.0
 20
0.0
 30
0.0
  3
*D9
  1

  0
LINE
  5
E7C
330
E5C
100
AcDbEntity
  8
1
  6
ByBlock
 62
     0
440
 16777216
370
    -2
100
AcDbLine
 10
-61.0
 20
7.141428428543002
 30
0.0
 11
-61.0
 21
20.89940727720847
 31
0.0
  0
LINE
  5
E7D
330
E5C
100
AcDbEntity
  8
1
  6
ByBlock
 62
     0
440
 16777216
370
    -2
100
AcDbLine
 10
-50.0
 20
7.141428428543071
 30
0.0
 11
-50.0
 21
20.89940727720847
 31
0.0
  0
LINE
  5
E7E
330
E5C
100
AcDbEntity
  8
1
  6
ByBlock
 62
     0
440
 16777216
370
    -2
100
AcDbLine
 10
-58.5
 20
19.64940727720847
 30
0.0
 11
-52.5
 21
19.64940727720847
 31
0.0
  0
SOLID
  5
E7F
330
E5C
100
AcDbEntity
  8
1
 62
     0
440
 16777216
100
AcDbTrace
 10
-58.5
 20
20.06607394387514
 30
0.0
 11
-58.5
 21
19.23274061054181
 31
0.0
 12
-61.0
 22
19.64940727720847
 32
0.0
 13
-61.0
 23
19.64940727720847
 33
0.0
  0
SOLID
  5
E80
330
E5C
100
AcDbEntity
  8
1
 62
     0
440
 16777216
100
AcDbTrace
 10
-52.5
 20
20.06607394387514
 30
0.0
 11
-52.5
 21
19.23274061054181
 31
0.0
 12
-50.0
 22
19.64940727720847
 32
0.0
 13
-50.0
 23
19.64940727720847
 33
0.0
  0
MTEXT
  5
E81
330
E5C
100
AcDbEntity
  8
1
 62
     0
440
 16777216
100
AcDbMText
 10
-55.5
 20
22.02440727720848
 30
0.0
 40
3.5
 41
0.0
 71
     5
 72
     1
  1
11
  7
SIMPLEX
 73
     1
 44
1.0
  0
POINT
  5
E82
330
E5C
100
AcDbEntity
  8
DEFPOINTS
 62
     0
440
 16777216
100
AcDbPoint
 10
-61.0
 20
7.141428428543002
 30
0.0
  0
POINT
  5
E83
330
E5C
100
AcDbEntity
  8
DEFPOINTS
 62
     0
440
 16777216
100
AcDbPoint
 10
-50.0
 20
7.141428428543071
 30
0.0
  0
POINT
  5
E84
330
E5C
100
AcDbEntity
  8
DEFPOINTS
 62
     0
440
 16777216
100
AcDbPoint
 10
-50.0
 20
19.64940727720847
 30
0.0
  0
ENDBLK
  5
E5E
330
E5C
100
AcDbEntity
  8
0
100
AcDbBlockEnd
  0
BLOCK
  5
F5B
330
F5A
100
AcDbEntity
  8
0
100
AcDbBlockBegin
  2
*D10
 70
     1
 10
0.0
 20
0.0
 30
0.0
  3
*D10
  1

  0
LINE
  5
F67
330
F5A
100
AcDbEntity
  8
1
  6
ByBlock
 62
     0
440
 16777216
370
    -2
100
AcDbLine
 10
99.11599211053342
 20
0.0
 30
0.0
 11
101.7210528031534
 21
-0.0000000000000007
 31
0.0
  0
LINE
  5
F68
330
F5A
100
AcDbEntity
  8
1
  6
ByBlock
 62
     0
440
 16777216
370
    -2
100
AcDbLine
 10
99.11599211053342
 20
9.997127104855801
 30
0.0
 11
101.7210528031534
 21
9.997127104855801
 31
0.0
  0
LINE
  5
F69
330
F5A
100
AcDbEntity
  8
1
  6
ByBlock
 62
     0
440
 16777216
370
    -2
100
AcDbLine
 10
100.4710528031534
 20
2.499999999999999
 30
0.0
 11
100.4710528031534
 21
7.497127104855799
 31
0.0
  0
SOLID
  5
F6A
330
F5A
100
AcDbEntity
  8
1
 62
     0
440
 16777216
100
AcDbTrace
 10
100.0543861364867
 20
2.499999999999999
 30
0.0
 11
100.88771946982
 21
2.499999999999999
 31
0.0
 12
100.4710528031534
 22
-0.0000000000000004
 32
0.0
 13
100.4710528031534
 23
-0.0000000000000004
 33
0.0
  0
SOLID
  5
F6B
330
F5A
100
AcDbEntity
  8
1
 62
     0
440
 16777216
100
AcDbTrace
 10
100.0543861364867
 20
7.497127104855799
 30
0.0
 11
100.88771946982
 21
7.497127104855799
 31
0.0
 12
100.4710528031534
 22
9.997127104855801
 32
0.0
 13
100.4710528031534
 23
9.997127104855801
 33
0.0
  0
MTEXT
  5
F6C
330
F5A
100
AcDbEntity
  8
1
 62
     0
440
 16777216
100
AcDbMText
 10
98.09605280315338
 20
4.998563552427915
 30
0.0
 40
3.5
 41
0.0
 71
     5
 72
     1
  1
10
  7
SIMPLEX
 11
0.0000000000000001
 21
1.0
 31
0.0
 73
     1
 44
1.0
  0
POINT
  5
F6D
330
F5A
100
AcDbEntity
  8
DEFPOINTS
 62
     0
440
 16777216
100
AcDbPoint
 10
99.11599211053342
 20
0.0
 30
0.0
  0
POINT
  5
F6E
330
F5A
100
AcDbEntity
  8
DEFPOINTS
 62
     0
440
 16777216
100
AcDbPoint
 10
99.11599211053342
 20
9.997127104855801
 30
0.0
  0
POINT
  5
F6F
330
F5A
100
AcDbEntity
  8
DEFPOINTS
 62
     0
440
 16777216
100
AcDbPoint
 10
100.4710528031534
 20
9.997127104855801
 30
0.0
  0
ENDBLK
  5
F5C
330
F5A
100
AcDbEntity
  8
0
100
AcDbBlockEnd
  0
BLOCK
  5
F73
330
F72
100
AcDbEntity
  8
0
100
AcDbBlockBegin
  2
*D11
 70
     1
 10
0.0
 20
0.0
 30
0.0
  3
*D11
  1

  0
LINE
  5
F75
330
F72
100
AcDbEntity
  8
1
  6
ByBlock
 62
     0
440
 16777216
370
    -2
100
AcDbLine
 10
100.4185224568434
 20
-0.0000000000000004
 30
0.0
 11
98.96677606380627
 21
0.0
 31
0.0
  0
LINE
  5
F76
330
F72
100
AcDbEntity
  8
1
  6
ByBlock
 62
     0
440
 16777216
370
    -2
100
AcDbLine
 10
100.4185224568434
 20
-10.00287289514419
 30
0.0
 11
98.96677606380627
 21
-10.00287289514419
 31
0.0
  0
LINE
  5
F77
330
F72
100
AcDbEntity
  8
1
  6
ByBlock
 62
     0
440
 16777216
370
    -2
100
AcDbLine
 10
100.2167760638062
 20
-2.5
 30
0.0
 11
100.2167760638062
 21
-7.502872895144191
 31
0.0
  0
SOLID
  5
F78
330
F72
100
AcDbEntity
  8
1
 62
     0
440
 16777216
100
AcDbTrace
 10
99.8001093971396
 20
-2.5
 30
0.0
 11
100.6334427304729
 21
-2.5
 31
0.0
 12
100.2167760638062
 22
-0.0000000000000003
 32
0.0
 13
100.2167760638062
 23
-0.0000000000000003
 33
0.0
  0
SOLID
  5
F79
330
F72
100
AcDbEntity
  8
1
 62
     0
440
 16777216
100
AcDbTrace
 10
99.8001093971396
 20
-7.502872895144191
 30
0.0
 11
100.6334427304729
 21
-7.502872895144191
 31
0.0
 12
100.2167760638062
 22
-10.00287289514419
 32
0.0
 13
100.2167760638062
 23
-10.00287289514419
 33
0.0
  0
MTEXT
  5
F7A
330
F72
100
AcDbEntity
  8
1
 62
     0
440
 16777216
100
AcDbMText
 10
97.84177606380628
 20
-5.001436447572079
 30
0.0
 40
3.5
 41
0.0
 71
     5
 72
     1
  1
10
  7
SIMPLEX
 11
0.0000000000000001
 21
1.0
 31
0.0
 73
     1
 44
1.0
  0
POINT
  5
F7B
330
F72
100
AcDbEntity
  8
DEFPOINTS
 62
     0
440
 16777216
100
AcDbPoint
 10
100.4185224568434
 20
-0.0000000000000004
 30
0.0
  0
POINT
  5
F7C
330
F72
100
AcDbEntity
  8
DEFPOINTS
 62
     0
440
 16777216
100
AcDbPoint
 10
100.4185224568434
 20
-10.00287289514419
 30
0.0
  0
POINT
  5
F7D
330
F72
100
AcDbEntity
  8
DEFPOINTS
 62
     0
440
 16777216
100
AcDbPoint
 10
100.2167760638062
 20
-10.00287289514419
 30
0.0
  0
ENDBLK
  5
F74
330
F72
100
AcDbEntity
  8
0
100
AcDbBlockEnd
  0
ENDSEC
  0
SECTION
  2
ENTITIES
  0
LINE
  5
3C2
330
18
100
AcDbEntity
  8
SK4
100
AcDbLine
 10
-53.34442433442785
 20
0.0000000000000066
 30
0.0
 11
-0.0000000000000036
 21
0.0000000000000061
 31
0.0
  0
LINE
  5
3C3
330
18
100
AcDbEntity
  8
4
100
AcDbLine
 10
-0.0000000000000036
 20
0.0000000000000062
 30
0.0
 11
100.1159921105334
 21
0.0
 31
0.0
  0
LINE
  5
3C6
330
18
100
AcDbEntity
  8
1
 62
     4
100
AcDbLine
 10
13.0
 20
-9.571225801367106
 30
0.0
 11
13.0
 21
-9.999999999999994
 31
0.0
  0
LINE
  5
3C7
330
18
100
AcDbEntity
  8
1
 62
     4
100
AcDbLine
 10
14.99999999999999
 20
-9.784738714925662
 30
0.0
 11
12.99999999999999
 21
-8.902945576941011
 31
0.0
  0
ARC
  5
3C8
330
18
100
AcDbEntity
  8
1
 62
     4
100
AcDbCircle
 10
17.07611870817667
 20
9.228242255224666
 30
0.0
 40
19.23626103324225
100
AcDbArc
 50
257.7664336438684
 51
263.8041077949
  0
LINE
  5
3C9
330
18
100
AcDbEntity
  8
1
 62
     4
100
AcDbLine
 10
14.99999999999997
 20
-8.197619618272534
 30
0.0
 11
15.0
 21
-9.895524986189883
 31
0.0
  0
LINE
  5
3CC
330
18
100
AcDbEntity
  8
1
 62
     4
100
AcDbLine
 10
12.99999999999999
 20
-1.688336372702475
 30
0.0
 11
12.99999999999999
 21
-8.902945576941011
 31
0.0
  0
LINE
  5
3CD
330
18
100
AcDbEntity
  8
1
 62
     4
100
AcDbLine
 10
12.99999999999999
 20
-1.688336372702475
 30
0.0
 11
14.99999999999999
 21
-2.53790003406412
 31
0.0
  0
ARC
  5
3CE
330
18
100
AcDbEntity
  8
1
 62
     4
100
AcDbCircle
 10
-7.055405414428124
 20
-33.7949219143773
 30
0.0
 40
42.08347297709354
100
AcDbArc
 50
59.02784707936092
 51
61.53884718876822
  0
LINE
  5
3CF
330
18
100
AcDbEntity
  8
1
 62
     4
100
AcDbLine
 10
13.0
 20
10.0
 30
0.0
 11
13.0
 21
9.999309281927088
 31
0.0
  0
LINE
  5
3D0
330
18
100
AcDbEntity
  8
1
 62
     4
100
AcDbLine
 10
13.0
 20
9.89432240689516
 30
0.0
 11
13.0
 21
9.789335531863239
 31
0.0
  0
LINE
  5
3D1
330
18
100
AcDbEntity
  8
1
 62
     4
100
AcDbLine
 10
13.0
 20
9.789335531863239
 30
0.0
 11
13.00001241296031
 21
3.202360601810728
 31
0.0
  0
LINE
  5
3D2
330
18
100
AcDbEntity
  8
1
100
AcDbLine
 10
-0.0000000000000029
 20
10.0
 30
0.0
 11
15.0
 21
10.0
 31
0.0
  0
ARC
  5
3D3
330
18
100
AcDbEntity
  8
1
 62
     4
100
AcDbCircle
 10
17.38521956926038
 20
38.52508442215442
 30
0.0
 40
28.96464541894198
100
AcDbArc
 50
261.2919882056564
 51
265.2763810069255
  0
LINE
  5
3D4
330
18
100
AcDbEntity
  8
1
 62
     4
100
AcDbLine
 10
15.0
 20
5.996679984446772
 30
0.0
 11
15.0
 21
9.895524986189892
 31
0.0
  0
LINE
  5
3D5
330
18
100
AcDbEntity
  8
1
 62
     4
100
AcDbLine
 10
15.0
 20
5.727043966490308
 30
0.0
 11
15.0
 21
5.996679984446772
 31
0.0
  0
LINE
  5
3D6
330
18
100
AcDbEntity
  8
1
 62
     4
100
AcDbLine
 10
15.0
 20
5.727043966490312
 30
0.0
 11
15.0
 21
1.441729949640919
 31
0.0
  0
LINE
  5
3D7
330
18
100
AcDbEntity
  8
1
 62
     4
100
AcDbLine
 10
15.0
 20
0.8736871610202522
 30
0.0
 11
15.0
 21
1.44172994964091
 31
0.0
  0
LINE
  5
3D8
330
18
100
AcDbEntity
  8
1
 62
     4
100
AcDbLine
 10
15.0
 20
-8.197619618272534
 30
0.0
 11
15.0
 21
0.8736871610202522
 31
0.0
  0
LINE
  5
3D9
330
18
100
AcDbEntity
  8
1
 62
     4
100
AcDbLine
 10
14.60172156384761
 20
2.288302975950042
 30
0.0
 11
14.99999999999999
 21
2.047268515214089
 31
0.0
  0
LINE
  5
3DA
330
18
100
AcDbEntity
  8
1
100
AcDbLine
 10
0.0021112204135534
 20
-10.0
 30
0.0
 11
14.99999999999999
 21
-10.00069071807291
 31
0.0
  0
LINE
  5
3DB
330
18
100
AcDbEntity
  8
1
 62
     4
100
AcDbLine
 10
15.0
 20
5.727043966490312
 30
0.0
 11
15.0
 21
1.441729949640919
 31
0.0
  0
LINE
  5
427
330
18
100
AcDbEntity
  8
1
 62
     4
100
AcDbLine
 10
15.0
 20
5.727043966490308
 30
0.0
 11
15.0
 21
5.996679984446772
 31
0.0
  0
LINE
  5
439
330
18
100
AcDbEntity
  8
1
 62
     4
100
AcDbLine
 10
14.99999999999997
 20
-8.197619618272534
 30
0.0
 11
15.0
 21
-9.895524986189883
 31
0.0
  0
LINE
  5
43A
330
18
100
AcDbEntity
  8
1
 62
     4
100
AcDbLine
 10
15.0
 20
-8.197619618272534
 30
0.0
 11
15.0
 21
0.8736871610202522
 31
0.0
  0
LINE
  5
43B
330
18
100
AcDbEntity
  8
1
 62
     4
100
AcDbLine
 10
15.0
 20
0.8736871610202522
 30
0.0
 11
15.0
 21
1.44172994964091
 31
0.0
  0
LINE
  5
43C
330
18
100
AcDbEntity
  8
1
 62
     4
100
AcDbLine
 10
15.0
 20
5.996679984446772
 30
0.0
 11
15.0
 21
9.999309281927088
 31
0.0
  0
LINE
  5
4F1
330
18
100
AcDbEntity
  8
SK1
100
AcDbLine
 10
-0.0000000000000071
 20
10.0
 30
0.0
 11
-49.0
 21
10.0
 31
0.0
  0
LINE
  5
4F2
330
18
100
AcDbEntity
  8
SK1
100
AcDbLine
 10
-49.0
 20
10.0
 30
0.0
 11
-50.0
 21
9.000000000000001
 31
0.0
  0
LINE
  5
4F3
330
18
100
AcDbEntity
  8
SK1
100
AcDbLine
 10
-50.0
 20
9.000000000000001
 30
0.0
 11
-50.0
 21
8.991052260351024
 31
0.0
  0
LINE
  5
4F4
330
18
100
AcDbEntity
  8
SK1
100
AcDbLine
 10
-50.0
 20
8.991052260351024
 30
0.0
 11
-50.0
 21
8.192460489810782
 31
0.0
  0
LINE
  5
4F5
330
18
100
AcDbEntity
  8
SK1
100
AcDbLine
 10
-50.0
 20
8.192460489810782
 30
0.0
 11
-50.0
 21
-8.999999999999998
 31
0.0
  0
LINE
  5
4F6
330
18
100
AcDbEntity
  8
SK1
100
AcDbLine
 10
-49.0
 20
10.0
 30
0.0
 11
-49.0
 21
-9.999999980531528
 31
0.0
  0
LINE
  5
4F7
330
18
100
AcDbEntity
  8
SK1
100
AcDbLine
 10
0.0000000000000001
 20
-9.999999999999996
 30
0.0
 11
-49.0
 21
-9.999999999999998
 31
0.0
  0
LINE
  5
4F8
330
18
100
AcDbEntity
  8
SK1
100
AcDbLine
 10
-49.0
 20
-9.999999999999998
 30
0.0
 11
-50.0
 21
-8.999999999999998
 31
0.0
  0
DIMENSION
  5
506
330
18
100
AcDbEntity
  8
2
100
AcDbDimension
  2
*D0
 10
95.0
 20
75.02226149688365
 30
0.0
 11
47.5
 21
77.39726149688365
 31
0.0
 70
    32
  1
<>
 71
     5
 42
95.0
  3
STANDARD
100
AcDbAlignedDimension
 13
-0.0000000000000036
 23
0.0000000000000061
 33
0.0
 14
95.0
 24
0.0581019787268727
 34
0.0
100
AcDbRotatedDimension
  0
DIMENSION
  5
513
330
18
100
AcDbEntity
  8
2
100
AcDbDimension
  2
*D1
 10
95.0
 20
60.02226149688365
 30
0.0
 11
55.0
 21
62.39726149688365
 31
0.0
 70
    32
  1
<>
 71
     5
 42
80.0
  3
STANDARD
100
AcDbAlignedDimension
 13
15.0
 23
10.0
 33
0.0
 14
95.0
 24
4.871781144723148
 34
0.0
100
AcDbRotatedDimension
  0
DIMENSION
  5
520
330
18
100
AcDbEntity
  8
SK2
100
AcDbDimension
  2
*D2
 10
-79.99999999994895
 20
-10.02226149688364
 30
0.0
 11
-82.37499999994895
 21
-0.0222614968836582
 31
0.0
 70
    32
  1
%%c<>
 71
     5
 42
20.0
  3
STANDARD
100
AcDbAlignedDimension
 13
-50.0
 23
9.977738503116343
 33
0.0
 14
-50.0
 24
-10.02226149688365
 34
0.0
 50
90.00000000029229
100
AcDbRotatedDimension
  0
DIMENSION
  5
52D
330
18
100
AcDbEntity
  8
SK2
100
AcDbDimension
  2
*D3
 10
95.0
 20
90.02226149688366
 30
0.0
 11
22.5
 21
92.39726149688364
 31
0.0
 70
    32
  1
<>
 71
     5
 42
145.0
  3
STANDARD
100
AcDbAlignedDimension
 13
-50.0
 23
-0.0222614968836492
 33
0.0
 14
95.0
 24
10.00174368001486
 34
0.0
100
AcDbRotatedDimension
  0
LINE
  5
9C5
330
18
100
AcDbEntity
  8
1
 62
     4
100
AcDbLine
 10
13.0
 20
9.999309281927088
 30
0.0
 11
14.99999999999999
 21
9.999309281927088
 31
0.0
  0
LINE
  5
9C6
330
18
100
AcDbEntity
  8
1
 62
     4
100
AcDbLine
 10
94.75020185592107
 20
-10.00287289514419
 30
0.0
 11
94.05456703558463
 21
-9.970285179690556
 31
0.0
  0
LINE
  5
9C7
330
18
100
AcDbEntity
  8
1
 62
     4
100
AcDbLine
 10
94.05456703558463
 20
-9.970285179690556
 30
0.0
 11
93.40915428353884
 21
-9.921222721210193
 31
0.0
  0
LINE
  5
9C8
330
18
100
AcDbEntity
  8
1
 62
     4
100
AcDbLine
 10
93.40915428353884
 20
-9.921222721210193
 30
0.0
 11
92.76370810859228
 21
-9.849155847835852
 31
0.0
  0
LINE
  5
9C9
330
18
100
AcDbEntity
  8
1
 62
     4
100
AcDbLine
 10
92.76370810859228
 20
-9.849155847835852
 30
0.0
 11
91.47286514718128
 21
-9.636749437572499
 31
0.0
  0
LINE
  5
9CA
330
18
100
AcDbEntity
  8
1
 62
     4
100
AcDbLine
 10
91.47286514718128
 20
-9.636749437572499
 30
0.0
 11
90.18201924191055
 21
-9.335031126623116
 31
0.0
  0
LINE
  5
9CB
330
18
100
AcDbEntity
  8
1
 62
     4
100
AcDbLine
 10
90.18201924191055
 20
-9.335031126623116
 30
0.0
 11
88.89115871875208
 21
-8.946794985686599
 31
0.0
  0
LINE
  5
9CC
330
18
100
AcDbEntity
  8
1
 62
     4
100
AcDbLine
 10
88.89115871875208
 20
-8.946794985686599
 30
0.0
 11
87.6002951357205
 21
-8.475641619956272
 31
0.0
  0
LINE
  5
9CD
330
18
100
AcDbEntity
  8
1
 62
     4
100
AcDbLine
 10
87.6002951357205
 20
-8.475641619956272
 30
0.0
 11
86.30943939194407
 21
-7.925942178769326
 31
0.0
  0
LINE
  5
9CE
330
18
100
AcDbEntity
  8
1
 62
     4
100
AcDbLine
 10
86.30943939194407
 20
-7.925942178769326
 30
0.0
 11
85.01860012006337
 21
-7.302795800521074
 31
0.0
  0
LINE
  5
9CF
330
18
100
AcDbEntity
  8
1
 62
     4
100
AcDbLine
 10
85.01860012006337
 20
-7.302795800521074
 30
0.0
 11
83.72775012166258
 21
-6.611965186685647
 31
0.0
  0
LINE
  5
9D0
330
18
100
AcDbEntity
  8
1
 62
     4
100
AcDbLine
 10
83.72775012166258
 20
-6.611965186685647
 30
0.0
 11
81.14602596715698
 21
-5.053434144328726
 31
0.0
  0
LINE
  5
9D1
330
18
100
AcDbEntity
  8
1
 62
     4
100
AcDbLine
 10
81.14602596715698
 20
-5.053434144328726
 30
0.0
 11
78.5643362227445
 21
-3.308036160779446
 31
0.0
  0
LINE
  5
9D2
330
18
100
AcDbEntity
  8
1
 62
     4
100
AcDbLine
 10
78.5643362227445
 20
-3.308036160779446
 30
0.0
 11
74.0463771235148
 21
-0.0006907180752566
 31
0.0
  0
LINE
  5
9D3
330
18
100
AcDbEntity
  8
1
 62
     4
100
AcDbLine
 10
94.75020185592107
 20
-8.820035161983636
 30
0.0
 11
94.75020185592107
 21
-10.00287289514419
 31
0.0
  0
LINE
  5
9D5
330
18
100
AcDbEntity
  8
1
 62
     4
100
AcDbLine
 10
94.75000000000004
 20
4.726793456447077
 30
0.0
 11
92.76259154725037
 21
5.967385592734322
 31
0.0
  0
LINE
  5
9D6
330
18
100
AcDbEntity
  8
1
 62
     4
100
AcDbLine
 10
94.99999999999994
 20
4.613886598747486
 30
0.0
 11
94.74999999999996
 21
4.726793456447077
 31
0.0
  0
LINE
  5
9D7
330
18
100
AcDbEntity
  8
1
 62
     4
100
AcDbLine
 10
94.74999999999996
 20
4.726793456447077
 30
0.0
 11
94.74999999999996
 21
0.2600342936022871
 31
0.0
  0
LINE
  5
9D8
330
18
100
AcDbEntity
  8
1
 62
     4
100
AcDbLine
 10
94.99999999999994
 20
0.0716809636864238
 30
0.0
 11
94.74999999999996
 21
0.2600342936022806
 31
0.0
  0
LINE
  5
9D9
330
18
100
AcDbEntity
  8
1
 62
     4
100
AcDbLine
 10
95.0
 20
4.613886598747471
 30
0.0
 11
95.0
 21
0.0716809636864238
 31
0.0
  0
LINE
  5
9DB
330
18
100
AcDbEntity
  8
1
 62
     4
100
AcDbLine
 10
95.0
 20
-8.532728938046313
 30
0.0
 11
94.99999999999998
 21
-9.76291715792272
 31
0.0
  0
LINE
  5
9DC
330
18
100
AcDbEntity
  8
1
 62
     4
100
AcDbLine
 10
74.04637712351335
 20
9.999309281927088
 30
0.0
 11
80.2805139185412
 21
9.999309281927088
 31
0.0
  0
LINE
  5
9DD
330
18
100
AcDbEntity
  8
1
 62
     4
100
AcDbLine
 10
52.99275394241252
 20
9.999309281927088
 30
0.0
 11
59.22689319540932
 21
9.999309281927088
 31
0.0
  0
LINE
  5
9DE
330
18
100
AcDbEntity
  8
1
 62
     4
100
AcDbLine
 10
32.92598895352258
 20
9.999309281927088
 30
0.0
 11
38.17327040260872
 21
9.999309281927088
 31
0.0
  0
LINE
  5
9DF
330
18
100
AcDbEntity
  8
1
 62
     4
100
AcDbLine
 10
95.0
 20
6.059149085406834
 30
0.0
 11
94.99999999999998
 21
9.758841189395226
 31
0.0
  0
LINE
  5
9E0
330
18
100
AcDbEntity
  8
1
 62
     4
100
AcDbLine
 10
32.92598895352258
 20
-9.240951376925202
 30
0.0
 11
33.0650004924363
 21
-9.283160144204707
 31
0.0
  0
LINE
  5
9E1
330
18
100
AcDbEntity
  8
1
 62
     4
100
AcDbLine
 10
33.0650004924363
 20
-9.283160144204707
 30
0.0
 11
34.08666538676386
 21
-9.539463367563476
 31
0.0
  0
LINE
  5
9E2
330
18
100
AcDbEntity
  8
1
 62
     4
100
AcDbLine
 10
34.08666538676386
 20
-9.539463367563476
 30
0.0
 11
35.10832978345356
 21
-9.740369855423404
 31
0.0
  0
LINE
  5
9E3
330
18
100
AcDbEntity
  8
1
 62
     4
100
AcDbLine
 10
35.10832978345356
 20
-9.740369855423404
 30
0.0
 11
36.1299930490121
 21
-9.884712998015537
 31
0.0
  0
LINE
  5
9E4
330
18
100
AcDbEntity
  8
1
 62
     4
100
AcDbLine
 10
36.1299930490121
 20
-9.884712998015537
 30
0.0
 11
37.15165609894965
 21
-9.97165428366477
 31
0.0
  0
LINE
  5
9E5
330
18
100
AcDbEntity
  8
1
 62
     4
100
AcDbLine
 10
37.15165609894965
 20
-9.97165428366477
 30
0.0
 11
38.17327040261742
 21
-10.00069071805301
 31
0.0
  0
LINE
  5
9E6
330
18
100
AcDbEntity
  8
1
 62
     4
100
AcDbLine
 10
95.0
 20
6.059149085406834
 30
0.0
 11
95.0
 21
4.613886598747471
 31
0.0
  0
LINE
  5
9E7
330
18
100
AcDbEntity
  8
1
 62
     4
100
AcDbLine
 10
95.0
 20
0.0445229937673216
 30
0.0
 11
95.0
 21
0.0716809636864238
 31
0.0
  0
LINE
  5
9E8
330
18
100
AcDbEntity
  8
1
 62
     4
100
AcDbLine
 10
94.75000000000004
 20
0.2600342936022806
 30
0.0
 11
89.53657390375122
 21
4.031971575478726
 31
0.0
  0
LINE
  5
9E9
330
18
100
AcDbEntity
  8
1
 62
     4
100
AcDbLine
 10
89.53657390375122
 20
4.031971575478726
 30
0.0
 11
86.95488545674528
 21
5.709127733662754
 31
0.0
  0
LINE
  5
9EA
330
18
100
AcDbEntity
  8
1
 62
     4
100
AcDbLine
 10
86.95488545674528
 20
5.709127733662754
 30
0.0
 11
85.37470995932787
 21
6.643120687232467
 31
0.0
  0
LINE
  5
9EB
330
18
100
AcDbEntity
  8
1
 62
     4
100
AcDbLine
 10
84.82912275662597
 20
7.029099426315162
 30
0.0
 11
84.37316151758087
 21
7.175112522215463
 31
0.0
  0
LINE
  5
9EC
330
18
100
AcDbEntity
  8
1
 62
     4
100
AcDbLine
 10
84.37316151758087
 20
7.175112522215463
 30
0.0
 11
83.08230792260744
 21
7.811596266380806
 31
0.0
  0
LINE
  5
9ED
330
18
100
AcDbEntity
  8
1
 62
     4
100
AcDbLine
 10
83.08230792260744
 20
7.811596266380806
 30
0.0
 11
81.79146958099861
 21
8.375665780148695
 31
0.0
  0
LINE
  5
9EE
330
18
100
AcDbEntity
  8
1
 62
     4
100
AcDbLine
 10
81.79146958099861
 20
8.375665780148695
 30
0.0
 11
80.50061766506479
 21
8.86210551106088
 31
0.0
  0
LINE
  5
9EF
330
18
100
AcDbEntity
  8
1
 62
     4
100
AcDbLine
 10
80.50061766506479
 20
8.86210551106088
 30
0.0
 11
79.20975543405901
 21
9.266404960133844
 31
0.0
  0
LINE
  5
9F0
330
18
100
AcDbEntity
  8
1
 62
     4
100
AcDbLine
 10
79.20975543405901
 20
9.266404960133844
 30
0.0
 11
77.91889431448804
 21
9.584812994132507
 31
0.0
  0
LINE
  5
9F1
330
18
100
AcDbEntity
  8
1
 62
     4
100
AcDbLine
 10
77.91889431448804
 20
9.584812994132507
 30
0.0
 11
76.62804600986715
 21
9.814376369869195
 31
0.0
  0
LINE
  5
9F2
330
18
100
AcDbEntity
  8
1
 62
     4
100
AcDbLine
 10
76.62804600986715
 20
9.814376369869195
 30
0.0
 11
75.98262156948404
 21
9.895142738167693
 31
0.0
  0
LINE
  5
9F3
330
18
100
AcDbEntity
  8
1
 62
     4
100
AcDbLine
 10
75.98262156948404
 20
9.895142738167693
 30
0.0
 11
75.33720691650223
 21
9.952968530703364
 31
0.0
  0
LINE
  5
9F4
330
18
100
AcDbEntity
  8
1
 62
     4
100
AcDbLine
 10
75.33720691650223
 20
9.952968530703364
 30
0.0
 11
74.6917618638343
 21
9.987717671648756
 31
0.0
  0
LINE
  5
9F5
330
18
100
AcDbEntity
  8
1
 62
     4
100
AcDbLine
 10
74.6917618638343
 20
9.987717671648756
 30
0.0
 11
74.04637712351335
 21
9.999309281927088
 31
0.0
  0
LINE
  5
9F6
330
18
100
AcDbEntity
  8
1
 62
     4
100
AcDbLine
 10
94.75020185592113
 20
-8.820035161983648
 30
0.0
 11
93.26304751064986
 21
-8.241729135077116
 31
0.0
  0
LINE
  5
9F7
330
18
100
AcDbEntity
  8
1
 62
     4
100
AcDbLine
 10
93.26304751064986
 20
-8.241729135077116
 30
0.0
 11
91.82609425377341
 21
-7.588291748255522
 31
0.0
  0
LINE
  5
9F8
330
18
100
AcDbEntity
  8
1
 62
     4
100
AcDbLine
 10
91.82609425377341
 20
-7.588291748255522
 30
0.0
 11
90.38916378957841
 21
-6.847744644944987
 31
0.0
  0
LINE
  5
9F9
330
18
100
AcDbEntity
  8
1
 62
     4
100
AcDbLine
 10
90.38916378957841
 20
-6.847744644944987
 30
0.0
 11
88.95222441411327
 21
-6.028566168927532
 31
0.0
  0
LINE
  5
9FA
330
18
100
AcDbEntity
  8
1
 62
     4
100
AcDbLine
 10
88.95222441411327
 20
-6.028566168927532
 30
0.0
 11
85.37470995932787
 21
-3.684148711482812
 31
0.0
  0
LINE
  5
9FB
330
18
100
AcDbEntity
  8
1
 62
     4
100
AcDbLine
 10
84.37317512086298
 20
-2.960198346761576
 30
0.0
 11
80.33061181432215
 21
-0.0380681643860558
 31
0.0
  0
LINE
  5
9FC
330
18
100
AcDbEntity
  8
1
 62
     4
100
AcDbLine
 10
80.33061181432215
 20
-0.0380681643860558
 30
0.0
 11
76.01979107767509
 21
3.124935167766102
 31
0.0
  0
LINE
  5
9FD
330
18
100
AcDbEntity
  8
1
 62
     4
100
AcDbLine
 10
76.01979107767509
 20
3.124935167766102
 30
0.0
 11
73.86438006813809
 21
4.605597446374518
 31
0.0
  0
LINE
  5
9FE
330
18
100
AcDbEntity
  8
1
 62
     4
100
AcDbLine
 10
73.86438006813809
 20
4.605597446374518
 30
0.0
 11
71.70896766940015
 21
5.96739014011459
 31
0.0
  0
LINE
  5
9FF
330
18
100
AcDbEntity
  8
1
 62
     4
100
AcDbLine
 10
95.0
 20
0.0445229937673216
 30
0.0
 11
95.0
 21
-8.532728938046313
 31
0.0
  0
LINE
  5
A00
330
18
100
AcDbEntity
  8
1
 62
     4
100
AcDbLine
 10
32.92598895352258
 20
3.789507641914413
 30
0.0
 11
33.65336120171146
 21
3.30802675952737
 31
0.0
  0
LINE
  5
A01
330
18
100
AcDbEntity
  8
1
 62
     4
100
AcDbLine
 10
33.65336120171146
 20
3.30802675952737
 30
0.0
 11
40.96006980546614
 21
-2.06495435027829
 31
0.0
  0
LINE
  5
A02
330
18
100
AcDbEntity
  8
1
 62
     4
100
AcDbLine
 10
40.96006980546614
 20
-2.06495435027829
 30
0.0
 11
44.61344146242946
 21
-4.622889496093938
 31
0.0
  0
LINE
  5
A03
330
18
100
AcDbEntity
  8
1
 62
     4
100
AcDbLine
 10
44.61344146242946
 20
-4.622889496093938
 30
0.0
 11
46.4401374620882
 21
-5.784847552420382
 31
0.0
  0
LINE
  5
A04
330
18
100
AcDbEntity
  8
1
 62
     4
100
AcDbLine
 10
46.4401374620882
 20
-5.784847552420382
 30
0.0
 11
48.26681168719443
 21
-6.839523921811768
 31
0.0
  0
LINE
  5
A05
330
18
100
AcDbEntity
  8
1
 62
     4
100
AcDbLine
 10
48.26681168719443
 20
-6.839523921811768
 30
0.0
 11
50.09349337821264
 21
-7.767377005139016
 31
0.0
  0
LINE
  5
A06
330
18
100
AcDbEntity
  8
1
 62
     4
100
AcDbLine
 10
50.09349337821264
 20
-7.767377005139016
 30
0.0
 11
51.00684728389288
 21
-8.178267756879924
 31
0.0
  0
LINE
  5
A07
330
18
100
AcDbEntity
  8
1
 62
     4
100
AcDbLine
 10
51.00684728389288
 20
-8.178267756879924
 30
0.0
 11
51.92019809345246
 21
-8.551198844037566
 31
0.0
  0
LINE
  5
A08
330
18
100
AcDbEntity
  8
1
 62
     4
100
AcDbLine
 10
51.92019809345246
 20
-8.551198844037566
 30
0.0
 11
52.83354046610888
 21
-8.88443619142493
 31
0.0
  0
LINE
  5
A09
330
18
100
AcDbEntity
  8
1
 62
     4
100
AcDbLine
 10
52.83354046610888
 20
-8.88443619142493
 30
0.0
 11
53.74687859243172
 21
-9.176435360072098
 31
0.0
  0
LINE
  5
A0A
330
18
100
AcDbEntity
  8
1
 62
     4
100
AcDbLine
 10
53.74687859243172
 20
-9.176435360072098
 30
0.0
 11
54.66021470767696
 21
-9.425843488268975
 31
0.0
  0
LINE
  5
A0B
330
18
100
AcDbEntity
  8
1
 62
     4
100
AcDbLine
 10
54.66021470767696
 20
-9.425843488268975
 30
0.0
 11
55.57355302833144
 21
-9.63150334123093
 31
0.0
  0
LINE
  5
A0C
330
18
100
AcDbEntity
  8
1
 62
     4
100
AcDbLine
 10
55.57355302833144
 20
-9.63150334123093
 30
0.0
 11
56.48689702280625
 21
-9.792460420107339
 31
0.0
  0
LINE
  5
A0D
330
18
100
AcDbEntity
  8
1
 62
     4
100
AcDbLine
 10
56.48689702280625
 20
-9.792460420107339
 30
0.0
 11
57.4002481968122
 21
-9.907966980886238
 31
0.0
  0
LINE
  5
A0E
330
18
100
AcDbEntity
  8
1
 62
     4
100
AcDbLine
 10
57.4002481968122
 20
-9.907966980886238
 30
0.0
 11
58.3135999341218
 21
-9.977483894463823
 31
0.0
  0
LINE
  5
A0F
330
18
100
AcDbEntity
  8
1
 62
     4
100
AcDbLine
 10
58.3135999341218
 20
-9.977483894463823
 30
0.0
 11
59.22689319548386
 21
-10.00069071797173
 31
0.0
  0
LINE
  5
A11
330
18
100
AcDbEntity
  8
1
 62
     4
100
AcDbLine
 10
59.22689319548386
 20
-10.00069071797173
 30
0.0
 11
60.15311504918052
 21
-9.976822122524646
 31
0.0
  0
LINE
  5
A12
330
18
100
AcDbEntity
  8
1
 62
     4
100
AcDbLine
 10
60.15311504918052
 20
-9.976822122524646
 30
0.0
 11
61.07933159249661
 21
-9.905332361868312
 31
0.0
  0
LINE
  5
A13
330
18
100
AcDbEntity
  8
1
 62
     4
100
AcDbLine
 10
61.07933159249661
 20
-9.905332361868312
 30
0.0
 11
62.00554386957055
 21
-9.786563671012752
 31
0.0
  0
LINE
  5
A14
330
18
100
AcDbEntity
  8
1
 62
     4
100
AcDbLine
 10
62.00554386957055
 20
-9.786563671012752
 30
0.0
 11
62.93175425545324
 21
-9.621082890367782
 31
0.0
  0
LINE
  5
A15
330
18
100
AcDbEntity
  8
1
 62
     4
100
AcDbLine
 10
62.93175425545324
 20
-9.621082890367782
 30
0.0
 11
63.61360862135372
 21
-9.465453511996651
 31
0.0
  0
LINE
  5
A17
330
18
100
AcDbEntity
  8
1
 62
     4
100
AcDbLine
 10
64.61514345981864
 20
-9.214399761467117
 30
0.0
 11
65.7104071212769
 21
-8.853350720224392
 31
0.0
  0
LINE
  5
A18
330
18
100
AcDbEntity
  8
1
 62
     4
100
AcDbLine
 10
65.7104071212769
 20
-8.853350720224392
 30
0.0
 11
66.63663525252669
 21
-8.511079537704766
 31
0.0
  0
LINE
  5
A19
330
18
100
AcDbEntity
  8
1
 62
     4
100
AcDbLine
 10
52.99275394241299
 20
-10.00069071807291
 30
0.0
 11
59.22689319548386
 21
-10.00069071807291
 31
0.0
  0
LINE
  5
A1A
330
18
100
AcDbEntity
  8
1
 62
     4
100
AcDbLine
 10
74.04637712351171
 20
-10.00069071805057
 30
0.0
 11
73.38844571936419
 21
-9.98864342714395
 31
0.0
  0
LINE
  5
A1B
330
18
100
AcDbEntity
  8
1
 62
     4
100
AcDbLine
 10
73.38844571936419
 20
-9.98864342714395
 30
0.0
 11
72.73053306865242
 21
-9.952537690465158
 31
0.0
  0
LINE
  5
A1C
330
18
100
AcDbEntity
  8
1
 62
     4
100
AcDbLine
 10
72.73053306865242
 20
-9.952537690465158
 30
0.0
 11
72.07258648644679
 21
-9.892453828782596
 31
0.0
  0
LINE
  5
A1D
330
18
100
AcDbEntity
  8
1
 62
     4
100
AcDbLine
 10
72.07258648644679
 20
-9.892453828782596
 30
0.0
 11
71.41467096020078
 21
-9.808541329199693
 31
0.0
  0
LINE
  5
A1E
330
18
100
AcDbEntity
  8
1
 62
     4
100
AcDbLine
 10
71.41467096020078
 20
-9.808541329199693
 30
0.0
 11
70.09880577919512
 21
-9.570089107121507
 31
0.0
  0
LINE
  5
A1F
330
18
100
AcDbEntity
  8
1
 62
     4
100
AcDbLine
 10
70.09880577919512
 20
-9.570089107121507
 30
0.0
 11
68.78295254585371
 21
-9.239480561780393
 31
0.0
  0
LINE
  5
A20
330
18
100
AcDbEntity
  8
1
 62
     4
100
AcDbLine
 10
68.78295254585371
 20
-9.239480561780393
 30
0.0
 11
67.46711344256799
 21
-8.819900781253842
 31
0.0
  0
LINE
  5
A21
330
18
100
AcDbEntity
  8
1
 62
     4
100
AcDbLine
 10
67.46711344256799
 20
-8.819900781253842
 30
0.0
 11
66.1512557580675
 21
-8.315380332615342
 31
0.0
  0
LINE
  5
A22
330
18
100
AcDbEntity
  8
1
 62
     4
100
AcDbLine
 10
66.1512557580675
 20
-8.315380332615342
 30
0.0
 11
64.8353902837476
 21
-7.730781427979063
 31
0.0
  0
LINE
  5
A23
330
18
100
AcDbEntity
  8
1
 62
     4
100
AcDbLine
 10
64.8353902837476
 20
-7.730781427979063
 30
0.0
 11
63.51953239151072
 21
-7.071740807747922
 31
0.0
  0
LINE
  5
A24
330
18
100
AcDbEntity
  8
1
 62
     4
100
AcDbLine
 10
63.51953239151072
 20
-7.071740807747922
 30
0.0
 11
62.20369358710458
 21
-6.34461169121183
 31
0.0
  0
LINE
  5
A25
330
18
100
AcDbEntity
  8
1
 62
     4
100
AcDbLine
 10
62.20369358710458
 20
-6.34461169121183
 30
0.0
 11
59.57197651979984
 21
-4.714634486931767
 31
0.0
  0
LINE
  5
A26
330
18
100
AcDbEntity
  8
1
 62
     4
100
AcDbLine
 10
59.57197651979984
 20
-4.714634486931767
 30
0.0
 11
56.94027367304678
 21
-2.903512683445422
 31
0.0
  0
LINE
  5
A27
330
18
100
AcDbEntity
  8
1
 62
     4
100
AcDbLine
 10
56.94027367304678
 20
-2.903512683445422
 30
0.0
 11
52.99275394241286
 21
-0.0006907180721018
 31
0.0
  0
LINE
  5
A28
330
18
100
AcDbEntity
  8
1
 62
     4
100
AcDbLine
 10
80.28051391854317
 20
-10.00069071806975
 30
0.0
 11
79.35472435724918
 21
-9.976844158204494
 31
0.0
  0
LINE
  5
A29
330
18
100
AcDbEntity
  8
1
 62
     4
100
AcDbLine
 10
79.35472435724918
 20
-9.976844158204494
 30
0.0
 11
78.42893787847248
 21
-9.905420768044146
 31
0.0
  0
LINE
  5
A2A
330
18
100
AcDbEntity
  8
1
 62
     4
100
AcDbLine
 10
78.42893787847248
 20
-9.905420768044146
 30
0.0
 11
77.50315494029614
 21
-9.786761814393678
 31
0.0
  0
LINE
  5
A2B
330
18
100
AcDbEntity
  8
1
 62
     4
100
AcDbLine
 10
77.50315494029614
 20
-9.786761814393678
 30
0.0
 11
76.57737249415314
 21
-9.621433064032894
 31
0.0
  0
LINE
  5
A2C
330
18
100
AcDbEntity
  8
1
 62
     4
100
AcDbLine
 10
76.57737249415314
 20
-9.621433064032894
 30
0.0
 11
75.65158692792699
 21
-9.410222545347886
 31
0.0
  0
LINE
  5
A2D
330
18
100
AcDbEntity
  8
1
 62
     4
100
AcDbLine
 10
75.65158692792699
 20
-9.410222545347886
 30
0.0
 11
74.72579681054222
 21
-9.154135459754446
 31
0.0
  0
LINE
  5
A2E
330
18
100
AcDbEntity
  8
1
 62
     4
100
AcDbLine
 10
74.72579681054222
 20
-9.154135459754446
 30
0.0
 11
73.79999909335127
 21
-8.854390990002848
 31
0.0
  0
LINE
  5
A2F
330
18
100
AcDbEntity
  8
1
 62
     4
100
AcDbLine
 10
73.79999909335127
 20
-8.854390990002848
 30
0.0
 11
72.8742020405698
 21
-8.512422670305122
 31
0.0
  0
LINE
  5
A30
330
18
100
AcDbEntity
  8
1
 62
     4
100
AcDbLine
 10
72.8742020405698
 20
-8.512422670305122
 30
0.0
 11
71.94841361241548
 21
-8.129862658747306
 31
0.0
  0
LINE
  5
A31
330
18
100
AcDbEntity
  8
1
 62
     4
100
AcDbLine
 10
71.94841361241548
 20
-8.129862658747306
 30
0.0
 11
70.09684751506329
 21
-7.250452048706244
 31
0.0
  0
LINE
  5
A32
330
18
100
AcDbEntity
  8
1
 62
     4
100
AcDbLine
 10
70.09684751506329
 20
-7.250452048706244
 30
0.0
 11
68.24527790946335
 21
-6.232907228454814
 31
0.0
  0
LINE
  5
A33
330
18
100
AcDbEntity
  8
1
 62
     4
100
AcDbLine
 10
68.24527790946335
 20
-6.232907228454814
 30
0.0
 11
66.39368606389393
 21
-5.096601552779011
 31
0.0
  0
LINE
  5
A34
330
18
100
AcDbEntity
  8
1
 62
     4
100
AcDbLine
 10
66.39368606389393
 20
-5.096601552779011
 30
0.0
 11
62.69054231461144
 21
-2.556229226473726
 31
0.0
  0
LINE
  5
A35
330
18
100
AcDbEntity
  8
1
 62
     4
100
AcDbLine
 10
62.69054231461144
 20
-2.556229226473726
 30
0.0
 11
58.9874549487741
 21
0.1779420193544238
 31
0.0
  0
LINE
  5
A36
330
18
100
AcDbEntity
  8
1
 62
     4
100
AcDbLine
 10
58.9874549487741
 20
0.1779420193544238
 30
0.0
 11
55.28428282812122
 21
2.898625634314996
 31
0.0
  0
LINE
  5
A37
330
18
100
AcDbEntity
  8
1
 62
     4
100
AcDbLine
 10
55.28428282812122
 20
2.898625634314996
 30
0.0
 11
52.96980729650582
 21
4.499946305876766
 31
0.0
  0
LINE
  5
A38
330
18
100
AcDbEntity
  8
1
 62
     4
100
AcDbLine
 10
52.96980729650582
 20
4.499946305876766
 30
0.0
 11
50.65534465219214
 21
5.967391567713152
 31
0.0
  0
LINE
  5
A39
330
18
100
AcDbEntity
  8
1
 62
     4
100
AcDbLine
 10
74.04637712351171
 20
-10.00069071807291
 30
0.0
 11
80.28051391854317
 21
-10.00069071807291
 31
0.0
  0
LINE
  5
A3A
330
18
100
AcDbEntity
  8
1
 62
     4
100
AcDbLine
 10
38.17327040261742
 20
-10.00069071805301
 30
0.0
 11
39.0994934483288
 21
-9.976822191636506
 31
0.0
  0
LINE
  5
A3B
330
18
100
AcDbEntity
  8
1
 62
     4
100
AcDbLine
 10
39.0994934483288
 20
-9.976822191636506
 30
0.0
 11
40.02570947879334
 21
-9.905332206104167
 31
0.0
  0
LINE
  5
A3C
330
18
100
AcDbEntity
  8
1
 62
     4
100
AcDbLine
 10
40.02570947879334
 20
-9.905332206104167
 30
0.0
 11
41.4150273396815
 21
-9.703823026242432
 31
0.0
  0
LINE
  5
A3F
330
18
100
AcDbEntity
  8
1
 62
     4
100
AcDbLine
 10
42.41656217814642
 20
-9.452769275712899
 30
0.0
 11
43.7305620644426
 21
-9.153362013871296
 31
0.0
  0
LINE
  5
A40
330
18
100
AcDbEntity
  8
1
 62
     4
100
AcDbLine
 10
43.7305620644426
 20
-9.153362013871296
 30
0.0
 11
44.65678461669289
 21
-8.853350628097251
 31
0.0
  0
LINE
  5
A41
330
18
100
AcDbEntity
  8
1
 62
     4
100
AcDbLine
 10
44.65678461669289
 20
-8.853350628097251
 30
0.0
 11
45.58301214383294
 21
-8.511078699085166
 31
0.0
  0
LINE
  5
A42
330
18
100
AcDbEntity
  8
1
 62
     4
100
AcDbLine
 10
32.92598895352258
 20
-10.00069071807291
 30
0.0
 11
38.17327040261742
 21
-10.00069071807291
 31
0.0
  0
LINE
  5
A43
330
18
100
AcDbEntity
  8
1
 62
     4
100
AcDbLine
 10
32.92598895352258
 20
-0.7181996878694524
 30
0.0
 11
37.20255327218466
 21
-3.827536329943578
 31
0.0
  0
LINE
  5
A44
330
18
100
AcDbEntity
  8
1
 62
     4
100
AcDbLine
 10
37.20255327218466
 20
-3.827536329943578
 30
0.0
 11
39.83424676169434
 21
-5.556396648421022
 31
0.0
  0
LINE
  5
A45
330
18
100
AcDbEntity
  8
1
 62
     4
100
AcDbLine
 10
39.83424676169434
 20
-5.556396648421022
 30
0.0
 11
42.46597224049638
 21
-7.071773707969946
 31
0.0
  0
LINE
  5
A46
330
18
100
AcDbEntity
  8
1
 62
     4
100
AcDbLine
 10
42.46597224049638
 20
-7.071773707969946
 30
0.0
 11
43.78181307183043
 21
-7.73080427695694
 31
0.0
  0
LINE
  5
A47
330
18
100
AcDbEntity
  8
1
 62
     4
100
AcDbLine
 10
43.78181307183043
 20
-7.73080427695694
 30
0.0
 11
45.09766189921402
 21
-8.315392791341034
 31
0.0
  0
LINE
  5
A48
330
18
100
AcDbEntity
  8
1
 62
     4
100
AcDbLine
 10
45.09766189921402
 20
-8.315392791341034
 30
0.0
 11
46.41352552378406
 21
-8.8199119150211
 31
0.0
  0
LINE
  5
A49
330
18
100
AcDbEntity
  8
1
 62
     4
100
AcDbLine
 10
46.41352552378406
 20
-8.8199119150211
 30
0.0
 11
47.72938815734928
 21
-9.239496549219007
 31
0.0
  0
LINE
  5
A4A
330
18
100
AcDbEntity
  8
1
 62
     4
100
AcDbLine
 10
47.72938815734928
 20
-9.239496549219007
 30
0.0
 11
49.04523409836798
 21
-9.570101566397346
 31
0.0
  0
LINE
  5
A4B
330
18
100
AcDbEntity
  8
1
 62
     4
100
AcDbLine
 10
49.04523409836798
 20
-9.570101566397346
 30
0.0
 11
50.36107680524848
 21
-9.80854645189682
 31
0.0
  0
LINE
  5
A4C
330
18
100
AcDbEntity
  8
1
 62
     4
100
AcDbLine
 10
50.36107680524848
 20
-9.80854645189682
 30
0.0
 11
51.01902243939844
 21
-9.89246029487081
 31
0.0
  0
LINE
  5
A4D
330
18
100
AcDbEntity
  8
1
 62
     4
100
AcDbLine
 10
51.01902243939844
 20
-9.89246029487081
 30
0.0
 11
51.67693800707332
 21
-9.952538841677656
 31
0.0
  0
LINE
  5
A4E
330
18
100
AcDbEntity
  8
1
 62
     4
100
AcDbLine
 10
51.67693800707332
 20
-9.952538841677656
 30
0.0
 11
52.33486031975408
 21
-9.988646395201122
 31
0.0
  0
LINE
  5
A4F
330
18
100
AcDbEntity
  8
1
 62
     4
100
AcDbLine
 10
52.33486031975408
 20
-9.988646395201122
 30
0.0
 11
52.99275394241299
 21
-10.00069071799141
 31
0.0
  0
LINE
  5
A50
330
18
100
AcDbEntity
  8
1
 62
     4
100
AcDbLine
 10
87.69025673406721
 20
8.509696798895566
 30
0.0
 11
88.56647352274496
 21
8.834552839287427
 31
0.0
  0
LINE
  5
A51
330
18
100
AcDbEntity
  8
1
 62
     4
100
AcDbLine
 10
88.56647352274496
 20
8.834552839287427
 30
0.0
 11
89.44268769951071
 21
9.121662547024874
 31
0.0
  0
LINE
  5
A52
330
18
100
AcDbEntity
  8
1
 62
     4
100
AcDbLine
 10
89.44268769951071
 20
9.121662547024874
 30
0.0
 11
90.31890594807535
 21
9.369801412981678
 31
0.0
  0
LINE
  5
A53
330
18
100
AcDbEntity
  8
1
 62
     4
100
AcDbLine
 10
90.31890594807535
 20
9.369801412981678
 30
0.0
 11
91.19513463802604
 21
9.577909644098912
 31
0.0
  0
LINE
  5
A54
330
18
100
AcDbEntity
  8
1
 62
     4
100
AcDbLine
 10
91.19513463802604
 20
9.577909644098912
 30
0.0
 11
92.07136920401186
 21
9.745094610745317
 31
0.0
  0
LINE
  5
A55
330
18
100
AcDbEntity
  8
1
 62
     4
100
AcDbLine
 10
92.07136920401186
 20
9.745094610745317
 30
0.0
 11
92.94759145481831
 21
9.870639500917636
 31
0.0
  0
LINE
  5
A56
330
18
100
AcDbEntity
  8
1
 62
     4
100
AcDbLine
 10
92.94759145481831
 20
9.870639500917636
 30
0.0
 11
93.82380639755927
 21
9.954011364409984
 31
0.0
  0
LINE
  5
A57
330
18
100
AcDbEntity
  8
1
 62
     4
100
AcDbLine
 10
93.82380639755927
 20
9.954011364409984
 30
0.0
 11
94.75027119332287
 21
9.997199749809542
 31
0.0
  0
LINE
  5
A58
330
18
100
AcDbEntity
  8
1
 62
     4
100
AcDbLine
 10
92.76259154725037
 20
5.967385592734322
 30
0.0
 11
91.20234654533494
 21
6.858936328011767
 31
0.0
  0
LINE
  5
A59
330
18
100
AcDbEntity
  8
1
 62
     4
100
AcDbLine
 10
91.20234654533494
 20
6.858936328011767
 30
0.0
 11
89.64206229116332
 21
7.657651880484267
 31
0.0
  0
LINE
  5
A5A
330
18
100
AcDbEntity
  8
1
 62
     4
100
AcDbLine
 10
89.64206229116332
 20
7.657651880484267
 30
0.0
 11
88.08181504258019
 21
8.352685603952442
 31
0.0
  0
LINE
  5
A5B
330
18
100
AcDbEntity
  8
1
 62
     4
100
AcDbLine
 10
88.08181504258019
 20
8.352685603952442
 30
0.0
 11
86.5215316808497
 21
8.934661371344651
 31
0.0
  0
LINE
  5
A5C
330
18
100
AcDbEntity
  8
1
 62
     4
100
AcDbLine
 10
86.5215316808497
 20
8.934661371344651
 30
0.0
 11
85.74141053244494
 21
9.180715337177764
 31
0.0
  0
LINE
  5
A5D
330
18
100
AcDbEntity
  8
1
 62
     4
100
AcDbLine
 10
85.74141053244494
 20
9.180715337177764
 30
0.0
 11
85.37470995932787
 21
9.281758902115063
 31
0.0
  0
LINE
  5
A5E
330
18
100
AcDbEntity
  8
1
 62
     4
100
AcDbLine
 10
84.37317512086298
 20
9.533736818495448
 30
0.0
 11
84.18113167879099
 21
9.578819226042556
 31
0.0
  0
LINE
  5
A5F
330
18
100
AcDbEntity
  8
1
 62
     4
100
AcDbLine
 10
84.18113167879099
 20
9.578819226042556
 30
0.0
 11
83.40100237040664
 21
9.729509940713704
 31
0.0
  0
LINE
  5
A60
330
18
100
AcDbEntity
  8
1
 62
     4
100
AcDbLine
 10
83.40100237040664
 20
9.729509940713704
 30
0.0
 11
82.62088168506069
 21
9.847246015764147
 31
0.0
  0
LINE
  5
A61
330
18
100
AcDbEntity
  8
1
 62
     4
100
AcDbLine
 10
82.62088168506069
 20
9.847246015764147
 30
0.0
 11
81.84074717310634
 21
9.931631671879307
 31
0.0
  0
LINE
  5
A62
330
18
100
AcDbEntity
  8
1
 62
     4
100
AcDbLine
 10
81.84074717310634
 20
9.931631671879307
 30
0.0
 11
81.06059992667191
 21
9.982376281188001
 31
0.0
  0
LINE
  5
A63
330
18
100
AcDbEntity
  8
1
 62
     4
100
AcDbLine
 10
81.06059992667191
 20
9.982376281188001
 30
0.0
 11
80.2805139185412
 21
9.999309281927088
 31
0.0
  0
LINE
  5
A64
330
18
100
AcDbEntity
  8
1
 62
     4
100
AcDbLine
 10
66.63663505760012
 20
8.509697171094048
 30
0.0
 11
67.56285412773492
 21
8.851965561209286
 31
0.0
  0
LINE
  5
A65
330
18
100
AcDbEntity
  8
1
 62
     4
100
AcDbLine
 10
67.56285412773492
 20
8.851965561209286
 30
0.0
 11
68.48907132786187
 21
9.151975127387462
 31
0.0
  0
LINE
  5
A66
330
18
100
AcDbEntity
  8
1
 62
     4
100
AcDbLine
 10
68.48907132786187
 20
9.151975127387462
 30
0.0
 11
69.41528914954727
 21
9.408294892420332
 31
0.0
  0
LINE
  5
A67
330
18
100
AcDbEntity
  8
1
 62
     4
100
AcDbLine
 10
69.41528914954727
 20
9.408294892420332
 30
0.0
 11
70.34151031987898
 21
9.619701559273366
 31
0.0
  0
LINE
  5
A68
330
18
100
AcDbEntity
  8
1
 62
     4
100
AcDbLine
 10
70.34151031987898
 20
9.619701559273366
 30
0.0
 11
71.2677374706042
 21
9.785185549480759
 31
0.0
  0
LINE
  5
A69
330
18
100
AcDbEntity
  8
1
 62
     4
100
AcDbLine
 10
71.2677374706042
 20
9.785185549480759
 30
0.0
 11
72.19397118787274
 21
9.903955649256706
 31
0.0
  0
LINE
  5
A6A
330
18
100
AcDbEntity
  8
1
 62
     4
100
AcDbLine
 10
72.19397118787274
 20
9.903955649256706
 30
0.0
 11
73.12019935354752
 21
9.97544308550599
 31
0.0
  0
LINE
  5
A6B
330
18
100
AcDbEntity
  8
1
 62
     4
100
AcDbLine
 10
73.12019935354752
 20
9.97544308550599
 30
0.0
 11
74.04637712351335
 21
9.999309281927088
 31
0.0
  0
LINE
  5
A6C
330
18
100
AcDbEntity
  8
1
 62
     4
100
AcDbLine
 10
71.70896766940021
 20
5.967390140114607
 30
0.0
 11
70.14871227086121
 21
6.858941484073672
 31
0.0
  0
LINE
  5
A6D
330
18
100
AcDbEntity
  8
1
 62
     4
100
AcDbLine
 10
70.14871227086121
 20
6.858941484073672
 30
0.0
 11
68.58843410367689
 21
7.657653763154206
 31
0.0
  0
LINE
  5
A6E
330
18
100
AcDbEntity
  8
1
 62
     4
100
AcDbLine
 10
68.58843410367689
 20
7.657653763154206
 30
0.0
 11
67.0281852951548
 21
8.352687102507648
 31
0.0
  0
LINE
  5
A6F
330
18
100
AcDbEntity
  8
1
 62
     4
100
AcDbLine
 10
67.0281852951548
 20
8.352687102507648
 30
0.0
 11
65.46790398397442
 21
8.934663511543721
 31
0.0
  0
LINE
  5
A70
330
18
100
AcDbEntity
  8
1
 62
     4
100
AcDbLine
 10
65.46790398397442
 20
8.934663511543721
 30
0.0
 11
64.61514345981864
 21
9.212728493806443
 31
0.0
  0
LINE
  5
A73
330
18
100
AcDbEntity
  8
1
 62
     4
100
AcDbLine
 10
63.61360862135372
 20
9.464706410186828
 30
0.0
 11
62.34737579988114
 21
9.729511307188987
 31
0.0
  0
LINE
  5
A74
330
18
100
AcDbEntity
  8
1
 62
     4
100
AcDbLine
 10
62.34737579988114
 20
9.729511307188987
 30
0.0
 11
61.56725382723214
 21
9.84724632350785
 31
0.0
  0
LINE
  5
A75
330
18
100
AcDbEntity
  8
1
 62
     4
100
AcDbLine
 10
61.56725382723214
 20
9.84724632350785
 30
0.0
 11
60.78713019115802
 21
9.931630772486732
 31
0.0
  0
LINE
  5
A76
330
18
100
AcDbEntity
  8
1
 62
     4
100
AcDbLine
 10
60.78713019115802
 20
9.931630772486732
 30
0.0
 11
60.0069818803357
 21
9.982376552438811
 31
0.0
  0
LINE
  5
A77
330
18
100
AcDbEntity
  8
1
 62
     4
100
AcDbLine
 10
60.0069818803357
 20
9.982376552438811
 30
0.0
 11
59.22689319540936
 21
9.999309281927088
 31
0.0
  0
LINE
  5
A78
330
18
100
AcDbEntity
  8
1
 62
     4
100
AcDbLine
 10
52.99275394241286
 20
-0.0006907180721018
 30
0.0
 11
47.72933299497088
 21
3.826153834990579
 31
0.0
  0
LINE
  5
A79
330
18
100
AcDbEntity
  8
1
 62
     4
100
AcDbLine
 10
47.72933299497088
 20
3.826153834990579
 30
0.0
 11
45.09764064382477
 21
5.555013758242186
 31
0.0
  0
LINE
  5
A7A
330
18
100
AcDbEntity
  8
1
 62
     4
100
AcDbLine
 10
45.09764064382477
 20
5.555013758242186
 30
0.0
 11
42.39130870863125
 21
7.077384572548914
 31
0.0
  0
LINE
  5
A7B
330
18
100
AcDbEntity
  8
1
 62
     4
100
AcDbLine
 10
41.38977387016634
 20
7.609369700134588
 30
0.0
 11
41.15007349393645
 21
7.729422149286196
 31
0.0
  0
LINE
  5
A7C
330
18
100
AcDbEntity
  8
1
 62
     4
100
AcDbLine
 10
41.15007349393645
 20
7.729422149286196
 30
0.0
 11
39.83422586460974
 21
8.314010202516362
 31
0.0
  0
LINE
  5
A7D
330
18
100
AcDbEntity
  8
1
 62
     4
100
AcDbLine
 10
39.83422586460974
 20
8.314010202516362
 30
0.0
 11
38.51836275843054
 21
8.818529281228084
 31
0.0
  0
LINE
  5
A7E
330
18
100
AcDbEntity
  8
1
 62
     4
100
AcDbLine
 10
38.51836275843054
 20
8.818529281228084
 30
0.0
 11
37.20249985818076
 21
9.238114160788418
 31
0.0
  0
LINE
  5
A7F
330
18
100
AcDbEntity
  8
1
 62
     4
100
AcDbLine
 10
37.20249985818076
 20
9.238114160788418
 30
0.0
 11
35.88665281484685
 21
9.568719632057556
 31
0.0
  0
LINE
  5
A80
330
18
100
AcDbEntity
  8
1
 62
     4
100
AcDbLine
 10
35.88665281484685
 20
9.568719632057556
 30
0.0
 11
34.57081131347112
 21
9.807164588412666
 31
0.0
  0
LINE
  5
A81
330
18
100
AcDbEntity
  8
1
 62
     4
100
AcDbLine
 10
34.57081131347112
 20
9.807164588412666
 30
0.0
 11
33.91286567487468
 21
9.891078472401007
 31
0.0
  0
LINE
  5
A82
330
18
100
AcDbEntity
  8
1
 62
     4
100
AcDbLine
 10
33.91286567487468
 20
9.891078472401007
 30
0.0
 11
33.25495075136614
 21
9.951157120886866
 31
0.0
  0
LINE
  5
A83
330
18
100
AcDbEntity
  8
1
 62
     4
100
AcDbLine
 10
33.25495075136614
 20
9.951157120886866
 30
0.0
 11
32.92598895352258
 21
9.999309281927088
 31
0.0
  0
LINE
  5
A84
330
18
100
AcDbEntity
  8
1
 62
     4
100
AcDbLine
 10
50.65534465219214
 20
5.967391567713152
 30
0.0
 11
49.09508380430061
 21
6.8589450253312
 31
0.0
  0
LINE
  5
A85
330
18
100
AcDbEntity
  8
1
 62
     4
100
AcDbLine
 10
49.09508380430061
 20
6.8589450253312
 30
0.0
 11
47.53481023015996
 21
7.657654416788207
 31
0.0
  0
LINE
  5
A86
330
18
100
AcDbEntity
  8
1
 62
     4
100
AcDbLine
 10
47.53481023015996
 20
7.657654416788207
 30
0.0
 11
45.9745585798401
 21
8.352688591362696
 31
0.0
  0
LINE
  5
A87
330
18
100
AcDbEntity
  8
1
 62
     4
100
AcDbLine
 10
45.9745585798401
 20
8.352688591362696
 30
0.0
 11
44.41427959648845
 21
8.934663563292792
 31
0.0
  0
LINE
  5
A88
330
18
100
AcDbEntity
  8
1
 62
     4
100
AcDbLine
 10
44.41427959648845
 20
8.934663563292792
 30
0.0
 11
43.63415351718028
 21
9.180718724998117
 31
0.0
  0
LINE
  5
A89
330
18
100
AcDbEntity
  8
1
 62
     4
100
AcDbLine
 10
43.63415351718028
 20
9.180718724998117
 30
0.0
 11
42.39130870863125
 21
9.454992313656042
 31
0.0
  0
LINE
  5
A8C
330
18
100
AcDbEntity
  8
1
 62
     4
100
AcDbLine
 10
41.38977387016634
 20
9.706970230036434
 30
0.0
 11
40.5136295961681
 21
9.847246597796532
 31
0.0
  0
LINE
  5
A8D
330
18
100
AcDbEntity
  8
1
 62
     4
100
AcDbLine
 10
40.5136295961681
 20
9.847246597796532
 30
0.0
 11
39.73350755085306
 21
9.931630301175378
 31
0.0
  0
LINE
  5
A8E
330
18
100
AcDbEntity
  8
1
 62
     4
100
AcDbLine
 10
39.73350755085306
 20
9.931630301175378
 30
0.0
 11
38.95336394173812
 21
9.982376446296346
 31
0.0
  0
LINE
  5
A8F
330
18
100
AcDbEntity
  8
1
 62
     4
100
AcDbLine
 10
38.95336394173812
 20
9.982376446296346
 30
0.0
 11
38.17327040260874
 21
9.999309281927088
 31
0.0
  0
LINE
  5
A90
330
18
100
AcDbEntity
  8
1
 62
     4
100
AcDbLine
 10
87.69025755128858
 20
-8.511077914874272
 30
0.0
 11
86.76403992436389
 21
-8.853346203644456
 31
0.0
  0
LINE
  5
A91
330
18
100
AcDbEntity
  8
1
 62
     4
100
AcDbLine
 10
86.76403992436389
 20
-8.853346203644456
 30
0.0
 11
85.83782084899294
 21
-9.15335670703441
 31
0.0
  0
LINE
  5
A92
330
18
100
AcDbEntity
  8
1
 62
     4
100
AcDbLine
 10
85.83782084899294
 20
-9.15335670703441
 30
0.0
 11
85.37470995932787
 21
-9.281517545082273
 31
0.0
  0
LINE
  5
A93
330
18
100
AcDbEntity
  8
1
 62
     4
100
AcDbLine
 10
84.37317512086298
 20
-9.532571295611807
 30
0.0
 11
83.98536980866394
 21
-9.621086162749923
 31
0.0
  0
LINE
  5
A94
330
18
100
AcDbEntity
  8
1
 62
     4
100
AcDbLine
 10
83.98536980866394
 20
-9.621086162749923
 30
0.0
 11
83.05913474114584
 21
-9.786569842580226
 31
0.0
  0
LINE
  5
A95
330
18
100
AcDbEntity
  8
1
 62
     4
100
AcDbLine
 10
83.05913474114584
 20
-9.786569842580226
 30
0.0
 11
82.13290800106957
 21
-9.905337811942407
 31
0.0
  0
LINE
  5
A96
330
18
100
AcDbEntity
  8
1
 62
     4
100
AcDbLine
 10
82.13290800106957
 20
-9.905337811942407
 30
0.0
 11
81.20668635804543
 21
-9.976824096520026
 31
0.0
  0
LINE
  5
A97
330
18
100
AcDbEntity
  8
1
 62
     4
100
AcDbLine
 10
81.20668635804543
 20
-9.976824096520026
 30
0.0
 11
80.28051391854317
 21
-10.00069071806975
 31
0.0
  0
LINE
  5
A98
330
18
100
AcDbEntity
  8
1
 62
     4
100
AcDbLine
 10
74.0463771235148
 20
-0.0006907180752566
 30
0.0
 11
68.78295503830336
 21
3.826154662226516
 31
0.0
  0
LINE
  5
A99
330
18
100
AcDbEntity
  8
1
 62
     4
100
AcDbLine
 10
68.78295503830336
 20
3.826154662226516
 30
0.0
 11
64.61514345981864
 21
6.484236749568633
 31
0.0
  0
LINE
  5
A9B
330
18
100
AcDbEntity
  8
1
 62
     4
100
AcDbLine
 10
63.61359501807161
 20
7.016228584551626
 30
0.0
 11
62.20369919510506
 21
7.729420689825806
 31
0.0
  0
LINE
  5
A9C
330
18
100
AcDbEntity
  8
1
 62
     4
100
AcDbLine
 10
62.20369919510506
 20
7.729420689825806
 30
0.0
 11
60.88784734900357
 21
8.314010634808372
 31
0.0
  0
LINE
  5
A9D
330
18
100
AcDbEntity
  8
1
 62
     4
100
AcDbLine
 10
60.88784734900357
 20
8.314010634808372
 30
0.0
 11
59.57198337468506
 21
8.81853015664881
 31
0.0
  0
LINE
  5
A9E
330
18
100
AcDbEntity
  8
1
 62
     4
100
AcDbLine
 10
59.57198337468506
 20
8.81853015664881
 30
0.0
 11
58.25612307984343
 21
9.23811436672921
 31
0.0
  0
LINE
  5
A9F
330
18
100
AcDbEntity
  8
1
 62
     4
100
AcDbLine
 10
58.25612307984343
 20
9.23811436672921
 30
0.0
 11
56.94028177325193
 21
9.5687183930734
 31
0.0
  0
LINE
  5
AA0
330
18
100
AcDbEntity
  8
1
 62
     4
100
AcDbLine
 10
56.94028177325193
 20
9.5687183930734
 30
0.0
 11
55.62443553084158
 21
9.807164154728774
 31
0.0
  0
LINE
  5
AA1
330
18
100
AcDbEntity
  8
1
 62
     4
100
AcDbLine
 10
55.62443553084158
 20
9.807164154728774
 30
0.0
 11
54.96649171237358
 21
9.89107836849684
 31
0.0
  0
LINE
  5
AA2
330
18
100
AcDbEntity
  8
1
 62
     4
100
AcDbLine
 10
54.96649171237358
 20
9.89107836849684
 30
0.0
 11
54.30857336355422
 21
9.951157127499016
 31
0.0
  0
LINE
  5
AA3
330
18
100
AcDbEntity
  8
1
 62
     4
100
AcDbLine
 10
54.30857336355422
 20
9.951157127499016
 30
0.0
 11
53.6506557400115
 21
9.987264571127868
 31
0.0
  0
LINE
  5
AA4
330
18
100
AcDbEntity
  8
1
 62
     4
100
AcDbLine
 10
53.6506557400115
 20
9.987264571127868
 30
0.0
 11
52.99275394241243
 21
9.999309281927088
 31
0.0
  0
LINE
  5
AA5
330
18
100
AcDbEntity
  8
1
 62
     4
100
AcDbLine
 10
45.58301165735506
 20
8.509697072347226
 30
0.0
 11
46.50923098064146
 21
8.851965506883693
 31
0.0
  0
LINE
  5
AA6
330
18
100
AcDbEntity
  8
1
 62
     4
100
AcDbLine
 10
46.50923098064146
 20
8.851965506883693
 30
0.0
 11
47.43544817239992
 21
9.151975100592194
 31
0.0
  0
LINE
  5
AA7
330
18
100
AcDbEntity
  8
1
 62
     4
100
AcDbLine
 10
47.43544817239992
 20
9.151975100592194
 30
0.0
 11
48.36166596020678
 21
9.408294782352076
 31
0.0
  0
LINE
  5
AA8
330
18
100
AcDbEntity
  8
1
 62
     4
100
AcDbLine
 10
48.36166596020678
 20
9.408294782352076
 30
0.0
 11
49.28788680653182
 21
9.619701428148692
 31
0.0
  0
LINE
  5
AA9
330
18
100
AcDbEntity
  8
1
 62
     4
100
AcDbLine
 10
49.28788680653182
 20
9.619701428148692
 30
0.0
 11
50.21411349518192
 21
9.785185406068226
 31
0.0
  0
LINE
  5
AAA
330
18
100
AcDbEntity
  8
1
 62
     4
100
AcDbLine
 10
50.21411349518192
 20
9.785185406068226
 30
0.0
 11
51.14034723918571
 21
9.903955553475231
 31
0.0
  0
LINE
  5
AAB
330
18
100
AcDbEntity
  8
1
 62
     4
100
AcDbLine
 10
51.14034723918571
 20
9.903955553475231
 30
0.0
 11
52.06657580514622
 21
9.975443098248266
 31
0.0
  0
LINE
  5
AAC
330
18
100
AcDbEntity
  8
1
 62
     4
100
AcDbLine
 10
52.06657580514622
 20
9.975443098248266
 30
0.0
 11
52.99275394241249
 21
9.999309281927088
 31
0.0
  0
LINE
  5
AAD
330
18
100
AcDbEntity
  8
1
 62
     4
100
AcDbLine
 10
14.99999999999999
 20
9.999309281927088
 30
0.0
 11
17.78381265525809
 21
9.999309281927088
 31
0.0
  0
LINE
  5
AAE
330
18
100
AcDbEntity
  8
1
 62
     4
100
AcDbLine
 10
33.24868132368306
 20
9.98771767164874
 30
0.0
 11
32.60329658336213
 21
9.999309281927088
 31
0.0
  0
LINE
  5
AAF
330
18
100
AcDbEntity
  8
1
 62
     4
100
AcDbLine
 10
32.92598895352258
 20
3.789507641914413
 30
0.0
 11
30.26588712924894
 21
5.96739014011459
 31
0.0
  0
LINE
  5
AB4
330
18
100
AcDbEntity
  8
1
 62
     4
100
AcDbLine
 10
14.99999999999999
 20
-9.784738714925662
 30
0.0
 11
15.04381648265501
 21
-9.792460420107339
 31
0.0
  0
LINE
  5
AB5
330
18
100
AcDbEntity
  8
1
 62
     4
100
AcDbLine
 10
15.04381648265501
 20
-9.792460420107339
 30
0.0
 11
15.95716765666097
 21
-9.907966980886238
 31
0.0
  0
LINE
  5
AB6
330
18
100
AcDbEntity
  8
1
 62
     4
100
AcDbLine
 10
15.95716765666097
 20
-9.907966980886238
 30
0.0
 11
16.87051939397057
 21
-9.977483894463823
 31
0.0
  0
LINE
  5
AB7
330
18
100
AcDbEntity
  8
1
 62
     4
100
AcDbLine
 10
16.87051939397057
 20
-9.977483894463823
 30
0.0
 11
17.78381265533263
 21
-10.00069071797173
 31
0.0
  0
LINE
  5
AB8
330
18
100
AcDbEntity
  8
1
 62
     4
100
AcDbLine
 10
17.78381265533263
 20
-10.00069071797173
 30
0.0
 11
18.71003450902932
 21
-9.976822122524659
 31
0.0
  0
LINE
  5
AB9
330
18
100
AcDbEntity
  8
1
 62
     4
100
AcDbLine
 10
18.71003450902932
 20
-9.976822122524659
 30
0.0
 11
19.63625105234536
 21
-9.905332361868312
 31
0.0
  0
LINE
  5
ABA
330
18
100
AcDbEntity
  8
1
 62
     4
100
AcDbLine
 10
19.63625105234536
 20
-9.905332361868312
 30
0.0
 11
20.56246332941932
 21
-9.786563671012752
 31
0.0
  0
LINE
  5
ABB
330
18
100
AcDbEntity
  8
1
 62
     4
100
AcDbLine
 10
20.56246332941932
 20
-9.786563671012752
 30
0.0
 11
21.488673715302
 21
-9.621082890367782
 31
0.0
  0
LINE
  5
ABC
330
18
100
AcDbEntity
  8
1
 62
     4
100
AcDbLine
 10
21.488673715302
 20
-9.621082890367782
 30
0.0
 11
22.41488676502822
 21
-9.409680033134842
 31
0.0
  0
LINE
  5
ABD
330
18
100
AcDbEntity
  8
1
 62
     4
100
AcDbLine
 10
22.41488676502822
 20
-9.409680033134842
 30
0.0
 11
23.34110288500498
 21
-9.153361913093966
 31
0.0
  0
LINE
  5
ABE
330
18
100
AcDbEntity
  8
1
 62
     4
100
AcDbLine
 10
23.34110288500498
 20
-9.153361913093966
 30
0.0
 11
24.2673265811257
 21
-8.853350720224392
 31
0.0
  0
LINE
  5
ABF
330
18
100
AcDbEntity
  8
1
 62
     4
100
AcDbLine
 10
24.2673265811257
 20
-8.853350720224392
 30
0.0
 11
25.19355471237546
 21
-8.511079537704766
 31
0.0
  0
LINE
  5
AC0
330
18
100
AcDbEntity
  8
1
 62
     4
100
AcDbLine
 10
14.99999999999999
 20
-10.00069071807291
 30
0.0
 11
17.78381265533263
 21
-10.00069071807291
 31
0.0
  0
LINE
  5
AC1
330
18
100
AcDbEntity
  8
1
 62
     4
100
AcDbLine
 10
32.92598895352258
 20
-10.00069071807291
 30
0.0
 11
31.94536517921296
 21
-9.98864342714395
 31
0.0
  0
LINE
  5
AC2
330
18
100
AcDbEntity
  8
1
 62
     4
100
AcDbLine
 10
31.94536517921296
 20
-9.98864342714395
 30
0.0
 11
31.2874525285012
 21
-9.95253769046517
 31
0.0
  0
LINE
  5
AC3
330
18
100
AcDbEntity
  8
1
 62
     4
100
AcDbLine
 10
31.2874525285012
 20
-9.95253769046517
 30
0.0
 11
30.62950594629558
 21
-9.892453828782596
 31
0.0
  0
LINE
  5
AC4
330
18
100
AcDbEntity
  8
1
 62
     4
100
AcDbLine
 10
30.62950594629558
 20
-9.892453828782596
 30
0.0
 11
29.97159042004954
 21
-9.808541329199693
 31
0.0
  0
LINE
  5
AC5
330
18
100
AcDbEntity
  8
1
 62
     4
100
AcDbLine
 10
29.97159042004954
 20
-9.808541329199693
 30
0.0
 11
28.6557252390439
 21
-9.570089107121507
 31
0.0
  0
LINE
  5
AC6
330
18
100
AcDbEntity
  8
1
 62
     4
100
AcDbLine
 10
28.6557252390439
 20
-9.570089107121507
 30
0.0
 11
27.33987200570248
 21
-9.239480561780393
 31
0.0
  0
LINE
  5
AC7
330
18
100
AcDbEntity
  8
1
 62
     4
100
AcDbLine
 10
27.33987200570248
 20
-9.239480561780393
 30
0.0
 11
26.02403290241677
 21
-8.819900781253842
 31
0.0
  0
LINE
  5
AC8
330
18
100
AcDbEntity
  8
1
 62
     4
100
AcDbLine
 10
26.02403290241677
 20
-8.819900781253842
 30
0.0
 11
24.70817521791629
 21
-8.315380332615342
 31
0.0
  0
LINE
  5
AC9
330
18
100
AcDbEntity
  8
1
 62
     4
100
AcDbLine
 10
24.70817521791629
 20
-8.315380332615342
 30
0.0
 11
23.39230974359638
 21
-7.730781427979063
 31
0.0
  0
LINE
  5
ACA
330
18
100
AcDbEntity
  8
1
 62
     4
100
AcDbLine
 10
23.39230974359638
 20
-7.730781427979063
 30
0.0
 11
22.07645185135946
 21
-7.071740807747922
 31
0.0
  0
LINE
  5
ACB
330
18
100
AcDbEntity
  8
1
 62
     4
100
AcDbLine
 10
22.07645185135946
 20
-7.071740807747922
 30
0.0
 11
20.76061304695336
 21
-6.34461169121183
 31
0.0
  0
LINE
  5
ACC
330
18
100
AcDbEntity
  8
1
 62
     4
100
AcDbLine
 10
20.76061304695336
 20
-6.34461169121183
 30
0.0
 11
18.12889597964862
 21
-4.714634486931767
 31
0.0
  0
LINE
  5
ACD
330
18
100
AcDbEntity
  8
1
 62
     4
100
AcDbLine
 10
18.12889597964862
 20
-4.714634486931767
 30
0.0
 11
15.49719313289555
 21
-2.903512683445422
 31
0.0
  0
LINE
  5
ACE
330
18
100
AcDbEntity
  8
1
 62
     4
100
AcDbLine
 10
15.49719313289555
 20
-2.903512683445422
 30
0.0
 11
14.99999999999999
 21
-2.537900034064122
 31
0.0
  0
LINE
  5
ACF
330
18
100
AcDbEntity
  8
1
 62
     4
100
AcDbLine
 10
32.92598895352258
 20
-9.240951376925202
 30
0.0
 11
30.50533307226424
 21
-8.129862658747306
 31
0.0
  0
LINE
  5
AD0
330
18
100
AcDbEntity
  8
1
 62
     4
100
AcDbLine
 10
30.50533307226424
 20
-8.129862658747306
 30
0.0
 11
28.65376697491208
 21
-7.250452048706244
 31
0.0
  0
LINE
  5
AD1
330
18
100
AcDbEntity
  8
1
 62
     4
100
AcDbLine
 10
28.65376697491208
 20
-7.250452048706244
 30
0.0
 11
26.80219736931216
 21
-6.232907228454814
 31
0.0
  0
LINE
  5
AD2
330
18
100
AcDbEntity
  8
1
 62
     4
100
AcDbLine
 10
26.80219736931216
 20
-6.232907228454814
 30
0.0
 11
24.95060552374268
 21
-5.096601552779011
 31
0.0
  0
LINE
  5
AD3
330
18
100
AcDbEntity
  8
1
 62
     4
100
AcDbLine
 10
24.95060552374268
 20
-5.096601552779011
 30
0.0
 11
21.2474617744602
 21
-2.556229226473726
 31
0.0
  0
LINE
  5
AD4
330
18
100
AcDbEntity
  8
1
 62
     4
100
AcDbLine
 10
21.2474617744602
 20
-2.556229226473726
 30
0.0
 11
17.5443744086229
 21
0.1779420193544094
 31
0.0
  0
LINE
  5
AD5
330
18
100
AcDbEntity
  8
1
 62
     4
100
AcDbLine
 10
17.5443744086229
 20
0.1779420193544094
 30
0.0
 11
14.99999999999999
 21
2.047268515214084
 31
0.0
  0
LINE
  5
AD9
330
18
100
AcDbEntity
  8
1
 62
     4
100
AcDbLine
 10
25.19355451744888
 20
8.509697171094034
 30
0.0
 11
26.1197735875837
 21
8.851965561209286
 31
0.0
  0
LINE
  5
ADA
330
18
100
AcDbEntity
  8
1
 62
     4
100
AcDbLine
 10
26.1197735875837
 20
8.851965561209286
 30
0.0
 11
27.04599078771064
 21
9.15197512738745
 31
0.0
  0
LINE
  5
ADB
330
18
100
AcDbEntity
  8
1
 62
     4
100
AcDbLine
 10
27.04599078771064
 20
9.15197512738745
 30
0.0
 11
27.97220860939606
 21
9.408294892420332
 31
0.0
  0
LINE
  5
ADC
330
18
100
AcDbEntity
  8
1
 62
     4
100
AcDbLine
 10
27.97220860939606
 20
9.408294892420332
 30
0.0
 11
28.89842977972776
 21
9.619701559273366
 31
0.0
  0
LINE
  5
ADD
330
18
100
AcDbEntity
  8
1
 62
     4
100
AcDbLine
 10
28.89842977972776
 20
9.619701559273366
 30
0.0
 11
29.82465693045297
 21
9.785185549480759
 31
0.0
  0
LINE
  5
ADE
330
18
100
AcDbEntity
  8
1
 62
     4
100
AcDbLine
 10
29.82465693045297
 20
9.785185549480759
 30
0.0
 11
30.75089064772152
 21
9.903955649256706
 31
0.0
  0
LINE
  5
ADF
330
18
100
AcDbEntity
  8
1
 62
     4
100
AcDbLine
 10
30.75089064772152
 20
9.903955649256706
 30
0.0
 11
31.6771188133963
 21
9.97544308550599
 31
0.0
  0
LINE
  5
AE0
330
18
100
AcDbEntity
  8
1
 62
     4
100
AcDbLine
 10
31.6771188133963
 20
9.97544308550599
 30
0.0
 11
32.60329658336213
 21
9.999309281927088
 31
0.0
  0
LINE
  5
AE1
330
18
100
AcDbEntity
  8
1
 62
     4
100
AcDbLine
 10
30.26588712924896
 20
5.967390140114607
 30
0.0
 11
28.70563173071
 21
6.858941484073672
 31
0.0
  0
LINE
  5
AE2
330
18
100
AcDbEntity
  8
1
 62
     4
100
AcDbLine
 10
28.70563173071
 20
6.858941484073672
 30
0.0
 11
27.14535356352564
 21
7.657653763154192
 31
0.0
  0
LINE
  5
AE3
330
18
100
AcDbEntity
  8
1
 62
     4
100
AcDbLine
 10
27.14535356352564
 20
7.657653763154192
 30
0.0
 11
25.58510475500358
 21
8.352687102507648
 31
0.0
  0
LINE
  5
AE4
330
18
100
AcDbEntity
  8
1
 62
     4
100
AcDbLine
 10
25.58510475500358
 20
8.352687102507648
 30
0.0
 11
24.0248234438232
 21
8.934663511543721
 31
0.0
  0
LINE
  5
AE5
330
18
100
AcDbEntity
  8
1
 62
     4
100
AcDbLine
 10
24.0248234438232
 20
8.934663511543721
 30
0.0
 11
23.2446990346042
 21
9.180717797054461
 31
0.0
  0
LINE
  5
AE6
330
18
100
AcDbEntity
  8
1
 62
     4
100
AcDbLine
 10
23.2446990346042
 20
9.180717797054461
 30
0.0
 11
22.46457749966258
 21
9.39567733225852
 31
0.0
  0
LINE
  5
AE7
330
18
100
AcDbEntity
  8
1
 62
     4
100
AcDbLine
 10
22.46457749966258
 20
9.39567733225852
 30
0.0
 11
21.68443522067042
 21
9.578817895662242
 31
0.0
  0
LINE
  5
AE8
330
18
100
AcDbEntity
  8
1
 62
     4
100
AcDbLine
 10
21.68443522067042
 20
9.578817895662242
 30
0.0
 11
20.90429525972991
 21
9.729511307188987
 31
0.0
  0
LINE
  5
AE9
330
18
100
AcDbEntity
  8
1
 62
     4
100
AcDbLine
 10
20.90429525972991
 20
9.729511307188987
 30
0.0
 11
20.16747395744387
 21
9.840711441386162
 31
0.0
  0
LINE
  5
AEB
330
18
100
AcDbEntity
  8
1
 62
     4
100
AcDbLine
 10
19.16593911897896
 20
9.943216207896963
 30
0.0
 11
18.56390134018447
 21
9.982376552438811
 31
0.0
  0
LINE
  5
AEC
330
18
100
AcDbEntity
  8
1
 62
     4
100
AcDbLine
 10
18.56390134018447
 20
9.982376552438811
 30
0.0
 11
17.78381265525812
 21
9.999309281927072
 31
0.0
  0
LINE
  5
AED
330
18
100
AcDbEntity
  8
1
 62
     4
100
AcDbLine
 10
32.92598895352258
 20
-0.7181996878694524
 30
0.0
 11
27.33987449815214
 21
3.826154662226516
 31
0.0
  0
LINE
  5
AEE
330
18
100
AcDbEntity
  8
1
 62
     4
100
AcDbLine
 10
27.33987449815214
 20
3.826154662226516
 30
0.0
 11
24.70817895692264
 21
5.555016161817592
 31
0.0
  0
LINE
  5
AEF
330
18
100
AcDbEntity
  8
1
 62
     4
100
AcDbLine
 10
24.70817895692264
 20
5.555016161817592
 30
0.0
 11
22.07645683639912
 21
7.070391514741023
 31
0.0
  0
LINE
  5
AF0
330
18
100
AcDbEntity
  8
1
 62
     4
100
AcDbLine
 10
22.07645683639912
 20
7.070391514741023
 30
0.0
 11
20.76061865495385
 21
7.729420689825806
 31
0.0
  0
LINE
  5
AF1
330
18
100
AcDbEntity
  8
1
 62
     4
100
AcDbLine
 10
20.76061865495385
 20
7.729420689825806
 30
0.0
 11
20.16747395744387
 21
7.9929354822482
 31
0.0
  0
LINE
  5
AF2
330
18
100
AcDbEntity
  8
1
 62
     4
100
AcDbLine
 10
19.16593911897896
 20
8.420916831433787
 30
0.0
 11
18.12890283453383
 21
8.81853015664881
 31
0.0
  0
LINE
  5
AF3
330
18
100
AcDbEntity
  8
1
 62
     4
100
AcDbLine
 10
18.12890283453383
 20
8.81853015664881
 30
0.0
 11
16.81304253969219
 21
9.23811436672921
 31
0.0
  0
LINE
  5
AF4
330
18
100
AcDbEntity
  8
1
 62
     4
100
AcDbLine
 10
16.81304253969219
 20
9.23811436672921
 30
0.0
 11
15.4972012331007
 21
9.5687183930734
 31
0.0
  0
LINE
  5
AF5
330
18
100
AcDbEntity
  8
1
 62
     4
100
AcDbLine
 10
15.4972012331007
 20
9.5687183930734
 30
0.0
 11
15.0
 21
9.658816706160136
 31
0.0
  0
DIMENSION
  5
AFF
330
18
100
AcDbEntity
  8
2
100
AcDbDimension
  2
*D5
 10
124.7502018559211
 20
-10.0028728951442
 30
0.0
 11
122.3752018559211
 21
-0.0028728951441821
 31
0.0
 70
    32
  1
%%c<>
 71
     5
 42
19.99999999999999
  3
STANDARD
100
AcDbAlignedDimension
 13
94.75020185592113
 23
9.997127104855804
 33
0.0
 14
94.75020185592113
 24
-10.00287289514419
 34
0.0
 50
90.00000000000017
100
AcDbRotatedDimension
  0
DIMENSION
  5
B00
330
18
100
AcDbEntity
  8
2
100
AcDbDimension
  2
*D6
 10
95.0
 20
19.87464012810142
 30
0.0
 11
111.5416666666666
 21
22.24964012810142
 31
0.0
 70
    32
  1
0.25x45°
 71
     5
 42
0.2497981440788664
  3
STANDARD
100
AcDbAlignedDimension
 13
94.75020185592113
 23
10.00174368001486
 33
0.0
 14
95.0
 24
10.00174368001486
 34
0.0
100
AcDbRotatedDimension
  0
LINE
  5
BD8
330
18
100
AcDbEntity
  8
1
 62
     4
100
AcDbLine
 10
85.37470995932787
 20
9.281758902115056
 30
0.0
 11
85.37470995932787
 21
6.643120687232467
 31
0.0
  0
LINE
  5
BD9
330
18
100
AcDbEntity
  8
1
 62
     4
100
AcDbLine
 10
84.37317512086298
 20
9.533736818495448
 30
0.0
 11
84.37317512086298
 21
7.175105814818143
 31
0.0
  0
LINE
  5
BDD
330
18
100
AcDbEntity
  8
1
 62
     4
100
AcDbLine
 10
85.37470995932787
 20
9.281758902115056
 30
0.0
 11
85.11870715476902
 21
9.059288339577618
 31
0.0
  0
LINE
  5
BDE
330
18
100
AcDbEntity
  8
1
 62
     4
100
AcDbLine
 10
84.37317512086298
 20
9.533736818495448
 30
0.0
 11
84.85494813272316
 21
9.117875962455626
 31
0.0
  0
ARC
  5
BDF
330
18
100
AcDbEntity
  8
1
 62
     4
100
AcDbCircle
 10
85.03136018381837
 20
9.289065779498088
 30
0.0
 40
0.2458193752141046
100
AcDbArc
 50
224.1392754477617
 51
290.8136637753667
  0
LINE
  5
BE0
330
18
100
AcDbEntity
  8
1
 62
     4
100
AcDbLine
 10
85.37470995932787
 20
6.643120687232467
 30
0.0
 11
85.08221200810199
 21
6.870765524526401
 31
0.0
  0
ARC
  5
BE2
330
18
100
AcDbEntity
  8
1
 62
     4
100
AcDbCircle
 10
84.4411418713539
 20
6.12748778748141
 30
0.0
 40
0.9815460837968698
100
AcDbArc
 50
49.2225357121466
 51
66.71685745953292
  0
LINE
  5
BF0
330
18
100
AcDbEntity
  8
1
 62
     4
100
AcDbLine
 10
84.37317512086298
 20
-2.960198346761576
 30
0.0
 11
84.8993252165688
 21
-3.235419606829708
 31
0.0
  0
LINE
  5
BF1
330
18
100
AcDbEntity
  8
1
 62
     4
100
AcDbLine
 10
85.37470995932787
 20
-3.684148711482812
 30
0.0
 11
84.89932521656884
 21
-3.23541960682972
 31
0.0
  0
POINT
  5
BF3
330
18
100
AcDbEntity
  8
1
100
AcDbPoint
 10
41.68658756043149
 20
0.6440890812230215
 30
0.0
  0
LINE
  5
BF4
330
18
100
AcDbEntity
  8
1
 62
     4
100
AcDbLine
 10
84.3731712733582
 20
-2.96019556562769
 30
0.0
 11
84.37317512086298
 21
-6.95738049360336
 31
0.0
  0
LINE
  5
BF5
330
18
100
AcDbEntity
  8
1
 62
     4
100
AcDbLine
 10
85.37470995932787
 20
-3.684148711482812
 30
0.0
 11
85.37470995932787
 21
-7.474706092863627
 31
0.0
  0
LINE
  5
BF8
330
18
100
AcDbEntity
  8
1
 62
     4
100
AcDbLine
 10
84.37317512086298
 20
-9.532571295611807
 30
0.0
 11
84.91970130565494
 21
-9.310857146222943
 31
0.0
  0
LINE
  5
BF9
330
18
100
AcDbEntity
  8
1
 62
     4
100
AcDbLine
 10
85.37470995932787
 20
-9.281517545082273
 30
0.0
 11
85.07007041391004
 21
-9.281517545082273
 31
0.0
  0
ARC
  5
C01
330
18
100
AcDbEntity
  8
1
 62
     4
100
AcDbCircle
 10
85.11963497103993
 20
-9.935542070533408
 30
0.0
 40
0.6558999353674804
100
AcDbArc
 50
94.33381607116777
 51
107.7475411081573
  0
LINE
  5
C0E
330
18
100
AcDbEntity
  8
1
 62
     4
100
AcDbLine
 10
64.0695562571167
 20
6.870215488651324
 30
0.0
 11
63.61359501807161
 21
7.016228584551626
 31
0.0
  0
LINE
  5
C0F
330
18
100
AcDbEntity
  8
1
 62
     4
100
AcDbLine
 10
64.61514345981864
 20
9.212728493806443
 30
0.0
 11
64.61514345981864
 21
6.484236749568633
 31
0.0
  0
LINE
  5
C10
330
18
100
AcDbEntity
  8
1
 62
     4
100
AcDbLine
 10
63.61360862135372
 20
9.464706410186828
 30
0.0
 11
63.61360862135372
 21
7.016224228353842
 31
0.0
  0
LINE
  5
C11
330
18
100
AcDbEntity
  8
1
 62
     4
100
AcDbLine
 10
64.61514345981864
 20
9.212728493806443
 30
0.0
 11
64.35914065525977
 21
8.990257931269004
 31
0.0
  0
LINE
  5
C12
330
18
100
AcDbEntity
  8
1
 62
     4
100
AcDbLine
 10
63.61360862135372
 20
9.464706410186828
 30
0.0
 11
64.09538163321392
 21
9.048845554147012
 31
0.0
  0
ARC
  5
C13
330
18
100
AcDbEntity
  8
1
 62
     4
100
AcDbCircle
 10
64.27179368430912
 20
9.220035371189476
 30
0.0
 40
0.2458193752141046
100
AcDbArc
 50
224.1392754477617
 51
290.8136637753667
  0
LINE
  5
C14
330
18
100
AcDbEntity
  8
1
 62
     4
100
AcDbLine
 10
64.61514345981864
 20
6.484236749568633
 30
0.0
 11
64.32264550859279
 21
6.711881586862566
 31
0.0
  0
ARC
  5
C15
330
18
100
AcDbEntity
  8
1
 62
     4
100
AcDbCircle
 10
63.68157537184464
 20
5.968603849817574
 30
0.0
 40
0.9815460837968698
100
AcDbArc
 50
49.22253571214655
 51
66.71685745953292
  0
LINE
  5
C16
330
18
100
AcDbEntity
  8
1
 62
     4
100
AcDbLine
 10
63.61360483440502
 20
-3.189454032069664
 30
0.0
 11
63.61360862135372
 21
-7.123727088790666
 31
0.0
  0
LINE
  5
C17
330
18
100
AcDbEntity
  8
1
 62
     4
100
AcDbLine
 10
64.61514345981865
 20
-3.876513779134473
 30
0.0
 11
64.61514345981864
 21
-7.641052688050932
 31
0.0
  0
LINE
  5
C18
330
18
100
AcDbEntity
  8
1
 62
     4
100
AcDbLine
 10
63.61360862135372
 20
-9.465453511996651
 30
0.0
 11
64.16013480614568
 21
-9.243739362607783
 31
0.0
  0
LINE
  5
C19
330
18
100
AcDbEntity
  8
1
 62
     4
100
AcDbLine
 10
64.61514345981864
 20
-9.214399761467117
 30
0.0
 11
64.3105039144008
 21
-9.214399761467117
 31
0.0
  0
ARC
  5
C1A
330
18
100
AcDbEntity
  8
1
 62
     4
100
AcDbCircle
 10
64.36006847153071
 20
-9.86842428691825
 30
0.0
 40
0.6558999353674804
100
AcDbArc
 50
94.33381607116784
 51
107.7475411081574
  0
LINE
  5
C1B
330
18
100
AcDbEntity
  8
1
 62
     4
100
AcDbLine
 10
41.84572150592932
 20
7.463363311631606
 30
0.0
 11
41.3897602668842
 21
7.609376407531906
 31
0.0
  0
LINE
  5
C1C
330
18
100
AcDbEntity
  8
1
 62
     4
100
AcDbLine
 10
42.39130870863125
 20
9.454992313656042
 30
0.0
 11
42.39130870863125
 21
7.077384572548914
 31
0.0
  0
LINE
  5
C1D
330
18
100
AcDbEntity
  8
1
 62
     4
100
AcDbLine
 10
41.38977387016634
 20
9.706970230036434
 30
0.0
 11
41.38977387016634
 21
7.609369700134588
 31
0.0
  0
LINE
  5
C1E
330
18
100
AcDbEntity
  8
1
 62
     4
100
AcDbLine
 10
42.39130870863125
 20
9.454992313656042
 30
0.0
 11
42.13530590407238
 21
9.232521751118603
 31
0.0
  0
LINE
  5
C1F
330
18
100
AcDbEntity
  8
1
 62
     4
100
AcDbLine
 10
41.38977387016634
 20
9.706970230036434
 30
0.0
 11
41.87154688202652
 21
9.291109373996617
 31
0.0
  0
ARC
  5
C20
330
18
100
AcDbEntity
  8
1
 62
     4
100
AcDbCircle
 10
42.04795893312174
 20
9.462299191039081
 30
0.0
 40
0.2458193752141046
100
AcDbArc
 50
224.1392754477617
 51
290.8136637753667
  0
LINE
  5
C21
330
18
100
AcDbEntity
  8
1
 62
     4
100
AcDbLine
 10
42.39130870863125
 20
7.077384572548914
 30
0.0
 11
42.09881075740538
 21
7.305029409842846
 31
0.0
  0
ARC
  5
C22
330
18
100
AcDbEntity
  8
1
 62
     4
100
AcDbCircle
 10
41.45774062065725
 20
6.561751672797853
 30
0.0
 40
0.9815460837968698
100
AcDbArc
 50
49.22253571214655
 51
66.716857459533
  0
LINE
  5
C23
330
18
100
AcDbEntity
  8
1
 62
     4
100
AcDbLine
 10
41.38976961728181
 20
-2.365811846859201
 30
0.0
 11
41.38977355054016
 21
-6.452086426977918
 31
0.0
  0
LINE
  5
C24
330
18
100
AcDbEntity
  8
1
 62
     4
100
AcDbLine
 10
42.39130870863127
 20
-3.067046838045528
 30
0.0
 11
42.39130870863125
 21
-7.028781608571785
 31
0.0
  0
LINE
  5
C25
330
18
100
AcDbEntity
  8
1
 62
     4
100
AcDbLine
 10
41.4150273396815
 20
-9.703823026242432
 30
0.0
 11
41.96155352447346
 21
-9.482108876853564
 31
0.0
  0
LINE
  5
C26
330
18
100
AcDbEntity
  8
1
 62
     4
100
AcDbLine
 10
42.41656217814642
 20
-9.452769275712899
 30
0.0
 11
42.11192263272858
 21
-9.452769275712899
 31
0.0
  0
ARC
  5
C27
330
18
100
AcDbEntity
  8
1
 62
     4
100
AcDbCircle
 10
42.16148718985849
 20
-10.10679380116403
 30
0.0
 40
0.6558999353674804
100
AcDbArc
 50
94.33381607116766
 51
107.7475411081574
  0
LINE
  5
CD2
330
18
100
AcDbEntity
  8
SK1
100
AcDbLine
 10
-31.0
 20
-7.163689925426503
 30
0.0
 11
-20.0
 21
-7.163689925426503
 31
0.0
  0
LINE
  5
CD8
330
18
100
AcDbEntity
  8
SK1
100
AcDbLine
 10
-20.0
 20
-7.163689925426714
 30
0.0
 11
-20.0
 21
7.119166931659417
 31
0.0
  0
LINE
  5
CD9
330
18
100
AcDbEntity
  8
SK1
100
AcDbLine
 10
-20.0
 20
7.119166931659417
 30
0.0
 11
-19.65508876866476
 21
6.770375023720721
 31
0.0
  0
LINE
  5
CDA
330
18
100
AcDbEntity
  8
SK1
100
AcDbLine
 10
-19.65508876866476
 20
6.770375023720721
 30
0.0
 11
-19.32509165246796
 21
6.402292727823377
 31
0.0
  0
LINE
  5
CDB
330
18
100
AcDbEntity
  8
SK1
100
AcDbLine
 10
-19.32509165246796
 20
6.402292727823377
 30
0.0
 11
-19.01160860438952
 21
6.015829542397574
 31
0.0
  0
LINE
  5
CDC
330
18
100
AcDbEntity
  8
SK1
100
AcDbLine
 10
-19.01160860438952
 20
6.015829542397574
 30
0.0
 11
-18.7161633425437
 21
5.612060930287856
 31
0.0
  0
LINE
  5
CDD
330
18
100
AcDbEntity
  8
SK1
100
AcDbLine
 10
-18.7161633425437
 20
5.612060930287856
 30
0.0
 11
-18.4401814790137
 21
5.192220507595695
 31
0.0
  0
LINE
  5
CDE
330
18
100
AcDbEntity
  8
SK1
100
AcDbLine
 10
-18.4401814790137
 20
5.192220507595695
 30
0.0
 11
-18.18496968086412
 21
4.757688933127385
 31
0.0
  0
LINE
  5
CDF
330
18
100
AcDbEntity
  8
SK1
100
AcDbLine
 10
-18.18496968086412
 20
4.757688933127385
 30
0.0
 11
-17.95169645954188
 21
4.309979662537609
 31
0.0
  0
LINE
  5
CE0
330
18
100
AcDbEntity
  8
SK1
100
AcDbLine
 10
-17.95169645954188
 20
4.309979662537609
 30
0.0
 11
-17.74137515122828
 21
3.850721849323906
 31
0.0
  0
LINE
  5
CE1
330
18
100
AcDbEntity
  8
SK1
100
AcDbLine
 10
-17.74137515122828
 20
3.850721849323906
 30
0.0
 11
-17.55484959002743
 21
3.381640784727589
 31
0.0
  0
LINE
  5
CE2
330
18
100
AcDbEntity
  8
SK1
100
AcDbLine
 10
-17.55484959002743
 20
3.381640784727589
 30
0.0
 11
-17.39278289060445
 21
2.904536363761438
 31
0.0
  0
LINE
  5
CE3
330
18
100
AcDbEntity
  8
SK1
100
AcDbLine
 10
-17.39278289060445
 20
2.904536363761438
 30
0.0
 11
-17.25564965123428
 21
2.421260139239056
 31
0.0
  0
LINE
  5
CE4
330
18
100
AcDbEntity
  8
SK1
100
AcDbLine
 10
-17.25564965123428
 20
2.421260139239056
 30
0.0
 11
-17.1437317679123
 21
1.933691575346774
 31
0.0
  0
LINE
  5
CE5
330
18
100
AcDbEntity
  8
SK1
100
AcDbLine
 10
-17.1437317679123
 20
1.933691575346774
 30
0.0
 11
-17.0571179219695
 21
1.443714134185331
 31
0.0
  0
LINE
  5
CE6
330
18
100
AcDbEntity
  8
SK1
100
AcDbLine
 10
-17.0571179219695
 20
1.443714134185331
 30
0.0
 11
-16.99570667478513
 21
0.9531918219367323
 31
0.0
  0
LINE
  5
CE7
330
18
100
AcDbEntity
  8
SK1
100
AcDbLine
 10
-16.99570667478513
 20
0.9531918219367323
 30
0.0
 11
-16.95921298085043
 21
0.4639467869635661
 31
0.0
  0
LINE
  5
CE8
330
18
100
AcDbEntity
  8
SK1
100
AcDbLine
 10
-16.95921298085043
 20
0.4639467869635661
 30
0.0
 11
-16.94717782108338
 21
-0.022261496883653
 31
0.0
  0
LINE
  5
CE9
330
18
100
AcDbEntity
  8
SK1
100
AcDbLine
 10
-16.94717782108338
 20
-0.022261496883653
 30
0.0
 11
-16.9592129808504
 21
-0.5084697807308578
 31
0.0
  0
LINE
  5
CEA
330
18
100
AcDbEntity
  8
SK1
100
AcDbLine
 10
-16.9592129808504
 20
-0.5084697807308578
 30
0.0
 11
-16.99570667478511
 21
-0.9977148157040383
 31
0.0
  0
LINE
  5
CEB
330
18
100
AcDbEntity
  8
SK1
100
AcDbLine
 10
-16.99570667478511
 20
-0.9977148157040383
 30
0.0
 11
-17.0571179219695
 21
-1.488237127952638
 31
0.0
  0
LINE
  5
CEC
330
18
100
AcDbEntity
  8
SK1
100
AcDbLine
 10
-17.0571179219695
 20
-1.488237127952638
 30
0.0
 11
-17.1437317679123
 21
-1.97821456911408
 31
0.0
  0
LINE
  5
CED
330
18
100
AcDbEntity
  8
SK1
100
AcDbLine
 10
-17.1437317679123
 20
-1.97821456911408
 30
0.0
 11
-17.25564965123428
 21
-2.465783133006361
 31
0.0
  0
LINE
  5
CEE
330
18
100
AcDbEntity
  8
SK1
100
AcDbLine
 10
-17.25564965123428
 20
-2.465783133006361
 30
0.0
 11
-17.39278289060445
 21
-2.949059357528743
 31
0.0
  0
LINE
  5
CEF
330
18
100
AcDbEntity
  8
SK1
100
AcDbLine
 10
-17.39278289060445
 20
-2.949059357528743
 30
0.0
 11
-17.55484959002743
 21
-3.426163778494888
 31
0.0
  0
LINE
  5
CF0
330
18
100
AcDbEntity
  8
SK1
100
AcDbLine
 10
-17.55484959002743
 20
-3.426163778494888
 30
0.0
 11
-17.74137515122828
 21
-3.895244843091213
 31
0.0
  0
LINE
  5
CF1
330
18
100
AcDbEntity
  8
SK1
100
AcDbLine
 10
-17.74137515122828
 20
-3.895244843091213
 30
0.0
 11
-17.95169645954188
 21
-4.354502656304922
 31
0.0
  0
LINE
  5
CF2
330
18
100
AcDbEntity
  8
SK1
100
AcDbLine
 10
-17.95169645954188
 20
-4.354502656304922
 30
0.0
 11
-18.1849696808641
 21
-4.80221192689469
 31
0.0
  0
LINE
  5
CF3
330
18
100
AcDbEntity
  8
SK1
100
AcDbLine
 10
-18.1849696808641
 20
-4.80221192689469
 30
0.0
 11
-18.4401814790137
 21
-5.236743501363
 31
0.0
  0
LINE
  5
CF4
330
18
100
AcDbEntity
  8
SK1
100
AcDbLine
 10
-18.4401814790137
 20
-5.236743501363
 30
0.0
 11
-18.7161633425437
 21
-5.656583924055159
 31
0.0
  0
LINE
  5
CF5
330
18
100
AcDbEntity
  8
SK1
100
AcDbLine
 10
-18.7161633425437
 20
-5.656583924055159
 30
0.0
 11
-19.0116086043895
 21
-6.060352536164878
 31
0.0
  0
LINE
  5
CF6
330
18
100
AcDbEntity
  8
SK1
100
AcDbLine
 10
-19.0116086043895
 20
-6.060352536164878
 30
0.0
 11
-19.32509165246794
 21
-6.446815721590686
 31
0.0
  0
LINE
  5
CF7
330
18
100
AcDbEntity
  8
SK1
100
AcDbLine
 10
-19.32509165246794
 20
-6.446815721590686
 30
0.0
 11
-19.65508876866476
 21
-6.814898017488027
 31
0.0
  0
LINE
  5
CF8
330
18
100
AcDbEntity
  8
SK1
100
AcDbLine
 10
-19.65508876866476
 20
-6.814898017488027
 30
0.0
 11
-20.0
 21
-7.163689925426714
 31
0.0
  0
LINE
  5
CF9
330
18
100
AcDbEntity
  8
SK1
100
AcDbLine
 10
-31.0
 20
7.11916693165919
 30
0.0
 11
-20.0
 21
7.11916693165919
 31
0.0
  0
LINE
  5
CFA
330
18
100
AcDbEntity
  8
SK1
100
AcDbLine
 10
-31.0
 20
-7.163689925426656
 30
0.0
 11
-31.0
 21
7.119166931659347
 31
0.0
  0
LINE
  5
CFB
330
18
100
AcDbEntity
  8
SK1
100
AcDbLine
 10
-31.0
 20
7.119166931659347
 30
0.0
 11
-31.34491123133524
 21
6.770375023720651
 31
0.0
  0
LINE
  5
CFC
330
18
100
AcDbEntity
  8
SK1
100
AcDbLine
 10
-31.34491123133524
 20
6.770375023720651
 30
0.0
 11
-31.67490834753206
 21
6.40229272782331
 31
0.0
  0
LINE
  5
CFD
330
18
100
AcDbEntity
  8
SK1
100
AcDbLine
 10
-31.67490834753206
 20
6.40229272782331
 30
0.0
 11
-31.98839139561046
 21
6.015829542397499
 31
0.0
  0
LINE
  5
CFE
330
18
100
AcDbEntity
  8
SK1
100
AcDbLine
 10
-31.98839139561046
 20
6.015829542397499
 30
0.0
 11
-32.28383665745627
 21
5.612060930287791
 31
0.0
  0
LINE
  5
CFF
330
18
100
AcDbEntity
  8
SK1
100
AcDbLine
 10
-32.28383665745627
 20
5.612060930287791
 30
0.0
 11
-32.55981852098624
 21
5.192220507595636
 31
0.0
  0
LINE
  5
D00
330
18
100
AcDbEntity
  8
SK1
100
AcDbLine
 10
-32.55981852098624
 20
5.192220507595636
 30
0.0
 11
-32.81503031913584
 21
4.757688933127329
 31
0.0
  0
LINE
  5
D01
330
18
100
AcDbEntity
  8
SK1
100
AcDbLine
 10
-32.81503031913584
 20
4.757688933127329
 30
0.0
 11
-33.04830354045805
 21
4.309979662537558
 31
0.0
  0
LINE
  5
D02
330
18
100
AcDbEntity
  8
SK1
100
AcDbLine
 10
-33.04830354045805
 20
4.309979662537558
 30
0.0
 11
-33.25862484877166
 21
3.850721849323863
 31
0.0
  0
LINE
  5
D03
330
18
100
AcDbEntity
  8
SK1
100
AcDbLine
 10
-33.25862484877166
 20
3.850721849323863
 30
0.0
 11
-33.4451504099725
 21
3.381640784727553
 31
0.0
  0
LINE
  5
D04
330
18
100
AcDbEntity
  8
SK1
100
AcDbLine
 10
-33.4451504099725
 20
3.381640784727553
 30
0.0
 11
-33.60721710939548
 21
2.904536363761413
 31
0.0
  0
LINE
  5
D05
330
18
100
AcDbEntity
  8
SK1
100
AcDbLine
 10
-33.60721710939548
 20
2.904536363761413
 30
0.0
 11
-33.74435034876564
 21
2.421260139239026
 31
0.0
  0
LINE
  5
D06
330
18
100
AcDbEntity
  8
SK1
100
AcDbLine
 10
-33.74435034876564
 20
2.421260139239026
 30
0.0
 11
-33.8562682320876
 21
1.933691575346754
 31
0.0
  0
LINE
  5
D07
330
18
100
AcDbEntity
  8
SK1
100
AcDbLine
 10
-33.8562682320876
 20
1.933691575346754
 30
0.0
 11
-33.9428820780304
 21
1.443714134185318
 31
0.0
  0
LINE
  5
D08
330
18
100
AcDbEntity
  8
SK1
100
AcDbLine
 10
-33.9428820780304
 20
1.443714134185318
 30
0.0
 11
-34.00429332521478
 21
0.9531918219367183
 31
0.0
  0
LINE
  5
D09
330
18
100
AcDbEntity
  8
SK1
100
AcDbLine
 10
-34.00429332521478
 20
0.9531918219367183
 30
0.0
 11
-34.04078701914948
 21
0.4639467869635519
 31
0.0
  0
LINE
  5
D0A
330
18
100
AcDbEntity
  8
SK1
100
AcDbLine
 10
-34.04078701914948
 20
0.4639467869635519
 30
0.0
 11
-34.05282217891653
 21
-0.022261496883653
 31
0.0
  0
LINE
  5
D0B
330
18
100
AcDbEntity
  8
SK1
100
AcDbLine
 10
-34.05282217891653
 20
-0.022261496883653
 30
0.0
 11
-34.04078701914948
 21
-0.5084697807308578
 31
0.0
  0
LINE
  5
D0C
330
18
100
AcDbEntity
  8
SK1
100
AcDbLine
 10
-34.04078701914948
 20
-0.5084697807308578
 30
0.0
 11
-34.00429332521478
 21
-0.997714815704024
 31
0.0
  0
LINE
  5
D0D
330
18
100
AcDbEntity
  8
SK1
100
AcDbLine
 10
-34.00429332521478
 20
-0.997714815704024
 30
0.0
 11
-33.9428820780304
 21
-1.488237127952623
 31
0.0
  0
LINE
  5
D0E
330
18
100
AcDbEntity
  8
SK1
100
AcDbLine
 10
-33.9428820780304
 20
-1.488237127952623
 30
0.0
 11
-33.8562682320876
 21
-1.978214569114051
 31
0.0
  0
LINE
  5
D0F
330
18
100
AcDbEntity
  8
SK1
100
AcDbLine
 10
-33.8562682320876
 20
-1.978214569114051
 30
0.0
 11
-33.74435034876564
 21
-2.465783133006318
 31
0.0
  0
LINE
  5
D10
330
18
100
AcDbEntity
  8
SK1
100
AcDbLine
 10
-33.74435034876564
 20
-2.465783133006318
 30
0.0
 11
-33.60721710939548
 21
-2.949059357528701
 31
0.0
  0
LINE
  5
D11
330
18
100
AcDbEntity
  8
SK1
100
AcDbLine
 10
-33.60721710939548
 20
-2.949059357528701
 30
0.0
 11
-33.4451504099725
 21
-3.426163778494843
 31
0.0
  0
LINE
  5
D12
330
18
100
AcDbEntity
  8
SK1
100
AcDbLine
 10
-33.4451504099725
 20
-3.426163778494843
 30
0.0
 11
-33.25862484877166
 21
-3.895244843091154
 31
0.0
  0
LINE
  5
D13
330
18
100
AcDbEntity
  8
SK1
100
AcDbLine
 10
-33.25862484877166
 20
-3.895244843091154
 30
0.0
 11
-33.04830354045805
 21
-4.354502656304853
 31
0.0
  0
LINE
  5
D14
330
18
100
AcDbEntity
  8
SK1
100
AcDbLine
 10
-33.04830354045805
 20
-4.354502656304853
 30
0.0
 11
-32.81503031913584
 21
-4.802211926894633
 31
0.0
  0
LINE
  5
D15
330
18
100
AcDbEntity
  8
SK1
100
AcDbLine
 10
-32.81503031913584
 20
-4.802211926894633
 30
0.0
 11
-32.55981852098627
 21
-5.236743501362931
 31
0.0
  0
LINE
  5
D16
330
18
100
AcDbEntity
  8
SK1
100
AcDbLine
 10
-32.55981852098627
 20
-5.236743501362931
 30
0.0
 11
-32.28383665745627
 21
-5.656583924055092
 31
0.0
  0
LINE
  5
D17
330
18
100
AcDbEntity
  8
SK1
100
AcDbLine
 10
-32.28383665745627
 20
-5.656583924055092
 30
0.0
 11
-31.98839139561048
 21
-6.060352536164803
 31
0.0
  0
LINE
  5
D18
330
18
100
AcDbEntity
  8
SK1
100
AcDbLine
 10
-31.98839139561048
 20
-6.060352536164803
 30
0.0
 11
-31.67490834753206
 21
-6.446815721590605
 31
0.0
  0
LINE
  5
D19
330
18
100
AcDbEntity
  8
SK1
100
AcDbLine
 10
-31.67490834753206
 20
-6.446815721590605
 30
0.0
 11
-31.34491123133524
 21
-6.814898017487957
 31
0.0
  0
LINE
  5
D1A
330
18
100
AcDbEntity
  8
SK1
100
AcDbLine
 10
-31.34491123133524
 20
-6.814898017487957
 30
0.0
 11
-31.00000000000003
 21
-7.163689925426647
 31
0.0
  0
LINE
  5
DA9
330
18
100
AcDbEntity
  8
1
 62
     4
100
AcDbLine
 10
19.16593432414972
 20
-1.019335294522431
 30
0.0
 11
19.16593849932285
 21
-5.356935928807255
 31
0.0
  0
LINE
  5
DAA
330
18
100
AcDbEntity
  8
1
 62
     4
100
AcDbLine
 10
20.1674739574439
 20
-1.75882118734068
 30
0.0
 11
20.16747395744387
 21
-5.977245758574534
 31
0.0
  0
LINE
  5
DAB
330
18
100
AcDbEntity
  8
1
 62
     4
100
AcDbLine
 10
19.63188690313989
 20
8.310922402133702
 30
0.0
 11
19.16592503392534
 21
8.420922457242896
 31
0.0
  0
LINE
  5
DAC
330
18
100
AcDbEntity
  8
1
 62
     4
100
AcDbLine
 10
20.16747395744387
 20
9.84071144138616
 30
0.0
 11
20.16747395744387
 21
7.9929354822482
 31
0.0
  0
LINE
  5
DAD
330
18
100
AcDbEntity
  8
1
 62
     4
100
AcDbLine
 10
19.16593911897896
 20
9.943216207896963
 30
0.0
 11
19.16593911897896
 21
8.420916831433784
 31
0.0
  0
LINE
  5
DAE
330
18
100
AcDbEntity
  8
1
 62
     4
100
AcDbLine
 10
20.16747395744387
 20
9.840711441386162
 30
0.0
 11
19.97939962094645
 21
9.600954719250687
 31
0.0
  0
LINE
  5
DAF
330
18
100
AcDbEntity
  8
1
 62
     4
100
AcDbLine
 10
19.16593911897894
 20
9.943216207896963
 30
0.0
 11
19.70955357352092
 21
9.614535660083806
 31
0.0
  0
ARC
  5
DB0
330
18
100
AcDbEntity
  8
1
 62
     4
100
AcDbCircle
 10
19.85479949074192
 20
9.812855575274618
 30
0.0
 40
0.2458193752141046
100
AcDbArc
 50
233.7816274548932
 51
300.4560157824982
  0
LINE
  5
DB1
330
18
100
AcDbEntity
  8
1
 62
     4
100
AcDbLine
 10
20.16747395744387
 20
7.9929354822482
 30
0.0
 11
19.89655607967836
 21
8.17281367446302
 31
0.0
  0
ARC
  5
DB2
330
18
100
AcDbEntity
  8
1
 62
     4
100
AcDbCircle
 10
19.31542017421226
 20
7.381792957923252
 30
0.0
 40
0.9815460837968698
100
AcDbArc
 50
53.69654588629583
 51
71.1908676336823
  0
LINE
  5
F1D
330
18
100
AcDbEntity
  8
1
 62
     4
100
AcDbLine
 10
94.99999999999998
 20
-9.76291715792272
 30
0.0
 11
94.75020185592113
 21
-10.00287289514419
 31
0.0
  0
LINE
  5
F27
330
18
100
AcDbEntity
  8
1
 62
     4
100
AcDbLine
 10
94.99999999999996
 20
-8.580079424762176
 30
0.0
 11
94.75020185592113
 21
-8.820035161983648
 31
0.0
  0
LINE
  5
F45
330
18
100
AcDbEntity
  8
1
 62
     4
100
AcDbLine
 10
94.99999999999998
 20
9.758841189395226
 30
0.0
 11
94.75027119332287
 21
9.997199749809542
 31
0.0
  0
ENDSEC
  0
SECTION
  2
OBJECTS
  0
DICTIONARY
  5
C
330
0
100
AcDbDictionary
281
     1
  3
ACAD_2007HEADERVARS_RT
350
1081
  3
ACAD_CIP_PREVIOUS_PRODUCT_INFO
350
58A
  3
ACAD_COLOR
350
387
  3
ACAD_DETAILVIEWSTYLE
350
584
  3
ACAD_FIELDLIST
350
655
  3
ACAD_GROUP
350
D
  3
ACAD_LAYOUT
350
301
  3
ACAD_MATERIAL
350
386
  3
ACAD_MLEADERSTYLE
350
548
  3
ACAD_MLINESTYLE
350
E
  3
ACAD_PLOTSETTINGS
350
302
  3
ACAD_PLOTSTYLENAME
350
2FF
  3
ACAD_SCALELIST
350
3A0
  3
ACAD_SECTIONVIEWSTYLE
350
582
  3
ACAD_TABLESTYLE
350
388
  3
ACAD_VISUALSTYLE
350
567
  3
ACDB_RECOMPOSE_DATA
350
1080
  3
AcDbVariableDictionary
350
357
  3
AcmDictionary
350
61F
  3
AMG
350
5F5
  3
AMGSNAPSETTINGS
350
66B
  0
DICTIONARY
  5
D20
330
2
100
AcDbDictionary
280
     1
281
     1
  3
ACAD_LAYERSTATES
360
D21
  0
DICTIONARY
  5
58D
330
F
100
AcDbDictionary
280
     1
281
     1
  3
ADSK_XREC_LAYER_RECONCILED
360
58E
  0
DICTIONARY
  5
58F
330
23
100
AcDbDictionary
280
     1
281
     1
  3
ADSK_XREC_LAYER_RECONCILED
360
590
  0
DICTIONARY
  5
591
330
24
100
AcDbDictionary
280
     1
281
     1
  3
ADSK_XREC_LAYER_RECONCILED
360
592
  0
DICTIONARY
  5
593
330
25
100
AcDbDictionary
280
     1
281
     1
  3
ADSK_XREC_LAYER_RECONCILED
360
594
  0
DICTIONARY
  5
595
330
26
100
AcDbDictionary
280
     1
281
     1
  3
ADSK_XREC_LAYER_RECONCILED
360
596
  0
DICTIONARY
  5
597
330
27
100
AcDbDictionary
280
     1
281
     1
  3
ADSK_XREC_LAYER_RECONCILED
360
598
  0
DICTIONARY
  5
599
330
28
100
AcDbDictionary
280
     1
281
     1
  3
ADSK_XREC_LAYER_RECONCILED
360
59A
  0
DICTIONARY
  5
59B
330
29
100
AcDbDictionary
280
     1
281
     1
  3
ADSK_XREC_LAYER_RECONCILED
360
59C
  0
DICTIONARY
  5
59D
330
2A
100
AcDbDictionary
280
     1
281
     1
  3
ADSK_XREC_LAYER_RECONCILED
360
59E
  0
DICTIONARY
  5
59F
330
2B
100
AcDbDictionary
280
     1
281
     1
  3
ADSK_XREC_LAYER_RECONCILED
360
5A0
  0
DICTIONARY
  5
5A1
330
2C
100
AcDbDictionary
280
     1
281
     1
  3
ADSK_XREC_LAYER_RECONCILED
360
5A2
  0
DICTIONARY
  5
5A3
330
2D
100
AcDbDictionary
280
     1
281
     1
  3
ADSK_XREC_LAYER_RECONCILED
360
5A4
  0
DICTIONARY
  5
5A5
330
2E
100
AcDbDictionary
280
     1
281
     1
  3
ADSK_XREC_LAYER_RECONCILED
360
5A6
  0
DICTIONARY
  5
5A7
330
375
100
AcDbDictionary
280
     1
281
     1
  3
ADSK_XREC_LAYER_RECONCILED
360
5A8
  0
DICTIONARY
  5
5A9
330
376
100
AcDbDictionary
280
     1
281
     1
  3
ADSK_XREC_LAYER_RECONCILED
360
5AA
  0
DICTIONARY
  5
B89
330
18
100
AcDbDictionary
280
     1
281
     1
  3
ACAD_SORTENTS
360
B8A
  0
DICTIONARY
  5
1081
102
{ACAD_REACTORS
330
C
102
}
330
C
100
AcDbDictionary
281
     1
  3
DIMARCSYM
350
1082
  3
DIMLTEX1
350
1084
  3
DIMLTEX2
350
1085
  3
DIMLTYPE
350
1083
  0
XRECORD
  5
58A
102
{ACAD_REACTORS
330
C
102
}
330
C
100
AcDbXrecord
280
     1
300
AMECH_PP
300
2014
300
86132PDSS_2014_0F
  0
DICTIONARY
  5
387
102
{ACAD_REACTORS
330
C
102
}
330
C
100
AcDbDictionary
281
     1
  0
DICTIONARY
  5
584
102
{ACAD_REACTORS
330
C
102
}
330
C
100
AcDbDictionary
281
     1
  3
Metric50
350
585
  0
FIELDLIST
  5
655
102
{ACAD_REACTORS
330
C
102
}
330
C
100
AcDbIdSet
 90
        0
100
AcDbFieldList
  0
DICTIONARY
  5
D
102
{ACAD_REACTORS
330
C
102
}
330
C
100
AcDbDictionary
281
     1
  0
DICTIONARY
  5
301
102
{ACAD_REACTORS
330
C
102
}
330
C
100
AcDbDictionary
281
     1
  3
Layout1
350
33B
  3
Model
350
303
  0
DICTIONARY
  5
386
102
{ACAD_REACTORS
330
C
102
}
330
C
100
AcDbDictionary
281
     1
  3
ByBlock
350
557
  3
ByLayer
350
54F
  3
Global
350
55F
  0
DICTIONARY
  5
548
102
{ACAD_REACTORS
330
C
102
}
330
C
100
AcDbDictionary
281
     1
  3
Standard
350
581
  0
DICTIONARY
  5
E
102
{ACAD_REACTORS
330
C
102
}
330
C
100
AcDbDictionary
281
     1
  3
STANDARD
350
1B
  0
DICTIONARY
  5
302
102
{ACAD_REACTORS
330
C
102
}
330
C
100
AcDbDictionary
281
     1
  0
ACDBDICTIONARYWDFLT
  5
2FF
102
{ACAD_REACTORS
330
C
102
}
330
C
100
AcDbDictionary
281
     1
  3
Normal
350
300
100
AcDbDictionaryWithDefault
340
300
  0
DICTIONARY
  5
3A0
102
{ACAD_REACTORS
330
C
102
}
330
C
100
AcDbDictionary
281
     1
  3
A0
350
3A1
  3
A1
350
3A2
  3
A2
350
3A3
  3
A3
350
3A4
  3
A4
350
3A5
  3
A5
350
3A6
  3
A6
350
3A7
  3
A7
350
3A8
  3
A8
350
3A9
  3
A9
350
3AA
  3
B0
350
3AB
  3
B1
350
3AC
  3
B2
350
3AD
  3
B3
350
3AE
  3
B4
350
3AF
  3
B5
350
3B0
  3
B6
350
3B1
  3
B7
350
3B2
  3
B8
350
3B3
  3
B9
350
3B4
  3
C0
350
3B5
  3
C1
350
3B6
  3
C2
350
3B7
  3
C3
350
3B8
  3
C4
350
3B9
  3
C5
350
3BA
  3
C6
350
3BB
  3
C7
350
3BC
  3
C8
350
3BD
  3
C9
350
3BE
  3
D0
350
3BF
  3
D1
350
3C0
  3
D2
350
3C1
  0
DICTIONARY
  5
582
102
{ACAD_REACTORS
330
C
102
}
330
C
100
AcDbDictionary
281
     1
  3
Metric50
350
583
  0
DICTIONARY
  5
388
102
{ACAD_REACTORS
330
C
102
}
330
C
100
AcDbDictionary
281
     1
  3
Standard
350
580
  0
DICTIONARY
  5
567
102
{ACAD_REACTORS
330
C
102
}
330
C
100
AcDbDictionary
281
     1
  3
2dWireframe
350
56D
  3
Basic
350
56C
  3
Brighten
350
573
  3
ColorChange
350
577
  3
Conceptual
350
570
  3
Dim
350
572
  3
EdgeColorOff
350
57F
  3
Facepattern
350
576
  3
Flat
350
568
  3
FlatWithEdges
350
569
  3
Gouraud
350
56A
  3
GouraudWithEdges
350
56B
  3
Hidden
350
56F
  3
JitterOff
350
57D
  3
Linepattern
350
575
  3
OverhangOff
350
57E
  3
Realistic
350
571
  3
Shaded
350
57C
  3
Shaded with edges
350
57B
  3
Shades of Gray
350
578
  3
Sketchy
350
579
  3
Thicken
350
574
  3
Wireframe
350
56E
  3
X-Ray
350
57A
  0
XRECORD
  5
1080
102
{ACAD_REACTORS
330
C
102
}
330
C
100
AcDbXrecord
280
     1
 90
        1
330
580
  0
DICTIONARY
  5
357
102
{ACAD_REACTORS
330
C
102
}
330
C
100
AcDbDictionary
281
     1
  3
CANNOSCALE
350
549
  3
CMLEADERSTYLE
350
5AB
  3
CTABLESTYLE
350
38D
  3
CVIEWDETAILSTYLE
350
5AC
  3
CVIEWSECTIONSTYLE
350
5AD
  3
DIMASSOC
350
359
  3
HIDETEXT
350
358
  3
INDEXCTL
350
5AF
  3
LAYEREVAL
350
D43
  3
LAYERNOTIFY
350
D44
  3
LIGHTINGUNITS
350
D42
  3
MSLTSCALE
350
D41
  3
PROJECTNAME
350
38E
  3
SORTENTS
350
5AE
  3
XCLIPFRAME
350
107E
  0
DICTIONARY
  5
61F
102
{ACAD_REACTORS
330
C
102
}
330
C
100
AcDbDictionary
281
     1
  3
AcmStdDictionary
350
626
  0
DICTIONARY
  5
5F5
102
{ACAD_REACTORS
330
C
102
}
330
C
100
AcDbDictionary
281
     1
  0
DICTIONARY
  5
66B
102
{ACAD_REACTORS
330
C
102
}
330
C
100
AcDbDictionary
281
     1
  0
DICTIONARY
  5
D21
102
{ACAD_REACTORS
330
D20
102
}
330
D20
100
AcDbDictionary
281
     1
  0
XRECORD
  5
58E
102
{ACAD_REACTORS
330
58D
102
}
330
58D
100
AcDbXrecord
280
     1
290
     1
  0
XRECORD
  5
590
102
{ACAD_REACTORS
330
58F
102
}
330
58F
100
AcDbXrecord
280
     1
290
     1
  0
XRECORD
  5
592
102
{ACAD_REACTORS
330
591
102
}
330
591
100
AcDbXrecord
280
     1
290
     1
  0
XRECORD
  5
594
102
{ACAD_REACTORS
330
593
102
}
330
593
100
AcDbXrecord
280
     1
290
     1
  0
XRECORD
  5
596
102
{ACAD_REACTORS
330
595
102
}
330
595
100
AcDbXrecord
280
     1
290
     1
  0
XRECORD
  5
598
102
{ACAD_REACTORS
330
597
102
}
330
597
100
AcDbXrecord
280
     1
290
     1
  0
XRECORD
  5
59A
102
{ACAD_REACTORS
330
599
102
}
330
599
100
AcDbXrecord
280
     1
290
     1
  0
XRECORD
  5
59C
102
{ACAD_REACTORS
330
59B
102
}
330
59B
100
AcDbXrecord
280
     1
290
     1
  0
XRECORD
  5
59E
102
{ACAD_REACTORS
330
59D
102
}
330
59D
100
AcDbXrecord
280
     1
290
     1
  0
XRECORD
  5
5A0
102
{ACAD_REACTORS
330
59F
102
}
330
59F
100
AcDbXrecord
280
     1
290
     1
  0
XRECORD
  5
5A2
102
{ACAD_REACTORS
330
5A1
102
}
330
5A1
100
AcDbXrecord
280
     1
290
     1
  0
XRECORD
  5
5A4
102
{ACAD_REACTORS
330
5A3
102
}
330
5A3
100
AcDbXrecord
280
     1
290
     1
  0
XRECORD
  5
5A6
102
{ACAD_REACTORS
330
5A5
102
}
330
5A5
100
AcDbXrecord
280
     1
290
     1
  0
XRECORD
  5
5A8
102
{ACAD_REACTORS
330
5A7
102
}
330
5A7
100
AcDbXrecord
280
     1
290
     1
  0
XRECORD
  5
5AA
102
{ACAD_REACTORS
330
5A9
102
}
330
5A9
100
AcDbXrecord
280
     1
290
     1
  0
SORTENTSTABLE
  5
B8A
102
{ACAD_REACTORS
330
B89
102
}
330
B89
100
AcDbSortentsTable
330
18
331
DB0
  5
DB2
331
DAC
  5
DAE
331
A34
  5
A35
331
9F5
  5
9F6
331
A30
  5
A31
331
A6F
  5
A73
331
4F6
  5
4F6
331
4F2
  5
4F2
331
9F1
  5
9F2
331
A2C
  5
A2D
331
A6B
  5
A6D
331
A28
  5
A29
331
AAE
  5
AB4
331
AAA
  5
AAC
331
CEF
  5
CF1
331
AA6
  5
AA8
331
AE5
  5
AE7
331
AE1
  5
AE3
331
CEB
  5
CED
331
AA2
  5
AA4
331
D18
  5
D1A
331
A67
  5
A69
331
9ED
  5
9EE
331
D14
  5
D16
331
D10
  5
D12
331
A24
  5
A25
331
A63
  5
A65
331
43A
  5
43A
331
9E9
  5
9EA
331
9E5
  5
9E6
331
A20
  5
A21
331
A5F
  5
A61
331
9E1
  5
9E2
331
A1C
  5
A1D
331
A5B
  5
A5D
331
A18
  5
A19
331
A9E
  5
AA0
331
ADD
  5
ADF
331
CE7
  5
CE9
331
52D
  5
52D
331
AD9
  5
ADB
331
CE3
  5
CE5
331
CDF
  5
CE1
331
A96
  5
A98
331
AD5
  5
ADA
331
BF8
  5
C01
331
AD1
  5
AD3
331
BF4
  5
BF8
331
CDB
  5
CDD
331
A92
  5
A94
331
BF0
  5
BF3
331
D0C
  5
D0E
331
D08
  5
D0A
331
A57
  5
A58
331
9DD
  5
9DE
331
D04
  5
D06
331
D00
  5
D02
331
A53
  5
A54
331
3DA
  5
3DA
331
9D9
  5
9DA
331
A14
  5
A15
331
9D5
  5
9D6
331
A4F
  5
A50
331
3D6
  5
3D6
331
3D2
  5
3D2
331
9D1
  5
9D2
331
A0C
  5
A0D
331
A4B
  5
A4C
331
A08
  5
A09
331
ACD
  5
ACF
331
A8E
  5
A90
331
AC9
  5
ACB
331
C27
  5
CD8
331
A86
  5
A88
331
AC5
  5
AC7
331
BE0
  5
BF0
331
C23
  5
C25
331
A82
  5
A84
331
AC1
  5
AC3
331
BD8
  5
BDD
331
F27
  5
F45
331
CFC
  5
CFE
331
CF8
  5
CFA
331
3CE
  5
3CE
331
9CD
  5
9CE
331
CF4
  5
CF6
331
A47
  5
A48
331
CF0
  5
CF2
331
A43
  5
A44
331
9C9
  5
9CA
331
A04
  5
A05
331
9C5
  5
9C5
331
A00
  5
A01
331
A3F
  5
A40
331
3C6
  5
3C6
331
9FC
  5
9FD
331
A3B
  5
A3C
331
3C2
  5
3C2
331
9F8
  5
9F9
331
ABD
  5
ABF
331
C1F
  5
C21
331
A7E
  5
A80
331
A7A
  5
A7C
331
AB9
  5
ABB
331
AF4
  5
AFF
331
C1B
  5
C1D
331
C17
  5
C19
331
A76
  5
A78
331
AB5
  5
AB7
331
AF0
  5
AF2
331
AEC
  5
AEE
331
C13
  5
C15
331
AE8
  5
AEB
331
DAF
  5
DB1
331
DAB
  5
DAD
331
A37
  5
A38
331
A33
  5
A34
331
9F4
  5
9F5
331
A2F
  5
A30
331
A6E
  5
A70
331
4F5
  5
4F5
331
4F1
  5
4F1
331
9F0
  5
9F1
331
A2B
  5
A2C
331
A6A
  5
A6C
331
AAD
  5
AAF
331
C0F
  5
C11
331
B00
  5
BD9
331
AA9
  5
AAB
331
CEE
  5
CF0
331
AA5
  5
AA7
331
AE4
  5
AE6
331
AE0
  5
AE2
331
CEA
  5
CEC
331
AA1
  5
AA3
331
D17
  5
D19
331
D13
  5
D15
331
A66
  5
A68
331
9EC
  5
9ED
331
A27
  5
A28
331
A23
  5
A24
331
A62
  5
A64
331
439
  5
439
331
9E8
  5
9E9
331
9E4
  5
9E5
331
A1F
  5
A20
331
A5E
  5
A60
331
9E0
  5
9E1
331
A1B
  5
A1C
331
A5A
  5
A5C
331
A9D
  5
A9F
331
ADC
  5
ADE
331
CE6
  5
CE8
331
CE2
  5
CE4
331
A99
  5
A9C
331
CDE
  5
CE0
331
A95
  5
A97
331
AD4
  5
AD9
331
AD0
  5
AD2
331
BF3
  5
BF5
331
CDA
  5
CDC
331
A91
  5
A93
331
D0F
  5
D11
331
D0B
  5
D0D
331
D07
  5
D09
331
A56
  5
A57
331
9DC
  5
9DD
331
A17
  5
A18
331
D03
  5
D05
331
A13
  5
A14
331
A52
  5
A53
331
3D9
  5
3D9
331
9D8
  5
9D9
331
A0F
  5
A10
331
A4E
  5
A4F
331
3D5
  5
3D5
331
3D1
  5
3D1
331
9D0
  5
9D1
331
A0B
  5
A0C
331
A4A
  5
A4B
331
520
  5
520
331
A8D
  5
A8F
331
ACC
  5
ACE
331
A89
  5
A8D
331
AC8
  5
ACA
331
CD2
  5
CD9
331
C26
  5
CD2
331
A85
  5
A87
331
AC4
  5
AC6
331
BDF
  5
BE2
331
AC0
  5
AC2
331
C22
  5
C24
331
A81
  5
A83
331
CFF
  5
D01
331
CFB
  5
CFD
331
CF7
  5
CF9
331
A46
  5
A47
331
3CD
  5
3CD
331
9CC
  5
9CD
331
A07
  5
A08
331
CF3
  5
CF5
331
A42
  5
A43
331
3C9
  5
3C9
331
9C8
  5
9C9
331
A03
  5
A04
331
9FF
  5
A00
331
9FB
  5
9FC
331
A3A
  5
A3B
331
ABC
  5
ABE
331
C1E
  5
C20
331
A7D
  5
A7F
331
A79
  5
A7B
331
AB8
  5
ABA
331
AF3
  5
AF5
331
C1A
  5
C1C
331
C16
  5
C18
331
A75
  5
A77
331
AB4
  5
AB6
331
AEF
  5
AF1
331
AEB
  5
AED
331
C12
  5
C14
331
DB2
  5
F27
331
DAE
  5
DB0
331
DAA
  5
DAC
331
A36
  5
A37
331
9F7
  5
9F8
331
A32
  5
A33
331
4F8
  5
4F8
331
4F4
  5
4F4
331
9F3
  5
9F4
331
A2E
  5
A2F
331
A6D
  5
A6F
331
A2A
  5
A2B
331
A69
  5
A6B
331
AAC
  5
AAE
331
C0E
  5
C10
331
AA8
  5
AAA
331
AE7
  5
AE9
331
CED
  5
CEF
331
AA4
  5
AA6
331
AE3
  5
AE5
331
CE9
  5
CEB
331
AA0
  5
AA2
331
D1A
  5
DAA
331
9EF
  5
9F0
331
D16
  5
D18
331
D12
  5
D14
331
A65
  5
A67
331
43C
  5
43C
331
9EB
  5
9EC
331
A26
  5
A27
331
9E7
  5
9E8
331
A22
  5
A23
331
A61
  5
A63
331
9E3
  5
9E4
331
A1E
  5
A1F
331
A5D
  5
A5F
331
AFF
  5
BD8
331
A1A
  5
A1B
331
A59
  5
A5B
331
ADF
  5
AE1
331
A9C
  5
A9E
331
ADB
  5
ADD
331
CE5
  5
CE7
331
CE1
  5
CE3
331
A98
  5
A9B
331
CDD
  5
CDF
331
A94
  5
A96
331
AD3
  5
AD5
331
CD9
  5
CDB
331
A90
  5
A92
331
D0E
  5
D10
331
D0A
  5
D0C
331
F45
  5
A59
331
9DF
  5
9E0
331
D06
  5
D08
331
D02
  5
D04
331
A55
  5
A56
331
9DB
  5
9DC
331
A12
  5
A13
331
A51
  5
A52
331
3D8
  5
3D8
331
9D7
  5
9D8
331
9D3
  5
9D4
331
A0E
  5
A0F
331
A4D
  5
A4E
331
3D4
  5
3D4
331
3D0
  5
3D0
331
A0A
  5
A0B
331
A49
  5
A4A
331
ACF
  5
AD1
331
A8C
  5
A8E
331
ACB
  5
ACD
331
513
  5
513
331
A88
  5
A8C
331
AC7
  5
AC9
331
BE2
  5
BF1
331
C25
  5
C27
331
A84
  5
A86
331
AC3
  5
AC5
331
BDE
  5
BE0
331
C21
  5
C23
331
A80
  5
A82
331
CFE
  5
D00
331
CFA
  5
CFC
331
F1D
  5
9C7
331
9CF
  5
9D0
331
CF6
  5
CF8
331
A45
  5
A46
331
3CC
  5
3CC
331
9CB
  5
9CC
331
A06
  5
A07
331
CF2
  5
CF4
331
A02
  5
A03
331
A41
  5
A42
331
3C8
  5
3C8
331
9C7
  5
9C8
331
9FE
  5
9FF
331
9FA
  5
9FB
331
A39
  5
A3A
331
ABF
  5
AC1
331
A7C
  5
A7E
331
ABB
  5
ABD
331
C1D
  5
C1F
331
A78
  5
A7A
331
AB7
  5
AB9
331
AF2
  5
AF4
331
C19
  5
C1B
331
C15
  5
C17
331
A74
  5
A76
331
AEE
  5
AF0
331
C11
  5
C13
331
A70
  5
A74
331
DB1
  5
F1D
331
DAD
  5
DAF
331
A35
  5
A36
331
DA9
  5
DAB
331
9F6
  5
9F7
331
A31
  5
A32
331
4F7
  5
4F7
331
4F3
  5
4F3
331
9F2
  5
9F3
331
A2D
  5
A2E
331
A6C
  5
A6E
331
A68
  5
A6A
331
A29
  5
A2A
331
AAF
  5
AB5
331
AAB
  5
AAD
331
AA7
  5
AA9
331
AE6
  5
AE8
331
AE2
  5
AE4
331
CEC
  5
CEE
331
AA3
  5
AA5
331
C01
  5
C0F
331
CE8
  5
CEA
331
D19
  5
DA9
331
9EE
  5
9EF
331
D15
  5
D17
331
D11
  5
D13
331
A64
  5
A66
331
43B
  5
43B
331
9EA
  5
9EB
331
A25
  5
A26
331
9E6
  5
9E7
331
A21
  5
A22
331
A60
  5
A62
331
427
  5
427
331
9E2
  5
9E3
331
A1D
  5
A1E
331
A5C
  5
A5E
331
A19
  5
A1A
331
A58
  5
A5A
331
ADE
  5
AE0
331
A9F
  5
AA1
331
A9B
  5
A9D
331
ADA
  5
ADC
331
CE4
  5
CE6
331
CE0
  5
CE2
331
A97
  5
A99
331
BF9
  5
C0E
331
BF5
  5
BF9
331
CDC
  5
CDE
331
A93
  5
A95
331
AD2
  5
AD4
331
BF1
  5
BF4
331
CD8
  5
CDA
331
D0D
  5
D0F
331
D09
  5
D0B
331
9DE
  5
9DF
331
D05
  5
D07
331
D01
  5
D03
331
A54
  5
A55
331
3DB
  5
3DB
331
A15
  5
A17
331
9D6
  5
9D7
331
A11
  5
A12
331
A50
  5
A51
331
3D7
  5
3D7
331
9D2
  5
9D3
331
A0D
  5
A0E
331
A4C
  5
A4D
331
3D3
  5
3D3
331
A09
  5
A0A
331
A48
  5
A49
331
ACE
  5
AD0
331
A8F
  5
A91
331
ACA
  5
ACC
331
A87
  5
A89
331
AC6
  5
AC8
331
BDD
  5
BDF
331
C24
  5
C26
331
A83
  5
A85
331
AC2
  5
AC4
331
BD9
  5
BDE
331
C20
  5
C22
331
CFD
  5
CFF
331
CF9
  5
CFB
331
3CF
  5
3CF
331
9CE
  5
9CF
331
CF5
  5
CF7
331
CF1
  5
CF3
331
A44
  5
A45
331
9CA
  5
9CB
331
A05
  5
A06
331
A01
  5
A02
331
A40
  5
A41
331
3C7
  5
3C7
331
9C6
  5
9C6
331
9FD
  5
9FE
331
A3C
  5
A3F
331
3C3
  5
3C3
331
506
  5
506
331
9F9
  5
9FA
331
A38
  5
A39
331
ABE
  5
AC0
331
A7F
  5
A81
331
A7B
  5
A7D
331
ABA
  5
ABC
331
AF5
  5
B00
331
C1C
  5
C1E
331
C18
  5
C1A
331
A77
  5
A79
331
AB6
  5
AB8
331
AF1
  5
AF3
331
C14
  5
C16
331
A73
  5
A75
331
AED
  5
AEF
331
AE9
  5
AEC
331
C10
  5
C12
  0
XRECORD
  5
1082
102
{ACAD_REACTORS
330
1081
102
}
330
1081
100
AcDbXrecord
280
     1
 70
     1
  0
XRECORD
  5
1084
102
{ACAD_REACTORS
330
1081
102
}
330
1081
100
AcDbXrecord
280
     1
340
12
  0
XRECORD
  5
1085
102
{ACAD_REACTORS
330
1081
102
}
330
1081
100
AcDbXrecord
280
     1
340
12
  0
XRECORD
  5
1083
102
{ACAD_REACTORS
330
1081
102
}
330
1081
100
AcDbXrecord
280
     1
340
12
  0
ACDBDETAILVIEWSTYLE
  5
585
102
{ACAD_XDICTIONARY
360
10B9
102
}
102
{ACAD_REACTORS
330
584
102
}
330
584
100
AcDbModelDocViewStyle
 70
     0
  3
Metric50
290
     0
100
AcDbDetailViewStyle
 70
     0
 71
     0
 90
        3
 71
     1
340
10
 62
   256
 40
5.0
340
0
 62
   256
 40
5.0
300

 40
0.0
280
     1
 71
     2
340
14
 90
       25
 62
   256
 71
     3
340
10
 62
   256
 40
5.0
 90
        0
 40
15.0
 90
        1
300
%<\AcVar ViewDetailId>% (%<\AcVar ViewScale \f "%sn">%)
 71
     4
340
14
 90
       25
 62
   256
340
14
 90
       25
 62
   256
280
     0
  0
LAYOUT
  5
33B
102
{ACAD_REACTORS
330
301
102
}
330
301
100
AcDbPlotSettings
  1

  2
Lexmark Optra PS2
  4

  6

 40
0.0
 41
0.0
 42
0.0
 43
0.0
 44
0.0
 45
0.0
 46
0.0
 47
0.0
 48
0.0
 49
0.0
140
0.0
141
0.0
142
1.0
143
1.0
 70
   688
 72
     0
 73
     0
 74
     5
  7
monochrome.ctb
 75
    16
147
1.0
 76
     0
 77
     2
 78
   300
148
0.0
149
0.0
100
AcDbLayout
  1
Layout1
 70
     1
 71
     1
 10
0.0
 20
0.0
 11
12.0
 21
9.0
 12
0.0
 22
0.0
 32
0.0
 14
0.0
 24
0.0
 34
0.0
 15
0.0
 25
0.0
 35
0.0
146
0.0
 13
0.0
 23
0.0
 33
0.0
 16
1.0
 26
0.0
 36
0.0
 17
0.0
 27
1.0
 37
0.0
 76
     0
330
338
  0
LAYOUT
  5
303
102
{ACAD_REACTORS
330
301
102
}
330
301
100
AcDbPlotSettings
  1

  2
Lexmark Optra Rx
  4
A4
  6

 40
6.805083274841307
 41
5.535083293914794
 42
6.974411010742187
 43
7.14373779296875
 44
209.9733276367186
 45
296.9259948730469
 46
0.0
 47
0.0
 48
0.0
 49
0.0
140
0.0
141
0.0
142
1.0
143
2.976565420630883
 70
 11952
 72
     1
 73
     1
 74
     0
  7
monochrome.ctb
 75
     0
147
0.335957675604539
 76
     0
 77
     2
 78
   300
148
204.1199660668592
149
172.3933209647495
100
AcDbLayout
  1
Model
 70
     1
 71
     0
 10
0.0
 20
0.0
 11
12.0
 21
9.0
 12
0.0
 22
0.0
 32
0.0
 14
0.0
 24
0.0
 34
0.0
 15
0.0
 25
0.0
 35
0.0
146
0.0
 13
0.0
 23
0.0
 33
0.0
 16
1.0
 26
0.0
 36
0.0
 17
0.0
 27
1.0
 37
0.0
 76
     0
330
18
331
39A
  0
MATERIAL
  5
557
102
{ACAD_XDICTIONARY
360
558
102
}
102
{ACAD_REACTORS
330
386
102
}
330
386
100
AcDbMaterial
  1
ByBlock
 72
     0
 43
0.0008202099737533
 43
0.0
 43
0.0
 43
0.0
 43
0.0
 43
0.0008202099737533
 43
0.0
 43
0.0
 43
0.0
 43
0.0
 43
1.0
 43
0.0
 43
0.0
 43
0.0
 43
0.0
 43
1.0
 77
     0
 47
0.0008202099737533
 47
0.0
 47
0.0
 47
0.0
 47
0.0
 47
0.0008202099737533
 47
0.0
 47
0.0
 47
0.0
 47
0.0
 47
1.0
 47
0.0
 47
0.0
 47
0.0
 47
0.0
 47
1.0
171
     0
 49
0.0008202099737533
 49
0.0
 49
0.0
 49
0.0
 49
0.0
 49
0.0008202099737533
 49
0.0
 49
0.0
 49
0.0
 49
0.0
 49
1.0
 49
0.0
 49
0.0
 49
0.0
 49
0.0
 49
1.0
175
     0
142
0.0008202099737533
142
0.0
142
0.0
142
0.0
142
0.0
142
0.0008202099737533
142
0.0
142
0.0
142
0.0
142
0.0
142
1.0
142
0.0
142
0.0
142
0.0
142
0.0
142
1.0
179
     0
144
0.0008202099737533
144
0.0
144
0.0
144
0.0
144
0.0
144
0.0008202099737533
144
0.0
144
0.0
144
0.0
144
0.0
144
1.0
144
0.0
144
0.0
144
0.0
144
0.0
144
1.0
147
0.0008202099737533
147
0.0
147
0.0
147
0.0
147
0.0
147
0.0008202099737533
147
0.0
147
0.0
147
0.0
147
0.0
147
1.0
147
0.0
147
0.0
147
0.0
147
0.0
147
1.0
  0
MATERIAL
  5
54F
102
{ACAD_XDICTIONARY
360
550
102
}
102
{ACAD_REACTORS
330
386
102
}
330
386
100
AcDbMaterial
  1
ByLayer
 72
     0
 43
0.0008202099737533
 43
0.0
 43
0.0
 43
0.0
 43
0.0
 43
0.0008202099737533
 43
0.0
 43
0.0
 43
0.0
 43
0.0
 43
1.0
 43
0.0
 43
0.0
 43
0.0
 43
0.0
 43
1.0
 77
     0
 47
0.0008202099737533
 47
0.0
 47
0.0
 47
0.0
 47
0.0
 47
0.0008202099737533
 47
0.0
 47
0.0
 47
0.0
 47
0.0
 47
1.0
 47
0.0
 47
0.0
 47
0.0
 47
0.0
 47
1.0
171
     0
 49
0.0008202099737533
 49
0.0
 49
0.0
 49
0.0
 49
0.0
 49
0.0008202099737533
 49
0.0
 49
0.0
 49
0.0
 49
0.0
 49
1.0
 49
0.0
 49
0.0
 49
0.0
 49
0.0
 49
1.0
175
     0
142
0.0008202099737533
142
0.0
142
0.0
142
0.0
142
0.0
142
0.0008202099737533
142
0.0
142
0.0
142
0.0
142
0.0
142
1.0
142
0.0
142
0.0
142
0.0
142
0.0
142
1.0
179
     0
144
0.0008202099737533
144
0.0
144
0.0
144
0.0
144
0.0
144
0.0008202099737533
144
0.0
144
0.0
144
0.0
144
0.0
144
1.0
144
0.0
144
0.0
144
0.0
144
0.0
144
1.0
147
0.0008202099737533
147
0.0
147
0.0
147
0.0
147
0.0
147
0.0008202099737533
147
0.0
147
0.0
147
0.0
147
0.0
147
1.0
147
0.0
147
0.0
147
0.0
147
0.0
147
1.0
  0
MATERIAL
  5
55F
102
{ACAD_XDICTIONARY
360
560
102
}
102
{ACAD_REACTORS
330
386
102
}
330
386
100
AcDbMaterial
  1
Global
 72
     0
 43
0.0008202099737533
 43
0.0
 43
0.0
 43
0.0
 43
0.0
 43
0.0008202099737533
 43
0.0
 43
0.0
 43
0.0
 43
0.0
 43
1.0
 43
0.0
 43
0.0
 43
0.0
 43
0.0
 43
1.0
 77
     0
 47
0.0008202099737533
 47
0.0
 47
0.0
 47
0.0
 47
0.0
 47
0.0008202099737533
 47
0.0
 47
0.0
 47
0.0
 47
0.0
 47
1.0
 47
0.0
 47
0.0
 47
0.0
 47
0.0
 47
1.0
171
     0
 49
0.0008202099737533
 49
0.0
 49
0.0
 49
0.0
 49
0.0
 49
0.0008202099737533
 49
0.0
 49
0.0
 49
0.0
 49
0.0
 49
1.0
 49
0.0
 49
0.0
 49
0.0
 49
0.0
 49
1.0
175
     0
142
0.0008202099737533
142
0.0
142
0.0
142
0.0
142
0.0
142
0.0008202099737533
142
0.0
142
0.0
142
0.0
142
0.0
142
1.0
142
0.0
142
0.0
142
0.0
142
0.0
142
1.0
179
     0
144
0.0008202099737533
144
0.0
144
0.0
144
0.0
144
0.0
144
0.0008202099737533
144
0.0
144
0.0
144
0.0
144
0.0
144
1.0
144
0.0
144
0.0
144
0.0
144
0.0
144
1.0
147
0.0008202099737533
147
0.0
147
0.0
147
0.0
147
0.0
147
0.0008202099737533
147
0.0
147
0.0
147
0.0
147
0.0
147
1.0
147
0.0
147
0.0
147
0.0
147
0.0
147
1.0
  0
MLEADERSTYLE
  5
581
102
{ACAD_REACTORS
330
548
102
}
330
548
100
AcDbMLeaderStyle
170
     2
171
     1
172
     0
 90
        2
 40
0.0
 41
0.0
173
     1
 91
-1056964608
340
12
 92
       -2
290
     1
 42
2.0
291
     1
 43
0.36
  3
Standard
 44
4.0
300

342
10
174
     1
178
     6
175
     1
176
     0
 93
-1056964608
 45
4.0
292
     0
297
     0
 46
4.0
 94
-1056964608
 47
1.0
 49
1.0
140
1.0
293
     1
141
0.0
294
     1
177
     0
142
1.0
295
     0
296
     0
143
0.125
1001
ACAD_MLEADERVER
1070
     2
  0
MLINESTYLE
  5
1B
102
{ACAD_REACTORS
330
E
102
}
330
E
100
AcDbMlineStyle
  2
STANDARD
 70
     0
  3

 62
     0
 51
90.0
 52
90.0
 71
     2
 49
0.5
 62
   256
  6
BYLAYER
 49
-0.5
 62
   256
  6
BYLAYER
  0
ACDBPLACEHOLDER
  5
300
102
{ACAD_REACTORS
330
2FF
102
}
330
2FF
  0
SCALE
  5
3A1
102
{ACAD_REACTORS
330
3A0
102
}
330
3A0
100
AcDbScale
 70
     0
300
1:1
140
1.0
141
1.0
290
     1
  0
SCALE
  5
3A2
102
{ACAD_REACTORS
330
3A0
102
}
330
3A0
100
AcDbScale
 70
     0
300
1:2
140
1.0
141
2.0
290
     0
  0
SCALE
  5
3A3
102
{ACAD_REACTORS
330
3A0
102
}
330
3A0
100
AcDbScale
 70
     0
300
1:4
140
1.0
141
4.0
290
     0
  0
SCALE
  5
3A4
102
{ACAD_REACTORS
330
3A0
102
}
330
3A0
100
AcDbScale
 70
     0
300
1:5
140
1.0
141
5.0
290
     0
  0
SCALE
  5
3A5
102
{ACAD_REACTORS
330
3A0
102
}
330
3A0
100
AcDbScale
 70
     0
300
1:8
140
1.0
141
8.0
290
     0
  0
SCALE
  5
3A6
102
{ACAD_REACTORS
330
3A0
102
}
330
3A0
100
AcDbScale
 70
     0
300
1:10
140
1.0
141
10.0
290
     0
  0
SCALE
  5
3A7
102
{ACAD_REACTORS
330
3A0
102
}
330
3A0
100
AcDbScale
 70
     0
300
1:16
140
1.0
141
16.0
290
     0
  0
SCALE
  5
3A8
102
{ACAD_REACTORS
330
3A0
102
}
330
3A0
100
AcDbScale
 70
     0
300
1:20
140
1.0
141
20.0
290
     0
  0
SCALE
  5
3A9
102
{ACAD_REACTORS
330
3A0
102
}
330
3A0
100
AcDbScale
 70
     0
300
1:30
140
1.0
141
30.0
290
     0
  0
SCALE
  5
3AA
102
{ACAD_REACTORS
330
3A0
102
}
330
3A0
100
AcDbScale
 70
     0
300
1:40
140
1.0
141
40.0
290
     0
  0
SCALE
  5
3AB
102
{ACAD_REACTORS
330
3A0
102
}
330
3A0
100
AcDbScale
 70
     0
300
1:50
140
1.0
141
50.0
290
     0
  0
SCALE
  5
3AC
102
{ACAD_REACTORS
330
3A0
102
}
330
3A0
100
AcDbScale
 70
     0
300
1:100
140
1.0
141
100.0
290
     0
  0
SCALE
  5
3AD
102
{ACAD_REACTORS
330
3A0
102
}
330
3A0
100
AcDbScale
 70
     0
300
2:1
140
2.0
141
1.0
290
     0
  0
SCALE
  5
3AE
102
{ACAD_REACTORS
330
3A0
102
}
330
3A0
100
AcDbScale
 70
     0
300
4:1
140
4.0
141
1.0
290
     0
  0
SCALE
  5
3AF
102
{ACAD_REACTORS
330
3A0
102
}
330
3A0
100
AcDbScale
 70
     0
300
8:1
140
8.0
141
1.0
290
     0
  0
SCALE
  5
3B0
102
{ACAD_REACTORS
330
3A0
102
}
330
3A0
100
AcDbScale
 70
     0
300
10:1
140
10.0
141
1.0
290
     0
  0
SCALE
  5
3B1
102
{ACAD_REACTORS
330
3A0
102
}
330
3A0
100
AcDbScale
 70
     0
300
100:1
140
100.0
141
1.0
290
     0
  0
SCALE
  5
3B2
102
{ACAD_REACTORS
330
3A0
102
}
330
3A0
100
AcDbScale
 70
     0
300
1/128" = 1'-0"
140
0.0078125
141
12.0
290
     0
  0
SCALE
  5
3B3
102
{ACAD_REACTORS
330
3A0
102
}
330
3A0
100
AcDbScale
 70
     0
300
1/64" = 1'-0"
140
0.015625
141
12.0
290
     0
  0
SCALE
  5
3B4
102
{ACAD_REACTORS
330
3A0
102
}
330
3A0
100
AcDbScale
 70
     0
300
1/32" = 1'-0"
140
0.03125
141
12.0
290
     0
  0
SCALE
  5
3B5
102
{ACAD_REACTORS
330
3A0
102
}
330
3A0
100
AcDbScale
 70
     0
300
1/16" = 1'-0"
140
0.0625
141
12.0
290
     0
  0
SCALE
  5
3B6
102
{ACAD_REACTORS
330
3A0
102
}
330
3A0
100
AcDbScale
 70
     0
300
3/32" = 1'-0"
140
0.09375
141
12.0
290
     0
  0
SCALE
  5
3B7
102
{ACAD_REACTORS
330
3A0
102
}
330
3A0
100
AcDbScale
 70
     0
300
1/8" = 1'-0"
140
0.125
141
12.0
290
     0
  0
SCALE
  5
3B8
102
{ACAD_REACTORS
330
3A0
102
}
330
3A0
100
AcDbScale
 70
     0
300
3/16" = 1'-0"
140
0.1875
141
12.0
290
     0
  0
SCALE
  5
3B9
102
{ACAD_REACTORS
330
3A0
102
}
330
3A0
100
AcDbScale
 70
     0
300
1/4" = 1'-0"
140
0.25
141
12.0
290
     0
  0
SCALE
  5
3BA
102
{ACAD_REACTORS
330
3A0
102
}
330
3A0
100
AcDbScale
 70
     0
300
3/8" = 1'-0"
140
0.375
141
12.0
290
     0
  0
SCALE
  5
3BB
102
{ACAD_REACTORS
330
3A0
102
}
330
3A0
100
AcDbScale
 70
     0
300
1/2" = 1'-0"
140
0.5
141
12.0
290
     0
  0
SCALE
  5
3BC
102
{ACAD_REACTORS
330
3A0
102
}
330
3A0
100
AcDbScale
 70
     0
300
3/4" = 1'-0"
140
0.75
141
12.0
290
     0
  0
SCALE
  5
3BD
102
{ACAD_REACTORS
330
3A0
102
}
330
3A0
100
AcDbScale
 70
     0
300
1" = 1'-0"
140
1.0
141
12.0
290
     0
  0
SCALE
  5
3BE
102
{ACAD_REACTORS
330
3A0
102
}
330
3A0
100
AcDbScale
 70
     0
300
1-1/2" = 1'-0"
140
1.5
141
12.0
290
     0
  0
SCALE
  5
3BF
102
{ACAD_REACTORS
330
3A0
102
}
330
3A0
100
AcDbScale
 70
     0
300
3" = 1'-0"
140
3.0
141
12.0
290
     0
  0
SCALE
  5
3C0
102
{ACAD_REACTORS
330
3A0
102
}
330
3A0
100
AcDbScale
 70
     0
300
6" = 1'-0"
140
6.0
141
12.0
290
     0
  0
SCALE
  5
3C1
102
{ACAD_REACTORS
330
3A0
102
}
330
3A0
100
AcDbScale
 70
     0
300
1'-0" = 1'-0"
140
12.0
141
12.0
290
     0
  0
ACDBSECTIONVIEWSTYLE
  5
583
102
{ACAD_XDICTIONARY
360
10B7
102
}
102
{ACAD_REACTORS
330
582
102
}
330
582
100
AcDbModelDocViewStyle
 70
     0
  3
Metric50
290
     0
100
AcDbSectionViewStyle
 70
     0
 71
     0
 90
      102
 71
     1
340
10
 62
   256
 40
5.0
340
0
340
0
 62
   256
 40
5.0
300
I, O, Q, S, X, Z
 40
10.0
 90
        0
 40
2.5
 90
        0
 71
     2
340
14
 90
       25
 62
   256
340
14
 90
       50
 62
   256
 40
5.0
 40
2.5
 40
5.0
 71
     3
340
10
 62
   256
 40
5.0
 90
        0
 40
15.0
 90
        1
300
%<\AcVar ViewSectionStartId>%-%<\AcVar ViewSectionEndId>% (%<\AcVar ViewScale \f "%sn">%)
 71
     4
 62
   256
 62
   257
300
ANSI31
 40
1.0
 90
        0
290
     0
290
     0
 90
        6
 40
0.0
 40
1.570796326794896
 40
0.2617993877991494
 40
1.308996938995747
 40
-0.2617993877991494
 40
1.832595714594044
  0
TABLESTYLE
  5
580
102
{ACAD_XDICTIONARY
360
5B2
102
}
102
{ACAD_REACTORS
330
388
102
}
330
388
100
AcDbTableStyle
  3
Standard
 70
     0
 71
     0
 40
1.5
 41
1.5
280
     0
281
     0
  7
STANDARD
140
4.5
170
     2
 62
     0
 63
     7
283
     0
274
    -2
284
     1
 64
     0
275
    -2
285
     1
 65
     0
276
    -2
286
     1
 66
     0
277
    -2
287
     1
 67
     0
278
    -2
288
     1
 68
     0
279
    -2
289
     1
 69
     0
  7
STANDARD
140
6.0
170
     5
 62
     0
 63
     7
283
     0
274
    -2
284
     1
 64
     0
275
    -2
285
     1
 65
     0
276
    -2
286
     1
 66
     0
277
    -2
287
     1
 67
     0
278
    -2
288
     1
 68
     0
279
    -2
289
     1
 69
     0
  7
STANDARD
140
4.5
170
     5
 62
     0
 63
     7
283
     0
274
    -2
284
     1
 64
     0
275
    -2
285
     1
 65
     0
276
    -2
286
     1
 66
     0
277
    -2
287
     1
 67
     0
278
    -2
288
     1
 68
     0
279
    -2
289
     1
 69
     0
  0
VISUALSTYLE
  5
56D
102
{ACAD_XDICTIONARY
360
1090
102
}
102
{ACAD_REACTORS
330
567
102
}
330
567
100
AcDbVisualStyle
  2

 70
     4
 71
     0
 72
     2
 73
     0
 90
        0
 40
-0.6
 41
-30.0
 62
     5
 63
     7
 74
     1
 91
        4
 64
     7
 65
   257
 75
     1
175
     1
 42
1.0
 92
        0
 66
   257
 43
1.0
 76
     1
 77
     6
 78
     2
 67
     7
 79
     5
170
     0
171
     0
290
     0
174
     0
 93
        1
 44
0.0
173
     0
291
     0
 45
0.0
1001
ACAD
1000
AcDbSavedByObjectVersion
1070
     0
  0
VISUALSTYLE
  5
56C
102
{ACAD_XDICTIONARY
360
108E
102
}
102
{ACAD_REACTORS
330
567
102
}
330
567
100
AcDbVisualStyle
  2

 70
     7
 71
     1
 72
     0
 73
     1
 90
        0
 40
-0.6
 41
-30.0
 62
     5
 63
     7
 74
     0
 91
        4
 64
     7
 65
   257
 75
     1
175
     1
 42
1.0
 92
        8
 66
     7
 43
1.0
 76
     1
 77
     6
 78
     2
 67
     7
 79
     5
170
     0
171
     0
290
     0
174
     0
 93
        1
 44
0.0
173
     0
291
     1
 45
0.0
1001
ACAD
1000
AcDbSavedByObjectVersion
1070
     0
  0
VISUALSTYLE
  5
573
102
{ACAD_XDICTIONARY
360
109C
102
}
102
{ACAD_REACTORS
330
567
102
}
330
567
100
AcDbVisualStyle
  2

 70
    12
 71
     2
 72
     2
 73
     0
 90
        0
 40
-0.6
 41
-30.0
 62
     5
 63
     7
 74
     1
 91
        4
 64
     7
 65
   257
 75
     1
175
     1
 42
1.0
 92
        8
 66
     7
 43
1.0
 76
     1
 77
     6
 78
     2
 67
     7
 79
     5
170
     0
171
     0
290
     0
174
     0
 93
        1
 44
50.0
173
     0
291
     1
 45
0.0
1001
ACAD
1000
AcDbSavedByObjectVersion
1070
     0
  0
VISUALSTYLE
  5
577
102
{ACAD_XDICTIONARY
360
10A4
102
}
102
{ACAD_REACTORS
330
567
102
}
330
567
100
AcDbVisualStyle
  2

 70
    16
 71
     2
 72
     2
 73
     3
 90
        0
 40
-0.6
 41
-30.0
 62
     5
 63
     8
 74
     1
 91
        4
 64
     7
 65
   257
 75
     1
175
     1
 42
1.0
 92
        8
 66
     8
 43
1.0
 76
     1
 77
     6
 78
     2
 67
     7
 79
     5
170
     0
171
     0
290
     0
174
     0
 93
        1
 44
0.0
173
     0
291
     1
 45
0.0
1001
ACAD
1000
AcDbSavedByObjectVersion
1070
     0
  0
VISUALSTYLE
  5
570
102
{ACAD_XDICTIONARY
360
1096
102
}
102
{ACAD_REACTORS
330
567
102
}
330
567
100
AcDbVisualStyle
  2

 70
     9
 71
     3
 72
     2
 73
     0
 90
        0
 40
-0.6
 41
-30.0
 62
     5
 63
     7
 74
     2
 91
        2
 64
     7
 65
   257
 75
     1
175
     1
 42
179.0
 92
        8
 66
     7
 43
1.0
 76
     1
 77
     6
 78
     2
 67
     7
 79
     3
170
     0
171
     0
290
     0
174
     0
 93
        1
 44
0.0
173
     0
291
     0
 45
0.0
1001
ACAD
1000
AcDbSavedByObjectVersion
1070
     0
  0
VISUALSTYLE
  5
572
102
{ACAD_XDICTIONARY
360
109A
102
}
102
{ACAD_REACTORS
330
567
102
}
330
567
100
AcDbVisualStyle
  2

 70
    11
 71
     2
 72
     2
 73
     0
 90
        0
 40
-0.6
 41
-30.0
 62
     5
 63
     7
 74
     1
 91
        4
 64
     7
 65
   257
 75
     1
175
     1
 42
1.0
 92
        8
 66
     7
 43
1.0
 76
     1
 77
     6
 78
     2
 67
     7
 79
     5
170
     0
171
     0
290
     0
174
     0
 93
        1
 44
-50.0
173
     0
291
     1
 45
0.0
1001
ACAD
1000
AcDbSavedByObjectVersion
1070
     0
  0
VISUALSTYLE
  5
57F
102
{ACAD_XDICTIONARY
360
10B4
102
}
102
{ACAD_REACTORS
330
567
102
}
330
567
100
AcDbVisualStyle
  2

 70
    22
 71
     2
 72
     2
 73
     0
 90
        0
 40
-0.6
 41
-30.0
 62
     5
 63
     7
 74
     1
 91
        4
 64
     7
 65
   257
 75
     1
175
     1
 42
1.0
 92
        8
 66
     7
 43
1.0
 76
     1
 77
     6
 78
     2
 67
     7
 79
     5
170
     0
171
     0
290
     0
174
     0
 93
        1
 44
0.0
173
     0
291
     1
 45
0.0
1001
ACAD
1000
AcDbSavedByObjectVersion
1070
     0
  0
VISUALSTYLE
  5
576
102
{ACAD_XDICTIONARY
360
10A2
102
}
102
{ACAD_REACTORS
330
567
102
}
330
567
100
AcDbVisualStyle
  2

 70
    15
 71
     2
 72
     2
 73
     0
 90
        0
 40
-0.6
 41
-30.0
 62
     5
 63
     7
 74
     1
 91
        4
 64
     7
 65
   257
 75
     1
175
     1
 42
1.0
 92
        8
 66
     7
 43
1.0
 76
     1
 77
     6
 78
     2
 67
     7
 79
     5
170
     0
171
     0
290
     0
174
     0
 93
        1
 44
0.0
173
     0
291
     1
 45
0.0
1001
ACAD
1000
AcDbSavedByObjectVersion
1070
     0
  0
VISUALSTYLE
  5
568
102
{ACAD_XDICTIONARY
360
1086
102
}
102
{ACAD_REACTORS
330
567
102
}
330
567
100
AcDbVisualStyle
  2

 70
     0
 71
     2
 72
     1
 73
     1
 90
        2
 40
-0.6
 41
30.0
 62
     5
 63
     7
 74
     0
 91
        0
 64
     7
 65
   257
 75
     1
175
     1
 42
1.0
 92
        8
 66
     7
 43
1.0
 76
     1
 77
     6
 78
     2
 67
     7
 79
     5
170
     0
171
     0
290
     0
174
     0
 93
       13
 44
0.0
173
     0
291
     1
 45
0.0
1001
ACAD
1000
AcDbSavedByObjectVersion
1070
     0
  0
VISUALSTYLE
  5
569
102
{ACAD_XDICTIONARY
360
1088
102
}
102
{ACAD_REACTORS
330
567
102
}
330
567
100
AcDbVisualStyle
  2

 70
     1
 71
     2
 72
     1
 73
     1
 90
        2
 40
-0.6
 41
30.0
 62
     5
 63
     7
 74
     1
 91
        0
 64
     7
 65
   257
 75
     1
175
     1
 42
1.0
 92
        0
 66
   257
 43
1.0
 76
     1
 77
     6
 78
     2
 67
     7
 79
     5
170
     0
171
     0
290
     0
174
     0
 93
       13
 44
0.0
173
     0
291
     1
 45
0.0
1001
ACAD
1000
AcDbSavedByObjectVersion
1070
     0
  0
VISUALSTYLE
  5
56A
102
{ACAD_XDICTIONARY
360
108A
102
}
102
{ACAD_REACTORS
330
567
102
}
330
567
100
AcDbVisualStyle
  2

 70
     2
 71
     2
 72
     2
 73
     1
 90
        2
 40
-0.6
 41
30.0
 62
     5
 63
     7
 74
     0
 91
        0
 64
     7
 65
   257
 75
     1
175
     1
 42
1.0
 92
        0
 66
     7
 43
1.0
 76
     1
 77
     6
 78
     2
 67
     7
 79
     5
170
     0
171
     0
290
     0
174
     0
 93
       13
 44
0.0
173
     0
291
     1
 45
0.0
1001
ACAD
1000
AcDbSavedByObjectVersion
1070
     0
  0
VISUALSTYLE
  5
56B
102
{ACAD_XDICTIONARY
360
108C
102
}
102
{ACAD_REACTORS
330
567
102
}
330
567
100
AcDbVisualStyle
  2

 70
     3
 71
     2
 72
     2
 73
     1
 90
        2
 40
-0.6
 41
30.0
 62
     5
 63
     7
 74
     1
 91
        0
 64
     7
 65
   257
 75
     1
175
     1
 42
1.0
 92
        0
 66
   257
 43
1.0
 76
     1
 77
     6
 78
     2
 67
     7
 79
     5
170
     0
171
     0
290
     0
174
     0
 93
       13
 44
0.0
173
     0
291
     1
 45
0.0
1001
ACAD
1000
AcDbSavedByObjectVersion
1070
     0
  0
VISUALSTYLE
  5
56F
102
{ACAD_XDICTIONARY
360
1094
102
}
102
{ACAD_REACTORS
330
567
102
}
330
567
100
AcDbVisualStyle
  2

 70
     6
 71
     1
 72
     2
 73
     2
 90
        0
 40
-0.6
 41
-30.0
 62
     5
 63
     7
 74
     2
 91
        2
 64
     7
 65
   257
 75
     2
175
     1
 42
40.0
 92
        0
 66
   257
 43
1.0
 76
     1
 77
     6
 78
     2
 67
     7
 79
     3
170
     0
171
     0
290
     0
174
     0
 93
        1
 44
0.0
173
     0
291
     0
 45
0.0
1001
ACAD
1000
AcDbSavedByObjectVersion
1070
     0
  0
VISUALSTYLE
  5
57D
102
{ACAD_XDICTIONARY
360
10B0
102
}
102
{ACAD_REACTORS
330
567
102
}
330
567
100
AcDbVisualStyle
  2

 70
    20
 71
     2
 72
     2
 73
     0
 90
        0
 40
-0.6
 41
-30.0
 62
     5
 63
     7
 74
     1
 91
        4
 64
     7
 65
   257
 75
     1
175
     1
 42
1.0
 92
       10
 66
     7
 43
1.0
 76
     1
 77
     6
 78
     2
 67
     7
 79
     5
170
     0
171
     0
290
     0
174
     0
 93
        1
 44
0.0
173
     0
291
     1
 45
0.0
1001
ACAD
1000
AcDbSavedByObjectVersion
1070
     0
  0
VISUALSTYLE
  5
575
102
{ACAD_XDICTIONARY
360
10A0
102
}
102
{ACAD_REACTORS
330
567
102
}
330
567
100
AcDbVisualStyle
  2

 70
    14
 71
     2
 72
     2
 73
     0
 90
        0
 40
-0.6
 41
-30.0
 62
     5
 63
     7
 74
     1
 91
        4
 64
     7
 65
   257
 75
     7
175
     7
 42
1.0
 92
        8
 66
     7
 43
1.0
 76
     1
 77
     6
 78
     2
 67
     7
 79
     5
170
     0
171
     0
290
     0
174
     0
 93
        1
 44
0.0
173
     0
291
     1
 45
0.0
1001
ACAD
1000
AcDbSavedByObjectVersion
1070
     0
  0
VISUALSTYLE
  5
57E
102
{ACAD_XDICTIONARY
360
10B2
102
}
102
{ACAD_REACTORS
330
567
102
}
330
567
100
AcDbVisualStyle
  2

 70
    21
 71
     2
 72
     2
 73
     0
 90
        0
 40
-0.6
 41
-30.0
 62
     5
 63
     7
 74
     1
 91
        4
 64
     7
 65
   257
 75
     1
175
     1
 42
1.0
 92
        9
 66
     7
 43
1.0
 76
     1
 77
     6
 78
     2
 67
     7
 79
     5
170
     0
171
     0
290
     0
174
     0
 93
        1
 44
0.0
173
     0
291
     1
 45
0.0
1001
ACAD
1000
AcDbSavedByObjectVersion
1070
     0
  0
VISUALSTYLE
  5
571
102
{ACAD_XDICTIONARY
360
1098
102
}
102
{ACAD_REACTORS
330
567
102
}
330
567
100
AcDbVisualStyle
  2

 70
     8
 71
     2
 72
     3
 73
     0
 90
        2
 40
-0.6
 41
30.0
 62
     5
 63
     7
 74
     0
 91
        0
 64
     7
 65
   257
 75
     1
175
     1
 42
1.0
 92
        8
 66
   257
 43
1.0
 76
     1
 77
     6
 78
     2
 67
     7
 79
     3
170
     0
171
     0
290
     0
174
     0
 93
       13
 44
0.0
173
     0
291
     0
 45
0.0
1001
ACAD
1000
AcDbSavedByObjectVersion
1070
     0
  0
VISUALSTYLE
  5
57C
102
{ACAD_XDICTIONARY
360
10AE
102
}
102
{ACAD_REACTORS
330
567
102
}
330
567
100
AcDbVisualStyle
  2

 70
    27
 71
     2
 72
     2
 73
     1
 90
        2
 40
-0.6
 41
30.0
 62
     5
 63
     7
 74
     0
 91
        4
 64
     7
 65
   257
 75
     1
175
     1
 42
1.0
 92
        8
 66
   257
 43
1.0
 76
     1
 77
     6
 78
     2
 67
     8
 79
     3
170
     0
171
     0
290
     0
174
     0
 93
        5
 44
0.0
173
     0
291
     0
 45
0.0
1001
ACAD
1000
AcDbSavedByObjectVersion
1070
     0
  0
VISUALSTYLE
  5
57B
102
{ACAD_XDICTIONARY
360
10AC
102
}
102
{ACAD_REACTORS
330
567
102
}
330
567
100
AcDbVisualStyle
  2

 70
    26
 71
     2
 72
     2
 73
     1
 90
        2
 40
-0.6
 41
30.0
 62
     5
 63
     7
 74
     1
 91
       10
 64
     7
 65
   257
 75
     2
175
     1
 42
1.0
 92
        8
 66
   257
 43
1.0
 76
     1
 77
     6
 78
     2
 67
     7
 79
     3
170
     0
171
     0
290
     0
174
     0
 93
        5
 44
0.0
173
     0
291
     0
 45
0.0
1001
ACAD
1000
AcDbSavedByObjectVersion
1070
     0
  0
VISUALSTYLE
  5
578
102
{ACAD_XDICTIONARY
360
10A6
102
}
102
{ACAD_REACTORS
330
567
102
}
330
567
100
AcDbVisualStyle
  2

 70
    23
 71
     2
 72
     2
 73
     3
 90
        0
 40
-0.6
 41
-30.0
 62
     5
 63
     7
 74
     2
 91
        2
 64
     7
 65
     7
 75
     1
175
     1
 42
40.0
 92
        8
 66
     7
 43
1.0
 76
     1
 77
     6
 78
     2
 67
     7
 79
     3
170
     0
171
     0
290
     0
174
     0
 93
        1
 44
0.0
173
     0
291
     0
 45
0.0
1001
ACAD
1000
AcDbSavedByObjectVersion
1070
     0
  0
VISUALSTYLE
  5
579
102
{ACAD_XDICTIONARY
360
10A8
102
}
102
{ACAD_REACTORS
330
567
102
}
330
567
100
AcDbVisualStyle
  2

 70
    24
 71
     1
 72
     2
 73
     2
 90
        0
 40
-0.6
 41
-30.0
 62
     5
 63
     7
 74
     2
 91
        2
 64
     7
 65
     7
 75
     1
175
     1
 42
40.0
 92
       11
 66
     7
 43
1.0
 76
     1
 77
     6
 78
     2
 67
     7
 79
     6
170
     0
171
     0
290
     0
174
     0
 93
        1
 44
0.0
173
     0
291
     0
 45
0.0
1001
ACAD
1000
AcDbSavedByObjectVersion
1070
     0
  0
VISUALSTYLE
  5
574
102
{ACAD_XDICTIONARY
360
109E
102
}
102
{ACAD_REACTORS
330
567
102
}
330
567
100
AcDbVisualStyle
  2

 70
    13
 71
     2
 72
     2
 73
     0
 90
        0
 40
-0.6
 41
-30.0
 62
     5
 63
     7
 74
     1
 91
        4
 64
     7
 65
   257
 75
     1
175
     1
 42
1.0
 92
       12
 66
     7
 43
1.0
 76
     1
 77
     6
 78
     2
 67
     7
 79
     5
170
     0
171
     0
290
     0
174
     0
 93
        1
 44
0.0
173
     0
291
     1
 45
0.0
1001
ACAD
1000
AcDbSavedByObjectVersion
1070
     0
  0
VISUALSTYLE
  5
56E
102
{ACAD_XDICTIONARY
360
1092
102
}
102
{ACAD_REACTORS
330
567
102
}
330
567
100
AcDbVisualStyle
  2

 70
     5
 71
     0
 72
     2
 73
     0
 90
        0
 40
-0.6
 41
-30.0
 62
     5
 63
     7
 74
     1
 91
        4
 64
     7
 65
   257
 75
     1
175
     1
 42
1.0
 92
        0
 66
   257
 43
1.0
 76
     1
 77
     6
 78
     2
 67
     7
 79
     3
170
     0
171
     0
290
     0
174
     0
 93
        1
 44
0.0
173
     0
291
     0
 45
0.0
1001
ACAD
1000
AcDbSavedByObjectVersion
1070
     0
  0
VISUALSTYLE
  5
57A
102
{ACAD_XDICTIONARY
360
10AA
102
}
102
{ACAD_REACTORS
330
567
102
}
330
567
100
AcDbVisualStyle
  2

 70
    25
 71
     2
 72
     2
 73
     1
 90
        1
 40
0.5
 41
-30.0
 62
     5
 63
     7
 74
     1
 91
        0
 64
     7
 65
   257
 75
     1
175
     1
 42
1.0
 92
        8
 66
     7
 43
1.0
 76
     1
 77
     6
 78
     2
 67
     7
 79
     3
170
     0
171
     0
290
     0
174
     0
 93
       13
 44
0.0
173
     0
291
     0
 45
0.0
1001
ACAD
1000
AcDbSavedByObjectVersion
1070
     0
  0
DICTIONARYVAR
  5
549
102
{ACAD_REACTORS
330
357
102
}
330
357
100
DictionaryVariables
280
     0
  1
1:1
  0
DICTIONARYVAR
  5
5AB
102
{ACAD_REACTORS
330
357
102
}
330
357
100
DictionaryVariables
280
     0
  1
STANDARD
  0
DICTIONARYVAR
  5
38D
102
{ACAD_REACTORS
330
357
102
}
330
357
100
DictionaryVariables
280
     0
  1
STANDARD
  0
DICTIONARYVAR
  5
5AC
102
{ACAD_REACTORS
330
357
102
}
330
357
100
DictionaryVariables
280
     0
  1
Metric50
  0
DICTIONARYVAR
  5
5AD
102
{ACAD_REACTORS
330
357
102
}
330
357
100
DictionaryVariables
280
     0
  1
Metric50
  0
DICTIONARYVAR
  5
359
102
{ACAD_REACTORS
330
357
102
}
330
357
100
DictionaryVariables
280
     0
  1
2
  0
DICTIONARYVAR
  5
358
102
{ACAD_REACTORS
330
357
102
}
330
357
100
DictionaryVariables
280
     0
  1
1
  0
DICTIONARYVAR
  5
5AF
102
{ACAD_REACTORS
330
357
102
}
330
357
100
DictionaryVariables
280
     0
  1
0
  0
DICTIONARYVAR
  5
D43
102
{ACAD_REACTORS
330
357
102
}
330
357
100
DictionaryVariables
280
     0
  1
1
  0
DICTIONARYVAR
  5
D44
102
{ACAD_REACTORS
330
357
102
}
330
357
100
DictionaryVariables
280
     0
  1
15
  0
DICTIONARYVAR
  5
D42
102
{ACAD_REACTORS
330
357
102
}
330
357
100
DictionaryVariables
280
     0
  1
0
  0
DICTIONARYVAR
  5
D41
102
{ACAD_REACTORS
330
357
102
}
330
357
100
DictionaryVariables
280
     0
  1
0
  0
DICTIONARYVAR
  5
38E
102
{ACAD_REACTORS
330
357
102
}
330
357
100
DictionaryVariables
280
     0
  1

  0
DICTIONARYVAR
  5
5AE
102
{ACAD_REACTORS
330
357
102
}
330
357
100
DictionaryVariables
280
     0
  1
127
  0
DICTIONARYVAR
  5
107E
102
{ACAD_REACTORS
330
357
102
}
330
357
100
DictionaryVariables
280
     0
  1
2
  0
DICTIONARY
  5
626
102
{ACAD_REACTORS
330
61F
102
}
330
61F
100
AcDbDictionary
281
     1
  0
DICTIONARY
  5
10B9
330
585
100
AcDbDictionary
280
     1
281
     1
  3
ACAD_XREC_ROUNDTRIP
360
10BA
  0
DICTIONARY
  5
558
330
557
100
AcDbDictionary
280
     1
281
     1
  3
ACAD_XREC_ROUNDTRIP
360
5BC
  3
BUMPTILE
360
55A
  3
DIFFUSETILE
360
559
  3
OPACITYTILE
360
55D
  3
REFLECTIONTILE
360
55C
  3
REFRACTIONTILE
360
55E
  3
SPECULARTILE
360
55B
  0
DICTIONARY
  5
550
330
54F
100
AcDbDictionary
280
     1
281
     1
  3
ACAD_XREC_ROUNDTRIP
360
5BB
  3
BUMPTILE
360
552
  3
DIFFUSETILE
360
551
  3
OPACITYTILE
360
555
  3
REFLECTIONTILE
360
554
  3
REFRACTIONTILE
360
556
  3
SPECULARTILE
360
553
  0
DICTIONARY
  5
560
330
55F
100
AcDbDictionary
280
     1
281
     1
  3
ACAD_XREC_ROUNDTRIP
360
5BD
  3
BUMPTILE
360
562
  3
DIFFUSETILE
360
561
  3
OPACITYTILE
360
565
  3
REFLECTIONTILE
360
564
  3
REFRACTIONTILE
360
566
  3
SPECULARTILE
360
563
  0
DICTIONARY
  5
10B7
330
583
100
AcDbDictionary
280
     1
281
     1
  3
ACAD_XREC_ROUNDTRIP
360
10B8
  0
DICTIONARY
  5
5B2
330
580
100
AcDbDictionary
280
     1
281
     1
  3
ACAD_ROUNDTRIP_2008_TABLESTYLE_CELLSTYLEMAP
360
107F
  3
ACAD_XREC_ROUNDTRIP
360
10B6
  0
DICTIONARY
  5
1090
330
56D
100
AcDbDictionary
280
     1
281
     1
  3
ACAD_XREC_ROUNDTRIP
360
1091
  0
DICTIONARY
  5
108E
330
56C
100
AcDbDictionary
280
     1
281
     1
  3
ACAD_XREC_ROUNDTRIP
360
108F
  0
DICTIONARY
  5
109C
330
573
100
AcDbDictionary
280
     1
281
     1
  3
ACAD_XREC_ROUNDTRIP
360
109D
  0
DICTIONARY
  5
10A4
330
577
100
AcDbDictionary
280
     1
281
     1
  3
ACAD_XREC_ROUNDTRIP
360
10A5
  0
DICTIONARY
  5
1096
330
570
100
AcDbDictionary
280
     1
281
     1
  3
ACAD_XREC_ROUNDTRIP
360
1097
  0
DICTIONARY
  5
109A
330
572
100
AcDbDictionary
280
     1
281
     1
  3
ACAD_XREC_ROUNDTRIP
360
109B
  0
DICTIONARY
  5
10B4
330
57F
100
AcDbDictionary
280
     1
281
     1
  3
ACAD_XREC_ROUNDTRIP
360
10B5
  0
DICTIONARY
  5
10A2
330
576
100
AcDbDictionary
280
     1
281
     1
  3
ACAD_XREC_ROUNDTRIP
360
10A3
  0
DICTIONARY
  5
1086
330
568
100
AcDbDictionary
280
     1
281
     1
  3
ACAD_XREC_ROUNDTRIP
360
1087
  0
DICTIONARY
  5
1088
330
569
100
AcDbDictionary
280
     1
281
     1
  3
ACAD_XREC_ROUNDTRIP
360
1089
  0
DICTIONARY
  5
108A
330
56A
100
AcDbDictionary
280
     1
281
     1
  3
ACAD_XREC_ROUNDTRIP
360
108B
  0
DICTIONARY
  5
108C
330
56B
100
AcDbDictionary
280
     1
281
     1
  3
ACAD_XREC_ROUNDTRIP
360
108D
  0
DICTIONARY
  5
1094
330
56F
100
AcDbDictionary
280
     1
281
     1
  3
ACAD_XREC_ROUNDTRIP
360
1095
  0
DICTIONARY
  5
10B0
330
57D
100
AcDbDictionary
280
     1
281
     1
  3
ACAD_XREC_ROUNDTRIP
360
10B1
  0
DICTIONARY
  5
10A0
330
575
100
AcDbDictionary
280
     1
281
     1
  3
ACAD_XREC_ROUNDTRIP
360
10A1
  0
DICTIONARY
  5
10B2
330
57E
100
AcDbDictionary
280
     1
281
     1
  3
ACAD_XREC_ROUNDTRIP
360
10B3
  0
DICTIONARY
  5
1098
330
571
100
AcDbDictionary
280
     1
281
     1
  3
ACAD_XREC_ROUNDTRIP
360
1099
  0
DICTIONARY
  5
10AE
330
57C
100
AcDbDictionary
280
     1
281
     1
  3
ACAD_XREC_ROUNDTRIP
360
10AF
  0
DICTIONARY
  5
10AC
330
57B
100
AcDbDictionary
280
     1
281
     1
  3
ACAD_XREC_ROUNDTRIP
360
10AD
  0
DICTIONARY
  5
10A6
330
578
100
AcDbDictionary
280
     1
281
     1
  3
ACAD_XREC_ROUNDTRIP
360
10A7
  0
DICTIONARY
  5
10A8
330
579
100
AcDbDictionary
280
     1
281
     1
  3
ACAD_XREC_ROUNDTRIP
360
10A9
  0
DICTIONARY
  5
109E
330
574
100
AcDbDictionary
280
     1
281
     1
  3
ACAD_XREC_ROUNDTRIP
360
109F
  0
DICTIONARY
  5
1092
330
56E
100
AcDbDictionary
280
     1
281
     1
  3
ACAD_XREC_ROUNDTRIP
360
1093
  0
DICTIONARY
  5
10AA
330
57A
100
AcDbDictionary
280
     1
281
     1
  3
ACAD_XREC_ROUNDTRIP
360
10AB
  0
XRECORD
  5
10BA
102
{ACAD_REACTORS
330
10B9
102
}
330
10B9
100
AcDbXrecord
280
     1
102
DISPLAYNAME
  1
Metric50
102
FLAGS
 90
        0
  0
XRECORD
  5
5BC
102
{ACAD_REACTORS
330
558
102
}
330
558
100
AcDbXrecord
280
     1
102
MATERIAL
148
0.0
149
0.0
149
0.0
 93
        0
 94
      127
282
     0
 72
     0
 77
     0
171
     0
175
     0
179
     0
273
     0
  0
XRECORD
  5
55A
102
{ACAD_REACTORS
330
558
102
}
330
558
100
AcDbXrecord
280
     1
270
     1
271
     1
  0
XRECORD
  5
559
102
{ACAD_REACTORS
330
558
102
}
330
558
100
AcDbXrecord
280
     1
270
     1
271
     1
  0
XRECORD
  5
55D
102
{ACAD_REACTORS
330
558
102
}
330
558
100
AcDbXrecord
280
     1
270
     1
271
     1
  0
XRECORD
  5
55C
102
{ACAD_REACTORS
330
558
102
}
330
558
100
AcDbXrecord
280
     1
270
     1
271
     1
  0
XRECORD
  5
55E
102
{ACAD_REACTORS
330
558
102
}
330
558
100
AcDbXrecord
280
     1
270
     1
271
     1
  0
XRECORD
  5
55B
102
{ACAD_REACTORS
330
558
102
}
330
558
100
AcDbXrecord
280
     1
270
     1
271
     1
  0
XRECORD
  5
5BB
102
{ACAD_REACTORS
330
550
102
}
330
550
100
AcDbXrecord
280
     1
102
MATERIAL
148
0.0
149
0.0
149
0.0
 93
        0
 94
      127
282
     0
 72
     0
 77
     0
171
     0
175
     0
179
     0
273
     0
  0
XRECORD
  5
552
102
{ACAD_REACTORS
330
550
102
}
330
550
100
AcDbXrecord
280
     1
270
     1
271
     1
  0
XRECORD
  5
551
102
{ACAD_REACTORS
330
550
102
}
330
550
100
AcDbXrecord
280
     1
270
     1
271
     1
  0
XRECORD
  5
555
102
{ACAD_REACTORS
330
550
102
}
330
550
100
AcDbXrecord
280
     1
270
     1
271
     1
  0
XRECORD
  5
554
102
{ACAD_REACTORS
330
550
102
}
330
550
100
AcDbXrecord
280
     1
270
     1
271
     1
  0
XRECORD
  5
556
102
{ACAD_REACTORS
330
550
102
}
330
550
100
AcDbXrecord
280
     1
270
     1
271
     1
  0
XRECORD
  5
553
102
{ACAD_REACTORS
330
550
102
}
330
550
100
AcDbXrecord
280
     1
270
     1
271
     1
  0
XRECORD
  5
5BD
102
{ACAD_REACTORS
330
560
102
}
330
560
100
AcDbXrecord
280
     1
102
MATERIAL
148
0.0
149
0.0
149
0.0
 93
        0
 94
      127
282
     0
 72
     0
 77
     0
171
     0
175
     0
179
     0
273
     0
  0
XRECORD
  5
562
102
{ACAD_REACTORS
330
560
102
}
330
560
100
AcDbXrecord
280
     1
270
     1
271
     1
  0
XRECORD
  5
561
102
{ACAD_REACTORS
330
560
102
}
330
560
100
AcDbXrecord
280
     1
270
     1
271
     1
  0
XRECORD
  5
565
102
{ACAD_REACTORS
330
560
102
}
330
560
100
AcDbXrecord
280
     1
270
     1
271
     1
  0
XRECORD
  5
564
102
{ACAD_REACTORS
330
560
102
}
330
560
100
AcDbXrecord
280
     1
270
     1
271
     1
  0
XRECORD
  5
566
102
{ACAD_REACTORS
330
560
102
}
330
560
100
AcDbXrecord
280
     1
270
     1
271
     1
  0
XRECORD
  5
563
102
{ACAD_REACTORS
330
560
102
}
330
560
100
AcDbXrecord
280
     1
270
     1
271
     1
  0
XRECORD
  5
10B8
102
{ACAD_REACTORS
330
10B7
102
}
330
10B7
100
AcDbXrecord
280
     1
102
DISPLAYNAME
  1
Metric50
102
FLAGS
 90
        0
  0
CELLSTYLEMAP
  5
107F
102
{ACAD_REACTORS
330
5B2
102
}
330
5B2
100
AcDbCellStyleMap
 90
        3
300
CELLSTYLE
  1
TABLEFORMAT_BEGIN
 90
        5
170
     1
 91
        0
 92
    32768
 62
   257
 93
        1
300
CONTENTFORMAT
  1
CONTENTFORMAT_BEGIN
 90
        0
 91
        0
 92
      512
 93
        0
300

 40
0.0
140
1.0
 94
        5
 62
     0
340
10
144
6.0
309
CONTENTFORMAT_END
171
     1
301
MARGIN
  1
CELLMARGIN_BEGIN
 40
1.5
 40
1.5
 40
1.5
 40
1.5
 40
0.18
 40
0.18
309
CELLMARGIN_END
 94
        6
 95
        1
302
GRIDFORMAT
  1
GRIDFORMAT_BEGIN
 90
        0
 91
        1
 62
     0
 92
       -2
340
0
 93
        0
 40
1.125
309
GRIDFORMAT_END
 95
        2
302
GRIDFORMAT
  1
GRIDFORMAT_BEGIN
 90
        0
 91
        1
 62
     0
 92
       -2
340
0
 93
        0
 40
1.125
309
GRIDFORMAT_END
 95
        4
302
GRIDFORMAT
  1
GRIDFORMAT_BEGIN
 90
        0
 91
        1
 62
     0
 92
       -2
340
0
 93
        0
 40
1.125
309
GRIDFORMAT_END
 95
        8
302
GRIDFORMAT
  1
GRIDFORMAT_BEGIN
 90
        0
 91
        1
 62
     0
 92
       -2
340
0
 93
        0
 40
1.125
309
GRIDFORMAT_END
 95
       16
302
GRIDFORMAT
  1
GRIDFORMAT_BEGIN
 90
        0
 91
        1
 62
     0
 92
       -2
340
0
 93
        0
 40
1.125
309
GRIDFORMAT_END
 95
       32
302
GRIDFORMAT
  1
GRIDFORMAT_BEGIN
 90
        0
 91
        1
 62
     0
 92
       -2
340
0
 93
        0
 40
1.125
309
GRIDFORMAT_END
309
TABLEFORMAT_END
  1
CELLSTYLE_BEGIN
 90
        1
 91
        1
300
_TITLE
309
CELLSTYLE_END
300
CELLSTYLE
  1
TABLEFORMAT_BEGIN
 90
        5
170
     1
 91
        0
 92
        0
 62
   257
 93
        1
300
CONTENTFORMAT
  1
CONTENTFORMAT_BEGIN
 90
        0
 91
        0
 92
      512
 93
        0
300

 40
0.0
140
1.0
 94
        5
 62
     0
340
10
144
4.5
309
CONTENTFORMAT_END
171
     1
301
MARGIN
  1
CELLMARGIN_BEGIN
 40
1.5
 40
1.5
 40
1.5
 40
1.5
 40
0.18
 40
0.18
309
CELLMARGIN_END
 94
        6
 95
        1
302
GRIDFORMAT
  1
GRIDFORMAT_BEGIN
 90
        0
 91
        1
 62
     0
 92
       -2
340
0
 93
        0
 40
1.125
309
GRIDFORMAT_END
 95
        2
302
GRIDFORMAT
  1
GRIDFORMAT_BEGIN
 90
        0
 91
        1
 62
     0
 92
       -2
340
0
 93
        0
 40
1.125
309
GRIDFORMAT_END
 95
        4
302
GRIDFORMAT
  1
GRIDFORMAT_BEGIN
 90
        0
 91
        1
 62
     0
 92
       -2
340
0
 93
        0
 40
1.125
309
GRIDFORMAT_END
 95
        8
302
GRIDFORMAT
  1
GRIDFORMAT_BEGIN
 90
        0
 91
        1
 62
     0
 92
       -2
340
0
 93
        0
 40
1.125
309
GRIDFORMAT_END
 95
       16
302
GRIDFORMAT
  1
GRIDFORMAT_BEGIN
 90
        0
 91
        1
 62
     0
 92
       -2
340
0
 93
        0
 40
1.125
309
GRIDFORMAT_END
 95
       32
302
GRIDFORMAT
  1
GRIDFORMAT_BEGIN
 90
        0
 91
        1
 62
     0
 92
       -2
340
0
 93
        0
 40
1.125
309
GRIDFORMAT_END
309
TABLEFORMAT_END
  1
CELLSTYLE_BEGIN
 90
        2
 91
        1
300
_HEADER
309
CELLSTYLE_END
300
CELLSTYLE
  1
TABLEFORMAT_BEGIN
 90
        5
170
     1
 91
        0
 92
        0
 62
   257
 93
        1
300
CONTENTFORMAT
  1
CONTENTFORMAT_BEGIN
 90
        0
 91
        0
 92
      512
 93
        0
300

 40
0.0
140
1.0
 94
        2
 62
     0
340
10
144
4.5
309
CONTENTFORMAT_END
171
     1
301
MARGIN
  1
CELLMARGIN_BEGIN
 40
1.5
 40
1.5
 40
1.5
 40
1.5
 40
0.18
 40
0.18
309
CELLMARGIN_END
 94
        6
 95
        1
302
GRIDFORMAT
  1
GRIDFORMAT_BEGIN
 90
        0
 91
        1
 62
     0
 92
       -2
340
0
 93
        0
 40
1.125
309
GRIDFORMAT_END
 95
        2
302
GRIDFORMAT
  1
GRIDFORMAT_BEGIN
 90
        0
 91
        1
 62
     0
 92
       -2
340
0
 93
        0
 40
1.125
309
GRIDFORMAT_END
 95
        4
302
GRIDFORMAT
  1
GRIDFORMAT_BEGIN
 90
        0
 91
        1
 62
     0
 92
       -2
340
0
 93
        0
 40
1.125
309
GRIDFORMAT_END
 95
        8
302
GRIDFORMAT
  1
GRIDFORMAT_BEGIN
 90
        0
 91
        1
 62
     0
 92
       -2
340
0
 93
        0
 40
1.125
309
GRIDFORMAT_END
 95
       16
302
GRIDFORMAT
  1
GRIDFORMAT_BEGIN
 90
        0
 91
        1
 62
     0
 92
       -2
340
0
 93
        0
 40
1.125
309
GRIDFORMAT_END
 95
       32
302
GRIDFORMAT
  1
GRIDFORMAT_BEGIN
 90
        0
 91
        1
 62
     0
 92
       -2
340
0
 93
        0
 40
1.125
309
GRIDFORMAT_END
309
TABLEFORMAT_END
  1
CELLSTYLE_BEGIN
 90
        3
 91
        2
300
_DATA
309
CELLSTYLE_END
  0
XRECORD
  5
10B6
102
{ACAD_REACTORS
330
5B2
102
}
330
5B2
100
AcDbXrecord
280
     1
102
ACAD_ROUNDTRIP_PRE2007_TABLESTYLE
 90
      512
 91
        0
  1

 92
      512
 93
        0
  2

 94
      512
 95
        0
  3

  0
XRECORD
  5
1091
102
{ACAD_REACTORS
330
1090
102
}
330
1090
100
AcDbXrecord
280
     1
102
RTVSPost2010Prop28
280
     1
102
RTVSPost2010PropOp28
 70
     1
102
RTVSPost2010Prop29
280
     1
102
RTVSPost2010PropOp29
 70
     1
102
RTVSPost2010Prop30
280
     0
102
RTVSPost2010PropOp30
 70
     1
102
RTVSPost2010Prop31
280
     0
102
RTVSPost2010PropOp31
 70
     1
102
RTVSPost2010Prop32
280
     0
102
RTVSPost2010PropOp32
 70
     1
102
RTVSPost2010Prop33
280
     0
102
RTVSPost2010PropOp33
 70
     1
102
RTVSPost2010Prop34
280
     0
102
RTVSPost2010PropOp34
 70
     1
102
RTVSPost2010Prop35
280
     0
102
RTVSPost2010PropOp35
 70
     1
102
RTVSPost2010Prop36
280
     0
102
RTVSPost2010PropOp36
 70
     1
102
RTVSPost2010Prop37
 90
       50
102
RTVSPost2010PropOp37
 70
     1
102
RTVSPost2010Prop38
140
0.0
102
RTVSPost2010PropOp38
 70
     1
102
RTVSPost2010Prop39
140
1.0
102
RTVSPost2010PropOp39
 70
     1
102
RTVSPost2010Prop40
 90
        0
102
RTVSPost2010PropOp40
 70
     1
102
RTVSPost2010Prop41ColorIndex
 90
       18
102
RTVSPost2010Prop41ColorRGB
 90
        0
102
RTVSPost2010PropOp41
 70
     1
102
RTVSPost2010Prop42
 90
       50
102
RTVSPost2010PropOp42
 70
     1
102
RTVSPost2010Prop43
 90
        3
102
RTVSPost2010PropOp43
 70
     1
102
RTVSPost2010Prop44ColorIndex
 90
        5
102
RTVSPost2010Prop44ColorRGB
 90
      255
102
RTVSPost2010PropOp44
 70
     1
102
RTVSPost2010Prop45
280
     0
102
RTVSPost2010PropOp45
 70
     1
102
RTVSPost2010Prop46
 90
       50
102
RTVSPost2010PropOp46
 70
     1
102
RTVSPost2010Prop47
 90
       50
102
RTVSPost2010PropOp47
 70
     1
102
RTVSPost2010Prop48
 90
       50
102
RTVSPost2010PropOp48
 70
     1
102
RTVSPost2010Prop49
280
     0
102
RTVSPost2010PropOp49
 70
     1
102
RTVSPost2010Prop50
 90
       50
102
RTVSPost2010PropOp50
 70
     1
102
RTVSPost2010Prop51ColorIndex
 90
      256
102
RTVSPost2010Prop51ColorRGB
 90
-16777216
102
RTVSPost2010PropOp51
 70
     0
102
RTVSPost2010Prop52
140
1.0
102
RTVSPost2010PropOp52
 70
     0
102
RTVSPost2010Prop53
 90
        2
102
RTVSPost2010PropOp53
 70
     1
102
RTVSPost2010Prop54
  1
strokes_ogs.tif
102
RTVSPost2010PropOp54
 70
     1
102
RTVSPost2010Prop55
280
     0
102
RTVSPost2010PropOp55
 70
     1
102
RTVSPost2010Prop56
140
1.0
102
RTVSPost2010PropOp56
 70
     1
102
RTVSPost2010Prop57
140
1.0
102
RTVSPost2010PropOp57
 70
     1
102
RTVSPropertyOp0
 70
     1
102
RTVSPropertyOp1
 70
     1
102
RTVSPropertyOp2
 70
     1
102
RTVSPropertyOp3
 70
     1
102
RTVSPropertyOp4
 70
     1
102
RTVSPropertyOp5
 70
     1
102
RTVSPropertyOp6
 70
     1
102
RTVSPropertyOp7
 70
     1
102
RTVSPropertyOp8
 70
     1
102
RTVSPropertyOp9
 70
     1
102
RTVSPropertyOp10
 70
     1
102
RTVSPropertyOp11
 70
     1
102
RTVSPropertyOp12
 70
     1
102
RTVSPropertyOp13
 70
     1
102
RTVSPropertyOp14
 70
     1
102
RTVSPropertyOp15
 70
     1
102
RTVSPropertyOp16
 70
     1
102
RTVSPropertyOp17
 70
     1
102
RTVSPropertyOp18
 70
     1
102
RTVSPropertyOp19
 70
     1
102
RTVSPropertyOp20
 70
     1
102
RTVSPropertyOp21
 70
     1
102
RTVSPropertyOp22
 70
     1
102
RTVSPropertyOp23
 70
     1
102
RTVSPropertyOp24
 70
     1
102
RTVSPropertyOp25
 70
     1
102
RTVSPropertyOp26
 70
     1
102
RTVSPropertyOp27
 70
     1
102
RTVSPropertyOp28
 70
     1
102
RTVSPropertyOp29
 70
     1
102
RTVSPropertyOp30
 70
     1
102
RTVSPropertyOp31
 70
     1
102
RTVSPropertyOp32
 70
     1
102
RTVSPropertyOp33
 70
     1
102
RTVSPropertyOp34
 70
     1
102
RTVSPropertyOp35
 70
     1
102
RTVSPropertyOp36
 70
     1
102
RTVSPropertyOp37
 70
     1
102
RTVSPropertyOp38
 70
     1
102
RTVSPropertyOp39
 70
     1
102
RTVSPropertyOp40
 70
     1
102
RTVSPropertyOp41
 70
     1
102
RTVSPropertyOp42
 70
     1
102
RTVSPropertyOp43
 70
     1
102
RTVSPropertyOp44
 70
     1
102
RTVSPropertyOp45
 70
     1
102
RTVSPropertyOp46
 70
     1
102
RTVSPropertyOp47
 70
     1
102
RTVSPropertyOp48
 70
     1
102
RTVSPropertyOp49
 70
     1
102
RTVSPropertyOp50
 70
     1
102
RTVSPropertyOp51
 70
     0
102
RTVSPropertyOp52
 70
     0
102
RTVSPropertyOp53
 70
     1
102
RTVSPropertyOp54
 70
     1
102
RTVSPropertyOp55
 70
     1
102
RTVSPropertyOp56
 70
     1
102
RTVSPropertyOp57
 70
     1
102
RTVSPropertyOp58
 70
     1
102
RTVSPropertyOp59
 70
     1
102
RTVSPropertyOp60
 70
     1
102
RTVSPropertyOp61
 70
     1
102
RTVSPropertyOp62
 70
     1
  0
XRECORD
  5
108F
102
{ACAD_REACTORS
330
108E
102
}
330
108E
100
AcDbXrecord
280
     1
102
RTVSPost2010Prop28
280
     0
102
RTVSPost2010PropOp28
 70
     1
102
RTVSPost2010Prop29
280
     1
102
RTVSPost2010PropOp29
 70
     1
102
RTVSPost2010Prop30
280
     1
102
RTVSPost2010PropOp30
 70
     1
102
RTVSPost2010Prop31
280
     0
102
RTVSPost2010PropOp31
 70
     1
102
RTVSPost2010Prop32
280
     0
102
RTVSPost2010PropOp32
 70
     1
102
RTVSPost2010Prop33
280
     0
102
RTVSPost2010PropOp33
 70
     1
102
RTVSPost2010Prop34
280
     0
102
RTVSPost2010PropOp34
 70
     1
102
RTVSPost2010Prop35
280
     0
102
RTVSPost2010PropOp35
 70
     1
102
RTVSPost2010Prop36
280
     0
102
RTVSPost2010PropOp36
 70
     1
102
RTVSPost2010Prop37
 90
       50
102
RTVSPost2010PropOp37
 70
     1
102
RTVSPost2010Prop38
140
0.0
102
RTVSPost2010PropOp38
 70
     1
102
RTVSPost2010Prop39
140
1.0
102
RTVSPost2010PropOp39
 70
     1
102
RTVSPost2010Prop40
 90
        0
102
RTVSPost2010PropOp40
 70
     1
102
RTVSPost2010Prop41ColorIndex
 90
       18
102
RTVSPost2010Prop41ColorRGB
 90
        0
102
RTVSPost2010PropOp41
 70
     1
102
RTVSPost2010Prop42
 90
       50
102
RTVSPost2010PropOp42
 70
     1
102
RTVSPost2010Prop43
 90
        3
102
RTVSPost2010PropOp43
 70
     1
102
RTVSPost2010Prop44ColorIndex
 90
        5
102
RTVSPost2010Prop44ColorRGB
 90
      255
102
RTVSPost2010PropOp44
 70
     1
102
RTVSPost2010Prop45
280
     0
102
RTVSPost2010PropOp45
 70
     1
102
RTVSPost2010Prop46
 90
       50
102
RTVSPost2010PropOp46
 70
     1
102
RTVSPost2010Prop47
 90
       50
102
RTVSPost2010PropOp47
 70
     1
102
RTVSPost2010Prop48
 90
       50
102
RTVSPost2010PropOp48
 70
     1
102
RTVSPost2010Prop49
280
     0
102
RTVSPost2010PropOp49
 70
     1
102
RTVSPost2010Prop50
 90
       50
102
RTVSPost2010PropOp50
 70
     1
102
RTVSPost2010Prop51ColorIndex
 90
      256
102
RTVSPost2010Prop51ColorRGB
 90
-16777216
102
RTVSPost2010PropOp51
 70
     0
102
RTVSPost2010Prop52
140
1.0
102
RTVSPost2010PropOp52
 70
     0
102
RTVSPost2010Prop53
 90
        2
102
RTVSPost2010PropOp53
 70
     1
102
RTVSPost2010Prop54
  1
strokes_ogs.tif
102
RTVSPost2010PropOp54
 70
     1
102
RTVSPost2010Prop55
280
     0
102
RTVSPost2010PropOp55
 70
     1
102
RTVSPost2010Prop56
140
1.0
102
RTVSPost2010PropOp56
 70
     1
102
RTVSPost2010Prop57
140
1.0
102
RTVSPost2010PropOp57
 70
     1
102
RTVSPropertyOp0
 70
     1
102
RTVSPropertyOp1
 70
     1
102
RTVSPropertyOp2
 70
     1
102
RTVSPropertyOp3
 70
     1
102
RTVSPropertyOp4
 70
     1
102
RTVSPropertyOp5
 70
     1
102
RTVSPropertyOp6
 70
     1
102
RTVSPropertyOp7
 70
     1
102
RTVSPropertyOp8
 70
     1
102
RTVSPropertyOp9
 70
     1
102
RTVSPropertyOp10
 70
     1
102
RTVSPropertyOp11
 70
     1
102
RTVSPropertyOp12
 70
     1
102
RTVSPropertyOp13
 70
     1
102
RTVSPropertyOp14
 70
     1
102
RTVSPropertyOp15
 70
     1
102
RTVSPropertyOp16
 70
     1
102
RTVSPropertyOp17
 70
     1
102
RTVSPropertyOp18
 70
     1
102
RTVSPropertyOp19
 70
     1
102
RTVSPropertyOp20
 70
     1
102
RTVSPropertyOp21
 70
     1
102
RTVSPropertyOp22
 70
     1
102
RTVSPropertyOp23
 70
     1
102
RTVSPropertyOp24
 70
     1
102
RTVSPropertyOp25
 70
     1
102
RTVSPropertyOp26
 70
     1
102
RTVSPropertyOp27
 70
     1
102
RTVSPropertyOp28
 70
     1
102
RTVSPropertyOp29
 70
     1
102
RTVSPropertyOp30
 70
     1
102
RTVSPropertyOp31
 70
     1
102
RTVSPropertyOp32
 70
     1
102
RTVSPropertyOp33
 70
     1
102
RTVSPropertyOp34
 70
     1
102
RTVSPropertyOp35
 70
     1
102
RTVSPropertyOp36
 70
     1
102
RTVSPropertyOp37
 70
     1
102
RTVSPropertyOp38
 70
     1
102
RTVSPropertyOp39
 70
     1
102
RTVSPropertyOp40
 70
     1
102
RTVSPropertyOp41
 70
     1
102
RTVSPropertyOp42
 70
     1
102
RTVSPropertyOp43
 70
     1
102
RTVSPropertyOp44
 70
     1
102
RTVSPropertyOp45
 70
     1
102
RTVSPropertyOp46
 70
     1
102
RTVSPropertyOp47
 70
     1
102
RTVSPropertyOp48
 70
     1
102
RTVSPropertyOp49
 70
     1
102
RTVSPropertyOp50
 70
     1
102
RTVSPropertyOp51
 70
     0
102
RTVSPropertyOp52
 70
     0
102
RTVSPropertyOp53
 70
     1
102
RTVSPropertyOp54
 70
     1
102
RTVSPropertyOp55
 70
     1
102
RTVSPropertyOp56
 70
     1
102
RTVSPropertyOp57
 70
     1
102
RTVSPropertyOp58
 70
     1
102
RTVSPropertyOp59
 70
     1
102
RTVSPropertyOp60
 70
     1
102
RTVSPropertyOp61
 70
     1
102
RTVSPropertyOp62
 70
     1
  0
XRECORD
  5
109D
102
{ACAD_REACTORS
330
109C
102
}
330
109C
100
AcDbXrecord
280
     1
102
RTVSPost2010Prop28
280
     0
102
RTVSPost2010PropOp28
 70
     1
102
RTVSPost2010Prop29
280
     1
102
RTVSPost2010PropOp29
 70
     1
102
RTVSPost2010Prop30
280
     1
102
RTVSPost2010PropOp30
 70
     1
102
RTVSPost2010Prop31
280
     0
102
RTVSPost2010PropOp31
 70
     1
102
RTVSPost2010Prop32
280
     0
102
RTVSPost2010PropOp32
 70
     1
102
RTVSPost2010Prop33
280
     0
102
RTVSPost2010PropOp33
 70
     1
102
RTVSPost2010Prop34
280
     0
102
RTVSPost2010PropOp34
 70
     1
102
RTVSPost2010Prop35
280
     0
102
RTVSPost2010PropOp35
 70
     1
102
RTVSPost2010Prop36
280
     0
102
RTVSPost2010PropOp36
 70
     1
102
RTVSPost2010Prop37
 90
       50
102
RTVSPost2010PropOp37
 70
     1
102
RTVSPost2010Prop38
140
0.0
102
RTVSPost2010PropOp38
 70
     1
102
RTVSPost2010Prop39
140
1.0
102
RTVSPost2010PropOp39
 70
     1
102
RTVSPost2010Prop40
 90
        0
102
RTVSPost2010PropOp40
 70
     1
102
RTVSPost2010Prop41ColorIndex
 90
       18
102
RTVSPost2010Prop41ColorRGB
 90
        0
102
RTVSPost2010PropOp41
 70
     1
102
RTVSPost2010Prop42
 90
       50
102
RTVSPost2010PropOp42
 70
     1
102
RTVSPost2010Prop43
 90
        3
102
RTVSPost2010PropOp43
 70
     1
102
RTVSPost2010Prop44ColorIndex
 90
        5
102
RTVSPost2010Prop44ColorRGB
 90
      255
102
RTVSPost2010PropOp44
 70
     1
102
RTVSPost2010Prop45
280
     0
102
RTVSPost2010PropOp45
 70
     1
102
RTVSPost2010Prop46
 90
       50
102
RTVSPost2010PropOp46
 70
     1
102
RTVSPost2010Prop47
 90
       50
102
RTVSPost2010PropOp47
 70
     1
102
RTVSPost2010Prop48
 90
       50
102
RTVSPost2010PropOp48
 70
     1
102
RTVSPost2010Prop49
280
     0
102
RTVSPost2010PropOp49
 70
     1
102
RTVSPost2010Prop50
 90
       50
102
RTVSPost2010PropOp50
 70
     1
102
RTVSPost2010Prop51ColorIndex
 90
      256
102
RTVSPost2010Prop51ColorRGB
 90
-16777216
102
RTVSPost2010PropOp51
 70
     0
102
RTVSPost2010Prop52
140
1.0
102
RTVSPost2010PropOp52
 70
     0
102
RTVSPost2010Prop53
 90
        2
102
RTVSPost2010PropOp53
 70
     1
102
RTVSPost2010Prop54
  1
strokes_ogs.tif
102
RTVSPost2010PropOp54
 70
     1
102
RTVSPost2010Prop55
280
     0
102
RTVSPost2010PropOp55
 70
     1
102
RTVSPost2010Prop56
140
1.0
102
RTVSPost2010PropOp56
 70
     1
102
RTVSPost2010Prop57
140
1.0
102
RTVSPost2010PropOp57
 70
     1
102
RTVSPropertyOp0
 70
     1
102
RTVSPropertyOp1
 70
     1
102
RTVSPropertyOp2
 70
     1
102
RTVSPropertyOp3
 70
     1
102
RTVSPropertyOp4
 70
     1
102
RTVSPropertyOp5
 70
     1
102
RTVSPropertyOp6
 70
     1
102
RTVSPropertyOp7
 70
     1
102
RTVSPropertyOp8
 70
     1
102
RTVSPropertyOp9
 70
     1
102
RTVSPropertyOp10
 70
     1
102
RTVSPropertyOp11
 70
     1
102
RTVSPropertyOp12
 70
     1
102
RTVSPropertyOp13
 70
     1
102
RTVSPropertyOp14
 70
     1
102
RTVSPropertyOp15
 70
     1
102
RTVSPropertyOp16
 70
     1
102
RTVSPropertyOp17
 70
     1
102
RTVSPropertyOp18
 70
     1
102
RTVSPropertyOp19
 70
     1
102
RTVSPropertyOp20
 70
     1
102
RTVSPropertyOp21
 70
     1
102
RTVSPropertyOp22
 70
     1
102
RTVSPropertyOp23
 70
     1
102
RTVSPropertyOp24
 70
     1
102
RTVSPropertyOp25
 70
     1
102
RTVSPropertyOp26
 70
     1
102
RTVSPropertyOp27
 70
     1
102
RTVSPropertyOp28
 70
     1
102
RTVSPropertyOp29
 70
     1
102
RTVSPropertyOp30
 70
     1
102
RTVSPropertyOp31
 70
     1
102
RTVSPropertyOp32
 70
     1
102
RTVSPropertyOp33
 70
     1
102
RTVSPropertyOp34
 70
     1
102
RTVSPropertyOp35
 70
     1
102
RTVSPropertyOp36
 70
     1
102
RTVSPropertyOp37
 70
     1
102
RTVSPropertyOp38
 70
     1
102
RTVSPropertyOp39
 70
     1
102
RTVSPropertyOp40
 70
     1
102
RTVSPropertyOp41
 70
     1
102
RTVSPropertyOp42
 70
     1
102
RTVSPropertyOp43
 70
     1
102
RTVSPropertyOp44
 70
     1
102
RTVSPropertyOp45
 70
     1
102
RTVSPropertyOp46
 70
     1
102
RTVSPropertyOp47
 70
     1
102
RTVSPropertyOp48
 70
     1
102
RTVSPropertyOp49
 70
     1
102
RTVSPropertyOp50
 70
     1
102
RTVSPropertyOp51
 70
     0
102
RTVSPropertyOp52
 70
     0
102
RTVSPropertyOp53
 70
     1
102
RTVSPropertyOp54
 70
     1
102
RTVSPropertyOp55
 70
     1
102
RTVSPropertyOp56
 70
     1
102
RTVSPropertyOp57
 70
     1
102
RTVSPropertyOp58
 70
     1
102
RTVSPropertyOp59
 70
     1
102
RTVSPropertyOp60
 70
     1
102
RTVSPropertyOp61
 70
     1
102
RTVSPropertyOp62
 70
     1
  0
XRECORD
  5
10A5
102
{ACAD_REACTORS
330
10A4
102
}
330
10A4
100
AcDbXrecord
280
     1
102
RTVSPost2010Prop28
280
     0
102
RTVSPost2010PropOp28
 70
     1
102
RTVSPost2010Prop29
280
     1
102
RTVSPost2010PropOp29
 70
     1
102
RTVSPost2010Prop30
280
     1
102
RTVSPost2010PropOp30
 70
     1
102
RTVSPost2010Prop31
280
     0
102
RTVSPost2010PropOp31
 70
     1
102
RTVSPost2010Prop32
280
     0
102
RTVSPost2010PropOp32
 70
     1
102
RTVSPost2010Prop33
280
     0
102
RTVSPost2010PropOp33
 70
     1
102
RTVSPost2010Prop34
280
     0
102
RTVSPost2010PropOp34
 70
     1
102
RTVSPost2010Prop35
280
     0
102
RTVSPost2010PropOp35
 70
     1
102
RTVSPost2010Prop36
280
     0
102
RTVSPost2010PropOp36
 70
     1
102
RTVSPost2010Prop37
 90
       50
102
RTVSPost2010PropOp37
 70
     1
102
RTVSPost2010Prop38
140
0.0
102
RTVSPost2010PropOp38
 70
     1
102
RTVSPost2010Prop39
140
1.0
102
RTVSPost2010PropOp39
 70
     1
102
RTVSPost2010Prop40
 90
        0
102
RTVSPost2010PropOp40
 70
     1
102
RTVSPost2010Prop41ColorIndex
 90
       18
102
RTVSPost2010Prop41ColorRGB
 90
        0
102
RTVSPost2010PropOp41
 70
     1
102
RTVSPost2010Prop42
 90
       50
102
RTVSPost2010PropOp42
 70
     1
102
RTVSPost2010Prop43
 90
        3
102
RTVSPost2010PropOp43
 70
     1
102
RTVSPost2010Prop44ColorIndex
 90
        5
102
RTVSPost2010Prop44ColorRGB
 90
      255
102
RTVSPost2010PropOp44
 70
     1
102
RTVSPost2010Prop45
280
     0
102
RTVSPost2010PropOp45
 70
     1
102
RTVSPost2010Prop46
 90
       50
102
RTVSPost2010PropOp46
 70
     1
102
RTVSPost2010Prop47
 90
       50
102
RTVSPost2010PropOp47
 70
     1
102
RTVSPost2010Prop48
 90
       50
102
RTVSPost2010PropOp48
 70
     1
102
RTVSPost2010Prop49
280
     0
102
RTVSPost2010PropOp49
 70
     1
102
RTVSPost2010Prop50
 90
       50
102
RTVSPost2010PropOp50
 70
     1
102
RTVSPost2010Prop51ColorIndex
 90
      256
102
RTVSPost2010Prop51ColorRGB
 90
-16777216
102
RTVSPost2010PropOp51
 70
     0
102
RTVSPost2010Prop52
140
1.0
102
RTVSPost2010PropOp52
 70
     0
102
RTVSPost2010Prop53
 90
        2
102
RTVSPost2010PropOp53
 70
     1
102
RTVSPost2010Prop54
  1
strokes_ogs.tif
102
RTVSPost2010PropOp54
 70
     1
102
RTVSPost2010Prop55
280
     0
102
RTVSPost2010PropOp55
 70
     1
102
RTVSPost2010Prop56
140
1.0
102
RTVSPost2010PropOp56
 70
     1
102
RTVSPost2010Prop57
140
1.0
102
RTVSPost2010PropOp57
 70
     1
102
RTVSPropertyOp0
 70
     1
102
RTVSPropertyOp1
 70
     1
102
RTVSPropertyOp2
 70
     1
102
RTVSPropertyOp3
 70
     1
102
RTVSPropertyOp4
 70
     1
102
RTVSPropertyOp5
 70
     1
102
RTVSPropertyOp6
 70
     1
102
RTVSPropertyOp7
 70
     1
102
RTVSPropertyOp8
 70
     1
102
RTVSPropertyOp9
 70
     1
102
RTVSPropertyOp10
 70
     1
102
RTVSPropertyOp11
 70
     1
102
RTVSPropertyOp12
 70
     1
102
RTVSPropertyOp13
 70
     1
102
RTVSPropertyOp14
 70
     1
102
RTVSPropertyOp15
 70
     1
102
RTVSPropertyOp16
 70
     1
102
RTVSPropertyOp17
 70
     1
102
RTVSPropertyOp18
 70
     1
102
RTVSPropertyOp19
 70
     1
102
RTVSPropertyOp20
 70
     1
102
RTVSPropertyOp21
 70
     1
102
RTVSPropertyOp22
 70
     1
102
RTVSPropertyOp23
 70
     1
102
RTVSPropertyOp24
 70
     1
102
RTVSPropertyOp25
 70
     1
102
RTVSPropertyOp26
 70
     1
102
RTVSPropertyOp27
 70
     1
102
RTVSPropertyOp28
 70
     1
102
RTVSPropertyOp29
 70
     1
102
RTVSPropertyOp30
 70
     1
102
RTVSPropertyOp31
 70
     1
102
RTVSPropertyOp32
 70
     1
102
RTVSPropertyOp33
 70
     1
102
RTVSPropertyOp34
 70
     1
102
RTVSPropertyOp35
 70
     1
102
RTVSPropertyOp36
 70
     1
102
RTVSPropertyOp37
 70
     1
102
RTVSPropertyOp38
 70
     1
102
RTVSPropertyOp39
 70
     1
102
RTVSPropertyOp40
 70
     1
102
RTVSPropertyOp41
 70
     1
102
RTVSPropertyOp42
 70
     1
102
RTVSPropertyOp43
 70
     1
102
RTVSPropertyOp44
 70
     1
102
RTVSPropertyOp45
 70
     1
102
RTVSPropertyOp46
 70
     1
102
RTVSPropertyOp47
 70
     1
102
RTVSPropertyOp48
 70
     1
102
RTVSPropertyOp49
 70
     1
102
RTVSPropertyOp50
 70
     1
102
RTVSPropertyOp51
 70
     0
102
RTVSPropertyOp52
 70
     0
102
RTVSPropertyOp53
 70
     1
102
RTVSPropertyOp54
 70
     1
102
RTVSPropertyOp55
 70
     1
102
RTVSPropertyOp56
 70
     1
102
RTVSPropertyOp57
 70
     1
102
RTVSPropertyOp58
 70
     1
102
RTVSPropertyOp59
 70
     1
102
RTVSPropertyOp60
 70
     1
102
RTVSPropertyOp61
 70
     1
102
RTVSPropertyOp62
 70
     1
  0
XRECORD
  5
1097
102
{ACAD_REACTORS
330
1096
102
}
330
1096
100
AcDbXrecord
280
     1
102
RTVSPost2010Prop28
280
     0
102
RTVSPost2010PropOp28
 70
     1
102
RTVSPost2010Prop29
280
     1
102
RTVSPost2010PropOp29
 70
     1
102
RTVSPost2010Prop30
280
     1
102
RTVSPost2010PropOp30
 70
     1
102
RTVSPost2010Prop31
280
     0
102
RTVSPost2010PropOp31
 70
     1
102
RTVSPost2010Prop32
280
     0
102
RTVSPost2010PropOp32
 70
     1
102
RTVSPost2010Prop33
280
     0
102
RTVSPost2010PropOp33
 70
     1
102
RTVSPost2010Prop34
280
     0
102
RTVSPost2010PropOp34
 70
     1
102
RTVSPost2010Prop35
280
     0
102
RTVSPost2010PropOp35
 70
     1
102
RTVSPost2010Prop36
280
     0
102
RTVSPost2010PropOp36
 70
     1
102
RTVSPost2010Prop37
 90
       50
102
RTVSPost2010PropOp37
 70
     1
102
RTVSPost2010Prop38
140
0.0
102
RTVSPost2010PropOp38
 70
     1
102
RTVSPost2010Prop39
140
1.0
102
RTVSPost2010PropOp39
 70
     1
102
RTVSPost2010Prop40
 90
        0
102
RTVSPost2010PropOp40
 70
     1
102
RTVSPost2010Prop41ColorIndex
 90
       18
102
RTVSPost2010Prop41ColorRGB
 90
        0
102
RTVSPost2010PropOp41
 70
     1
102
RTVSPost2010Prop42
 90
       50
102
RTVSPost2010PropOp42
 70
     1
102
RTVSPost2010Prop43
 90
        3
102
RTVSPost2010PropOp43
 70
     1
102
RTVSPost2010Prop44ColorIndex
 90
        5
102
RTVSPost2010Prop44ColorRGB
 90
      255
102
RTVSPost2010PropOp44
 70
     1
102
RTVSPost2010Prop45
280
     0
102
RTVSPost2010PropOp45
 70
     1
102
RTVSPost2010Prop46
 90
       50
102
RTVSPost2010PropOp46
 70
     1
102
RTVSPost2010Prop47
 90
       50
102
RTVSPost2010PropOp47
 70
     1
102
RTVSPost2010Prop48
 90
       50
102
RTVSPost2010PropOp48
 70
     1
102
RTVSPost2010Prop49
280
     0
102
RTVSPost2010PropOp49
 70
     1
102
RTVSPost2010Prop50
 90
       50
102
RTVSPost2010PropOp50
 70
     1
102
RTVSPost2010Prop51ColorIndex
 90
      256
102
RTVSPost2010Prop51ColorRGB
 90
-16777216
102
RTVSPost2010PropOp51
 70
     0
102
RTVSPost2010Prop52
140
1.0
102
RTVSPost2010PropOp52
 70
     0
102
RTVSPost2010Prop53
 90
        2
102
RTVSPost2010PropOp53
 70
     1
102
RTVSPost2010Prop54
  1
strokes_ogs.tif
102
RTVSPost2010PropOp54
 70
     1
102
RTVSPost2010Prop55
280
     0
102
RTVSPost2010PropOp55
 70
     1
102
RTVSPost2010Prop56
140
1.0
102
RTVSPost2010PropOp56
 70
     1
102
RTVSPost2010Prop57
140
1.0
102
RTVSPost2010PropOp57
 70
     1
102
RTVSPropertyOp0
 70
     1
102
RTVSPropertyOp1
 70
     1
102
RTVSPropertyOp2
 70
     1
102
RTVSPropertyOp3
 70
     1
102
RTVSPropertyOp4
 70
     1
102
RTVSPropertyOp5
 70
     1
102
RTVSPropertyOp6
 70
     1
102
RTVSPropertyOp7
 70
     1
102
RTVSPropertyOp8
 70
     1
102
RTVSPropertyOp9
 70
     1
102
RTVSPropertyOp10
 70
     1
102
RTVSPropertyOp11
 70
     1
102
RTVSPropertyOp12
 70
     1
102
RTVSPropertyOp13
 70
     1
102
RTVSPropertyOp14
 70
     1
102
RTVSPropertyOp15
 70
     1
102
RTVSPropertyOp16
 70
     1
102
RTVSPropertyOp17
 70
     1
102
RTVSPropertyOp18
 70
     1
102
RTVSPropertyOp19
 70
     1
102
RTVSPropertyOp20
 70
     1
102
RTVSPropertyOp21
 70
     1
102
RTVSPropertyOp22
 70
     1
102
RTVSPropertyOp23
 70
     1
102
RTVSPropertyOp24
 70
     1
102
RTVSPropertyOp25
 70
     1
102
RTVSPropertyOp26
 70
     1
102
RTVSPropertyOp27
 70
     1
102
RTVSPropertyOp28
 70
     1
102
RTVSPropertyOp29
 70
     1
102
RTVSPropertyOp30
 70
     1
102
RTVSPropertyOp31
 70
     1
102
RTVSPropertyOp32
 70
     1
102
RTVSPropertyOp33
 70
     1
102
RTVSPropertyOp34
 70
     1
102
RTVSPropertyOp35
 70
     1
102
RTVSPropertyOp36
 70
     1
102
RTVSPropertyOp37
 70
     1
102
RTVSPropertyOp38
 70
     1
102
RTVSPropertyOp39
 70
     1
102
RTVSPropertyOp40
 70
     1
102
RTVSPropertyOp41
 70
     1
102
RTVSPropertyOp42
 70
     1
102
RTVSPropertyOp43
 70
     1
102
RTVSPropertyOp44
 70
     1
102
RTVSPropertyOp45
 70
     1
102
RTVSPropertyOp46
 70
     1
102
RTVSPropertyOp47
 70
     1
102
RTVSPropertyOp48
 70
     1
102
RTVSPropertyOp49
 70
     1
102
RTVSPropertyOp50
 70
     1
102
RTVSPropertyOp51
 70
     0
102
RTVSPropertyOp52
 70
     0
102
RTVSPropertyOp53
 70
     1
102
RTVSPropertyOp54
 70
     1
102
RTVSPropertyOp55
 70
     1
102
RTVSPropertyOp56
 70
     1
102
RTVSPropertyOp57
 70
     1
102
RTVSPropertyOp58
 70
     1
102
RTVSPropertyOp59
 70
     1
102
RTVSPropertyOp60
 70
     1
102
RTVSPropertyOp61
 70
     1
102
RTVSPropertyOp62
 70
     1
  0
XRECORD
  5
109B
102
{ACAD_REACTORS
330
109A
102
}
330
109A
100
AcDbXrecord
280
     1
102
RTVSPost2010Prop28
280
     0
102
RTVSPost2010PropOp28
 70
     1
102
RTVSPost2010Prop29
280
     1
102
RTVSPost2010PropOp29
 70
     1
102
RTVSPost2010Prop30
280
     1
102
RTVSPost2010PropOp30
 70
     1
102
RTVSPost2010Prop31
280
     0
102
RTVSPost2010PropOp31
 70
     1
102
RTVSPost2010Prop32
280
     0
102
RTVSPost2010PropOp32
 70
     1
102
RTVSPost2010Prop33
280
     0
102
RTVSPost2010PropOp33
 70
     1
102
RTVSPost2010Prop34
280
     0
102
RTVSPost2010PropOp34
 70
     1
102
RTVSPost2010Prop35
280
     0
102
RTVSPost2010PropOp35
 70
     1
102
RTVSPost2010Prop36
280
     0
102
RTVSPost2010PropOp36
 70
     1
102
RTVSPost2010Prop37
 90
       50
102
RTVSPost2010PropOp37
 70
     1
102
RTVSPost2010Prop38
140
0.0
102
RTVSPost2010PropOp38
 70
     1
102
RTVSPost2010Prop39
140
1.0
102
RTVSPost2010PropOp39
 70
     1
102
RTVSPost2010Prop40
 90
        0
102
RTVSPost2010PropOp40
 70
     1
102
RTVSPost2010Prop41ColorIndex
 90
       18
102
RTVSPost2010Prop41ColorRGB
 90
        0
102
RTVSPost2010PropOp41
 70
     1
102
RTVSPost2010Prop42
 90
       50
102
RTVSPost2010PropOp42
 70
     1
102
RTVSPost2010Prop43
 90
        3
102
RTVSPost2010PropOp43
 70
     1
102
RTVSPost2010Prop44ColorIndex
 90
        5
102
RTVSPost2010Prop44ColorRGB
 90
      255
102
RTVSPost2010PropOp44
 70
     1
102
RTVSPost2010Prop45
280
     0
102
RTVSPost2010PropOp45
 70
     1
102
RTVSPost2010Prop46
 90
       50
102
RTVSPost2010PropOp46
 70
     1
102
RTVSPost2010Prop47
 90
       50
102
RTVSPost2010PropOp47
 70
     1
102
RTVSPost2010Prop48
 90
       50
102
RTVSPost2010PropOp48
 70
     1
102
RTVSPost2010Prop49
280
     0
102
RTVSPost2010PropOp49
 70
     1
102
RTVSPost2010Prop50
 90
       50
102
RTVSPost2010PropOp50
 70
     1
102
RTVSPost2010Prop51ColorIndex
 90
      256
102
RTVSPost2010Prop51ColorRGB
 90
-16777216
102
RTVSPost2010PropOp51
 70
     0
102
RTVSPost2010Prop52
140
1.0
102
RTVSPost2010PropOp52
 70
     0
102
RTVSPost2010Prop53
 90
        2
102
RTVSPost2010PropOp53
 70
     1
102
RTVSPost2010Prop54
  1
strokes_ogs.tif
102
RTVSPost2010PropOp54
 70
     1
102
RTVSPost2010Prop55
280
     0
102
RTVSPost2010PropOp55
 70
     1
102
RTVSPost2010Prop56
140
1.0
102
RTVSPost2010PropOp56
 70
     1
102
RTVSPost2010Prop57
140
1.0
102
RTVSPost2010PropOp57
 70
     1
102
RTVSPropertyOp0
 70
     1
102
RTVSPropertyOp1
 70
     1
102
RTVSPropertyOp2
 70
     1
102
RTVSPropertyOp3
 70
     1
102
RTVSPropertyOp4
 70
     1
102
RTVSPropertyOp5
 70
     1
102
RTVSPropertyOp6
 70
     1
102
RTVSPropertyOp7
 70
     1
102
RTVSPropertyOp8
 70
     1
102
RTVSPropertyOp9
 70
     1
102
RTVSPropertyOp10
 70
     1
102
RTVSPropertyOp11
 70
     1
102
RTVSPropertyOp12
 70
     1
102
RTVSPropertyOp13
 70
     1
102
RTVSPropertyOp14
 70
     1
102
RTVSPropertyOp15
 70
     1
102
RTVSPropertyOp16
 70
     1
102
RTVSPropertyOp17
 70
     1
102
RTVSPropertyOp18
 70
     1
102
RTVSPropertyOp19
 70
     1
102
RTVSPropertyOp20
 70
     1
102
RTVSPropertyOp21
 70
     1
102
RTVSPropertyOp22
 70
     1
102
RTVSPropertyOp23
 70
     1
102
RTVSPropertyOp24
 70
     1
102
RTVSPropertyOp25
 70
     1
102
RTVSPropertyOp26
 70
     1
102
RTVSPropertyOp27
 70
     1
102
RTVSPropertyOp28
 70
     1
102
RTVSPropertyOp29
 70
     1
102
RTVSPropertyOp30
 70
     1
102
RTVSPropertyOp31
 70
     1
102
RTVSPropertyOp32
 70
     1
102
RTVSPropertyOp33
 70
     1
102
RTVSPropertyOp34
 70
     1
102
RTVSPropertyOp35
 70
     1
102
RTVSPropertyOp36
 70
     1
102
RTVSPropertyOp37
 70
     1
102
RTVSPropertyOp38
 70
     1
102
RTVSPropertyOp39
 70
     1
102
RTVSPropertyOp40
 70
     1
102
RTVSPropertyOp41
 70
     1
102
RTVSPropertyOp42
 70
     1
102
RTVSPropertyOp43
 70
     1
102
RTVSPropertyOp44
 70
     1
102
RTVSPropertyOp45
 70
     1
102
RTVSPropertyOp46
 70
     1
102
RTVSPropertyOp47
 70
     1
102
RTVSPropertyOp48
 70
     1
102
RTVSPropertyOp49
 70
     1
102
RTVSPropertyOp50
 70
     1
102
RTVSPropertyOp51
 70
     0
102
RTVSPropertyOp52
 70
     0
102
RTVSPropertyOp53
 70
     1
102
RTVSPropertyOp54
 70
     1
102
RTVSPropertyOp55
 70
     1
102
RTVSPropertyOp56
 70
     1
102
RTVSPropertyOp57
 70
     1
102
RTVSPropertyOp58
 70
     1
102
RTVSPropertyOp59
 70
     1
102
RTVSPropertyOp60
 70
     1
102
RTVSPropertyOp61
 70
     1
102
RTVSPropertyOp62
 70
     1
  0
XRECORD
  5
10B5
102
{ACAD_REACTORS
330
10B4
102
}
330
10B4
100
AcDbXrecord
280
     1
102
RTVSPost2010Prop28
280
     0
102
RTVSPost2010PropOp28
 70
     1
102
RTVSPost2010Prop29
280
     1
102
RTVSPost2010PropOp29
 70
     1
102
RTVSPost2010Prop30
280
     1
102
RTVSPost2010PropOp30
 70
     1
102
RTVSPost2010Prop31
280
     0
102
RTVSPost2010PropOp31
 70
     1
102
RTVSPost2010Prop32
280
     0
102
RTVSPost2010PropOp32
 70
     1
102
RTVSPost2010Prop33
280
     0
102
RTVSPost2010PropOp33
 70
     1
102
RTVSPost2010Prop34
280
     0
102
RTVSPost2010PropOp34
 70
     1
102
RTVSPost2010Prop35
280
     0
102
RTVSPost2010PropOp35
 70
     1
102
RTVSPost2010Prop36
280
     0
102
RTVSPost2010PropOp36
 70
     1
102
RTVSPost2010Prop37
 90
       50
102
RTVSPost2010PropOp37
 70
     0
102
RTVSPost2010Prop38
140
0.0
102
RTVSPost2010PropOp38
 70
     0
102
RTVSPost2010Prop39
140
1.0
102
RTVSPost2010PropOp39
 70
     0
102
RTVSPost2010Prop40
 90
        0
102
RTVSPost2010PropOp40
 70
     0
102
RTVSPost2010Prop41ColorIndex
 90
       18
102
RTVSPost2010Prop41ColorRGB
 90
        0
102
RTVSPost2010PropOp41
 70
     0
102
RTVSPost2010Prop42
 90
       50
102
RTVSPost2010PropOp42
 70
     0
102
RTVSPost2010Prop43
 90
        3
102
RTVSPost2010PropOp43
 70
     0
102
RTVSPost2010Prop44ColorIndex
 90
        5
102
RTVSPost2010Prop44ColorRGB
 90
      255
102
RTVSPost2010PropOp44
 70
     0
102
RTVSPost2010Prop45
280
     0
102
RTVSPost2010PropOp45
 70
     1
102
RTVSPost2010Prop46
 90
       50
102
RTVSPost2010PropOp46
 70
     0
102
RTVSPost2010Prop47
 90
       50
102
RTVSPost2010PropOp47
 70
     0
102
RTVSPost2010Prop48
 90
       50
102
RTVSPost2010PropOp48
 70
     0
102
RTVSPost2010Prop49
280
     0
102
RTVSPost2010PropOp49
 70
     1
102
RTVSPost2010Prop50
 90
       50
102
RTVSPost2010PropOp50
 70
     0
102
RTVSPost2010Prop51ColorIndex
 90
      256
102
RTVSPost2010Prop51ColorRGB
 90
-16777216
102
RTVSPost2010PropOp51
 70
     0
102
RTVSPost2010Prop52
140
1.0
102
RTVSPost2010PropOp52
 70
     0
102
RTVSPost2010Prop53
 90
        2
102
RTVSPost2010PropOp53
 70
     0
102
RTVSPost2010Prop54
  1
strokes_ogs.tif
102
RTVSPost2010PropOp54
 70
     0
102
RTVSPost2010Prop55
280
     0
102
RTVSPost2010PropOp55
 70
     1
102
RTVSPost2010Prop56
140
1.0
102
RTVSPost2010PropOp56
 70
     0
102
RTVSPost2010Prop57
140
1.0
102
RTVSPost2010PropOp57
 70
     0
102
RTVSPropertyOp0
 70
     0
102
RTVSPropertyOp1
 70
     0
102
RTVSPropertyOp2
 70
     0
102
RTVSPropertyOp3
 70
     0
102
RTVSPropertyOp4
 70
     0
102
RTVSPropertyOp5
 70
     0
102
RTVSPropertyOp6
 70
     0
102
RTVSPropertyOp7
 70
     0
102
RTVSPropertyOp8
 70
     0
102
RTVSPropertyOp9
 70
     0
102
RTVSPropertyOp10
 70
     0
102
RTVSPropertyOp11
 70
     0
102
RTVSPropertyOp12
 70
     0
102
RTVSPropertyOp13
 70
     0
102
RTVSPropertyOp14
 70
     2
102
RTVSPropertyOp15
 70
     0
102
RTVSPropertyOp16
 70
     0
102
RTVSPropertyOp17
 70
     0
102
RTVSPropertyOp18
 70
     0
102
RTVSPropertyOp19
 70
     0
102
RTVSPropertyOp20
 70
     0
102
RTVSPropertyOp21
 70
     0
102
RTVSPropertyOp22
 70
     0
102
RTVSPropertyOp23
 70
     0
102
RTVSPropertyOp24
 70
     0
102
RTVSPropertyOp25
 70
     0
102
RTVSPropertyOp26
 70
     0
102
RTVSPropertyOp27
 70
     0
102
RTVSPropertyOp28
 70
     1
102
RTVSPropertyOp29
 70
     1
102
RTVSPropertyOp30
 70
     1
102
RTVSPropertyOp31
 70
     1
102
RTVSPropertyOp32
 70
     1
102
RTVSPropertyOp33
 70
     1
102
RTVSPropertyOp34
 70
     1
102
RTVSPropertyOp35
 70
     1
102
RTVSPropertyOp36
 70
     1
102
RTVSPropertyOp37
 70
     0
102
RTVSPropertyOp38
 70
     0
102
RTVSPropertyOp39
 70
     0
102
RTVSPropertyOp40
 70
     0
102
RTVSPropertyOp41
 70
     0
102
RTVSPropertyOp42
 70
     0
102
RTVSPropertyOp43
 70
     0
102
RTVSPropertyOp44
 70
     0
102
RTVSPropertyOp45
 70
     1
102
RTVSPropertyOp46
 70
     0
102
RTVSPropertyOp47
 70
     0
102
RTVSPropertyOp48
 70
     0
102
RTVSPropertyOp49
 70
     1
102
RTVSPropertyOp50
 70
     0
102
RTVSPropertyOp51
 70
     0
102
RTVSPropertyOp52
 70
     0
102
RTVSPropertyOp53
 70
     0
102
RTVSPropertyOp54
 70
     0
102
RTVSPropertyOp55
 70
     1
102
RTVSPropertyOp56
 70
     0
102
RTVSPropertyOp57
 70
     0
102
RTVSPropertyOp58
 70
     1
102
RTVSPropertyOp59
 70
     1
102
RTVSPropertyOp60
 70
     1
102
RTVSPropertyOp61
 70
     1
102
RTVSPropertyOp62
 70
     1
  0
XRECORD
  5
10A3
102
{ACAD_REACTORS
330
10A2
102
}
330
10A2
100
AcDbXrecord
280
     1
102
RTVSPost2010Prop28
280
     0
102
RTVSPost2010PropOp28
 70
     1
102
RTVSPost2010Prop29
280
     1
102
RTVSPost2010PropOp29
 70
     1
102
RTVSPost2010Prop30
280
     1
102
RTVSPost2010PropOp30
 70
     1
102
RTVSPost2010Prop31
280
     0
102
RTVSPost2010PropOp31
 70
     1
102
RTVSPost2010Prop32
280
     0
102
RTVSPost2010PropOp32
 70
     1
102
RTVSPost2010Prop33
280
     0
102
RTVSPost2010PropOp33
 70
     1
102
RTVSPost2010Prop34
280
     0
102
RTVSPost2010PropOp34
 70
     1
102
RTVSPost2010Prop35
280
     0
102
RTVSPost2010PropOp35
 70
     1
102
RTVSPost2010Prop36
280
     0
102
RTVSPost2010PropOp36
 70
     1
102
RTVSPost2010Prop37
 90
       50
102
RTVSPost2010PropOp37
 70
     1
102
RTVSPost2010Prop38
140
0.0
102
RTVSPost2010PropOp38
 70
     1
102
RTVSPost2010Prop39
140
1.0
102
RTVSPost2010PropOp39
 70
     1
102
RTVSPost2010Prop40
 90
        0
102
RTVSPost2010PropOp40
 70
     1
102
RTVSPost2010Prop41ColorIndex
 90
       18
102
RTVSPost2010Prop41ColorRGB
 90
        0
102
RTVSPost2010PropOp41
 70
     1
102
RTVSPost2010Prop42
 90
       50
102
RTVSPost2010PropOp42
 70
     1
102
RTVSPost2010Prop43
 90
        3
102
RTVSPost2010PropOp43
 70
     1
102
RTVSPost2010Prop44ColorIndex
 90
        5
102
RTVSPost2010Prop44ColorRGB
 90
      255
102
RTVSPost2010PropOp44
 70
     1
102
RTVSPost2010Prop45
280
     0
102
RTVSPost2010PropOp45
 70
     1
102
RTVSPost2010Prop46
 90
       50
102
RTVSPost2010PropOp46
 70
     1
102
RTVSPost2010Prop47
 90
       50
102
RTVSPost2010PropOp47
 70
     1
102
RTVSPost2010Prop48
 90
       50
102
RTVSPost2010PropOp48
 70
     1
102
RTVSPost2010Prop49
280
     0
102
RTVSPost2010PropOp49
 70
     1
102
RTVSPost2010Prop50
 90
       50
102
RTVSPost2010PropOp50
 70
     1
102
RTVSPost2010Prop51ColorIndex
 90
      256
102
RTVSPost2010Prop51ColorRGB
 90
-16777216
102
RTVSPost2010PropOp51
 70
     0
102
RTVSPost2010Prop52
140
1.0
102
RTVSPost2010PropOp52
 70
     0
102
RTVSPost2010Prop53
 90
        2
102
RTVSPost2010PropOp53
 70
     1
102
RTVSPost2010Prop54
  1
strokes_ogs.tif
102
RTVSPost2010PropOp54
 70
     1
102
RTVSPost2010Prop55
280
     0
102
RTVSPost2010PropOp55
 70
     1
102
RTVSPost2010Prop56
140
1.0
102
RTVSPost2010PropOp56
 70
     1
102
RTVSPost2010Prop57
140
1.0
102
RTVSPost2010PropOp57
 70
     1
102
RTVSPropertyOp0
 70
     1
102
RTVSPropertyOp1
 70
     1
102
RTVSPropertyOp2
 70
     1
102
RTVSPropertyOp3
 70
     1
102
RTVSPropertyOp4
 70
     1
102
RTVSPropertyOp5
 70
     1
102
RTVSPropertyOp6
 70
     1
102
RTVSPropertyOp7
 70
     1
102
RTVSPropertyOp8
 70
     1
102
RTVSPropertyOp9
 70
     1
102
RTVSPropertyOp10
 70
     1
102
RTVSPropertyOp11
 70
     1
102
RTVSPropertyOp12
 70
     1
102
RTVSPropertyOp13
 70
     1
102
RTVSPropertyOp14
 70
     1
102
RTVSPropertyOp15
 70
     1
102
RTVSPropertyOp16
 70
     1
102
RTVSPropertyOp17
 70
     1
102
RTVSPropertyOp18
 70
     1
102
RTVSPropertyOp19
 70
     1
102
RTVSPropertyOp20
 70
     1
102
RTVSPropertyOp21
 70
     1
102
RTVSPropertyOp22
 70
     1
102
RTVSPropertyOp23
 70
     1
102
RTVSPropertyOp24
 70
     1
102
RTVSPropertyOp25
 70
     1
102
RTVSPropertyOp26
 70
     1
102
RTVSPropertyOp27
 70
     1
102
RTVSPropertyOp28
 70
     1
102
RTVSPropertyOp29
 70
     1
102
RTVSPropertyOp30
 70
     1
102
RTVSPropertyOp31
 70
     1
102
RTVSPropertyOp32
 70
     1
102
RTVSPropertyOp33
 70
     1
102
RTVSPropertyOp34
 70
     1
102
RTVSPropertyOp35
 70
     1
102
RTVSPropertyOp36
 70
     1
102
RTVSPropertyOp37
 70
     1
102
RTVSPropertyOp38
 70
     1
102
RTVSPropertyOp39
 70
     1
102
RTVSPropertyOp40
 70
     1
102
RTVSPropertyOp41
 70
     1
102
RTVSPropertyOp42
 70
     1
102
RTVSPropertyOp43
 70
     1
102
RTVSPropertyOp44
 70
     1
102
RTVSPropertyOp45
 70
     1
102
RTVSPropertyOp46
 70
     1
102
RTVSPropertyOp47
 70
     1
102
RTVSPropertyOp48
 70
     1
102
RTVSPropertyOp49
 70
     1
102
RTVSPropertyOp50
 70
     1
102
RTVSPropertyOp51
 70
     0
102
RTVSPropertyOp52
 70
     0
102
RTVSPropertyOp53
 70
     1
102
RTVSPropertyOp54
 70
     1
102
RTVSPropertyOp55
 70
     1
102
RTVSPropertyOp56
 70
     1
102
RTVSPropertyOp57
 70
     1
102
RTVSPropertyOp58
 70
     1
102
RTVSPropertyOp59
 70
     1
102
RTVSPropertyOp60
 70
     1
102
RTVSPropertyOp61
 70
     1
102
RTVSPropertyOp62
 70
     1
  0
XRECORD
  5
1087
102
{ACAD_REACTORS
330
1086
102
}
330
1086
100
AcDbXrecord
280
     1
102
RTVSPost2010Prop28
280
     0
102
RTVSPost2010PropOp28
 70
     1
102
RTVSPost2010Prop29
280
     1
102
RTVSPost2010PropOp29
 70
     1
102
RTVSPost2010Prop30
280
     1
102
RTVSPost2010PropOp30
 70
     1
102
RTVSPost2010Prop31
280
     0
102
RTVSPost2010PropOp31
 70
     1
102
RTVSPost2010Prop32
280
     0
102
RTVSPost2010PropOp32
 70
     1
102
RTVSPost2010Prop33
280
     0
102
RTVSPost2010PropOp33
 70
     1
102
RTVSPost2010Prop34
280
     0
102
RTVSPost2010PropOp34
 70
     1
102
RTVSPost2010Prop35
280
     0
102
RTVSPost2010PropOp35
 70
     1
102
RTVSPost2010Prop36
280
     0
102
RTVSPost2010PropOp36
 70
     1
102
RTVSPost2010Prop37
 90
       50
102
RTVSPost2010PropOp37
 70
     1
102
RTVSPost2010Prop38
140
0.0
102
RTVSPost2010PropOp38
 70
     1
102
RTVSPost2010Prop39
140
1.0
102
RTVSPost2010PropOp39
 70
     1
102
RTVSPost2010Prop40
 90
        0
102
RTVSPost2010PropOp40
 70
     1
102
RTVSPost2010Prop41ColorIndex
 90
       18
102
RTVSPost2010Prop41ColorRGB
 90
        0
102
RTVSPost2010PropOp41
 70
     1
102
RTVSPost2010Prop42
 90
       50
102
RTVSPost2010PropOp42
 70
     1
102
RTVSPost2010Prop43
 90
        3
102
RTVSPost2010PropOp43
 70
     1
102
RTVSPost2010Prop44ColorIndex
 90
        5
102
RTVSPost2010Prop44ColorRGB
 90
      255
102
RTVSPost2010PropOp44
 70
     1
102
RTVSPost2010Prop45
280
     0
102
RTVSPost2010PropOp45
 70
     1
102
RTVSPost2010Prop46
 90
       50
102
RTVSPost2010PropOp46
 70
     1
102
RTVSPost2010Prop47
 90
       50
102
RTVSPost2010PropOp47
 70
     1
102
RTVSPost2010Prop48
 90
       50
102
RTVSPost2010PropOp48
 70
     1
102
RTVSPost2010Prop49
280
     0
102
RTVSPost2010PropOp49
 70
     1
102
RTVSPost2010Prop50
 90
       50
102
RTVSPost2010PropOp50
 70
     1
102
RTVSPost2010Prop51ColorIndex
 90
      256
102
RTVSPost2010Prop51ColorRGB
 90
-16777216
102
RTVSPost2010PropOp51
 70
     0
102
RTVSPost2010Prop52
140
1.0
102
RTVSPost2010PropOp52
 70
     0
102
RTVSPost2010Prop53
 90
        2
102
RTVSPost2010PropOp53
 70
     1
102
RTVSPost2010Prop54
  1
strokes_ogs.tif
102
RTVSPost2010PropOp54
 70
     1
102
RTVSPost2010Prop55
280
     0
102
RTVSPost2010PropOp55
 70
     1
102
RTVSPost2010Prop56
140
1.0
102
RTVSPost2010PropOp56
 70
     1
102
RTVSPost2010Prop57
140
1.0
102
RTVSPost2010PropOp57
 70
     1
102
RTVSPropertyOp0
 70
     1
102
RTVSPropertyOp1
 70
     1
102
RTVSPropertyOp2
 70
     1
102
RTVSPropertyOp3
 70
     1
102
RTVSPropertyOp4
 70
     1
102
RTVSPropertyOp5
 70
     1
102
RTVSPropertyOp6
 70
     1
102
RTVSPropertyOp7
 70
     1
102
RTVSPropertyOp8
 70
     1
102
RTVSPropertyOp9
 70
     1
102
RTVSPropertyOp10
 70
     1
102
RTVSPropertyOp11
 70
     1
102
RTVSPropertyOp12
 70
     1
102
RTVSPropertyOp13
 70
     1
102
RTVSPropertyOp14
 70
     1
102
RTVSPropertyOp15
 70
     1
102
RTVSPropertyOp16
 70
     1
102
RTVSPropertyOp17
 70
     1
102
RTVSPropertyOp18
 70
     1
102
RTVSPropertyOp19
 70
     1
102
RTVSPropertyOp20
 70
     1
102
RTVSPropertyOp21
 70
     1
102
RTVSPropertyOp22
 70
     1
102
RTVSPropertyOp23
 70
     1
102
RTVSPropertyOp24
 70
     1
102
RTVSPropertyOp25
 70
     1
102
RTVSPropertyOp26
 70
     1
102
RTVSPropertyOp27
 70
     1
102
RTVSPropertyOp28
 70
     1
102
RTVSPropertyOp29
 70
     1
102
RTVSPropertyOp30
 70
     1
102
RTVSPropertyOp31
 70
     1
102
RTVSPropertyOp32
 70
     1
102
RTVSPropertyOp33
 70
     1
102
RTVSPropertyOp34
 70
     1
102
RTVSPropertyOp35
 70
     1
102
RTVSPropertyOp36
 70
     1
102
RTVSPropertyOp37
 70
     1
102
RTVSPropertyOp38
 70
     1
102
RTVSPropertyOp39
 70
     1
102
RTVSPropertyOp40
 70
     1
102
RTVSPropertyOp41
 70
     1
102
RTVSPropertyOp42
 70
     1
102
RTVSPropertyOp43
 70
     1
102
RTVSPropertyOp44
 70
     1
102
RTVSPropertyOp45
 70
     1
102
RTVSPropertyOp46
 70
     1
102
RTVSPropertyOp47
 70
     1
102
RTVSPropertyOp48
 70
     1
102
RTVSPropertyOp49
 70
     1
102
RTVSPropertyOp50
 70
     1
102
RTVSPropertyOp51
 70
     0
102
RTVSPropertyOp52
 70
     0
102
RTVSPropertyOp53
 70
     1
102
RTVSPropertyOp54
 70
     1
102
RTVSPropertyOp55
 70
     1
102
RTVSPropertyOp56
 70
     1
102
RTVSPropertyOp57
 70
     1
102
RTVSPropertyOp58
 70
     1
102
RTVSPropertyOp59
 70
     1
102
RTVSPropertyOp60
 70
     1
102
RTVSPropertyOp61
 70
     1
102
RTVSPropertyOp62
 70
     1
  0
XRECORD
  5
1089
102
{ACAD_REACTORS
330
1088
102
}
330
1088
100
AcDbXrecord
280
     1
102
RTVSPost2010Prop28
280
     0
102
RTVSPost2010PropOp28
 70
     1
102
RTVSPost2010Prop29
280
     1
102
RTVSPost2010PropOp29
 70
     1
102
RTVSPost2010Prop30
280
     1
102
RTVSPost2010PropOp30
 70
     1
102
RTVSPost2010Prop31
280
     0
102
RTVSPost2010PropOp31
 70
     1
102
RTVSPost2010Prop32
280
     0
102
RTVSPost2010PropOp32
 70
     1
102
RTVSPost2010Prop33
280
     0
102
RTVSPost2010PropOp33
 70
     1
102
RTVSPost2010Prop34
280
     0
102
RTVSPost2010PropOp34
 70
     1
102
RTVSPost2010Prop35
280
     0
102
RTVSPost2010PropOp35
 70
     1
102
RTVSPost2010Prop36
280
     0
102
RTVSPost2010PropOp36
 70
     1
102
RTVSPost2010Prop37
 90
       50
102
RTVSPost2010PropOp37
 70
     1
102
RTVSPost2010Prop38
140
0.0
102
RTVSPost2010PropOp38
 70
     1
102
RTVSPost2010Prop39
140
1.0
102
RTVSPost2010PropOp39
 70
     1
102
RTVSPost2010Prop40
 90
        0
102
RTVSPost2010PropOp40
 70
     1
102
RTVSPost2010Prop41ColorIndex
 90
       18
102
RTVSPost2010Prop41ColorRGB
 90
        0
102
RTVSPost2010PropOp41
 70
     1
102
RTVSPost2010Prop42
 90
       50
102
RTVSPost2010PropOp42
 70
     1
102
RTVSPost2010Prop43
 90
        3
102
RTVSPost2010PropOp43
 70
     1
102
RTVSPost2010Prop44ColorIndex
 90
        5
102
RTVSPost2010Prop44ColorRGB
 90
      255
102
RTVSPost2010PropOp44
 70
     1
102
RTVSPost2010Prop45
280
     0
102
RTVSPost2010PropOp45
 70
     1
102
RTVSPost2010Prop46
 90
       50
102
RTVSPost2010PropOp46
 70
     1
102
RTVSPost2010Prop47
 90
       50
102
RTVSPost2010PropOp47
 70
     1
102
RTVSPost2010Prop48
 90
       50
102
RTVSPost2010PropOp48
 70
     1
102
RTVSPost2010Prop49
280
     0
102
RTVSPost2010PropOp49
 70
     1
102
RTVSPost2010Prop50
 90
       50
102
RTVSPost2010PropOp50
 70
     1
102
RTVSPost2010Prop51ColorIndex
 90
      256
102
RTVSPost2010Prop51ColorRGB
 90
-16777216
102
RTVSPost2010PropOp51
 70
     0
102
RTVSPost2010Prop52
140
1.0
102
RTVSPost2010PropOp52
 70
     0
102
RTVSPost2010Prop53
 90
        2
102
RTVSPost2010PropOp53
 70
     1
102
RTVSPost2010Prop54
  1
strokes_ogs.tif
102
RTVSPost2010PropOp54
 70
     1
102
RTVSPost2010Prop55
280
     0
102
RTVSPost2010PropOp55
 70
     1
102
RTVSPost2010Prop56
140
1.0
102
RTVSPost2010PropOp56
 70
     1
102
RTVSPost2010Prop57
140
1.0
102
RTVSPost2010PropOp57
 70
     1
102
RTVSPropertyOp0
 70
     1
102
RTVSPropertyOp1
 70
     1
102
RTVSPropertyOp2
 70
     1
102
RTVSPropertyOp3
 70
     1
102
RTVSPropertyOp4
 70
     1
102
RTVSPropertyOp5
 70
     1
102
RTVSPropertyOp6
 70
     1
102
RTVSPropertyOp7
 70
     1
102
RTVSPropertyOp8
 70
     1
102
RTVSPropertyOp9
 70
     1
102
RTVSPropertyOp10
 70
     1
102
RTVSPropertyOp11
 70
     1
102
RTVSPropertyOp12
 70
     1
102
RTVSPropertyOp13
 70
     1
102
RTVSPropertyOp14
 70
     1
102
RTVSPropertyOp15
 70
     1
102
RTVSPropertyOp16
 70
     1
102
RTVSPropertyOp17
 70
     1
102
RTVSPropertyOp18
 70
     1
102
RTVSPropertyOp19
 70
     1
102
RTVSPropertyOp20
 70
     1
102
RTVSPropertyOp21
 70
     1
102
RTVSPropertyOp22
 70
     1
102
RTVSPropertyOp23
 70
     1
102
RTVSPropertyOp24
 70
     1
102
RTVSPropertyOp25
 70
     1
102
RTVSPropertyOp26
 70
     1
102
RTVSPropertyOp27
 70
     1
102
RTVSPropertyOp28
 70
     1
102
RTVSPropertyOp29
 70
     1
102
RTVSPropertyOp30
 70
     1
102
RTVSPropertyOp31
 70
     1
102
RTVSPropertyOp32
 70
     1
102
RTVSPropertyOp33
 70
     1
102
RTVSPropertyOp34
 70
     1
102
RTVSPropertyOp35
 70
     1
102
RTVSPropertyOp36
 70
     1
102
RTVSPropertyOp37
 70
     1
102
RTVSPropertyOp38
 70
     1
102
RTVSPropertyOp39
 70
     1
102
RTVSPropertyOp40
 70
     1
102
RTVSPropertyOp41
 70
     1
102
RTVSPropertyOp42
 70
     1
102
RTVSPropertyOp43
 70
     1
102
RTVSPropertyOp44
 70
     1
102
RTVSPropertyOp45
 70
     1
102
RTVSPropertyOp46
 70
     1
102
RTVSPropertyOp47
 70
     1
102
RTVSPropertyOp48
 70
     1
102
RTVSPropertyOp49
 70
     1
102
RTVSPropertyOp50
 70
     1
102
RTVSPropertyOp51
 70
     0
102
RTVSPropertyOp52
 70
     0
102
RTVSPropertyOp53
 70
     1
102
RTVSPropertyOp54
 70
     1
102
RTVSPropertyOp55
 70
     1
102
RTVSPropertyOp56
 70
     1
102
RTVSPropertyOp57
 70
     1
102
RTVSPropertyOp58
 70
     1
102
RTVSPropertyOp59
 70
     1
102
RTVSPropertyOp60
 70
     1
102
RTVSPropertyOp61
 70
     1
102
RTVSPropertyOp62
 70
     1
  0
XRECORD
  5
108B
102
{ACAD_REACTORS
330
108A
102
}
330
108A
100
AcDbXrecord
280
     1
102
RTVSPost2010Prop28
280
     0
102
RTVSPost2010PropOp28
 70
     1
102
RTVSPost2010Prop29
280
     1
102
RTVSPost2010PropOp29
 70
     1
102
RTVSPost2010Prop30
280
     1
102
RTVSPost2010PropOp30
 70
     1
102
RTVSPost2010Prop31
280
     0
102
RTVSPost2010PropOp31
 70
     1
102
RTVSPost2010Prop32
280
     0
102
RTVSPost2010PropOp32
 70
     1
102
RTVSPost2010Prop33
280
     0
102
RTVSPost2010PropOp33
 70
     1
102
RTVSPost2010Prop34
280
     0
102
RTVSPost2010PropOp34
 70
     1
102
RTVSPost2010Prop35
280
     0
102
RTVSPost2010PropOp35
 70
     1
102
RTVSPost2010Prop36
280
     0
102
RTVSPost2010PropOp36
 70
     1
102
RTVSPost2010Prop37
 90
       50
102
RTVSPost2010PropOp37
 70
     1
102
RTVSPost2010Prop38
140
0.0
102
RTVSPost2010PropOp38
 70
     1
102
RTVSPost2010Prop39
140
1.0
102
RTVSPost2010PropOp39
 70
     1
102
RTVSPost2010Prop40
 90
        0
102
RTVSPost2010PropOp40
 70
     1
102
RTVSPost2010Prop41ColorIndex
 90
       18
102
RTVSPost2010Prop41ColorRGB
 90
        0
102
RTVSPost2010PropOp41
 70
     1
102
RTVSPost2010Prop42
 90
       50
102
RTVSPost2010PropOp42
 70
     1
102
RTVSPost2010Prop43
 90
        3
102
RTVSPost2010PropOp43
 70
     1
102
RTVSPost2010Prop44ColorIndex
 90
        5
102
RTVSPost2010Prop44ColorRGB
 90
      255
102
RTVSPost2010PropOp44
 70
     1
102
RTVSPost2010Prop45
280
     0
102
RTVSPost2010PropOp45
 70
     1
102
RTVSPost2010Prop46
 90
       50
102
RTVSPost2010PropOp46
 70
     1
102
RTVSPost2010Prop47
 90
       50
102
RTVSPost2010PropOp47
 70
     1
102
RTVSPost2010Prop48
 90
       50
102
RTVSPost2010PropOp48
 70
     1
102
RTVSPost2010Prop49
280
     0
102
RTVSPost2010PropOp49
 70
     1
102
RTVSPost2010Prop50
 90
       50
102
RTVSPost2010PropOp50
 70
     1
102
RTVSPost2010Prop51ColorIndex
 90
      256
102
RTVSPost2010Prop51ColorRGB
 90
-16777216
102
RTVSPost2010PropOp51
 70
     0
102
RTVSPost2010Prop52
140
1.0
102
RTVSPost2010PropOp52
 70
     0
102
RTVSPost2010Prop53
 90
        2
102
RTVSPost2010PropOp53
 70
     1
102
RTVSPost2010Prop54
  1
strokes_ogs.tif
102
RTVSPost2010PropOp54
 70
     1
102
RTVSPost2010Prop55
280
     0
102
RTVSPost2010PropOp55
 70
     1
102
RTVSPost2010Prop56
140
1.0
102
RTVSPost2010PropOp56
 70
     1
102
RTVSPost2010Prop57
140
1.0
102
RTVSPost2010PropOp57
 70
     1
102
RTVSPropertyOp0
 70
     1
102
RTVSPropertyOp1
 70
     1
102
RTVSPropertyOp2
 70
     1
102
RTVSPropertyOp3
 70
     1
102
RTVSPropertyOp4
 70
     1
102
RTVSPropertyOp5
 70
     1
102
RTVSPropertyOp6
 70
     1
102
RTVSPropertyOp7
 70
     1
102
RTVSPropertyOp8
 70
     1
102
RTVSPropertyOp9
 70
     1
102
RTVSPropertyOp10
 70
     1
102
RTVSPropertyOp11
 70
     1
102
RTVSPropertyOp12
 70
     1
102
RTVSPropertyOp13
 70
     1
102
RTVSPropertyOp14
 70
     1
102
RTVSPropertyOp15
 70
     1
102
RTVSPropertyOp16
 70
     1
102
RTVSPropertyOp17
 70
     1
102
RTVSPropertyOp18
 70
     1
102
RTVSPropertyOp19
 70
     1
102
RTVSPropertyOp20
 70
     1
102
RTVSPropertyOp21
 70
     1
102
RTVSPropertyOp22
 70
     1
102
RTVSPropertyOp23
 70
     1
102
RTVSPropertyOp24
 70
     1
102
RTVSPropertyOp25
 70
     1
102
RTVSPropertyOp26
 70
     1
102
RTVSPropertyOp27
 70
     1
102
RTVSPropertyOp28
 70
     1
102
RTVSPropertyOp29
 70
     1
102
RTVSPropertyOp30
 70
     1
102
RTVSPropertyOp31
 70
     1
102
RTVSPropertyOp32
 70
     1
102
RTVSPropertyOp33
 70
     1
102
RTVSPropertyOp34
 70
     1
102
RTVSPropertyOp35
 70
     1
102
RTVSPropertyOp36
 70
     1
102
RTVSPropertyOp37
 70
     1
102
RTVSPropertyOp38
 70
     1
102
RTVSPropertyOp39
 70
     1
102
RTVSPropertyOp40
 70
     1
102
RTVSPropertyOp41
 70
     1
102
RTVSPropertyOp42
 70
     1
102
RTVSPropertyOp43
 70
     1
102
RTVSPropertyOp44
 70
     1
102
RTVSPropertyOp45
 70
     1
102
RTVSPropertyOp46
 70
     1
102
RTVSPropertyOp47
 70
     1
102
RTVSPropertyOp48
 70
     1
102
RTVSPropertyOp49
 70
     1
102
RTVSPropertyOp50
 70
     1
102
RTVSPropertyOp51
 70
     0
102
RTVSPropertyOp52
 70
     0
102
RTVSPropertyOp53
 70
     1
102
RTVSPropertyOp54
 70
     1
102
RTVSPropertyOp55
 70
     1
102
RTVSPropertyOp56
 70
     1
102
RTVSPropertyOp57
 70
     1
102
RTVSPropertyOp58
 70
     1
102
RTVSPropertyOp59
 70
     1
102
RTVSPropertyOp60
 70
     1
102
RTVSPropertyOp61
 70
     1
102
RTVSPropertyOp62
 70
     1
  0
XRECORD
  5
108D
102
{ACAD_REACTORS
330
108C
102
}
330
108C
100
AcDbXrecord
280
     1
102
RTVSPost2010Prop28
280
     0
102
RTVSPost2010PropOp28
 70
     1
102
RTVSPost2010Prop29
280
     1
102
RTVSPost2010PropOp29
 70
     1
102
RTVSPost2010Prop30
280
     1
102
RTVSPost2010PropOp30
 70
     1
102
RTVSPost2010Prop31
280
     0
102
RTVSPost2010PropOp31
 70
     1
102
RTVSPost2010Prop32
280
     0
102
RTVSPost2010PropOp32
 70
     1
102
RTVSPost2010Prop33
280
     0
102
RTVSPost2010PropOp33
 70
     1
102
RTVSPost2010Prop34
280
     0
102
RTVSPost2010PropOp34
 70
     1
102
RTVSPost2010Prop35
280
     0
102
RTVSPost2010PropOp35
 70
     1
102
RTVSPost2010Prop36
280
     0
102
RTVSPost2010PropOp36
 70
     1
102
RTVSPost2010Prop37
 90
       50
102
RTVSPost2010PropOp37
 70
     1
102
RTVSPost2010Prop38
140
0.0
102
RTVSPost2010PropOp38
 70
     1
102
RTVSPost2010Prop39
140
1.0
102
RTVSPost2010PropOp39
 70
     1
102
RTVSPost2010Prop40
 90
        0
102
RTVSPost2010PropOp40
 70
     1
102
RTVSPost2010Prop41ColorIndex
 90
       18
102
RTVSPost2010Prop41ColorRGB
 90
        0
102
RTVSPost2010PropOp41
 70
     1
102
RTVSPost2010Prop42
 90
       50
102
RTVSPost2010PropOp42
 70
     1
102
RTVSPost2010Prop43
 90
        3
102
RTVSPost2010PropOp43
 70
     1
102
RTVSPost2010Prop44ColorIndex
 90
        5
102
RTVSPost2010Prop44ColorRGB
 90
      255
102
RTVSPost2010PropOp44
 70
     1
102
RTVSPost2010Prop45
280
     0
102
RTVSPost2010PropOp45
 70
     1
102
RTVSPost2010Prop46
 90
       50
102
RTVSPost2010PropOp46
 70
     1
102
RTVSPost2010Prop47
 90
       50
102
RTVSPost2010PropOp47
 70
     1
102
RTVSPost2010Prop48
 90
       50
102
RTVSPost2010PropOp48
 70
     1
102
RTVSPost2010Prop49
280
     0
102
RTVSPost2010PropOp49
 70
     1
102
RTVSPost2010Prop50
 90
       50
102
RTVSPost2010PropOp50
 70
     1
102
RTVSPost2010Prop51ColorIndex
 90
      256
102
RTVSPost2010Prop51ColorRGB
 90
-16777216
102
RTVSPost2010PropOp51
 70
     0
102
RTVSPost2010Prop52
140
1.0
102
RTVSPost2010PropOp52
 70
     0
102
RTVSPost2010Prop53
 90
        2
102
RTVSPost2010PropOp53
 70
     1
102
RTVSPost2010Prop54
  1
strokes_ogs.tif
102
RTVSPost2010PropOp54
 70
     1
102
RTVSPost2010Prop55
280
     0
102
RTVSPost2010PropOp55
 70
     1
102
RTVSPost2010Prop56
140
1.0
102
RTVSPost2010PropOp56
 70
     1
102
RTVSPost2010Prop57
140
1.0
102
RTVSPost2010PropOp57
 70
     1
102
RTVSPropertyOp0
 70
     1
102
RTVSPropertyOp1
 70
     1
102
RTVSPropertyOp2
 70
     1
102
RTVSPropertyOp3
 70
     1
102
RTVSPropertyOp4
 70
     1
102
RTVSPropertyOp5
 70
     1
102
RTVSPropertyOp6
 70
     1
102
RTVSPropertyOp7
 70
     1
102
RTVSPropertyOp8
 70
     1
102
RTVSPropertyOp9
 70
     1
102
RTVSPropertyOp10
 70
     1
102
RTVSPropertyOp11
 70
     1
102
RTVSPropertyOp12
 70
     1
102
RTVSPropertyOp13
 70
     1
102
RTVSPropertyOp14
 70
     1
102
RTVSPropertyOp15
 70
     1
102
RTVSPropertyOp16
 70
     1
102
RTVSPropertyOp17
 70
     1
102
RTVSPropertyOp18
 70
     1
102
RTVSPropertyOp19
 70
     1
102
RTVSPropertyOp20
 70
     1
102
RTVSPropertyOp21
 70
     1
102
RTVSPropertyOp22
 70
     1
102
RTVSPropertyOp23
 70
     1
102
RTVSPropertyOp24
 70
     1
102
RTVSPropertyOp25
 70
     1
102
RTVSPropertyOp26
 70
     1
102
RTVSPropertyOp27
 70
     1
102
RTVSPropertyOp28
 70
     1
102
RTVSPropertyOp29
 70
     1
102
RTVSPropertyOp30
 70
     1
102
RTVSPropertyOp31
 70
     1
102
RTVSPropertyOp32
 70
     1
102
RTVSPropertyOp33
 70
     1
102
RTVSPropertyOp34
 70
     1
102
RTVSPropertyOp35
 70
     1
102
RTVSPropertyOp36
 70
     1
102
RTVSPropertyOp37
 70
     1
102
RTVSPropertyOp38
 70
     1
102
RTVSPropertyOp39
 70
     1
102
RTVSPropertyOp40
 70
     1
102
RTVSPropertyOp41
 70
     1
102
RTVSPropertyOp42
 70
     1
102
RTVSPropertyOp43
 70
     1
102
RTVSPropertyOp44
 70
     1
102
RTVSPropertyOp45
 70
     1
102
RTVSPropertyOp46
 70
     1
102
RTVSPropertyOp47
 70
     1
102
RTVSPropertyOp48
 70
     1
102
RTVSPropertyOp49
 70
     1
102
RTVSPropertyOp50
 70
     1
102
RTVSPropertyOp51
 70
     0
102
RTVSPropertyOp52
 70
     0
102
RTVSPropertyOp53
 70
     1
102
RTVSPropertyOp54
 70
     1
102
RTVSPropertyOp55
 70
     1
102
RTVSPropertyOp56
 70
     1
102
RTVSPropertyOp57
 70
     1
102
RTVSPropertyOp58
 70
     1
102
RTVSPropertyOp59
 70
     1
102
RTVSPropertyOp60
 70
     1
102
RTVSPropertyOp61
 70
     1
102
RTVSPropertyOp62
 70
     1
  0
XRECORD
  5
1095
102
{ACAD_REACTORS
330
1094
102
}
330
1094
100
AcDbXrecord
280
     1
102
RTVSPost2010Prop28
280
     0
102
RTVSPost2010PropOp28
 70
     1
102
RTVSPost2010Prop29
280
     1
102
RTVSPost2010PropOp29
 70
     1
102
RTVSPost2010Prop30
280
     1
102
RTVSPost2010PropOp30
 70
     1
102
RTVSPost2010Prop31
280
     0
102
RTVSPost2010PropOp31
 70
     1
102
RTVSPost2010Prop32
280
     0
102
RTVSPost2010PropOp32
 70
     1
102
RTVSPost2010Prop33
280
     0
102
RTVSPost2010PropOp33
 70
     1
102
RTVSPost2010Prop34
280
     0
102
RTVSPost2010PropOp34
 70
     1
102
RTVSPost2010Prop35
280
     0
102
RTVSPost2010PropOp35
 70
     1
102
RTVSPost2010Prop36
280
     0
102
RTVSPost2010PropOp36
 70
     1
102
RTVSPost2010Prop37
 90
       50
102
RTVSPost2010PropOp37
 70
     1
102
RTVSPost2010Prop38
140
0.0
102
RTVSPost2010PropOp38
 70
     1
102
RTVSPost2010Prop39
140
1.0
102
RTVSPost2010PropOp39
 70
     1
102
RTVSPost2010Prop40
 90
        0
102
RTVSPost2010PropOp40
 70
     1
102
RTVSPost2010Prop41ColorIndex
 90
       18
102
RTVSPost2010Prop41ColorRGB
 90
        0
102
RTVSPost2010PropOp41
 70
     1
102
RTVSPost2010Prop42
 90
       50
102
RTVSPost2010PropOp42
 70
     1
102
RTVSPost2010Prop43
 90
        3
102
RTVSPost2010PropOp43
 70
     1
102
RTVSPost2010Prop44ColorIndex
 90
        5
102
RTVSPost2010Prop44ColorRGB
 90
      255
102
RTVSPost2010PropOp44
 70
     1
102
RTVSPost2010Prop45
280
     0
102
RTVSPost2010PropOp45
 70
     1
102
RTVSPost2010Prop46
 90
       50
102
RTVSPost2010PropOp46
 70
     1
102
RTVSPost2010Prop47
 90
       50
102
RTVSPost2010PropOp47
 70
     1
102
RTVSPost2010Prop48
 90
       50
102
RTVSPost2010PropOp48
 70
     1
102
RTVSPost2010Prop49
280
     0
102
RTVSPost2010PropOp49
 70
     1
102
RTVSPost2010Prop50
 90
       50
102
RTVSPost2010PropOp50
 70
     1
102
RTVSPost2010Prop51ColorIndex
 90
      256
102
RTVSPost2010Prop51ColorRGB
 90
-16777216
102
RTVSPost2010PropOp51
 70
     0
102
RTVSPost2010Prop52
140
1.0
102
RTVSPost2010PropOp52
 70
     0
102
RTVSPost2010Prop53
 90
        2
102
RTVSPost2010PropOp53
 70
     1
102
RTVSPost2010Prop54
  1
strokes_ogs.tif
102
RTVSPost2010PropOp54
 70
     1
102
RTVSPost2010Prop55
280
     0
102
RTVSPost2010PropOp55
 70
     1
102
RTVSPost2010Prop56
140
1.0
102
RTVSPost2010PropOp56
 70
     1
102
RTVSPost2010Prop57
140
1.0
102
RTVSPost2010PropOp57
 70
     1
102
RTVSPropertyOp0
 70
     1
102
RTVSPropertyOp1
 70
     1
102
RTVSPropertyOp2
 70
     1
102
RTVSPropertyOp3
 70
     1
102
RTVSPropertyOp4
 70
     1
102
RTVSPropertyOp5
 70
     1
102
RTVSPropertyOp6
 70
     1
102
RTVSPropertyOp7
 70
     1
102
RTVSPropertyOp8
 70
     1
102
RTVSPropertyOp9
 70
     1
102
RTVSPropertyOp10
 70
     1
102
RTVSPropertyOp11
 70
     1
102
RTVSPropertyOp12
 70
     1
102
RTVSPropertyOp13
 70
     1
102
RTVSPropertyOp14
 70
     1
102
RTVSPropertyOp15
 70
     1
102
RTVSPropertyOp16
 70
     1
102
RTVSPropertyOp17
 70
     1
102
RTVSPropertyOp18
 70
     1
102
RTVSPropertyOp19
 70
     1
102
RTVSPropertyOp20
 70
     1
102
RTVSPropertyOp21
 70
     1
102
RTVSPropertyOp22
 70
     1
102
RTVSPropertyOp23
 70
     1
102
RTVSPropertyOp24
 70
     1
102
RTVSPropertyOp25
 70
     1
102
RTVSPropertyOp26
 70
     1
102
RTVSPropertyOp27
 70
     1
102
RTVSPropertyOp28
 70
     1
102
RTVSPropertyOp29
 70
     1
102
RTVSPropertyOp30
 70
     1
102
RTVSPropertyOp31
 70
     1
102
RTVSPropertyOp32
 70
     1
102
RTVSPropertyOp33
 70
     1
102
RTVSPropertyOp34
 70
     1
102
RTVSPropertyOp35
 70
     1
102
RTVSPropertyOp36
 70
     1
102
RTVSPropertyOp37
 70
     1
102
RTVSPropertyOp38
 70
     1
102
RTVSPropertyOp39
 70
     1
102
RTVSPropertyOp40
 70
     1
102
RTVSPropertyOp41
 70
     1
102
RTVSPropertyOp42
 70
     1
102
RTVSPropertyOp43
 70
     1
102
RTVSPropertyOp44
 70
     1
102
RTVSPropertyOp45
 70
     1
102
RTVSPropertyOp46
 70
     1
102
RTVSPropertyOp47
 70
     1
102
RTVSPropertyOp48
 70
     1
102
RTVSPropertyOp49
 70
     1
102
RTVSPropertyOp50
 70
     1
102
RTVSPropertyOp51
 70
     0
102
RTVSPropertyOp52
 70
     0
102
RTVSPropertyOp53
 70
     1
102
RTVSPropertyOp54
 70
     1
102
RTVSPropertyOp55
 70
     1
102
RTVSPropertyOp56
 70
     1
102
RTVSPropertyOp57
 70
     1
102
RTVSPropertyOp58
 70
     1
102
RTVSPropertyOp59
 70
     1
102
RTVSPropertyOp60
 70
     1
102
RTVSPropertyOp61
 70
     1
102
RTVSPropertyOp62
 70
     1
  0
XRECORD
  5
10B1
102
{ACAD_REACTORS
330
10B0
102
}
330
10B0
100
AcDbXrecord
280
     1
102
RTVSPost2010Prop28
280
     0
102
RTVSPost2010PropOp28
 70
     1
102
RTVSPost2010Prop29
280
     1
102
RTVSPost2010PropOp29
 70
     1
102
RTVSPost2010Prop30
280
     1
102
RTVSPost2010PropOp30
 70
     1
102
RTVSPost2010Prop31
280
     0
102
RTVSPost2010PropOp31
 70
     1
102
RTVSPost2010Prop32
280
     0
102
RTVSPost2010PropOp32
 70
     1
102
RTVSPost2010Prop33
280
     0
102
RTVSPost2010PropOp33
 70
     1
102
RTVSPost2010Prop34
280
     0
102
RTVSPost2010PropOp34
 70
     1
102
RTVSPost2010Prop35
280
     0
102
RTVSPost2010PropOp35
 70
     1
102
RTVSPost2010Prop36
280
     0
102
RTVSPost2010PropOp36
 70
     1
102
RTVSPost2010Prop37
 90
       50
102
RTVSPost2010PropOp37
 70
     0
102
RTVSPost2010Prop38
140
0.0
102
RTVSPost2010PropOp38
 70
     0
102
RTVSPost2010Prop39
140
1.0
102
RTVSPost2010PropOp39
 70
     0
102
RTVSPost2010Prop40
 90
        0
102
RTVSPost2010PropOp40
 70
     0
102
RTVSPost2010Prop41ColorIndex
 90
       18
102
RTVSPost2010Prop41ColorRGB
 90
        0
102
RTVSPost2010PropOp41
 70
     0
102
RTVSPost2010Prop42
 90
       50
102
RTVSPost2010PropOp42
 70
     0
102
RTVSPost2010Prop43
 90
        3
102
RTVSPost2010PropOp43
 70
     0
102
RTVSPost2010Prop44ColorIndex
 90
        5
102
RTVSPost2010Prop44ColorRGB
 90
      255
102
RTVSPost2010PropOp44
 70
     0
102
RTVSPost2010Prop45
280
     0
102
RTVSPost2010PropOp45
 70
     1
102
RTVSPost2010Prop46
 90
       50
102
RTVSPost2010PropOp46
 70
     0
102
RTVSPost2010Prop47
 90
       50
102
RTVSPost2010PropOp47
 70
     0
102
RTVSPost2010Prop48
 90
       50
102
RTVSPost2010PropOp48
 70
     0
102
RTVSPost2010Prop49
280
     0
102
RTVSPost2010PropOp49
 70
     1
102
RTVSPost2010Prop50
 90
       50
102
RTVSPost2010PropOp50
 70
     0
102
RTVSPost2010Prop51ColorIndex
 90
      256
102
RTVSPost2010Prop51ColorRGB
 90
-16777216
102
RTVSPost2010PropOp51
 70
     0
102
RTVSPost2010Prop52
140
1.0
102
RTVSPost2010PropOp52
 70
     0
102
RTVSPost2010Prop53
 90
        2
102
RTVSPost2010PropOp53
 70
     0
102
RTVSPost2010Prop54
  1
strokes_ogs.tif
102
RTVSPost2010PropOp54
 70
     0
102
RTVSPost2010Prop55
280
     0
102
RTVSPost2010PropOp55
 70
     1
102
RTVSPost2010Prop56
140
1.0
102
RTVSPost2010PropOp56
 70
     0
102
RTVSPost2010Prop57
140
1.0
102
RTVSPost2010PropOp57
 70
     0
102
RTVSPropertyOp0
 70
     0
102
RTVSPropertyOp1
 70
     0
102
RTVSPropertyOp2
 70
     0
102
RTVSPropertyOp3
 70
     0
102
RTVSPropertyOp4
 70
     0
102
RTVSPropertyOp5
 70
     0
102
RTVSPropertyOp6
 70
     0
102
RTVSPropertyOp7
 70
     0
102
RTVSPropertyOp8
 70
     0
102
RTVSPropertyOp9
 70
     0
102
RTVSPropertyOp10
 70
     0
102
RTVSPropertyOp11
 70
     0
102
RTVSPropertyOp12
 70
     0
102
RTVSPropertyOp13
 70
     0
102
RTVSPropertyOp14
 70
     2
102
RTVSPropertyOp15
 70
     0
102
RTVSPropertyOp16
 70
     0
102
RTVSPropertyOp17
 70
     0
102
RTVSPropertyOp18
 70
     0
102
RTVSPropertyOp19
 70
     0
102
RTVSPropertyOp20
 70
     0
102
RTVSPropertyOp21
 70
     0
102
RTVSPropertyOp22
 70
     0
102
RTVSPropertyOp23
 70
     0
102
RTVSPropertyOp24
 70
     0
102
RTVSPropertyOp25
 70
     0
102
RTVSPropertyOp26
 70
     0
102
RTVSPropertyOp27
 70
     0
102
RTVSPropertyOp28
 70
     1
102
RTVSPropertyOp29
 70
     1
102
RTVSPropertyOp30
 70
     1
102
RTVSPropertyOp31
 70
     1
102
RTVSPropertyOp32
 70
     1
102
RTVSPropertyOp33
 70
     1
102
RTVSPropertyOp34
 70
     1
102
RTVSPropertyOp35
 70
     1
102
RTVSPropertyOp36
 70
     1
102
RTVSPropertyOp37
 70
     0
102
RTVSPropertyOp38
 70
     0
102
RTVSPropertyOp39
 70
     0
102
RTVSPropertyOp40
 70
     0
102
RTVSPropertyOp41
 70
     0
102
RTVSPropertyOp42
 70
     0
102
RTVSPropertyOp43
 70
     0
102
RTVSPropertyOp44
 70
     0
102
RTVSPropertyOp45
 70
     1
102
RTVSPropertyOp46
 70
     0
102
RTVSPropertyOp47
 70
     0
102
RTVSPropertyOp48
 70
     0
102
RTVSPropertyOp49
 70
     1
102
RTVSPropertyOp50
 70
     0
102
RTVSPropertyOp51
 70
     0
102
RTVSPropertyOp52
 70
     0
102
RTVSPropertyOp53
 70
     0
102
RTVSPropertyOp54
 70
     0
102
RTVSPropertyOp55
 70
     1
102
RTVSPropertyOp56
 70
     0
102
RTVSPropertyOp57
 70
     0
102
RTVSPropertyOp58
 70
     1
102
RTVSPropertyOp59
 70
     1
102
RTVSPropertyOp60
 70
     1
102
RTVSPropertyOp61
 70
     1
102
RTVSPropertyOp62
 70
     1
  0
XRECORD
  5
10A1
102
{ACAD_REACTORS
330
10A0
102
}
330
10A0
100
AcDbXrecord
280
     1
102
RTVSPost2010Prop28
280
     0
102
RTVSPost2010PropOp28
 70
     1
102
RTVSPost2010Prop29
280
     1
102
RTVSPost2010PropOp29
 70
     1
102
RTVSPost2010Prop30
280
     1
102
RTVSPost2010PropOp30
 70
     1
102
RTVSPost2010Prop31
280
     0
102
RTVSPost2010PropOp31
 70
     1
102
RTVSPost2010Prop32
280
     0
102
RTVSPost2010PropOp32
 70
     1
102
RTVSPost2010Prop33
280
     0
102
RTVSPost2010PropOp33
 70
     1
102
RTVSPost2010Prop34
280
     0
102
RTVSPost2010PropOp34
 70
     1
102
RTVSPost2010Prop35
280
     0
102
RTVSPost2010PropOp35
 70
     1
102
RTVSPost2010Prop36
280
     0
102
RTVSPost2010PropOp36
 70
     1
102
RTVSPost2010Prop37
 90
       50
102
RTVSPost2010PropOp37
 70
     1
102
RTVSPost2010Prop38
140
0.0
102
RTVSPost2010PropOp38
 70
     1
102
RTVSPost2010Prop39
140
1.0
102
RTVSPost2010PropOp39
 70
     1
102
RTVSPost2010Prop40
 90
        0
102
RTVSPost2010PropOp40
 70
     1
102
RTVSPost2010Prop41ColorIndex
 90
       18
102
RTVSPost2010Prop41ColorRGB
 90
        0
102
RTVSPost2010PropOp41
 70
     1
102
RTVSPost2010Prop42
 90
       50
102
RTVSPost2010PropOp42
 70
     1
102
RTVSPost2010Prop43
 90
        3
102
RTVSPost2010PropOp43
 70
     1
102
RTVSPost2010Prop44ColorIndex
 90
        5
102
RTVSPost2010Prop44ColorRGB
 90
      255
102
RTVSPost2010PropOp44
 70
     1
102
RTVSPost2010Prop45
280
     0
102
RTVSPost2010PropOp45
 70
     1
102
RTVSPost2010Prop46
 90
       50
102
RTVSPost2010PropOp46
 70
     1
102
RTVSPost2010Prop47
 90
       50
102
RTVSPost2010PropOp47
 70
     1
102
RTVSPost2010Prop48
 90
       50
102
RTVSPost2010PropOp48
 70
     1
102
RTVSPost2010Prop49
280
     0
102
RTVSPost2010PropOp49
 70
     1
102
RTVSPost2010Prop50
 90
       50
102
RTVSPost2010PropOp50
 70
     1
102
RTVSPost2010Prop51ColorIndex
 90
      256
102
RTVSPost2010Prop51ColorRGB
 90
-16777216
102
RTVSPost2010PropOp51
 70
     0
102
RTVSPost2010Prop52
140
1.0
102
RTVSPost2010PropOp52
 70
     0
102
RTVSPost2010Prop53
 90
        2
102
RTVSPost2010PropOp53
 70
     1
102
RTVSPost2010Prop54
  1
strokes_ogs.tif
102
RTVSPost2010PropOp54
 70
     1
102
RTVSPost2010Prop55
280
     0
102
RTVSPost2010PropOp55
 70
     1
102
RTVSPost2010Prop56
140
1.0
102
RTVSPost2010PropOp56
 70
     1
102
RTVSPost2010Prop57
140
1.0
102
RTVSPost2010PropOp57
 70
     1
102
RTVSPropertyOp0
 70
     1
102
RTVSPropertyOp1
 70
     1
102
RTVSPropertyOp2
 70
     1
102
RTVSPropertyOp3
 70
     1
102
RTVSPropertyOp4
 70
     1
102
RTVSPropertyOp5
 70
     1
102
RTVSPropertyOp6
 70
     1
102
RTVSPropertyOp7
 70
     1
102
RTVSPropertyOp8
 70
     1
102
RTVSPropertyOp9
 70
     1
102
RTVSPropertyOp10
 70
     1
102
RTVSPropertyOp11
 70
     1
102
RTVSPropertyOp12
 70
     1
102
RTVSPropertyOp13
 70
     1
102
RTVSPropertyOp14
 70
     1
102
RTVSPropertyOp15
 70
     1
102
RTVSPropertyOp16
 70
     1
102
RTVSPropertyOp17
 70
     1
102
RTVSPropertyOp18
 70
     1
102
RTVSPropertyOp19
 70
     1
102
RTVSPropertyOp20
 70
     1
102
RTVSPropertyOp21
 70
     1
102
RTVSPropertyOp22
 70
     1
102
RTVSPropertyOp23
 70
     1
102
RTVSPropertyOp24
 70
     1
102
RTVSPropertyOp25
 70
     1
102
RTVSPropertyOp26
 70
     1
102
RTVSPropertyOp27
 70
     1
102
RTVSPropertyOp28
 70
     1
102
RTVSPropertyOp29
 70
     1
102
RTVSPropertyOp30
 70
     1
102
RTVSPropertyOp31
 70
     1
102
RTVSPropertyOp32
 70
     1
102
RTVSPropertyOp33
 70
     1
102
RTVSPropertyOp34
 70
     1
102
RTVSPropertyOp35
 70
     1
102
RTVSPropertyOp36
 70
     1
102
RTVSPropertyOp37
 70
     1
102
RTVSPropertyOp38
 70
     1
102
RTVSPropertyOp39
 70
     1
102
RTVSPropertyOp40
 70
     1
102
RTVSPropertyOp41
 70
     1
102
RTVSPropertyOp42
 70
     1
102
RTVSPropertyOp43
 70
     1
102
RTVSPropertyOp44
 70
     1
102
RTVSPropertyOp45
 70
     1
102
RTVSPropertyOp46
 70
     1
102
RTVSPropertyOp47
 70
     1
102
RTVSPropertyOp48
 70
     1
102
RTVSPropertyOp49
 70
     1
102
RTVSPropertyOp50
 70
     1
102
RTVSPropertyOp51
 70
     0
102
RTVSPropertyOp52
 70
     0
102
RTVSPropertyOp53
 70
     1
102
RTVSPropertyOp54
 70
     1
102
RTVSPropertyOp55
 70
     1
102
RTVSPropertyOp56
 70
     1
102
RTVSPropertyOp57
 70
     1
102
RTVSPropertyOp58
 70
     1
102
RTVSPropertyOp59
 70
     1
102
RTVSPropertyOp60
 70
     1
102
RTVSPropertyOp61
 70
     1
102
RTVSPropertyOp62
 70
     1
  0
XRECORD
  5
10B3
102
{ACAD_REACTORS
330
10B2
102
}
330
10B2
100
AcDbXrecord
280
     1
102
RTVSPost2010Prop28
280
     0
102
RTVSPost2010PropOp28
 70
     1
102
RTVSPost2010Prop29
280
     1
102
RTVSPost2010PropOp29
 70
     1
102
RTVSPost2010Prop30
280
     1
102
RTVSPost2010PropOp30
 70
     1
102
RTVSPost2010Prop31
280
     0
102
RTVSPost2010PropOp31
 70
     1
102
RTVSPost2010Prop32
280
     0
102
RTVSPost2010PropOp32
 70
     1
102
RTVSPost2010Prop33
280
     0
102
RTVSPost2010PropOp33
 70
     1
102
RTVSPost2010Prop34
280
     0
102
RTVSPost2010PropOp34
 70
     1
102
RTVSPost2010Prop35
280
     0
102
RTVSPost2010PropOp35
 70
     1
102
RTVSPost2010Prop36
280
     0
102
RTVSPost2010PropOp36
 70
     1
102
RTVSPost2010Prop37
 90
       50
102
RTVSPost2010PropOp37
 70
     0
102
RTVSPost2010Prop38
140
0.0
102
RTVSPost2010PropOp38
 70
     0
102
RTVSPost2010Prop39
140
1.0
102
RTVSPost2010PropOp39
 70
     0
102
RTVSPost2010Prop40
 90
        0
102
RTVSPost2010PropOp40
 70
     0
102
RTVSPost2010Prop41ColorIndex
 90
       18
102
RTVSPost2010Prop41ColorRGB
 90
        0
102
RTVSPost2010PropOp41
 70
     0
102
RTVSPost2010Prop42
 90
       50
102
RTVSPost2010PropOp42
 70
     0
102
RTVSPost2010Prop43
 90
        3
102
RTVSPost2010PropOp43
 70
     0
102
RTVSPost2010Prop44ColorIndex
 90
        5
102
RTVSPost2010Prop44ColorRGB
 90
      255
102
RTVSPost2010PropOp44
 70
     0
102
RTVSPost2010Prop45
280
     0
102
RTVSPost2010PropOp45
 70
     1
102
RTVSPost2010Prop46
 90
       50
102
RTVSPost2010PropOp46
 70
     0
102
RTVSPost2010Prop47
 90
       50
102
RTVSPost2010PropOp47
 70
     0
102
RTVSPost2010Prop48
 90
       50
102
RTVSPost2010PropOp48
 70
     0
102
RTVSPost2010Prop49
280
     0
102
RTVSPost2010PropOp49
 70
     1
102
RTVSPost2010Prop50
 90
       50
102
RTVSPost2010PropOp50
 70
     0
102
RTVSPost2010Prop51ColorIndex
 90
      256
102
RTVSPost2010Prop51ColorRGB
 90
-16777216
102
RTVSPost2010PropOp51
 70
     0
102
RTVSPost2010Prop52
140
1.0
102
RTVSPost2010PropOp52
 70
     0
102
RTVSPost2010Prop53
 90
        2
102
RTVSPost2010PropOp53
 70
     0
102
RTVSPost2010Prop54
  1
strokes_ogs.tif
102
RTVSPost2010PropOp54
 70
     0
102
RTVSPost2010Prop55
280
     0
102
RTVSPost2010PropOp55
 70
     1
102
RTVSPost2010Prop56
140
1.0
102
RTVSPost2010PropOp56
 70
     0
102
RTVSPost2010Prop57
140
1.0
102
RTVSPost2010PropOp57
 70
     0
102
RTVSPropertyOp0
 70
     0
102
RTVSPropertyOp1
 70
     0
102
RTVSPropertyOp2
 70
     0
102
RTVSPropertyOp3
 70
     0
102
RTVSPropertyOp4
 70
     0
102
RTVSPropertyOp5
 70
     0
102
RTVSPropertyOp6
 70
     0
102
RTVSPropertyOp7
 70
     0
102
RTVSPropertyOp8
 70
     0
102
RTVSPropertyOp9
 70
     0
102
RTVSPropertyOp10
 70
     0
102
RTVSPropertyOp11
 70
     0
102
RTVSPropertyOp12
 70
     0
102
RTVSPropertyOp13
 70
     0
102
RTVSPropertyOp14
 70
     2
102
RTVSPropertyOp15
 70
     0
102
RTVSPropertyOp16
 70
     0
102
RTVSPropertyOp17
 70
     0
102
RTVSPropertyOp18
 70
     0
102
RTVSPropertyOp19
 70
     0
102
RTVSPropertyOp20
 70
     0
102
RTVSPropertyOp21
 70
     0
102
RTVSPropertyOp22
 70
     0
102
RTVSPropertyOp23
 70
     0
102
RTVSPropertyOp24
 70
     0
102
RTVSPropertyOp25
 70
     0
102
RTVSPropertyOp26
 70
     0
102
RTVSPropertyOp27
 70
     0
102
RTVSPropertyOp28
 70
     1
102
RTVSPropertyOp29
 70
     1
102
RTVSPropertyOp30
 70
     1
102
RTVSPropertyOp31
 70
     1
102
RTVSPropertyOp32
 70
     1
102
RTVSPropertyOp33
 70
     1
102
RTVSPropertyOp34
 70
     1
102
RTVSPropertyOp35
 70
     1
102
RTVSPropertyOp36
 70
     1
102
RTVSPropertyOp37
 70
     0
102
RTVSPropertyOp38
 70
     0
102
RTVSPropertyOp39
 70
     0
102
RTVSPropertyOp40
 70
     0
102
RTVSPropertyOp41
 70
     0
102
RTVSPropertyOp42
 70
     0
102
RTVSPropertyOp43
 70
     0
102
RTVSPropertyOp44
 70
     0
102
RTVSPropertyOp45
 70
     1
102
RTVSPropertyOp46
 70
     0
102
RTVSPropertyOp47
 70
     0
102
RTVSPropertyOp48
 70
     0
102
RTVSPropertyOp49
 70
     1
102
RTVSPropertyOp50
 70
     0
102
RTVSPropertyOp51
 70
     0
102
RTVSPropertyOp52
 70
     0
102
RTVSPropertyOp53
 70
     0
102
RTVSPropertyOp54
 70
     0
102
RTVSPropertyOp55
 70
     1
102
RTVSPropertyOp56
 70
     0
102
RTVSPropertyOp57
 70
     0
102
RTVSPropertyOp58
 70
     1
102
RTVSPropertyOp59
 70
     1
102
RTVSPropertyOp60
 70
     1
102
RTVSPropertyOp61
 70
     1
102
RTVSPropertyOp62
 70
     1
  0
XRECORD
  5
1099
102
{ACAD_REACTORS
330
1098
102
}
330
1098
100
AcDbXrecord
280
     1
102
RTVSPost2010Prop28
280
     0
102
RTVSPost2010PropOp28
 70
     1
102
RTVSPost2010Prop29
280
     1
102
RTVSPost2010PropOp29
 70
     1
102
RTVSPost2010Prop30
280
     1
102
RTVSPost2010PropOp30
 70
     1
102
RTVSPost2010Prop31
280
     0
102
RTVSPost2010PropOp31
 70
     1
102
RTVSPost2010Prop32
280
     0
102
RTVSPost2010PropOp32
 70
     1
102
RTVSPost2010Prop33
280
     0
102
RTVSPost2010PropOp33
 70
     1
102
RTVSPost2010Prop34
280
     0
102
RTVSPost2010PropOp34
 70
     1
102
RTVSPost2010Prop35
280
     0
102
RTVSPost2010PropOp35
 70
     1
102
RTVSPost2010Prop36
280
     0
102
RTVSPost2010PropOp36
 70
     1
102
RTVSPost2010Prop37
 90
       50
102
RTVSPost2010PropOp37
 70
     1
102
RTVSPost2010Prop38
140
0.0
102
RTVSPost2010PropOp38
 70
     1
102
RTVSPost2010Prop39
140
1.0
102
RTVSPost2010PropOp39
 70
     1
102
RTVSPost2010Prop40
 90
        0
102
RTVSPost2010PropOp40
 70
     1
102
RTVSPost2010Prop41ColorIndex
 90
       18
102
RTVSPost2010Prop41ColorRGB
 90
        0
102
RTVSPost2010PropOp41
 70
     1
102
RTVSPost2010Prop42
 90
       50
102
RTVSPost2010PropOp42
 70
     1
102
RTVSPost2010Prop43
 90
        3
102
RTVSPost2010PropOp43
 70
     1
102
RTVSPost2010Prop44ColorIndex
 90
        5
102
RTVSPost2010Prop44ColorRGB
 90
      255
102
RTVSPost2010PropOp44
 70
     1
102
RTVSPost2010Prop45
280
     0
102
RTVSPost2010PropOp45
 70
     1
102
RTVSPost2010Prop46
 90
       50
102
RTVSPost2010PropOp46
 70
     1
102
RTVSPost2010Prop47
 90
       50
102
RTVSPost2010PropOp47
 70
     1
102
RTVSPost2010Prop48
 90
       50
102
RTVSPost2010PropOp48
 70
     1
102
RTVSPost2010Prop49
280
     0
102
RTVSPost2010PropOp49
 70
     1
102
RTVSPost2010Prop50
 90
       50
102
RTVSPost2010PropOp50
 70
     1
102
RTVSPost2010Prop51ColorIndex
 90
      256
102
RTVSPost2010Prop51ColorRGB
 90
-16777216
102
RTVSPost2010PropOp51
 70
     0
102
RTVSPost2010Prop52
140
1.0
102
RTVSPost2010PropOp52
 70
     0
102
RTVSPost2010Prop53
 90
        2
102
RTVSPost2010PropOp53
 70
     1
102
RTVSPost2010Prop54
  1
strokes_ogs.tif
102
RTVSPost2010PropOp54
 70
     1
102
RTVSPost2010Prop55
280
     0
102
RTVSPost2010PropOp55
 70
     1
102
RTVSPost2010Prop56
140
1.0
102
RTVSPost2010PropOp56
 70
     1
102
RTVSPost2010Prop57
140
1.0
102
RTVSPost2010PropOp57
 70
     1
102
RTVSPropertyOp0
 70
     1
102
RTVSPropertyOp1
 70
     1
102
RTVSPropertyOp2
 70
     1
102
RTVSPropertyOp3
 70
     1
102
RTVSPropertyOp4
 70
     1
102
RTVSPropertyOp5
 70
     1
102
RTVSPropertyOp6
 70
     1
102
RTVSPropertyOp7
 70
     1
102
RTVSPropertyOp8
 70
     1
102
RTVSPropertyOp9
 70
     1
102
RTVSPropertyOp10
 70
     1
102
RTVSPropertyOp11
 70
     1
102
RTVSPropertyOp12
 70
     1
102
RTVSPropertyOp13
 70
     1
102
RTVSPropertyOp14
 70
     1
102
RTVSPropertyOp15
 70
     1
102
RTVSPropertyOp16
 70
     1
102
RTVSPropertyOp17
 70
     1
102
RTVSPropertyOp18
 70
     1
102
RTVSPropertyOp19
 70
     1
102
RTVSPropertyOp20
 70
     1
102
RTVSPropertyOp21
 70
     1
102
RTVSPropertyOp22
 70
     1
102
RTVSPropertyOp23
 70
     1
102
RTVSPropertyOp24
 70
     1
102
RTVSPropertyOp25
 70
     1
102
RTVSPropertyOp26
 70
     1
102
RTVSPropertyOp27
 70
     1
102
RTVSPropertyOp28
 70
     1
102
RTVSPropertyOp29
 70
     1
102
RTVSPropertyOp30
 70
     1
102
RTVSPropertyOp31
 70
     1
102
RTVSPropertyOp32
 70
     1
102
RTVSPropertyOp33
 70
     1
102
RTVSPropertyOp34
 70
     1
102
RTVSPropertyOp35
 70
     1
102
RTVSPropertyOp36
 70
     1
102
RTVSPropertyOp37
 70
     1
102
RTVSPropertyOp38
 70
     1
102
RTVSPropertyOp39
 70
     1
102
RTVSPropertyOp40
 70
     1
102
RTVSPropertyOp41
 70
     1
102
RTVSPropertyOp42
 70
     1
102
RTVSPropertyOp43
 70
     1
102
RTVSPropertyOp44
 70
     1
102
RTVSPropertyOp45
 70
     1
102
RTVSPropertyOp46
 70
     1
102
RTVSPropertyOp47
 70
     1
102
RTVSPropertyOp48
 70
     1
102
RTVSPropertyOp49
 70
     1
102
RTVSPropertyOp50
 70
     1
102
RTVSPropertyOp51
 70
     0
102
RTVSPropertyOp52
 70
     0
102
RTVSPropertyOp53
 70
     1
102
RTVSPropertyOp54
 70
     1
102
RTVSPropertyOp55
 70
     1
102
RTVSPropertyOp56
 70
     1
102
RTVSPropertyOp57
 70
     1
102
RTVSPropertyOp58
 70
     1
102
RTVSPropertyOp59
 70
     1
102
RTVSPropertyOp60
 70
     1
102
RTVSPropertyOp61
 70
     1
102
RTVSPropertyOp62
 70
     1
  0
XRECORD
  5
10AF
102
{ACAD_REACTORS
330
10AE
102
}
330
10AE
100
AcDbXrecord
280
     1
102
RTVSPost2010Prop28
280
     0
102
RTVSPost2010PropOp28
 70
     1
102
RTVSPost2010Prop29
280
     1
102
RTVSPost2010PropOp29
 70
     1
102
RTVSPost2010Prop30
280
     1
102
RTVSPost2010PropOp30
 70
     1
102
RTVSPost2010Prop31
280
     0
102
RTVSPost2010PropOp31
 70
     1
102
RTVSPost2010Prop32
280
     0
102
RTVSPost2010PropOp32
 70
     1
102
RTVSPost2010Prop33
280
     0
102
RTVSPost2010PropOp33
 70
     1
102
RTVSPost2010Prop34
280
     0
102
RTVSPost2010PropOp34
 70
     1
102
RTVSPost2010Prop35
280
     0
102
RTVSPost2010PropOp35
 70
     1
102
RTVSPost2010Prop36
280
     0
102
RTVSPost2010PropOp36
 70
     1
102
RTVSPost2010Prop37
 90
       50
102
RTVSPost2010PropOp37
 70
     1
102
RTVSPost2010Prop38
140
0.0
102
RTVSPost2010PropOp38
 70
     1
102
RTVSPost2010Prop39
140
1.0
102
RTVSPost2010PropOp39
 70
     1
102
RTVSPost2010Prop40
 90
        0
102
RTVSPost2010PropOp40
 70
     1
102
RTVSPost2010Prop41ColorIndex
 90
       18
102
RTVSPost2010Prop41ColorRGB
 90
        0
102
RTVSPost2010PropOp41
 70
     1
102
RTVSPost2010Prop42
 90
       50
102
RTVSPost2010PropOp42
 70
     1
102
RTVSPost2010Prop43
 90
        3
102
RTVSPost2010PropOp43
 70
     1
102
RTVSPost2010Prop44ColorIndex
 90
        5
102
RTVSPost2010Prop44ColorRGB
 90
      255
102
RTVSPost2010PropOp44
 70
     1
102
RTVSPost2010Prop45
280
     0
102
RTVSPost2010PropOp45
 70
     1
102
RTVSPost2010Prop46
 90
       50
102
RTVSPost2010PropOp46
 70
     1
102
RTVSPost2010Prop47
 90
       50
102
RTVSPost2010PropOp47
 70
     1
102
RTVSPost2010Prop48
 90
       50
102
RTVSPost2010PropOp48
 70
     1
102
RTVSPost2010Prop49
280
     0
102
RTVSPost2010PropOp49
 70
     1
102
RTVSPost2010Prop50
 90
       50
102
RTVSPost2010PropOp50
 70
     1
102
RTVSPost2010Prop51ColorIndex
 90
      256
102
RTVSPost2010Prop51ColorRGB
 90
-16777216
102
RTVSPost2010PropOp51
 70
     0
102
RTVSPost2010Prop52
140
1.0
102
RTVSPost2010PropOp52
 70
     0
102
RTVSPost2010Prop53
 90
        2
102
RTVSPost2010PropOp53
 70
     1
102
RTVSPost2010Prop54
  1
strokes_ogs.tif
102
RTVSPost2010PropOp54
 70
     1
102
RTVSPost2010Prop55
280
     0
102
RTVSPost2010PropOp55
 70
     1
102
RTVSPost2010Prop56
140
1.0
102
RTVSPost2010PropOp56
 70
     1
102
RTVSPost2010Prop57
140
1.0
102
RTVSPost2010PropOp57
 70
     1
102
RTVSPropertyOp0
 70
     1
102
RTVSPropertyOp1
 70
     1
102
RTVSPropertyOp2
 70
     1
102
RTVSPropertyOp3
 70
     1
102
RTVSPropertyOp4
 70
     1
102
RTVSPropertyOp5
 70
     1
102
RTVSPropertyOp6
 70
     1
102
RTVSPropertyOp7
 70
     1
102
RTVSPropertyOp8
 70
     1
102
RTVSPropertyOp9
 70
     1
102
RTVSPropertyOp10
 70
     1
102
RTVSPropertyOp11
 70
     1
102
RTVSPropertyOp12
 70
     1
102
RTVSPropertyOp13
 70
     1
102
RTVSPropertyOp14
 70
     1
102
RTVSPropertyOp15
 70
     1
102
RTVSPropertyOp16
 70
     1
102
RTVSPropertyOp17
 70
     1
102
RTVSPropertyOp18
 70
     1
102
RTVSPropertyOp19
 70
     1
102
RTVSPropertyOp20
 70
     1
102
RTVSPropertyOp21
 70
     1
102
RTVSPropertyOp22
 70
     1
102
RTVSPropertyOp23
 70
     1
102
RTVSPropertyOp24
 70
     1
102
RTVSPropertyOp25
 70
     1
102
RTVSPropertyOp26
 70
     1
102
RTVSPropertyOp27
 70
     1
102
RTVSPropertyOp28
 70
     1
102
RTVSPropertyOp29
 70
     1
102
RTVSPropertyOp30
 70
     1
102
RTVSPropertyOp31
 70
     1
102
RTVSPropertyOp32
 70
     1
102
RTVSPropertyOp33
 70
     1
102
RTVSPropertyOp34
 70
     1
102
RTVSPropertyOp35
 70
     1
102
RTVSPropertyOp36
 70
     1
102
RTVSPropertyOp37
 70
     1
102
RTVSPropertyOp38
 70
     1
102
RTVSPropertyOp39
 70
     1
102
RTVSPropertyOp40
 70
     1
102
RTVSPropertyOp41
 70
     1
102
RTVSPropertyOp42
 70
     1
102
RTVSPropertyOp43
 70
     1
102
RTVSPropertyOp44
 70
     1
102
RTVSPropertyOp45
 70
     1
102
RTVSPropertyOp46
 70
     1
102
RTVSPropertyOp47
 70
     1
102
RTVSPropertyOp48
 70
     1
102
RTVSPropertyOp49
 70
     1
102
RTVSPropertyOp50
 70
     1
102
RTVSPropertyOp51
 70
     0
102
RTVSPropertyOp52
 70
     0
102
RTVSPropertyOp53
 70
     1
102
RTVSPropertyOp54
 70
     1
102
RTVSPropertyOp55
 70
     1
102
RTVSPropertyOp56
 70
     1
102
RTVSPropertyOp57
 70
     1
102
RTVSPropertyOp58
 70
     1
102
RTVSPropertyOp59
 70
     1
102
RTVSPropertyOp60
 70
     1
102
RTVSPropertyOp61
 70
     1
102
RTVSPropertyOp62
 70
     1
  0
XRECORD
  5
10AD
102
{ACAD_REACTORS
330
10AC
102
}
330
10AC
100
AcDbXrecord
280
     1
102
RTVSPost2010Prop28
280
     0
102
RTVSPost2010PropOp28
 70
     1
102
RTVSPost2010Prop29
280
     1
102
RTVSPost2010PropOp29
 70
     1
102
RTVSPost2010Prop30
280
     1
102
RTVSPost2010PropOp30
 70
     1
102
RTVSPost2010Prop31
280
     0
102
RTVSPost2010PropOp31
 70
     1
102
RTVSPost2010Prop32
280
     0
102
RTVSPost2010PropOp32
 70
     1
102
RTVSPost2010Prop33
280
     0
102
RTVSPost2010PropOp33
 70
     1
102
RTVSPost2010Prop34
280
     0
102
RTVSPost2010PropOp34
 70
     1
102
RTVSPost2010Prop35
280
     0
102
RTVSPost2010PropOp35
 70
     1
102
RTVSPost2010Prop36
280
     0
102
RTVSPost2010PropOp36
 70
     1
102
RTVSPost2010Prop37
 90
       50
102
RTVSPost2010PropOp37
 70
     1
102
RTVSPost2010Prop38
140
0.0
102
RTVSPost2010PropOp38
 70
     1
102
RTVSPost2010Prop39
140
1.0
102
RTVSPost2010PropOp39
 70
     1
102
RTVSPost2010Prop40
 90
        0
102
RTVSPost2010PropOp40
 70
     1
102
RTVSPost2010Prop41ColorIndex
 90
       18
102
RTVSPost2010Prop41ColorRGB
 90
        0
102
RTVSPost2010PropOp41
 70
     1
102
RTVSPost2010Prop42
 90
       50
102
RTVSPost2010PropOp42
 70
     1
102
RTVSPost2010Prop43
 90
        3
102
RTVSPost2010PropOp43
 70
     1
102
RTVSPost2010Prop44ColorIndex
 90
        5
102
RTVSPost2010Prop44ColorRGB
 90
      255
102
RTVSPost2010PropOp44
 70
     1
102
RTVSPost2010Prop45
280
     0
102
RTVSPost2010PropOp45
 70
     1
102
RTVSPost2010Prop46
 90
       50
102
RTVSPost2010PropOp46
 70
     1
102
RTVSPost2010Prop47
 90
       50
102
RTVSPost2010PropOp47
 70
     1
102
RTVSPost2010Prop48
 90
       50
102
RTVSPost2010PropOp48
 70
     1
102
RTVSPost2010Prop49
280
     0
102
RTVSPost2010PropOp49
 70
     1
102
RTVSPost2010Prop50
 90
       50
102
RTVSPost2010PropOp50
 70
     1
102
RTVSPost2010Prop51ColorIndex
 90
      256
102
RTVSPost2010Prop51ColorRGB
 90
-16777216
102
RTVSPost2010PropOp51
 70
     0
102
RTVSPost2010Prop52
140
1.0
102
RTVSPost2010PropOp52
 70
     0
102
RTVSPost2010Prop53
 90
        2
102
RTVSPost2010PropOp53
 70
     1
102
RTVSPost2010Prop54
  1
strokes_ogs.tif
102
RTVSPost2010PropOp54
 70
     1
102
RTVSPost2010Prop55
280
     0
102
RTVSPost2010PropOp55
 70
     1
102
RTVSPost2010Prop56
140
1.0
102
RTVSPost2010PropOp56
 70
     1
102
RTVSPost2010Prop57
140
1.0
102
RTVSPost2010PropOp57
 70
     1
102
RTVSPropertyOp0
 70
     1
102
RTVSPropertyOp1
 70
     1
102
RTVSPropertyOp2
 70
     1
102
RTVSPropertyOp3
 70
     1
102
RTVSPropertyOp4
 70
     1
102
RTVSPropertyOp5
 70
     1
102
RTVSPropertyOp6
 70
     1
102
RTVSPropertyOp7
 70
     1
102
RTVSPropertyOp8
 70
     1
102
RTVSPropertyOp9
 70
     1
102
RTVSPropertyOp10
 70
     1
102
RTVSPropertyOp11
 70
     1
102
RTVSPropertyOp12
 70
     1
102
RTVSPropertyOp13
 70
     1
102
RTVSPropertyOp14
 70
     1
102
RTVSPropertyOp15
 70
     1
102
RTVSPropertyOp16
 70
     1
102
RTVSPropertyOp17
 70
     1
102
RTVSPropertyOp18
 70
     1
102
RTVSPropertyOp19
 70
     1
102
RTVSPropertyOp20
 70
     1
102
RTVSPropertyOp21
 70
     1
102
RTVSPropertyOp22
 70
     1
102
RTVSPropertyOp23
 70
     1
102
RTVSPropertyOp24
 70
     1
102
RTVSPropertyOp25
 70
     1
102
RTVSPropertyOp26
 70
     1
102
RTVSPropertyOp27
 70
     1
102
RTVSPropertyOp28
 70
     1
102
RTVSPropertyOp29
 70
     1
102
RTVSPropertyOp30
 70
     1
102
RTVSPropertyOp31
 70
     1
102
RTVSPropertyOp32
 70
     1
102
RTVSPropertyOp33
 70
     1
102
RTVSPropertyOp34
 70
     1
102
RTVSPropertyOp35
 70
     1
102
RTVSPropertyOp36
 70
     1
102
RTVSPropertyOp37
 70
     1
102
RTVSPropertyOp38
 70
     1
102
RTVSPropertyOp39
 70
     1
102
RTVSPropertyOp40
 70
     1
102
RTVSPropertyOp41
 70
     1
102
RTVSPropertyOp42
 70
     1
102
RTVSPropertyOp43
 70
     1
102
RTVSPropertyOp44
 70
     1
102
RTVSPropertyOp45
 70
     1
102
RTVSPropertyOp46
 70
     1
102
RTVSPropertyOp47
 70
     1
102
RTVSPropertyOp48
 70
     1
102
RTVSPropertyOp49
 70
     1
102
RTVSPropertyOp50
 70
     1
102
RTVSPropertyOp51
 70
     0
102
RTVSPropertyOp52
 70
     0
102
RTVSPropertyOp53
 70
     1
102
RTVSPropertyOp54
 70
     1
102
RTVSPropertyOp55
 70
     1
102
RTVSPropertyOp56
 70
     1
102
RTVSPropertyOp57
 70
     1
102
RTVSPropertyOp58
 70
     1
102
RTVSPropertyOp59
 70
     1
102
RTVSPropertyOp60
 70
     1
102
RTVSPropertyOp61
 70
     1
102
RTVSPropertyOp62
 70
     1
  0
XRECORD
  5
10A7
102
{ACAD_REACTORS
330
10A6
102
}
330
10A6
100
AcDbXrecord
280
     1
102
RTVSPost2010Prop28
280
     0
102
RTVSPost2010PropOp28
 70
     1
102
RTVSPost2010Prop29
280
     1
102
RTVSPost2010PropOp29
 70
     1
102
RTVSPost2010Prop30
280
     1
102
RTVSPost2010PropOp30
 70
     1
102
RTVSPost2010Prop31
280
     0
102
RTVSPost2010PropOp31
 70
     1
102
RTVSPost2010Prop32
280
     0
102
RTVSPost2010PropOp32
 70
     1
102
RTVSPost2010Prop33
280
     0
102
RTVSPost2010PropOp33
 70
     1
102
RTVSPost2010Prop34
280
     0
102
RTVSPost2010PropOp34
 70
     1
102
RTVSPost2010Prop35
280
     0
102
RTVSPost2010PropOp35
 70
     1
102
RTVSPost2010Prop36
280
     0
102
RTVSPost2010PropOp36
 70
     1
102
RTVSPost2010Prop37
 90
       50
102
RTVSPost2010PropOp37
 70
     1
102
RTVSPost2010Prop38
140
0.0
102
RTVSPost2010PropOp38
 70
     1
102
RTVSPost2010Prop39
140
1.0
102
RTVSPost2010PropOp39
 70
     1
102
RTVSPost2010Prop40
 90
        0
102
RTVSPost2010PropOp40
 70
     1
102
RTVSPost2010Prop41ColorIndex
 90
       18
102
RTVSPost2010Prop41ColorRGB
 90
        0
102
RTVSPost2010PropOp41
 70
     1
102
RTVSPost2010Prop42
 90
       50
102
RTVSPost2010PropOp42
 70
     1
102
RTVSPost2010Prop43
 90
        3
102
RTVSPost2010PropOp43
 70
     1
102
RTVSPost2010Prop44ColorIndex
 90
        5
102
RTVSPost2010Prop44ColorRGB
 90
      255
102
RTVSPost2010PropOp44
 70
     1
102
RTVSPost2010Prop45
280
     0
102
RTVSPost2010PropOp45
 70
     1
102
RTVSPost2010Prop46
 90
       50
102
RTVSPost2010PropOp46
 70
     1
102
RTVSPost2010Prop47
 90
       50
102
RTVSPost2010PropOp47
 70
     1
102
RTVSPost2010Prop48
 90
       50
102
RTVSPost2010PropOp48
 70
     1
102
RTVSPost2010Prop49
280
     0
102
RTVSPost2010PropOp49
 70
     1
102
RTVSPost2010Prop50
 90
       50
102
RTVSPost2010PropOp50
 70
     1
102
RTVSPost2010Prop51ColorIndex
 90
      256
102
RTVSPost2010Prop51ColorRGB
 90
-16777216
102
RTVSPost2010PropOp51
 70
     0
102
RTVSPost2010Prop52
140
1.0
102
RTVSPost2010PropOp52
 70
     0
102
RTVSPost2010Prop53
 90
        2
102
RTVSPost2010PropOp53
 70
     1
102
RTVSPost2010Prop54
  1
strokes_ogs.tif
102
RTVSPost2010PropOp54
 70
     1
102
RTVSPost2010Prop55
280
     0
102
RTVSPost2010PropOp55
 70
     1
102
RTVSPost2010Prop56
140
1.0
102
RTVSPost2010PropOp56
 70
     1
102
RTVSPost2010Prop57
140
1.0
102
RTVSPost2010PropOp57
 70
     1
102
RTVSPropertyOp0
 70
     1
102
RTVSPropertyOp1
 70
     1
102
RTVSPropertyOp2
 70
     1
102
RTVSPropertyOp3
 70
     1
102
RTVSPropertyOp4
 70
     1
102
RTVSPropertyOp5
 70
     1
102
RTVSPropertyOp6
 70
     1
102
RTVSPropertyOp7
 70
     1
102
RTVSPropertyOp8
 70
     1
102
RTVSPropertyOp9
 70
     1
102
RTVSPropertyOp10
 70
     1
102
RTVSPropertyOp11
 70
     1
102
RTVSPropertyOp12
 70
     1
102
RTVSPropertyOp13
 70
     1
102
RTVSPropertyOp14
 70
     1
102
RTVSPropertyOp15
 70
     1
102
RTVSPropertyOp16
 70
     1
102
RTVSPropertyOp17
 70
     1
102
RTVSPropertyOp18
 70
     1
102
RTVSPropertyOp19
 70
     1
102
RTVSPropertyOp20
 70
     1
102
RTVSPropertyOp21
 70
     1
102
RTVSPropertyOp22
 70
     1
102
RTVSPropertyOp23
 70
     1
102
RTVSPropertyOp24
 70
     1
102
RTVSPropertyOp25
 70
     1
102
RTVSPropertyOp26
 70
     1
102
RTVSPropertyOp27
 70
     1
102
RTVSPropertyOp28
 70
     1
102
RTVSPropertyOp29
 70
     1
102
RTVSPropertyOp30
 70
     1
102
RTVSPropertyOp31
 70
     1
102
RTVSPropertyOp32
 70
     1
102
RTVSPropertyOp33
 70
     1
102
RTVSPropertyOp34
 70
     1
102
RTVSPropertyOp35
 70
     1
102
RTVSPropertyOp36
 70
     1
102
RTVSPropertyOp37
 70
     1
102
RTVSPropertyOp38
 70
     1
102
RTVSPropertyOp39
 70
     1
102
RTVSPropertyOp40
 70
     1
102
RTVSPropertyOp41
 70
     1
102
RTVSPropertyOp42
 70
     1
102
RTVSPropertyOp43
 70
     1
102
RTVSPropertyOp44
 70
     1
102
RTVSPropertyOp45
 70
     1
102
RTVSPropertyOp46
 70
     1
102
RTVSPropertyOp47
 70
     1
102
RTVSPropertyOp48
 70
     1
102
RTVSPropertyOp49
 70
     1
102
RTVSPropertyOp50
 70
     1
102
RTVSPropertyOp51
 70
     0
102
RTVSPropertyOp52
 70
     0
102
RTVSPropertyOp53
 70
     1
102
RTVSPropertyOp54
 70
     1
102
RTVSPropertyOp55
 70
     1
102
RTVSPropertyOp56
 70
     1
102
RTVSPropertyOp57
 70
     1
102
RTVSPropertyOp58
 70
     1
102
RTVSPropertyOp59
 70
     1
102
RTVSPropertyOp60
 70
     1
102
RTVSPropertyOp61
 70
     1
102
RTVSPropertyOp62
 70
     1
  0
XRECORD
  5
10A9
102
{ACAD_REACTORS
330
10A8
102
}
330
10A8
100
AcDbXrecord
280
     1
102
RTVSPost2010Prop28
280
     0
102
RTVSPost2010PropOp28
 70
     1
102
RTVSPost2010Prop29
280
     1
102
RTVSPost2010PropOp29
 70
     1
102
RTVSPost2010Prop30
280
     1
102
RTVSPost2010PropOp30
 70
     1
102
RTVSPost2010Prop31
280
     0
102
RTVSPost2010PropOp31
 70
     1
102
RTVSPost2010Prop32
280
     0
102
RTVSPost2010PropOp32
 70
     1
102
RTVSPost2010Prop33
280
     0
102
RTVSPost2010PropOp33
 70
     1
102
RTVSPost2010Prop34
280
     0
102
RTVSPost2010PropOp34
 70
     1
102
RTVSPost2010Prop35
280
     0
102
RTVSPost2010PropOp35
 70
     1
102
RTVSPost2010Prop36
280
     0
102
RTVSPost2010PropOp36
 70
     1
102
RTVSPost2010Prop37
 90
       50
102
RTVSPost2010PropOp37
 70
     1
102
RTVSPost2010Prop38
140
0.0
102
RTVSPost2010PropOp38
 70
     1
102
RTVSPost2010Prop39
140
1.0
102
RTVSPost2010PropOp39
 70
     1
102
RTVSPost2010Prop40
 90
        0
102
RTVSPost2010PropOp40
 70
     1
102
RTVSPost2010Prop41ColorIndex
 90
       18
102
RTVSPost2010Prop41ColorRGB
 90
        0
102
RTVSPost2010PropOp41
 70
     1
102
RTVSPost2010Prop42
 90
       50
102
RTVSPost2010PropOp42
 70
     1
102
RTVSPost2010Prop43
 90
        3
102
RTVSPost2010PropOp43
 70
     1
102
RTVSPost2010Prop44ColorIndex
 90
        5
102
RTVSPost2010Prop44ColorRGB
 90
      255
102
RTVSPost2010PropOp44
 70
     1
102
RTVSPost2010Prop45
280
     0
102
RTVSPost2010PropOp45
 70
     1
102
RTVSPost2010Prop46
 90
       50
102
RTVSPost2010PropOp46
 70
     1
102
RTVSPost2010Prop47
 90
       50
102
RTVSPost2010PropOp47
 70
     1
102
RTVSPost2010Prop48
 90
       50
102
RTVSPost2010PropOp48
 70
     1
102
RTVSPost2010Prop49
280
     0
102
RTVSPost2010PropOp49
 70
     1
102
RTVSPost2010Prop50
 90
       50
102
RTVSPost2010PropOp50
 70
     1
102
RTVSPost2010Prop51ColorIndex
 90
      256
102
RTVSPost2010Prop51ColorRGB
 90
-16777216
102
RTVSPost2010PropOp51
 70
     0
102
RTVSPost2010Prop52
140
1.0
102
RTVSPost2010PropOp52
 70
     0
102
RTVSPost2010Prop53
 90
        2
102
RTVSPost2010PropOp53
 70
     1
102
RTVSPost2010Prop54
  1
strokes_ogs.tif
102
RTVSPost2010PropOp54
 70
     1
102
RTVSPost2010Prop55
280
     0
102
RTVSPost2010PropOp55
 70
     1
102
RTVSPost2010Prop56
140
1.0
102
RTVSPost2010PropOp56
 70
     1
102
RTVSPost2010Prop57
140
1.0
102
RTVSPost2010PropOp57
 70
     1
102
RTVSPropertyOp0
 70
     1
102
RTVSPropertyOp1
 70
     1
102
RTVSPropertyOp2
 70
     1
102
RTVSPropertyOp3
 70
     1
102
RTVSPropertyOp4
 70
     1
102
RTVSPropertyOp5
 70
     1
102
RTVSPropertyOp6
 70
     1
102
RTVSPropertyOp7
 70
     1
102
RTVSPropertyOp8
 70
     1
102
RTVSPropertyOp9
 70
     1
102
RTVSPropertyOp10
 70
     1
102
RTVSPropertyOp11
 70
     1
102
RTVSPropertyOp12
 70
     1
102
RTVSPropertyOp13
 70
     1
102
RTVSPropertyOp14
 70
     1
102
RTVSPropertyOp15
 70
     1
102
RTVSPropertyOp16
 70
     1
102
RTVSPropertyOp17
 70
     1
102
RTVSPropertyOp18
 70
     1
102
RTVSPropertyOp19
 70
     1
102
RTVSPropertyOp20
 70
     1
102
RTVSPropertyOp21
 70
     1
102
RTVSPropertyOp22
 70
     1
102
RTVSPropertyOp23
 70
     1
102
RTVSPropertyOp24
 70
     1
102
RTVSPropertyOp25
 70
     1
102
RTVSPropertyOp26
 70
     1
102
RTVSPropertyOp27
 70
     1
102
RTVSPropertyOp28
 70
     1
102
RTVSPropertyOp29
 70
     1
102
RTVSPropertyOp30
 70
     1
102
RTVSPropertyOp31
 70
     1
102
RTVSPropertyOp32
 70
     1
102
RTVSPropertyOp33
 70
     1
102
RTVSPropertyOp34
 70
     1
102
RTVSPropertyOp35
 70
     1
102
RTVSPropertyOp36
 70
     1
102
RTVSPropertyOp37
 70
     1
102
RTVSPropertyOp38
 70
     1
102
RTVSPropertyOp39
 70
     1
102
RTVSPropertyOp40
 70
     1
102
RTVSPropertyOp41
 70
     1
102
RTVSPropertyOp42
 70
     1
102
RTVSPropertyOp43
 70
     1
102
RTVSPropertyOp44
 70
     1
102
RTVSPropertyOp45
 70
     1
102
RTVSPropertyOp46
 70
     1
102
RTVSPropertyOp47
 70
     1
102
RTVSPropertyOp48
 70
     1
102
RTVSPropertyOp49
 70
     1
102
RTVSPropertyOp50
 70
     1
102
RTVSPropertyOp51
 70
     0
102
RTVSPropertyOp52
 70
     0
102
RTVSPropertyOp53
 70
     1
102
RTVSPropertyOp54
 70
     1
102
RTVSPropertyOp55
 70
     1
102
RTVSPropertyOp56
 70
     1
102
RTVSPropertyOp57
 70
     1
102
RTVSPropertyOp58
 70
     1
102
RTVSPropertyOp59
 70
     1
102
RTVSPropertyOp60
 70
     1
102
RTVSPropertyOp61
 70
     1
102
RTVSPropertyOp62
 70
     1
  0
XRECORD
  5
109F
102
{ACAD_REACTORS
330
109E
102
}
330
109E
100
AcDbXrecord
280
     1
102
RTVSPost2010Prop28
280
     0
102
RTVSPost2010PropOp28
 70
     1
102
RTVSPost2010Prop29
280
     1
102
RTVSPost2010PropOp29
 70
     1
102
RTVSPost2010Prop30
280
     1
102
RTVSPost2010PropOp30
 70
     1
102
RTVSPost2010Prop31
280
     0
102
RTVSPost2010PropOp31
 70
     1
102
RTVSPost2010Prop32
280
     0
102
RTVSPost2010PropOp32
 70
     1
102
RTVSPost2010Prop33
280
     0
102
RTVSPost2010PropOp33
 70
     1
102
RTVSPost2010Prop34
280
     0
102
RTVSPost2010PropOp34
 70
     1
102
RTVSPost2010Prop35
280
     0
102
RTVSPost2010PropOp35
 70
     1
102
RTVSPost2010Prop36
280
     0
102
RTVSPost2010PropOp36
 70
     1
102
RTVSPost2010Prop37
 90
       50
102
RTVSPost2010PropOp37
 70
     1
102
RTVSPost2010Prop38
140
0.0
102
RTVSPost2010PropOp38
 70
     1
102
RTVSPost2010Prop39
140
1.0
102
RTVSPost2010PropOp39
 70
     1
102
RTVSPost2010Prop40
 90
        0
102
RTVSPost2010PropOp40
 70
     1
102
RTVSPost2010Prop41ColorIndex
 90
       18
102
RTVSPost2010Prop41ColorRGB
 90
        0
102
RTVSPost2010PropOp41
 70
     1
102
RTVSPost2010Prop42
 90
       50
102
RTVSPost2010PropOp42
 70
     1
102
RTVSPost2010Prop43
 90
        3
102
RTVSPost2010PropOp43
 70
     1
102
RTVSPost2010Prop44ColorIndex
 90
        5
102
RTVSPost2010Prop44ColorRGB
 90
      255
102
RTVSPost2010PropOp44
 70
     1
102
RTVSPost2010Prop45
280
     0
102
RTVSPost2010PropOp45
 70
     1
102
RTVSPost2010Prop46
 90
       50
102
RTVSPost2010PropOp46
 70
     1
102
RTVSPost2010Prop47
 90
       50
102
RTVSPost2010PropOp47
 70
     1
102
RTVSPost2010Prop48
 90
       50
102
RTVSPost2010PropOp48
 70
     1
102
RTVSPost2010Prop49
280
     0
102
RTVSPost2010PropOp49
 70
     1
102
RTVSPost2010Prop50
 90
       50
102
RTVSPost2010PropOp50
 70
     1
102
RTVSPost2010Prop51ColorIndex
 90
      256
102
RTVSPost2010Prop51ColorRGB
 90
-16777216
102
RTVSPost2010PropOp51
 70
     0
102
RTVSPost2010Prop52
140
1.0
102
RTVSPost2010PropOp52
 70
     0
102
RTVSPost2010Prop53
 90
        2
102
RTVSPost2010PropOp53
 70
     1
102
RTVSPost2010Prop54
  1
strokes_ogs.tif
102
RTVSPost2010PropOp54
 70
     1
102
RTVSPost2010Prop55
280
     0
102
RTVSPost2010PropOp55
 70
     1
102
RTVSPost2010Prop56
140
1.0
102
RTVSPost2010PropOp56
 70
     1
102
RTVSPost2010Prop57
140
1.0
102
RTVSPost2010PropOp57
 70
     1
102
RTVSPropertyOp0
 70
     1
102
RTVSPropertyOp1
 70
     1
102
RTVSPropertyOp2
 70
     1
102
RTVSPropertyOp3
 70
     1
102
RTVSPropertyOp4
 70
     1
102
RTVSPropertyOp5
 70
     1
102
RTVSPropertyOp6
 70
     1
102
RTVSPropertyOp7
 70
     1
102
RTVSPropertyOp8
 70
     1
102
RTVSPropertyOp9
 70
     1
102
RTVSPropertyOp10
 70
     1
102
RTVSPropertyOp11
 70
     1
102
RTVSPropertyOp12
 70
     1
102
RTVSPropertyOp13
 70
     1
102
RTVSPropertyOp14
 70
     1
102
RTVSPropertyOp15
 70
     1
102
RTVSPropertyOp16
 70
     1
102
RTVSPropertyOp17
 70
     1
102
RTVSPropertyOp18
 70
     1
102
RTVSPropertyOp19
 70
     1
102
RTVSPropertyOp20
 70
     1
102
RTVSPropertyOp21
 70
     1
102
RTVSPropertyOp22
 70
     1
102
RTVSPropertyOp23
 70
     1
102
RTVSPropertyOp24
 70
     1
102
RTVSPropertyOp25
 70
     1
102
RTVSPropertyOp26
 70
     1
102
RTVSPropertyOp27
 70
     1
102
RTVSPropertyOp28
 70
     1
102
RTVSPropertyOp29
 70
     1
102
RTVSPropertyOp30
 70
     1
102
RTVSPropertyOp31
 70
     1
102
RTVSPropertyOp32
 70
     1
102
RTVSPropertyOp33
 70
     1
102
RTVSPropertyOp34
 70
     1
102
RTVSPropertyOp35
 70
     1
102
RTVSPropertyOp36
 70
     1
102
RTVSPropertyOp37
 70
     1
102
RTVSPropertyOp38
 70
     1
102
RTVSPropertyOp39
 70
     1
102
RTVSPropertyOp40
 70
     1
102
RTVSPropertyOp41
 70
     1
102
RTVSPropertyOp42
 70
     1
102
RTVSPropertyOp43
 70
     1
102
RTVSPropertyOp44
 70
     1
102
RTVSPropertyOp45
 70
     1
102
RTVSPropertyOp46
 70
     1
102
RTVSPropertyOp47
 70
     1
102
RTVSPropertyOp48
 70
     1
102
RTVSPropertyOp49
 70
     1
102
RTVSPropertyOp50
 70
     1
102
RTVSPropertyOp51
 70
     0
102
RTVSPropertyOp52
 70
     0
102
RTVSPropertyOp53
 70
     1
102
RTVSPropertyOp54
 70
     1
102
RTVSPropertyOp55
 70
     1
102
RTVSPropertyOp56
 70
     1
102
RTVSPropertyOp57
 70
     1
102
RTVSPropertyOp58
 70
     1
102
RTVSPropertyOp59
 70
     1
102
RTVSPropertyOp60
 70
     1
102
RTVSPropertyOp61
 70
     1
102
RTVSPropertyOp62
 70
     1
  0
XRECORD
  5
1093
102
{ACAD_REACTORS
330
1092
102
}
330
1092
100
AcDbXrecord
280
     1
102
RTVSPost2010Prop28
280
     0
102
RTVSPost2010PropOp28
 70
     1
102
RTVSPost2010Prop29
280
     1
102
RTVSPost2010PropOp29
 70
     1
102
RTVSPost2010Prop30
280
     1
102
RTVSPost2010PropOp30
 70
     1
102
RTVSPost2010Prop31
280
     0
102
RTVSPost2010PropOp31
 70
     1
102
RTVSPost2010Prop32
280
     0
102
RTVSPost2010PropOp32
 70
     1
102
RTVSPost2010Prop33
280
     0
102
RTVSPost2010PropOp33
 70
     1
102
RTVSPost2010Prop34
280
     0
102
RTVSPost2010PropOp34
 70
     1
102
RTVSPost2010Prop35
280
     0
102
RTVSPost2010PropOp35
 70
     1
102
RTVSPost2010Prop36
280
     0
102
RTVSPost2010PropOp36
 70
     1
102
RTVSPost2010Prop37
 90
       50
102
RTVSPost2010PropOp37
 70
     1
102
RTVSPost2010Prop38
140
0.0
102
RTVSPost2010PropOp38
 70
     1
102
RTVSPost2010Prop39
140
1.0
102
RTVSPost2010PropOp39
 70
     1
102
RTVSPost2010Prop40
 90
        0
102
RTVSPost2010PropOp40
 70
     1
102
RTVSPost2010Prop41ColorIndex
 90
       18
102
RTVSPost2010Prop41ColorRGB
 90
        0
102
RTVSPost2010PropOp41
 70
     1
102
RTVSPost2010Prop42
 90
       50
102
RTVSPost2010PropOp42
 70
     1
102
RTVSPost2010Prop43
 90
        3
102
RTVSPost2010PropOp43
 70
     1
102
RTVSPost2010Prop44ColorIndex
 90
        5
102
RTVSPost2010Prop44ColorRGB
 90
      255
102
RTVSPost2010PropOp44
 70
     1
102
RTVSPost2010Prop45
280
     0
102
RTVSPost2010PropOp45
 70
     1
102
RTVSPost2010Prop46
 90
       50
102
RTVSPost2010PropOp46
 70
     1
102
RTVSPost2010Prop47
 90
       50
102
RTVSPost2010PropOp47
 70
     1
102
RTVSPost2010Prop48
 90
       50
102
RTVSPost2010PropOp48
 70
     1
102
RTVSPost2010Prop49
280
     0
102
RTVSPost2010PropOp49
 70
     1
102
RTVSPost2010Prop50
 90
       50
102
RTVSPost2010PropOp50
 70
     1
102
RTVSPost2010Prop51ColorIndex
 90
      256
102
RTVSPost2010Prop51ColorRGB
 90
-16777216
102
RTVSPost2010PropOp51
 70
     0
102
RTVSPost2010Prop52
140
1.0
102
RTVSPost2010PropOp52
 70
     0
102
RTVSPost2010Prop53
 90
        2
102
RTVSPost2010PropOp53
 70
     1
102
RTVSPost2010Prop54
  1
strokes_ogs.tif
102
RTVSPost2010PropOp54
 70
     1
102
RTVSPost2010Prop55
280
     0
102
RTVSPost2010PropOp55
 70
     1
102
RTVSPost2010Prop56
140
1.0
102
RTVSPost2010PropOp56
 70
     1
102
RTVSPost2010Prop57
140
1.0
102
RTVSPost2010PropOp57
 70
     1
102
RTVSPropertyOp0
 70
     1
102
RTVSPropertyOp1
 70
     1
102
RTVSPropertyOp2
 70
     1
102
RTVSPropertyOp3
 70
     1
102
RTVSPropertyOp4
 70
     1
102
RTVSPropertyOp5
 70
     1
102
RTVSPropertyOp6
 70
     1
102
RTVSPropertyOp7
 70
     1
102
RTVSPropertyOp8
 70
     1
102
RTVSPropertyOp9
 70
     1
102
RTVSPropertyOp10
 70
     1
102
RTVSPropertyOp11
 70
     1
102
RTVSPropertyOp12
 70
     1
102
RTVSPropertyOp13
 70
     1
102
RTVSPropertyOp14
 70
     1
102
RTVSPropertyOp15
 70
     1
102
RTVSPropertyOp16
 70
     1
102
RTVSPropertyOp17
 70
     1
102
RTVSPropertyOp18
 70
     1
102
RTVSPropertyOp19
 70
     1
102
RTVSPropertyOp20
 70
     1
102
RTVSPropertyOp21
 70
     1
102
RTVSPropertyOp22
 70
     1
102
RTVSPropertyOp23
 70
     1
102
RTVSPropertyOp24
 70
     1
102
RTVSPropertyOp25
 70
     1
102
RTVSPropertyOp26
 70
     1
102
RTVSPropertyOp27
 70
     1
102
RTVSPropertyOp28
 70
     1
102
RTVSPropertyOp29
 70
     1
102
RTVSPropertyOp30
 70
     1
102
RTVSPropertyOp31
 70
     1
102
RTVSPropertyOp32
 70
     1
102
RTVSPropertyOp33
 70
     1
102
RTVSPropertyOp34
 70
     1
102
RTVSPropertyOp35
 70
     1
102
RTVSPropertyOp36
 70
     1
102
RTVSPropertyOp37
 70
     1
102
RTVSPropertyOp38
 70
     1
102
RTVSPropertyOp39
 70
     1
102
RTVSPropertyOp40
 70
     1
102
RTVSPropertyOp41
 70
     1
102
RTVSPropertyOp42
 70
     1
102
RTVSPropertyOp43
 70
     1
102
RTVSPropertyOp44
 70
     1
102
RTVSPropertyOp45
 70
     1
102
RTVSPropertyOp46
 70
     1
102
RTVSPropertyOp47
 70
     1
102
RTVSPropertyOp48
 70
     1
102
RTVSPropertyOp49
 70
     1
102
RTVSPropertyOp50
 70
     1
102
RTVSPropertyOp51
 70
     0
102
RTVSPropertyOp52
 70
     0
102
RTVSPropertyOp53
 70
     1
102
RTVSPropertyOp54
 70
     1
102
RTVSPropertyOp55
 70
     1
102
RTVSPropertyOp56
 70
     1
102
RTVSPropertyOp57
 70
     1
102
RTVSPropertyOp58
 70
     1
102
RTVSPropertyOp59
 70
     1
102
RTVSPropertyOp60
 70
     1
102
RTVSPropertyOp61
 70
     1
102
RTVSPropertyOp62
 70
     1
  0
XRECORD
  5
10AB
102
{ACAD_REACTORS
330
10AA
102
}
330
10AA
100
AcDbXrecord
280
     1
102
RTVSPost2010Prop28
280
     0
102
RTVSPost2010PropOp28
 70
     1
102
RTVSPost2010Prop29
280
     1
102
RTVSPost2010PropOp29
 70
     1
102
RTVSPost2010Prop30
280
     1
102
RTVSPost2010PropOp30
 70
     1
102
RTVSPost2010Prop31
280
     0
102
RTVSPost2010PropOp31
 70
     1
102
RTVSPost2010Prop32
280
     0
102
RTVSPost2010PropOp32
 70
     1
102
RTVSPost2010Prop33
280
     0
102
RTVSPost2010PropOp33
 70
     1
102
RTVSPost2010Prop34
280
     0
102
RTVSPost2010PropOp34
 70
     1
102
RTVSPost2010Prop35
280
     0
102
RTVSPost2010PropOp35
 70
     1
102
RTVSPost2010Prop36
280
     0
102
RTVSPost2010PropOp36
 70
     1
102
RTVSPost2010Prop37
 90
       50
102
RTVSPost2010PropOp37
 70
     1
102
RTVSPost2010Prop38
140
0.0
102
RTVSPost2010PropOp38
 70
     1
102
RTVSPost2010Prop39
140
1.0
102
RTVSPost2010PropOp39
 70
     1
102
RTVSPost2010Prop40
 90
        0
102
RTVSPost2010PropOp40
 70
     1
102
RTVSPost2010Prop41ColorIndex
 90
       18
102
RTVSPost2010Prop41ColorRGB
 90
        0
102
RTVSPost2010PropOp41
 70
     1
102
RTVSPost2010Prop42
 90
       50
102
RTVSPost2010PropOp42
 70
     1
102
RTVSPost2010Prop43
 90
        3
102
RTVSPost2010PropOp43
 70
     1
102
RTVSPost2010Prop44ColorIndex
 90
        5
102
RTVSPost2010Prop44ColorRGB
 90
      255
102
RTVSPost2010PropOp44
 70
     1
102
RTVSPost2010Prop45
280
     0
102
RTVSPost2010PropOp45
 70
     1
102
RTVSPost2010Prop46
 90
       50
102
RTVSPost2010PropOp46
 70
     1
102
RTVSPost2010Prop47
 90
       50
102
RTVSPost2010PropOp47
 70
     1
102
RTVSPost2010Prop48
 90
       50
102
RTVSPost2010PropOp48
 70
     1
102
RTVSPost2010Prop49
280
     0
102
RTVSPost2010PropOp49
 70
     1
102
RTVSPost2010Prop50
 90
       50
102
RTVSPost2010PropOp50
 70
     1
102
RTVSPost2010Prop51ColorIndex
 90
      256
102
RTVSPost2010Prop51ColorRGB
 90
-16777216
102
RTVSPost2010PropOp51
 70
     0
102
RTVSPost2010Prop52
140
1.0
102
RTVSPost2010PropOp52
 70
     0
102
RTVSPost2010Prop53
 90
        2
102
RTVSPost2010PropOp53
 70
     1
102
RTVSPost2010Prop54
  1
strokes_ogs.tif
102
RTVSPost2010PropOp54
 70
     1
102
RTVSPost2010Prop55
280
     0
102
RTVSPost2010PropOp55
 70
     1
102
RTVSPost2010Prop56
140
1.0
102
RTVSPost2010PropOp56
 70
     1
102
RTVSPost2010Prop57
140
1.0
102
RTVSPost2010PropOp57
 70
     1
102
RTVSPropertyOp0
 70
     1
102
RTVSPropertyOp1
 70
     1
102
RTVSPropertyOp2
 70
     1
102
RTVSPropertyOp3
 70
     1
102
RTVSPropertyOp4
 70
     1
102
RTVSPropertyOp5
 70
     1
102
RTVSPropertyOp6
 70
     1
102
RTVSPropertyOp7
 70
     1
102
RTVSPropertyOp8
 70
     1
102
RTVSPropertyOp9
 70
     1
102
RTVSPropertyOp10
 70
     1
102
RTVSPropertyOp11
 70
     1
102
RTVSPropertyOp12
 70
     1
102
RTVSPropertyOp13
 70
     1
102
RTVSPropertyOp14
 70
     1
102
RTVSPropertyOp15
 70
     1
102
RTVSPropertyOp16
 70
     1
102
RTVSPropertyOp17
 70
     1
102
RTVSPropertyOp18
 70
     1
102
RTVSPropertyOp19
 70
     1
102
RTVSPropertyOp20
 70
     1
102
RTVSPropertyOp21
 70
     1
102
RTVSPropertyOp22
 70
     1
102
RTVSPropertyOp23
 70
     1
102
RTVSPropertyOp24
 70
     1
102
RTVSPropertyOp25
 70
     1
102
RTVSPropertyOp26
 70
     1
102
RTVSPropertyOp27
 70
     1
102
RTVSPropertyOp28
 70
     1
102
RTVSPropertyOp29
 70
     1
102
RTVSPropertyOp30
 70
     1
102
RTVSPropertyOp31
 70
     1
102
RTVSPropertyOp32
 70
     1
102
RTVSPropertyOp33
 70
     1
102
RTVSPropertyOp34
 70
     1
102
RTVSPropertyOp35
 70
     1
102
RTVSPropertyOp36
 70
     1
102
RTVSPropertyOp37
 70
     1
102
RTVSPropertyOp38
 70
     1
102
RTVSPropertyOp39
 70
     1
102
RTVSPropertyOp40
 70
     1
102
RTVSPropertyOp41
 70
     1
102
RTVSPropertyOp42
 70
     1
102
RTVSPropertyOp43
 70
     1
102
RTVSPropertyOp44
 70
     1
102
RTVSPropertyOp45
 70
     1
102
RTVSPropertyOp46
 70
     1
102
RTVSPropertyOp47
 70
     1
102
RTVSPropertyOp48
 70
     1
102
RTVSPropertyOp49
 70
     1
102
RTVSPropertyOp50
 70
     1
102
RTVSPropertyOp51
 70
     0
102
RTVSPropertyOp52
 70
     0
102
RTVSPropertyOp53
 70
     1
102
RTVSPropertyOp54
 70
     1
102
RTVSPropertyOp55
 70
     1
102
RTVSPropertyOp56
 70
     1
102
RTVSPropertyOp57
 70
     1
102
RTVSPropertyOp58
 70
     1
102
RTVSPropertyOp59
 70
     1
102
RTVSPropertyOp60
 70
     1
102
RTVSPropertyOp61
 70
     1
102
RTVSPropertyOp62
 70
     1
  0
ENDSEC
  0
EOF
