  0
SECTION
  2
HEADER
  9
$ACADVER
  1
AC1018
  9
$ACADMAINTVER
 70
   104
  9
$DWGCODEPAGE
  3
ANSI_1252
  9
$LASTSAVEDBY
  1
TITADI
  9
$INSBASE
 10
0.0
 20
0.0
 30
0.0
  9
$EXTMIN
 10
-67.14832896453845
 20
-6.013945341126373
 30
-0.0000000000000053
  9
$EXTMAX
 10
85.45230212487785
 20
94.14398274168366
 30
0.0000000000000099
  9
$LIMMIN
 10
-170.0
 20
-170.0
  9
$LIMMAX
 10
519.0
 20
260.0
  9
$ORTHOMODE
 70
     1
  9
$REGENMODE
 70
     1
  9
$FILLMODE
 70
     1
  9
$QTEXTMODE
 70
     0
  9
$MIRRTEXT
 70
     0
  9
$LTSCALE
 40
1.0
  9
$ATTMODE
 70
     1
  9
$TEXTSIZE
 40
3.5
  9
$TRACEWID
 40
1.0
  9
$TEXTSTYLE
  7
SIMPLEX
  9
$CLAYER
  8
1
  9
$CELTYPE
  6
BYLAYER
  9
$CECOLOR
 62
   256
  9
$CELTSCALE
 40
1.0
  9
$DISPSILH
 70
     0
  9
$DIMSCALE
 40
1.0
  9
$DIMASZ
 40
2.5
  9
$DIMEXO
 40
0.0
  9
$DIMDLI
 40
3.75
  9
$DIMRND
 40
0.0
  9
$DIMDLE
 40
0.0
  9
$DIMEXE
 40
1.25
  9
$DIMTP
 40
0.0
  9
$DIMTM
 40
0.0
  9
$DIMTXT
 40
3.5
  9
$DIMCEN
 40
0.0
  9
$DIMTSZ
 40
0.0
  9
$DIMTOL
 70
     0
  9
$DIMLIM
 70
     0
  9
$DIMTIH
 70
     0
  9
$DIMTOH
 70
     0
  9
$DIMSE1
 70
     0
  9
$DIMSE2
 70
     0
  9
$DIMTAD
 70
     1
  9
$DIMZIN
 70
     8
  9
$DIMBLK
  1

  9
$DIMASO
 70
     1
  9
$DIMSHO
 70
     1
  9
$DIMPOST
  1

  9
$DIMAPOST
  1

  9
$DIMALT
 70
     0
  9
$DIMALTD
 70
     3
  9
$DIMALTF
 40
0.039370078
  9
$DIMLFAC
 40
1.0
  9
$DIMTOFL
 70
     0
  9
$DIMTVP
 40
0.0
  9
$DIMTIX
 70
     0
  9
$DIMSOXD
 70
     0
  9
$DIMSAH
 70
     0
  9
$DIMBLK1
  1

  9
$DIMBLK2
  1

  9
$DIMSTYLE
  2
STANDARD
  9
$DIMCLRD
 70
     0
  9
$DIMCLRE
 70
     0
  9
$DIMCLRT
 70
     0
  9
$DIMTFAC
 40
1.0
  9
$DIMGAP
 40
0.625
  9
$DIMJUST
 70
     0
  9
$DIMSD1
 70
     0
  9
$DIMSD2
 70
     0
  9
$DIMTOLJ
 70
     0
  9
$DIMTZIN
 70
     8
  9
$DIMALTZ
 70
     0
  9
$DIMALTTZ
 70
     0
  9
$DIMUPT
 70
     0
  9
$DIMDEC
 70
     2
  9
$DIMTDEC
 70
     2
  9
$DIMALTU
 70
     2
  9
$DIMALTTD
 70
     3
  9
$DIMTXSTY
  7
SIMPLEX
  9
$DIMAUNIT
 70
     0
  9
$DIMADEC
 70
     2
  9
$DIMALTRND
 40
0.0
  9
$DIMAZIN
 70
     2
  9
$DIMDSEP
 70
    46
  9
$DIMATFIT
 70
     3
  9
$DIMFRAC
 70
     0
  9
$DIMLDRBLK
  1

  9
$DIMLUNIT
 70
     2
  9
$DIMLWD
 70
    -2
  9
$DIMLWE
 70
    -2
  9
$DIMTMOVE
 70
     0
  9
$LUNITS
 70
     2
  9
$LUPREC
 70
     2
  9
$SKETCHINC
 40
1.0
  9
$FILLETRAD
 40
0.0
  9
$AUNITS
 70
     0
  9
$AUPREC
 70
     0
  9
$MENU
  1
c:\tdm21\cad\caduti13\tdm13
  9
$ELEVATION
 40
0.0
  9
$PELEVATION
 40
0.0
  9
$THICKNESS
 40
0.0
  9
$LIMCHECK
 70
     0
  9
$CHAMFERA
 40
0.15
  9
$CHAMFERB
 40
0.15
  9
$CHAMFERC
 40
0.0
  9
$CHAMFERD
 40
0.0
  9
$SKPOLY
 70
     0
  9
$TDCREATE
 40
2454957.593642639
  9
$TDUCREATE
 40
2454957.510309306
  9
$TDUPDATE
 40
2457134.396433577
  9
$TDUUPDATE
 40
2457134.313100243
  9
$TDINDWG
 40
0.1846668981
  9
$TDUSRTIMER
 40
0.1846498380
  9
$USRTIMER
 70
     1
  9
$ANGBASE
 50
0.0
  9
$ANGDIR
 70
     0
  9
$PDMODE
 70
     1
  9
$PDSIZE
 40
0.0
  9
$PLINEWID
 40
0.0
  9
$SPLFRAME
 70
     0
  9
$SPLINETYPE
 70
     6
  9
$SPLINESEGS
 70
     8
  9
$HANDSEED
  5
110A
  9
$SURFTAB1
 70
     6
  9
$SURFTAB2
 70
     6
  9
$SURFTYPE
 70
     6
  9
$SURFU
 70
     6
  9
$SURFV
 70
     6
  9
$UCSBASE
  2

  9
$UCSNAME
  2

  9
$UCSORG
 10
0.0
 20
0.0
 30
0.0
  9
$UCSXDIR
 10
1.0
 20
0.0
 30
0.0
  9
$UCSYDIR
 10
0.0
 20
1.0
 30
0.0
  9
$UCSORTHOREF
  2

  9
$UCSORTHOVIEW
 70
     0
  9
$UCSORGTOP
 10
0.0
 20
0.0
 30
0.0
  9
$UCSORGBOTTOM
 10
0.0
 20
0.0
 30
0.0
  9
$UCSORGLEFT
 10
0.0
 20
0.0
 30
0.0
  9
$UCSORGRIGHT
 10
0.0
 20
0.0
 30
0.0
  9
$UCSORGFRONT
 10
0.0
 20
0.0
 30
0.0
  9
$UCSORGBACK
 10
0.0
 20
0.0
 30
0.0
  9
$PUCSBASE
  2

  9
$PUCSNAME
  2

  9
$PUCSORG
 10
0.0
 20
0.0
 30
0.0
  9
$PUCSXDIR
 10
1.0
 20
0.0
 30
0.0
  9
$PUCSYDIR
 10
0.0
 20
1.0
 30
0.0
  9
$PUCSORTHOREF
  2

  9
$PUCSORTHOVIEW
 70
     0
  9
$PUCSORGTOP
 10
0.0
 20
0.0
 30
0.0
  9
$PUCSORGBOTTOM
 10
0.0
 20
0.0
 30
0.0
  9
$PUCSORGLEFT
 10
0.0
 20
0.0
 30
0.0
  9
$PUCSORGRIGHT
 10
0.0
 20
0.0
 30
0.0
  9
$PUCSORGFRONT
 10
0.0
 20
0.0
 30
0.0
  9
$PUCSORGBACK
 10
0.0
 20
0.0
 30
0.0
  9
$USERI1
 70
     0
  9
$USERI2
 70
     0
  9
$USERI3
 70
     0
  9
$USERI4
 70
     0
  9
$USERI5
 70
     0
  9
$USERR1
 40
0.0
  9
$USERR2
 40
0.0
  9
$USERR3
 40
0.0
  9
$USERR4
 40
0.0
  9
$USERR5
 40
0.0
  9
$WORLDVIEW
 70
     1
  9
$SHADEDGE
 70
     3
  9
$SHADEDIF
 70
    70
  9
$TILEMODE
 70
     1
  9
$MAXACTVP
 70
    64
  9
$PINSBASE
 10
0.0
 20
0.0
 30
0.0
  9
$PLIMCHECK
 70
     0
  9
$PEXTMIN
 10
0.0
 20
0.0
 30
0.0
  9
$PEXTMAX
 10
0.0
 20
0.0
 30
0.0
  9
$PLIMMIN
 10
0.0
 20
0.0
  9
$PLIMMAX
 10
12.0
 20
9.0
  9
$UNITMODE
 70
     0
  9
$VISRETAIN
 70
     0
  9
$PLINEGEN
 70
     0
  9
$PSLTSCALE
 70
     1
  9
$TREEDEPTH
 70
  3020
  9
$CMLSTYLE
  2
STANDARD
  9
$CMLJUST
 70
     0
  9
$CMLSCALE
 40
20.0
  9
$PROXYGRAPHICS
 70
     1
  9
$MEASUREMENT
 70
     1
  9
$CELWEIGHT
370
    -1
  9
$ENDCAPS
280
     0
  9
$JOINSTYLE
280
     0
  9
$LWDISPLAY
290
     0
  9
$INSUNITS
 70
     4
  9
$HYPERLINKBASE
  1

  9
$STYLESHEET
  1
MONOCHROME.CTB
  9
$XEDIT
290
     1
  9
$CEPSNTYPE
380
     0
  9
$PSTYLEMODE
290
     1
  9
$FINGERPRINTGUID
  2
{46B44192-1510-48B1-B61B-CBE2ADA013A7}
  9
$VERSIONGUID
  2
{2A067E30-AB3F-43DA-ADBB-036DA84C67CA}
  9
$EXTNAMES
290
     1
  9
$PSVPSCALE
 40
0.0
  9
$OLESTARTUP
290
     0
  9
$SORTENTS
280
   127
  9
$INDEXCTL
280
     0
  9
$HIDETEXT
280
     1
  9
$XCLIPFRAME
290
     0
  9
$HALOGAP
280
     0
  9
$OBSCOLOR
 70
   257
  9
$OBSLTYPE
280
     0
  9
$INTERSECTIONDISPLAY
280
     0
  9
$INTERSECTIONCOLOR
 70
   257
  9
$DIMASSOC
280
     2
  9
$PROJECTNAME
  1

  0
ENDSEC
  0
SECTION
  2
CLASSES
  0
CLASS
  1
ACDBDICTIONARYWDFLT
  2
AcDbDictionaryWithDefault
  3
ObjectDBX Classes
 90
        0
 91
        1
280
     0
281
     0
  0
CLASS
  1
DICTIONARYVAR
  2
AcDbDictionaryVar
  3
ObjectDBX Classes
 90
        0
 91
       16
280
     0
281
     0
  0
CLASS
  1
TABLESTYLE
  2
AcDbTableStyle
  3
ObjectDBX Classes
 90
     4095
 91
        1
280
     0
281
     0
  0
CLASS
  1
SCALE
  2
AcDbScale
  3
ObjectDBX Classes
 90
     1153
 91
       33
280
     0
281
     0
  0
CLASS
  1
MATERIAL
  2
AcDbMaterial
  3
ObjectDBX Classes
 90
     1153
 91
        3
280
     0
281
     0
  0
CLASS
  1
VISUALSTYLE
  2
AcDbVisualStyle
  3
ObjectDBX Classes
 90
     4095
 91
       24
280
     0
281
     0
  0
CLASS
  1
MLEADERSTYLE
  2
AcDbMLeaderStyle
  3
ACDB_MLEADERSTYLE_CLASS
 90
     4095
 91
        1
280
     0
281
     0
  0
CLASS
  1
ACDBSECTIONVIEWSTYLE
  2
AcDbSectionViewStyle
  3
ObjectDBX Classes
 90
     1025
 91
        1
280
     0
281
     0
  0
CLASS
  1
ACDBDETAILVIEWSTYLE
  2
AcDbDetailViewStyle
  3
ObjectDBX Classes
 90
     1025
 91
        1
280
     0
281
     0
  0
CLASS
  1
EXACXREFPANELOBJECT
  2
ExAcXREFPanelObject
  3
EXAC_ESW
 90
     1025
 91
        0
280
     0
281
     0
  0
CLASS
  1
NPOCOLLECTION
  2
AcDbImpNonPersistentObjectsCollection
  3
ObjectDBX Classes
 90
     1153
 91
        0
280
     0
281
     0
  0
CLASS
  1
CELLSTYLEMAP
  2
AcDbCellStyleMap
  3
ObjectDBX Classes
 90
     1152
 91
        2
280
     0
281
     0
  0
CLASS
  1
AMGSETTINGSOBJ
  2
AmgSettingsObj
  3
"AcadM|Product Description: AutoCAD Mechanical|Company: Autodesk, Inc."
 90
     1024
 91
        0
280
     0
281
     0
  0
CLASS
  1
ACME_DOCUMENT
  2
AcMeDbDoc
  3
AcMeServices
 90
     1024
 91
        0
280
     0
281
     0
  0
CLASS
  1
ACMESCOPE
  2
AcMeScope
  3
AcMeServices
 90
     1024
 91
        0
280
     0
281
     0
  0
CLASS
  1
ACMECOMMANDHISTORY
  2
AcMeCommandHistory
  3
AcMeServices
 90
     1024
 91
        0
280
     0
281
     0
  0
CLASS
  1
ACIMSYSVARMAN
  2
AcImSysVarManager
  3
AcMeServices
 90
     1024
 91
        0
280
     0
281
     0
  0
CLASS
  1
ACIMINTSYSVAR
  2
AcImIntSysVar
  3
AcMeServices
 90
     1024
 91
        0
280
     0
281
     0
  0
CLASS
  1
ACMESTATEMGR
  2
AcMeStateMgr
  3
AcMeServices
 90
     1024
 91
        0
280
     0
281
     0
  0
CLASS
  1
ACDBENTITYCACHE
  2
AcMeEntityCache
  3
AcMeServices
 90
     1024
 91
        0
280
     0
281
     0
  0
CLASS
  1
ACGREFMASTER
  2
AcGrefMaster
  3
AcAttribServices
 90
     1024
 91
        0
280
     0
281
     0
  0
CLASS
  1
ACME_DATABASE
  2
AcMeDbDatabase
  3
AcMeServices
 90
     1024
 91
        0
280
     0
281
     0
  0
CLASS
  1
ACRFINSADJUSTERMGR
  2
AcRfInsAdjusterMgr
  3
AcMeServices
 90
     1024
 91
        0
280
     0
281
     0
  0
CLASS
  1
ACGREFACADMASTER
  2
AcGrefacadMaster
  3
AcGrefServices
 90
     1024
 91
        0
280
     0
281
     0
  0
CLASS
  1
AMDTMENUSTATEMGR
  2
AmdtMenuStateMgr
  3
McadcomServices
 90
     1024
 91
        0
280
     0
281
     0
  0
CLASS
  1
AMDTMCOMMENUSTATE
  2
AmdtMcomMenuState
  3
McadcomServices
 90
     1024
 91
        0
280
     0
281
     0
  0
CLASS
  1
AMIMASTER
  2
AmiMaster
  3
AmiServices
 90
     1024
 91
        0
280
     0
281
     0
  0
CLASS
  1
MAPIAMMOUDLE
  2
MApiAmModule
  3
MApiAmServices
 90
     1024
 91
        0
280
     0
281
     0
  0
CLASS
  1
ACIMSTRSYSVAR
  2
AcImStrSysVar
  3
AcMeServices
 90
     1024
 91
        0
280
     0
281
     0
  0
CLASS
  1
AMDTAMMENUSTATE
  2
AmdtAmMenuState
  3
DesignerAssemblies
 90
     1024
 91
        0
280
     0
281
     0
  0
CLASS
  1
ACAMPROJECT
  2
AcAmProject
  3
DesignerAssemblies
 90
     1024
 91
        0
280
     0
281
     0
  0
CLASS
  1
ACAMGRCOMPDEF
  2
AcAmGrCompDef
  3
DesignerAssemblies
 90
     1024
 91
        0
280
     0
281
     0
  0
CLASS
  1
ACAMCOMPDEF
  2
AcAmCompDef
  3
DesignerAssemblies
 90
     1024
 91
        0
280
     0
281
     0
  0
CLASS
  1
ACAMCOMPDEFMGR
  2
AcAmCompDefMgr
  3
DesignerAssemblies
 90
     1024
 91
        0
280
     0
281
     0
  0
CLASS
  1
AMCONTEXTMGR
  2
AcAmContextMgr
  3
DesignerAssemblies
 90
     1024
 91
        0
280
     0
281
     0
  0
CLASS
  1
ACAMCONTEXTMODELER
  2
AcAmContextModeler
  3
DesignerAssemblies
 90
     1024
 91
        0
280
     0
281
     0
  0
CLASS
  1
ACMDATADICTIONARY
  2
AcmDataDictionary
  3
"AcmSymBB|Product Description: AutoCAD Mechanical|Company: Autodesk, Inc."
 90
     1024
 91
        0
280
     0
281
     0
  0
CLASS
  1
ACAMGRCOMPDEFSET
  2
AcAmGrCompDefSet
  3
DesignerAssemblies
 90
     1024
 91
        0
280
     0
281
     0
  0
CLASS
  1
AMDTBROWSERDBTAB
  2
AmdtBrowserDbTab
  3
McadcomServices
 90
     1024
 91
        0
280
     0
281
     0
  0
CLASS
  1
CBROWSERAPPOBJECT
  2
CBrowserAppObject
  3
McadcomServices
 90
     1024
 91
        0
280
     0
281
     0
  0
CLASS
  1
DM_PLACEHOLDER
  2
AcDmSelsetPlaceholder
  3
McadcomServices
 90
     1024
 91
        0
280
     0
281
     0
  0
CLASS
  1
ACMSTANDARDISO
  2
AcmStandardISO
  3
"Amdt_StdImp|Product Description: AutoCAD Mechanical|Company: Autodesk, Inc."
 90
     1024
 91
        0
280
     0
281
     0
  0
CLASS
  1
AMDTEDGESTANDARDISO13715
  2
AmdtEdgeStdISO13715
  3
"Amdt_StdImp|Product Description: AutoCAD Mechanical|Company: Autodesk, Inc."
 90
     1024
 91
        0
280
     0
281
     0
  0
CLASS
  1
ACMSURFSTANDARDISO2002
  2
AcmSurfTextStdISO2002
  3
"Amdt_StdImp|Product Description: AutoCAD Mechanical|Company: Autodesk, Inc."
 90
     1024
 91
        0
280
     0
281
     0
  0
CLASS
  1
ACMFCFSTANDARDISO2004
  2
AcmFCFStdISO2004
  3
"Amdt_StdImp|Product Description: AutoCAD Mechanical|Company: Autodesk, Inc."
 90
     1024
 91
        0
280
     0
281
     0
  0
CLASS
  1
ACMWELDSTANDARDISO
  2
AcmWeldingStdISO
  3
"Amdt_StdImp|Product Description: AutoCAD Mechanical|Company: Autodesk, Inc."
 90
     1024
 91
        0
280
     0
281
     0
  0
CLASS
  1
ACMIDSTANDARDISO2004
  2
AcmIdStdISO2004
  3
"Amdt_StdImp|Product Description: AutoCAD Mechanical|Company: Autodesk, Inc."
 90
     1024
 91
        0
280
     0
281
     0
  0
CLASS
  1
ACMDATUMSTANDARDISO
  2
AcmDatumStdISO
  3
"Amdt_StdImp|Product Description: AutoCAD Mechanical|Company: Autodesk, Inc."
 90
     1024
 91
        0
280
     0
281
     0
  0
CLASS
  1
ACMBOMSTANDARDISO
  2
AcmBOMStdISO
  3
"Amdt_StdImp|Product Description: AutoCAD Mechanical|Company: Autodesk, Inc."
 90
     1024
 91
        0
280
     0
281
     0
  0
CLASS
  1
ACMDETAILSTANDARDISO
  2
AmdtDetailSymStdISO
  3
"Amdt_StdImp|Product Description: AutoCAD Mechanical|Company: Autodesk, Inc."
 90
     1024
 91
        0
280
     0
281
     0
  0
CLASS
  1
ACMSECTIONSTANDARDISO2001
  2
AmdtSectionSymStdISO2001
  3
"Amdt_StdImp|Product Description: AutoCAD Mechanical|Company: Autodesk, Inc."
 90
     1024
 91
        0
280
     0
281
     0
  0
CLASS
  1
ACMCENTERLINESTANDARDISO
  2
AmdtCenterLineStdISO
  3
"Amdt_StdImp|Product Description: AutoCAD Mechanical|Company: Autodesk, Inc."
 90
     1024
 91
        0
280
     0
281
     0
  0
CLASS
  1
ACMTHREADLINESTANDARDISO
  2
AmdtThreadLineStdISO
  3
"Amdt_StdImp|Product Description: AutoCAD Mechanical|Company: Autodesk, Inc."
 90
     1024
 91
        0
280
     0
281
     0
  0
CLASS
  1
ACMNOTESTANDARDISO
  2
AmdtNoteStdISO
  3
"Amdt_StdImp|Product Description: AutoCAD Mechanical|Company: Autodesk, Inc."
 90
     1024
 91
        0
280
     0
281
     0
  0
CLASS
  1
ACMTAPERSTANDARDISO
  2
AcmTaperStdISO
  3
"Amdt_StdImp|Product Description: AutoCAD Mechanical|Company: Autodesk, Inc."
 90
     1024
 91
        0
280
     0
281
     0
  0
CLASS
  1
ACMANOOTATIONVIEWSTANDARDISO
  2
AmdtAnViewStdISO
  3
"Amdt_StdImp|Product Description: AutoCAD Mechanical|Company: Autodesk, Inc."
 90
     1024
 91
        0
280
     0
281
     0
  0
CLASS
  1
ACAMGLAYSTD
  2
AcAmgLayStd
  3
"AmgLay|Product Description: AutoCAD Mechanical|Company: Autodesk, Inc."
 90
     1024
 91
        0
280
     0
281
     0
  0
CLASS
  1
ACAMGDIMSTD
  2
AcAmgDimStd
  3
"AmgDim|Product Description: AutoCAD Mechanical|Company: Autodesk, Inc."
 90
     1024
 91
        0
280
     0
281
     0
  0
CLASS
  1
AMGOBJPROPCFG
  2
AmgObjPropCfg
  3
"AmgLay|Product Description: AutoCAD Mechanical|Company: Autodesk, Inc."
 90
     1024
 91
        0
280
     0
281
     0
  0
CLASS
  1
ACAMGHOLECHARTSTDISO
  2
AcAmgHoleChartStdISO
  3
AmgDim|Product Description: AutoCAD Mechanical|Company: Autodesk, Inc.
 90
     1024
 91
        0
280
     0
281
     0
  0
CLASS
  1
ACAMGTITLESTD
  2
AcAmgTitleStd
  3
"AmgTitle|Product Description: AutoCAD Mechanical|Company: Autodesk, Inc."
 90
     1024
 91
        0
280
     0
281
     0
  0
CLASS
  1
ACMSECTIONSTANDARDCUSTOM
  2
AmdtSectionSymStdCustom
  3
"Amdt_StdImp|Product Description: AutoCAD Mechanical|Company: Autodesk, Inc."
 90
     1024
 91
        0
280
     0
281
     0
  0
CLASS
  1
ACMDETAILTANDARDCUSTOM
  2
AmdtDetailSymStdCustom
  3
"Amdt_StdImp|Product Description: AutoCAD Mechanical|Company: Autodesk, Inc."
 90
     1024
 91
        0
280
     0
281
     0
  0
CLASS
  1
FIELD
  2
AcDbField
  3
ObjectDBX Classes
 90
     1152
 91
        0
280
     0
281
     0
  0
CLASS
  1
FIELDLIST
  2
AcDbFieldList
  3
ObjectDBX Classes
 90
     1152
 91
        1
280
     0
281
     0
  0
CLASS
  1
AMDTNOTETEMPLATEDB
  2
AmdtNoteTemplateDB
  3
AcmSymBB|Product Description: AutoCAD Mechanical|Company: Autodesk, Inc.
 90
     1024
 91
        0
280
     0
281
     0
  0
CLASS
  1
CAMSSTRUCTBTNSTATE
  2
StructBtnState
  3
DesignerAssemblies
 90
     1024
 91
        0
280
     0
281
     0
  0
CLASS
  1
ACAMGFILTERDAT
  2
AcAmgFilterDat
  3
"AcadM|Product Description: AutoCAD Mechanical|Company: Autodesk, Inc."
 90
     1024
 91
        0
280
     0
281
     0
  0
CLASS
  1
DIMASSOC
  2
AcDbDimAssoc
  3
"AcDbDimAssoc|Product Desc:     AcDim ARX App For Dimension|Company:          Autodesk, Inc.|WEB Address:      www.autodesk.com"
 90
        0
 91
        0
280
     0
281
     0
  0
CLASS
  1
SORTENTSTABLE
  2
AcDbSortentsTable
  3
ObjectDBX Classes
 90
        0
 91
        1
280
     0
281
     0
  0
ENDSEC
  0
SECTION
  2
TABLES
  0
TABLE
  2
VPORT
  5
8
330
0
100
AcDbSymbolTable
 70
     1
  0
VPORT
  5
39A
330
8
100
AcDbSymbolTableRecord
100
AcDbViewportTableRecord
  2
*Active
 70
     0
 10
0.0
 20
0.0
 11
1.0
 21
1.0
 12
9.151986580169698
 22
44.06501870027864
 13
0.0
 23
0.0
 14
5.0
 24
5.0
 15
5.0
 25
5.0
 16
0.0
 26
0.0
 36
1.0
 17
0.0
 27
0.0
 37
0.0
 40
100.8881195390638
 41
2.329683698296836
 42
50.0
 43
0.0
 44
0.0
 50
0.0
 51
0.0
 71
     0
 72
  2000
 73
     1
 74
     1
 75
     0
 76
     0
 77
     0
 78
     0
281
     0
 65
     0
110
0.0
120
0.0
130
0.0
111
1.0
121
0.0
131
0.0
112
0.0
122
1.0
132
0.0
 79
     0
146
0.0
1001
ACAD_NAV_VCDISPLAY
1070
     3
  0
ENDTAB
  0
TABLE
  2
LTYPE
  5
5
330
0
100
AcDbSymbolTable
 70
     7
  0
LTYPE
  5
12
330
5
100
AcDbSymbolTableRecord
100
AcDbLinetypeTableRecord
  2
BYBLOCK
 70
     0
  3

 72
    65
 73
     0
 40
0.0
  0
LTYPE
  5
13
330
5
100
AcDbSymbolTableRecord
100
AcDbLinetypeTableRecord
  2
BYLAYER
 70
     0
  3

 72
    65
 73
     0
 40
0.0
  0
LTYPE
  5
14
330
5
100
AcDbSymbolTableRecord
100
AcDbLinetypeTableRecord
  2
CONTINUOUS
 70
     0
  3
Solid line
 72
    65
 73
     0
 40
0.0
  0
LTYPE
  5
20
330
5
100
AcDbSymbolTableRecord
100
AcDbLinetypeTableRecord
  2
HIDDEN
 70
     0
  3
Hidden __ __ __ __ __ __ __ __ __ __ __ __ __ _
 72
    65
 73
     2
 40
9.524999999999996
 49
6.349999999999997
 74
     0
 49
-3.174999999999998
 74
     0
  0
LTYPE
  5
351
330
5
100
AcDbSymbolTableRecord
100
AcDbLinetypeTableRecord
  2
CENTER
 70
     0
  3
Dash dot __ . __ . __ . __ . __ . __ . __ . __
 72
    65
 73
     4
 40
25.4
 49
12.7
 74
     0
 49
-6.349999999999997
 74
     0
 49
0.0
 74
     0
 49
-6.349999999999997
 74
     0
  0
LTYPE
  5
601
330
5
100
AcDbSymbolTableRecord
100
AcDbLinetypeTableRecord
  2
PHANTOM2
 70
     0
  3
Phantom (.5x) ___ _ _ ___ _ _ ___ _ _ ___ _ _
 72
    65
 73
     6
 40
31.75
 49
15.875
 74
     0
 49
-3.174999999999998
 74
     0
 49
3.174999999999998
 74
     0
 49
-3.174999999999998
 74
     0
 49
3.174999999999998
 74
     0
 49
-3.174999999999998
 74
     0
  0
LTYPE
  5
64C
330
5
100
AcDbSymbolTableRecord
100
AcDbLinetypeTableRecord
  2
ACISOWELD
 70
     0
  3
_ _ _ _ _
 72
    65
 73
     2
 40
2.0
 49
2.0
 74
     0
 49
-1.0
 74
     0
  0
LTYPE
  5
64D
330
5
100
AcDbSymbolTableRecord
100
AcDbLinetypeTableRecord
  2
ACISOTGL
 70
     0
  3
_ _ _ _ _
 72
    65
 73
     2
 40
3.0
 49
2.0
 74
     0
 49
-1.0
 74
     0
  0
LTYPE
  5
64E
330
5
100
AcDbSymbolTableRecord
100
AcDbLinetypeTableRecord
  2
ACISOTGB
 70
     0
  3
__ . . __ . .
 72
    65
 73
     6
 40
9.0
 49
4.0
 74
     0
 49
-1.0
 74
     0
 49
1.0
 74
     0
 49
-1.0
 74
     0
 49
1.0
 74
     0
 49
-1.0
 74
     0
  0
ENDTAB
  0
TABLE
  2
LAYER
  5
2
102
{ACAD_XDICTIONARY
360
D20
102
}
330
0
100
AcDbSymbolTable
 70
    17
  0
LAYER
  5
F
102
{ACAD_XDICTIONARY
360
58D
102
}
330
2
100
AcDbSymbolTableRecord
100
AcDbLayerTableRecord
  2
0
 70
     0
 62
     7
  6
CONTINUOUS
370
    -3
390
300
  0
LAYER
  5
23
102
{ACAD_XDICTIONARY
360
58F
102
}
330
2
100
AcDbSymbolTableRecord
100
AcDbLayerTableRecord
  2
1
 70
     0
 62
     4
  6
CONTINUOUS
370
    -3
390
300
  0
LAYER
  5
24
102
{ACAD_XDICTIONARY
360
591
102
}
330
2
100
AcDbSymbolTableRecord
100
AcDbLayerTableRecord
  2
SK1
 70
     0
 62
     4
  6
CONTINUOUS
370
    -3
390
300
  0
LAYER
  5
25
102
{ACAD_XDICTIONARY
360
593
102
}
330
2
100
AcDbSymbolTableRecord
100
AcDbLayerTableRecord
  2
2
 70
     0
 62
     7
  6
CONTINUOUS
370
    -3
390
300
  0
LAYER
  5
26
102
{ACAD_XDICTIONARY
360
595
102
}
330
2
100
AcDbSymbolTableRecord
100
AcDbLayerTableRecord
  2
2L
 70
     0
 62
     7
  6
CONTINUOUS
370
    -3
390
300
  0
LAYER
  5
27
102
{ACAD_XDICTIONARY
360
597
102
}
330
2
100
AcDbSymbolTableRecord
100
AcDbLayerTableRecord
  2
SK2
 70
     0
 62
     7
  6
CONTINUOUS
370
    -3
390
300
  0
LAYER
  5
28
102
{ACAD_XDICTIONARY
360
599
102
}
330
2
100
AcDbSymbolTableRecord
100
AcDbLayerTableRecord
  2
3
 70
     0
 62
     1
  6
HIDDEN
370
    -3
390
300
  0
LAYER
  5
29
102
{ACAD_XDICTIONARY
360
59B
102
}
330
2
100
AcDbSymbolTableRecord
100
AcDbLayerTableRecord
  2
SK3
 70
     0
 62
     1
  6
HIDDEN
370
    -3
390
300
  0
LAYER
  5
2A
102
{ACAD_XDICTIONARY
360
59D
102
}
330
2
100
AcDbSymbolTableRecord
100
AcDbLayerTableRecord
  2
4
 70
     0
 62
     2
  6
CENTER
370
    -3
390
300
  0
LAYER
  5
2B
102
{ACAD_XDICTIONARY
360
59F
102
}
330
2
100
AcDbSymbolTableRecord
100
AcDbLayerTableRecord
  2
SK4
 70
     0
 62
     2
  6
CENTER
370
    -3
390
300
  0
LAYER
  5
2C
102
{ACAD_XDICTIONARY
360
5A1
102
}
330
2
100
AcDbSymbolTableRecord
100
AcDbLayerTableRecord
  2
5
 70
     0
 62
    -7
  6
CONTINUOUS
370
    -3
390
300
  0
LAYER
  5
2D
102
{ACAD_XDICTIONARY
360
5A3
102
}
330
2
100
AcDbSymbolTableRecord
100
AcDbLayerTableRecord
  2
6
 70
     0
 62
     5
  6
CONTINUOUS
370
    -3
390
300
  0
LAYER
  5
2E
102
{ACAD_XDICTIONARY
360
5A5
102
}
330
2
100
AcDbSymbolTableRecord
100
AcDbLayerTableRecord
  2
SK6
 70
     0
 62
     5
  6
CONTINUOUS
370
    -3
390
300
  0
LAYER
  5
2F
330
2
100
AcDbSymbolTableRecord
100
AcDbLayerTableRecord
  2
DEFPOINTS
 70
     0
 62
     7
  6
CONTINUOUS
290
     0
370
    -3
390
300
  0
LAYER
  5
375
102
{ACAD_XDICTIONARY
360
5A7
102
}
330
2
100
AcDbSymbolTableRecord
100
AcDbLayerTableRecord
  2
CUT
 70
     0
 62
     1
  6
CONTINUOUS
370
    -3
390
300
  0
LAYER
  5
376
102
{ACAD_XDICTIONARY
360
5A9
102
}
330
2
100
AcDbSymbolTableRecord
100
AcDbLayerTableRecord
  2
NOCUT
 70
     0
 62
     7
  6
CONTINUOUS
370
    -3
390
300
  0
LAYER
  5
684
330
2
100
AcDbSymbolTableRecord
100
AcDbLayerTableRecord
  2
AM_5
 70
     0
 62
    92
  6
CONTINUOUS
370
    25
390
300
1001
AcAecLayerStandard
1000

1000

  0
ENDTAB
  0
TABLE
  2
STYLE
  5
3
330
0
100
AcDbSymbolTable
 70
     6
  0
STYLE
  5
10
330
3
100
AcDbSymbolTableRecord
100
AcDbTextStyleTableRecord
  2
STANDARD
 70
     0
 40
0.0
 41
1.0
 50
0.0
 71
     0
 42
5.0
  3
txt
  4

  0
STYLE
  5
1D
330
3
100
AcDbSymbolTableRecord
100
AcDbTextStyleTableRecord
  2
TXT
 70
     0
 40
8.0
 41
1.0
 50
0.0
 71
     0
 42
8.0
  3
txt
  4

  0
STYLE
  5
1E
330
3
100
AcDbSymbolTableRecord
100
AcDbTextStyleTableRecord
  2
SIMPLEX
 70
     0
 40
0.0
 41
1.0
 50
0.0
 71
     0
 42
3.5
  3
simplex
  4

  0
STYLE
  5
34C
330
3
100
AcDbSymbolTableRecord
100
AcDbTextStyleTableRecord
  2

 70
     1
 40
0.0
 41
1.0
 50
0.0
 71
     0
 42
2.5
  3
ltypeshp.shx
  4

  0
STYLE
  5
64A
330
3
100
AcDbSymbolTableRecord
100
AcDbTextStyleTableRecord
  2
ACISOTS
 70
     0
 40
0.0
 41
1.0
 50
0.0
 71
     0
 42
3.5
  3
isocp.shx
  4

  0
STYLE
  5
64B
330
3
100
AcDbSymbolTableRecord
100
AcDbTextStyleTableRecord
  2
ACISOGDT
 70
     0
 40
0.0
 41
1.0
 50
0.0
 71
     0
 42
3.5
  3
amgdt.shx
  4

  0
ENDTAB
  0
TABLE
  2
VIEW
  5
6
330
0
100
AcDbSymbolTable
 70
     0
  0
ENDTAB
  0
TABLE
  2
UCS
  5
7
330
0
100
AcDbSymbolTable
 70
     0
  0
ENDTAB
  0
TABLE
  2
APPID
  5
9
330
0
100
AcDbSymbolTable
 70
    17
  0
APPID
  5
11
330
9
100
AcDbSymbolTableRecord
100
AcDbRegAppTableRecord
  2
ACAD
 70
     0
  0
APPID
  5
5B1
330
9
100
AcDbSymbolTableRecord
100
AcDbRegAppTableRecord
  2
ACAD_NAV_VCDISPLAY
 70
     0
  0
APPID
  5
5EF
330
9
100
AcDbSymbolTableRecord
100
AcDbRegAppTableRecord
  2
ACAD_MLEADERVER
 70
     0
  0
APPID
  5
5FA
330
9
100
AcDbSymbolTableRecord
100
AcDbRegAppTableRecord
  2
MCAD_NO_VIS
 70
     0
  0
APPID
  5
5FB
330
9
100
AcDbSymbolTableRecord
100
AcDbRegAppTableRecord
  2
ACAD_TEMP_GRAPHIC
 70
     0
  0
APPID
  5
606
330
9
100
AcDbSymbolTableRecord
100
AcDbRegAppTableRecord
  2
ACATTRIBSERVICES
 70
     0
  0
APPID
  5
61E
330
9
100
AcDbSymbolTableRecord
100
AcDbRegAppTableRecord
  2
DESIGNERASSEMBLIES
 70
     0
  0
APPID
  5
639
330
9
100
AcDbSymbolTableRecord
100
AcDbRegAppTableRecord
  2
ACAD_DSTYLE_DIMJAG
 70
     0
  0
APPID
  5
63A
330
9
100
AcDbSymbolTableRecord
100
AcDbRegAppTableRecord
  2
ACAD_DSTYLE_DIMBREAK
 70
     0
  0
APPID
  5
685
330
9
100
AcDbSymbolTableRecord
100
AcDbRegAppTableRecord
  2
AcAecLayerStandard
 70
     0
  0
APPID
  5
6A3
330
9
100
AcDbSymbolTableRecord
100
AcDbRegAppTableRecord
  2
GENIUS_GENDTOL_13
 70
     0
  0
APPID
  5
6A4
330
9
100
AcDbSymbolTableRecord
100
AcDbRegAppTableRecord
  2
ACAD_DSTYLE_DIMINSPECT
 70
     0
  0
APPID
  5
D97
330
9
100
AcDbSymbolTableRecord
100
AcDbRegAppTableRecord
  2
ACAD_DSTYLE_DIMARC_LENGTH_SYMBOL
 70
     0
  0
APPID
  5
D98
330
9
100
AcDbSymbolTableRecord
100
AcDbRegAppTableRecord
  2
ACAD_DSTYLE_DIM_LINETYPE
 70
     0
  0
APPID
  5
D99
330
9
100
AcDbSymbolTableRecord
100
AcDbRegAppTableRecord
  2
ACAD_DSTYLE_DIM_EXT1_LINETYPE
 70
     0
  0
APPID
  5
D9A
330
9
100
AcDbSymbolTableRecord
100
AcDbRegAppTableRecord
  2
ACAD_DSTYLE_DIM_EXT2_LINETYPE
 70
     0
  0
APPID
  5
DA2
330
9
100
AcDbSymbolTableRecord
100
AcDbRegAppTableRecord
  2
ACAD_EXEMPT_FROM_CAD_STANDARDS
 70
     0
  0
ENDTAB
  0
TABLE
  2
DIMSTYLE
  5
A
330
0
100
AcDbSymbolTable
 70
     9
100
AcDbDimStyleTable
 71
     1
340
3F
  0
DIMSTYLE
105
3F
102
{ACAD_REACTORS
330
506
330
513
330
520
330
52D
330
AFF
330
B00
102
}
330
A
100
AcDbSymbolTableRecord
100
AcDbDimStyleTableRecord
  2
STANDARD
 70
     0
 41
2.5
 42
0.0
 43
3.75
 44
1.25
 73
     0
 74
     0
 77
     1
 78
     8
 79
     2
140
3.5
141
0.0
143
0.039370078
147
0.625
171
     3
179
     2
271
     2
272
     2
274
     3
283
     0
284
     8
340
1E
  0
DIMSTYLE
105
638
330
A
100
AcDbSymbolTableRecord
100
AcDbDimStyleTableRecord
  2
AM_ISO
 70
     0
  4
"
 41
3.5
 42
1.0
 43
10.0
 44
1.0
 47
0.1
 48
0.1
 73
     0
 74
     0
 77
     1
 78
     8
 79
     2
140
3.5
141
0.0
143
0.0393701
146
0.71
147
1.5
172
     1
176
   256
177
   256
178
   140
271
     2
272
     3
274
     4
283
     0
284
     8
340
10
371
    -1
372
    -1
1001
ACAD_DSTYLE_DIMJAG
1070
   388
1040
1.5
1001
ACAD_DSTYLE_DIMBREAK
1070
   391
1040
3.75
1001
ACAD_DSTYLE_DIMARC_LENGTH_SYMBOL
1070
   379
1070
     1
1001
ACAD_DSTYLE_DIM_LINETYPE
1070
   380
1005
12
1001
ACAD_DSTYLE_DIM_EXT1_LINETYPE
1070
   381
1005
12
1001
ACAD_DSTYLE_DIM_EXT2_LINETYPE
1070
   382
1005
12
  0
DIMSTYLE
105
63C
330
A
100
AcDbSymbolTableRecord
100
AcDbDimStyleTableRecord
  2
AM_ISO$3
 70
     0
  4
"
 41
3.5
 42
1.0
 43
10.0
 44
1.0
 47
0.1
 48
0.1
 73
     0
 77
     1
 78
     8
 79
     2
140
3.5
141
0.0
143
0.0393701
146
0.71
147
1.5
176
   256
177
   256
178
   140
271
     2
272
     3
274
     4
283
     0
284
     8
288
     1
289
     0
340
10
371
    -1
372
    -1
1001
ACAD_DSTYLE_DIMBREAK
1070
   391
1040
3.75
1001
ACAD_DSTYLE_DIMJAG
1070
   388
1040
1.5
1001
ACAD_DSTYLE_DIMARC_LENGTH_SYMBOL
1070
   379
1070
     1
1001
ACAD_DSTYLE_DIM_LINETYPE
1070
   380
1005
12
1001
ACAD_DSTYLE_DIM_EXT1_LINETYPE
1070
   381
1005
12
1001
ACAD_DSTYLE_DIM_EXT2_LINETYPE
1070
   382
1005
12
  0
DIMSTYLE
105
63D
330
A
100
AcDbSymbolTableRecord
100
AcDbDimStyleTableRecord
  2
AM_ISO$4
 70
     0
  4
"
 41
3.5
 42
1.0
 43
10.0
 44
1.0
 47
0.1
 48
0.1
 73
     0
 77
     1
 78
     8
 79
     2
140
3.5
141
0.0
143
0.0393701
146
0.71
147
1.5
176
   256
177
   256
178
   140
271
     2
272
     3
274
     4
283
     0
284
     8
288
     1
289
     0
340
10
371
    -1
372
    -1
1001
ACAD_DSTYLE_DIMBREAK
1070
   391
1040
3.75
1001
ACAD_DSTYLE_DIMJAG
1070
   388
1040
1.5
1001
ACAD_DSTYLE_DIMARC_LENGTH_SYMBOL
1070
   379
1070
     1
1001
ACAD_DSTYLE_DIM_LINETYPE
1070
   380
1005
12
1001
ACAD_DSTYLE_DIM_EXT1_LINETYPE
1070
   381
1005
12
1001
ACAD_DSTYLE_DIM_EXT2_LINETYPE
1070
   382
1005
12
  0
DIMSTYLE
105
63E
330
A
100
AcDbSymbolTableRecord
100
AcDbDimStyleTableRecord
  2
AM_ISO$6
 70
     0
  4
"
 41
3.5
 42
1.0
 43
10.0
 44
1.0
 47
0.1
 48
0.1
 73
     0
 74
     0
 78
     8
 79
     2
140
3.5
141
0.0
143
0.0393701
146
0.71
147
1.5
172
     1
176
   256
177
   256
178
   140
271
     2
272
     3
274
     4
283
     0
284
     8
340
10
371
    -1
372
    -1
1001
ACAD_DSTYLE_DIMBREAK
1070
   391
1040
3.75
1001
ACAD_DSTYLE_DIMJAG
1070
   388
1040
1.5
1001
ACAD_DSTYLE_DIMARC_LENGTH_SYMBOL
1070
   379
1070
     1
1001
ACAD_DSTYLE_DIM_LINETYPE
1070
   380
1005
12
1001
ACAD_DSTYLE_DIM_EXT1_LINETYPE
1070
   381
1005
12
1001
ACAD_DSTYLE_DIM_EXT2_LINETYPE
1070
   382
1005
12
  0
DIMSTYLE
105
63F
330
A
100
AcDbSymbolTableRecord
100
AcDbDimStyleTableRecord
  2
AM_ISO$7
 70
     0
  4
"
 41
3.5
 42
1.0
 43
10.0
 44
1.0
 47
0.1
 48
0.1
 73
     0
 74
     0
 77
     1
 78
     8
 79
     2
140
3.5
141
0.0
143
0.0393701
146
0.71
147
1.5
172
     1
176
   256
177
   256
178
   140
271
     2
272
     3
274
     4
283
     0
284
     8
340
10
371
    -1
372
    -1
1001
ACAD_DSTYLE_DIMBREAK
1070
   391
1040
3.75
1001
ACAD_DSTYLE_DIMJAG
1070
   388
1040
1.5
1001
ACAD_DSTYLE_DIMARC_LENGTH_SYMBOL
1070
   379
1070
     1
1001
ACAD_DSTYLE_DIM_LINETYPE
1070
   380
1005
12
1001
ACAD_DSTYLE_DIM_EXT1_LINETYPE
1070
   381
1005
12
1001
ACAD_DSTYLE_DIM_EXT2_LINETYPE
1070
   382
1005
12
  0
DIMSTYLE
105
640
330
A
100
AcDbSymbolTableRecord
100
AcDbDimStyleTableRecord
  2
AM_ISO$SF
 70
     0
  4
"
 41
3.5
 42
1.0
 43
10.0
 44
1.0
 47
0.1
 48
0.1
 73
     0
 74
     0
 75
     1
 76
     1
 77
     1
 78
     8
 79
     2
140
3.5
141
0.0
143
0.0393701
146
0.71
147
1.5
172
     1
176
   256
177
   256
178
   140
271
     2
272
     3
274
     4
283
     0
284
     8
340
10
371
    -1
372
    -1
1001
ACAD_DSTYLE_DIMBREAK
1070
   391
1040
3.75
1001
ACAD_DSTYLE_DIMJAG
1070
   388
1040
1.5
1001
ACAD_DSTYLE_DIMARC_LENGTH_SYMBOL
1070
   379
1070
     1
1001
ACAD_DSTYLE_DIM_LINETYPE
1070
   380
1005
12
1001
ACAD_DSTYLE_DIM_EXT1_LINETYPE
1070
   381
1005
12
1001
ACAD_DSTYLE_DIM_EXT2_LINETYPE
1070
   382
1005
12
  0
DIMSTYLE
105
645
330
A
100
AcDbSymbolTableRecord
100
AcDbDimStyleTableRecord
  2
AM_ISO$SH
 70
     0
  4
"
 41
3.5
 42
1.0
 43
10.0
 44
1.0
 47
0.1
 48
0.1
 73
     0
 74
     0
 75
     1
 76
     1
 77
     1
 78
     8
 79
     2
140
3.5
141
0.0
143
0.0393701
144
2.0
146
0.71
147
1.5
172
     1
173
     1
176
   256
177
   256
178
   140
271
     2
272
     3
274
     4
283
     0
284
     8
340
10
343
641
371
    -1
372
    -1
1001
ACAD_DSTYLE_DIMBREAK
1070
   391
1040
3.75
1001
ACAD_DSTYLE_DIMJAG
1070
   388
1040
1.5
1001
ACAD_DSTYLE_DIMARC_LENGTH_SYMBOL
1070
   379
1070
     1
1001
ACAD_DSTYLE_DIM_LINETYPE
1070
   380
1005
12
1001
ACAD_DSTYLE_DIM_EXT1_LINETYPE
1070
   381
1005
12
1001
ACAD_DSTYLE_DIM_EXT2_LINETYPE
1070
   382
1005
12
  0
DIMSTYLE
105
689
330
A
100
AcDbSymbolTableRecord
100
AcDbDimStyleTableRecord
  2
STANDARD$0
 70
     0
 41
2.5
 42
0.0
 43
3.75
 44
1.25
 73
     0
 74
     0
 77
     1
 78
     8
 79
     2
140
3.5
141
0.0
143
0.039370078
147
0.625
171
     3
179
     2
271
     2
272
     2
274
     3
283
     0
284
     8
340
1E
1001
ACAD_DSTYLE_DIMBREAK
1070
   391
1040
3.75
1001
ACAD_DSTYLE_DIMJAG
1070
   388
1040
1.5
  0
ENDTAB
  0
TABLE
  2
BLOCK_RECORD
  5
1
330
0
100
AcDbSymbolTable
 70
     8
  0
BLOCK_RECORD
  5
18
102
{ACAD_XDICTIONARY
360
B89
102
}
330
1
100
AcDbSymbolTableRecord
100
AcDbBlockTableRecord
  2
*MODEL_SPACE
340
303
  0
BLOCK_RECORD
  5
338
330
1
100
AcDbSymbolTableRecord
100
AcDbBlockTableRecord
  2
*Paper_Space
340
33B
  0
BLOCK_RECORD
  5
507
330
1
100
AcDbSymbolTableRecord
100
AcDbBlockTableRecord
  2
*D0
340
0
  0
BLOCK_RECORD
  5
514
330
1
100
AcDbSymbolTableRecord
100
AcDbBlockTableRecord
  2
*D1
340
0
  0
BLOCK_RECORD
  5
521
330
1
100
AcDbSymbolTableRecord
100
AcDbBlockTableRecord
  2
*D2
340
0
  0
BLOCK_RECORD
  5
52E
330
1
100
AcDbSymbolTableRecord
100
AcDbBlockTableRecord
  2
*D3
340
0
  0
BLOCK_RECORD
  5
641
330
1
100
AcDbSymbolTableRecord
100
AcDbBlockTableRecord
  2
GENAXEH
340
0
  0
BLOCK_RECORD
  5
B01
330
1
100
AcDbSymbolTableRecord
100
AcDbBlockTableRecord
  2
*D5
340
0
  0
BLOCK_RECORD
  5
B0D
330
1
100
AcDbSymbolTableRecord
100
AcDbBlockTableRecord
  2
*D6
340
0
  0
BLOCK_RECORD
  5
E24
330
1
100
AcDbSymbolTableRecord
100
AcDbBlockTableRecord
  2
*D7
340
0
  0
ENDTAB
  0
ENDSEC
  0
SECTION
  2
BLOCKS
  0
BLOCK
  5
32
330
18
100
AcDbEntity
  8
0
100
AcDbBlockBegin
  2
*MODEL_SPACE
 70
     0
 10
0.0
 20
0.0
 30
0.0
  3
*MODEL_SPACE
  1

  0
ENDBLK
  5
33
330
18
100
AcDbEntity
  8
0
100
AcDbBlockEnd
  0
BLOCK
  5
339
330
338
100
AcDbEntity
 67
     1
  8
0
100
AcDbBlockBegin
  2
*Paper_Space
 70
     0
 10
0.0
 20
0.0
 30
0.0
  3
*Paper_Space
  1

  0
ENDBLK
  5
33A
330
338
100
AcDbEntity
 67
     1
  8
0
100
AcDbBlockEnd
  0
BLOCK
  5
511
330
507
100
AcDbEntity
  8
0
100
AcDbBlockBegin
  2
*D0
 70
     1
 10
0.0
 20
0.0
 30
0.0
  3
*D0
  1

  0
LINE
  5
ED0
330
507
100
AcDbEntity
  8
2
 62
     0
440
 16777216
370
    -2
100
AcDbLine
 10
0.0
 20
0.0
 30
0.0
 11
0.0000000000000047
 21
76.25
 31
0.0
  0
LINE
  5
ED1
330
507
100
AcDbEntity
  8
2
 62
     0
440
 16777216
370
    -2
100
AcDbLine
 10
58.0
 20
0.0000000000000004
 30
0.0
 11
58.0
 21
76.25
 31
0.0
  0
LINE
  5
ED2
330
507
100
AcDbEntity
  8
2
 62
     0
440
 16777216
370
    -2
100
AcDbLine
 10
2.500000000000003
 20
75.0
 30
0.0
 11
55.5
 21
75.0
 31
0.0
  0
SOLID
  5
ED3
330
507
100
AcDbEntity
  8
2
 62
     0
440
 16777216
100
AcDbTrace
 10
2.500000000000003
 20
75.41666666666667
 30
0.0
 11
2.500000000000003
 21
74.58333333333333
 31
0.0
 12
0.0000000000000046
 22
75.0
 32
0.0
 13
0.0000000000000046
 23
75.0
 33
0.0
  0
SOLID
  5
ED4
330
507
100
AcDbEntity
  8
2
 62
     0
440
 16777216
100
AcDbTrace
 10
55.5
 20
75.41666666666667
 30
0.0
 11
55.5
 21
74.58333333333333
 31
0.0
 12
58.0
 22
75.0
 32
0.0
 13
58.0
 23
75.0
 33
0.0
  0
MTEXT
  5
ED5
330
507
100
AcDbEntity
  8
2
 62
     0
440
 16777216
100
AcDbMText
 10
29.00000000000001
 20
77.375
 30
0.0
 40
3.5
 41
0.0
 71
     5
 72
     1
  1
58
  7
SIMPLEX
 73
     1
 44
1.0
  0
POINT
  5
ED6
330
507
100
AcDbEntity
  8
DEFPOINTS
 62
     0
440
 16777216
100
AcDbPoint
 10
0.0
 20
0.0
 30
0.0
  0
POINT
  5
ED7
330
507
100
AcDbEntity
  8
DEFPOINTS
 62
     0
440
 16777216
100
AcDbPoint
 10
58.0
 20
0.0000000000000004
 30
0.0
  0
POINT
  5
ED8
330
507
100
AcDbEntity
  8
DEFPOINTS
 62
     0
440
 16777216
100
AcDbPoint
 10
58.0
 20
75.0
 30
0.0
  0
ENDBLK
  5
512
330
507
100
AcDbEntity
  8
0
100
AcDbBlockEnd
  0
BLOCK
  5
51E
330
514
100
AcDbEntity
  8
0
100
AcDbBlockBegin
  2
*D1
 70
     1
 10
0.0
 20
0.0
 30
0.0
  3
*D1
  1

  0
LINE
  5
EEB
330
514
100
AcDbEntity
  8
2
 62
     0
440
 16777216
370
    -2
100
AcDbLine
 10
10.0
 20
5.999585569156253
 30
0.0
 11
10.0
 21
61.25
 31
0.0
  0
LINE
  5
EEC
330
514
100
AcDbEntity
  8
2
 62
     0
440
 16777216
370
    -2
100
AcDbLine
 10
58.0
 20
5.819423577407386
 30
0.0
 11
58.0
 21
61.25
 31
0.0
  0
LINE
  5
EED
330
514
100
AcDbEntity
  8
2
 62
     0
440
 16777216
370
    -2
100
AcDbLine
 10
12.5
 20
60.0
 30
0.0
 11
55.5
 21
60.0
 31
0.0
  0
SOLID
  5
EEE
330
514
100
AcDbEntity
  8
2
 62
     0
440
 16777216
100
AcDbTrace
 10
12.5
 20
60.41666666666666
 30
0.0
 11
12.5
 21
59.58333333333333
 31
0.0
 12
10.0
 22
60.0
 32
0.0
 13
10.0
 23
60.0
 33
0.0
  0
SOLID
  5
EEF
330
514
100
AcDbEntity
  8
2
 62
     0
440
 16777216
100
AcDbTrace
 10
55.5
 20
60.41666666666666
 30
0.0
 11
55.5
 21
59.58333333333333
 31
0.0
 12
58.0
 22
60.0
 32
0.0
 13
58.0
 23
60.0
 33
0.0
  0
MTEXT
  5
EF0
330
514
100
AcDbEntity
  8
2
 62
     0
440
 16777216
100
AcDbMText
 10
34.0
 20
62.375
 30
0.0
 40
3.5
 41
0.0
 71
     5
 72
     1
  1
48
  7
SIMPLEX
 73
     1
 44
1.0
  0
POINT
  5
EF1
330
514
100
AcDbEntity
  8
DEFPOINTS
 62
     0
440
 16777216
100
AcDbPoint
 10
10.0
 20
5.999585569156253
 30
0.0
  0
POINT
  5
EF2
330
514
100
AcDbEntity
  8
DEFPOINTS
 62
     0
440
 16777216
100
AcDbPoint
 10
58.0
 20
5.819423577407386
 30
0.0
  0
POINT
  5
EF3
330
514
100
AcDbEntity
  8
DEFPOINTS
 62
     0
440
 16777216
100
AcDbPoint
 10
58.0
 20
60.0
 30
0.0
  0
ENDBLK
  5
51F
330
514
100
AcDbEntity
  8
0
100
AcDbBlockEnd
  0
BLOCK
  5
52B
330
521
100
AcDbEntity
  8
0
100
AcDbBlockBegin
  2
*D2
 70
     1
 10
0.0
 20
0.0
 30
0.0
  3
*D2
  1

  0
LINE
  5
E32
330
521
100
AcDbEntity
  8
SK2
 62
     0
440
 16777216
370
    -2
100
AcDbLine
 10
-45.0
 20
6.0
 30
0.0
 11
-64.24999999996939
 21
6.000000000000002
 31
0.0
  0
LINE
  5
E33
330
521
100
AcDbEntity
  8
SK2
 62
     0
440
 16777216
370
    -2
100
AcDbLine
 10
-45.0
 20
-6.0
 30
0.0
 11
-64.24999999996939
 21
-5.999999999999992
 31
0.0
  0
LINE
  5
E34
330
521
100
AcDbEntity
  8
SK2
 62
     0
440
 16777216
370
    -2
100
AcDbLine
 10
-62.99999999996939
 20
3.500000000000003
 30
0.0
 11
-62.99999999996939
 21
-3.499999999999995
 31
0.0
  0
SOLID
  5
E35
330
521
100
AcDbEntity
  8
SK2
 62
     0
440
 16777216
100
AcDbTrace
 10
-63.41666666663604
 20
3.500000000000003
 30
0.0
 11
-62.5833333333027
 21
3.500000000000003
 31
0.0
 12
-62.99999999996939
 22
6.000000000000002
 32
0.0
 13
-62.99999999996939
 23
6.000000000000002
 33
0.0
  0
SOLID
  5
E36
330
521
100
AcDbEntity
  8
SK2
 62
     0
440
 16777216
100
AcDbTrace
 10
-63.41666666663604
 20
-3.499999999999993
 30
0.0
 11
-62.5833333333027
 21
-3.499999999999995
 31
0.0
 12
-62.99999999996939
 22
-5.999999999999992
 32
0.0
 13
-62.99999999996939
 23
-5.999999999999992
 33
0.0
  0
MTEXT
  5
E37
330
521
100
AcDbEntity
  8
SK2
 62
     0
440
 16777216
100
AcDbMText
 10
-65.37499999996938
 20
-0.0000000000000047
 30
0.0
 40
3.5
 41
0.0
 71
     5
 72
     1
  1
%%c12
  7
SIMPLEX
 11
0.0000000000000001
 21
1.0
 31
0.0
 73
     1
 44
1.0
  0
POINT
  5
E38
330
521
100
AcDbEntity
  8
DEFPOINTS
 62
     0
440
 16777216
100
AcDbPoint
 10
-45.0
 20
6.0
 30
0.0
  0
POINT
  5
E39
330
521
100
AcDbEntity
  8
DEFPOINTS
 62
     0
440
 16777216
100
AcDbPoint
 10
-45.0
 20
-6.0
 30
0.0
  0
POINT
  5
E3A
330
521
100
AcDbEntity
  8
DEFPOINTS
 62
     0
440
 16777216
100
AcDbPoint
 10
-62.99999999996939
 20
-5.999999999999992
 30
0.0
  0
ENDBLK
  5
52C
330
521
100
AcDbEntity
  8
0
100
AcDbBlockEnd
  0
BLOCK
  5
538
330
52E
100
AcDbEntity
  8
0
100
AcDbBlockBegin
  2
*D3
 70
     1
 10
0.0
 20
0.0
 30
0.0
  3
*D3
  1

  0
LINE
  5
ED9
330
52E
100
AcDbEntity
  8
SK2
 62
     0
440
 16777216
370
    -2
100
AcDbLine
 10
-45.0
 20
0.0
 30
0.0
 11
-44.99999999999999
 21
91.25
 31
0.0
  0
LINE
  5
EDA
330
52E
100
AcDbEntity
  8
SK2
 62
     0
440
 16777216
370
    -2
100
AcDbLine
 10
58.0
 20
0.0000000000000004
 30
0.0
 11
58.0
 21
91.25
 31
0.0
  0
LINE
  5
EDB
330
52E
100
AcDbEntity
  8
SK2
 62
     0
440
 16777216
370
    -2
100
AcDbLine
 10
-42.49999999999999
 20
90.0
 30
0.0
 11
55.5
 21
90.0
 31
0.0
  0
SOLID
  5
EDC
330
52E
100
AcDbEntity
  8
SK2
 62
     0
440
 16777216
100
AcDbTrace
 10
-42.49999999999999
 20
90.41666666666669
 30
0.0
 11
-42.49999999999999
 21
89.58333333333332
 31
0.0
 12
-44.99999999999999
 22
90.0
 32
0.0
 13
-44.99999999999999
 23
90.0
 33
0.0
  0
SOLID
  5
EDD
330
52E
100
AcDbEntity
  8
SK2
 62
     0
440
 16777216
100
AcDbTrace
 10
55.5
 20
90.41666666666669
 30
0.0
 11
55.5
 21
89.58333333333332
 31
0.0
 12
58.0
 22
90.0
 32
0.0
 13
58.0
 23
90.0
 33
0.0
  0
MTEXT
  5
EDE
330
52E
100
AcDbEntity
  8
SK2
 62
     0
440
 16777216
100
AcDbMText
 10
6.500000000000007
 20
92.375
 30
0.0
 40
3.5
 41
0.0
 71
     5
 72
     1
  1
103
  7
SIMPLEX
 73
     1
 44
1.0
  0
POINT
  5
EDF
330
52E
100
AcDbEntity
  8
DEFPOINTS
 62
     0
440
 16777216
100
AcDbPoint
 10
-45.0
 20
0.0
 30
0.0
  0
POINT
  5
EE0
330
52E
100
AcDbEntity
  8
DEFPOINTS
 62
     0
440
 16777216
100
AcDbPoint
 10
58.0
 20
0.0000000000000004
 30
0.0
  0
POINT
  5
EE1
330
52E
100
AcDbEntity
  8
DEFPOINTS
 62
     0
440
 16777216
100
AcDbPoint
 10
58.0
 20
90.0
 30
0.0
  0
ENDBLK
  5
539
330
52E
100
AcDbEntity
  8
0
100
AcDbBlockEnd
  0
BLOCK
  5
643
330
641
100
AcDbEntity
  8
0
100
AcDbBlockBegin
  2
GENAXEH
 70
     0
 10
0.0
 20
0.0
 30
0.0
  3
GENAXEH
  1

  0
LINE
  5
642
330
641
100
AcDbEntity
  8
0
100
AcDbLine
 10
-1.0
 20
0.0
 30
0.0
 11
1.0
 21
0.0
 31
0.0
  0
ENDBLK
  5
644
330
641
100
AcDbEntity
  8
0
100
AcDbBlockEnd
  0
BLOCK
  5
B02
330
B01
100
AcDbEntity
  8
0
100
AcDbBlockBegin
  2
*D5
 70
     1
 10
0.0
 20
0.0
 30
0.0
  3
*D5
  1

  0
LINE
  5
103B
330
B01
100
AcDbEntity
  8
2
 62
     0
440
 16777216
370
    -2
100
AcDbLine
 10
57.85024122068064
 20
6.00225736344332
 30
0.0
 11
77.06999999999997
 21
6.002257363443317
 31
0.0
  0
LINE
  5
103C
330
B01
100
AcDbEntity
  8
2
 62
     0
440
 16777216
370
    -2
100
AcDbLine
 10
57.85012111355268
 20
-5.997742636556672
 30
0.0
 11
77.06999999999997
 21
-5.997742636556678
 31
0.0
  0
LINE
  5
103D
330
B01
100
AcDbEntity
  8
2
 62
     0
440
 16777216
370
    -2
100
AcDbLine
 10
75.81999999999997
 20
3.502257363443318
 30
0.0
 11
75.81999999999997
 21
-3.497742636556678
 31
0.0
  0
SOLID
  5
103E
330
B01
100
AcDbEntity
  8
2
 62
     0
440
 16777216
100
AcDbTrace
 10
75.40333333333331
 20
3.502257363443318
 30
0.0
 11
76.23666666666664
 21
3.502257363443318
 31
0.0
 12
75.81999999999997
 22
6.002257363443317
 32
0.0
 13
75.81999999999997
 23
6.002257363443317
 33
0.0
  0
SOLID
  5
103F
330
B01
100
AcDbEntity
  8
2
 62
     0
440
 16777216
100
AcDbTrace
 10
75.40333333333331
 20
-3.497742636556678
 30
0.0
 11
76.23666666666664
 21
-3.497742636556678
 31
0.0
 12
75.81999999999997
 22
-5.997742636556678
 32
0.0
 13
75.81999999999997
 23
-5.997742636556678
 33
0.0
  0
MTEXT
  5
1040
330
B01
100
AcDbEntity
  8
2
 62
     0
440
 16777216
100
AcDbMText
 10
73.44499999999995
 20
0.0022573634433326
 30
0.0
 40
3.5
 41
0.0
 71
     5
 72
     1
  1
%%c12
  7
SIMPLEX
 11
0.0000000000000001
 21
1.0
 31
0.0
 73
     1
 44
1.0
  0
POINT
  5
1041
330
B01
100
AcDbEntity
  8
DEFPOINTS
 62
     0
440
 16777216
100
AcDbPoint
 10
57.85024122068064
 20
6.00225736344332
 30
0.0
  0
POINT
  5
1042
330
B01
100
AcDbEntity
  8
DEFPOINTS
 62
     0
440
 16777216
100
AcDbPoint
 10
57.85012111355268
 20
-5.997742636556672
 30
0.0
  0
POINT
  5
1043
330
B01
100
AcDbEntity
  8
DEFPOINTS
 62
     0
440
 16777216
100
AcDbPoint
 10
75.81999999999997
 20
-5.997742636556678
 30
0.0
  0
ENDBLK
  5
B03
330
B01
100
AcDbEntity
  8
0
100
AcDbBlockEnd
  0
BLOCK
  5
B0E
330
B0D
100
AcDbEntity
  8
0
100
AcDbBlockBegin
  2
*D6
 70
     1
 10
0.0
 20
0.0
 30
0.0
  3
*D6
  1

  0
LINE
  5
1030
330
B0D
100
AcDbEntity
  8
2
 62
     0
440
 16777216
370
    -2
100
AcDbLine
 10
57.85024122068064
 20
6.00225736344332
 30
0.0
 11
57.85024122068064
 21
21.10237863121776
 31
0.0
  0
LINE
  5
1031
330
B0D
100
AcDbEntity
  8
2
 62
     0
440
 16777216
370
    -2
100
AcDbLine
 10
58.0
 20
5.860760775509662
 30
0.0
 11
58.0
 21
21.10237863121776
 31
0.0
  0
LINE
  5
1032
330
B0D
100
AcDbEntity
  8
2
 62
     0
440
 16777216
370
    -2
100
AcDbLine
 10
55.35024122068064
 20
19.85237863121776
 30
0.0
 11
52.85024122068064
 21
19.85237863121776
 31
0.0
  0
LINE
  5
1033
330
B0D
100
AcDbEntity
  8
2
 62
     0
440
 16777216
370
    -2
100
AcDbLine
 10
60.5
 20
19.85237863121776
 30
0.0
 11
85.41666666666667
 21
19.85237863121776
 31
0.0
  0
SOLID
  5
1034
330
B0D
100
AcDbEntity
  8
2
 62
     0
440
 16777216
100
AcDbTrace
 10
55.35024122068064
 20
20.26904529788443
 30
0.0
 11
55.35024122068064
 21
19.43571196455109
 31
0.0
 12
57.85024122068064
 22
19.85237863121776
 32
0.0
 13
57.85024122068064
 23
19.85237863121776
 33
0.0
  0
SOLID
  5
1035
330
B0D
100
AcDbEntity
  8
2
 62
     0
440
 16777216
100
AcDbTrace
 10
60.5
 20
20.26904529788443
 30
0.0
 11
60.5
 21
19.43571196455109
 31
0.0
 12
58.0
 22
19.85237863121776
 32
0.0
 13
58.0
 23
19.85237863121776
 33
0.0
  0
MTEXT
  5
1036
330
B0D
100
AcDbEntity
  8
2
 62
     0
440
 16777216
100
AcDbMText
 10
74.20833333333334
 20
22.22737863121776
 30
0.0
 40
3.5
 41
0.0
 71
     5
 72
     1
  1
0.15x45°
  7
SIMPLEX
 73
     1
 44
1.0
  0
POINT
  5
1037
330
B0D
100
AcDbEntity
  8
DEFPOINTS
 62
     0
440
 16777216
100
AcDbPoint
 10
57.85024122068064
 20
6.00225736344332
 30
0.0
  0
POINT
  5
1038
330
B0D
100
AcDbEntity
  8
DEFPOINTS
 62
     0
440
 16777216
100
AcDbPoint
 10
58.0
 20
5.860760775509662
 30
0.0
  0
POINT
  5
1039
330
B0D
100
AcDbEntity
  8
DEFPOINTS
 62
     0
440
 16777216
100
AcDbPoint
 10
58.0
 20
19.85237863121776
 30
0.0
  0
ENDBLK
  5
B0F
330
B0D
100
AcDbEntity
  8
0
100
AcDbBlockEnd
  0
BLOCK
  5
E25
330
E24
100
AcDbEntity
  8
0
100
AcDbBlockBegin
  2
*D7
 70
     1
 10
0.0
 20
0.0
 30
0.0
  3
*D7
  1

  0
LINE
  5
E27
330
E24
100
AcDbEntity
  8
1
  6
ByBlock
 62
     0
440
 16777216
370
    -2
100
AcDbLine
 10
0.0
 20
0.0
 30
0.0
 11
0.0000000000000022
 21
36.51606221402142
 31
0.0
  0
LINE
  5
E28
330
E24
100
AcDbEntity
  8
1
  6
ByBlock
 62
     0
440
 16777216
370
    -2
100
AcDbLine
 10
-48.0
 20
0.0
 30
0.0
 11
-48.0
 21
36.51606221402142
 31
0.0
  0
LINE
  5
E29
330
E24
100
AcDbEntity
  8
1
  6
ByBlock
 62
     0
440
 16777216
370
    -2
100
AcDbLine
 10
-2.499999999999996
 20
35.26606221402142
 30
0.0
 11
-45.49999999999999
 21
35.26606221402142
 31
0.0
  0
SOLID
  5
E2A
330
E24
100
AcDbEntity
  8
1
 62
     0
440
 16777216
100
AcDbTrace
 10
-2.499999999999996
 20
35.68272888068808
 30
0.0
 11
-2.499999999999996
 21
34.84939554735476
 31
0.0
 12
0.0000000000000022
 22
35.26606221402142
 32
0.0
 13
0.0000000000000022
 23
35.26606221402142
 33
0.0
  0
SOLID
  5
E2B
330
E24
100
AcDbEntity
  8
1
 62
     0
440
 16777216
100
AcDbTrace
 10
-45.49999999999999
 20
35.68272888068808
 30
0.0
 11
-45.49999999999999
 21
34.84939554735476
 31
0.0
 12
-48.0
 22
35.26606221402142
 32
0.0
 13
-48.0
 23
35.26606221402142
 33
0.0
  0
MTEXT
  5
E2C
330
E24
100
AcDbEntity
  8
1
 62
     0
440
 16777216
100
AcDbMText
 10
-24.0
 20
37.64106221402142
 30
0.0
 40
3.5
 41
0.0
 71
     5
 72
     1
  1
48
  7
SIMPLEX
 73
     1
 44
1.0
  0
POINT
  5
E2D
330
E24
100
AcDbEntity
  8
DEFPOINTS
 62
     0
440
 16777216
100
AcDbPoint
 10
0.0
 20
0.0
 30
0.0
  0
POINT
  5
E2E
330
E24
100
AcDbEntity
  8
DEFPOINTS
 62
     0
440
 16777216
100
AcDbPoint
 10
-48.0
 20
0.0
 30
0.0
  0
POINT
  5
E2F
330
E24
100
AcDbEntity
  8
DEFPOINTS
 62
     0
440
 16777216
100
AcDbPoint
 10
-48.0
 20
35.26606221402142
 30
0.0
  0
ENDBLK
  5
E26
330
E24
100
AcDbEntity
  8
0
100
AcDbBlockEnd
  0
ENDSEC
  0
SECTION
  2
ENTITIES
  0
LINE
  5
3C3
330
18
100
AcDbEntity
  8
4
100
AcDbLine
 10
0.0
 20
-0.0000000000000029
 30
0.0
 11
60.73509222565984
 21
-0.0000000000000002
 31
0.0
  0
LINE
  5
3C6
330
18
100
AcDbEntity
  8
1
 62
     4
100
AcDbLine
 10
8.799999999999997
 20
-5.742735480820262
 30
0.0
 11
8.799999999999997
 21
-5.999999999999996
 31
0.0
  0
LINE
  5
3C7
330
18
100
AcDbEntity
  8
1
 62
     4
100
AcDbLine
 10
9.999999999999994
 20
-5.870843228955397
 30
0.0
 11
8.799999999999991
 21
-5.341767346164608
 31
0.0
  0
ARC
  5
3C8
330
18
100
AcDbEntity
  8
1
 62
     4
100
AcDbCircle
 10
11.245671224906
 20
5.536945353134798
 30
0.0
 40
11.54175661994535
100
AcDbArc
 50
257.7664336438684
 51
263.8041077949
  0
LINE
  5
3C9
330
18
100
AcDbEntity
  8
1
 62
     4
100
AcDbLine
 10
9.999999999999984
 20
-4.918571770963518
 30
0.0
 11
10.0
 21
-5.937314991713929
 31
0.0
  0
LINE
  5
3CC
330
18
100
AcDbEntity
  8
1
 62
     4
100
AcDbLine
 10
8.799999999999991
 20
-1.013001823621482
 30
0.0
 11
8.799999999999991
 21
-5.341767346164608
 31
0.0
  0
LINE
  5
3CD
330
18
100
AcDbEntity
  8
1
 62
     4
100
AcDbLine
 10
8.799999999999991
 20
-1.013001823621482
 30
0.0
 11
9.999999999999994
 21
-1.522740020438472
 31
0.0
  0
ARC
  5
3CE
330
18
100
AcDbEntity
  8
1
 62
     4
100
AcDbCircle
 10
-3.233243248656873
 20
-20.27695314862638
 30
0.0
 40
25.25008378625612
100
AcDbArc
 50
59.02784707936092
 51
61.53884718876822
  0
LINE
  5
3CF
330
18
100
AcDbEntity
  8
1
 62
     4
100
AcDbLine
 10
8.799999999999997
 20
6.0
 30
0.0
 11
8.799999999999997
 21
5.999585569156253
 31
0.0
  0
LINE
  5
3D0
330
18
100
AcDbEntity
  8
1
 62
     4
100
AcDbLine
 10
8.799999999999997
 20
5.936593444137096
 30
0.0
 11
8.799999999999997
 21
5.873601319117941
 31
0.0
  0
LINE
  5
3D1
330
18
100
AcDbEntity
  8
1
 62
     4
100
AcDbLine
 10
8.799999999999997
 20
5.873601319117941
 30
0.0
 11
8.800007447776188
 21
1.921416361086435
 31
0.0
  0
LINE
  5
3D2
330
18
100
AcDbEntity
  8
1
100
AcDbLine
 10
0.0
 20
5.999999999999997
 30
0.0
 11
10.0
 21
6.0
 31
0.0
  0
ARC
  5
3D3
330
18
100
AcDbEntity
  8
1
 62
     4
100
AcDbCircle
 10
11.43113174155623
 20
23.11505065329265
 30
0.0
 40
17.37878725136519
100
AcDbArc
 50
261.2919882056564
 51
265.2763810069255
  0
LINE
  5
3D4
330
18
100
AcDbEntity
  8
1
 62
     4
100
AcDbLine
 10
10.0
 20
3.598007990668063
 30
0.0
 11
10.0
 21
5.937314991713932
 31
0.0
  0
LINE
  5
3D5
330
18
100
AcDbEntity
  8
1
 62
     4
100
AcDbLine
 10
10.0
 20
3.436226379894185
 30
0.0
 11
10.0
 21
3.598007990668063
 31
0.0
  0
LINE
  5
3D6
330
18
100
AcDbEntity
  8
1
 62
     4
100
AcDbLine
 10
10.0
 20
3.436226379894186
 30
0.0
 11
10.0
 21
0.8650379697845519
 31
0.0
  0
LINE
  5
3D7
330
18
100
AcDbEntity
  8
1
 62
     4
100
AcDbLine
 10
10.0
 20
0.5242122966121513
 30
0.0
 11
10.0
 21
0.8650379697845471
 31
0.0
  0
LINE
  5
3D8
330
18
100
AcDbEntity
  8
1
 62
     4
100
AcDbLine
 10
10.0
 20
-4.918571770963518
 30
0.0
 11
10.0
 21
0.5242122966121513
 31
0.0
  0
LINE
  5
3D9
330
18
100
AcDbEntity
  8
1
 62
     4
100
AcDbLine
 10
9.761032938308565
 20
1.372981785570024
 30
0.0
 11
9.999999999999994
 21
1.228361109128452
 31
0.0
  0
LINE
  5
3DA
330
18
100
AcDbEntity
  8
1
100
AcDbLine
 10
0.0
 20
-6.0
 30
0.0
 11
9.999999999999994
 21
-6.000414430843745
 31
0.0
  0
LINE
  5
3DB
330
18
100
AcDbEntity
  8
1
 62
     4
100
AcDbLine
 10
10.0
 20
3.436226379894186
 30
0.0
 11
10.0
 21
0.8650379697845519
 31
0.0
  0
LINE
  5
427
330
18
100
AcDbEntity
  8
1
 62
     4
100
AcDbLine
 10
10.0
 20
3.436226379894185
 30
0.0
 11
10.0
 21
3.598007990668063
 31
0.0
  0
LINE
  5
439
330
18
100
AcDbEntity
  8
1
 62
     4
100
AcDbLine
 10
9.999999999999984
 20
-4.918571770963518
 30
0.0
 11
10.0
 21
-5.937314991713929
 31
0.0
  0
LINE
  5
43A
330
18
100
AcDbEntity
  8
1
 62
     4
100
AcDbLine
 10
10.0
 20
-4.918571770963518
 30
0.0
 11
10.0
 21
0.5242122966121513
 31
0.0
  0
LINE
  5
43B
330
18
100
AcDbEntity
  8
1
 62
     4
100
AcDbLine
 10
10.0
 20
0.5242122966121513
 30
0.0
 11
10.0
 21
0.8650379697845471
 31
0.0
  0
LINE
  5
43C
330
18
100
AcDbEntity
  8
1
 62
     4
100
AcDbLine
 10
10.0
 20
3.598007990668063
 30
0.0
 11
10.0
 21
5.999585569156253
 31
0.0
  0
LINE
  5
4F1
330
18
100
AcDbEntity
  8
SK1
100
AcDbLine
 10
0.0000000000000004
 20
5.999999999999997
 30
0.0
 11
-44.4
 21
6.0
 31
0.0
  0
LINE
  5
4F2
330
18
100
AcDbEntity
  8
SK1
100
AcDbLine
 10
-44.4
 20
6.0
 30
0.0
 11
-45.0
 21
5.399999999999997
 31
0.0
  0
LINE
  5
4F3
330
18
100
AcDbEntity
  8
SK1
100
AcDbLine
 10
-45.0
 20
5.399999999999997
 30
0.0
 11
-45.0
 21
5.394631356210613
 31
0.0
  0
LINE
  5
4F4
330
18
100
AcDbEntity
  8
SK1
100
AcDbLine
 10
-45.0
 20
5.394631356210613
 30
0.0
 11
-45.0
 21
4.915476293886468
 31
0.0
  0
LINE
  5
4F5
330
18
100
AcDbEntity
  8
SK1
100
AcDbLine
 10
-45.0
 20
4.915476293886468
 30
0.0
 11
-45.0
 21
-5.399999999999997
 31
0.0
  0
LINE
  5
4F6
330
18
100
AcDbEntity
  8
SK1
100
AcDbLine
 10
-44.4
 20
6.0
 30
0.0
 11
-44.4
 21
-5.999999988318919
 31
0.0
  0
LINE
  5
4F7
330
18
100
AcDbEntity
  8
SK1
100
AcDbLine
 10
0.0000000000000004
 20
-6.0
 30
0.0
 11
-44.4
 21
-6.0
 31
0.0
  0
LINE
  5
4F8
330
18
100
AcDbEntity
  8
SK1
100
AcDbLine
 10
-44.4
 20
-6.0
 30
0.0
 11
-45.0
 21
-5.399999999999997
 31
0.0
  0
DIMENSION
  5
506
330
18
100
AcDbEntity
  8
2
100
AcDbDimension
  2
*D0
 10
58.0
 20
75.0
 30
0.0
 11
29.00000000000001
 21
77.375
 31
0.0
 70
    32
  1
<>
 71
     5
 42
58.0
  3
STANDARD
100
AcDbAlignedDimension
 13
0.0
 23
0.0
 33
0.0
 14
58.0
 24
0.0000000000000004
 34
0.0
100
AcDbRotatedDimension
  0
DIMENSION
  5
513
330
18
100
AcDbEntity
  8
2
100
AcDbDimension
  2
*D1
 10
58.0
 20
60.0
 30
0.0
 11
34.0
 21
62.375
 31
0.0
 70
    32
  1
<>
 71
     5
 42
48.0
  3
STANDARD
100
AcDbAlignedDimension
 13
10.0
 23
5.999585569156253
 33
0.0
 14
58.0
 24
5.819423577407386
 34
0.0
100
AcDbRotatedDimension
  0
DIMENSION
  5
520
330
18
100
AcDbEntity
  8
SK2
100
AcDbDimension
  2
*D2
 10
-62.99999999996939
 20
-5.999999999999992
 30
0.0
 11
-65.37499999996938
 21
-0.0000000000000047
 31
0.0
 70
    32
  1
%%c<>
 71
     5
 42
12.0
  3
STANDARD
100
AcDbAlignedDimension
 13
-45.0
 23
6.0
 33
0.0
 14
-45.0
 24
-6.0
 34
0.0
 50
90.00000000029242
100
AcDbRotatedDimension
  0
DIMENSION
  5
52D
330
18
100
AcDbEntity
  8
SK2
100
AcDbDimension
  2
*D3
 10
58.0
 20
90.0
 30
0.0
 11
6.500000000000007
 21
92.375
 31
0.0
 70
    32
  1
<>
 71
     5
 42
103.0
  3
STANDARD
100
AcDbAlignedDimension
 13
-45.0
 23
0.0
 33
0.0
 14
58.0
 24
0.0000000000000004
 34
0.0
100
AcDbRotatedDimension
  0
LINE
  5
9C5
330
18
100
AcDbEntity
  8
1
 62
     4
100
AcDbLine
 10
8.799999999999997
 20
5.999585569156253
 30
0.0
 11
9.999999999999994
 21
5.999585569156253
 31
0.0
  0
LINE
  5
9C6
330
18
100
AcDbEntity
  8
1
 62
     4
100
AcDbLine
 10
57.85012111355268
 20
-5.997742636556672
 30
0.0
 11
57.43274022135079
 21
-5.98217110781433
 31
0.0
  0
LINE
  5
9C7
330
18
100
AcDbEntity
  8
1
 62
     4
100
AcDbLine
 10
57.43274022135079
 20
-5.98217110781433
 30
0.0
 11
57.0454925701233
 21
-5.952733632726116
 31
0.0
  0
LINE
  5
9C8
330
18
100
AcDbEntity
  8
1
 62
     4
100
AcDbLine
 10
57.0454925701233
 20
-5.952733632726116
 30
0.0
 11
56.65822486515536
 21
-5.909493508701511
 31
0.0
  0
LINE
  5
9C9
330
18
100
AcDbEntity
  8
1
 62
     4
100
AcDbLine
 10
56.65822486515536
 20
-5.909493508701511
 30
0.0
 11
55.88371908830875
 21
-5.782049662543497
 31
0.0
  0
LINE
  5
9CA
330
18
100
AcDbEntity
  8
1
 62
     4
100
AcDbLine
 10
55.88371908830875
 20
-5.782049662543497
 30
0.0
 11
55.10921154514633
 21
-5.601018675973869
 31
0.0
  0
LINE
  5
9CB
330
18
100
AcDbEntity
  8
1
 62
     4
100
AcDbLine
 10
55.10921154514633
 20
-5.601018675973869
 30
0.0
 11
54.33469523125125
 21
-5.368076991411959
 31
0.0
  0
LINE
  5
9CC
330
18
100
AcDbEntity
  8
1
 62
     4
100
AcDbLine
 10
54.33469523125125
 20
-5.368076991411959
 30
0.0
 11
53.56017708143228
 21
-5.085384971973762
 31
0.0
  0
LINE
  5
9CD
330
18
100
AcDbEntity
  8
1
 62
     4
100
AcDbLine
 10
53.56017708143228
 20
-5.085384971973762
 30
0.0
 11
52.78566363516643
 21
-4.755565307261591
 31
0.0
  0
LINE
  5
9CE
330
18
100
AcDbEntity
  8
1
 62
     4
100
AcDbLine
 10
52.78566363516643
 20
-4.755565307261591
 30
0.0
 11
52.01116007203802
 21
-4.381677480312641
 31
0.0
  0
LINE
  5
9CF
330
18
100
AcDbEntity
  8
1
 62
     4
100
AcDbLine
 10
52.01116007203802
 20
-4.381677480312641
 30
0.0
 11
51.23665007299755
 21
-3.967179112011388
 31
0.0
  0
LINE
  5
9D0
330
18
100
AcDbEntity
  8
1
 62
     4
100
AcDbLine
 10
51.23665007299755
 20
-3.967179112011388
 30
0.0
 11
49.68761558029419
 21
-3.032060486597236
 31
0.0
  0
LINE
  5
9D1
330
18
100
AcDbEntity
  8
1
 62
     4
100
AcDbLine
 10
49.68761558029419
 20
-3.032060486597236
 30
0.0
 11
48.13860173364671
 21
-1.984821696467665
 31
0.0
  0
LINE
  5
9D2
330
18
100
AcDbEntity
  8
1
 62
     4
100
AcDbLine
 10
48.13860173364671
 20
-1.984821696467665
 30
0.0
 11
45.42782627410889
 21
-0.000414430845154
 31
0.0
  0
LINE
  5
9D3
330
18
100
AcDbEntity
  8
1
 62
     4
100
AcDbLine
 10
57.85007986534609
 20
-5.292005057102268
 30
0.0
 11
57.85012111355268
 21
-5.997742636556672
 31
0.0
  0
LINE
  5
9D5
330
18
100
AcDbEntity
  8
1
 62
     4
100
AcDbLine
 10
57.82
 20
2.849624896792201
 30
0.0
 11
56.65755492835022
 21
3.580431355640593
 31
0.0
  0
LINE
  5
9D6
330
18
100
AcDbEntity
  8
1
 62
     4
100
AcDbLine
 10
57.99999999999997
 20
2.76833195924849
 30
0.0
 11
57.81999999999996
 21
2.849624896792201
 31
0.0
  0
LINE
  5
9D7
330
18
100
AcDbEntity
  8
1
 62
     4
100
AcDbLine
 10
57.81999999999998
 20
2.849624896792201
 30
0.0
 11
57.81999999999998
 21
0.1786229757512789
 31
0.0
  0
LINE
  5
9D8
330
18
100
AcDbEntity
  8
1
 62
     4
100
AcDbLine
 10
57.99999999999997
 20
0.0430085782118543
 30
0.0
 11
57.81999999999998
 21
0.1786229757512789
 31
0.0
  0
LINE
  5
9D9
330
18
100
AcDbEntity
  8
1
 62
     4
100
AcDbLine
 10
58.0
 20
2.768331959248483
 30
0.0
 11
58.0
 21
0.0430085782118543
 31
0.0
  0
LINE
  5
9DB
330
18
100
AcDbEntity
  8
1
 62
     4
100
AcDbLine
 10
58.0
 20
-5.119637362827787
 30
0.0
 11
58.0
 21
-5.853769194223786
 31
0.0
  0
LINE
  5
9DC
330
18
100
AcDbEntity
  8
1
 62
     4
100
AcDbLine
 10
45.427826274108
 20
5.999585569156253
 30
0.0
 11
49.1683083511247
 21
5.999585569156253
 31
0.0
  0
LINE
  5
9DD
330
18
100
AcDbEntity
  8
1
 62
     4
100
AcDbLine
 10
32.79565236544751
 20
5.999585569156253
 30
0.0
 11
36.5361359172456
 21
5.999585569156253
 31
0.0
  0
LINE
  5
9DE
330
18
100
AcDbEntity
  8
1
 62
     4
100
AcDbLine
 10
20.75559337211355
 20
5.999585569156253
 30
0.0
 11
23.90396224156523
 21
5.999585569156253
 31
0.0
  0
LINE
  5
9DF
330
18
100
AcDbEntity
  8
1
 62
     4
100
AcDbLine
 10
58.0
 20
3.6354894512441
 30
0.0
 11
58.0
 21
5.862477893945093
 31
0.0
  0
LINE
  5
9E0
330
18
100
AcDbEntity
  8
1
 62
     4
100
AcDbLine
 10
20.75559337211355
 20
-5.544570826155121
 30
0.0
 11
20.83900029546178
 21
-5.569896086522824
 31
0.0
  0
LINE
  5
9E1
330
18
100
AcDbEntity
  8
1
 62
     4
100
AcDbLine
 10
20.83900029546178
 20
-5.569896086522824
 30
0.0
 11
21.45199923205832
 21
-5.723678020538084
 31
0.0
  0
LINE
  5
9E2
330
18
100
AcDbEntity
  8
1
 62
     4
100
AcDbLine
 10
21.45199923205832
 20
-5.723678020538084
 30
0.0
 11
22.06499787007214
 21
-5.844221913254043
 31
0.0
  0
LINE
  5
9E3
330
18
100
AcDbEntity
  8
1
 62
     4
100
AcDbLine
 10
22.06499787007214
 20
-5.844221913254043
 30
0.0
 11
22.67799582940726
 21
-5.930827798809322
 31
0.0
  0
LINE
  5
9E4
330
18
100
AcDbEntity
  8
1
 62
     4
100
AcDbLine
 10
22.67799582940726
 20
-5.930827798809322
 30
0.0
 11
23.29099365936979
 21
-5.982992570198862
 31
0.0
  0
LINE
  5
9E5
330
18
100
AcDbEntity
  8
1
 62
     4
100
AcDbLine
 10
23.29099365936979
 20
-5.982992570198862
 30
0.0
 11
23.90396224157045
 21
-6.000414430831807
 31
0.0
  0
LINE
  5
9E6
330
18
100
AcDbEntity
  8
1
 62
     4
100
AcDbLine
 10
58.0
 20
3.6354894512441
 30
0.0
 11
58.0
 21
2.768331959248483
 31
0.0
  0
LINE
  5
9E7
330
18
100
AcDbEntity
  8
1
 62
     4
100
AcDbLine
 10
58.0
 20
0.026713796260393
 30
0.0
 11
58.0
 21
0.0430085782118543
 31
0.0
  0
LINE
  5
9E8
330
18
100
AcDbEntity
  8
1
 62
     4
100
AcDbLine
 10
57.82
 20
0.1786229757512789
 30
0.0
 11
54.72194434225073
 21
2.419182945287233
 31
0.0
  0
LINE
  5
9E9
330
18
100
AcDbEntity
  8
1
 62
     4
100
AcDbLine
 10
54.72194434225073
 20
2.419182945287233
 30
0.0
 11
53.17293127404717
 21
3.425476640197651
 31
0.0
  0
LINE
  5
9EA
330
18
100
AcDbEntity
  8
1
 62
     4
100
AcDbLine
 10
53.17293127404717
 20
3.425476640197651
 30
0.0
 11
52.22482597559672
 21
3.98587241233948
 31
0.0
  0
LINE
  5
9EB
330
18
100
AcDbEntity
  8
1
 62
     4
100
AcDbLine
 10
51.89747365397558
 20
4.217459655789096
 30
0.0
 11
51.62389691054852
 21
4.305067513329277
 31
0.0
  0
LINE
  5
9EC
330
18
100
AcDbEntity
  8
1
 62
     4
100
AcDbLine
 10
51.62389691054852
 20
4.305067513329277
 30
0.0
 11
50.84938475356446
 21
4.686957759828483
 31
0.0
  0
LINE
  5
9ED
330
18
100
AcDbEntity
  8
1
 62
     4
100
AcDbLine
 10
50.84938475356446
 20
4.686957759828483
 30
0.0
 11
50.07488174859918
 21
5.025399468089217
 31
0.0
  0
LINE
  5
9EE
330
18
100
AcDbEntity
  8
1
 62
     4
100
AcDbLine
 10
50.07488174859918
 20
5.025399468089217
 30
0.0
 11
49.30037059903887
 21
5.317263306636528
 31
0.0
  0
LINE
  5
9EF
330
18
100
AcDbEntity
  8
1
 62
     4
100
AcDbLine
 10
49.30037059903887
 20
5.317263306636528
 30
0.0
 11
48.5258532604354
 21
5.559842976080306
 31
0.0
  0
LINE
  5
9F0
330
18
100
AcDbEntity
  8
1
 62
     4
100
AcDbLine
 10
48.5258532604354
 20
5.559842976080306
 30
0.0
 11
47.75133658869282
 21
5.750887796479504
 31
0.0
  0
LINE
  5
9F1
330
18
100
AcDbEntity
  8
1
 62
     4
100
AcDbLine
 10
47.75133658869282
 20
5.750887796479504
 30
0.0
 11
46.97682760592027
 21
5.888625821921517
 31
0.0
  0
LINE
  5
9F2
330
18
100
AcDbEntity
  8
1
 62
     4
100
AcDbLine
 10
46.97682760592027
 20
5.888625821921517
 30
0.0
 11
46.58957294169042
 21
5.937085642900616
 31
0.0
  0
LINE
  5
9F3
330
18
100
AcDbEntity
  8
1
 62
     4
100
AcDbLine
 10
46.58957294169042
 20
5.937085642900616
 30
0.0
 11
46.20232414990133
 21
5.971781118422017
 31
0.0
  0
LINE
  5
9F4
330
18
100
AcDbEntity
  8
1
 62
     4
100
AcDbLine
 10
46.20232414990133
 20
5.971781118422017
 30
0.0
 11
45.81505711830057
 21
5.992630602989252
 31
0.0
  0
LINE
  5
9F5
330
18
100
AcDbEntity
  8
1
 62
     4
100
AcDbLine
 10
45.81505711830057
 20
5.992630602989252
 30
0.0
 11
45.427826274108
 21
5.999585569156253
 31
0.0
  0
LINE
  5
9F6
330
18
100
AcDbEntity
  8
1
 62
     4
100
AcDbLine
 10
57.85007986534609
 20
-5.292005057102268
 30
0.0
 11
56.95782850638989
 21
-4.945037481046268
 31
0.0
  0
LINE
  5
9F7
330
18
100
AcDbEntity
  8
1
 62
     4
100
AcDbLine
 10
56.95782850638989
 20
-4.945037481046268
 30
0.0
 11
56.09565655226404
 21
-4.552975048953313
 31
0.0
  0
LINE
  5
9F8
330
18
100
AcDbEntity
  8
1
 62
     4
100
AcDbLine
 10
56.09565655226404
 20
-4.552975048953313
 30
0.0
 11
55.23349827374705
 21
-4.108646786966991
 31
0.0
  0
LINE
  5
9F9
330
18
100
AcDbEntity
  8
1
 62
     4
100
AcDbLine
 10
55.23349827374705
 20
-4.108646786966991
 30
0.0
 11
54.37133464846795
 21
-3.617139701356518
 31
0.0
  0
LINE
  5
9FA
330
18
100
AcDbEntity
  8
1
 62
     4
100
AcDbLine
 10
54.37133464846795
 20
-3.617139701356518
 30
0.0
 11
52.22482597559672
 21
-2.210489226889686
 31
0.0
  0
LINE
  5
9FB
330
18
100
AcDbEntity
  8
1
 62
     4
100
AcDbLine
 10
51.62390507251778
 20
-1.776119008056945
 30
0.0
 11
49.19836708859329
 21
-0.0228408986316335
 31
0.0
  0
LINE
  5
9FC
330
18
100
AcDbEntity
  8
1
 62
     4
100
AcDbLine
 10
49.19836708859329
 20
-0.0228408986316335
 30
0.0
 11
46.61187464660506
 21
1.874961100659659
 31
0.0
  0
LINE
  5
9FD
330
18
100
AcDbEntity
  8
1
 62
     4
100
AcDbLine
 10
46.61187464660506
 20
1.874961100659659
 30
0.0
 11
45.31862804088286
 21
2.763358467824711
 31
0.0
  0
LINE
  5
9FE
330
18
100
AcDbEntity
  8
1
 62
     4
100
AcDbLine
 10
45.31862804088286
 20
2.763358467824711
 30
0.0
 11
44.02538060164009
 21
3.580434084068753
 31
0.0
  0
LINE
  5
9FF
330
18
100
AcDbEntity
  8
1
 62
     4
100
AcDbLine
 10
58.0
 20
0.026713796260393
 30
0.0
 11
58.0
 21
-5.119637362827787
 31
0.0
  0
LINE
  5
A00
330
18
100
AcDbEntity
  8
1
 62
     4
100
AcDbLine
 10
20.75559337211355
 20
2.273704585148648
 30
0.0
 11
21.19201672102688
 21
1.984816055716418
 31
0.0
  0
LINE
  5
A01
330
18
100
AcDbEntity
  8
1
 62
     4
100
AcDbLine
 10
21.19201672102688
 20
1.984816055716418
 30
0.0
 11
25.5760418832797
 21
-1.238972610166974
 31
0.0
  0
LINE
  5
A02
330
18
100
AcDbEntity
  8
1
 62
     4
100
AcDbLine
 10
25.5760418832797
 20
-1.238972610166974
 30
0.0
 11
27.76806487745769
 21
-2.773733697656362
 31
0.0
  0
LINE
  5
A03
330
18
100
AcDbEntity
  8
1
 62
     4
100
AcDbLine
 10
27.76806487745769
 20
-2.773733697656362
 30
0.0
 11
28.86408247725292
 21
-3.470908531452227
 31
0.0
  0
LINE
  5
A04
330
18
100
AcDbEntity
  8
1
 62
     4
100
AcDbLine
 10
28.86408247725292
 20
-3.470908531452227
 30
0.0
 11
29.96008701231666
 21
-4.103714353087061
 31
0.0
  0
LINE
  5
A05
330
18
100
AcDbEntity
  8
1
 62
     4
100
AcDbLine
 10
29.96008701231666
 20
-4.103714353087061
 30
0.0
 11
31.05609602692759
 21
-4.660426203083408
 31
0.0
  0
LINE
  5
A06
330
18
100
AcDbEntity
  8
1
 62
     4
100
AcDbLine
 10
31.05609602692759
 20
-4.660426203083408
 30
0.0
 11
31.60410837033573
 21
-4.906960654127954
 31
0.0
  0
LINE
  5
A07
330
18
100
AcDbEntity
  8
1
 62
     4
100
AcDbLine
 10
31.60410837033573
 20
-4.906960654127954
 30
0.0
 11
32.15211885607148
 21
-5.130719306422538
 31
0.0
  0
LINE
  5
A08
330
18
100
AcDbEntity
  8
1
 62
     4
100
AcDbLine
 10
32.15211885607148
 20
-5.130719306422538
 30
0.0
 11
32.70012427966533
 21
-5.330661714854956
 31
0.0
  0
LINE
  5
A09
330
18
100
AcDbEntity
  8
1
 62
     4
100
AcDbLine
 10
32.70012427966533
 20
-5.330661714854956
 30
0.0
 11
33.24812715545903
 21
-5.505861216043255
 31
0.0
  0
LINE
  5
A0A
330
18
100
AcDbEntity
  8
1
 62
     4
100
AcDbLine
 10
33.24812715545903
 20
-5.505861216043255
 30
0.0
 11
33.79612882460618
 21
-5.655506092961385
 31
0.0
  0
LINE
  5
A0B
330
18
100
AcDbEntity
  8
1
 62
     4
100
AcDbLine
 10
33.79612882460618
 20
-5.655506092961385
 30
0.0
 11
34.34413181699886
 21
-5.778902004738557
 31
0.0
  0
LINE
  5
A0C
330
18
100
AcDbEntity
  8
1
 62
     4
100
AcDbLine
 10
34.34413181699886
 20
-5.778902004738557
 30
0.0
 11
34.89213821368375
 21
-5.875476252064402
 31
0.0
  0
LINE
  5
A0D
330
18
100
AcDbEntity
  8
1
 62
     4
100
AcDbLine
 10
34.89213821368375
 20
-5.875476252064402
 30
0.0
 11
35.44014891808732
 21
-5.944780188531741
 31
0.0
  0
LINE
  5
A0E
330
18
100
AcDbEntity
  8
1
 62
     4
100
AcDbLine
 10
35.44014891808732
 20
-5.944780188531741
 30
0.0
 11
35.98815996047308
 21
-5.986490336678293
 31
0.0
  0
LINE
  5
A0F
330
18
100
AcDbEntity
  8
1
 62
     4
100
AcDbLine
 10
35.98815996047308
 20
-5.986490336678293
 30
0.0
 11
36.53613591729031
 21
-6.000414430783036
 31
0.0
  0
LINE
  5
A11
330
18
100
AcDbEntity
  8
1
 62
     4
100
AcDbLine
 10
36.53613591729031
 20
-6.000414430783036
 30
0.0
 11
37.09186902950833
 21
-5.986093273514787
 31
0.0
  0
LINE
  5
A12
330
18
100
AcDbEntity
  8
1
 62
     4
100
AcDbLine
 10
37.09186902950833
 20
-5.986093273514787
 30
0.0
 11
37.64759895549796
 21
-5.943199417120987
 31
0.0
  0
LINE
  5
A13
330
18
100
AcDbEntity
  8
1
 62
     4
100
AcDbLine
 10
37.64759895549796
 20
-5.943199417120987
 30
0.0
 11
38.20332632174233
 21
-5.87193820260765
 31
0.0
  0
LINE
  5
A14
330
18
100
AcDbEntity
  8
1
 62
     4
100
AcDbLine
 10
38.20332632174233
 20
-5.87193820260765
 30
0.0
 11
38.75905255327193
 21
-5.772649734220669
 31
0.0
  0
LINE
  5
A15
330
18
100
AcDbEntity
  8
1
 62
     4
100
AcDbLine
 10
38.75905255327193
 20
-5.772649734220669
 30
0.0
 11
39.16816517281223
 21
-5.679272107197991
 31
0.0
  0
LINE
  5
A17
330
18
100
AcDbEntity
  8
1
 62
     4
100
AcDbLine
 10
39.76908607589118
 20
-5.528639856880269
 30
0.0
 11
40.42624427276614
 21
-5.312010432134631
 31
0.0
  0
LINE
  5
A18
330
18
100
AcDbEntity
  8
1
 62
     4
100
AcDbLine
 10
40.42624427276614
 20
-5.312010432134631
 30
0.0
 11
40.98198115151601
 21
-5.106647722622858
 31
0.0
  0
LINE
  5
A19
330
18
100
AcDbEntity
  8
1
 62
     4
100
AcDbLine
 10
32.7956523654478
 20
-6.000414430843745
 30
0.0
 11
36.53613591729031
 21
-6.000414430843745
 31
0.0
  0
LINE
  5
A1A
330
18
100
AcDbEntity
  8
1
 62
     4
100
AcDbLine
 10
45.42782627410701
 20
-6.000414430830343
 30
0.0
 11
45.03306743161851
 21
-5.993186056286369
 31
0.0
  0
LINE
  5
A1B
330
18
100
AcDbEntity
  8
1
 62
     4
100
AcDbLine
 10
45.03306743161851
 20
-5.993186056286369
 30
0.0
 11
44.63831984119145
 21
-5.971522614279092
 31
0.0
  0
LINE
  5
A1C
330
18
100
AcDbEntity
  8
1
 62
     4
100
AcDbLine
 10
44.63831984119145
 20
-5.971522614279092
 30
0.0
 11
44.24355189186806
 21
-5.935472297269557
 31
0.0
  0
LINE
  5
A1D
330
18
100
AcDbEntity
  8
1
 62
     4
100
AcDbLine
 10
44.24355189186806
 20
-5.935472297269557
 30
0.0
 11
43.84880257612047
 21
-5.885124797519812
 31
0.0
  0
LINE
  5
A1E
330
18
100
AcDbEntity
  8
1
 62
     4
100
AcDbLine
 10
43.84880257612047
 20
-5.885124797519812
 30
0.0
 11
43.05928346751707
 21
-5.742053464272905
 31
0.0
  0
LINE
  5
A1F
330
18
100
AcDbEntity
  8
1
 62
     4
100
AcDbLine
 10
43.05928346751707
 20
-5.742053464272905
 30
0.0
 11
42.26977152751222
 21
-5.543688337068235
 31
0.0
  0
LINE
  5
A20
330
18
100
AcDbEntity
  8
1
 62
     4
100
AcDbLine
 10
42.26977152751222
 20
-5.543688337068235
 30
0.0
 11
41.4802680655408
 21
-5.291940468752302
 31
0.0
  0
LINE
  5
A21
330
18
100
AcDbEntity
  8
1
 62
     4
100
AcDbLine
 10
41.4802680655408
 20
-5.291940468752302
 30
0.0
 11
40.6907534548405
 21
-4.989228199569205
 31
0.0
  0
LINE
  5
A22
330
18
100
AcDbEntity
  8
1
 62
     4
100
AcDbLine
 10
40.6907534548405
 20
-4.989228199569205
 30
0.0
 11
39.90123417024857
 21
-4.638468856787437
 31
0.0
  0
LINE
  5
A23
330
18
100
AcDbEntity
  8
1
 62
     4
100
AcDbLine
 10
39.90123417024857
 20
-4.638468856787437
 30
0.0
 11
39.11171943490643
 21
-4.243044484648752
 31
0.0
  0
LINE
  5
A24
330
18
100
AcDbEntity
  8
1
 62
     4
100
AcDbLine
 10
39.11171943490643
 20
-4.243044484648752
 30
0.0
 11
38.32221615226275
 21
-3.806767014727098
 31
0.0
  0
LINE
  5
A25
330
18
100
AcDbEntity
  8
1
 62
     4
100
AcDbLine
 10
38.32221615226275
 20
-3.806767014727098
 30
0.0
 11
36.7431859118799
 21
-2.82878069215906
 31
0.0
  0
LINE
  5
A26
330
18
100
AcDbEntity
  8
1
 62
     4
100
AcDbLine
 10
36.7431859118799
 20
-2.82878069215906
 30
0.0
 11
35.16416420382807
 21
-1.742107610067253
 31
0.0
  0
LINE
  5
A27
330
18
100
AcDbEntity
  8
1
 62
     4
100
AcDbLine
 10
35.16416420382807
 20
-1.742107610067253
 30
0.0
 11
32.79565236544772
 21
-0.0004144308432611
 31
0.0
  0
LINE
  5
A28
330
18
100
AcDbEntity
  8
1
 62
     4
100
AcDbLine
 10
49.1683083511259
 20
-6.000414430841852
 30
0.0
 11
48.6128346143495
 21
-5.986106494922696
 31
0.0
  0
LINE
  5
A29
330
18
100
AcDbEntity
  8
1
 62
     4
100
AcDbLine
 10
48.6128346143495
 20
-5.986106494922696
 30
0.0
 11
48.05736272708347
 21
-5.943252460826487
 31
0.0
  0
LINE
  5
A2A
330
18
100
AcDbEntity
  8
1
 62
     4
100
AcDbLine
 10
48.05736272708347
 20
-5.943252460826487
 30
0.0
 11
47.50189296417768
 21
-5.872057088636206
 31
0.0
  0
LINE
  5
A2B
330
18
100
AcDbEntity
  8
1
 62
     4
100
AcDbLine
 10
47.50189296417768
 20
-5.872057088636206
 30
0.0
 11
46.94642349649188
 21
-5.772859838419736
 31
0.0
  0
LINE
  5
A2C
330
18
100
AcDbEntity
  8
1
 62
     4
100
AcDbLine
 10
46.94642349649188
 20
-5.772859838419736
 30
0.0
 11
46.39095215675619
 21
-5.646133527208727
 31
0.0
  0
LINE
  5
A2D
330
18
100
AcDbEntity
  8
1
 62
     4
100
AcDbLine
 10
46.39095215675619
 20
-5.646133527208727
 30
0.0
 11
45.83547808632533
 21
-5.492481275852663
 31
0.0
  0
LINE
  5
A2E
330
18
100
AcDbEntity
  8
1
 62
     4
100
AcDbLine
 10
45.83547808632533
 20
-5.492481275852663
 30
0.0
 11
45.27999945601076
 21
-5.312634594001708
 31
0.0
  0
LINE
  5
A2F
330
18
100
AcDbEntity
  8
1
 62
     4
100
AcDbLine
 10
45.27999945601076
 20
-5.312634594001708
 30
0.0
 11
44.72452122434185
 21
-5.10745360218307
 31
0.0
  0
LINE
  5
A30
330
18
100
AcDbEntity
  8
1
 62
     4
100
AcDbLine
 10
44.72452122434185
 20
-5.10745360218307
 30
0.0
 11
44.16904816744929
 21
-4.877917595248383
 31
0.0
  0
LINE
  5
A31
330
18
100
AcDbEntity
  8
1
 62
     4
100
AcDbLine
 10
44.16904816744929
 20
-4.877917595248383
 30
0.0
 11
43.05810850903797
 21
-4.350271229223745
 31
0.0
  0
LINE
  5
A32
330
18
100
AcDbEntity
  8
1
 62
     4
100
AcDbLine
 10
43.05810850903797
 20
-4.350271229223745
 30
0.0
 11
41.94716674567801
 21
-3.739744337072888
 31
0.0
  0
LINE
  5
A33
330
18
100
AcDbEntity
  8
1
 62
     4
100
AcDbLine
 10
41.94716674567801
 20
-3.739744337072888
 30
0.0
 11
40.83621163833635
 21
-3.057960931667403
 31
0.0
  0
LINE
  5
A34
330
18
100
AcDbEntity
  8
1
 62
     4
100
AcDbLine
 10
40.83621163833635
 20
-3.057960931667403
 30
0.0
 11
38.61432538876686
 21
-1.533737535884235
 31
0.0
  0
LINE
  5
A35
330
18
100
AcDbEntity
  8
1
 62
     4
100
AcDbLine
 10
38.61432538876686
 20
-1.533737535884235
 30
0.0
 11
36.39247296926447
 21
0.1067652116126543
 31
0.0
  0
LINE
  5
A36
330
18
100
AcDbEntity
  8
1
 62
     4
100
AcDbLine
 10
36.39247296926447
 20
0.1067652116126543
 30
0.0
 11
34.17056969687273
 21
1.739175380588998
 31
0.0
  0
LINE
  5
A37
330
18
100
AcDbEntity
  8
1
 62
     4
100
AcDbLine
 10
34.17056969687273
 20
1.739175380588998
 30
0.0
 11
32.78188437790349
 21
2.699967783526058
 31
0.0
  0
LINE
  5
A38
330
18
100
AcDbEntity
  8
1
 62
     4
100
AcDbLine
 10
32.78188437790349
 20
2.699967783526058
 30
0.0
 11
31.39320679131529
 21
3.580434940627891
 31
0.0
  0
LINE
  5
A39
330
18
100
AcDbEntity
  8
1
 62
     4
100
AcDbLine
 10
45.42782627410701
 20
-6.000414430843745
 30
0.0
 11
49.1683083511259
 21
-6.000414430843745
 31
0.0
  0
LINE
  5
A3A
330
18
100
AcDbEntity
  8
1
 62
     4
100
AcDbLine
 10
23.90396224157045
 20
-6.000414430831807
 30
0.0
 11
24.45969606899728
 21
-5.986093314981903
 31
0.0
  0
LINE
  5
A3B
330
18
100
AcDbEntity
  8
1
 62
     4
100
AcDbLine
 10
24.45969606899728
 20
-5.986093314981903
 30
0.0
 11
25.01542568727601
 21
-5.9431993236625
 31
0.0
  0
LINE
  5
A3C
330
18
100
AcDbEntity
  8
1
 62
     4
100
AcDbLine
 10
25.01542568727601
 20
-5.9431993236625
 30
0.0
 11
25.8490164038089
 21
-5.822293815745457
 31
0.0
  0
LINE
  5
A3F
330
18
100
AcDbEntity
  8
1
 62
     4
100
AcDbLine
 10
26.44993730688785
 20
-5.671661565427736
 30
0.0
 11
27.23833723866557
 21
-5.492017208322777
 31
0.0
  0
LINE
  5
A40
330
18
100
AcDbEntity
  8
1
 62
     4
100
AcDbLine
 10
27.23833723866557
 20
-5.492017208322777
 30
0.0
 11
27.79407077001574
 21
-5.312010376858346
 31
0.0
  0
LINE
  5
A41
330
18
100
AcDbEntity
  8
1
 62
     4
100
AcDbLine
 10
27.79407077001574
 20
-5.312010376858346
 30
0.0
 11
28.34980728629977
 21
-5.106647219451097
 31
0.0
  0
LINE
  5
A42
330
18
100
AcDbEntity
  8
1
 62
     4
100
AcDbLine
 10
20.75559337211355
 20
-6.000414430843745
 30
0.0
 11
23.90396224157045
 21
-6.000414430843745
 31
0.0
  0
LINE
  5
A43
330
18
100
AcDbEntity
  8
1
 62
     4
100
AcDbLine
 10
20.75559337211355
 20
-0.4309198127216715
 30
0.0
 11
23.3215319633108
 21
-2.296521797966144
 31
0.0
  0
LINE
  5
A44
330
18
100
AcDbEntity
  8
1
 62
     4
100
AcDbLine
 10
23.3215319633108
 20
-2.296521797966144
 30
0.0
 11
24.90054805701661
 21
-3.333837989052613
 31
0.0
  0
LINE
  5
A45
330
18
100
AcDbEntity
  8
1
 62
     4
100
AcDbLine
 10
24.90054805701661
 20
-3.333837989052613
 30
0.0
 11
26.47958334429783
 21
-4.243064224781964
 31
0.0
  0
LINE
  5
A46
330
18
100
AcDbEntity
  8
1
 62
     4
100
AcDbLine
 10
26.47958334429783
 20
-4.243064224781964
 30
0.0
 11
27.26908784309825
 21
-4.638482566174164
 31
0.0
  0
LINE
  5
A47
330
18
100
AcDbEntity
  8
1
 62
     4
100
AcDbLine
 10
27.26908784309825
 20
-4.638482566174164
 30
0.0
 11
28.05859713952841
 21
-4.98923567480462
 31
0.0
  0
LINE
  5
A48
330
18
100
AcDbEntity
  8
1
 62
     4
100
AcDbLine
 10
28.05859713952841
 20
-4.98923567480462
 30
0.0
 11
28.84811531427044
 21
-5.291947149012659
 31
0.0
  0
LINE
  5
A49
330
18
100
AcDbEntity
  8
1
 62
     4
100
AcDbLine
 10
28.84811531427044
 20
-5.291947149012659
 30
0.0
 11
29.63763289440957
 21
-5.543697929531403
 31
0.0
  0
LINE
  5
A4A
330
18
100
AcDbEntity
  8
1
 62
     4
100
AcDbLine
 10
29.63763289440957
 20
-5.543697929531403
 30
0.0
 11
30.42714045902079
 21
-5.742060939838405
 31
0.0
  0
LINE
  5
A4B
330
18
100
AcDbEntity
  8
1
 62
     4
100
AcDbLine
 10
30.42714045902079
 20
-5.742060939838405
 30
0.0
 11
31.21664608314909
 21
-5.885127871138092
 31
0.0
  0
LINE
  5
A4C
330
18
100
AcDbEntity
  8
1
 62
     4
100
AcDbLine
 10
31.21664608314909
 20
-5.885127871138092
 30
0.0
 11
31.61141346363907
 21
-5.935476176922485
 31
0.0
  0
LINE
  5
A4D
330
18
100
AcDbEntity
  8
1
 62
     4
100
AcDbLine
 10
31.61141346363907
 20
-5.935476176922485
 30
0.0
 11
32.00616280424399
 21
-5.971523305006591
 31
0.0
  0
LINE
  5
A4E
330
18
100
AcDbEntity
  8
1
 62
     4
100
AcDbLine
 10
32.00616280424399
 20
-5.971523305006591
 30
0.0
 11
32.40091619185245
 21
-5.993187837120672
 31
0.0
  0
LINE
  5
A4F
330
18
100
AcDbEntity
  8
1
 62
     4
100
AcDbLine
 10
32.40091619185245
 20
-5.993187837120672
 30
0.0
 11
32.7956523654478
 21
-6.000414430794847
 31
0.0
  0
LINE
  5
A50
330
18
100
AcDbEntity
  8
1
 62
     4
100
AcDbLine
 10
53.61415404044032
 20
5.105818079337336
 30
0.0
 11
54.13988411364696
 21
5.300731703572456
 31
0.0
  0
LINE
  5
A51
330
18
100
AcDbEntity
  8
1
 62
     4
100
AcDbLine
 10
54.13988411364696
 20
5.300731703572456
 30
0.0
 11
54.66561261970642
 21
5.472997528214924
 31
0.0
  0
LINE
  5
A52
330
18
100
AcDbEntity
  8
1
 62
     4
100
AcDbLine
 10
54.66561261970642
 20
5.472997528214924
 30
0.0
 11
55.19134356884521
 21
5.621880847789006
 31
0.0
  0
LINE
  5
A53
330
18
100
AcDbEntity
  8
1
 62
     4
100
AcDbLine
 10
55.19134356884521
 20
5.621880847789006
 30
0.0
 11
55.71708078281563
 21
5.746745786459348
 31
0.0
  0
LINE
  5
A54
330
18
100
AcDbEntity
  8
1
 62
     4
100
AcDbLine
 10
55.71708078281563
 20
5.746745786459348
 30
0.0
 11
56.24282152240711
 21
5.84705676644719
 31
0.0
  0
LINE
  5
A55
330
18
100
AcDbEntity
  8
1
 62
     4
100
AcDbLine
 10
56.24282152240711
 20
5.84705676644719
 30
0.0
 11
56.76855487289099
 21
5.922383700550581
 31
0.0
  0
LINE
  5
A56
330
18
100
AcDbEntity
  8
1
 62
     4
100
AcDbLine
 10
56.76855487289099
 20
5.922383700550581
 30
0.0
 11
57.29428383853556
 21
5.972406818645987
 31
0.0
  0
LINE
  5
A57
330
18
100
AcDbEntity
  8
1
 62
     4
100
AcDbLine
 10
57.29428383853556
 20
5.972406818645987
 30
0.0
 11
57.85024122068064
 21
6.00225736344332
 31
0.0
  0
LINE
  5
A58
330
18
100
AcDbEntity
  8
1
 62
     4
100
AcDbLine
 10
56.65755492835022
 20
3.580431355640593
 30
0.0
 11
55.72140792720095
 21
4.11536179680706
 31
0.0
  0
LINE
  5
A59
330
18
100
AcDbEntity
  8
1
 62
     4
100
AcDbLine
 10
55.72140792720095
 20
4.11536179680706
 30
0.0
 11
54.78523737469799
 21
4.594591128290558
 31
0.0
  0
LINE
  5
A5A
330
18
100
AcDbEntity
  8
1
 62
     4
100
AcDbLine
 10
54.78523737469799
 20
4.594591128290558
 30
0.0
 11
53.8490890255481
 21
5.011611362371461
 31
0.0
  0
LINE
  5
A5B
330
18
100
AcDbEntity
  8
1
 62
     4
100
AcDbLine
 10
53.8490890255481
 20
5.011611362371461
 30
0.0
 11
52.91291900850982
 21
5.360796822806789
 31
0.0
  0
LINE
  5
A5C
330
18
100
AcDbEntity
  8
1
 62
     4
100
AcDbLine
 10
52.91291900850982
 20
5.360796822806789
 30
0.0
 11
52.44484631946696
 21
5.508429202306658
 31
0.0
  0
LINE
  5
A5D
330
18
100
AcDbEntity
  8
1
 62
     4
100
AcDbLine
 10
52.44484631946696
 20
5.508429202306658
 30
0.0
 11
52.22482597559672
 21
5.569055341269042
 31
0.0
  0
LINE
  5
A5E
330
18
100
AcDbEntity
  8
1
 62
     4
100
AcDbLine
 10
51.62390507251778
 20
5.720242091097269
 30
0.0
 11
51.50867900727458
 21
5.747291535625532
 31
0.0
  0
LINE
  5
A5F
330
18
100
AcDbEntity
  8
1
 62
     4
100
AcDbLine
 10
51.50867900727458
 20
5.747291535625532
 30
0.0
 11
51.04060142224398
 21
5.837705964428222
 31
0.0
  0
LINE
  5
A60
330
18
100
AcDbEntity
  8
1
 62
     4
100
AcDbLine
 10
51.04060142224398
 20
5.837705964428222
 30
0.0
 11
50.57252901103641
 21
5.908347609458487
 31
0.0
  0
LINE
  5
A61
330
18
100
AcDbEntity
  8
1
 62
     4
100
AcDbLine
 10
50.57252901103641
 20
5.908347609458487
 30
0.0
 11
50.10444830386381
 21
5.958979003127581
 31
0.0
  0
LINE
  5
A62
330
18
100
AcDbEntity
  8
1
 62
     4
100
AcDbLine
 10
50.10444830386381
 20
5.958979003127581
 30
0.0
 11
49.63635995600315
 21
5.989425768712798
 31
0.0
  0
LINE
  5
A63
330
18
100
AcDbEntity
  8
1
 62
     4
100
AcDbLine
 10
49.63635995600315
 20
5.989425768712798
 30
0.0
 11
49.1683083511247
 21
5.999585569156253
 31
0.0
  0
LINE
  5
A64
330
18
100
AcDbEntity
  8
1
 62
     4
100
AcDbLine
 10
40.98198103456007
 20
5.105818302656427
 30
0.0
 11
41.53771247664095
 21
5.311179336725571
 31
0.0
  0
LINE
  5
A65
330
18
100
AcDbEntity
  8
1
 62
     4
100
AcDbLine
 10
41.53771247664095
 20
5.311179336725571
 30
0.0
 11
42.09344279671712
 21
5.491185076432476
 31
0.0
  0
LINE
  5
A66
330
18
100
AcDbEntity
  8
1
 62
     4
100
AcDbLine
 10
42.09344279671712
 20
5.491185076432476
 30
0.0
 11
42.64917348972836
 21
5.644976935452199
 31
0.0
  0
LINE
  5
A67
330
18
100
AcDbEntity
  8
1
 62
     4
100
AcDbLine
 10
42.64917348972836
 20
5.644976935452199
 30
0.0
 11
43.20490619192738
 21
5.771820935564017
 31
0.0
  0
LINE
  5
A68
330
18
100
AcDbEntity
  8
1
 62
     4
100
AcDbLine
 10
43.20490619192738
 20
5.771820935564017
 30
0.0
 11
43.76064248236253
 21
5.871111329688456
 31
0.0
  0
LINE
  5
A69
330
18
100
AcDbEntity
  8
1
 62
     4
100
AcDbLine
 10
43.76064248236253
 20
5.871111329688456
 30
0.0
 11
44.31638271272364
 21
5.942373389554022
 31
0.0
  0
LINE
  5
A6A
330
18
100
AcDbEntity
  8
1
 62
     4
100
AcDbLine
 10
44.31638271272364
 20
5.942373389554022
 30
0.0
 11
44.87211961212849
 21
5.985265851303593
 31
0.0
  0
LINE
  5
A6B
330
18
100
AcDbEntity
  8
1
 62
     4
100
AcDbLine
 10
44.87211961212849
 20
5.985265851303593
 30
0.0
 11
45.427826274108
 21
5.999585569156253
 31
0.0
  0
LINE
  5
A6C
330
18
100
AcDbEntity
  8
1
 62
     4
100
AcDbLine
 10
44.02538060164012
 20
3.580434084068763
 30
0.0
 11
43.08922736251671
 21
4.115364890444203
 31
0.0
  0
LINE
  5
A6D
330
18
100
AcDbEntity
  8
1
 62
     4
100
AcDbLine
 10
43.08922736251671
 20
4.115364890444203
 30
0.0
 11
42.15306046220614
 21
4.594592257892523
 31
0.0
  0
LINE
  5
A6E
330
18
100
AcDbEntity
  8
1
 62
     4
100
AcDbLine
 10
42.15306046220614
 20
4.594592257892523
 30
0.0
 11
41.21691117709288
 21
5.011612261504589
 31
0.0
  0
LINE
  5
A6F
330
18
100
AcDbEntity
  8
1
 62
     4
100
AcDbLine
 10
41.21691117709288
 20
5.011612261504589
 30
0.0
 11
40.28074239038465
 21
5.360798106926233
 31
0.0
  0
LINE
  5
A70
330
18
100
AcDbEntity
  8
1
 62
     4
100
AcDbLine
 10
40.28074239038465
 20
5.360798106926233
 30
0.0
 11
39.76908607589118
 21
5.527637096283863
 31
0.0
  0
LINE
  5
A73
330
18
100
AcDbEntity
  8
1
 62
     4
100
AcDbLine
 10
39.16816517281223
 20
5.678823846112097
 30
0.0
 11
38.40842547992869
 21
5.837706784313392
 31
0.0
  0
LINE
  5
A74
330
18
100
AcDbEntity
  8
1
 62
     4
100
AcDbLine
 10
38.40842547992869
 20
5.837706784313392
 30
0.0
 11
37.94035229633929
 21
5.90834779410471
 31
0.0
  0
LINE
  5
A75
330
18
100
AcDbEntity
  8
1
 62
     4
100
AcDbLine
 10
37.94035229633929
 20
5.90834779410471
 30
0.0
 11
37.47227811469482
 21
5.958978463492039
 31
0.0
  0
LINE
  5
A76
330
18
100
AcDbEntity
  8
1
 62
     4
100
AcDbLine
 10
37.47227811469482
 20
5.958978463492039
 30
0.0
 11
37.00418912820143
 21
5.989425931463285
 31
0.0
  0
LINE
  5
A77
330
18
100
AcDbEntity
  8
1
 62
     4
100
AcDbLine
 10
37.00418912820143
 20
5.989425931463285
 30
0.0
 11
36.53613591724561
 21
5.999585569156253
 31
0.0
  0
LINE
  5
A78
330
18
100
AcDbEntity
  8
1
 62
     4
100
AcDbLine
 10
32.79565236544772
 20
-0.0004144308432611
 30
0.0
 11
29.63759979698253
 21
2.295692300994345
 31
0.0
  0
LINE
  5
A79
330
18
100
AcDbEntity
  8
1
 62
     4
100
AcDbLine
 10
29.63759979698253
 20
2.295692300994345
 30
0.0
 11
28.05858438629487
 21
3.333008254945311
 31
0.0
  0
LINE
  5
A7A
330
18
100
AcDbEntity
  8
1
 62
     4
100
AcDbLine
 10
28.05858438629487
 20
3.333008254945311
 30
0.0
 11
26.43478522517876
 21
4.246430743529348
 31
0.0
  0
LINE
  5
A7B
330
18
100
AcDbEntity
  8
1
 62
     4
100
AcDbLine
 10
25.83386432209981
 20
4.565621820080751
 30
0.0
 11
25.69004409636188
 21
4.637653289571717
 31
0.0
  0
LINE
  5
A7C
330
18
100
AcDbEntity
  8
1
 62
     4
100
AcDbLine
 10
25.69004409636188
 20
4.637653289571717
 30
0.0
 11
24.90053551876585
 21
4.988406121509816
 31
0.0
  0
LINE
  5
A7D
330
18
100
AcDbEntity
  8
1
 62
     4
100
AcDbLine
 10
24.90053551876585
 20
4.988406121509816
 30
0.0
 11
24.11101765505831
 21
5.291117568736846
 31
0.0
  0
LINE
  5
A7E
330
18
100
AcDbEntity
  8
1
 62
     4
100
AcDbLine
 10
24.11101765505831
 20
5.291117568736846
 30
0.0
 11
23.32149991490846
 21
5.542868496473046
 31
0.0
  0
LINE
  5
A7F
330
18
100
AcDbEntity
  8
1
 62
     4
100
AcDbLine
 10
23.32149991490846
 20
5.542868496473046
 30
0.0
 11
22.53199168890811
 21
5.741231779234531
 31
0.0
  0
LINE
  5
A80
330
18
100
AcDbEntity
  8
1
 62
     4
100
AcDbLine
 10
22.53199168890811
 20
5.741231779234531
 30
0.0
 11
21.74248678808267
 21
5.884298753047596
 31
0.0
  0
LINE
  5
A81
330
18
100
AcDbEntity
  8
1
 62
     4
100
AcDbLine
 10
21.74248678808267
 20
5.884298753047596
 30
0.0
 11
21.3477194049248
 21
5.934647083440602
 31
0.0
  0
LINE
  5
A82
330
18
100
AcDbEntity
  8
1
 62
     4
100
AcDbLine
 10
21.3477194049248
 20
5.934647083440602
 30
0.0
 11
20.95297045081968
 21
5.970694272532117
 31
0.0
  0
LINE
  5
A83
330
18
100
AcDbEntity
  8
1
 62
     4
100
AcDbLine
 10
20.95297045081968
 20
5.970694272532117
 30
0.0
 11
20.75559337211355
 21
5.999585569156253
 31
0.0
  0
LINE
  5
A84
330
18
100
AcDbEntity
  8
1
 62
     4
100
AcDbLine
 10
31.39320679131529
 20
3.580434940627891
 30
0.0
 11
30.45705028258038
 21
4.11536701519872
 31
0.0
  0
LINE
  5
A85
330
18
100
AcDbEntity
  8
1
 62
     4
100
AcDbLine
 10
30.45705028258038
 20
4.11536701519872
 30
0.0
 11
29.52088613809598
 21
4.594592650072923
 31
0.0
  0
LINE
  5
A86
330
18
100
AcDbEntity
  8
1
 62
     4
100
AcDbLine
 10
29.52088613809598
 20
4.594592650072923
 30
0.0
 11
28.58473514790406
 21
5.011613154817617
 31
0.0
  0
LINE
  5
A87
330
18
100
AcDbEntity
  8
1
 62
     4
100
AcDbLine
 10
28.58473514790406
 20
5.011613154817617
 30
0.0
 11
27.64856775789307
 21
5.360798137975675
 31
0.0
  0
LINE
  5
A88
330
18
100
AcDbEntity
  8
1
 62
     4
100
AcDbLine
 10
27.64856775789307
 20
5.360798137975675
 30
0.0
 11
27.18049211030818
 21
5.508431234998869
 31
0.0
  0
LINE
  5
A89
330
18
100
AcDbEntity
  8
1
 62
     4
100
AcDbLine
 10
27.18049211030818
 20
5.508431234998869
 30
0.0
 11
26.43478522517876
 21
5.672995388193625
 31
0.0
  0
LINE
  5
A8C
330
18
100
AcDbEntity
  8
1
 62
     4
100
AcDbLine
 10
25.83386432209981
 20
5.82418213802186
 30
0.0
 11
25.30817775770086
 21
5.908347958677919
 31
0.0
  0
LINE
  5
A8D
330
18
100
AcDbEntity
  8
1
 62
     4
100
AcDbLine
 10
25.30817775770086
 20
5.908347958677919
 30
0.0
 11
24.84010453051184
 21
5.958978180705226
 31
0.0
  0
LINE
  5
A8E
330
18
100
AcDbEntity
  8
1
 62
     4
100
AcDbLine
 10
24.84010453051184
 20
5.958978180705226
 30
0.0
 11
24.37201836504288
 21
5.989425867777807
 31
0.0
  0
LINE
  5
A8F
330
18
100
AcDbEntity
  8
1
 62
     4
100
AcDbLine
 10
24.37201836504288
 20
5.989425867777807
 30
0.0
 11
23.90396224156525
 21
5.999585569156253
 31
0.0
  0
LINE
  5
A90
330
18
100
AcDbEntity
  8
1
 62
     4
100
AcDbLine
 10
53.61415453077314
 20
-5.106646748924563
 30
0.0
 11
53.05842395461832
 21
-5.312007722186669
 31
0.0
  0
LINE
  5
A91
330
18
100
AcDbEntity
  8
1
 62
     4
100
AcDbLine
 10
53.05842395461832
 20
-5.312007722186669
 30
0.0
 11
52.50269250939576
 21
-5.492014024220646
 31
0.0
  0
LINE
  5
A92
330
18
100
AcDbEntity
  8
1
 62
     4
100
AcDbLine
 10
52.50269250939576
 20
-5.492014024220646
 30
0.0
 11
52.22482597559672
 21
-5.568910527049363
 31
0.0
  0
LINE
  5
A93
330
18
100
AcDbEntity
  8
1
 62
     4
100
AcDbLine
 10
51.62390507251778
 20
-5.719542777367084
 30
0.0
 11
51.39122188519835
 21
-5.772651697649954
 31
0.0
  0
LINE
  5
A94
330
18
100
AcDbEntity
  8
1
 62
     4
100
AcDbLine
 10
51.39122188519835
 20
-5.772651697649954
 30
0.0
 11
50.8354808446875
 21
-5.871941905548133
 31
0.0
  0
LINE
  5
A95
330
18
100
AcDbEntity
  8
1
 62
     4
100
AcDbLine
 10
50.8354808446875
 20
-5.871941905548133
 30
0.0
 11
50.27974480064173
 21
-5.943202687165443
 31
0.0
  0
LINE
  5
A96
330
18
100
AcDbEntity
  8
1
 62
     4
100
AcDbLine
 10
50.27974480064173
 20
-5.943202687165443
 30
0.0
 11
49.72401181482727
 21
-5.986094457912012
 31
0.0
  0
LINE
  5
A97
330
18
100
AcDbEntity
  8
1
 62
     4
100
AcDbLine
 10
49.72401181482727
 20
-5.986094457912012
 30
0.0
 11
49.1683083511259
 21
-6.000414430841852
 31
0.0
  0
LINE
  5
A98
330
18
100
AcDbEntity
  8
1
 62
     4
100
AcDbLine
 10
45.42782627410889
 20
-0.000414430845154
 30
0.0
 11
42.26977302298201
 21
2.295692797335909
 31
0.0
  0
LINE
  5
A99
330
18
100
AcDbEntity
  8
1
 62
     4
100
AcDbLine
 10
42.26977302298201
 20
2.295692797335909
 30
0.0
 11
39.76908607589118
 21
3.890542049741178
 31
0.0
  0
LINE
  5
A9B
330
18
100
AcDbEntity
  8
1
 62
     4
100
AcDbLine
 10
39.16815701084296
 20
4.209737150730973
 30
0.0
 11
38.32221951706305
 21
4.637652413895483
 31
0.0
  0
LINE
  5
A9C
330
18
100
AcDbEntity
  8
1
 62
     4
100
AcDbLine
 10
38.32221951706305
 20
4.637652413895483
 30
0.0
 11
37.53270840940215
 21
4.988406380885023
 31
0.0
  0
LINE
  5
A9D
330
18
100
AcDbEntity
  8
1
 62
     4
100
AcDbLine
 10
37.53270840940215
 20
4.988406380885023
 30
0.0
 11
36.74319002481104
 21
5.291118093989283
 31
0.0
  0
LINE
  5
A9E
330
18
100
AcDbEntity
  8
1
 62
     4
100
AcDbLine
 10
36.74319002481104
 20
5.291118093989283
 30
0.0
 11
35.95367384790606
 21
5.542868620037525
 31
0.0
  0
LINE
  5
A9F
330
18
100
AcDbEntity
  8
1
 62
     4
100
AcDbLine
 10
35.95367384790606
 20
5.542868620037525
 30
0.0
 11
35.16416906395116
 21
5.741231035844037
 31
0.0
  0
LINE
  5
AA0
330
18
100
AcDbEntity
  8
1
 62
     4
100
AcDbLine
 10
35.16416906395116
 20
5.741231035844037
 30
0.0
 11
34.37466131850495
 21
5.884298492837261
 31
0.0
  0
LINE
  5
AA1
330
18
100
AcDbEntity
  8
1
 62
     4
100
AcDbLine
 10
34.37466131850495
 20
5.884298492837261
 30
0.0
 11
33.97989502742415
 21
5.934647021098101
 31
0.0
  0
LINE
  5
AA2
330
18
100
AcDbEntity
  8
1
 62
     4
100
AcDbLine
 10
33.97989502742415
 20
5.934647021098101
 30
0.0
 11
33.58514401813253
 21
5.970694276499409
 31
0.0
  0
LINE
  5
AA3
330
18
100
AcDbEntity
  8
1
 62
     4
100
AcDbLine
 10
33.58514401813253
 20
5.970694276499409
 30
0.0
 11
33.1903934440069
 21
5.992358742676718
 31
0.0
  0
LINE
  5
AA4
330
18
100
AcDbEntity
  8
1
 62
     4
100
AcDbLine
 10
33.1903934440069
 20
5.992358742676718
 30
0.0
 11
32.79565236544746
 21
5.999585569156253
 31
0.0
  0
LINE
  5
AA5
330
18
100
AcDbEntity
  8
1
 62
     4
100
AcDbLine
 10
28.34980699441304
 20
5.105818243408334
 30
0.0
 11
28.90553858838488
 21
5.311179304130215
 31
0.0
  0
LINE
  5
AA6
330
18
100
AcDbEntity
  8
1
 62
     4
100
AcDbLine
 10
28.90553858838488
 20
5.311179304130215
 30
0.0
 11
29.46126890343996
 21
5.491185060355318
 31
0.0
  0
LINE
  5
AA7
330
18
100
AcDbEntity
  8
1
 62
     4
100
AcDbLine
 10
29.46126890343996
 20
5.491185060355318
 30
0.0
 11
30.01699957612407
 21
5.644976869411245
 31
0.0
  0
LINE
  5
AA8
330
18
100
AcDbEntity
  8
1
 62
     4
100
AcDbLine
 10
30.01699957612407
 20
5.644976869411245
 30
0.0
 11
30.57273208391909
 21
5.771820856889213
 31
0.0
  0
LINE
  5
AA9
330
18
100
AcDbEntity
  8
1
 62
     4
100
AcDbLine
 10
30.57273208391909
 20
5.771820856889213
 30
0.0
 11
31.12846809710914
 21
5.871111243640933
 31
0.0
  0
LINE
  5
AAA
330
18
100
AcDbEntity
  8
1
 62
     4
100
AcDbLine
 10
31.12846809710914
 20
5.871111243640933
 30
0.0
 11
31.68420834351143
 21
5.942373332085137
 31
0.0
  0
LINE
  5
AAB
330
18
100
AcDbEntity
  8
1
 62
     4
100
AcDbLine
 10
31.68420834351143
 20
5.942373332085137
 30
0.0
 11
32.23994548308773
 21
5.98526585894896
 31
0.0
  0
LINE
  5
AAC
330
18
100
AcDbEntity
  8
1
 62
     4
100
AcDbLine
 10
32.23994548308773
 20
5.98526585894896
 30
0.0
 11
32.79565236544749
 21
5.999585569156253
 31
0.0
  0
LINE
  5
AAD
330
18
100
AcDbEntity
  8
1
 62
     4
100
AcDbLine
 10
9.999999999999994
 20
5.999585569156253
 30
0.0
 11
11.67028759315485
 21
5.999585569156253
 31
0.0
  0
LINE
  5
AAE
330
18
100
AcDbEntity
  8
1
 62
     4
100
AcDbLine
 10
20.94920879420984
 20
5.992630602989238
 30
0.0
 11
20.56197795001728
 21
5.999585569156253
 31
0.0
  0
LINE
  5
AAF
330
18
100
AcDbEntity
  8
1
 62
     4
100
AcDbLine
 10
20.75559337211355
 20
2.273704585148648
 30
0.0
 11
19.15953227754936
 21
3.580434084068753
 31
0.0
  0
LINE
  5
AB4
330
18
100
AcDbEntity
  8
1
 62
     4
100
AcDbLine
 10
9.999999999999994
 20
-5.870843228955397
 30
0.0
 11
10.026289889593
 21
-5.875476252064402
 31
0.0
  0
LINE
  5
AB5
330
18
100
AcDbEntity
  8
1
 62
     4
100
AcDbLine
 10
10.026289889593
 20
-5.875476252064402
 30
0.0
 11
10.57430059399658
 21
-5.944780188531741
 31
0.0
  0
LINE
  5
AB6
330
18
100
AcDbEntity
  8
1
 62
     4
100
AcDbLine
 10
10.57430059399658
 20
-5.944780188531741
 30
0.0
 11
11.12231163638234
 21
-5.986490336678293
 31
0.0
  0
LINE
  5
AB7
330
18
100
AcDbEntity
  8
1
 62
     4
100
AcDbLine
 10
11.12231163638234
 20
-5.986490336678293
 30
0.0
 11
11.67028759319957
 21
-6.000414430783036
 31
0.0
  0
LINE
  5
AB8
330
18
100
AcDbEntity
  8
1
 62
     4
100
AcDbLine
 10
11.67028759319957
 20
-6.000414430783036
 30
0.0
 11
12.22602070541759
 21
-5.986093273514795
 31
0.0
  0
LINE
  5
AB9
330
18
100
AcDbEntity
  8
1
 62
     4
100
AcDbLine
 10
12.22602070541759
 20
-5.986093273514795
 30
0.0
 11
12.78175063140722
 21
-5.943199417120987
 31
0.0
  0
LINE
  5
ABA
330
18
100
AcDbEntity
  8
1
 62
     4
100
AcDbLine
 10
12.78175063140722
 20
-5.943199417120987
 30
0.0
 11
13.33747799765159
 21
-5.87193820260765
 31
0.0
  0
LINE
  5
ABB
330
18
100
AcDbEntity
  8
1
 62
     4
100
AcDbLine
 10
13.33747799765159
 20
-5.87193820260765
 30
0.0
 11
13.8932042291812
 21
-5.772649734220669
 31
0.0
  0
LINE
  5
ABC
330
18
100
AcDbEntity
  8
1
 62
     4
100
AcDbLine
 10
13.8932042291812
 20
-5.772649734220669
 30
0.0
 11
14.44893205901693
 21
-5.645808019880905
 31
0.0
  0
LINE
  5
ABD
330
18
100
AcDbEntity
  8
1
 62
     4
100
AcDbLine
 10
14.44893205901693
 20
-5.645808019880905
 30
0.0
 11
15.00466173100299
 21
-5.49201714785638
 31
0.0
  0
LINE
  5
ABE
330
18
100
AcDbEntity
  8
1
 62
     4
100
AcDbLine
 10
15.00466173100299
 20
-5.49201714785638
 30
0.0
 11
15.56039594867542
 21
-5.312010432134631
 31
0.0
  0
LINE
  5
ABF
330
18
100
AcDbEntity
  8
1
 62
     4
100
AcDbLine
 10
15.56039594867542
 20
-5.312010432134631
 30
0.0
 11
16.11613282742527
 21
-5.106647722622858
 31
0.0
  0
LINE
  5
AC0
330
18
100
AcDbEntity
  8
1
 62
     4
100
AcDbLine
 10
9.999999999999994
 20
-6.000414430843745
 30
0.0
 11
11.67028759319957
 21
-6.000414430843745
 31
0.0
  0
LINE
  5
AC1
330
18
100
AcDbEntity
  8
1
 62
     4
100
AcDbLine
 10
20.75559337211355
 20
-6.000414430843745
 30
0.0
 11
20.16721910752778
 21
-5.993186056286369
 31
0.0
  0
LINE
  5
AC2
330
18
100
AcDbEntity
  8
1
 62
     4
100
AcDbLine
 10
20.16721910752778
 20
-5.993186056286369
 30
0.0
 11
19.77247151710072
 21
-5.971522614279102
 31
0.0
  0
LINE
  5
AC3
330
18
100
AcDbEntity
  8
1
 62
     4
100
AcDbLine
 10
19.77247151710072
 20
-5.971522614279102
 30
0.0
 11
19.37770356777734
 21
-5.935472297269557
 31
0.0
  0
LINE
  5
AC4
330
18
100
AcDbEntity
  8
1
 62
     4
100
AcDbLine
 10
19.37770356777734
 20
-5.935472297269557
 30
0.0
 11
18.98295425202972
 21
-5.885124797519812
 31
0.0
  0
LINE
  5
AC5
330
18
100
AcDbEntity
  8
1
 62
     4
100
AcDbLine
 10
18.98295425202972
 20
-5.885124797519812
 30
0.0
 11
18.19343514342634
 21
-5.742053464272905
 31
0.0
  0
LINE
  5
AC6
330
18
100
AcDbEntity
  8
1
 62
     4
100
AcDbLine
 10
18.19343514342634
 20
-5.742053464272905
 30
0.0
 11
17.40392320342149
 21
-5.543688337068235
 31
0.0
  0
LINE
  5
AC7
330
18
100
AcDbEntity
  8
1
 62
     4
100
AcDbLine
 10
17.40392320342149
 20
-5.543688337068235
 30
0.0
 11
16.61441974145005
 21
-5.291940468752302
 31
0.0
  0
LINE
  5
AC8
330
18
100
AcDbEntity
  8
1
 62
     4
100
AcDbLine
 10
16.61441974145005
 20
-5.291940468752302
 30
0.0
 11
15.82490513074977
 21
-4.989228199569205
 31
0.0
  0
LINE
  5
AC9
330
18
100
AcDbEntity
  8
1
 62
     4
100
AcDbLine
 10
15.82490513074977
 20
-4.989228199569205
 30
0.0
 11
15.03538584615782
 21
-4.638468856787437
 31
0.0
  0
LINE
  5
ACA
330
18
100
AcDbEntity
  8
1
 62
     4
100
AcDbLine
 10
15.03538584615782
 20
-4.638468856787437
 30
0.0
 11
14.24587111081567
 21
-4.243044484648752
 31
0.0
  0
LINE
  5
ACB
330
18
100
AcDbEntity
  8
1
 62
     4
100
AcDbLine
 10
14.24587111081567
 20
-4.243044484648752
 30
0.0
 11
13.45636782817201
 21
-3.806767014727098
 31
0.0
  0
LINE
  5
ACC
330
18
100
AcDbEntity
  8
1
 62
     4
100
AcDbLine
 10
13.45636782817201
 20
-3.806767014727098
 30
0.0
 11
11.87733758778917
 21
-2.82878069215906
 31
0.0
  0
LINE
  5
ACD
330
18
100
AcDbEntity
  8
1
 62
     4
100
AcDbLine
 10
11.87733758778917
 20
-2.82878069215906
 30
0.0
 11
10.29831587973733
 21
-1.742107610067253
 31
0.0
  0
LINE
  5
ACE
330
18
100
AcDbEntity
  8
1
 62
     4
100
AcDbLine
 10
10.29831587973733
 20
-1.742107610067253
 30
0.0
 11
9.999999999999994
 21
-1.522740020438473
 31
0.0
  0
LINE
  5
ACF
330
18
100
AcDbEntity
  8
1
 62
     4
100
AcDbLine
 10
20.75559337211355
 20
-5.544570826155121
 30
0.0
 11
19.30319984335854
 21
-4.877917595248383
 31
0.0
  0
LINE
  5
AD0
330
18
100
AcDbEntity
  8
1
 62
     4
100
AcDbLine
 10
19.30319984335854
 20
-4.877917595248383
 30
0.0
 11
18.19226018494725
 21
-4.350271229223745
 31
0.0
  0
LINE
  5
AD1
330
18
100
AcDbEntity
  8
1
 62
     4
100
AcDbLine
 10
18.19226018494725
 20
-4.350271229223745
 30
0.0
 11
17.0813184215873
 21
-3.739744337072888
 31
0.0
  0
LINE
  5
AD2
330
18
100
AcDbEntity
  8
1
 62
     4
100
AcDbLine
 10
17.0813184215873
 20
-3.739744337072888
 30
0.0
 11
15.9703633142456
 21
-3.057960931667403
 31
0.0
  0
LINE
  5
AD3
330
18
100
AcDbEntity
  8
1
 62
     4
100
AcDbLine
 10
15.9703633142456
 20
-3.057960931667403
 30
0.0
 11
13.74847706467612
 21
-1.533737535884235
 31
0.0
  0
LINE
  5
AD4
330
18
100
AcDbEntity
  8
1
 62
     4
100
AcDbLine
 10
13.74847706467612
 20
-1.533737535884235
 30
0.0
 11
11.52662464517374
 21
0.1067652116126456
 31
0.0
  0
LINE
  5
AD5
330
18
100
AcDbEntity
  8
1
 62
     4
100
AcDbLine
 10
11.52662464517374
 20
0.1067652116126456
 30
0.0
 11
9.999999999999994
 21
1.22836110912845
 31
0.0
  0
LINE
  5
AD9
330
18
100
AcDbEntity
  8
1
 62
     4
100
AcDbLine
 10
16.11613271046932
 20
5.10581830265642
 30
0.0
 11
16.67186415255021
 21
5.311179336725571
 31
0.0
  0
LINE
  5
ADA
330
18
100
AcDbEntity
  8
1
 62
     4
100
AcDbLine
 10
16.67186415255021
 20
5.311179336725571
 30
0.0
 11
17.22759447262638
 21
5.491185076432469
 31
0.0
  0
LINE
  5
ADB
330
18
100
AcDbEntity
  8
1
 62
     4
100
AcDbLine
 10
17.22759447262638
 20
5.491185076432469
 30
0.0
 11
17.78332516563763
 21
5.644976935452199
 31
0.0
  0
LINE
  5
ADC
330
18
100
AcDbEntity
  8
1
 62
     4
100
AcDbLine
 10
17.78332516563763
 20
5.644976935452199
 30
0.0
 11
18.33905786783666
 21
5.771820935564017
 31
0.0
  0
LINE
  5
ADD
330
18
100
AcDbEntity
  8
1
 62
     4
100
AcDbLine
 10
18.33905786783666
 20
5.771820935564017
 30
0.0
 11
18.89479415827178
 21
5.871111329688456
 31
0.0
  0
LINE
  5
ADE
330
18
100
AcDbEntity
  8
1
 62
     4
100
AcDbLine
 10
18.89479415827178
 20
5.871111329688456
 30
0.0
 11
19.45053438863291
 21
5.942373389554022
 31
0.0
  0
LINE
  5
ADF
330
18
100
AcDbEntity
  8
1
 62
     4
100
AcDbLine
 10
19.45053438863291
 20
5.942373389554022
 30
0.0
 11
20.00627128803778
 21
5.985265851303593
 31
0.0
  0
LINE
  5
AE0
330
18
100
AcDbEntity
  8
1
 62
     4
100
AcDbLine
 10
20.00627128803778
 20
5.985265851303593
 30
0.0
 11
20.56197795001728
 21
5.999585569156253
 31
0.0
  0
LINE
  5
AE1
330
18
100
AcDbEntity
  8
1
 62
     4
100
AcDbLine
 10
19.15953227754938
 20
3.580434084068763
 30
0.0
 11
18.223379038426
 21
4.115364890444203
 31
0.0
  0
LINE
  5
AE2
330
18
100
AcDbEntity
  8
1
 62
     4
100
AcDbLine
 10
18.223379038426
 20
4.115364890444203
 30
0.0
 11
17.28721213811538
 21
4.594592257892514
 31
0.0
  0
LINE
  5
AE3
330
18
100
AcDbEntity
  8
1
 62
     4
100
AcDbLine
 10
17.28721213811538
 20
4.594592257892514
 30
0.0
 11
16.35106285300215
 21
5.011612261504589
 31
0.0
  0
LINE
  5
AE4
330
18
100
AcDbEntity
  8
1
 62
     4
100
AcDbLine
 10
16.35106285300215
 20
5.011612261504589
 30
0.0
 11
15.41489406629392
 21
5.360798106926233
 31
0.0
  0
LINE
  5
AE5
330
18
100
AcDbEntity
  8
1
 62
     4
100
AcDbLine
 10
15.41489406629392
 20
5.360798106926233
 30
0.0
 11
14.94681942076252
 21
5.508430678232673
 31
0.0
  0
LINE
  5
AE6
330
18
100
AcDbEntity
  8
1
 62
     4
100
AcDbLine
 10
14.94681942076252
 20
5.508430678232673
 30
0.0
 11
14.47874649979755
 21
5.637406399355112
 31
0.0
  0
LINE
  5
AE7
330
18
100
AcDbEntity
  8
1
 62
     4
100
AcDbLine
 10
14.47874649979755
 20
5.637406399355112
 30
0.0
 11
14.01066113240225
 21
5.747290737397345
 31
0.0
  0
LINE
  5
AE8
330
18
100
AcDbEntity
  8
1
 62
     4
100
AcDbLine
 10
14.01066113240225
 20
5.747290737397345
 30
0.0
 11
13.54257715583794
 21
5.837706784313392
 31
0.0
  0
LINE
  5
AE9
330
18
100
AcDbEntity
  8
1
 62
     4
100
AcDbLine
 10
13.54257715583794
 20
5.837706784313392
 30
0.0
 11
13.10048437446632
 21
5.904426864831696
 31
0.0
  0
LINE
  5
AEB
330
18
100
AcDbEntity
  8
1
 62
     4
100
AcDbLine
 10
12.49956347138737
 20
5.965929724738177
 30
0.0
 11
12.13834080411068
 21
5.989425931463285
 31
0.0
  0
LINE
  5
AEC
330
18
100
AcDbEntity
  8
1
 62
     4
100
AcDbLine
 10
12.13834080411068
 20
5.989425931463285
 30
0.0
 11
11.67028759315487
 21
5.999585569156242
 31
0.0
  0
LINE
  5
AED
330
18
100
AcDbEntity
  8
1
 62
     4
100
AcDbLine
 10
20.75559337211355
 20
-0.4309198127216715
 30
0.0
 11
17.40392469889128
 21
2.295692797335909
 31
0.0
  0
LINE
  5
AEE
330
18
100
AcDbEntity
  8
1
 62
     4
100
AcDbLine
 10
17.40392469889128
 20
2.295692797335909
 30
0.0
 11
15.82490737415358
 21
3.333009697090555
 31
0.0
  0
LINE
  5
AEF
330
18
100
AcDbEntity
  8
1
 62
     4
100
AcDbLine
 10
15.82490737415358
 20
3.333009697090555
 30
0.0
 11
14.24587410183947
 21
4.242234908844613
 31
0.0
  0
LINE
  5
AF0
330
18
100
AcDbEntity
  8
1
 62
     4
100
AcDbLine
 10
14.24587410183947
 20
4.242234908844613
 30
0.0
 11
13.45637119297231
 21
4.637652413895483
 31
0.0
  0
LINE
  5
AF1
330
18
100
AcDbEntity
  8
1
 62
     4
100
AcDbLine
 10
13.45637119297231
 20
4.637652413895483
 30
0.0
 11
13.10048437446632
 21
4.795761289348916
 31
0.0
  0
LINE
  5
AF2
330
18
100
AcDbEntity
  8
1
 62
     4
100
AcDbLine
 10
12.49956347138737
 20
5.052550098860271
 30
0.0
 11
11.8773417007203
 21
5.291118093989283
 31
0.0
  0
LINE
  5
AF3
330
18
100
AcDbEntity
  8
1
 62
     4
100
AcDbLine
 10
11.8773417007203
 20
5.291118093989283
 30
0.0
 11
11.08782552381531
 21
5.542868620037525
 31
0.0
  0
LINE
  5
AF4
330
18
100
AcDbEntity
  8
1
 62
     4
100
AcDbLine
 10
11.08782552381531
 20
5.542868620037525
 30
0.0
 11
10.29832073986042
 21
5.741231035844037
 31
0.0
  0
LINE
  5
AF5
330
18
100
AcDbEntity
  8
1
 62
     4
100
AcDbLine
 10
10.29832073986042
 20
5.741231035844037
 30
0.0
 11
10.0
 21
5.795290023696082
 31
0.0
  0
DIMENSION
  5
AFF
330
18
100
AcDbEntity
  8
2
100
AcDbDimension
  2
*D5
 10
75.81999999999997
 20
-5.997742636556678
 30
0.0
 11
73.44499999999995
 21
0.0022573634433326
 31
0.0
 70
    32
  1
%%c<>
 71
     5
 42
11.99999999999999
  3
STANDARD
100
AcDbAlignedDimension
 13
57.85024122068064
 23
6.00225736344332
 33
0.0
 14
57.85012111355268
 24
-5.997742636556672
 34
0.0
 50
90.00000000000019
100
AcDbRotatedDimension
  0
DIMENSION
  5
B00
330
18
100
AcDbEntity
  8
2
100
AcDbDimension
  2
*D6
 10
58.0
 20
19.85237863121776
 30
0.0
 11
74.20833333333334
 21
22.22737863121776
 31
0.0
 70
    32
  1
0.15x45°
 71
     5
 42
0.1497587793193773
  3
STANDARD
100
AcDbAlignedDimension
 13
57.85024122068064
 23
6.00225736344332
 33
0.0
 14
58.0
 24
5.860760775509662
 34
0.0
100
AcDbRotatedDimension
  0
LINE
  5
BD8
330
18
100
AcDbEntity
  8
1
 62
     4
100
AcDbLine
 10
52.22482597559672
 20
5.569055341269034
 30
0.0
 11
52.22482597559672
 21
3.98587241233948
 31
0.0
  0
LINE
  5
BD9
330
18
100
AcDbEntity
  8
1
 62
     4
100
AcDbLine
 10
51.62390507251778
 20
5.720242091097269
 30
0.0
 11
51.62390507251778
 21
4.305063488890881
 31
0.0
  0
LINE
  5
BDD
330
18
100
AcDbEntity
  8
1
 62
     4
100
AcDbLine
 10
52.22482597559672
 20
5.569055341269034
 30
0.0
 11
52.07122429286139
 21
5.435573003746568
 31
0.0
  0
LINE
  5
BDE
330
18
100
AcDbEntity
  8
1
 62
     4
100
AcDbLine
 10
51.62390507251778
 20
5.720242091097269
 30
0.0
 11
51.91296887963389
 21
5.470725577473374
 31
0.0
  0
ARC
  5
BDF
330
18
100
AcDbEntity
  8
1
 62
     4
100
AcDbCircle
 10
52.01881611029103
 20
5.573439467698853
 30
0.0
 40
0.1474916251284628
100
AcDbArc
 50
224.1392754477617
 51
290.8136637753667
  0
LINE
  5
BE0
330
18
100
AcDbEntity
  8
1
 62
     4
100
AcDbLine
 10
52.22482597559672
 20
3.98587241233948
 30
0.0
 11
52.04932720486119
 21
4.122459314715841
 31
0.0
  0
ARC
  5
BE2
330
18
100
AcDbEntity
  8
1
 62
     4
100
AcDbCircle
 10
51.66468512281235
 20
3.676492672488846
 30
0.0
 40
0.5889276502781219
100
AcDbArc
 50
49.2225357121466
 51
66.71685745953292
  0
LINE
  5
BF0
330
18
100
AcDbEntity
  8
1
 62
     4
100
AcDbLine
 10
51.62390507251778
 20
-1.776119008056945
 30
0.0
 11
51.93959512994128
 21
-1.941251764097824
 31
0.0
  0
LINE
  5
BF1
330
18
100
AcDbEntity
  8
1
 62
     4
100
AcDbLine
 10
52.22482597559672
 20
-2.210489226889686
 30
0.0
 11
51.9395951299413
 21
-1.941251764097829
 31
0.0
  0
POINT
  5
BF3
330
18
100
AcDbEntity
  8
1
100
AcDbPoint
 10
41.68658756043149
 20
0.6440890812230215
 30
0.0
  0
LINE
  5
BF4
330
18
100
AcDbEntity
  8
1
 62
     4
100
AcDbLine
 10
51.62390276401492
 20
-1.776117339376614
 30
0.0
 11
51.62390507251778
 21
-4.174428296162016
 31
0.0
  0
LINE
  5
BF5
330
18
100
AcDbEntity
  8
1
 62
     4
100
AcDbLine
 10
52.22482597559672
 20
-2.210489226889686
 30
0.0
 11
52.22482597559672
 21
-4.484823655718176
 31
0.0
  0
LINE
  5
BF8
330
18
100
AcDbEntity
  8
1
 62
     4
100
AcDbLine
 10
51.62390507251778
 20
-5.719542777367084
 30
0.0
 11
51.95182078339296
 21
-5.586514287733765
 31
0.0
  0
LINE
  5
BF9
330
18
100
AcDbEntity
  8
1
 62
     4
100
AcDbLine
 10
52.22482597559672
 20
-5.568910527049363
 30
0.0
 11
52.04204224834604
 21
-5.568910527049363
 31
0.0
  0
ARC
  5
C01
330
18
100
AcDbEntity
  8
1
 62
     4
100
AcDbCircle
 10
52.07178098262396
 20
-5.961325242320044
 30
0.0
 40
0.3935399612204882
100
AcDbArc
 50
94.33381607116777
 51
107.7475411081572
  0
LINE
  5
C0E
330
18
100
AcDbEntity
  8
1
 62
     4
100
AcDbLine
 10
39.44173375427003
 20
4.12212929319079
 30
0.0
 11
39.16815701084296
 21
4.209737150730973
 31
0.0
  0
LINE
  5
C0F
330
18
100
AcDbEntity
  8
1
 62
     4
100
AcDbLine
 10
39.76908607589118
 20
5.527637096283863
 30
0.0
 11
39.76908607589118
 21
3.890542049741178
 31
0.0
  0
LINE
  5
C10
330
18
100
AcDbEntity
  8
1
 62
     4
100
AcDbLine
 10
39.16816517281223
 20
5.678823846112097
 30
0.0
 11
39.16816517281223
 21
4.209734537012303
 31
0.0
  0
LINE
  5
C11
330
18
100
AcDbEntity
  8
1
 62
     4
100
AcDbLine
 10
39.76908607589118
 20
5.527637096283863
 30
0.0
 11
39.61548439315587
 21
5.394154758761402
 31
0.0
  0
LINE
  5
C12
330
18
100
AcDbEntity
  8
1
 62
     4
100
AcDbLine
 10
39.16816517281223
 20
5.678823846112097
 30
0.0
 11
39.45722897992835
 21
5.429307332488206
 31
0.0
  0
ARC
  5
C13
330
18
100
AcDbEntity
  8
1
 62
     4
100
AcDbCircle
 10
39.56307621058547
 20
5.532021222713686
 30
0.0
 40
0.1474916251284628
100
AcDbArc
 50
224.1392754477617
 51
290.8136637753667
  0
LINE
  5
C14
330
18
100
AcDbEntity
  8
1
 62
     4
100
AcDbLine
 10
39.76908607589118
 20
3.890542049741178
 30
0.0
 11
39.59358730515567
 21
4.027128952117537
 31
0.0
  0
ARC
  5
C15
330
18
100
AcDbEntity
  8
1
 62
     4
100
AcDbCircle
 10
39.20894522310679
 20
3.581162309890543
 30
0.0
 40
0.5889276502781219
100
AcDbArc
 50
49.22253571214655
 51
66.71685745953292
  0
LINE
  5
C16
330
18
100
AcDbEntity
  8
1
 62
     4
100
AcDbLine
 10
39.16816290064302
 20
-1.913672419241807
 30
0.0
 11
39.1681651700004
 21
-4.271315039155585
 31
0.0
  0
LINE
  5
C17
330
18
100
AcDbEntity
  8
1
 62
     4
100
AcDbLine
 10
39.7690860758912
 20
-2.325908267480688
 30
0.0
 11
39.76908607589118
 21
-4.572283167146128
 31
0.0
  0
LINE
  5
C18
330
18
100
AcDbEntity
  8
1
 62
     4
100
AcDbLine
 10
39.16816517281223
 20
-5.679272107197991
 30
0.0
 11
39.49608088368741
 21
-5.54624361756467
 31
0.0
  0
LINE
  5
C19
330
18
100
AcDbEntity
  8
1
 62
     4
100
AcDbLine
 10
39.76908607589118
 20
-5.528639856880269
 30
0.0
 11
39.58630234864047
 21
-5.528639856880269
 31
0.0
  0
ARC
  5
C1A
330
18
100
AcDbEntity
  8
1
 62
     4
100
AcDbCircle
 10
39.61604108291843
 20
-5.921054572150949
 30
0.0
 40
0.3935399612204882
100
AcDbArc
 50
94.33381607116784
 51
107.7475411081574
  0
LINE
  5
C1B
330
18
100
AcDbEntity
  8
1
 62
     4
100
AcDbLine
 10
26.10743290355759
 20
4.478017986978962
 30
0.0
 11
25.83385616013053
 21
4.565625844519143
 31
0.0
  0
LINE
  5
C1C
330
18
100
AcDbEntity
  8
1
 62
     4
100
AcDbLine
 10
26.43478522517876
 20
5.672995388193625
 30
0.0
 11
26.43478522517876
 21
4.246430743529348
 31
0.0
  0
LINE
  5
C1D
330
18
100
AcDbEntity
  8
1
 62
     4
100
AcDbLine
 10
25.83386432209981
 20
5.82418213802186
 30
0.0
 11
25.83386432209981
 21
4.565621820080751
 31
0.0
  0
LINE
  5
C1E
330
18
100
AcDbEntity
  8
1
 62
     4
100
AcDbLine
 10
26.43478522517876
 20
5.672995388193625
 30
0.0
 11
26.28118354244343
 21
5.539513050671162
 31
0.0
  0
LINE
  5
C1F
330
18
100
AcDbEntity
  8
1
 62
     4
100
AcDbLine
 10
25.83386432209981
 20
5.82418213802186
 30
0.0
 11
26.12292812921591
 21
5.574665624397969
 31
0.0
  0
ARC
  5
C20
330
18
100
AcDbEntity
  8
1
 62
     4
100
AcDbCircle
 10
26.22877535987305
 20
5.677379514623448
 30
0.0
 40
0.1474916251284628
100
AcDbArc
 50
224.1392754477617
 51
290.8136637753667
  0
LINE
  5
C21
330
18
100
AcDbEntity
  8
1
 62
     4
100
AcDbLine
 10
26.43478522517876
 20
4.246430743529348
 30
0.0
 11
26.25928645444323
 21
4.383017645905707
 31
0.0
  0
ARC
  5
C22
330
18
100
AcDbEntity
  8
1
 62
     4
100
AcDbCircle
 10
25.87464437239435
 20
3.937051003678711
 30
0.0
 40
0.5889276502781219
100
AcDbArc
 50
49.22253571214655
 51
66.716857459533
  0
LINE
  5
C23
330
18
100
AcDbEntity
  8
1
 62
     4
100
AcDbLine
 10
25.83386177036909
 20
-1.419487108115518
 30
0.0
 11
25.8338641303241
 21
-3.871251856186748
 31
0.0
  0
LINE
  5
C24
330
18
100
AcDbEntity
  8
1
 62
     4
100
AcDbLine
 10
26.43478522517877
 20
-1.840228102827316
 30
0.0
 11
26.43478522517876
 21
-4.217268965143071
 31
0.0
  0
LINE
  5
C25
330
18
100
AcDbEntity
  8
1
 62
     4
100
AcDbLine
 10
25.8490164038089
 20
-5.822293815745457
 30
0.0
 11
26.17693211468408
 21
-5.689265326112137
 31
0.0
  0
LINE
  5
C26
330
18
100
AcDbEntity
  8
1
 62
     4
100
AcDbLine
 10
26.44993730688785
 20
-5.671661565427736
 30
0.0
 11
26.26715357963715
 21
-5.671661565427736
 31
0.0
  0
ARC
  5
C27
330
18
100
AcDbEntity
  8
1
 62
     4
100
AcDbCircle
 10
26.2968923139151
 20
-6.064076280698417
 30
0.0
 40
0.3935399612204882
100
AcDbArc
 50
94.33381607116766
 51
107.7475411081574
  0
LINE
  5
CD2
330
18
100
AcDbEntity
  8
SK1
100
AcDbLine
 10
-27.0
 20
-4.28485705712571
 30
0.0
 11
-19.0
 21
-4.28485705712571
 31
0.0
  0
LINE
  5
CD8
330
18
100
AcDbEntity
  8
SK1
100
AcDbLine
 10
-19.0
 20
-4.284857057125837
 30
0.0
 11
-19.0
 21
4.284857057125842
 31
0.0
  0
LINE
  5
CD9
330
18
100
AcDbEntity
  8
SK1
100
AcDbLine
 10
-19.0
 20
4.284857057125842
 30
0.0
 11
-18.79305326119886
 21
4.075581912362624
 31
0.0
  0
LINE
  5
CDA
330
18
100
AcDbEntity
  8
SK1
100
AcDbLine
 10
-18.79305326119886
 20
4.075581912362624
 30
0.0
 11
-18.59505499148077
 21
3.854732534824218
 31
0.0
  0
LINE
  5
CDB
330
18
100
AcDbEntity
  8
SK1
100
AcDbLine
 10
-18.59505499148077
 20
3.854732534824218
 30
0.0
 11
-18.40696516263371
 21
3.622854623568735
 31
0.0
  0
LINE
  5
CDC
330
18
100
AcDbEntity
  8
SK1
100
AcDbLine
 10
-18.40696516263371
 20
3.622854623568735
 30
0.0
 11
-18.22969800552622
 21
3.380593456302904
 31
0.0
  0
LINE
  5
CDD
330
18
100
AcDbEntity
  8
SK1
100
AcDbLine
 10
-18.22969800552622
 20
3.380593456302904
 30
0.0
 11
-18.06410888740822
 21
3.128689202687608
 31
0.0
  0
LINE
  5
CDE
330
18
100
AcDbEntity
  8
SK1
100
AcDbLine
 10
-18.06410888740822
 20
3.128689202687608
 30
0.0
 11
-17.91098180851847
 21
2.867970258006621
 31
0.0
  0
LINE
  5
CDF
330
18
100
AcDbEntity
  8
SK1
100
AcDbLine
 10
-17.91098180851847
 20
2.867970258006621
 30
0.0
 11
-17.77101787572512
 21
2.599344695652753
 31
0.0
  0
LINE
  5
CE0
330
18
100
AcDbEntity
  8
SK1
100
AcDbLine
 10
-17.77101787572512
 20
2.599344695652753
 30
0.0
 11
-17.64482509073696
 21
2.323790007724535
 31
0.0
  0
LINE
  5
CE1
330
18
100
AcDbEntity
  8
SK1
100
AcDbLine
 10
-17.64482509073696
 20
2.323790007724535
 30
0.0
 11
-17.53290975401645
 21
2.042341368966745
 31
0.0
  0
LINE
  5
CE2
330
18
100
AcDbEntity
  8
SK1
100
AcDbLine
 10
-17.53290975401645
 20
2.042341368966745
 30
0.0
 11
-17.43566973436266
 21
1.756078716387053
 31
0.0
  0
LINE
  5
CE3
330
18
100
AcDbEntity
  8
SK1
100
AcDbLine
 10
-17.43566973436266
 20
1.756078716387053
 30
0.0
 11
-17.35338979074057
 21
1.466112981673625
 31
0.0
  0
LINE
  5
CE4
330
18
100
AcDbEntity
  8
SK1
100
AcDbLine
 10
-17.35338979074057
 20
1.466112981673625
 30
0.0
 11
-17.28623906074738
 21
1.173571843338257
 31
0.0
  0
LINE
  5
CE5
330
18
100
AcDbEntity
  8
SK1
100
AcDbLine
 10
-17.28623906074738
 20
1.173571843338257
 30
0.0
 11
-17.23427075318169
 21
0.8795853786413914
 31
0.0
  0
LINE
  5
CE6
330
18
100
AcDbEntity
  8
SK1
100
AcDbLine
 10
-17.23427075318169
 20
0.8795853786413914
 30
0.0
 11
-17.19742400487107
 21
0.5852719912922313
 31
0.0
  0
LINE
  5
CE7
330
18
100
AcDbEntity
  8
SK1
100
AcDbLine
 10
-17.19742400487107
 20
0.5852719912922313
 30
0.0
 11
-17.17552778851025
 21
0.2917249703083314
 31
0.0
  0
LINE
  5
CE8
330
18
100
AcDbEntity
  8
SK1
100
AcDbLine
 10
-17.17552778851025
 20
0.2917249703083314
 30
0.0
 11
-17.16830669265003
 21
0.0
 31
0.0
  0
LINE
  5
CE9
330
18
100
AcDbEntity
  8
SK1
100
AcDbLine
 10
-17.16830669265003
 20
0.0
 30
0.0
 11
-17.17552778851024
 21
-0.2917249703083229
 31
0.0
  0
LINE
  5
CEA
330
18
100
AcDbEntity
  8
SK1
100
AcDbLine
 10
-17.17552778851024
 20
-0.2917249703083229
 30
0.0
 11
-17.19742400487106
 21
-0.5852719912922313
 31
0.0
  0
LINE
  5
CEB
330
18
100
AcDbEntity
  8
SK1
100
AcDbLine
 10
-17.19742400487106
 20
-0.5852719912922313
 30
0.0
 11
-17.23427075318169
 21
-0.8795853786413914
 31
0.0
  0
LINE
  5
CEC
330
18
100
AcDbEntity
  8
SK1
100
AcDbLine
 10
-17.23427075318169
 20
-0.8795853786413914
 30
0.0
 11
-17.28623906074738
 21
-1.173571843338257
 31
0.0
  0
LINE
  5
CED
330
18
100
AcDbEntity
  8
SK1
100
AcDbLine
 10
-17.28623906074738
 20
-1.173571843338257
 30
0.0
 11
-17.35338979074057
 21
-1.466112981673625
 31
0.0
  0
LINE
  5
CEE
330
18
100
AcDbEntity
  8
SK1
100
AcDbLine
 10
-17.35338979074057
 20
-1.466112981673625
 30
0.0
 11
-17.43566973436266
 21
-1.756078716387053
 31
0.0
  0
LINE
  5
CEF
330
18
100
AcDbEntity
  8
SK1
100
AcDbLine
 10
-17.43566973436266
 20
-1.756078716387053
 30
0.0
 11
-17.53290975401645
 21
-2.042341368966742
 31
0.0
  0
LINE
  5
CF0
330
18
100
AcDbEntity
  8
SK1
100
AcDbLine
 10
-17.53290975401645
 20
-2.042341368966742
 30
0.0
 11
-17.64482509073696
 21
-2.323790007724535
 31
0.0
  0
LINE
  5
CF1
330
18
100
AcDbEntity
  8
SK1
100
AcDbLine
 10
-17.64482509073696
 20
-2.323790007724535
 30
0.0
 11
-17.77101787572512
 21
-2.599344695652761
 31
0.0
  0
LINE
  5
CF2
330
18
100
AcDbEntity
  8
SK1
100
AcDbLine
 10
-17.77101787572512
 20
-2.599344695652761
 30
0.0
 11
-17.91098180851846
 21
-2.867970258006621
 31
0.0
  0
LINE
  5
CF3
330
18
100
AcDbEntity
  8
SK1
100
AcDbLine
 10
-17.91098180851846
 20
-2.867970258006621
 30
0.0
 11
-18.06410888740822
 21
-3.128689202687608
 31
0.0
  0
LINE
  5
CF4
330
18
100
AcDbEntity
  8
SK1
100
AcDbLine
 10
-18.06410888740822
 20
-3.128689202687608
 30
0.0
 11
-18.22969800552622
 21
-3.380593456302904
 31
0.0
  0
LINE
  5
CF5
330
18
100
AcDbEntity
  8
SK1
100
AcDbLine
 10
-18.22969800552622
 20
-3.380593456302904
 30
0.0
 11
-18.4069651626337
 21
-3.622854623568735
 31
0.0
  0
LINE
  5
CF6
330
18
100
AcDbEntity
  8
SK1
100
AcDbLine
 10
-18.4069651626337
 20
-3.622854623568735
 30
0.0
 11
-18.59505499148076
 21
-3.854732534824218
 31
0.0
  0
LINE
  5
CF7
330
18
100
AcDbEntity
  8
SK1
100
AcDbLine
 10
-18.59505499148076
 20
-3.854732534824218
 30
0.0
 11
-18.79305326119886
 21
-4.075581912362624
 31
0.0
  0
LINE
  5
CF8
330
18
100
AcDbEntity
  8
SK1
100
AcDbLine
 10
-18.79305326119886
 20
-4.075581912362624
 30
0.0
 11
-19.0
 21
-4.284857057125837
 31
0.0
  0
LINE
  5
CF9
330
18
100
AcDbEntity
  8
SK1
100
AcDbLine
 10
-27.0
 20
4.284857057125702
 30
0.0
 11
-19.0
 21
4.284857057125702
 31
0.0
  0
LINE
  5
CFA
330
18
100
AcDbEntity
  8
SK1
100
AcDbLine
 10
-27.0
 20
-4.284857057125803
 30
0.0
 11
-27.0
 21
4.284857057125798
 31
0.0
  0
LINE
  5
CFB
330
18
100
AcDbEntity
  8
SK1
100
AcDbLine
 10
-27.0
 20
4.284857057125798
 30
0.0
 11
-27.20694673880114
 21
4.075581912362582
 31
0.0
  0
LINE
  5
CFC
330
18
100
AcDbEntity
  8
SK1
100
AcDbLine
 10
-27.20694673880114
 20
4.075581912362582
 30
0.0
 11
-27.40494500851923
 21
3.854732534824177
 31
0.0
  0
LINE
  5
CFD
330
18
100
AcDbEntity
  8
SK1
100
AcDbLine
 10
-27.40494500851923
 20
3.854732534824177
 30
0.0
 11
-27.59303483736628
 21
3.622854623568691
 31
0.0
  0
LINE
  5
CFE
330
18
100
AcDbEntity
  8
SK1
100
AcDbLine
 10
-27.59303483736628
 20
3.622854623568691
 30
0.0
 11
-27.77030199447375
 21
3.380593456302866
 31
0.0
  0
LINE
  5
CFF
330
18
100
AcDbEntity
  8
SK1
100
AcDbLine
 10
-27.77030199447375
 20
3.380593456302866
 30
0.0
 11
-27.93589111259175
 21
3.128689202687573
 31
0.0
  0
LINE
  5
D00
330
18
100
AcDbEntity
  8
SK1
100
AcDbLine
 10
-27.93589111259175
 20
3.128689202687573
 30
0.0
 11
-28.08901819148152
 21
2.867970258006586
 31
0.0
  0
LINE
  5
D01
330
18
100
AcDbEntity
  8
SK1
100
AcDbLine
 10
-28.08901819148152
 20
2.867970258006586
 30
0.0
 11
-28.22898212427483
 21
2.599344695652727
 31
0.0
  0
LINE
  5
D02
330
18
100
AcDbEntity
  8
SK1
100
AcDbLine
 10
-28.22898212427483
 20
2.599344695652727
 30
0.0
 11
-28.355174909263
 21
2.323790007724509
 31
0.0
  0
LINE
  5
D03
330
18
100
AcDbEntity
  8
SK1
100
AcDbLine
 10
-28.355174909263
 20
2.323790007724509
 30
0.0
 11
-28.4670902459835
 21
2.042341368966722
 31
0.0
  0
LINE
  5
D04
330
18
100
AcDbEntity
  8
SK1
100
AcDbLine
 10
-28.4670902459835
 20
2.042341368966722
 30
0.0
 11
-28.56433026563728
 21
1.756078716387039
 31
0.0
  0
LINE
  5
D05
330
18
100
AcDbEntity
  8
SK1
100
AcDbLine
 10
-28.56433026563728
 20
1.756078716387039
 30
0.0
 11
-28.64661020925939
 21
1.466112981673608
 31
0.0
  0
LINE
  5
D06
330
18
100
AcDbEntity
  8
SK1
100
AcDbLine
 10
-28.64661020925939
 20
1.466112981673608
 30
0.0
 11
-28.71376093925256
 21
1.173571843338244
 31
0.0
  0
LINE
  5
D07
330
18
100
AcDbEntity
  8
SK1
100
AcDbLine
 10
-28.71376093925256
 20
1.173571843338244
 30
0.0
 11
-28.76572924681824
 21
0.8795853786413829
 31
0.0
  0
LINE
  5
D08
330
18
100
AcDbEntity
  8
SK1
100
AcDbLine
 10
-28.76572924681824
 20
0.8795853786413829
 30
0.0
 11
-28.80257599512887
 21
0.5852719912922229
 31
0.0
  0
LINE
  5
D09
330
18
100
AcDbEntity
  8
SK1
100
AcDbLine
 10
-28.80257599512887
 20
0.5852719912922229
 30
0.0
 11
-28.82447221148968
 21
0.2917249703083229
 31
0.0
  0
LINE
  5
D0A
330
18
100
AcDbEntity
  8
SK1
100
AcDbLine
 10
-28.82447221148968
 20
0.2917249703083229
 30
0.0
 11
-28.83169330734991
 21
0.0
 31
0.0
  0
LINE
  5
D0B
330
18
100
AcDbEntity
  8
SK1
100
AcDbLine
 10
-28.83169330734991
 20
0.0
 30
0.0
 11
-28.82447221148968
 21
-0.2917249703083229
 31
0.0
  0
LINE
  5
D0C
330
18
100
AcDbEntity
  8
SK1
100
AcDbLine
 10
-28.82447221148968
 20
-0.2917249703083229
 30
0.0
 11
-28.80257599512887
 21
-0.5852719912922229
 31
0.0
  0
LINE
  5
D0D
330
18
100
AcDbEntity
  8
SK1
100
AcDbLine
 10
-28.80257599512887
 20
-0.5852719912922229
 30
0.0
 11
-28.76572924681824
 21
-0.8795853786413829
 31
0.0
  0
LINE
  5
D0E
330
18
100
AcDbEntity
  8
SK1
100
AcDbLine
 10
-28.76572924681824
 20
-0.8795853786413829
 30
0.0
 11
-28.71376093925256
 21
-1.173571843338238
 31
0.0
  0
LINE
  5
D0F
330
18
100
AcDbEntity
  8
SK1
100
AcDbLine
 10
-28.71376093925256
 20
-1.173571843338238
 30
0.0
 11
-28.64661020925939
 21
-1.466112981673599
 31
0.0
  0
LINE
  5
D10
330
18
100
AcDbEntity
  8
SK1
100
AcDbLine
 10
-28.64661020925939
 20
-1.466112981673599
 30
0.0
 11
-28.56433026563728
 21
-1.756078716387029
 31
0.0
  0
LINE
  5
D11
330
18
100
AcDbEntity
  8
SK1
100
AcDbLine
 10
-28.56433026563728
 20
-1.756078716387029
 30
0.0
 11
-28.4670902459835
 21
-2.042341368966714
 31
0.0
  0
LINE
  5
D12
330
18
100
AcDbEntity
  8
SK1
100
AcDbLine
 10
-28.4670902459835
 20
-2.042341368966714
 30
0.0
 11
-28.355174909263
 21
-2.323790007724499
 31
0.0
  0
LINE
  5
D13
330
18
100
AcDbEntity
  8
SK1
100
AcDbLine
 10
-28.355174909263
 20
-2.323790007724499
 30
0.0
 11
-28.22898212427483
 21
-2.59934469565272
 31
0.0
  0
LINE
  5
D14
330
18
100
AcDbEntity
  8
SK1
100
AcDbLine
 10
-28.22898212427483
 20
-2.59934469565272
 30
0.0
 11
-28.08901819148152
 21
-2.867970258006586
 31
0.0
  0
LINE
  5
D15
330
18
100
AcDbEntity
  8
SK1
100
AcDbLine
 10
-28.08901819148152
 20
-2.867970258006586
 30
0.0
 11
-27.93589111259176
 21
-3.128689202687566
 31
0.0
  0
LINE
  5
D16
330
18
100
AcDbEntity
  8
SK1
100
AcDbLine
 10
-27.93589111259176
 20
-3.128689202687566
 30
0.0
 11
-27.77030199447375
 21
-3.380593456302864
 31
0.0
  0
LINE
  5
D17
330
18
100
AcDbEntity
  8
SK1
100
AcDbLine
 10
-27.77030199447375
 20
-3.380593456302864
 30
0.0
 11
-27.59303483736629
 21
-3.622854623568691
 31
0.0
  0
LINE
  5
D18
330
18
100
AcDbEntity
  8
SK1
100
AcDbLine
 10
-27.59303483736629
 20
-3.622854623568691
 30
0.0
 11
-27.40494500851923
 21
-3.854732534824167
 31
0.0
  0
LINE
  5
D19
330
18
100
AcDbEntity
  8
SK1
100
AcDbLine
 10
-27.40494500851923
 20
-3.854732534824167
 30
0.0
 11
-27.20694673880114
 21
-4.075581912362582
 31
0.0
  0
LINE
  5
D1A
330
18
100
AcDbEntity
  8
SK1
100
AcDbLine
 10
-27.20694673880114
 20
-4.075581912362582
 30
0.0
 11
-27.00000000000001
 21
-4.284857057125797
 31
0.0
  0
LINE
  5
DA9
330
18
100
AcDbEntity
  8
1
 62
     4
100
AcDbLine
 10
12.49956059448983
 20
-0.6116011767134597
 30
0.0
 11
12.49956309959371
 21
-3.214161557284352
 31
0.0
  0
LINE
  5
DAA
330
18
100
AcDbEntity
  8
1
 62
     4
100
AcDbLine
 10
13.10048437446633
 20
-1.055292712404408
 30
0.0
 11
13.10048437446632
 21
-3.586347455144721
 31
0.0
  0
LINE
  5
DAB
330
18
100
AcDbEntity
  8
1
 62
     4
100
AcDbLine
 10
12.77913214188393
 20
4.986553441280221
 30
0.0
 11
12.49955502035519
 21
5.052553474345738
 31
0.0
  0
LINE
  5
DAC
330
18
100
AcDbEntity
  8
1
 62
     4
100
AcDbLine
 10
13.10048437446632
 20
5.904426864831695
 30
0.0
 11
13.10048437446632
 21
4.795761289348916
 31
0.0
  0
LINE
  5
DAD
330
18
100
AcDbEntity
  8
1
 62
     4
100
AcDbLine
 10
12.49956347138737
 20
5.965929724738177
 30
0.0
 11
12.49956347138737
 21
5.052550098860271
 31
0.0
  0
LINE
  5
DAE
330
18
100
AcDbEntity
  8
1
 62
     4
100
AcDbLine
 10
13.10048437446632
 20
5.904426864831696
 30
0.0
 11
12.98763977256787
 21
5.760572831550412
 31
0.0
  0
LINE
  5
DAF
330
18
100
AcDbEntity
  8
1
 62
     4
100
AcDbLine
 10
12.49956347138737
 20
5.965929724738177
 30
0.0
 11
12.82573214411256
 21
5.768721396050282
 31
0.0
  0
ARC
  5
DB0
330
18
100
AcDbEntity
  8
1
 62
     4
100
AcDbCircle
 10
12.91287969444515
 20
5.88771334516477
 30
0.0
 40
0.1474916251284628
100
AcDbArc
 50
233.7816274548932
 51
300.4560157824982
  0
LINE
  5
DB1
330
18
100
AcDbEntity
  8
1
 62
     4
100
AcDbLine
 10
13.10048437446632
 20
4.795761289348916
 30
0.0
 11
12.93793364780701
 21
4.903688204677811
 31
0.0
  0
ARC
  5
DB2
330
18
100
AcDbEntity
  8
1
 62
     4
100
AcDbCircle
 10
12.58925210452735
 20
4.429075774753951
 30
0.0
 40
0.5889276502781219
100
AcDbArc
 50
53.69654588629583
 51
71.1908676336823
  0
LINE
  5
F9E
330
18
100
AcDbEntity
  8
SK4
100
AcDbLine
 10
-50.83746088693533
 20
0.0000000000000002
 30
0.0
 11
0.0
 21
-0.0000000000000029
 31
0.0
  0
LINE
  5
101C
330
18
100
AcDbEntity
  8
1
 62
     4
100
AcDbLine
 10
58.0
 20
5.860760775509662
 30
0.0
 11
57.85024122068064
 21
6.00225736344332
 31
0.0
  0
LINE
  5
103A
330
18
100
AcDbEntity
  8
1
 62
     4
100
AcDbLine
 10
57.85012111355268
 20
-5.997742636556672
 30
0.0
 11
58.0
 21
-5.853769194223786
 31
0.0
  0
LINE
  5
1044
330
18
100
AcDbEntity
  8
1
 62
     4
100
AcDbLine
 10
57.85007986534609
 20
-5.292005057102268
 30
0.0
 11
57.99995875179339
 21
-5.148031614769385
 31
0.0
  0
ENDSEC
  0
SECTION
  2
OBJECTS
  0
DICTIONARY
  5
C
330
0
100
AcDbDictionary
281
     1
  3
ACAD_2007HEADERVARS_RT
350
10D0
  3
ACAD_CIP_PREVIOUS_PRODUCT_INFO
350
58A
  3
ACAD_COLOR
350
387
  3
ACAD_DETAILVIEWSTYLE
350
584
  3
ACAD_FIELDLIST
350
655
  3
ACAD_GROUP
350
D
  3
ACAD_LAYOUT
350
301
  3
ACAD_MATERIAL
350
386
  3
ACAD_MLEADERSTYLE
350
548
  3
ACAD_MLINESTYLE
350
E
  3
ACAD_PLOTSETTINGS
350
302
  3
ACAD_PLOTSTYLENAME
350
2FF
  3
ACAD_SCALELIST
350
3A0
  3
ACAD_SECTIONVIEWSTYLE
350
582
  3
ACAD_TABLESTYLE
350
388
  3
ACAD_VISUALSTYLE
350
567
  3
ACDB_RECOMPOSE_DATA
350
10CF
  3
AcDbVariableDictionary
350
357
  3
AcmDictionary
350
61F
  3
AMG
350
5F5
  3
AMGSNAPSETTINGS
350
66B
  0
DICTIONARY
  5
D20
330
2
100
AcDbDictionary
280
     1
281
     1
  3
ACAD_LAYERSTATES
360
D21
  0
DICTIONARY
  5
58D
330
F
100
AcDbDictionary
280
     1
281
     1
  3
ADSK_XREC_LAYER_RECONCILED
360
58E
  0
DICTIONARY
  5
58F
330
23
100
AcDbDictionary
280
     1
281
     1
  3
ADSK_XREC_LAYER_RECONCILED
360
590
  0
DICTIONARY
  5
591
330
24
100
AcDbDictionary
280
     1
281
     1
  3
ADSK_XREC_LAYER_RECONCILED
360
592
  0
DICTIONARY
  5
593
330
25
100
AcDbDictionary
280
     1
281
     1
  3
ADSK_XREC_LAYER_RECONCILED
360
594
  0
DICTIONARY
  5
595
330
26
100
AcDbDictionary
280
     1
281
     1
  3
ADSK_XREC_LAYER_RECONCILED
360
596
  0
DICTIONARY
  5
597
330
27
100
AcDbDictionary
280
     1
281
     1
  3
ADSK_XREC_LAYER_RECONCILED
360
598
  0
DICTIONARY
  5
599
330
28
100
AcDbDictionary
280
     1
281
     1
  3
ADSK_XREC_LAYER_RECONCILED
360
59A
  0
DICTIONARY
  5
59B
330
29
100
AcDbDictionary
280
     1
281
     1
  3
ADSK_XREC_LAYER_RECONCILED
360
59C
  0
DICTIONARY
  5
59D
330
2A
100
AcDbDictionary
280
     1
281
     1
  3
ADSK_XREC_LAYER_RECONCILED
360
59E
  0
DICTIONARY
  5
59F
330
2B
100
AcDbDictionary
280
     1
281
     1
  3
ADSK_XREC_LAYER_RECONCILED
360
5A0
  0
DICTIONARY
  5
5A1
330
2C
100
AcDbDictionary
280
     1
281
     1
  3
ADSK_XREC_LAYER_RECONCILED
360
5A2
  0
DICTIONARY
  5
5A3
330
2D
100
AcDbDictionary
280
     1
281
     1
  3
ADSK_XREC_LAYER_RECONCILED
360
5A4
  0
DICTIONARY
  5
5A5
330
2E
100
AcDbDictionary
280
     1
281
     1
  3
ADSK_XREC_LAYER_RECONCILED
360
5A6
  0
DICTIONARY
  5
5A7
330
375
100
AcDbDictionary
280
     1
281
     1
  3
ADSK_XREC_LAYER_RECONCILED
360
5A8
  0
DICTIONARY
  5
5A9
330
376
100
AcDbDictionary
280
     1
281
     1
  3
ADSK_XREC_LAYER_RECONCILED
360
5AA
  0
DICTIONARY
  5
B89
330
18
100
AcDbDictionary
280
     1
281
     1
  3
ACAD_SORTENTS
360
B8A
  0
DICTIONARY
  5
10D0
102
{ACAD_REACTORS
330
C
102
}
330
C
100
AcDbDictionary
281
     1
  3
DIMARCSYM
350
10D1
  3
DIMLTEX1
350
10D3
  3
DIMLTEX2
350
10D4
  3
DIMLTYPE
350
10D2
  0
XRECORD
  5
58A
102
{ACAD_REACTORS
330
C
102
}
330
C
100
AcDbXrecord
280
     1
300
AMECH_PP
300
2014
300
86132PDSS_2014_0F
  0
DICTIONARY
  5
387
102
{ACAD_REACTORS
330
C
102
}
330
C
100
AcDbDictionary
281
     1
  0
DICTIONARY
  5
584
102
{ACAD_REACTORS
330
C
102
}
330
C
100
AcDbDictionary
281
     1
  3
Metric50
350
585
  0
FIELDLIST
  5
655
102
{ACAD_REACTORS
330
C
102
}
330
C
100
AcDbIdSet
 90
        0
100
AcDbFieldList
  0
DICTIONARY
  5
D
102
{ACAD_REACTORS
330
C
102
}
330
C
100
AcDbDictionary
281
     1
  0
DICTIONARY
  5
301
102
{ACAD_REACTORS
330
C
102
}
330
C
100
AcDbDictionary
281
     1
  3
Layout1
350
33B
  3
Model
350
303
  0
DICTIONARY
  5
386
102
{ACAD_REACTORS
330
C
102
}
330
C
100
AcDbDictionary
281
     1
  3
ByBlock
350
557
  3
ByLayer
350
54F
  3
Global
350
55F
  0
DICTIONARY
  5
548
102
{ACAD_REACTORS
330
C
102
}
330
C
100
AcDbDictionary
281
     1
  3
Standard
350
581
  0
DICTIONARY
  5
E
102
{ACAD_REACTORS
330
C
102
}
330
C
100
AcDbDictionary
281
     1
  3
STANDARD
350
1B
  0
DICTIONARY
  5
302
102
{ACAD_REACTORS
330
C
102
}
330
C
100
AcDbDictionary
281
     1
  0
ACDBDICTIONARYWDFLT
  5
2FF
102
{ACAD_REACTORS
330
C
102
}
330
C
100
AcDbDictionary
281
     1
  3
Normal
350
300
100
AcDbDictionaryWithDefault
340
300
  0
DICTIONARY
  5
3A0
102
{ACAD_REACTORS
330
C
102
}
330
C
100
AcDbDictionary
281
     1
  3
A0
350
3A1
  3
A1
350
3A2
  3
A2
350
3A3
  3
A3
350
3A4
  3
A4
350
3A5
  3
A5
350
3A6
  3
A6
350
3A7
  3
A7
350
3A8
  3
A8
350
3A9
  3
A9
350
3AA
  3
B0
350
3AB
  3
B1
350
3AC
  3
B2
350
3AD
  3
B3
350
3AE
  3
B4
350
3AF
  3
B5
350
3B0
  3
B6
350
3B1
  3
B7
350
3B2
  3
B8
350
3B3
  3
B9
350
3B4
  3
C0
350
3B5
  3
C1
350
3B6
  3
C2
350
3B7
  3
C3
350
3B8
  3
C4
350
3B9
  3
C5
350
3BA
  3
C6
350
3BB
  3
C7
350
3BC
  3
C8
350
3BD
  3
C9
350
3BE
  3
D0
350
3BF
  3
D1
350
3C0
  3
D2
350
3C1
  0
DICTIONARY
  5
582
102
{ACAD_REACTORS
330
C
102
}
330
C
100
AcDbDictionary
281
     1
  3
Metric50
350
583
  0
DICTIONARY
  5
388
102
{ACAD_REACTORS
330
C
102
}
330
C
100
AcDbDictionary
281
     1
  3
Standard
350
580
  0
DICTIONARY
  5
567
102
{ACAD_REACTORS
330
C
102
}
330
C
100
AcDbDictionary
281
     1
  3
2dWireframe
350
56D
  3
Basic
350
56C
  3
Brighten
350
573
  3
ColorChange
350
577
  3
Conceptual
350
570
  3
Dim
350
572
  3
EdgeColorOff
350
57F
  3
Facepattern
350
576
  3
Flat
350
568
  3
FlatWithEdges
350
569
  3
Gouraud
350
56A
  3
GouraudWithEdges
350
56B
  3
Hidden
350
56F
  3
JitterOff
350
57D
  3
Linepattern
350
575
  3
OverhangOff
350
57E
  3
Realistic
350
571
  3
Shaded
350
57C
  3
Shaded with edges
350
57B
  3
Shades of Gray
350
578
  3
Sketchy
350
579
  3
Thicken
350
574
  3
Wireframe
350
56E
  3
X-Ray
350
57A
  0
XRECORD
  5
10CF
102
{ACAD_REACTORS
330
C
102
}
330
C
100
AcDbXrecord
280
     1
 90
        1
330
580
  0
DICTIONARY
  5
357
102
{ACAD_REACTORS
330
C
102
}
330
C
100
AcDbDictionary
281
     1
  3
CANNOSCALE
350
549
  3
CMLEADERSTYLE
350
5AB
  3
CTABLESTYLE
350
38D
  3
CVIEWDETAILSTYLE
350
5AC
  3
CVIEWSECTIONSTYLE
350
5AD
  3
DIMASSOC
350
359
  3
HIDETEXT
350
358
  3
INDEXCTL
350
5AF
  3
LAYEREVAL
350
D43
  3
LAYERNOTIFY
350
D44
  3
LIGHTINGUNITS
350
D42
  3
MSLTSCALE
350
D41
  3
PROJECTNAME
350
38E
  3
SORTENTS
350
5AE
  3
XCLIPFRAME
350
10CD
  0
DICTIONARY
  5
61F
102
{ACAD_REACTORS
330
C
102
}
330
C
100
AcDbDictionary
281
     1
  3
AcmStdDictionary
350
626
  0
DICTIONARY
  5
5F5
102
{ACAD_REACTORS
330
C
102
}
330
C
100
AcDbDictionary
281
     1
  0
DICTIONARY
  5
66B
102
{ACAD_REACTORS
330
C
102
}
330
C
100
AcDbDictionary
281
     1
  0
DICTIONARY
  5
D21
102
{ACAD_REACTORS
330
D20
102
}
330
D20
100
AcDbDictionary
281
     1
  0
XRECORD
  5
58E
102
{ACAD_REACTORS
330
58D
102
}
330
58D
100
AcDbXrecord
280
     1
290
     1
  0
XRECORD
  5
590
102
{ACAD_REACTORS
330
58F
102
}
330
58F
100
AcDbXrecord
280
     1
290
     1
  0
XRECORD
  5
592
102
{ACAD_REACTORS
330
591
102
}
330
591
100
AcDbXrecord
280
     1
290
     1
  0
XRECORD
  5
594
102
{ACAD_REACTORS
330
593
102
}
330
593
100
AcDbXrecord
280
     1
290
     1
  0
XRECORD
  5
596
102
{ACAD_REACTORS
330
595
102
}
330
595
100
AcDbXrecord
280
     1
290
     1
  0
XRECORD
  5
598
102
{ACAD_REACTORS
330
597
102
}
330
597
100
AcDbXrecord
280
     1
290
     1
  0
XRECORD
  5
59A
102
{ACAD_REACTORS
330
599
102
}
330
599
100
AcDbXrecord
280
     1
290
     1
  0
XRECORD
  5
59C
102
{ACAD_REACTORS
330
59B
102
}
330
59B
100
AcDbXrecord
280
     1
290
     1
  0
XRECORD
  5
59E
102
{ACAD_REACTORS
330
59D
102
}
330
59D
100
AcDbXrecord
280
     1
290
     1
  0
XRECORD
  5
5A0
102
{ACAD_REACTORS
330
59F
102
}
330
59F
100
AcDbXrecord
280
     1
290
     1
  0
XRECORD
  5
5A2
102
{ACAD_REACTORS
330
5A1
102
}
330
5A1
100
AcDbXrecord
280
     1
290
     1
  0
XRECORD
  5
5A4
102
{ACAD_REACTORS
330
5A3
102
}
330
5A3
100
AcDbXrecord
280
     1
290
     1
  0
XRECORD
  5
5A6
102
{ACAD_REACTORS
330
5A5
102
}
330
5A5
100
AcDbXrecord
280
     1
290
     1
  0
XRECORD
  5
5A8
102
{ACAD_REACTORS
330
5A7
102
}
330
5A7
100
AcDbXrecord
280
     1
290
     1
  0
XRECORD
  5
5AA
102
{ACAD_REACTORS
330
5A9
102
}
330
5A9
100
AcDbXrecord
280
     1
290
     1
  0
SORTENTSTABLE
  5
B8A
102
{ACAD_REACTORS
330
B89
102
}
330
B89
100
AcDbSortentsTable
330
18
331
43C
  5
43C
331
A15
  5
A17
331
A54
  5
A55
331
9E7
  5
9E8
331
A11
  5
A12
331
A50
  5
A51
331
A8F
  5
A91
331
9E3
  5
9E4
331
A4C
  5
A4D
331
A48
  5
A49
331
ACE
  5
AD0
331
ACA
  5
ACC
331
AC6
  5
AC8
331
D0F
  5
D11
331
D0B
  5
D0D
331
AC2
  5
AC4
331
C24
  5
C26
331
C20
  5
C22
331
9DF
  5
9E0
331
A0D
  5
A0E
331
A87
  5
A89
331
9DB
  5
9DB
331
A09
  5
A0A
331
A05
  5
A06
331
3D8
  5
3D8
331
A44
  5
A45
331
A83
  5
A85
331
9D7
  5
9D7
331
A01
  5
A02
331
3D4
  5
3D4
331
A40
  5
A41
331
A7F
  5
A81
331
9D3
  5
9D3
331
3D0
  5
3D0
331
A3C
  5
A3F
331
A7B
  5
A7D
331
A38
  5
A39
331
BDD
  5
BDF
331
D07
  5
D09
331
ABE
  5
AC0
331
BD9
  5
BDE
331
C1C
  5
C1E
331
D03
  5
D05
331
ABA
  5
ABC
331
AB6
  5
AB8
331
AF5
  5
B00
331
C18
  5
C1A
331
CFF
  5
D01
331
CFB
  5
CFD
331
AF1
  5
AF3
331
F9E
  5
103A
331
C14
  5
C16
331
C10
  5
C12
331
9FD
  5
9FE
331
9CF
  5
9CF
331
9CB
  5
9CB
331
9F9
  5
9FA
331
A77
  5
A79
331
3CC
  5
3CC
331
9F5
  5
9F6
331
3C8
  5
3C8
331
A73
  5
A75
331
9C7
  5
9C7
331
A34
  5
A35
331
9F1
  5
9F2
331
A30
  5
A31
331
A6F
  5
A73
331
A2C
  5
A2D
331
A6B
  5
A6D
331
A28
  5
A29
331
CF7
  5
CF9
331
AAE
  5
AB4
331
AED
  5
AEF
331
AE9
  5
AEC
331
CF3
  5
CF5
331
AAA
  5
AAC
331
AA6
  5
AA8
331
AE5
  5
AE7
331
CEF
  5
CF1
331
DB2
  5
101C
331
CEB
  5
CED
331
DAE
  5
DB0
331
AA2
  5
AA4
331
AE1
  5
AE3
331
DAA
  5
DAC
331
9ED
  5
9EE
331
9E9
  5
9EA
331
A67
  5
A69
331
A63
  5
A65
331
4F7
  5
4F7
331
506
  5
506
331
A24
  5
A25
331
A20
  5
A21
331
A5F
  5
A61
331
4F3
  5
4F3
331
A1C
  5
A1D
331
A5B
  5
A5D
331
A18
  5
A19
331
CE7
  5
CE9
331
A9E
  5
AA0
331
ADD
  5
ADF
331
AD9
  5
ADB
331
CE3
  5
CE5
331
A96
  5
A98
331
AD5
  5
ADA
331
BF8
  5
C01
331
CDF
  5
CE1
331
D1A
  5
DAA
331
CDB
  5
CDD
331
A92
  5
A94
331
AD1
  5
AD3
331
D16
  5
D18
331
BF4
  5
BF8
331
D12
  5
D14
331
BF0
  5
BF3
331
43B
  5
43B
331
A57
  5
A58
331
A14
  5
A15
331
A53
  5
A54
331
427
  5
427
331
9E6
  5
9E7
331
A4F
  5
A50
331
A8E
  5
A90
331
9E2
  5
9E3
331
A4B
  5
A4C
331
ACD
  5
ACF
331
AC9
  5
ACB
331
D0E
  5
D10
331
AC5
  5
AC7
331
C27
  5
CD8
331
D0A
  5
D0C
331
AC1
  5
AC3
331
BE0
  5
BF0
331
C23
  5
C25
331
9DE
  5
9DF
331
A0C
  5
A0D
331
3DB
  5
3DB
331
A86
  5
A88
331
A47
  5
A48
331
A08
  5
A09
331
A04
  5
A05
331
3D7
  5
3D7
331
A43
  5
A44
331
A82
  5
A84
331
9D6
  5
9D6
331
A00
  5
A01
331
3D3
  5
3D3
331
A3F
  5
A40
331
A7E
  5
A80
331
9D2
  5
9D2
331
A3B
  5
A3C
331
A7A
  5
A7C
331
C1F
  5
C21
331
D06
  5
D08
331
ABD
  5
ABF
331
AB9
  5
ABB
331
BD8
  5
BDD
331
C1B
  5
C1D
331
D02
  5
D04
331
AB5
  5
AB7
331
AF4
  5
AFF
331
C17
  5
C19
331
CFE
  5
D00
331
CFA
  5
CFC
331
AF0
  5
AF2
331
C13
  5
C15
331
9CE
  5
9CE
331
52D
  5
52D
331
9FC
  5
9FD
331
3CF
  5
3CF
331
A76
  5
A78
331
9CA
  5
9CA
331
A37
  5
A38
331
9F8
  5
9F9
331
9F4
  5
9F5
331
A33
  5
A34
331
9C6
  5
9C6
331
9F0
  5
9F1
331
A2F
  5
A30
331
A6E
  5
A70
331
A2B
  5
A2C
331
A6A
  5
A6C
331
AEC
  5
AEE
331
C0F
  5
C11
331
CF6
  5
CF8
331
AAD
  5
AAF
331
AE8
  5
AEB
331
CF2
  5
CF4
331
AA9
  5
AAB
331
AA5
  5
AA7
331
AE4
  5
AE6
331
DB1
  5
F9E
331
CEE
  5
CF0
331
CEA
  5
CEC
331
DAD
  5
DAF
331
AA1
  5
AA3
331
AE0
  5
AE2
331
DA9
  5
DAB
331
9EC
  5
9ED
331
A66
  5
A68
331
A27
  5
A28
331
9E8
  5
9E9
331
A62
  5
A64
331
4F6
  5
4F6
331
A23
  5
A24
331
A1F
  5
A20
331
A5E
  5
A60
331
4F2
  5
4F2
331
A1B
  5
A1C
331
A5A
  5
A5C
331
CE6
  5
CE8
331
A9D
  5
A9F
331
ADC
  5
ADE
331
CE2
  5
CE4
331
A99
  5
A9C
331
A95
  5
A97
331
AD4
  5
AD9
331
CDE
  5
CE0
331
D19
  5
DA9
331
CDA
  5
CDC
331
A91
  5
A93
331
AD0
  5
AD2
331
D15
  5
D17
331
BF3
  5
BF5
331
D11
  5
D13
331
A17
  5
A18
331
43A
  5
43A
331
A56
  5
A57
331
A13
  5
A14
331
3C7
  5
3C7
331
A52
  5
A53
331
9E5
  5
9E6
331
3C3
  5
3C3
331
A4E
  5
A4F
331
A8D
  5
A8F
331
9E1
  5
9E2
331
A4A
  5
A4B
331
A89
  5
A8D
331
ACC
  5
ACE
331
AC8
  5
ACA
331
CD2
  5
CD9
331
D0D
  5
D0F
331
AC4
  5
AC6
331
C26
  5
CD2
331
C22
  5
C24
331
D09
  5
D0B
331
AC0
  5
AC2
331
A0F
  5
A11
331
9DD
  5
9DE
331
A0B
  5
A0C
331
3DA
  5
3DA
331
A85
  5
A87
331
9D9
  5
9D9
331
B00
  5
BD9
331
A46
  5
A47
331
A07
  5
A08
331
A03
  5
A04
331
3D6
  5
3D6
331
A42
  5
A43
331
A81
  5
A83
331
9D5
  5
9D5
331
3D2
  5
3D2
331
A7D
  5
A7F
331
9D1
  5
9D1
331
A3A
  5
A3B
331
A79
  5
A7B
331
BDF
  5
BE2
331
C1E
  5
C20
331
D05
  5
D07
331
ABC
  5
ABE
331
AB8
  5
ABA
331
C1A
  5
C1C
331
D01
  5
D03
331
101C
  5
A59
331
CFD
  5
CFF
331
AB4
  5
AB6
331
AF3
  5
AF5
331
C16
  5
C18
331
CF9
  5
CFB
331
C12
  5
C14
331
9FF
  5
A00
331
9CD
  5
9CD
331
9FB
  5
9FC
331
3CE
  5
3CE
331
A75
  5
A77
331
9C9
  5
9C9
331
A36
  5
A37
331
9F7
  5
9F8
331
9F3
  5
9F4
331
A32
  5
A33
331
9C5
  5
9C5
331
520
  5
520
331
A2E
  5
A2F
331
A6D
  5
A6F
331
A2A
  5
A2B
331
A69
  5
A6B
331
AEF
  5
AF1
331
AEB
  5
AED
331
C0E
  5
C10
331
CF5
  5
CF7
331
AAC
  5
AAE
331
AA8
  5
AAA
331
AE7
  5
AE9
331
CF1
  5
CF3
331
AA4
  5
AA6
331
AE3
  5
AE5
331
DB0
  5
DB2
331
CED
  5
CEF
331
CE9
  5
CEB
331
DAC
  5
DAE
331
AA0
  5
AA2
331
9EF
  5
9F0
331
9EB
  5
9EC
331
A65
  5
A67
331
A26
  5
A27
331
A22
  5
A23
331
A61
  5
A63
331
4F5
  5
4F5
331
A1E
  5
A1F
331
A5D
  5
A5F
331
4F1
  5
4F1
331
A1A
  5
A1B
331
A59
  5
A5B
331
ADF
  5
AE1
331
ADB
  5
ADD
331
CE5
  5
CE7
331
A9C
  5
A9E
331
CE1
  5
CE3
331
A98
  5
A9B
331
A94
  5
A96
331
AD3
  5
AD5
331
D18
  5
D1A
331
CDD
  5
CDF
331
CD9
  5
CDB
331
D14
  5
D16
331
A90
  5
A92
331
D10
  5
D12
331
A55
  5
A56
331
439
  5
439
331
A12
  5
A13
331
3C6
  5
3C6
331
A51
  5
A52
331
9E4
  5
9E5
331
A4D
  5
A4E
331
A8C
  5
A8E
331
9E0
  5
9E1
331
A88
  5
A8C
331
A49
  5
A4A
331
ACF
  5
AD1
331
ACB
  5
ACD
331
AC7
  5
AC9
331
D0C
  5
D0E
331
AC3
  5
AC5
331
BE2
  5
BF1
331
C25
  5
C27
331
C21
  5
C23
331
D08
  5
D0A
331
A0E
  5
A0F
331
9DC
  5
9DD
331
A0A
  5
A0B
331
A06
  5
A07
331
3D9
  5
3D9
331
A84
  5
A86
331
9D8
  5
9D8
331
AFF
  5
BD8
331
A45
  5
A46
331
A02
  5
A03
331
3D5
  5
3D5
331
A41
  5
A42
331
A80
  5
A82
331
3D1
  5
3D1
331
A7C
  5
A7E
331
9D0
  5
9D0
331
A39
  5
A3A
331
A78
  5
A7A
331
ABF
  5
AC1
331
BDE
  5
BE0
331
C1D
  5
C1F
331
D04
  5
D06
331
ABB
  5
ABD
331
AB7
  5
AB9
331
C19
  5
C1B
331
D00
  5
D02
331
CFC
  5
CFE
331
AF2
  5
AF4
331
C15
  5
C17
331
C11
  5
C13
331
CF8
  5
CFA
331
9FE
  5
9FF
331
9CC
  5
9CC
331
9FA
  5
9FB
331
3CD
  5
3CD
331
3C9
  5
3C9
331
A74
  5
A76
331
9C8
  5
9C8
331
A35
  5
A36
331
9F6
  5
9F7
331
9F2
  5
9F3
331
A31
  5
A32
331
A70
  5
A74
331
103A
  5
9DC
331
A2D
  5
A2E
331
A6C
  5
A6E
331
A29
  5
A2A
331
A68
  5
A6A
331
AAF
  5
AB5
331
AEE
  5
AF0
331
CF4
  5
CF6
331
AAB
  5
AAD
331
AA7
  5
AA9
331
AE6
  5
AE8
331
CF0
  5
CF2
331
CEC
  5
CEE
331
DAF
  5
DB1
331
AA3
  5
AA5
331
AE2
  5
AE4
331
CE8
  5
CEA
331
DAB
  5
DAD
331
C01
  5
C0F
331
9EE
  5
9EF
331
513
  5
513
331
9EA
  5
9EB
331
A64
  5
A66
331
4F8
  5
4F8
331
A25
  5
A26
331
A21
  5
A22
331
A60
  5
A62
331
4F4
  5
4F4
331
A1D
  5
A1E
331
A5C
  5
A5E
331
A19
  5
A1A
331
A58
  5
A5A
331
A9F
  5
AA1
331
ADE
  5
AE0
331
ADA
  5
ADC
331
CE4
  5
CE6
331
A9B
  5
A9D
331
A97
  5
A99
331
BF9
  5
C0E
331
CE0
  5
CE2
331
A93
  5
A95
331
AD2
  5
AD4
331
D17
  5
D19
331
BF5
  5
BF9
331
CDC
  5
CDE
331
CD8
  5
CDA
331
D13
  5
D15
331
BF1
  5
BF4
  0
XRECORD
  5
10D1
102
{ACAD_REACTORS
330
10D0
102
}
330
10D0
100
AcDbXrecord
280
     1
 70
     1
  0
XRECORD
  5
10D3
102
{ACAD_REACTORS
330
10D0
102
}
330
10D0
100
AcDbXrecord
280
     1
340
12
  0
XRECORD
  5
10D4
102
{ACAD_REACTORS
330
10D0
102
}
330
10D0
100
AcDbXrecord
280
     1
340
12
  0
XRECORD
  5
10D2
102
{ACAD_REACTORS
330
10D0
102
}
330
10D0
100
AcDbXrecord
280
     1
340
12
  0
ACDBDETAILVIEWSTYLE
  5
585
102
{ACAD_XDICTIONARY
360
1108
102
}
102
{ACAD_REACTORS
330
584
102
}
330
584
100
AcDbModelDocViewStyle
 70
     0
  3
Metric50
290
     0
100
AcDbDetailViewStyle
 70
     0
 71
     0
 90
        3
 71
     1
340
10
 62
   256
 40
5.0
340
0
 62
   256
 40
5.0
300

 40
0.0
280
     1
 71
     2
340
14
 90
       25
 62
   256
 71
     3
340
10
 62
   256
 40
5.0
 90
        0
 40
15.0
 90
        1
300
%<\AcVar ViewDetailId>% (%<\AcVar ViewScale \f "%sn">%)
 71
     4
340
14
 90
       25
 62
   256
340
14
 90
       25
 62
   256
280
     0
  0
LAYOUT
  5
33B
102
{ACAD_REACTORS
330
301
102
}
330
301
100
AcDbPlotSettings
  1

  2
Lexmark Optra PS2
  4

  6

 40
0.0
 41
0.0
 42
0.0
 43
0.0
 44
0.0
 45
0.0
 46
0.0
 47
0.0
 48
0.0
 49
0.0
140
0.0
141
0.0
142
1.0
143
1.0
 70
   688
 72
     0
 73
     0
 74
     5
  7
monochrome.ctb
 75
    16
147
1.0
 76
     0
 77
     2
 78
   300
148
0.0
149
0.0
100
AcDbLayout
  1
Layout1
 70
     1
 71
     1
 10
0.0
 20
0.0
 11
12.0
 21
9.0
 12
0.0
 22
0.0
 32
0.0
 14
0.0
 24
0.0
 34
0.0
 15
0.0
 25
0.0
 35
0.0
146
0.0
 13
0.0
 23
0.0
 33
0.0
 16
1.0
 26
0.0
 36
0.0
 17
0.0
 27
1.0
 37
0.0
 76
     0
330
338
  0
LAYOUT
  5
303
102
{ACAD_REACTORS
330
301
102
}
330
301
100
AcDbPlotSettings
  1

  2
Lexmark Optra Rx
  4
A4
  6

 40
6.805083274841307
 41
5.535083293914794
 42
6.974411010742187
 43
7.14373779296875
 44
209.9733276367186
 45
296.9259948730469
 46
0.0
 47
0.0
 48
0.0
 49
0.0
140
0.0
141
0.0
142
1.0
143
2.976565420630883
 70
 11952
 72
     1
 73
     1
 74
     0
  7
monochrome.ctb
 75
     0
147
0.335957675604539
 76
     0
 77
     2
 78
   300
148
204.1199660668592
149
172.3933209647495
100
AcDbLayout
  1
Model
 70
     1
 71
     0
 10
0.0
 20
0.0
 11
12.0
 21
9.0
 12
0.0
 22
0.0
 32
0.0
 14
0.0
 24
0.0
 34
0.0
 15
0.0
 25
0.0
 35
0.0
146
0.0
 13
0.0
 23
0.0
 33
0.0
 16
1.0
 26
0.0
 36
0.0
 17
0.0
 27
1.0
 37
0.0
 76
     0
330
18
331
39A
  0
MATERIAL
  5
557
102
{ACAD_XDICTIONARY
360
558
102
}
102
{ACAD_REACTORS
330
386
102
}
330
386
100
AcDbMaterial
  1
ByBlock
 72
     0
 43
0.0008202099737533
 43
0.0
 43
0.0
 43
0.0
 43
0.0
 43
0.0008202099737533
 43
0.0
 43
0.0
 43
0.0
 43
0.0
 43
1.0
 43
0.0
 43
0.0
 43
0.0
 43
0.0
 43
1.0
 77
     0
 47
0.0008202099737533
 47
0.0
 47
0.0
 47
0.0
 47
0.0
 47
0.0008202099737533
 47
0.0
 47
0.0
 47
0.0
 47
0.0
 47
1.0
 47
0.0
 47
0.0
 47
0.0
 47
0.0
 47
1.0
171
     0
 49
0.0008202099737533
 49
0.0
 49
0.0
 49
0.0
 49
0.0
 49
0.0008202099737533
 49
0.0
 49
0.0
 49
0.0
 49
0.0
 49
1.0
 49
0.0
 49
0.0
 49
0.0
 49
0.0
 49
1.0
175
     0
142
0.0008202099737533
142
0.0
142
0.0
142
0.0
142
0.0
142
0.0008202099737533
142
0.0
142
0.0
142
0.0
142
0.0
142
1.0
142
0.0
142
0.0
142
0.0
142
0.0
142
1.0
179
     0
144
0.0008202099737533
144
0.0
144
0.0
144
0.0
144
0.0
144
0.0008202099737533
144
0.0
144
0.0
144
0.0
144
0.0
144
1.0
144
0.0
144
0.0
144
0.0
144
0.0
144
1.0
147
0.0008202099737533
147
0.0
147
0.0
147
0.0
147
0.0
147
0.0008202099737533
147
0.0
147
0.0
147
0.0
147
0.0
147
1.0
147
0.0
147
0.0
147
0.0
147
0.0
147
1.0
  0
MATERIAL
  5
54F
102
{ACAD_XDICTIONARY
360
550
102
}
102
{ACAD_REACTORS
330
386
102
}
330
386
100
AcDbMaterial
  1
ByLayer
 72
     0
 43
0.0008202099737533
 43
0.0
 43
0.0
 43
0.0
 43
0.0
 43
0.0008202099737533
 43
0.0
 43
0.0
 43
0.0
 43
0.0
 43
1.0
 43
0.0
 43
0.0
 43
0.0
 43
0.0
 43
1.0
 77
     0
 47
0.0008202099737533
 47
0.0
 47
0.0
 47
0.0
 47
0.0
 47
0.0008202099737533
 47
0.0
 47
0.0
 47
0.0
 47
0.0
 47
1.0
 47
0.0
 47
0.0
 47
0.0
 47
0.0
 47
1.0
171
     0
 49
0.0008202099737533
 49
0.0
 49
0.0
 49
0.0
 49
0.0
 49
0.0008202099737533
 49
0.0
 49
0.0
 49
0.0
 49
0.0
 49
1.0
 49
0.0
 49
0.0
 49
0.0
 49
0.0
 49
1.0
175
     0
142
0.0008202099737533
142
0.0
142
0.0
142
0.0
142
0.0
142
0.0008202099737533
142
0.0
142
0.0
142
0.0
142
0.0
142
1.0
142
0.0
142
0.0
142
0.0
142
0.0
142
1.0
179
     0
144
0.0008202099737533
144
0.0
144
0.0
144
0.0
144
0.0
144
0.0008202099737533
144
0.0
144
0.0
144
0.0
144
0.0
144
1.0
144
0.0
144
0.0
144
0.0
144
0.0
144
1.0
147
0.0008202099737533
147
0.0
147
0.0
147
0.0
147
0.0
147
0.0008202099737533
147
0.0
147
0.0
147
0.0
147
0.0
147
1.0
147
0.0
147
0.0
147
0.0
147
0.0
147
1.0
  0
MATERIAL
  5
55F
102
{ACAD_XDICTIONARY
360
560
102
}
102
{ACAD_REACTORS
330
386
102
}
330
386
100
AcDbMaterial
  1
Global
 72
     0
 43
0.0008202099737533
 43
0.0
 43
0.0
 43
0.0
 43
0.0
 43
0.0008202099737533
 43
0.0
 43
0.0
 43
0.0
 43
0.0
 43
1.0
 43
0.0
 43
0.0
 43
0.0
 43
0.0
 43
1.0
 77
     0
 47
0.0008202099737533
 47
0.0
 47
0.0
 47
0.0
 47
0.0
 47
0.0008202099737533
 47
0.0
 47
0.0
 47
0.0
 47
0.0
 47
1.0
 47
0.0
 47
0.0
 47
0.0
 47
0.0
 47
1.0
171
     0
 49
0.0008202099737533
 49
0.0
 49
0.0
 49
0.0
 49
0.0
 49
0.0008202099737533
 49
0.0
 49
0.0
 49
0.0
 49
0.0
 49
1.0
 49
0.0
 49
0.0
 49
0.0
 49
0.0
 49
1.0
175
     0
142
0.0008202099737533
142
0.0
142
0.0
142
0.0
142
0.0
142
0.0008202099737533
142
0.0
142
0.0
142
0.0
142
0.0
142
1.0
142
0.0
142
0.0
142
0.0
142
0.0
142
1.0
179
     0
144
0.0008202099737533
144
0.0
144
0.0
144
0.0
144
0.0
144
0.0008202099737533
144
0.0
144
0.0
144
0.0
144
0.0
144
1.0
144
0.0
144
0.0
144
0.0
144
0.0
144
1.0
147
0.0008202099737533
147
0.0
147
0.0
147
0.0
147
0.0
147
0.0008202099737533
147
0.0
147
0.0
147
0.0
147
0.0
147
1.0
147
0.0
147
0.0
147
0.0
147
0.0
147
1.0
  0
MLEADERSTYLE
  5
581
102
{ACAD_REACTORS
330
548
102
}
330
548
100
AcDbMLeaderStyle
170
     2
171
     1
172
     0
 90
        2
 40
0.0
 41
0.0
173
     1
 91
-1056964608
340
12
 92
       -2
290
     1
 42
2.0
291
     1
 43
0.36
  3
Standard
 44
4.0
300

342
10
174
     1
178
     6
175
     1
176
     0
 93
-1056964608
 45
4.0
292
     0
297
     0
 46
4.0
 94
-1056964608
 47
1.0
 49
1.0
140
1.0
293
     1
141
0.0
294
     1
177
     0
142
1.0
295
     0
296
     0
143
0.125
1001
ACAD_MLEADERVER
1070
     2
  0
MLINESTYLE
  5
1B
102
{ACAD_REACTORS
330
E
102
}
330
E
100
AcDbMlineStyle
  2
STANDARD
 70
     0
  3

 62
     0
 51
90.0
 52
90.0
 71
     2
 49
0.5
 62
   256
  6
BYLAYER
 49
-0.5
 62
   256
  6
BYLAYER
  0
ACDBPLACEHOLDER
  5
300
102
{ACAD_REACTORS
330
2FF
102
}
330
2FF
  0
SCALE
  5
3A1
102
{ACAD_REACTORS
330
3A0
102
}
330
3A0
100
AcDbScale
 70
     0
300
1:1
140
1.0
141
1.0
290
     1
  0
SCALE
  5
3A2
102
{ACAD_REACTORS
330
3A0
102
}
330
3A0
100
AcDbScale
 70
     0
300
1:2
140
1.0
141
2.0
290
     0
  0
SCALE
  5
3A3
102
{ACAD_REACTORS
330
3A0
102
}
330
3A0
100
AcDbScale
 70
     0
300
1:4
140
1.0
141
4.0
290
     0
  0
SCALE
  5
3A4
102
{ACAD_REACTORS
330
3A0
102
}
330
3A0
100
AcDbScale
 70
     0
300
1:5
140
1.0
141
5.0
290
     0
  0
SCALE
  5
3A5
102
{ACAD_REACTORS
330
3A0
102
}
330
3A0
100
AcDbScale
 70
     0
300
1:8
140
1.0
141
8.0
290
     0
  0
SCALE
  5
3A6
102
{ACAD_REACTORS
330
3A0
102
}
330
3A0
100
AcDbScale
 70
     0
300
1:10
140
1.0
141
10.0
290
     0
  0
SCALE
  5
3A7
102
{ACAD_REACTORS
330
3A0
102
}
330
3A0
100
AcDbScale
 70
     0
300
1:16
140
1.0
141
16.0
290
     0
  0
SCALE
  5
3A8
102
{ACAD_REACTORS
330
3A0
102
}
330
3A0
100
AcDbScale
 70
     0
300
1:20
140
1.0
141
20.0
290
     0
  0
SCALE
  5
3A9
102
{ACAD_REACTORS
330
3A0
102
}
330
3A0
100
AcDbScale
 70
     0
300
1:30
140
1.0
141
30.0
290
     0
  0
SCALE
  5
3AA
102
{ACAD_REACTORS
330
3A0
102
}
330
3A0
100
AcDbScale
 70
     0
300
1:40
140
1.0
141
40.0
290
     0
  0
SCALE
  5
3AB
102
{ACAD_REACTORS
330
3A0
102
}
330
3A0
100
AcDbScale
 70
     0
300
1:50
140
1.0
141
50.0
290
     0
  0
SCALE
  5
3AC
102
{ACAD_REACTORS
330
3A0
102
}
330
3A0
100
AcDbScale
 70
     0
300
1:100
140
1.0
141
100.0
290
     0
  0
SCALE
  5
3AD
102
{ACAD_REACTORS
330
3A0
102
}
330
3A0
100
AcDbScale
 70
     0
300
2:1
140
2.0
141
1.0
290
     0
  0
SCALE
  5
3AE
102
{ACAD_REACTORS
330
3A0
102
}
330
3A0
100
AcDbScale
 70
     0
300
4:1
140
4.0
141
1.0
290
     0
  0
SCALE
  5
3AF
102
{ACAD_REACTORS
330
3A0
102
}
330
3A0
100
AcDbScale
 70
     0
300
8:1
140
8.0
141
1.0
290
     0
  0
SCALE
  5
3B0
102
{ACAD_REACTORS
330
3A0
102
}
330
3A0
100
AcDbScale
 70
     0
300
10:1
140
10.0
141
1.0
290
     0
  0
SCALE
  5
3B1
102
{ACAD_REACTORS
330
3A0
102
}
330
3A0
100
AcDbScale
 70
     0
300
100:1
140
100.0
141
1.0
290
     0
  0
SCALE
  5
3B2
102
{ACAD_REACTORS
330
3A0
102
}
330
3A0
100
AcDbScale
 70
     0
300
1/128" = 1'-0"
140
0.0078125
141
12.0
290
     0
  0
SCALE
  5
3B3
102
{ACAD_REACTORS
330
3A0
102
}
330
3A0
100
AcDbScale
 70
     0
300
1/64" = 1'-0"
140
0.015625
141
12.0
290
     0
  0
SCALE
  5
3B4
102
{ACAD_REACTORS
330
3A0
102
}
330
3A0
100
AcDbScale
 70
     0
300
1/32" = 1'-0"
140
0.03125
141
12.0
290
     0
  0
SCALE
  5
3B5
102
{ACAD_REACTORS
330
3A0
102
}
330
3A0
100
AcDbScale
 70
     0
300
1/16" = 1'-0"
140
0.0625
141
12.0
290
     0
  0
SCALE
  5
3B6
102
{ACAD_REACTORS
330
3A0
102
}
330
3A0
100
AcDbScale
 70
     0
300
3/32" = 1'-0"
140
0.09375
141
12.0
290
     0
  0
SCALE
  5
3B7
102
{ACAD_REACTORS
330
3A0
102
}
330
3A0
100
AcDbScale
 70
     0
300
1/8" = 1'-0"
140
0.125
141
12.0
290
     0
  0
SCALE
  5
3B8
102
{ACAD_REACTORS
330
3A0
102
}
330
3A0
100
AcDbScale
 70
     0
300
3/16" = 1'-0"
140
0.1875
141
12.0
290
     0
  0
SCALE
  5
3B9
102
{ACAD_REACTORS
330
3A0
102
}
330
3A0
100
AcDbScale
 70
     0
300
1/4" = 1'-0"
140
0.25
141
12.0
290
     0
  0
SCALE
  5
3BA
102
{ACAD_REACTORS
330
3A0
102
}
330
3A0
100
AcDbScale
 70
     0
300
3/8" = 1'-0"
140
0.375
141
12.0
290
     0
  0
SCALE
  5
3BB
102
{ACAD_REACTORS
330
3A0
102
}
330
3A0
100
AcDbScale
 70
     0
300
1/2" = 1'-0"
140
0.5
141
12.0
290
     0
  0
SCALE
  5
3BC
102
{ACAD_REACTORS
330
3A0
102
}
330
3A0
100
AcDbScale
 70
     0
300
3/4" = 1'-0"
140
0.75
141
12.0
290
     0
  0
SCALE
  5
3BD
102
{ACAD_REACTORS
330
3A0
102
}
330
3A0
100
AcDbScale
 70
     0
300
1" = 1'-0"
140
1.0
141
12.0
290
     0
  0
SCALE
  5
3BE
102
{ACAD_REACTORS
330
3A0
102
}
330
3A0
100
AcDbScale
 70
     0
300
1-1/2" = 1'-0"
140
1.5
141
12.0
290
     0
  0
SCALE
  5
3BF
102
{ACAD_REACTORS
330
3A0
102
}
330
3A0
100
AcDbScale
 70
     0
300
3" = 1'-0"
140
3.0
141
12.0
290
     0
  0
SCALE
  5
3C0
102
{ACAD_REACTORS
330
3A0
102
}
330
3A0
100
AcDbScale
 70
     0
300
6" = 1'-0"
140
6.0
141
12.0
290
     0
  0
SCALE
  5
3C1
102
{ACAD_REACTORS
330
3A0
102
}
330
3A0
100
AcDbScale
 70
     0
300
1'-0" = 1'-0"
140
12.0
141
12.0
290
     0
  0
ACDBSECTIONVIEWSTYLE
  5
583
102
{ACAD_XDICTIONARY
360
1106
102
}
102
{ACAD_REACTORS
330
582
102
}
330
582
100
AcDbModelDocViewStyle
 70
     0
  3
Metric50
290
     0
100
AcDbSectionViewStyle
 70
     0
 71
     0
 90
      102
 71
     1
340
10
 62
   256
 40
5.0
340
0
340
0
 62
   256
 40
5.0
300
I, O, Q, S, X, Z
 40
10.0
 90
        0
 40
2.5
 90
        0
 71
     2
340
14
 90
       25
 62
   256
340
14
 90
       50
 62
   256
 40
5.0
 40
2.5
 40
5.0
 71
     3
340
10
 62
   256
 40
5.0
 90
        0
 40
15.0
 90
        1
300
%<\AcVar ViewSectionStartId>%-%<\AcVar ViewSectionEndId>% (%<\AcVar ViewScale \f "%sn">%)
 71
     4
 62
   256
 62
   257
300
ANSI31
 40
1.0
 90
        0
290
     0
290
     0
 90
        6
 40
0.0
 40
1.570796326794896
 40
0.2617993877991494
 40
1.308996938995747
 40
-0.2617993877991494
 40
1.832595714594044
  0
TABLESTYLE
  5
580
102
{ACAD_XDICTIONARY
360
5B2
102
}
102
{ACAD_REACTORS
330
388
102
}
330
388
100
AcDbTableStyle
  3
Standard
 70
     0
 71
     0
 40
1.5
 41
1.5
280
     0
281
     0
  7
STANDARD
140
4.5
170
     2
 62
     0
 63
     7
283
     0
274
    -2
284
     1
 64
     0
275
    -2
285
     1
 65
     0
276
    -2
286
     1
 66
     0
277
    -2
287
     1
 67
     0
278
    -2
288
     1
 68
     0
279
    -2
289
     1
 69
     0
  7
STANDARD
140
6.0
170
     5
 62
     0
 63
     7
283
     0
274
    -2
284
     1
 64
     0
275
    -2
285
     1
 65
     0
276
    -2
286
     1
 66
     0
277
    -2
287
     1
 67
     0
278
    -2
288
     1
 68
     0
279
    -2
289
     1
 69
     0
  7
STANDARD
140
4.5
170
     5
 62
     0
 63
     7
283
     0
274
    -2
284
     1
 64
     0
275
    -2
285
     1
 65
     0
276
    -2
286
     1
 66
     0
277
    -2
287
     1
 67
     0
278
    -2
288
     1
 68
     0
279
    -2
289
     1
 69
     0
  0
VISUALSTYLE
  5
56D
102
{ACAD_XDICTIONARY
360
10DF
102
}
102
{ACAD_REACTORS
330
567
102
}
330
567
100
AcDbVisualStyle
  2

 70
     4
 71
     0
 72
     2
 73
     0
 90
        0
 40
-0.6
 41
-30.0
 62
     5
 63
     7
 74
     1
 91
        4
 64
     7
 65
   257
 75
     1
175
     1
 42
1.0
 92
        0
 66
   257
 43
1.0
 76
     1
 77
     6
 78
     2
 67
     7
 79
     5
170
     0
171
     0
290
     0
174
     0
 93
        1
 44
0.0
173
     0
291
     0
 45
0.0
1001
ACAD
1000
AcDbSavedByObjectVersion
1070
     0
  0
VISUALSTYLE
  5
56C
102
{ACAD_XDICTIONARY
360
10DD
102
}
102
{ACAD_REACTORS
330
567
102
}
330
567
100
AcDbVisualStyle
  2

 70
     7
 71
     1
 72
     0
 73
     1
 90
        0
 40
-0.6
 41
-30.0
 62
     5
 63
     7
 74
     0
 91
        4
 64
     7
 65
   257
 75
     1
175
     1
 42
1.0
 92
        8
 66
     7
 43
1.0
 76
     1
 77
     6
 78
     2
 67
     7
 79
     5
170
     0
171
     0
290
     0
174
     0
 93
        1
 44
0.0
173
     0
291
     1
 45
0.0
1001
ACAD
1000
AcDbSavedByObjectVersion
1070
     0
  0
VISUALSTYLE
  5
573
102
{ACAD_XDICTIONARY
360
10EB
102
}
102
{ACAD_REACTORS
330
567
102
}
330
567
100
AcDbVisualStyle
  2

 70
    12
 71
     2
 72
     2
 73
     0
 90
        0
 40
-0.6
 41
-30.0
 62
     5
 63
     7
 74
     1
 91
        4
 64
     7
 65
   257
 75
     1
175
     1
 42
1.0
 92
        8
 66
     7
 43
1.0
 76
     1
 77
     6
 78
     2
 67
     7
 79
     5
170
     0
171
     0
290
     0
174
     0
 93
        1
 44
50.0
173
     0
291
     1
 45
0.0
1001
ACAD
1000
AcDbSavedByObjectVersion
1070
     0
  0
VISUALSTYLE
  5
577
102
{ACAD_XDICTIONARY
360
10F3
102
}
102
{ACAD_REACTORS
330
567
102
}
330
567
100
AcDbVisualStyle
  2

 70
    16
 71
     2
 72
     2
 73
     3
 90
        0
 40
-0.6
 41
-30.0
 62
     5
 63
     8
 74
     1
 91
        4
 64
     7
 65
   257
 75
     1
175
     1
 42
1.0
 92
        8
 66
     8
 43
1.0
 76
     1
 77
     6
 78
     2
 67
     7
 79
     5
170
     0
171
     0
290
     0
174
     0
 93
        1
 44
0.0
173
     0
291
     1
 45
0.0
1001
ACAD
1000
AcDbSavedByObjectVersion
1070
     0
  0
VISUALSTYLE
  5
570
102
{ACAD_XDICTIONARY
360
10E5
102
}
102
{ACAD_REACTORS
330
567
102
}
330
567
100
AcDbVisualStyle
  2

 70
     9
 71
     3
 72
     2
 73
     0
 90
        0
 40
-0.6
 41
-30.0
 62
     5
 63
     7
 74
     2
 91
        2
 64
     7
 65
   257
 75
     1
175
     1
 42
179.0
 92
        8
 66
     7
 43
1.0
 76
     1
 77
     6
 78
     2
 67
     7
 79
     3
170
     0
171
     0
290
     0
174
     0
 93
        1
 44
0.0
173
     0
291
     0
 45
0.0
1001
ACAD
1000
AcDbSavedByObjectVersion
1070
     0
  0
VISUALSTYLE
  5
572
102
{ACAD_XDICTIONARY
360
10E9
102
}
102
{ACAD_REACTORS
330
567
102
}
330
567
100
AcDbVisualStyle
  2

 70
    11
 71
     2
 72
     2
 73
     0
 90
        0
 40
-0.6
 41
-30.0
 62
     5
 63
     7
 74
     1
 91
        4
 64
     7
 65
   257
 75
     1
175
     1
 42
1.0
 92
        8
 66
     7
 43
1.0
 76
     1
 77
     6
 78
     2
 67
     7
 79
     5
170
     0
171
     0
290
     0
174
     0
 93
        1
 44
-50.0
173
     0
291
     1
 45
0.0
1001
ACAD
1000
AcDbSavedByObjectVersion
1070
     0
  0
VISUALSTYLE
  5
57F
102
{ACAD_XDICTIONARY
360
1103
102
}
102
{ACAD_REACTORS
330
567
102
}
330
567
100
AcDbVisualStyle
  2

 70
    22
 71
     2
 72
     2
 73
     0
 90
        0
 40
-0.6
 41
-30.0
 62
     5
 63
     7
 74
     1
 91
        4
 64
     7
 65
   257
 75
     1
175
     1
 42
1.0
 92
        8
 66
     7
 43
1.0
 76
     1
 77
     6
 78
     2
 67
     7
 79
     5
170
     0
171
     0
290
     0
174
     0
 93
        1
 44
0.0
173
     0
291
     1
 45
0.0
1001
ACAD
1000
AcDbSavedByObjectVersion
1070
     0
  0
VISUALSTYLE
  5
576
102
{ACAD_XDICTIONARY
360
10F1
102
}
102
{ACAD_REACTORS
330
567
102
}
330
567
100
AcDbVisualStyle
  2

 70
    15
 71
     2
 72
     2
 73
     0
 90
        0
 40
-0.6
 41
-30.0
 62
     5
 63
     7
 74
     1
 91
        4
 64
     7
 65
   257
 75
     1
175
     1
 42
1.0
 92
        8
 66
     7
 43
1.0
 76
     1
 77
     6
 78
     2
 67
     7
 79
     5
170
     0
171
     0
290
     0
174
     0
 93
        1
 44
0.0
173
     0
291
     1
 45
0.0
1001
ACAD
1000
AcDbSavedByObjectVersion
1070
     0
  0
VISUALSTYLE
  5
568
102
{ACAD_XDICTIONARY
360
10D5
102
}
102
{ACAD_REACTORS
330
567
102
}
330
567
100
AcDbVisualStyle
  2

 70
     0
 71
     2
 72
     1
 73
     1
 90
        2
 40
-0.6
 41
30.0
 62
     5
 63
     7
 74
     0
 91
        0
 64
     7
 65
   257
 75
     1
175
     1
 42
1.0
 92
        8
 66
     7
 43
1.0
 76
     1
 77
     6
 78
     2
 67
     7
 79
     5
170
     0
171
     0
290
     0
174
     0
 93
       13
 44
0.0
173
     0
291
     1
 45
0.0
1001
ACAD
1000
AcDbSavedByObjectVersion
1070
     0
  0
VISUALSTYLE
  5
569
102
{ACAD_XDICTIONARY
360
10D7
102
}
102
{ACAD_REACTORS
330
567
102
}
330
567
100
AcDbVisualStyle
  2

 70
     1
 71
     2
 72
     1
 73
     1
 90
        2
 40
-0.6
 41
30.0
 62
     5
 63
     7
 74
     1
 91
        0
 64
     7
 65
   257
 75
     1
175
     1
 42
1.0
 92
        0
 66
   257
 43
1.0
 76
     1
 77
     6
 78
     2
 67
     7
 79
     5
170
     0
171
     0
290
     0
174
     0
 93
       13
 44
0.0
173
     0
291
     1
 45
0.0
1001
ACAD
1000
AcDbSavedByObjectVersion
1070
     0
  0
VISUALSTYLE
  5
56A
102
{ACAD_XDICTIONARY
360
10D9
102
}
102
{ACAD_REACTORS
330
567
102
}
330
567
100
AcDbVisualStyle
  2

 70
     2
 71
     2
 72
     2
 73
     1
 90
        2
 40
-0.6
 41
30.0
 62
     5
 63
     7
 74
     0
 91
        0
 64
     7
 65
   257
 75
     1
175
     1
 42
1.0
 92
        0
 66
     7
 43
1.0
 76
     1
 77
     6
 78
     2
 67
     7
 79
     5
170
     0
171
     0
290
     0
174
     0
 93
       13
 44
0.0
173
     0
291
     1
 45
0.0
1001
ACAD
1000
AcDbSavedByObjectVersion
1070
     0
  0
VISUALSTYLE
  5
56B
102
{ACAD_XDICTIONARY
360
10DB
102
}
102
{ACAD_REACTORS
330
567
102
}
330
567
100
AcDbVisualStyle
  2

 70
     3
 71
     2
 72
     2
 73
     1
 90
        2
 40
-0.6
 41
30.0
 62
     5
 63
     7
 74
     1
 91
        0
 64
     7
 65
   257
 75
     1
175
     1
 42
1.0
 92
        0
 66
   257
 43
1.0
 76
     1
 77
     6
 78
     2
 67
     7
 79
     5
170
     0
171
     0
290
     0
174
     0
 93
       13
 44
0.0
173
     0
291
     1
 45
0.0
1001
ACAD
1000
AcDbSavedByObjectVersion
1070
     0
  0
VISUALSTYLE
  5
56F
102
{ACAD_XDICTIONARY
360
10E3
102
}
102
{ACAD_REACTORS
330
567
102
}
330
567
100
AcDbVisualStyle
  2

 70
     6
 71
     1
 72
     2
 73
     2
 90
        0
 40
-0.6
 41
-30.0
 62
     5
 63
     7
 74
     2
 91
        2
 64
     7
 65
   257
 75
     2
175
     1
 42
40.0
 92
        0
 66
   257
 43
1.0
 76
     1
 77
     6
 78
     2
 67
     7
 79
     3
170
     0
171
     0
290
     0
174
     0
 93
        1
 44
0.0
173
     0
291
     0
 45
0.0
1001
ACAD
1000
AcDbSavedByObjectVersion
1070
     0
  0
VISUALSTYLE
  5
57D
102
{ACAD_XDICTIONARY
360
10FF
102
}
102
{ACAD_REACTORS
330
567
102
}
330
567
100
AcDbVisualStyle
  2

 70
    20
 71
     2
 72
     2
 73
     0
 90
        0
 40
-0.6
 41
-30.0
 62
     5
 63
     7
 74
     1
 91
        4
 64
     7
 65
   257
 75
     1
175
     1
 42
1.0
 92
       10
 66
     7
 43
1.0
 76
     1
 77
     6
 78
     2
 67
     7
 79
     5
170
     0
171
     0
290
     0
174
     0
 93
        1
 44
0.0
173
     0
291
     1
 45
0.0
1001
ACAD
1000
AcDbSavedByObjectVersion
1070
     0
  0
VISUALSTYLE
  5
575
102
{ACAD_XDICTIONARY
360
10EF
102
}
102
{ACAD_REACTORS
330
567
102
}
330
567
100
AcDbVisualStyle
  2

 70
    14
 71
     2
 72
     2
 73
     0
 90
        0
 40
-0.6
 41
-30.0
 62
     5
 63
     7
 74
     1
 91
        4
 64
     7
 65
   257
 75
     7
175
     7
 42
1.0
 92
        8
 66
     7
 43
1.0
 76
     1
 77
     6
 78
     2
 67
     7
 79
     5
170
     0
171
     0
290
     0
174
     0
 93
        1
 44
0.0
173
     0
291
     1
 45
0.0
1001
ACAD
1000
AcDbSavedByObjectVersion
1070
     0
  0
VISUALSTYLE
  5
57E
102
{ACAD_XDICTIONARY
360
1101
102
}
102
{ACAD_REACTORS
330
567
102
}
330
567
100
AcDbVisualStyle
  2

 70
    21
 71
     2
 72
     2
 73
     0
 90
        0
 40
-0.6
 41
-30.0
 62
     5
 63
     7
 74
     1
 91
        4
 64
     7
 65
   257
 75
     1
175
     1
 42
1.0
 92
        9
 66
     7
 43
1.0
 76
     1
 77
     6
 78
     2
 67
     7
 79
     5
170
     0
171
     0
290
     0
174
     0
 93
        1
 44
0.0
173
     0
291
     1
 45
0.0
1001
ACAD
1000
AcDbSavedByObjectVersion
1070
     0
  0
VISUALSTYLE
  5
571
102
{ACAD_XDICTIONARY
360
10E7
102
}
102
{ACAD_REACTORS
330
567
102
}
330
567
100
AcDbVisualStyle
  2

 70
     8
 71
     2
 72
     3
 73
     0
 90
        2
 40
-0.6
 41
30.0
 62
     5
 63
     7
 74
     0
 91
        0
 64
     7
 65
   257
 75
     1
175
     1
 42
1.0
 92
        8
 66
   257
 43
1.0
 76
     1
 77
     6
 78
     2
 67
     7
 79
     3
170
     0
171
     0
290
     0
174
     0
 93
       13
 44
0.0
173
     0
291
     0
 45
0.0
1001
ACAD
1000
AcDbSavedByObjectVersion
1070
     0
  0
VISUALSTYLE
  5
57C
102
{ACAD_XDICTIONARY
360
10FD
102
}
102
{ACAD_REACTORS
330
567
102
}
330
567
100
AcDbVisualStyle
  2

 70
    27
 71
     2
 72
     2
 73
     1
 90
        2
 40
-0.6
 41
30.0
 62
     5
 63
     7
 74
     0
 91
        4
 64
     7
 65
   257
 75
     1
175
     1
 42
1.0
 92
        8
 66
   257
 43
1.0
 76
     1
 77
     6
 78
     2
 67
     8
 79
     3
170
     0
171
     0
290
     0
174
     0
 93
        5
 44
0.0
173
     0
291
     0
 45
0.0
1001
ACAD
1000
AcDbSavedByObjectVersion
1070
     0
  0
VISUALSTYLE
  5
57B
102
{ACAD_XDICTIONARY
360
10FB
102
}
102
{ACAD_REACTORS
330
567
102
}
330
567
100
AcDbVisualStyle
  2

 70
    26
 71
     2
 72
     2
 73
     1
 90
        2
 40
-0.6
 41
30.0
 62
     5
 63
     7
 74
     1
 91
       10
 64
     7
 65
   257
 75
     2
175
     1
 42
1.0
 92
        8
 66
   257
 43
1.0
 76
     1
 77
     6
 78
     2
 67
     7
 79
     3
170
     0
171
     0
290
     0
174
     0
 93
        5
 44
0.0
173
     0
291
     0
 45
0.0
1001
ACAD
1000
AcDbSavedByObjectVersion
1070
     0
  0
VISUALSTYLE
  5
578
102
{ACAD_XDICTIONARY
360
10F5
102
}
102
{ACAD_REACTORS
330
567
102
}
330
567
100
AcDbVisualStyle
  2

 70
    23
 71
     2
 72
     2
 73
     3
 90
        0
 40
-0.6
 41
-30.0
 62
     5
 63
     7
 74
     2
 91
        2
 64
     7
 65
     7
 75
     1
175
     1
 42
40.0
 92
        8
 66
     7
 43
1.0
 76
     1
 77
     6
 78
     2
 67
     7
 79
     3
170
     0
171
     0
290
     0
174
     0
 93
        1
 44
0.0
173
     0
291
     0
 45
0.0
1001
ACAD
1000
AcDbSavedByObjectVersion
1070
     0
  0
VISUALSTYLE
  5
579
102
{ACAD_XDICTIONARY
360
10F7
102
}
102
{ACAD_REACTORS
330
567
102
}
330
567
100
AcDbVisualStyle
  2

 70
    24
 71
     1
 72
     2
 73
     2
 90
        0
 40
-0.6
 41
-30.0
 62
     5
 63
     7
 74
     2
 91
        2
 64
     7
 65
     7
 75
     1
175
     1
 42
40.0
 92
       11
 66
     7
 43
1.0
 76
     1
 77
     6
 78
     2
 67
     7
 79
     6
170
     0
171
     0
290
     0
174
     0
 93
        1
 44
0.0
173
     0
291
     0
 45
0.0
1001
ACAD
1000
AcDbSavedByObjectVersion
1070
     0
  0
VISUALSTYLE
  5
574
102
{ACAD_XDICTIONARY
360
10ED
102
}
102
{ACAD_REACTORS
330
567
102
}
330
567
100
AcDbVisualStyle
  2

 70
    13
 71
     2
 72
     2
 73
     0
 90
        0
 40
-0.6
 41
-30.0
 62
     5
 63
     7
 74
     1
 91
        4
 64
     7
 65
   257
 75
     1
175
     1
 42
1.0
 92
       12
 66
     7
 43
1.0
 76
     1
 77
     6
 78
     2
 67
     7
 79
     5
170
     0
171
     0
290
     0
174
     0
 93
        1
 44
0.0
173
     0
291
     1
 45
0.0
1001
ACAD
1000
AcDbSavedByObjectVersion
1070
     0
  0
VISUALSTYLE
  5
56E
102
{ACAD_XDICTIONARY
360
10E1
102
}
102
{ACAD_REACTORS
330
567
102
}
330
567
100
AcDbVisualStyle
  2

 70
     5
 71
     0
 72
     2
 73
     0
 90
        0
 40
-0.6
 41
-30.0
 62
     5
 63
     7
 74
     1
 91
        4
 64
     7
 65
   257
 75
     1
175
     1
 42
1.0
 92
        0
 66
   257
 43
1.0
 76
     1
 77
     6
 78
     2
 67
     7
 79
     3
170
     0
171
     0
290
     0
174
     0
 93
        1
 44
0.0
173
     0
291
     0
 45
0.0
1001
ACAD
1000
AcDbSavedByObjectVersion
1070
     0
  0
VISUALSTYLE
  5
57A
102
{ACAD_XDICTIONARY
360
10F9
102
}
102
{ACAD_REACTORS
330
567
102
}
330
567
100
AcDbVisualStyle
  2

 70
    25
 71
     2
 72
     2
 73
     1
 90
        1
 40
0.5
 41
-30.0
 62
     5
 63
     7
 74
     1
 91
        0
 64
     7
 65
   257
 75
     1
175
     1
 42
1.0
 92
        8
 66
     7
 43
1.0
 76
     1
 77
     6
 78
     2
 67
     7
 79
     3
170
     0
171
     0
290
     0
174
     0
 93
       13
 44
0.0
173
     0
291
     0
 45
0.0
1001
ACAD
1000
AcDbSavedByObjectVersion
1070
     0
  0
DICTIONARYVAR
  5
549
102
{ACAD_REACTORS
330
357
102
}
330
357
100
DictionaryVariables
280
     0
  1
1:1
  0
DICTIONARYVAR
  5
5AB
102
{ACAD_REACTORS
330
357
102
}
330
357
100
DictionaryVariables
280
     0
  1
STANDARD
  0
DICTIONARYVAR
  5
38D
102
{ACAD_REACTORS
330
357
102
}
330
357
100
DictionaryVariables
280
     0
  1
STANDARD
  0
DICTIONARYVAR
  5
5AC
102
{ACAD_REACTORS
330
357
102
}
330
357
100
DictionaryVariables
280
     0
  1
Metric50
  0
DICTIONARYVAR
  5
5AD
102
{ACAD_REACTORS
330
357
102
}
330
357
100
DictionaryVariables
280
     0
  1
Metric50
  0
DICTIONARYVAR
  5
359
102
{ACAD_REACTORS
330
357
102
}
330
357
100
DictionaryVariables
280
     0
  1
2
  0
DICTIONARYVAR
  5
358
102
{ACAD_REACTORS
330
357
102
}
330
357
100
DictionaryVariables
280
     0
  1
1
  0
DICTIONARYVAR
  5
5AF
102
{ACAD_REACTORS
330
357
102
}
330
357
100
DictionaryVariables
280
     0
  1
0
  0
DICTIONARYVAR
  5
D43
102
{ACAD_REACTORS
330
357
102
}
330
357
100
DictionaryVariables
280
     0
  1
1
  0
DICTIONARYVAR
  5
D44
102
{ACAD_REACTORS
330
357
102
}
330
357
100
DictionaryVariables
280
     0
  1
15
  0
DICTIONARYVAR
  5
D42
102
{ACAD_REACTORS
330
357
102
}
330
357
100
DictionaryVariables
280
     0
  1
0
  0
DICTIONARYVAR
  5
D41
102
{ACAD_REACTORS
330
357
102
}
330
357
100
DictionaryVariables
280
     0
  1
0
  0
DICTIONARYVAR
  5
38E
102
{ACAD_REACTORS
330
357
102
}
330
357
100
DictionaryVariables
280
     0
  1

  0
DICTIONARYVAR
  5
5AE
102
{ACAD_REACTORS
330
357
102
}
330
357
100
DictionaryVariables
280
     0
  1
127
  0
DICTIONARYVAR
  5
10CD
102
{ACAD_REACTORS
330
357
102
}
330
357
100
DictionaryVariables
280
     0
  1
2
  0
DICTIONARY
  5
626
102
{ACAD_REACTORS
330
61F
102
}
330
61F
100
AcDbDictionary
281
     1
  0
DICTIONARY
  5
1108
330
585
100
AcDbDictionary
280
     1
281
     1
  3
ACAD_XREC_ROUNDTRIP
360
1109
  0
DICTIONARY
  5
558
330
557
100
AcDbDictionary
280
     1
281
     1
  3
ACAD_XREC_ROUNDTRIP
360
5BC
  3
BUMPTILE
360
55A
  3
DIFFUSETILE
360
559
  3
OPACITYTILE
360
55D
  3
REFLECTIONTILE
360
55C
  3
REFRACTIONTILE
360
55E
  3
SPECULARTILE
360
55B
  0
DICTIONARY
  5
550
330
54F
100
AcDbDictionary
280
     1
281
     1
  3
ACAD_XREC_ROUNDTRIP
360
5BB
  3
BUMPTILE
360
552
  3
DIFFUSETILE
360
551
  3
OPACITYTILE
360
555
  3
REFLECTIONTILE
360
554
  3
REFRACTIONTILE
360
556
  3
SPECULARTILE
360
553
  0
DICTIONARY
  5
560
330
55F
100
AcDbDictionary
280
     1
281
     1
  3
ACAD_XREC_ROUNDTRIP
360
5BD
  3
BUMPTILE
360
562
  3
DIFFUSETILE
360
561
  3
OPACITYTILE
360
565
  3
REFLECTIONTILE
360
564
  3
REFRACTIONTILE
360
566
  3
SPECULARTILE
360
563
  0
DICTIONARY
  5
1106
330
583
100
AcDbDictionary
280
     1
281
     1
  3
ACAD_XREC_ROUNDTRIP
360
1107
  0
DICTIONARY
  5
5B2
330
580
100
AcDbDictionary
280
     1
281
     1
  3
ACAD_ROUNDTRIP_2008_TABLESTYLE_CELLSTYLEMAP
360
10CE
  3
ACAD_XREC_ROUNDTRIP
360
1105
  0
DICTIONARY
  5
10DF
330
56D
100
AcDbDictionary
280
     1
281
     1
  3
ACAD_XREC_ROUNDTRIP
360
10E0
  0
DICTIONARY
  5
10DD
330
56C
100
AcDbDictionary
280
     1
281
     1
  3
ACAD_XREC_ROUNDTRIP
360
10DE
  0
DICTIONARY
  5
10EB
330
573
100
AcDbDictionary
280
     1
281
     1
  3
ACAD_XREC_ROUNDTRIP
360
10EC
  0
DICTIONARY
  5
10F3
330
577
100
AcDbDictionary
280
     1
281
     1
  3
ACAD_XREC_ROUNDTRIP
360
10F4
  0
DICTIONARY
  5
10E5
330
570
100
AcDbDictionary
280
     1
281
     1
  3
ACAD_XREC_ROUNDTRIP
360
10E6
  0
DICTIONARY
  5
10E9
330
572
100
AcDbDictionary
280
     1
281
     1
  3
ACAD_XREC_ROUNDTRIP
360
10EA
  0
DICTIONARY
  5
1103
330
57F
100
AcDbDictionary
280
     1
281
     1
  3
ACAD_XREC_ROUNDTRIP
360
1104
  0
DICTIONARY
  5
10F1
330
576
100
AcDbDictionary
280
     1
281
     1
  3
ACAD_XREC_ROUNDTRIP
360
10F2
  0
DICTIONARY
  5
10D5
330
568
100
AcDbDictionary
280
     1
281
     1
  3
ACAD_XREC_ROUNDTRIP
360
10D6
  0
DICTIONARY
  5
10D7
330
569
100
AcDbDictionary
280
     1
281
     1
  3
ACAD_XREC_ROUNDTRIP
360
10D8
  0
DICTIONARY
  5
10D9
330
56A
100
AcDbDictionary
280
     1
281
     1
  3
ACAD_XREC_ROUNDTRIP
360
10DA
  0
DICTIONARY
  5
10DB
330
56B
100
AcDbDictionary
280
     1
281
     1
  3
ACAD_XREC_ROUNDTRIP
360
10DC
  0
DICTIONARY
  5
10E3
330
56F
100
AcDbDictionary
280
     1
281
     1
  3
ACAD_XREC_ROUNDTRIP
360
10E4
  0
DICTIONARY
  5
10FF
330
57D
100
AcDbDictionary
280
     1
281
     1
  3
ACAD_XREC_ROUNDTRIP
360
1100
  0
DICTIONARY
  5
10EF
330
575
100
AcDbDictionary
280
     1
281
     1
  3
ACAD_XREC_ROUNDTRIP
360
10F0
  0
DICTIONARY
  5
1101
330
57E
100
AcDbDictionary
280
     1
281
     1
  3
ACAD_XREC_ROUNDTRIP
360
1102
  0
DICTIONARY
  5
10E7
330
571
100
AcDbDictionary
280
     1
281
     1
  3
ACAD_XREC_ROUNDTRIP
360
10E8
  0
DICTIONARY
  5
10FD
330
57C
100
AcDbDictionary
280
     1
281
     1
  3
ACAD_XREC_ROUNDTRIP
360
10FE
  0
DICTIONARY
  5
10FB
330
57B
100
AcDbDictionary
280
     1
281
     1
  3
ACAD_XREC_ROUNDTRIP
360
10FC
  0
DICTIONARY
  5
10F5
330
578
100
AcDbDictionary
280
     1
281
     1
  3
ACAD_XREC_ROUNDTRIP
360
10F6
  0
DICTIONARY
  5
10F7
330
579
100
AcDbDictionary
280
     1
281
     1
  3
ACAD_XREC_ROUNDTRIP
360
10F8
  0
DICTIONARY
  5
10ED
330
574
100
AcDbDictionary
280
     1
281
     1
  3
ACAD_XREC_ROUNDTRIP
360
10EE
  0
DICTIONARY
  5
10E1
330
56E
100
AcDbDictionary
280
     1
281
     1
  3
ACAD_XREC_ROUNDTRIP
360
10E2
  0
DICTIONARY
  5
10F9
330
57A
100
AcDbDictionary
280
     1
281
     1
  3
ACAD_XREC_ROUNDTRIP
360
10FA
  0
XRECORD
  5
1109
102
{ACAD_REACTORS
330
1108
102
}
330
1108
100
AcDbXrecord
280
     1
102
DISPLAYNAME
  1
Metric50
102
FLAGS
 90
        0
  0
XRECORD
  5
5BC
102
{ACAD_REACTORS
330
558
102
}
330
558
100
AcDbXrecord
280
     1
102
MATERIAL
148
0.0
149
0.0
149
0.0
 93
        0
 94
      127
282
     0
 72
     0
 77
     0
171
     0
175
     0
179
     0
273
     0
  0
XRECORD
  5
55A
102
{ACAD_REACTORS
330
558
102
}
330
558
100
AcDbXrecord
280
     1
270
     1
271
     1
  0
XRECORD
  5
559
102
{ACAD_REACTORS
330
558
102
}
330
558
100
AcDbXrecord
280
     1
270
     1
271
     1
  0
XRECORD
  5
55D
102
{ACAD_REACTORS
330
558
102
}
330
558
100
AcDbXrecord
280
     1
270
     1
271
     1
  0
XRECORD
  5
55C
102
{ACAD_REACTORS
330
558
102
}
330
558
100
AcDbXrecord
280
     1
270
     1
271
     1
  0
XRECORD
  5
55E
102
{ACAD_REACTORS
330
558
102
}
330
558
100
AcDbXrecord
280
     1
270
     1
271
     1
  0
XRECORD
  5
55B
102
{ACAD_REACTORS
330
558
102
}
330
558
100
AcDbXrecord
280
     1
270
     1
271
     1
  0
XRECORD
  5
5BB
102
{ACAD_REACTORS
330
550
102
}
330
550
100
AcDbXrecord
280
     1
102
MATERIAL
148
0.0
149
0.0
149
0.0
 93
        0
 94
      127
282
     0
 72
     0
 77
     0
171
     0
175
     0
179
     0
273
     0
  0
XRECORD
  5
552
102
{ACAD_REACTORS
330
550
102
}
330
550
100
AcDbXrecord
280
     1
270
     1
271
     1
  0
XRECORD
  5
551
102
{ACAD_REACTORS
330
550
102
}
330
550
100
AcDbXrecord
280
     1
270
     1
271
     1
  0
XRECORD
  5
555
102
{ACAD_REACTORS
330
550
102
}
330
550
100
AcDbXrecord
280
     1
270
     1
271
     1
  0
XRECORD
  5
554
102
{ACAD_REACTORS
330
550
102
}
330
550
100
AcDbXrecord
280
     1
270
     1
271
     1
  0
XRECORD
  5
556
102
{ACAD_REACTORS
330
550
102
}
330
550
100
AcDbXrecord
280
     1
270
     1
271
     1
  0
XRECORD
  5
553
102
{ACAD_REACTORS
330
550
102
}
330
550
100
AcDbXrecord
280
     1
270
     1
271
     1
  0
XRECORD
  5
5BD
102
{ACAD_REACTORS
330
560
102
}
330
560
100
AcDbXrecord
280
     1
102
MATERIAL
148
0.0
149
0.0
149
0.0
 93
        0
 94
      127
282
     0
 72
     0
 77
     0
171
     0
175
     0
179
     0
273
     0
  0
XRECORD
  5
562
102
{ACAD_REACTORS
330
560
102
}
330
560
100
AcDbXrecord
280
     1
270
     1
271
     1
  0
XRECORD
  5
561
102
{ACAD_REACTORS
330
560
102
}
330
560
100
AcDbXrecord
280
     1
270
     1
271
     1
  0
XRECORD
  5
565
102
{ACAD_REACTORS
330
560
102
}
330
560
100
AcDbXrecord
280
     1
270
     1
271
     1
  0
XRECORD
  5
564
102
{ACAD_REACTORS
330
560
102
}
330
560
100
AcDbXrecord
280
     1
270
     1
271
     1
  0
XRECORD
  5
566
102
{ACAD_REACTORS
330
560
102
}
330
560
100
AcDbXrecord
280
     1
270
     1
271
     1
  0
XRECORD
  5
563
102
{ACAD_REACTORS
330
560
102
}
330
560
100
AcDbXrecord
280
     1
270
     1
271
     1
  0
XRECORD
  5
1107
102
{ACAD_REACTORS
330
1106
102
}
330
1106
100
AcDbXrecord
280
     1
102
DISPLAYNAME
  1
Metric50
102
FLAGS
 90
        0
  0
CELLSTYLEMAP
  5
10CE
102
{ACAD_REACTORS
330
5B2
102
}
330
5B2
100
AcDbCellStyleMap
 90
        3
300
CELLSTYLE
  1
TABLEFORMAT_BEGIN
 90
        5
170
     1
 91
        0
 92
    32768
 62
   257
 93
        1
300
CONTENTFORMAT
  1
CONTENTFORMAT_BEGIN
 90
        0
 91
        0
 92
      512
 93
        0
300

 40
0.0
140
1.0
 94
        5
 62
     0
340
10
144
6.0
309
CONTENTFORMAT_END
171
     1
301
MARGIN
  1
CELLMARGIN_BEGIN
 40
1.5
 40
1.5
 40
1.5
 40
1.5
 40
0.18
 40
0.18
309
CELLMARGIN_END
 94
        6
 95
        1
302
GRIDFORMAT
  1
GRIDFORMAT_BEGIN
 90
        0
 91
        1
 62
     0
 92
       -2
340
0
 93
        0
 40
1.125
309
GRIDFORMAT_END
 95
        2
302
GRIDFORMAT
  1
GRIDFORMAT_BEGIN
 90
        0
 91
        1
 62
     0
 92
       -2
340
0
 93
        0
 40
1.125
309
GRIDFORMAT_END
 95
        4
302
GRIDFORMAT
  1
GRIDFORMAT_BEGIN
 90
        0
 91
        1
 62
     0
 92
       -2
340
0
 93
        0
 40
1.125
309
GRIDFORMAT_END
 95
        8
302
GRIDFORMAT
  1
GRIDFORMAT_BEGIN
 90
        0
 91
        1
 62
     0
 92
       -2
340
0
 93
        0
 40
1.125
309
GRIDFORMAT_END
 95
       16
302
GRIDFORMAT
  1
GRIDFORMAT_BEGIN
 90
        0
 91
        1
 62
     0
 92
       -2
340
0
 93
        0
 40
1.125
309
GRIDFORMAT_END
 95
       32
302
GRIDFORMAT
  1
GRIDFORMAT_BEGIN
 90
        0
 91
        1
 62
     0
 92
       -2
340
0
 93
        0
 40
1.125
309
GRIDFORMAT_END
309
TABLEFORMAT_END
  1
CELLSTYLE_BEGIN
 90
        1
 91
        1
300
_TITLE
309
CELLSTYLE_END
300
CELLSTYLE
  1
TABLEFORMAT_BEGIN
 90
        5
170
     1
 91
        0
 92
        0
 62
   257
 93
        1
300
CONTENTFORMAT
  1
CONTENTFORMAT_BEGIN
 90
        0
 91
        0
 92
      512
 93
        0
300

 40
0.0
140
1.0
 94
        5
 62
     0
340
10
144
4.5
309
CONTENTFORMAT_END
171
     1
301
MARGIN
  1
CELLMARGIN_BEGIN
 40
1.5
 40
1.5
 40
1.5
 40
1.5
 40
0.18
 40
0.18
309
CELLMARGIN_END
 94
        6
 95
        1
302
GRIDFORMAT
  1
GRIDFORMAT_BEGIN
 90
        0
 91
        1
 62
     0
 92
       -2
340
0
 93
        0
 40
1.125
309
GRIDFORMAT_END
 95
        2
302
GRIDFORMAT
  1
GRIDFORMAT_BEGIN
 90
        0
 91
        1
 62
     0
 92
       -2
340
0
 93
        0
 40
1.125
309
GRIDFORMAT_END
 95
        4
302
GRIDFORMAT
  1
GRIDFORMAT_BEGIN
 90
        0
 91
        1
 62
     0
 92
       -2
340
0
 93
        0
 40
1.125
309
GRIDFORMAT_END
 95
        8
302
GRIDFORMAT
  1
GRIDFORMAT_BEGIN
 90
        0
 91
        1
 62
     0
 92
       -2
340
0
 93
        0
 40
1.125
309
GRIDFORMAT_END
 95
       16
302
GRIDFORMAT
  1
GRIDFORMAT_BEGIN
 90
        0
 91
        1
 62
     0
 92
       -2
340
0
 93
        0
 40
1.125
309
GRIDFORMAT_END
 95
       32
302
GRIDFORMAT
  1
GRIDFORMAT_BEGIN
 90
        0
 91
        1
 62
     0
 92
       -2
340
0
 93
        0
 40
1.125
309
GRIDFORMAT_END
309
TABLEFORMAT_END
  1
CELLSTYLE_BEGIN
 90
        2
 91
        1
300
_HEADER
309
CELLSTYLE_END
300
CELLSTYLE
  1
TABLEFORMAT_BEGIN
 90
        5
170
     1
 91
        0
 92
        0
 62
   257
 93
        1
300
CONTENTFORMAT
  1
CONTENTFORMAT_BEGIN
 90
        0
 91
        0
 92
      512
 93
        0
300

 40
0.0
140
1.0
 94
        2
 62
     0
340
10
144
4.5
309
CONTENTFORMAT_END
171
     1
301
MARGIN
  1
CELLMARGIN_BEGIN
 40
1.5
 40
1.5
 40
1.5
 40
1.5
 40
0.18
 40
0.18
309
CELLMARGIN_END
 94
        6
 95
        1
302
GRIDFORMAT
  1
GRIDFORMAT_BEGIN
 90
        0
 91
        1
 62
     0
 92
       -2
340
0
 93
        0
 40
1.125
309
GRIDFORMAT_END
 95
        2
302
GRIDFORMAT
  1
GRIDFORMAT_BEGIN
 90
        0
 91
        1
 62
     0
 92
       -2
340
0
 93
        0
 40
1.125
309
GRIDFORMAT_END
 95
        4
302
GRIDFORMAT
  1
GRIDFORMAT_BEGIN
 90
        0
 91
        1
 62
     0
 92
       -2
340
0
 93
        0
 40
1.125
309
GRIDFORMAT_END
 95
        8
302
GRIDFORMAT
  1
GRIDFORMAT_BEGIN
 90
        0
 91
        1
 62
     0
 92
       -2
340
0
 93
        0
 40
1.125
309
GRIDFORMAT_END
 95
       16
302
GRIDFORMAT
  1
GRIDFORMAT_BEGIN
 90
        0
 91
        1
 62
     0
 92
       -2
340
0
 93
        0
 40
1.125
309
GRIDFORMAT_END
 95
       32
302
GRIDFORMAT
  1
GRIDFORMAT_BEGIN
 90
        0
 91
        1
 62
     0
 92
       -2
340
0
 93
        0
 40
1.125
309
GRIDFORMAT_END
309
TABLEFORMAT_END
  1
CELLSTYLE_BEGIN
 90
        3
 91
        2
300
_DATA
309
CELLSTYLE_END
  0
XRECORD
  5
1105
102
{ACAD_REACTORS
330
5B2
102
}
330
5B2
100
AcDbXrecord
280
     1
102
ACAD_ROUNDTRIP_PRE2007_TABLESTYLE
 90
      512
 91
        0
  1

 92
      512
 93
        0
  2

 94
      512
 95
        0
  3

  0
XRECORD
  5
10E0
102
{ACAD_REACTORS
330
10DF
102
}
330
10DF
100
AcDbXrecord
280
     1
102
RTVSPost2010Prop28
280
     1
102
RTVSPost2010PropOp28
 70
     1
102
RTVSPost2010Prop29
280
     1
102
RTVSPost2010PropOp29
 70
     1
102
RTVSPost2010Prop30
280
     0
102
RTVSPost2010PropOp30
 70
     1
102
RTVSPost2010Prop31
280
     0
102
RTVSPost2010PropOp31
 70
     1
102
RTVSPost2010Prop32
280
     0
102
RTVSPost2010PropOp32
 70
     1
102
RTVSPost2010Prop33
280
     0
102
RTVSPost2010PropOp33
 70
     1
102
RTVSPost2010Prop34
280
     0
102
RTVSPost2010PropOp34
 70
     1
102
RTVSPost2010Prop35
280
     0
102
RTVSPost2010PropOp35
 70
     1
102
RTVSPost2010Prop36
280
     0
102
RTVSPost2010PropOp36
 70
     1
102
RTVSPost2010Prop37
 90
       50
102
RTVSPost2010PropOp37
 70
     1
102
RTVSPost2010Prop38
140
0.0
102
RTVSPost2010PropOp38
 70
     1
102
RTVSPost2010Prop39
140
1.0
102
RTVSPost2010PropOp39
 70
     1
102
RTVSPost2010Prop40
 90
        0
102
RTVSPost2010PropOp40
 70
     1
102
RTVSPost2010Prop41ColorIndex
 90
       18
102
RTVSPost2010Prop41ColorRGB
 90
        0
102
RTVSPost2010PropOp41
 70
     1
102
RTVSPost2010Prop42
 90
       50
102
RTVSPost2010PropOp42
 70
     1
102
RTVSPost2010Prop43
 90
        3
102
RTVSPost2010PropOp43
 70
     1
102
RTVSPost2010Prop44ColorIndex
 90
        5
102
RTVSPost2010Prop44ColorRGB
 90
      255
102
RTVSPost2010PropOp44
 70
     1
102
RTVSPost2010Prop45
280
     0
102
RTVSPost2010PropOp45
 70
     1
102
RTVSPost2010Prop46
 90
       50
102
RTVSPost2010PropOp46
 70
     1
102
RTVSPost2010Prop47
 90
       50
102
RTVSPost2010PropOp47
 70
     1
102
RTVSPost2010Prop48
 90
       50
102
RTVSPost2010PropOp48
 70
     1
102
RTVSPost2010Prop49
280
     0
102
RTVSPost2010PropOp49
 70
     1
102
RTVSPost2010Prop50
 90
       50
102
RTVSPost2010PropOp50
 70
     1
102
RTVSPost2010Prop51ColorIndex
 90
      256
102
RTVSPost2010Prop51ColorRGB
 90
-16777216
102
RTVSPost2010PropOp51
 70
     0
102
RTVSPost2010Prop52
140
1.0
102
RTVSPost2010PropOp52
 70
     0
102
RTVSPost2010Prop53
 90
        2
102
RTVSPost2010PropOp53
 70
     1
102
RTVSPost2010Prop54
  1
strokes_ogs.tif
102
RTVSPost2010PropOp54
 70
     1
102
RTVSPost2010Prop55
280
     0
102
RTVSPost2010PropOp55
 70
     1
102
RTVSPost2010Prop56
140
1.0
102
RTVSPost2010PropOp56
 70
     1
102
RTVSPost2010Prop57
140
1.0
102
RTVSPost2010PropOp57
 70
     1
102
RTVSPropertyOp0
 70
     1
102
RTVSPropertyOp1
 70
     1
102
RTVSPropertyOp2
 70
     1
102
RTVSPropertyOp3
 70
     1
102
RTVSPropertyOp4
 70
     1
102
RTVSPropertyOp5
 70
     1
102
RTVSPropertyOp6
 70
     1
102
RTVSPropertyOp7
 70
     1
102
RTVSPropertyOp8
 70
     1
102
RTVSPropertyOp9
 70
     1
102
RTVSPropertyOp10
 70
     1
102
RTVSPropertyOp11
 70
     1
102
RTVSPropertyOp12
 70
     1
102
RTVSPropertyOp13
 70
     1
102
RTVSPropertyOp14
 70
     1
102
RTVSPropertyOp15
 70
     1
102
RTVSPropertyOp16
 70
     1
102
RTVSPropertyOp17
 70
     1
102
RTVSPropertyOp18
 70
     1
102
RTVSPropertyOp19
 70
     1
102
RTVSPropertyOp20
 70
     1
102
RTVSPropertyOp21
 70
     1
102
RTVSPropertyOp22
 70
     1
102
RTVSPropertyOp23
 70
     1
102
RTVSPropertyOp24
 70
     1
102
RTVSPropertyOp25
 70
     1
102
RTVSPropertyOp26
 70
     1
102
RTVSPropertyOp27
 70
     1
102
RTVSPropertyOp28
 70
     1
102
RTVSPropertyOp29
 70
     1
102
RTVSPropertyOp30
 70
     1
102
RTVSPropertyOp31
 70
     1
102
RTVSPropertyOp32
 70
     1
102
RTVSPropertyOp33
 70
     1
102
RTVSPropertyOp34
 70
     1
102
RTVSPropertyOp35
 70
     1
102
RTVSPropertyOp36
 70
     1
102
RTVSPropertyOp37
 70
     1
102
RTVSPropertyOp38
 70
     1
102
RTVSPropertyOp39
 70
     1
102
RTVSPropertyOp40
 70
     1
102
RTVSPropertyOp41
 70
     1
102
RTVSPropertyOp42
 70
     1
102
RTVSPropertyOp43
 70
     1
102
RTVSPropertyOp44
 70
     1
102
RTVSPropertyOp45
 70
     1
102
RTVSPropertyOp46
 70
     1
102
RTVSPropertyOp47
 70
     1
102
RTVSPropertyOp48
 70
     1
102
RTVSPropertyOp49
 70
     1
102
RTVSPropertyOp50
 70
     1
102
RTVSPropertyOp51
 70
     0
102
RTVSPropertyOp52
 70
     0
102
RTVSPropertyOp53
 70
     1
102
RTVSPropertyOp54
 70
     1
102
RTVSPropertyOp55
 70
     1
102
RTVSPropertyOp56
 70
     1
102
RTVSPropertyOp57
 70
     1
102
RTVSPropertyOp58
 70
     1
102
RTVSPropertyOp59
 70
     1
102
RTVSPropertyOp60
 70
     1
102
RTVSPropertyOp61
 70
     1
102
RTVSPropertyOp62
 70
     1
  0
XRECORD
  5
10DE
102
{ACAD_REACTORS
330
10DD
102
}
330
10DD
100
AcDbXrecord
280
     1
102
RTVSPost2010Prop28
280
     0
102
RTVSPost2010PropOp28
 70
     1
102
RTVSPost2010Prop29
280
     1
102
RTVSPost2010PropOp29
 70
     1
102
RTVSPost2010Prop30
280
     1
102
RTVSPost2010PropOp30
 70
     1
102
RTVSPost2010Prop31
280
     0
102
RTVSPost2010PropOp31
 70
     1
102
RTVSPost2010Prop32
280
     0
102
RTVSPost2010PropOp32
 70
     1
102
RTVSPost2010Prop33
280
     0
102
RTVSPost2010PropOp33
 70
     1
102
RTVSPost2010Prop34
280
     0
102
RTVSPost2010PropOp34
 70
     1
102
RTVSPost2010Prop35
280
     0
102
RTVSPost2010PropOp35
 70
     1
102
RTVSPost2010Prop36
280
     0
102
RTVSPost2010PropOp36
 70
     1
102
RTVSPost2010Prop37
 90
       50
102
RTVSPost2010PropOp37
 70
     1
102
RTVSPost2010Prop38
140
0.0
102
RTVSPost2010PropOp38
 70
     1
102
RTVSPost2010Prop39
140
1.0
102
RTVSPost2010PropOp39
 70
     1
102
RTVSPost2010Prop40
 90
        0
102
RTVSPost2010PropOp40
 70
     1
102
RTVSPost2010Prop41ColorIndex
 90
       18
102
RTVSPost2010Prop41ColorRGB
 90
        0
102
RTVSPost2010PropOp41
 70
     1
102
RTVSPost2010Prop42
 90
       50
102
RTVSPost2010PropOp42
 70
     1
102
RTVSPost2010Prop43
 90
        3
102
RTVSPost2010PropOp43
 70
     1
102
RTVSPost2010Prop44ColorIndex
 90
        5
102
RTVSPost2010Prop44ColorRGB
 90
      255
102
RTVSPost2010PropOp44
 70
     1
102
RTVSPost2010Prop45
280
     0
102
RTVSPost2010PropOp45
 70
     1
102
RTVSPost2010Prop46
 90
       50
102
RTVSPost2010PropOp46
 70
     1
102
RTVSPost2010Prop47
 90
       50
102
RTVSPost2010PropOp47
 70
     1
102
RTVSPost2010Prop48
 90
       50
102
RTVSPost2010PropOp48
 70
     1
102
RTVSPost2010Prop49
280
     0
102
RTVSPost2010PropOp49
 70
     1
102
RTVSPost2010Prop50
 90
       50
102
RTVSPost2010PropOp50
 70
     1
102
RTVSPost2010Prop51ColorIndex
 90
      256
102
RTVSPost2010Prop51ColorRGB
 90
-16777216
102
RTVSPost2010PropOp51
 70
     0
102
RTVSPost2010Prop52
140
1.0
102
RTVSPost2010PropOp52
 70
     0
102
RTVSPost2010Prop53
 90
        2
102
RTVSPost2010PropOp53
 70
     1
102
RTVSPost2010Prop54
  1
strokes_ogs.tif
102
RTVSPost2010PropOp54
 70
     1
102
RTVSPost2010Prop55
280
     0
102
RTVSPost2010PropOp55
 70
     1
102
RTVSPost2010Prop56
140
1.0
102
RTVSPost2010PropOp56
 70
     1
102
RTVSPost2010Prop57
140
1.0
102
RTVSPost2010PropOp57
 70
     1
102
RTVSPropertyOp0
 70
     1
102
RTVSPropertyOp1
 70
     1
102
RTVSPropertyOp2
 70
     1
102
RTVSPropertyOp3
 70
     1
102
RTVSPropertyOp4
 70
     1
102
RTVSPropertyOp5
 70
     1
102
RTVSPropertyOp6
 70
     1
102
RTVSPropertyOp7
 70
     1
102
RTVSPropertyOp8
 70
     1
102
RTVSPropertyOp9
 70
     1
102
RTVSPropertyOp10
 70
     1
102
RTVSPropertyOp11
 70
     1
102
RTVSPropertyOp12
 70
     1
102
RTVSPropertyOp13
 70
     1
102
RTVSPropertyOp14
 70
     1
102
RTVSPropertyOp15
 70
     1
102
RTVSPropertyOp16
 70
     1
102
RTVSPropertyOp17
 70
     1
102
RTVSPropertyOp18
 70
     1
102
RTVSPropertyOp19
 70
     1
102
RTVSPropertyOp20
 70
     1
102
RTVSPropertyOp21
 70
     1
102
RTVSPropertyOp22
 70
     1
102
RTVSPropertyOp23
 70
     1
102
RTVSPropertyOp24
 70
     1
102
RTVSPropertyOp25
 70
     1
102
RTVSPropertyOp26
 70
     1
102
RTVSPropertyOp27
 70
     1
102
RTVSPropertyOp28
 70
     1
102
RTVSPropertyOp29
 70
     1
102
RTVSPropertyOp30
 70
     1
102
RTVSPropertyOp31
 70
     1
102
RTVSPropertyOp32
 70
     1
102
RTVSPropertyOp33
 70
     1
102
RTVSPropertyOp34
 70
     1
102
RTVSPropertyOp35
 70
     1
102
RTVSPropertyOp36
 70
     1
102
RTVSPropertyOp37
 70
     1
102
RTVSPropertyOp38
 70
     1
102
RTVSPropertyOp39
 70
     1
102
RTVSPropertyOp40
 70
     1
102
RTVSPropertyOp41
 70
     1
102
RTVSPropertyOp42
 70
     1
102
RTVSPropertyOp43
 70
     1
102
RTVSPropertyOp44
 70
     1
102
RTVSPropertyOp45
 70
     1
102
RTVSPropertyOp46
 70
     1
102
RTVSPropertyOp47
 70
     1
102
RTVSPropertyOp48
 70
     1
102
RTVSPropertyOp49
 70
     1
102
RTVSPropertyOp50
 70
     1
102
RTVSPropertyOp51
 70
     0
102
RTVSPropertyOp52
 70
     0
102
RTVSPropertyOp53
 70
     1
102
RTVSPropertyOp54
 70
     1
102
RTVSPropertyOp55
 70
     1
102
RTVSPropertyOp56
 70
     1
102
RTVSPropertyOp57
 70
     1
102
RTVSPropertyOp58
 70
     1
102
RTVSPropertyOp59
 70
     1
102
RTVSPropertyOp60
 70
     1
102
RTVSPropertyOp61
 70
     1
102
RTVSPropertyOp62
 70
     1
  0
XRECORD
  5
10EC
102
{ACAD_REACTORS
330
10EB
102
}
330
10EB
100
AcDbXrecord
280
     1
102
RTVSPost2010Prop28
280
     0
102
RTVSPost2010PropOp28
 70
     1
102
RTVSPost2010Prop29
280
     1
102
RTVSPost2010PropOp29
 70
     1
102
RTVSPost2010Prop30
280
     1
102
RTVSPost2010PropOp30
 70
     1
102
RTVSPost2010Prop31
280
     0
102
RTVSPost2010PropOp31
 70
     1
102
RTVSPost2010Prop32
280
     0
102
RTVSPost2010PropOp32
 70
     1
102
RTVSPost2010Prop33
280
     0
102
RTVSPost2010PropOp33
 70
     1
102
RTVSPost2010Prop34
280
     0
102
RTVSPost2010PropOp34
 70
     1
102
RTVSPost2010Prop35
280
     0
102
RTVSPost2010PropOp35
 70
     1
102
RTVSPost2010Prop36
280
     0
102
RTVSPost2010PropOp36
 70
     1
102
RTVSPost2010Prop37
 90
       50
102
RTVSPost2010PropOp37
 70
     1
102
RTVSPost2010Prop38
140
0.0
102
RTVSPost2010PropOp38
 70
     1
102
RTVSPost2010Prop39
140
1.0
102
RTVSPost2010PropOp39
 70
     1
102
RTVSPost2010Prop40
 90
        0
102
RTVSPost2010PropOp40
 70
     1
102
RTVSPost2010Prop41ColorIndex
 90
       18
102
RTVSPost2010Prop41ColorRGB
 90
        0
102
RTVSPost2010PropOp41
 70
     1
102
RTVSPost2010Prop42
 90
       50
102
RTVSPost2010PropOp42
 70
     1
102
RTVSPost2010Prop43
 90
        3
102
RTVSPost2010PropOp43
 70
     1
102
RTVSPost2010Prop44ColorIndex
 90
        5
102
RTVSPost2010Prop44ColorRGB
 90
      255
102
RTVSPost2010PropOp44
 70
     1
102
RTVSPost2010Prop45
280
     0
102
RTVSPost2010PropOp45
 70
     1
102
RTVSPost2010Prop46
 90
       50
102
RTVSPost2010PropOp46
 70
     1
102
RTVSPost2010Prop47
 90
       50
102
RTVSPost2010PropOp47
 70
     1
102
RTVSPost2010Prop48
 90
       50
102
RTVSPost2010PropOp48
 70
     1
102
RTVSPost2010Prop49
280
     0
102
RTVSPost2010PropOp49
 70
     1
102
RTVSPost2010Prop50
 90
       50
102
RTVSPost2010PropOp50
 70
     1
102
RTVSPost2010Prop51ColorIndex
 90
      256
102
RTVSPost2010Prop51ColorRGB
 90
-16777216
102
RTVSPost2010PropOp51
 70
     0
102
RTVSPost2010Prop52
140
1.0
102
RTVSPost2010PropOp52
 70
     0
102
RTVSPost2010Prop53
 90
        2
102
RTVSPost2010PropOp53
 70
     1
102
RTVSPost2010Prop54
  1
strokes_ogs.tif
102
RTVSPost2010PropOp54
 70
     1
102
RTVSPost2010Prop55
280
     0
102
RTVSPost2010PropOp55
 70
     1
102
RTVSPost2010Prop56
140
1.0
102
RTVSPost2010PropOp56
 70
     1
102
RTVSPost2010Prop57
140
1.0
102
RTVSPost2010PropOp57
 70
     1
102
RTVSPropertyOp0
 70
     1
102
RTVSPropertyOp1
 70
     1
102
RTVSPropertyOp2
 70
     1
102
RTVSPropertyOp3
 70
     1
102
RTVSPropertyOp4
 70
     1
102
RTVSPropertyOp5
 70
     1
102
RTVSPropertyOp6
 70
     1
102
RTVSPropertyOp7
 70
     1
102
RTVSPropertyOp8
 70
     1
102
RTVSPropertyOp9
 70
     1
102
RTVSPropertyOp10
 70
     1
102
RTVSPropertyOp11
 70
     1
102
RTVSPropertyOp12
 70
     1
102
RTVSPropertyOp13
 70
     1
102
RTVSPropertyOp14
 70
     1
102
RTVSPropertyOp15
 70
     1
102
RTVSPropertyOp16
 70
     1
102
RTVSPropertyOp17
 70
     1
102
RTVSPropertyOp18
 70
     1
102
RTVSPropertyOp19
 70
     1
102
RTVSPropertyOp20
 70
     1
102
RTVSPropertyOp21
 70
     1
102
RTVSPropertyOp22
 70
     1
102
RTVSPropertyOp23
 70
     1
102
RTVSPropertyOp24
 70
     1
102
RTVSPropertyOp25
 70
     1
102
RTVSPropertyOp26
 70
     1
102
RTVSPropertyOp27
 70
     1
102
RTVSPropertyOp28
 70
     1
102
RTVSPropertyOp29
 70
     1
102
RTVSPropertyOp30
 70
     1
102
RTVSPropertyOp31
 70
     1
102
RTVSPropertyOp32
 70
     1
102
RTVSPropertyOp33
 70
     1
102
RTVSPropertyOp34
 70
     1
102
RTVSPropertyOp35
 70
     1
102
RTVSPropertyOp36
 70
     1
102
RTVSPropertyOp37
 70
     1
102
RTVSPropertyOp38
 70
     1
102
RTVSPropertyOp39
 70
     1
102
RTVSPropertyOp40
 70
     1
102
RTVSPropertyOp41
 70
     1
102
RTVSPropertyOp42
 70
     1
102
RTVSPropertyOp43
 70
     1
102
RTVSPropertyOp44
 70
     1
102
RTVSPropertyOp45
 70
     1
102
RTVSPropertyOp46
 70
     1
102
RTVSPropertyOp47
 70
     1
102
RTVSPropertyOp48
 70
     1
102
RTVSPropertyOp49
 70
     1
102
RTVSPropertyOp50
 70
     1
102
RTVSPropertyOp51
 70
     0
102
RTVSPropertyOp52
 70
     0
102
RTVSPropertyOp53
 70
     1
102
RTVSPropertyOp54
 70
     1
102
RTVSPropertyOp55
 70
     1
102
RTVSPropertyOp56
 70
     1
102
RTVSPropertyOp57
 70
     1
102
RTVSPropertyOp58
 70
     1
102
RTVSPropertyOp59
 70
     1
102
RTVSPropertyOp60
 70
     1
102
RTVSPropertyOp61
 70
     1
102
RTVSPropertyOp62
 70
     1
  0
XRECORD
  5
10F4
102
{ACAD_REACTORS
330
10F3
102
}
330
10F3
100
AcDbXrecord
280
     1
102
RTVSPost2010Prop28
280
     0
102
RTVSPost2010PropOp28
 70
     1
102
RTVSPost2010Prop29
280
     1
102
RTVSPost2010PropOp29
 70
     1
102
RTVSPost2010Prop30
280
     1
102
RTVSPost2010PropOp30
 70
     1
102
RTVSPost2010Prop31
280
     0
102
RTVSPost2010PropOp31
 70
     1
102
RTVSPost2010Prop32
280
     0
102
RTVSPost2010PropOp32
 70
     1
102
RTVSPost2010Prop33
280
     0
102
RTVSPost2010PropOp33
 70
     1
102
RTVSPost2010Prop34
280
     0
102
RTVSPost2010PropOp34
 70
     1
102
RTVSPost2010Prop35
280
     0
102
RTVSPost2010PropOp35
 70
     1
102
RTVSPost2010Prop36
280
     0
102
RTVSPost2010PropOp36
 70
     1
102
RTVSPost2010Prop37
 90
       50
102
RTVSPost2010PropOp37
 70
     1
102
RTVSPost2010Prop38
140
0.0
102
RTVSPost2010PropOp38
 70
     1
102
RTVSPost2010Prop39
140
1.0
102
RTVSPost2010PropOp39
 70
     1
102
RTVSPost2010Prop40
 90
        0
102
RTVSPost2010PropOp40
 70
     1
102
RTVSPost2010Prop41ColorIndex
 90
       18
102
RTVSPost2010Prop41ColorRGB
 90
        0
102
RTVSPost2010PropOp41
 70
     1
102
RTVSPost2010Prop42
 90
       50
102
RTVSPost2010PropOp42
 70
     1
102
RTVSPost2010Prop43
 90
        3
102
RTVSPost2010PropOp43
 70
     1
102
RTVSPost2010Prop44ColorIndex
 90
        5
102
RTVSPost2010Prop44ColorRGB
 90
      255
102
RTVSPost2010PropOp44
 70
     1
102
RTVSPost2010Prop45
280
     0
102
RTVSPost2010PropOp45
 70
     1
102
RTVSPost2010Prop46
 90
       50
102
RTVSPost2010PropOp46
 70
     1
102
RTVSPost2010Prop47
 90
       50
102
RTVSPost2010PropOp47
 70
     1
102
RTVSPost2010Prop48
 90
       50
102
RTVSPost2010PropOp48
 70
     1
102
RTVSPost2010Prop49
280
     0
102
RTVSPost2010PropOp49
 70
     1
102
RTVSPost2010Prop50
 90
       50
102
RTVSPost2010PropOp50
 70
     1
102
RTVSPost2010Prop51ColorIndex
 90
      256
102
RTVSPost2010Prop51ColorRGB
 90
-16777216
102
RTVSPost2010PropOp51
 70
     0
102
RTVSPost2010Prop52
140
1.0
102
RTVSPost2010PropOp52
 70
     0
102
RTVSPost2010Prop53
 90
        2
102
RTVSPost2010PropOp53
 70
     1
102
RTVSPost2010Prop54
  1
strokes_ogs.tif
102
RTVSPost2010PropOp54
 70
     1
102
RTVSPost2010Prop55
280
     0
102
RTVSPost2010PropOp55
 70
     1
102
RTVSPost2010Prop56
140
1.0
102
RTVSPost2010PropOp56
 70
     1
102
RTVSPost2010Prop57
140
1.0
102
RTVSPost2010PropOp57
 70
     1
102
RTVSPropertyOp0
 70
     1
102
RTVSPropertyOp1
 70
     1
102
RTVSPropertyOp2
 70
     1
102
RTVSPropertyOp3
 70
     1
102
RTVSPropertyOp4
 70
     1
102
RTVSPropertyOp5
 70
     1
102
RTVSPropertyOp6
 70
     1
102
RTVSPropertyOp7
 70
     1
102
RTVSPropertyOp8
 70
     1
102
RTVSPropertyOp9
 70
     1
102
RTVSPropertyOp10
 70
     1
102
RTVSPropertyOp11
 70
     1
102
RTVSPropertyOp12
 70
     1
102
RTVSPropertyOp13
 70
     1
102
RTVSPropertyOp14
 70
     1
102
RTVSPropertyOp15
 70
     1
102
RTVSPropertyOp16
 70
     1
102
RTVSPropertyOp17
 70
     1
102
RTVSPropertyOp18
 70
     1
102
RTVSPropertyOp19
 70
     1
102
RTVSPropertyOp20
 70
     1
102
RTVSPropertyOp21
 70
     1
102
RTVSPropertyOp22
 70
     1
102
RTVSPropertyOp23
 70
     1
102
RTVSPropertyOp24
 70
     1
102
RTVSPropertyOp25
 70
     1
102
RTVSPropertyOp26
 70
     1
102
RTVSPropertyOp27
 70
     1
102
RTVSPropertyOp28
 70
     1
102
RTVSPropertyOp29
 70
     1
102
RTVSPropertyOp30
 70
     1
102
RTVSPropertyOp31
 70
     1
102
RTVSPropertyOp32
 70
     1
102
RTVSPropertyOp33
 70
     1
102
RTVSPropertyOp34
 70
     1
102
RTVSPropertyOp35
 70
     1
102
RTVSPropertyOp36
 70
     1
102
RTVSPropertyOp37
 70
     1
102
RTVSPropertyOp38
 70
     1
102
RTVSPropertyOp39
 70
     1
102
RTVSPropertyOp40
 70
     1
102
RTVSPropertyOp41
 70
     1
102
RTVSPropertyOp42
 70
     1
102
RTVSPropertyOp43
 70
     1
102
RTVSPropertyOp44
 70
     1
102
RTVSPropertyOp45
 70
     1
102
RTVSPropertyOp46
 70
     1
102
RTVSPropertyOp47
 70
     1
102
RTVSPropertyOp48
 70
     1
102
RTVSPropertyOp49
 70
     1
102
RTVSPropertyOp50
 70
     1
102
RTVSPropertyOp51
 70
     0
102
RTVSPropertyOp52
 70
     0
102
RTVSPropertyOp53
 70
     1
102
RTVSPropertyOp54
 70
     1
102
RTVSPropertyOp55
 70
     1
102
RTVSPropertyOp56
 70
     1
102
RTVSPropertyOp57
 70
     1
102
RTVSPropertyOp58
 70
     1
102
RTVSPropertyOp59
 70
     1
102
RTVSPropertyOp60
 70
     1
102
RTVSPropertyOp61
 70
     1
102
RTVSPropertyOp62
 70
     1
  0
XRECORD
  5
10E6
102
{ACAD_REACTORS
330
10E5
102
}
330
10E5
100
AcDbXrecord
280
     1
102
RTVSPost2010Prop28
280
     0
102
RTVSPost2010PropOp28
 70
     1
102
RTVSPost2010Prop29
280
     1
102
RTVSPost2010PropOp29
 70
     1
102
RTVSPost2010Prop30
280
     1
102
RTVSPost2010PropOp30
 70
     1
102
RTVSPost2010Prop31
280
     0
102
RTVSPost2010PropOp31
 70
     1
102
RTVSPost2010Prop32
280
     0
102
RTVSPost2010PropOp32
 70
     1
102
RTVSPost2010Prop33
280
     0
102
RTVSPost2010PropOp33
 70
     1
102
RTVSPost2010Prop34
280
     0
102
RTVSPost2010PropOp34
 70
     1
102
RTVSPost2010Prop35
280
     0
102
RTVSPost2010PropOp35
 70
     1
102
RTVSPost2010Prop36
280
     0
102
RTVSPost2010PropOp36
 70
     1
102
RTVSPost2010Prop37
 90
       50
102
RTVSPost2010PropOp37
 70
     1
102
RTVSPost2010Prop38
140
0.0
102
RTVSPost2010PropOp38
 70
     1
102
RTVSPost2010Prop39
140
1.0
102
RTVSPost2010PropOp39
 70
     1
102
RTVSPost2010Prop40
 90
        0
102
RTVSPost2010PropOp40
 70
     1
102
RTVSPost2010Prop41ColorIndex
 90
       18
102
RTVSPost2010Prop41ColorRGB
 90
        0
102
RTVSPost2010PropOp41
 70
     1
102
RTVSPost2010Prop42
 90
       50
102
RTVSPost2010PropOp42
 70
     1
102
RTVSPost2010Prop43
 90
        3
102
RTVSPost2010PropOp43
 70
     1
102
RTVSPost2010Prop44ColorIndex
 90
        5
102
RTVSPost2010Prop44ColorRGB
 90
      255
102
RTVSPost2010PropOp44
 70
     1
102
RTVSPost2010Prop45
280
     0
102
RTVSPost2010PropOp45
 70
     1
102
RTVSPost2010Prop46
 90
       50
102
RTVSPost2010PropOp46
 70
     1
102
RTVSPost2010Prop47
 90
       50
102
RTVSPost2010PropOp47
 70
     1
102
RTVSPost2010Prop48
 90
       50
102
RTVSPost2010PropOp48
 70
     1
102
RTVSPost2010Prop49
280
     0
102
RTVSPost2010PropOp49
 70
     1
102
RTVSPost2010Prop50
 90
       50
102
RTVSPost2010PropOp50
 70
     1
102
RTVSPost2010Prop51ColorIndex
 90
      256
102
RTVSPost2010Prop51ColorRGB
 90
-16777216
102
RTVSPost2010PropOp51
 70
     0
102
RTVSPost2010Prop52
140
1.0
102
RTVSPost2010PropOp52
 70
     0
102
RTVSPost2010Prop53
 90
        2
102
RTVSPost2010PropOp53
 70
     1
102
RTVSPost2010Prop54
  1
strokes_ogs.tif
102
RTVSPost2010PropOp54
 70
     1
102
RTVSPost2010Prop55
280
     0
102
RTVSPost2010PropOp55
 70
     1
102
RTVSPost2010Prop56
140
1.0
102
RTVSPost2010PropOp56
 70
     1
102
RTVSPost2010Prop57
140
1.0
102
RTVSPost2010PropOp57
 70
     1
102
RTVSPropertyOp0
 70
     1
102
RTVSPropertyOp1
 70
     1
102
RTVSPropertyOp2
 70
     1
102
RTVSPropertyOp3
 70
     1
102
RTVSPropertyOp4
 70
     1
102
RTVSPropertyOp5
 70
     1
102
RTVSPropertyOp6
 70
     1
102
RTVSPropertyOp7
 70
     1
102
RTVSPropertyOp8
 70
     1
102
RTVSPropertyOp9
 70
     1
102
RTVSPropertyOp10
 70
     1
102
RTVSPropertyOp11
 70
     1
102
RTVSPropertyOp12
 70
     1
102
RTVSPropertyOp13
 70
     1
102
RTVSPropertyOp14
 70
     1
102
RTVSPropertyOp15
 70
     1
102
RTVSPropertyOp16
 70
     1
102
RTVSPropertyOp17
 70
     1
102
RTVSPropertyOp18
 70
     1
102
RTVSPropertyOp19
 70
     1
102
RTVSPropertyOp20
 70
     1
102
RTVSPropertyOp21
 70
     1
102
RTVSPropertyOp22
 70
     1
102
RTVSPropertyOp23
 70
     1
102
RTVSPropertyOp24
 70
     1
102
RTVSPropertyOp25
 70
     1
102
RTVSPropertyOp26
 70
     1
102
RTVSPropertyOp27
 70
     1
102
RTVSPropertyOp28
 70
     1
102
RTVSPropertyOp29
 70
     1
102
RTVSPropertyOp30
 70
     1
102
RTVSPropertyOp31
 70
     1
102
RTVSPropertyOp32
 70
     1
102
RTVSPropertyOp33
 70
     1
102
RTVSPropertyOp34
 70
     1
102
RTVSPropertyOp35
 70
     1
102
RTVSPropertyOp36
 70
     1
102
RTVSPropertyOp37
 70
     1
102
RTVSPropertyOp38
 70
     1
102
RTVSPropertyOp39
 70
     1
102
RTVSPropertyOp40
 70
     1
102
RTVSPropertyOp41
 70
     1
102
RTVSPropertyOp42
 70
     1
102
RTVSPropertyOp43
 70
     1
102
RTVSPropertyOp44
 70
     1
102
RTVSPropertyOp45
 70
     1
102
RTVSPropertyOp46
 70
     1
102
RTVSPropertyOp47
 70
     1
102
RTVSPropertyOp48
 70
     1
102
RTVSPropertyOp49
 70
     1
102
RTVSPropertyOp50
 70
     1
102
RTVSPropertyOp51
 70
     0
102
RTVSPropertyOp52
 70
     0
102
RTVSPropertyOp53
 70
     1
102
RTVSPropertyOp54
 70
     1
102
RTVSPropertyOp55
 70
     1
102
RTVSPropertyOp56
 70
     1
102
RTVSPropertyOp57
 70
     1
102
RTVSPropertyOp58
 70
     1
102
RTVSPropertyOp59
 70
     1
102
RTVSPropertyOp60
 70
     1
102
RTVSPropertyOp61
 70
     1
102
RTVSPropertyOp62
 70
     1
  0
XRECORD
  5
10EA
102
{ACAD_REACTORS
330
10E9
102
}
330
10E9
100
AcDbXrecord
280
     1
102
RTVSPost2010Prop28
280
     0
102
RTVSPost2010PropOp28
 70
     1
102
RTVSPost2010Prop29
280
     1
102
RTVSPost2010PropOp29
 70
     1
102
RTVSPost2010Prop30
280
     1
102
RTVSPost2010PropOp30
 70
     1
102
RTVSPost2010Prop31
280
     0
102
RTVSPost2010PropOp31
 70
     1
102
RTVSPost2010Prop32
280
     0
102
RTVSPost2010PropOp32
 70
     1
102
RTVSPost2010Prop33
280
     0
102
RTVSPost2010PropOp33
 70
     1
102
RTVSPost2010Prop34
280
     0
102
RTVSPost2010PropOp34
 70
     1
102
RTVSPost2010Prop35
280
     0
102
RTVSPost2010PropOp35
 70
     1
102
RTVSPost2010Prop36
280
     0
102
RTVSPost2010PropOp36
 70
     1
102
RTVSPost2010Prop37
 90
       50
102
RTVSPost2010PropOp37
 70
     1
102
RTVSPost2010Prop38
140
0.0
102
RTVSPost2010PropOp38
 70
     1
102
RTVSPost2010Prop39
140
1.0
102
RTVSPost2010PropOp39
 70
     1
102
RTVSPost2010Prop40
 90
        0
102
RTVSPost2010PropOp40
 70
     1
102
RTVSPost2010Prop41ColorIndex
 90
       18
102
RTVSPost2010Prop41ColorRGB
 90
        0
102
RTVSPost2010PropOp41
 70
     1
102
RTVSPost2010Prop42
 90
       50
102
RTVSPost2010PropOp42
 70
     1
102
RTVSPost2010Prop43
 90
        3
102
RTVSPost2010PropOp43
 70
     1
102
RTVSPost2010Prop44ColorIndex
 90
        5
102
RTVSPost2010Prop44ColorRGB
 90
      255
102
RTVSPost2010PropOp44
 70
     1
102
RTVSPost2010Prop45
280
     0
102
RTVSPost2010PropOp45
 70
     1
102
RTVSPost2010Prop46
 90
       50
102
RTVSPost2010PropOp46
 70
     1
102
RTVSPost2010Prop47
 90
       50
102
RTVSPost2010PropOp47
 70
     1
102
RTVSPost2010Prop48
 90
       50
102
RTVSPost2010PropOp48
 70
     1
102
RTVSPost2010Prop49
280
     0
102
RTVSPost2010PropOp49
 70
     1
102
RTVSPost2010Prop50
 90
       50
102
RTVSPost2010PropOp50
 70
     1
102
RTVSPost2010Prop51ColorIndex
 90
      256
102
RTVSPost2010Prop51ColorRGB
 90
-16777216
102
RTVSPost2010PropOp51
 70
     0
102
RTVSPost2010Prop52
140
1.0
102
RTVSPost2010PropOp52
 70
     0
102
RTVSPost2010Prop53
 90
        2
102
RTVSPost2010PropOp53
 70
     1
102
RTVSPost2010Prop54
  1
strokes_ogs.tif
102
RTVSPost2010PropOp54
 70
     1
102
RTVSPost2010Prop55
280
     0
102
RTVSPost2010PropOp55
 70
     1
102
RTVSPost2010Prop56
140
1.0
102
RTVSPost2010PropOp56
 70
     1
102
RTVSPost2010Prop57
140
1.0
102
RTVSPost2010PropOp57
 70
     1
102
RTVSPropertyOp0
 70
     1
102
RTVSPropertyOp1
 70
     1
102
RTVSPropertyOp2
 70
     1
102
RTVSPropertyOp3
 70
     1
102
RTVSPropertyOp4
 70
     1
102
RTVSPropertyOp5
 70
     1
102
RTVSPropertyOp6
 70
     1
102
RTVSPropertyOp7
 70
     1
102
RTVSPropertyOp8
 70
     1
102
RTVSPropertyOp9
 70
     1
102
RTVSPropertyOp10
 70
     1
102
RTVSPropertyOp11
 70
     1
102
RTVSPropertyOp12
 70
     1
102
RTVSPropertyOp13
 70
     1
102
RTVSPropertyOp14
 70
     1
102
RTVSPropertyOp15
 70
     1
102
RTVSPropertyOp16
 70
     1
102
RTVSPropertyOp17
 70
     1
102
RTVSPropertyOp18
 70
     1
102
RTVSPropertyOp19
 70
     1
102
RTVSPropertyOp20
 70
     1
102
RTVSPropertyOp21
 70
     1
102
RTVSPropertyOp22
 70
     1
102
RTVSPropertyOp23
 70
     1
102
RTVSPropertyOp24
 70
     1
102
RTVSPropertyOp25
 70
     1
102
RTVSPropertyOp26
 70
     1
102
RTVSPropertyOp27
 70
     1
102
RTVSPropertyOp28
 70
     1
102
RTVSPropertyOp29
 70
     1
102
RTVSPropertyOp30
 70
     1
102
RTVSPropertyOp31
 70
     1
102
RTVSPropertyOp32
 70
     1
102
RTVSPropertyOp33
 70
     1
102
RTVSPropertyOp34
 70
     1
102
RTVSPropertyOp35
 70
     1
102
RTVSPropertyOp36
 70
     1
102
RTVSPropertyOp37
 70
     1
102
RTVSPropertyOp38
 70
     1
102
RTVSPropertyOp39
 70
     1
102
RTVSPropertyOp40
 70
     1
102
RTVSPropertyOp41
 70
     1
102
RTVSPropertyOp42
 70
     1
102
RTVSPropertyOp43
 70
     1
102
RTVSPropertyOp44
 70
     1
102
RTVSPropertyOp45
 70
     1
102
RTVSPropertyOp46
 70
     1
102
RTVSPropertyOp47
 70
     1
102
RTVSPropertyOp48
 70
     1
102
RTVSPropertyOp49
 70
     1
102
RTVSPropertyOp50
 70
     1
102
RTVSPropertyOp51
 70
     0
102
RTVSPropertyOp52
 70
     0
102
RTVSPropertyOp53
 70
     1
102
RTVSPropertyOp54
 70
     1
102
RTVSPropertyOp55
 70
     1
102
RTVSPropertyOp56
 70
     1
102
RTVSPropertyOp57
 70
     1
102
RTVSPropertyOp58
 70
     1
102
RTVSPropertyOp59
 70
     1
102
RTVSPropertyOp60
 70
     1
102
RTVSPropertyOp61
 70
     1
102
RTVSPropertyOp62
 70
     1
  0
XRECORD
  5
1104
102
{ACAD_REACTORS
330
1103
102
}
330
1103
100
AcDbXrecord
280
     1
102
RTVSPost2010Prop28
280
     0
102
RTVSPost2010PropOp28
 70
     1
102
RTVSPost2010Prop29
280
     1
102
RTVSPost2010PropOp29
 70
     1
102
RTVSPost2010Prop30
280
     1
102
RTVSPost2010PropOp30
 70
     1
102
RTVSPost2010Prop31
280
     0
102
RTVSPost2010PropOp31
 70
     1
102
RTVSPost2010Prop32
280
     0
102
RTVSPost2010PropOp32
 70
     1
102
RTVSPost2010Prop33
280
     0
102
RTVSPost2010PropOp33
 70
     1
102
RTVSPost2010Prop34
280
     0
102
RTVSPost2010PropOp34
 70
     1
102
RTVSPost2010Prop35
280
     0
102
RTVSPost2010PropOp35
 70
     1
102
RTVSPost2010Prop36
280
     0
102
RTVSPost2010PropOp36
 70
     1
102
RTVSPost2010Prop37
 90
       50
102
RTVSPost2010PropOp37
 70
     0
102
RTVSPost2010Prop38
140
0.0
102
RTVSPost2010PropOp38
 70
     0
102
RTVSPost2010Prop39
140
1.0
102
RTVSPost2010PropOp39
 70
     0
102
RTVSPost2010Prop40
 90
        0
102
RTVSPost2010PropOp40
 70
     0
102
RTVSPost2010Prop41ColorIndex
 90
       18
102
RTVSPost2010Prop41ColorRGB
 90
        0
102
RTVSPost2010PropOp41
 70
     0
102
RTVSPost2010Prop42
 90
       50
102
RTVSPost2010PropOp42
 70
     0
102
RTVSPost2010Prop43
 90
        3
102
RTVSPost2010PropOp43
 70
     0
102
RTVSPost2010Prop44ColorIndex
 90
        5
102
RTVSPost2010Prop44ColorRGB
 90
      255
102
RTVSPost2010PropOp44
 70
     0
102
RTVSPost2010Prop45
280
     0
102
RTVSPost2010PropOp45
 70
     1
102
RTVSPost2010Prop46
 90
       50
102
RTVSPost2010PropOp46
 70
     0
102
RTVSPost2010Prop47
 90
       50
102
RTVSPost2010PropOp47
 70
     0
102
RTVSPost2010Prop48
 90
       50
102
RTVSPost2010PropOp48
 70
     0
102
RTVSPost2010Prop49
280
     0
102
RTVSPost2010PropOp49
 70
     1
102
RTVSPost2010Prop50
 90
       50
102
RTVSPost2010PropOp50
 70
     0
102
RTVSPost2010Prop51ColorIndex
 90
      256
102
RTVSPost2010Prop51ColorRGB
 90
-16777216
102
RTVSPost2010PropOp51
 70
     0
102
RTVSPost2010Prop52
140
1.0
102
RTVSPost2010PropOp52
 70
     0
102
RTVSPost2010Prop53
 90
        2
102
RTVSPost2010PropOp53
 70
     0
102
RTVSPost2010Prop54
  1
strokes_ogs.tif
102
RTVSPost2010PropOp54
 70
     0
102
RTVSPost2010Prop55
280
     0
102
RTVSPost2010PropOp55
 70
     1
102
RTVSPost2010Prop56
140
1.0
102
RTVSPost2010PropOp56
 70
     0
102
RTVSPost2010Prop57
140
1.0
102
RTVSPost2010PropOp57
 70
     0
102
RTVSPropertyOp0
 70
     0
102
RTVSPropertyOp1
 70
     0
102
RTVSPropertyOp2
 70
     0
102
RTVSPropertyOp3
 70
     0
102
RTVSPropertyOp4
 70
     0
102
RTVSPropertyOp5
 70
     0
102
RTVSPropertyOp6
 70
     0
102
RTVSPropertyOp7
 70
     0
102
RTVSPropertyOp8
 70
     0
102
RTVSPropertyOp9
 70
     0
102
RTVSPropertyOp10
 70
     0
102
RTVSPropertyOp11
 70
     0
102
RTVSPropertyOp12
 70
     0
102
RTVSPropertyOp13
 70
     0
102
RTVSPropertyOp14
 70
     2
102
RTVSPropertyOp15
 70
     0
102
RTVSPropertyOp16
 70
     0
102
RTVSPropertyOp17
 70
     0
102
RTVSPropertyOp18
 70
     0
102
RTVSPropertyOp19
 70
     0
102
RTVSPropertyOp20
 70
     0
102
RTVSPropertyOp21
 70
     0
102
RTVSPropertyOp22
 70
     0
102
RTVSPropertyOp23
 70
     0
102
RTVSPropertyOp24
 70
     0
102
RTVSPropertyOp25
 70
     0
102
RTVSPropertyOp26
 70
     0
102
RTVSPropertyOp27
 70
     0
102
RTVSPropertyOp28
 70
     1
102
RTVSPropertyOp29
 70
     1
102
RTVSPropertyOp30
 70
     1
102
RTVSPropertyOp31
 70
     1
102
RTVSPropertyOp32
 70
     1
102
RTVSPropertyOp33
 70
     1
102
RTVSPropertyOp34
 70
     1
102
RTVSPropertyOp35
 70
     1
102
RTVSPropertyOp36
 70
     1
102
RTVSPropertyOp37
 70
     0
102
RTVSPropertyOp38
 70
     0
102
RTVSPropertyOp39
 70
     0
102
RTVSPropertyOp40
 70
     0
102
RTVSPropertyOp41
 70
     0
102
RTVSPropertyOp42
 70
     0
102
RTVSPropertyOp43
 70
     0
102
RTVSPropertyOp44
 70
     0
102
RTVSPropertyOp45
 70
     1
102
RTVSPropertyOp46
 70
     0
102
RTVSPropertyOp47
 70
     0
102
RTVSPropertyOp48
 70
     0
102
RTVSPropertyOp49
 70
     1
102
RTVSPropertyOp50
 70
     0
102
RTVSPropertyOp51
 70
     0
102
RTVSPropertyOp52
 70
     0
102
RTVSPropertyOp53
 70
     0
102
RTVSPropertyOp54
 70
     0
102
RTVSPropertyOp55
 70
     1
102
RTVSPropertyOp56
 70
     0
102
RTVSPropertyOp57
 70
     0
102
RTVSPropertyOp58
 70
     1
102
RTVSPropertyOp59
 70
     1
102
RTVSPropertyOp60
 70
     1
102
RTVSPropertyOp61
 70
     1
102
RTVSPropertyOp62
 70
     1
  0
XRECORD
  5
10F2
102
{ACAD_REACTORS
330
10F1
102
}
330
10F1
100
AcDbXrecord
280
     1
102
RTVSPost2010Prop28
280
     0
102
RTVSPost2010PropOp28
 70
     1
102
RTVSPost2010Prop29
280
     1
102
RTVSPost2010PropOp29
 70
     1
102
RTVSPost2010Prop30
280
     1
102
RTVSPost2010PropOp30
 70
     1
102
RTVSPost2010Prop31
280
     0
102
RTVSPost2010PropOp31
 70
     1
102
RTVSPost2010Prop32
280
     0
102
RTVSPost2010PropOp32
 70
     1
102
RTVSPost2010Prop33
280
     0
102
RTVSPost2010PropOp33
 70
     1
102
RTVSPost2010Prop34
280
     0
102
RTVSPost2010PropOp34
 70
     1
102
RTVSPost2010Prop35
280
     0
102
RTVSPost2010PropOp35
 70
     1
102
RTVSPost2010Prop36
280
     0
102
RTVSPost2010PropOp36
 70
     1
102
RTVSPost2010Prop37
 90
       50
102
RTVSPost2010PropOp37
 70
     1
102
RTVSPost2010Prop38
140
0.0
102
RTVSPost2010PropOp38
 70
     1
102
RTVSPost2010Prop39
140
1.0
102
RTVSPost2010PropOp39
 70
     1
102
RTVSPost2010Prop40
 90
        0
102
RTVSPost2010PropOp40
 70
     1
102
RTVSPost2010Prop41ColorIndex
 90
       18
102
RTVSPost2010Prop41ColorRGB
 90
        0
102
RTVSPost2010PropOp41
 70
     1
102
RTVSPost2010Prop42
 90
       50
102
RTVSPost2010PropOp42
 70
     1
102
RTVSPost2010Prop43
 90
        3
102
RTVSPost2010PropOp43
 70
     1
102
RTVSPost2010Prop44ColorIndex
 90
        5
102
RTVSPost2010Prop44ColorRGB
 90
      255
102
RTVSPost2010PropOp44
 70
     1
102
RTVSPost2010Prop45
280
     0
102
RTVSPost2010PropOp45
 70
     1
102
RTVSPost2010Prop46
 90
       50
102
RTVSPost2010PropOp46
 70
     1
102
RTVSPost2010Prop47
 90
       50
102
RTVSPost2010PropOp47
 70
     1
102
RTVSPost2010Prop48
 90
       50
102
RTVSPost2010PropOp48
 70
     1
102
RTVSPost2010Prop49
280
     0
102
RTVSPost2010PropOp49
 70
     1
102
RTVSPost2010Prop50
 90
       50
102
RTVSPost2010PropOp50
 70
     1
102
RTVSPost2010Prop51ColorIndex
 90
      256
102
RTVSPost2010Prop51ColorRGB
 90
-16777216
102
RTVSPost2010PropOp51
 70
     0
102
RTVSPost2010Prop52
140
1.0
102
RTVSPost2010PropOp52
 70
     0
102
RTVSPost2010Prop53
 90
        2
102
RTVSPost2010PropOp53
 70
     1
102
RTVSPost2010Prop54
  1
strokes_ogs.tif
102
RTVSPost2010PropOp54
 70
     1
102
RTVSPost2010Prop55
280
     0
102
RTVSPost2010PropOp55
 70
     1
102
RTVSPost2010Prop56
140
1.0
102
RTVSPost2010PropOp56
 70
     1
102
RTVSPost2010Prop57
140
1.0
102
RTVSPost2010PropOp57
 70
     1
102
RTVSPropertyOp0
 70
     1
102
RTVSPropertyOp1
 70
     1
102
RTVSPropertyOp2
 70
     1
102
RTVSPropertyOp3
 70
     1
102
RTVSPropertyOp4
 70
     1
102
RTVSPropertyOp5
 70
     1
102
RTVSPropertyOp6
 70
     1
102
RTVSPropertyOp7
 70
     1
102
RTVSPropertyOp8
 70
     1
102
RTVSPropertyOp9
 70
     1
102
RTVSPropertyOp10
 70
     1
102
RTVSPropertyOp11
 70
     1
102
RTVSPropertyOp12
 70
     1
102
RTVSPropertyOp13
 70
     1
102
RTVSPropertyOp14
 70
     1
102
RTVSPropertyOp15
 70
     1
102
RTVSPropertyOp16
 70
     1
102
RTVSPropertyOp17
 70
     1
102
RTVSPropertyOp18
 70
     1
102
RTVSPropertyOp19
 70
     1
102
RTVSPropertyOp20
 70
     1
102
RTVSPropertyOp21
 70
     1
102
RTVSPropertyOp22
 70
     1
102
RTVSPropertyOp23
 70
     1
102
RTVSPropertyOp24
 70
     1
102
RTVSPropertyOp25
 70
     1
102
RTVSPropertyOp26
 70
     1
102
RTVSPropertyOp27
 70
     1
102
RTVSPropertyOp28
 70
     1
102
RTVSPropertyOp29
 70
     1
102
RTVSPropertyOp30
 70
     1
102
RTVSPropertyOp31
 70
     1
102
RTVSPropertyOp32
 70
     1
102
RTVSPropertyOp33
 70
     1
102
RTVSPropertyOp34
 70
     1
102
RTVSPropertyOp35
 70
     1
102
RTVSPropertyOp36
 70
     1
102
RTVSPropertyOp37
 70
     1
102
RTVSPropertyOp38
 70
     1
102
RTVSPropertyOp39
 70
     1
102
RTVSPropertyOp40
 70
     1
102
RTVSPropertyOp41
 70
     1
102
RTVSPropertyOp42
 70
     1
102
RTVSPropertyOp43
 70
     1
102
RTVSPropertyOp44
 70
     1
102
RTVSPropertyOp45
 70
     1
102
RTVSPropertyOp46
 70
     1
102
RTVSPropertyOp47
 70
     1
102
RTVSPropertyOp48
 70
     1
102
RTVSPropertyOp49
 70
     1
102
RTVSPropertyOp50
 70
     1
102
RTVSPropertyOp51
 70
     0
102
RTVSPropertyOp52
 70
     0
102
RTVSPropertyOp53
 70
     1
102
RTVSPropertyOp54
 70
     1
102
RTVSPropertyOp55
 70
     1
102
RTVSPropertyOp56
 70
     1
102
RTVSPropertyOp57
 70
     1
102
RTVSPropertyOp58
 70
     1
102
RTVSPropertyOp59
 70
     1
102
RTVSPropertyOp60
 70
     1
102
RTVSPropertyOp61
 70
     1
102
RTVSPropertyOp62
 70
     1
  0
XRECORD
  5
10D6
102
{ACAD_REACTORS
330
10D5
102
}
330
10D5
100
AcDbXrecord
280
     1
102
RTVSPost2010Prop28
280
     0
102
RTVSPost2010PropOp28
 70
     1
102
RTVSPost2010Prop29
280
     1
102
RTVSPost2010PropOp29
 70
     1
102
RTVSPost2010Prop30
280
     1
102
RTVSPost2010PropOp30
 70
     1
102
RTVSPost2010Prop31
280
     0
102
RTVSPost2010PropOp31
 70
     1
102
RTVSPost2010Prop32
280
     0
102
RTVSPost2010PropOp32
 70
     1
102
RTVSPost2010Prop33
280
     0
102
RTVSPost2010PropOp33
 70
     1
102
RTVSPost2010Prop34
280
     0
102
RTVSPost2010PropOp34
 70
     1
102
RTVSPost2010Prop35
280
     0
102
RTVSPost2010PropOp35
 70
     1
102
RTVSPost2010Prop36
280
     0
102
RTVSPost2010PropOp36
 70
     1
102
RTVSPost2010Prop37
 90
       50
102
RTVSPost2010PropOp37
 70
     1
102
RTVSPost2010Prop38
140
0.0
102
RTVSPost2010PropOp38
 70
     1
102
RTVSPost2010Prop39
140
1.0
102
RTVSPost2010PropOp39
 70
     1
102
RTVSPost2010Prop40
 90
        0
102
RTVSPost2010PropOp40
 70
     1
102
RTVSPost2010Prop41ColorIndex
 90
       18
102
RTVSPost2010Prop41ColorRGB
 90
        0
102
RTVSPost2010PropOp41
 70
     1
102
RTVSPost2010Prop42
 90
       50
102
RTVSPost2010PropOp42
 70
     1
102
RTVSPost2010Prop43
 90
        3
102
RTVSPost2010PropOp43
 70
     1
102
RTVSPost2010Prop44ColorIndex
 90
        5
102
RTVSPost2010Prop44ColorRGB
 90
      255
102
RTVSPost2010PropOp44
 70
     1
102
RTVSPost2010Prop45
280
     0
102
RTVSPost2010PropOp45
 70
     1
102
RTVSPost2010Prop46
 90
       50
102
RTVSPost2010PropOp46
 70
     1
102
RTVSPost2010Prop47
 90
       50
102
RTVSPost2010PropOp47
 70
     1
102
RTVSPost2010Prop48
 90
       50
102
RTVSPost2010PropOp48
 70
     1
102
RTVSPost2010Prop49
280
     0
102
RTVSPost2010PropOp49
 70
     1
102
RTVSPost2010Prop50
 90
       50
102
RTVSPost2010PropOp50
 70
     1
102
RTVSPost2010Prop51ColorIndex
 90
      256
102
RTVSPost2010Prop51ColorRGB
 90
-16777216
102
RTVSPost2010PropOp51
 70
     0
102
RTVSPost2010Prop52
140
1.0
102
RTVSPost2010PropOp52
 70
     0
102
RTVSPost2010Prop53
 90
        2
102
RTVSPost2010PropOp53
 70
     1
102
RTVSPost2010Prop54
  1
strokes_ogs.tif
102
RTVSPost2010PropOp54
 70
     1
102
RTVSPost2010Prop55
280
     0
102
RTVSPost2010PropOp55
 70
     1
102
RTVSPost2010Prop56
140
1.0
102
RTVSPost2010PropOp56
 70
     1
102
RTVSPost2010Prop57
140
1.0
102
RTVSPost2010PropOp57
 70
     1
102
RTVSPropertyOp0
 70
     1
102
RTVSPropertyOp1
 70
     1
102
RTVSPropertyOp2
 70
     1
102
RTVSPropertyOp3
 70
     1
102
RTVSPropertyOp4
 70
     1
102
RTVSPropertyOp5
 70
     1
102
RTVSPropertyOp6
 70
     1
102
RTVSPropertyOp7
 70
     1
102
RTVSPropertyOp8
 70
     1
102
RTVSPropertyOp9
 70
     1
102
RTVSPropertyOp10
 70
     1
102
RTVSPropertyOp11
 70
     1
102
RTVSPropertyOp12
 70
     1
102
RTVSPropertyOp13
 70
     1
102
RTVSPropertyOp14
 70
     1
102
RTVSPropertyOp15
 70
     1
102
RTVSPropertyOp16
 70
     1
102
RTVSPropertyOp17
 70
     1
102
RTVSPropertyOp18
 70
     1
102
RTVSPropertyOp19
 70
     1
102
RTVSPropertyOp20
 70
     1
102
RTVSPropertyOp21
 70
     1
102
RTVSPropertyOp22
 70
     1
102
RTVSPropertyOp23
 70
     1
102
RTVSPropertyOp24
 70
     1
102
RTVSPropertyOp25
 70
     1
102
RTVSPropertyOp26
 70
     1
102
RTVSPropertyOp27
 70
     1
102
RTVSPropertyOp28
 70
     1
102
RTVSPropertyOp29
 70
     1
102
RTVSPropertyOp30
 70
     1
102
RTVSPropertyOp31
 70
     1
102
RTVSPropertyOp32
 70
     1
102
RTVSPropertyOp33
 70
     1
102
RTVSPropertyOp34
 70
     1
102
RTVSPropertyOp35
 70
     1
102
RTVSPropertyOp36
 70
     1
102
RTVSPropertyOp37
 70
     1
102
RTVSPropertyOp38
 70
     1
102
RTVSPropertyOp39
 70
     1
102
RTVSPropertyOp40
 70
     1
102
RTVSPropertyOp41
 70
     1
102
RTVSPropertyOp42
 70
     1
102
RTVSPropertyOp43
 70
     1
102
RTVSPropertyOp44
 70
     1
102
RTVSPropertyOp45
 70
     1
102
RTVSPropertyOp46
 70
     1
102
RTVSPropertyOp47
 70
     1
102
RTVSPropertyOp48
 70
     1
102
RTVSPropertyOp49
 70
     1
102
RTVSPropertyOp50
 70
     1
102
RTVSPropertyOp51
 70
     0
102
RTVSPropertyOp52
 70
     0
102
RTVSPropertyOp53
 70
     1
102
RTVSPropertyOp54
 70
     1
102
RTVSPropertyOp55
 70
     1
102
RTVSPropertyOp56
 70
     1
102
RTVSPropertyOp57
 70
     1
102
RTVSPropertyOp58
 70
     1
102
RTVSPropertyOp59
 70
     1
102
RTVSPropertyOp60
 70
     1
102
RTVSPropertyOp61
 70
     1
102
RTVSPropertyOp62
 70
     1
  0
XRECORD
  5
10D8
102
{ACAD_REACTORS
330
10D7
102
}
330
10D7
100
AcDbXrecord
280
     1
102
RTVSPost2010Prop28
280
     0
102
RTVSPost2010PropOp28
 70
     1
102
RTVSPost2010Prop29
280
     1
102
RTVSPost2010PropOp29
 70
     1
102
RTVSPost2010Prop30
280
     1
102
RTVSPost2010PropOp30
 70
     1
102
RTVSPost2010Prop31
280
     0
102
RTVSPost2010PropOp31
 70
     1
102
RTVSPost2010Prop32
280
     0
102
RTVSPost2010PropOp32
 70
     1
102
RTVSPost2010Prop33
280
     0
102
RTVSPost2010PropOp33
 70
     1
102
RTVSPost2010Prop34
280
     0
102
RTVSPost2010PropOp34
 70
     1
102
RTVSPost2010Prop35
280
     0
102
RTVSPost2010PropOp35
 70
     1
102
RTVSPost2010Prop36
280
     0
102
RTVSPost2010PropOp36
 70
     1
102
RTVSPost2010Prop37
 90
       50
102
RTVSPost2010PropOp37
 70
     1
102
RTVSPost2010Prop38
140
0.0
102
RTVSPost2010PropOp38
 70
     1
102
RTVSPost2010Prop39
140
1.0
102
RTVSPost2010PropOp39
 70
     1
102
RTVSPost2010Prop40
 90
        0
102
RTVSPost2010PropOp40
 70
     1
102
RTVSPost2010Prop41ColorIndex
 90
       18
102
RTVSPost2010Prop41ColorRGB
 90
        0
102
RTVSPost2010PropOp41
 70
     1
102
RTVSPost2010Prop42
 90
       50
102
RTVSPost2010PropOp42
 70
     1
102
RTVSPost2010Prop43
 90
        3
102
RTVSPost2010PropOp43
 70
     1
102
RTVSPost2010Prop44ColorIndex
 90
        5
102
RTVSPost2010Prop44ColorRGB
 90
      255
102
RTVSPost2010PropOp44
 70
     1
102
RTVSPost2010Prop45
280
     0
102
RTVSPost2010PropOp45
 70
     1
102
RTVSPost2010Prop46
 90
       50
102
RTVSPost2010PropOp46
 70
     1
102
RTVSPost2010Prop47
 90
       50
102
RTVSPost2010PropOp47
 70
     1
102
RTVSPost2010Prop48
 90
       50
102
RTVSPost2010PropOp48
 70
     1
102
RTVSPost2010Prop49
280
     0
102
RTVSPost2010PropOp49
 70
     1
102
RTVSPost2010Prop50
 90
       50
102
RTVSPost2010PropOp50
 70
     1
102
RTVSPost2010Prop51ColorIndex
 90
      256
102
RTVSPost2010Prop51ColorRGB
 90
-16777216
102
RTVSPost2010PropOp51
 70
     0
102
RTVSPost2010Prop52
140
1.0
102
RTVSPost2010PropOp52
 70
     0
102
RTVSPost2010Prop53
 90
        2
102
RTVSPost2010PropOp53
 70
     1
102
RTVSPost2010Prop54
  1
strokes_ogs.tif
102
RTVSPost2010PropOp54
 70
     1
102
RTVSPost2010Prop55
280
     0
102
RTVSPost2010PropOp55
 70
     1
102
RTVSPost2010Prop56
140
1.0
102
RTVSPost2010PropOp56
 70
     1
102
RTVSPost2010Prop57
140
1.0
102
RTVSPost2010PropOp57
 70
     1
102
RTVSPropertyOp0
 70
     1
102
RTVSPropertyOp1
 70
     1
102
RTVSPropertyOp2
 70
     1
102
RTVSPropertyOp3
 70
     1
102
RTVSPropertyOp4
 70
     1
102
RTVSPropertyOp5
 70
     1
102
RTVSPropertyOp6
 70
     1
102
RTVSPropertyOp7
 70
     1
102
RTVSPropertyOp8
 70
     1
102
RTVSPropertyOp9
 70
     1
102
RTVSPropertyOp10
 70
     1
102
RTVSPropertyOp11
 70
     1
102
RTVSPropertyOp12
 70
     1
102
RTVSPropertyOp13
 70
     1
102
RTVSPropertyOp14
 70
     1
102
RTVSPropertyOp15
 70
     1
102
RTVSPropertyOp16
 70
     1
102
RTVSPropertyOp17
 70
     1
102
RTVSPropertyOp18
 70
     1
102
RTVSPropertyOp19
 70
     1
102
RTVSPropertyOp20
 70
     1
102
RTVSPropertyOp21
 70
     1
102
RTVSPropertyOp22
 70
     1
102
RTVSPropertyOp23
 70
     1
102
RTVSPropertyOp24
 70
     1
102
RTVSPropertyOp25
 70
     1
102
RTVSPropertyOp26
 70
     1
102
RTVSPropertyOp27
 70
     1
102
RTVSPropertyOp28
 70
     1
102
RTVSPropertyOp29
 70
     1
102
RTVSPropertyOp30
 70
     1
102
RTVSPropertyOp31
 70
     1
102
RTVSPropertyOp32
 70
     1
102
RTVSPropertyOp33
 70
     1
102
RTVSPropertyOp34
 70
     1
102
RTVSPropertyOp35
 70
     1
102
RTVSPropertyOp36
 70
     1
102
RTVSPropertyOp37
 70
     1
102
RTVSPropertyOp38
 70
     1
102
RTVSPropertyOp39
 70
     1
102
RTVSPropertyOp40
 70
     1
102
RTVSPropertyOp41
 70
     1
102
RTVSPropertyOp42
 70
     1
102
RTVSPropertyOp43
 70
     1
102
RTVSPropertyOp44
 70
     1
102
RTVSPropertyOp45
 70
     1
102
RTVSPropertyOp46
 70
     1
102
RTVSPropertyOp47
 70
     1
102
RTVSPropertyOp48
 70
     1
102
RTVSPropertyOp49
 70
     1
102
RTVSPropertyOp50
 70
     1
102
RTVSPropertyOp51
 70
     0
102
RTVSPropertyOp52
 70
     0
102
RTVSPropertyOp53
 70
     1
102
RTVSPropertyOp54
 70
     1
102
RTVSPropertyOp55
 70
     1
102
RTVSPropertyOp56
 70
     1
102
RTVSPropertyOp57
 70
     1
102
RTVSPropertyOp58
 70
     1
102
RTVSPropertyOp59
 70
     1
102
RTVSPropertyOp60
 70
     1
102
RTVSPropertyOp61
 70
     1
102
RTVSPropertyOp62
 70
     1
  0
XRECORD
  5
10DA
102
{ACAD_REACTORS
330
10D9
102
}
330
10D9
100
AcDbXrecord
280
     1
102
RTVSPost2010Prop28
280
     0
102
RTVSPost2010PropOp28
 70
     1
102
RTVSPost2010Prop29
280
     1
102
RTVSPost2010PropOp29
 70
     1
102
RTVSPost2010Prop30
280
     1
102
RTVSPost2010PropOp30
 70
     1
102
RTVSPost2010Prop31
280
     0
102
RTVSPost2010PropOp31
 70
     1
102
RTVSPost2010Prop32
280
     0
102
RTVSPost2010PropOp32
 70
     1
102
RTVSPost2010Prop33
280
     0
102
RTVSPost2010PropOp33
 70
     1
102
RTVSPost2010Prop34
280
     0
102
RTVSPost2010PropOp34
 70
     1
102
RTVSPost2010Prop35
280
     0
102
RTVSPost2010PropOp35
 70
     1
102
RTVSPost2010Prop36
280
     0
102
RTVSPost2010PropOp36
 70
     1
102
RTVSPost2010Prop37
 90
       50
102
RTVSPost2010PropOp37
 70
     1
102
RTVSPost2010Prop38
140
0.0
102
RTVSPost2010PropOp38
 70
     1
102
RTVSPost2010Prop39
140
1.0
102
RTVSPost2010PropOp39
 70
     1
102
RTVSPost2010Prop40
 90
        0
102
RTVSPost2010PropOp40
 70
     1
102
RTVSPost2010Prop41ColorIndex
 90
       18
102
RTVSPost2010Prop41ColorRGB
 90
        0
102
RTVSPost2010PropOp41
 70
     1
102
RTVSPost2010Prop42
 90
       50
102
RTVSPost2010PropOp42
 70
     1
102
RTVSPost2010Prop43
 90
        3
102
RTVSPost2010PropOp43
 70
     1
102
RTVSPost2010Prop44ColorIndex
 90
        5
102
RTVSPost2010Prop44ColorRGB
 90
      255
102
RTVSPost2010PropOp44
 70
     1
102
RTVSPost2010Prop45
280
     0
102
RTVSPost2010PropOp45
 70
     1
102
RTVSPost2010Prop46
 90
       50
102
RTVSPost2010PropOp46
 70
     1
102
RTVSPost2010Prop47
 90
       50
102
RTVSPost2010PropOp47
 70
     1
102
RTVSPost2010Prop48
 90
       50
102
RTVSPost2010PropOp48
 70
     1
102
RTVSPost2010Prop49
280
     0
102
RTVSPost2010PropOp49
 70
     1
102
RTVSPost2010Prop50
 90
       50
102
RTVSPost2010PropOp50
 70
     1
102
RTVSPost2010Prop51ColorIndex
 90
      256
102
RTVSPost2010Prop51ColorRGB
 90
-16777216
102
RTVSPost2010PropOp51
 70
     0
102
RTVSPost2010Prop52
140
1.0
102
RTVSPost2010PropOp52
 70
     0
102
RTVSPost2010Prop53
 90
        2
102
RTVSPost2010PropOp53
 70
     1
102
RTVSPost2010Prop54
  1
strokes_ogs.tif
102
RTVSPost2010PropOp54
 70
     1
102
RTVSPost2010Prop55
280
     0
102
RTVSPost2010PropOp55
 70
     1
102
RTVSPost2010Prop56
140
1.0
102
RTVSPost2010PropOp56
 70
     1
102
RTVSPost2010Prop57
140
1.0
102
RTVSPost2010PropOp57
 70
     1
102
RTVSPropertyOp0
 70
     1
102
RTVSPropertyOp1
 70
     1
102
RTVSPropertyOp2
 70
     1
102
RTVSPropertyOp3
 70
     1
102
RTVSPropertyOp4
 70
     1
102
RTVSPropertyOp5
 70
     1
102
RTVSPropertyOp6
 70
     1
102
RTVSPropertyOp7
 70
     1
102
RTVSPropertyOp8
 70
     1
102
RTVSPropertyOp9
 70
     1
102
RTVSPropertyOp10
 70
     1
102
RTVSPropertyOp11
 70
     1
102
RTVSPropertyOp12
 70
     1
102
RTVSPropertyOp13
 70
     1
102
RTVSPropertyOp14
 70
     1
102
RTVSPropertyOp15
 70
     1
102
RTVSPropertyOp16
 70
     1
102
RTVSPropertyOp17
 70
     1
102
RTVSPropertyOp18
 70
     1
102
RTVSPropertyOp19
 70
     1
102
RTVSPropertyOp20
 70
     1
102
RTVSPropertyOp21
 70
     1
102
RTVSPropertyOp22
 70
     1
102
RTVSPropertyOp23
 70
     1
102
RTVSPropertyOp24
 70
     1
102
RTVSPropertyOp25
 70
     1
102
RTVSPropertyOp26
 70
     1
102
RTVSPropertyOp27
 70
     1
102
RTVSPropertyOp28
 70
     1
102
RTVSPropertyOp29
 70
     1
102
RTVSPropertyOp30
 70
     1
102
RTVSPropertyOp31
 70
     1
102
RTVSPropertyOp32
 70
     1
102
RTVSPropertyOp33
 70
     1
102
RTVSPropertyOp34
 70
     1
102
RTVSPropertyOp35
 70
     1
102
RTVSPropertyOp36
 70
     1
102
RTVSPropertyOp37
 70
     1
102
RTVSPropertyOp38
 70
     1
102
RTVSPropertyOp39
 70
     1
102
RTVSPropertyOp40
 70
     1
102
RTVSPropertyOp41
 70
     1
102
RTVSPropertyOp42
 70
     1
102
RTVSPropertyOp43
 70
     1
102
RTVSPropertyOp44
 70
     1
102
RTVSPropertyOp45
 70
     1
102
RTVSPropertyOp46
 70
     1
102
RTVSPropertyOp47
 70
     1
102
RTVSPropertyOp48
 70
     1
102
RTVSPropertyOp49
 70
     1
102
RTVSPropertyOp50
 70
     1
102
RTVSPropertyOp51
 70
     0
102
RTVSPropertyOp52
 70
     0
102
RTVSPropertyOp53
 70
     1
102
RTVSPropertyOp54
 70
     1
102
RTVSPropertyOp55
 70
     1
102
RTVSPropertyOp56
 70
     1
102
RTVSPropertyOp57
 70
     1
102
RTVSPropertyOp58
 70
     1
102
RTVSPropertyOp59
 70
     1
102
RTVSPropertyOp60
 70
     1
102
RTVSPropertyOp61
 70
     1
102
RTVSPropertyOp62
 70
     1
  0
XRECORD
  5
10DC
102
{ACAD_REACTORS
330
10DB
102
}
330
10DB
100
AcDbXrecord
280
     1
102
RTVSPost2010Prop28
280
     0
102
RTVSPost2010PropOp28
 70
     1
102
RTVSPost2010Prop29
280
     1
102
RTVSPost2010PropOp29
 70
     1
102
RTVSPost2010Prop30
280
     1
102
RTVSPost2010PropOp30
 70
     1
102
RTVSPost2010Prop31
280
     0
102
RTVSPost2010PropOp31
 70
     1
102
RTVSPost2010Prop32
280
     0
102
RTVSPost2010PropOp32
 70
     1
102
RTVSPost2010Prop33
280
     0
102
RTVSPost2010PropOp33
 70
     1
102
RTVSPost2010Prop34
280
     0
102
RTVSPost2010PropOp34
 70
     1
102
RTVSPost2010Prop35
280
     0
102
RTVSPost2010PropOp35
 70
     1
102
RTVSPost2010Prop36
280
     0
102
RTVSPost2010PropOp36
 70
     1
102
RTVSPost2010Prop37
 90
       50
102
RTVSPost2010PropOp37
 70
     1
102
RTVSPost2010Prop38
140
0.0
102
RTVSPost2010PropOp38
 70
     1
102
RTVSPost2010Prop39
140
1.0
102
RTVSPost2010PropOp39
 70
     1
102
RTVSPost2010Prop40
 90
        0
102
RTVSPost2010PropOp40
 70
     1
102
RTVSPost2010Prop41ColorIndex
 90
       18
102
RTVSPost2010Prop41ColorRGB
 90
        0
102
RTVSPost2010PropOp41
 70
     1
102
RTVSPost2010Prop42
 90
       50
102
RTVSPost2010PropOp42
 70
     1
102
RTVSPost2010Prop43
 90
        3
102
RTVSPost2010PropOp43
 70
     1
102
RTVSPost2010Prop44ColorIndex
 90
        5
102
RTVSPost2010Prop44ColorRGB
 90
      255
102
RTVSPost2010PropOp44
 70
     1
102
RTVSPost2010Prop45
280
     0
102
RTVSPost2010PropOp45
 70
     1
102
RTVSPost2010Prop46
 90
       50
102
RTVSPost2010PropOp46
 70
     1
102
RTVSPost2010Prop47
 90
       50
102
RTVSPost2010PropOp47
 70
     1
102
RTVSPost2010Prop48
 90
       50
102
RTVSPost2010PropOp48
 70
     1
102
RTVSPost2010Prop49
280
     0
102
RTVSPost2010PropOp49
 70
     1
102
RTVSPost2010Prop50
 90
       50
102
RTVSPost2010PropOp50
 70
     1
102
RTVSPost2010Prop51ColorIndex
 90
      256
102
RTVSPost2010Prop51ColorRGB
 90
-16777216
102
RTVSPost2010PropOp51
 70
     0
102
RTVSPost2010Prop52
140
1.0
102
RTVSPost2010PropOp52
 70
     0
102
RTVSPost2010Prop53
 90
        2
102
RTVSPost2010PropOp53
 70
     1
102
RTVSPost2010Prop54
  1
strokes_ogs.tif
102
RTVSPost2010PropOp54
 70
     1
102
RTVSPost2010Prop55
280
     0
102
RTVSPost2010PropOp55
 70
     1
102
RTVSPost2010Prop56
140
1.0
102
RTVSPost2010PropOp56
 70
     1
102
RTVSPost2010Prop57
140
1.0
102
RTVSPost2010PropOp57
 70
     1
102
RTVSPropertyOp0
 70
     1
102
RTVSPropertyOp1
 70
     1
102
RTVSPropertyOp2
 70
     1
102
RTVSPropertyOp3
 70
     1
102
RTVSPropertyOp4
 70
     1
102
RTVSPropertyOp5
 70
     1
102
RTVSPropertyOp6
 70
     1
102
RTVSPropertyOp7
 70
     1
102
RTVSPropertyOp8
 70
     1
102
RTVSPropertyOp9
 70
     1
102
RTVSPropertyOp10
 70
     1
102
RTVSPropertyOp11
 70
     1
102
RTVSPropertyOp12
 70
     1
102
RTVSPropertyOp13
 70
     1
102
RTVSPropertyOp14
 70
     1
102
RTVSPropertyOp15
 70
     1
102
RTVSPropertyOp16
 70
     1
102
RTVSPropertyOp17
 70
     1
102
RTVSPropertyOp18
 70
     1
102
RTVSPropertyOp19
 70
     1
102
RTVSPropertyOp20
 70
     1
102
RTVSPropertyOp21
 70
     1
102
RTVSPropertyOp22
 70
     1
102
RTVSPropertyOp23
 70
     1
102
RTVSPropertyOp24
 70
     1
102
RTVSPropertyOp25
 70
     1
102
RTVSPropertyOp26
 70
     1
102
RTVSPropertyOp27
 70
     1
102
RTVSPropertyOp28
 70
     1
102
RTVSPropertyOp29
 70
     1
102
RTVSPropertyOp30
 70
     1
102
RTVSPropertyOp31
 70
     1
102
RTVSPropertyOp32
 70
     1
102
RTVSPropertyOp33
 70
     1
102
RTVSPropertyOp34
 70
     1
102
RTVSPropertyOp35
 70
     1
102
RTVSPropertyOp36
 70
     1
102
RTVSPropertyOp37
 70
     1
102
RTVSPropertyOp38
 70
     1
102
RTVSPropertyOp39
 70
     1
102
RTVSPropertyOp40
 70
     1
102
RTVSPropertyOp41
 70
     1
102
RTVSPropertyOp42
 70
     1
102
RTVSPropertyOp43
 70
     1
102
RTVSPropertyOp44
 70
     1
102
RTVSPropertyOp45
 70
     1
102
RTVSPropertyOp46
 70
     1
102
RTVSPropertyOp47
 70
     1
102
RTVSPropertyOp48
 70
     1
102
RTVSPropertyOp49
 70
     1
102
RTVSPropertyOp50
 70
     1
102
RTVSPropertyOp51
 70
     0
102
RTVSPropertyOp52
 70
     0
102
RTVSPropertyOp53
 70
     1
102
RTVSPropertyOp54
 70
     1
102
RTVSPropertyOp55
 70
     1
102
RTVSPropertyOp56
 70
     1
102
RTVSPropertyOp57
 70
     1
102
RTVSPropertyOp58
 70
     1
102
RTVSPropertyOp59
 70
     1
102
RTVSPropertyOp60
 70
     1
102
RTVSPropertyOp61
 70
     1
102
RTVSPropertyOp62
 70
     1
  0
XRECORD
  5
10E4
102
{ACAD_REACTORS
330
10E3
102
}
330
10E3
100
AcDbXrecord
280
     1
102
RTVSPost2010Prop28
280
     0
102
RTVSPost2010PropOp28
 70
     1
102
RTVSPost2010Prop29
280
     1
102
RTVSPost2010PropOp29
 70
     1
102
RTVSPost2010Prop30
280
     1
102
RTVSPost2010PropOp30
 70
     1
102
RTVSPost2010Prop31
280
     0
102
RTVSPost2010PropOp31
 70
     1
102
RTVSPost2010Prop32
280
     0
102
RTVSPost2010PropOp32
 70
     1
102
RTVSPost2010Prop33
280
     0
102
RTVSPost2010PropOp33
 70
     1
102
RTVSPost2010Prop34
280
     0
102
RTVSPost2010PropOp34
 70
     1
102
RTVSPost2010Prop35
280
     0
102
RTVSPost2010PropOp35
 70
     1
102
RTVSPost2010Prop36
280
     0
102
RTVSPost2010PropOp36
 70
     1
102
RTVSPost2010Prop37
 90
       50
102
RTVSPost2010PropOp37
 70
     1
102
RTVSPost2010Prop38
140
0.0
102
RTVSPost2010PropOp38
 70
     1
102
RTVSPost2010Prop39
140
1.0
102
RTVSPost2010PropOp39
 70
     1
102
RTVSPost2010Prop40
 90
        0
102
RTVSPost2010PropOp40
 70
     1
102
RTVSPost2010Prop41ColorIndex
 90
       18
102
RTVSPost2010Prop41ColorRGB
 90
        0
102
RTVSPost2010PropOp41
 70
     1
102
RTVSPost2010Prop42
 90
       50
102
RTVSPost2010PropOp42
 70
     1
102
RTVSPost2010Prop43
 90
        3
102
RTVSPost2010PropOp43
 70
     1
102
RTVSPost2010Prop44ColorIndex
 90
        5
102
RTVSPost2010Prop44ColorRGB
 90
      255
102
RTVSPost2010PropOp44
 70
     1
102
RTVSPost2010Prop45
280
     0
102
RTVSPost2010PropOp45
 70
     1
102
RTVSPost2010Prop46
 90
       50
102
RTVSPost2010PropOp46
 70
     1
102
RTVSPost2010Prop47
 90
       50
102
RTVSPost2010PropOp47
 70
     1
102
RTVSPost2010Prop48
 90
       50
102
RTVSPost2010PropOp48
 70
     1
102
RTVSPost2010Prop49
280
     0
102
RTVSPost2010PropOp49
 70
     1
102
RTVSPost2010Prop50
 90
       50
102
RTVSPost2010PropOp50
 70
     1
102
RTVSPost2010Prop51ColorIndex
 90
      256
102
RTVSPost2010Prop51ColorRGB
 90
-16777216
102
RTVSPost2010PropOp51
 70
     0
102
RTVSPost2010Prop52
140
1.0
102
RTVSPost2010PropOp52
 70
     0
102
RTVSPost2010Prop53
 90
        2
102
RTVSPost2010PropOp53
 70
     1
102
RTVSPost2010Prop54
  1
strokes_ogs.tif
102
RTVSPost2010PropOp54
 70
     1
102
RTVSPost2010Prop55
280
     0
102
RTVSPost2010PropOp55
 70
     1
102
RTVSPost2010Prop56
140
1.0
102
RTVSPost2010PropOp56
 70
     1
102
RTVSPost2010Prop57
140
1.0
102
RTVSPost2010PropOp57
 70
     1
102
RTVSPropertyOp0
 70
     1
102
RTVSPropertyOp1
 70
     1
102
RTVSPropertyOp2
 70
     1
102
RTVSPropertyOp3
 70
     1
102
RTVSPropertyOp4
 70
     1
102
RTVSPropertyOp5
 70
     1
102
RTVSPropertyOp6
 70
     1
102
RTVSPropertyOp7
 70
     1
102
RTVSPropertyOp8
 70
     1
102
RTVSPropertyOp9
 70
     1
102
RTVSPropertyOp10
 70
     1
102
RTVSPropertyOp11
 70
     1
102
RTVSPropertyOp12
 70
     1
102
RTVSPropertyOp13
 70
     1
102
RTVSPropertyOp14
 70
     1
102
RTVSPropertyOp15
 70
     1
102
RTVSPropertyOp16
 70
     1
102
RTVSPropertyOp17
 70
     1
102
RTVSPropertyOp18
 70
     1
102
RTVSPropertyOp19
 70
     1
102
RTVSPropertyOp20
 70
     1
102
RTVSPropertyOp21
 70
     1
102
RTVSPropertyOp22
 70
     1
102
RTVSPropertyOp23
 70
     1
102
RTVSPropertyOp24
 70
     1
102
RTVSPropertyOp25
 70
     1
102
RTVSPropertyOp26
 70
     1
102
RTVSPropertyOp27
 70
     1
102
RTVSPropertyOp28
 70
     1
102
RTVSPropertyOp29
 70
     1
102
RTVSPropertyOp30
 70
     1
102
RTVSPropertyOp31
 70
     1
102
RTVSPropertyOp32
 70
     1
102
RTVSPropertyOp33
 70
     1
102
RTVSPropertyOp34
 70
     1
102
RTVSPropertyOp35
 70
     1
102
RTVSPropertyOp36
 70
     1
102
RTVSPropertyOp37
 70
     1
102
RTVSPropertyOp38
 70
     1
102
RTVSPropertyOp39
 70
     1
102
RTVSPropertyOp40
 70
     1
102
RTVSPropertyOp41
 70
     1
102
RTVSPropertyOp42
 70
     1
102
RTVSPropertyOp43
 70
     1
102
RTVSPropertyOp44
 70
     1
102
RTVSPropertyOp45
 70
     1
102
RTVSPropertyOp46
 70
     1
102
RTVSPropertyOp47
 70
     1
102
RTVSPropertyOp48
 70
     1
102
RTVSPropertyOp49
 70
     1
102
RTVSPropertyOp50
 70
     1
102
RTVSPropertyOp51
 70
     0
102
RTVSPropertyOp52
 70
     0
102
RTVSPropertyOp53
 70
     1
102
RTVSPropertyOp54
 70
     1
102
RTVSPropertyOp55
 70
     1
102
RTVSPropertyOp56
 70
     1
102
RTVSPropertyOp57
 70
     1
102
RTVSPropertyOp58
 70
     1
102
RTVSPropertyOp59
 70
     1
102
RTVSPropertyOp60
 70
     1
102
RTVSPropertyOp61
 70
     1
102
RTVSPropertyOp62
 70
     1
  0
XRECORD
  5
1100
102
{ACAD_REACTORS
330
10FF
102
}
330
10FF
100
AcDbXrecord
280
     1
102
RTVSPost2010Prop28
280
     0
102
RTVSPost2010PropOp28
 70
     1
102
RTVSPost2010Prop29
280
     1
102
RTVSPost2010PropOp29
 70
     1
102
RTVSPost2010Prop30
280
     1
102
RTVSPost2010PropOp30
 70
     1
102
RTVSPost2010Prop31
280
     0
102
RTVSPost2010PropOp31
 70
     1
102
RTVSPost2010Prop32
280
     0
102
RTVSPost2010PropOp32
 70
     1
102
RTVSPost2010Prop33
280
     0
102
RTVSPost2010PropOp33
 70
     1
102
RTVSPost2010Prop34
280
     0
102
RTVSPost2010PropOp34
 70
     1
102
RTVSPost2010Prop35
280
     0
102
RTVSPost2010PropOp35
 70
     1
102
RTVSPost2010Prop36
280
     0
102
RTVSPost2010PropOp36
 70
     1
102
RTVSPost2010Prop37
 90
       50
102
RTVSPost2010PropOp37
 70
     0
102
RTVSPost2010Prop38
140
0.0
102
RTVSPost2010PropOp38
 70
     0
102
RTVSPost2010Prop39
140
1.0
102
RTVSPost2010PropOp39
 70
     0
102
RTVSPost2010Prop40
 90
        0
102
RTVSPost2010PropOp40
 70
     0
102
RTVSPost2010Prop41ColorIndex
 90
       18
102
RTVSPost2010Prop41ColorRGB
 90
        0
102
RTVSPost2010PropOp41
 70
     0
102
RTVSPost2010Prop42
 90
       50
102
RTVSPost2010PropOp42
 70
     0
102
RTVSPost2010Prop43
 90
        3
102
RTVSPost2010PropOp43
 70
     0
102
RTVSPost2010Prop44ColorIndex
 90
        5
102
RTVSPost2010Prop44ColorRGB
 90
      255
102
RTVSPost2010PropOp44
 70
     0
102
RTVSPost2010Prop45
280
     0
102
RTVSPost2010PropOp45
 70
     1
102
RTVSPost2010Prop46
 90
       50
102
RTVSPost2010PropOp46
 70
     0
102
RTVSPost2010Prop47
 90
       50
102
RTVSPost2010PropOp47
 70
     0
102
RTVSPost2010Prop48
 90
       50
102
RTVSPost2010PropOp48
 70
     0
102
RTVSPost2010Prop49
280
     0
102
RTVSPost2010PropOp49
 70
     1
102
RTVSPost2010Prop50
 90
       50
102
RTVSPost2010PropOp50
 70
     0
102
RTVSPost2010Prop51ColorIndex
 90
      256
102
RTVSPost2010Prop51ColorRGB
 90
-16777216
102
RTVSPost2010PropOp51
 70
     0
102
RTVSPost2010Prop52
140
1.0
102
RTVSPost2010PropOp52
 70
     0
102
RTVSPost2010Prop53
 90
        2
102
RTVSPost2010PropOp53
 70
     0
102
RTVSPost2010Prop54
  1
strokes_ogs.tif
102
RTVSPost2010PropOp54
 70
     0
102
RTVSPost2010Prop55
280
     0
102
RTVSPost2010PropOp55
 70
     1
102
RTVSPost2010Prop56
140
1.0
102
RTVSPost2010PropOp56
 70
     0
102
RTVSPost2010Prop57
140
1.0
102
RTVSPost2010PropOp57
 70
     0
102
RTVSPropertyOp0
 70
     0
102
RTVSPropertyOp1
 70
     0
102
RTVSPropertyOp2
 70
     0
102
RTVSPropertyOp3
 70
     0
102
RTVSPropertyOp4
 70
     0
102
RTVSPropertyOp5
 70
     0
102
RTVSPropertyOp6
 70
     0
102
RTVSPropertyOp7
 70
     0
102
RTVSPropertyOp8
 70
     0
102
RTVSPropertyOp9
 70
     0
102
RTVSPropertyOp10
 70
     0
102
RTVSPropertyOp11
 70
     0
102
RTVSPropertyOp12
 70
     0
102
RTVSPropertyOp13
 70
     0
102
RTVSPropertyOp14
 70
     2
102
RTVSPropertyOp15
 70
     0
102
RTVSPropertyOp16
 70
     0
102
RTVSPropertyOp17
 70
     0
102
RTVSPropertyOp18
 70
     0
102
RTVSPropertyOp19
 70
     0
102
RTVSPropertyOp20
 70
     0
102
RTVSPropertyOp21
 70
     0
102
RTVSPropertyOp22
 70
     0
102
RTVSPropertyOp23
 70
     0
102
RTVSPropertyOp24
 70
     0
102
RTVSPropertyOp25
 70
     0
102
RTVSPropertyOp26
 70
     0
102
RTVSPropertyOp27
 70
     0
102
RTVSPropertyOp28
 70
     1
102
RTVSPropertyOp29
 70
     1
102
RTVSPropertyOp30
 70
     1
102
RTVSPropertyOp31
 70
     1
102
RTVSPropertyOp32
 70
     1
102
RTVSPropertyOp33
 70
     1
102
RTVSPropertyOp34
 70
     1
102
RTVSPropertyOp35
 70
     1
102
RTVSPropertyOp36
 70
     1
102
RTVSPropertyOp37
 70
     0
102
RTVSPropertyOp38
 70
     0
102
RTVSPropertyOp39
 70
     0
102
RTVSPropertyOp40
 70
     0
102
RTVSPropertyOp41
 70
     0
102
RTVSPropertyOp42
 70
     0
102
RTVSPropertyOp43
 70
     0
102
RTVSPropertyOp44
 70
     0
102
RTVSPropertyOp45
 70
     1
102
RTVSPropertyOp46
 70
     0
102
RTVSPropertyOp47
 70
     0
102
RTVSPropertyOp48
 70
     0
102
RTVSPropertyOp49
 70
     1
102
RTVSPropertyOp50
 70
     0
102
RTVSPropertyOp51
 70
     0
102
RTVSPropertyOp52
 70
     0
102
RTVSPropertyOp53
 70
     0
102
RTVSPropertyOp54
 70
     0
102
RTVSPropertyOp55
 70
     1
102
RTVSPropertyOp56
 70
     0
102
RTVSPropertyOp57
 70
     0
102
RTVSPropertyOp58
 70
     1
102
RTVSPropertyOp59
 70
     1
102
RTVSPropertyOp60
 70
     1
102
RTVSPropertyOp61
 70
     1
102
RTVSPropertyOp62
 70
     1
  0
XRECORD
  5
10F0
102
{ACAD_REACTORS
330
10EF
102
}
330
10EF
100
AcDbXrecord
280
     1
102
RTVSPost2010Prop28
280
     0
102
RTVSPost2010PropOp28
 70
     1
102
RTVSPost2010Prop29
280
     1
102
RTVSPost2010PropOp29
 70
     1
102
RTVSPost2010Prop30
280
     1
102
RTVSPost2010PropOp30
 70
     1
102
RTVSPost2010Prop31
280
     0
102
RTVSPost2010PropOp31
 70
     1
102
RTVSPost2010Prop32
280
     0
102
RTVSPost2010PropOp32
 70
     1
102
RTVSPost2010Prop33
280
     0
102
RTVSPost2010PropOp33
 70
     1
102
RTVSPost2010Prop34
280
     0
102
RTVSPost2010PropOp34
 70
     1
102
RTVSPost2010Prop35
280
     0
102
RTVSPost2010PropOp35
 70
     1
102
RTVSPost2010Prop36
280
     0
102
RTVSPost2010PropOp36
 70
     1
102
RTVSPost2010Prop37
 90
       50
102
RTVSPost2010PropOp37
 70
     1
102
RTVSPost2010Prop38
140
0.0
102
RTVSPost2010PropOp38
 70
     1
102
RTVSPost2010Prop39
140
1.0
102
RTVSPost2010PropOp39
 70
     1
102
RTVSPost2010Prop40
 90
        0
102
RTVSPost2010PropOp40
 70
     1
102
RTVSPost2010Prop41ColorIndex
 90
       18
102
RTVSPost2010Prop41ColorRGB
 90
        0
102
RTVSPost2010PropOp41
 70
     1
102
RTVSPost2010Prop42
 90
       50
102
RTVSPost2010PropOp42
 70
     1
102
RTVSPost2010Prop43
 90
        3
102
RTVSPost2010PropOp43
 70
     1
102
RTVSPost2010Prop44ColorIndex
 90
        5
102
RTVSPost2010Prop44ColorRGB
 90
      255
102
RTVSPost2010PropOp44
 70
     1
102
RTVSPost2010Prop45
280
     0
102
RTVSPost2010PropOp45
 70
     1
102
RTVSPost2010Prop46
 90
       50
102
RTVSPost2010PropOp46
 70
     1
102
RTVSPost2010Prop47
 90
       50
102
RTVSPost2010PropOp47
 70
     1
102
RTVSPost2010Prop48
 90
       50
102
RTVSPost2010PropOp48
 70
     1
102
RTVSPost2010Prop49
280
     0
102
RTVSPost2010PropOp49
 70
     1
102
RTVSPost2010Prop50
 90
       50
102
RTVSPost2010PropOp50
 70
     1
102
RTVSPost2010Prop51ColorIndex
 90
      256
102
RTVSPost2010Prop51ColorRGB
 90
-16777216
102
RTVSPost2010PropOp51
 70
     0
102
RTVSPost2010Prop52
140
1.0
102
RTVSPost2010PropOp52
 70
     0
102
RTVSPost2010Prop53
 90
        2
102
RTVSPost2010PropOp53
 70
     1
102
RTVSPost2010Prop54
  1
strokes_ogs.tif
102
RTVSPost2010PropOp54
 70
     1
102
RTVSPost2010Prop55
280
     0
102
RTVSPost2010PropOp55
 70
     1
102
RTVSPost2010Prop56
140
1.0
102
RTVSPost2010PropOp56
 70
     1
102
RTVSPost2010Prop57
140
1.0
102
RTVSPost2010PropOp57
 70
     1
102
RTVSPropertyOp0
 70
     1
102
RTVSPropertyOp1
 70
     1
102
RTVSPropertyOp2
 70
     1
102
RTVSPropertyOp3
 70
     1
102
RTVSPropertyOp4
 70
     1
102
RTVSPropertyOp5
 70
     1
102
RTVSPropertyOp6
 70
     1
102
RTVSPropertyOp7
 70
     1
102
RTVSPropertyOp8
 70
     1
102
RTVSPropertyOp9
 70
     1
102
RTVSPropertyOp10
 70
     1
102
RTVSPropertyOp11
 70
     1
102
RTVSPropertyOp12
 70
     1
102
RTVSPropertyOp13
 70
     1
102
RTVSPropertyOp14
 70
     1
102
RTVSPropertyOp15
 70
     1
102
RTVSPropertyOp16
 70
     1
102
RTVSPropertyOp17
 70
     1
102
RTVSPropertyOp18
 70
     1
102
RTVSPropertyOp19
 70
     1
102
RTVSPropertyOp20
 70
     1
102
RTVSPropertyOp21
 70
     1
102
RTVSPropertyOp22
 70
     1
102
RTVSPropertyOp23
 70
     1
102
RTVSPropertyOp24
 70
     1
102
RTVSPropertyOp25
 70
     1
102
RTVSPropertyOp26
 70
     1
102
RTVSPropertyOp27
 70
     1
102
RTVSPropertyOp28
 70
     1
102
RTVSPropertyOp29
 70
     1
102
RTVSPropertyOp30
 70
     1
102
RTVSPropertyOp31
 70
     1
102
RTVSPropertyOp32
 70
     1
102
RTVSPropertyOp33
 70
     1
102
RTVSPropertyOp34
 70
     1
102
RTVSPropertyOp35
 70
     1
102
RTVSPropertyOp36
 70
     1
102
RTVSPropertyOp37
 70
     1
102
RTVSPropertyOp38
 70
     1
102
RTVSPropertyOp39
 70
     1
102
RTVSPropertyOp40
 70
     1
102
RTVSPropertyOp41
 70
     1
102
RTVSPropertyOp42
 70
     1
102
RTVSPropertyOp43
 70
     1
102
RTVSPropertyOp44
 70
     1
102
RTVSPropertyOp45
 70
     1
102
RTVSPropertyOp46
 70
     1
102
RTVSPropertyOp47
 70
     1
102
RTVSPropertyOp48
 70
     1
102
RTVSPropertyOp49
 70
     1
102
RTVSPropertyOp50
 70
     1
102
RTVSPropertyOp51
 70
     0
102
RTVSPropertyOp52
 70
     0
102
RTVSPropertyOp53
 70
     1
102
RTVSPropertyOp54
 70
     1
102
RTVSPropertyOp55
 70
     1
102
RTVSPropertyOp56
 70
     1
102
RTVSPropertyOp57
 70
     1
102
RTVSPropertyOp58
 70
     1
102
RTVSPropertyOp59
 70
     1
102
RTVSPropertyOp60
 70
     1
102
RTVSPropertyOp61
 70
     1
102
RTVSPropertyOp62
 70
     1
  0
XRECORD
  5
1102
102
{ACAD_REACTORS
330
1101
102
}
330
1101
100
AcDbXrecord
280
     1
102
RTVSPost2010Prop28
280
     0
102
RTVSPost2010PropOp28
 70
     1
102
RTVSPost2010Prop29
280
     1
102
RTVSPost2010PropOp29
 70
     1
102
RTVSPost2010Prop30
280
     1
102
RTVSPost2010PropOp30
 70
     1
102
RTVSPost2010Prop31
280
     0
102
RTVSPost2010PropOp31
 70
     1
102
RTVSPost2010Prop32
280
     0
102
RTVSPost2010PropOp32
 70
     1
102
RTVSPost2010Prop33
280
     0
102
RTVSPost2010PropOp33
 70
     1
102
RTVSPost2010Prop34
280
     0
102
RTVSPost2010PropOp34
 70
     1
102
RTVSPost2010Prop35
280
     0
102
RTVSPost2010PropOp35
 70
     1
102
RTVSPost2010Prop36
280
     0
102
RTVSPost2010PropOp36
 70
     1
102
RTVSPost2010Prop37
 90
       50
102
RTVSPost2010PropOp37
 70
     0
102
RTVSPost2010Prop38
140
0.0
102
RTVSPost2010PropOp38
 70
     0
102
RTVSPost2010Prop39
140
1.0
102
RTVSPost2010PropOp39
 70
     0
102
RTVSPost2010Prop40
 90
        0
102
RTVSPost2010PropOp40
 70
     0
102
RTVSPost2010Prop41ColorIndex
 90
       18
102
RTVSPost2010Prop41ColorRGB
 90
        0
102
RTVSPost2010PropOp41
 70
     0
102
RTVSPost2010Prop42
 90
       50
102
RTVSPost2010PropOp42
 70
     0
102
RTVSPost2010Prop43
 90
        3
102
RTVSPost2010PropOp43
 70
     0
102
RTVSPost2010Prop44ColorIndex
 90
        5
102
RTVSPost2010Prop44ColorRGB
 90
      255
102
RTVSPost2010PropOp44
 70
     0
102
RTVSPost2010Prop45
280
     0
102
RTVSPost2010PropOp45
 70
     1
102
RTVSPost2010Prop46
 90
       50
102
RTVSPost2010PropOp46
 70
     0
102
RTVSPost2010Prop47
 90
       50
102
RTVSPost2010PropOp47
 70
     0
102
RTVSPost2010Prop48
 90
       50
102
RTVSPost2010PropOp48
 70
     0
102
RTVSPost2010Prop49
280
     0
102
RTVSPost2010PropOp49
 70
     1
102
RTVSPost2010Prop50
 90
       50
102
RTVSPost2010PropOp50
 70
     0
102
RTVSPost2010Prop51ColorIndex
 90
      256
102
RTVSPost2010Prop51ColorRGB
 90
-16777216
102
RTVSPost2010PropOp51
 70
     0
102
RTVSPost2010Prop52
140
1.0
102
RTVSPost2010PropOp52
 70
     0
102
RTVSPost2010Prop53
 90
        2
102
RTVSPost2010PropOp53
 70
     0
102
RTVSPost2010Prop54
  1
strokes_ogs.tif
102
RTVSPost2010PropOp54
 70
     0
102
RTVSPost2010Prop55
280
     0
102
RTVSPost2010PropOp55
 70
     1
102
RTVSPost2010Prop56
140
1.0
102
RTVSPost2010PropOp56
 70
     0
102
RTVSPost2010Prop57
140
1.0
102
RTVSPost2010PropOp57
 70
     0
102
RTVSPropertyOp0
 70
     0
102
RTVSPropertyOp1
 70
     0
102
RTVSPropertyOp2
 70
     0
102
RTVSPropertyOp3
 70
     0
102
RTVSPropertyOp4
 70
     0
102
RTVSPropertyOp5
 70
     0
102
RTVSPropertyOp6
 70
     0
102
RTVSPropertyOp7
 70
     0
102
RTVSPropertyOp8
 70
     0
102
RTVSPropertyOp9
 70
     0
102
RTVSPropertyOp10
 70
     0
102
RTVSPropertyOp11
 70
     0
102
RTVSPropertyOp12
 70
     0
102
RTVSPropertyOp13
 70
     0
102
RTVSPropertyOp14
 70
     2
102
RTVSPropertyOp15
 70
     0
102
RTVSPropertyOp16
 70
     0
102
RTVSPropertyOp17
 70
     0
102
RTVSPropertyOp18
 70
     0
102
RTVSPropertyOp19
 70
     0
102
RTVSPropertyOp20
 70
     0
102
RTVSPropertyOp21
 70
     0
102
RTVSPropertyOp22
 70
     0
102
RTVSPropertyOp23
 70
     0
102
RTVSPropertyOp24
 70
     0
102
RTVSPropertyOp25
 70
     0
102
RTVSPropertyOp26
 70
     0
102
RTVSPropertyOp27
 70
     0
102
RTVSPropertyOp28
 70
     1
102
RTVSPropertyOp29
 70
     1
102
RTVSPropertyOp30
 70
     1
102
RTVSPropertyOp31
 70
     1
102
RTVSPropertyOp32
 70
     1
102
RTVSPropertyOp33
 70
     1
102
RTVSPropertyOp34
 70
     1
102
RTVSPropertyOp35
 70
     1
102
RTVSPropertyOp36
 70
     1
102
RTVSPropertyOp37
 70
     0
102
RTVSPropertyOp38
 70
     0
102
RTVSPropertyOp39
 70
     0
102
RTVSPropertyOp40
 70
     0
102
RTVSPropertyOp41
 70
     0
102
RTVSPropertyOp42
 70
     0
102
RTVSPropertyOp43
 70
     0
102
RTVSPropertyOp44
 70
     0
102
RTVSPropertyOp45
 70
     1
102
RTVSPropertyOp46
 70
     0
102
RTVSPropertyOp47
 70
     0
102
RTVSPropertyOp48
 70
     0
102
RTVSPropertyOp49
 70
     1
102
RTVSPropertyOp50
 70
     0
102
RTVSPropertyOp51
 70
     0
102
RTVSPropertyOp52
 70
     0
102
RTVSPropertyOp53
 70
     0
102
RTVSPropertyOp54
 70
     0
102
RTVSPropertyOp55
 70
     1
102
RTVSPropertyOp56
 70
     0
102
RTVSPropertyOp57
 70
     0
102
RTVSPropertyOp58
 70
     1
102
RTVSPropertyOp59
 70
     1
102
RTVSPropertyOp60
 70
     1
102
RTVSPropertyOp61
 70
     1
102
RTVSPropertyOp62
 70
     1
  0
XRECORD
  5
10E8
102
{ACAD_REACTORS
330
10E7
102
}
330
10E7
100
AcDbXrecord
280
     1
102
RTVSPost2010Prop28
280
     0
102
RTVSPost2010PropOp28
 70
     1
102
RTVSPost2010Prop29
280
     1
102
RTVSPost2010PropOp29
 70
     1
102
RTVSPost2010Prop30
280
     1
102
RTVSPost2010PropOp30
 70
     1
102
RTVSPost2010Prop31
280
     0
102
RTVSPost2010PropOp31
 70
     1
102
RTVSPost2010Prop32
280
     0
102
RTVSPost2010PropOp32
 70
     1
102
RTVSPost2010Prop33
280
     0
102
RTVSPost2010PropOp33
 70
     1
102
RTVSPost2010Prop34
280
     0
102
RTVSPost2010PropOp34
 70
     1
102
RTVSPost2010Prop35
280
     0
102
RTVSPost2010PropOp35
 70
     1
102
RTVSPost2010Prop36
280
     0
102
RTVSPost2010PropOp36
 70
     1
102
RTVSPost2010Prop37
 90
       50
102
RTVSPost2010PropOp37
 70
     1
102
RTVSPost2010Prop38
140
0.0
102
RTVSPost2010PropOp38
 70
     1
102
RTVSPost2010Prop39
140
1.0
102
RTVSPost2010PropOp39
 70
     1
102
RTVSPost2010Prop40
 90
        0
102
RTVSPost2010PropOp40
 70
     1
102
RTVSPost2010Prop41ColorIndex
 90
       18
102
RTVSPost2010Prop41ColorRGB
 90
        0
102
RTVSPost2010PropOp41
 70
     1
102
RTVSPost2010Prop42
 90
       50
102
RTVSPost2010PropOp42
 70
     1
102
RTVSPost2010Prop43
 90
        3
102
RTVSPost2010PropOp43
 70
     1
102
RTVSPost2010Prop44ColorIndex
 90
        5
102
RTVSPost2010Prop44ColorRGB
 90
      255
102
RTVSPost2010PropOp44
 70
     1
102
RTVSPost2010Prop45
280
     0
102
RTVSPost2010PropOp45
 70
     1
102
RTVSPost2010Prop46
 90
       50
102
RTVSPost2010PropOp46
 70
     1
102
RTVSPost2010Prop47
 90
       50
102
RTVSPost2010PropOp47
 70
     1
102
RTVSPost2010Prop48
 90
       50
102
RTVSPost2010PropOp48
 70
     1
102
RTVSPost2010Prop49
280
     0
102
RTVSPost2010PropOp49
 70
     1
102
RTVSPost2010Prop50
 90
       50
102
RTVSPost2010PropOp50
 70
     1
102
RTVSPost2010Prop51ColorIndex
 90
      256
102
RTVSPost2010Prop51ColorRGB
 90
-16777216
102
RTVSPost2010PropOp51
 70
     0
102
RTVSPost2010Prop52
140
1.0
102
RTVSPost2010PropOp52
 70
     0
102
RTVSPost2010Prop53
 90
        2
102
RTVSPost2010PropOp53
 70
     1
102
RTVSPost2010Prop54
  1
strokes_ogs.tif
102
RTVSPost2010PropOp54
 70
     1
102
RTVSPost2010Prop55
280
     0
102
RTVSPost2010PropOp55
 70
     1
102
RTVSPost2010Prop56
140
1.0
102
RTVSPost2010PropOp56
 70
     1
102
RTVSPost2010Prop57
140
1.0
102
RTVSPost2010PropOp57
 70
     1
102
RTVSPropertyOp0
 70
     1
102
RTVSPropertyOp1
 70
     1
102
RTVSPropertyOp2
 70
     1
102
RTVSPropertyOp3
 70
     1
102
RTVSPropertyOp4
 70
     1
102
RTVSPropertyOp5
 70
     1
102
RTVSPropertyOp6
 70
     1
102
RTVSPropertyOp7
 70
     1
102
RTVSPropertyOp8
 70
     1
102
RTVSPropertyOp9
 70
     1
102
RTVSPropertyOp10
 70
     1
102
RTVSPropertyOp11
 70
     1
102
RTVSPropertyOp12
 70
     1
102
RTVSPropertyOp13
 70
     1
102
RTVSPropertyOp14
 70
     1
102
RTVSPropertyOp15
 70
     1
102
RTVSPropertyOp16
 70
     1
102
RTVSPropertyOp17
 70
     1
102
RTVSPropertyOp18
 70
     1
102
RTVSPropertyOp19
 70
     1
102
RTVSPropertyOp20
 70
     1
102
RTVSPropertyOp21
 70
     1
102
RTVSPropertyOp22
 70
     1
102
RTVSPropertyOp23
 70
     1
102
RTVSPropertyOp24
 70
     1
102
RTVSPropertyOp25
 70
     1
102
RTVSPropertyOp26
 70
     1
102
RTVSPropertyOp27
 70
     1
102
RTVSPropertyOp28
 70
     1
102
RTVSPropertyOp29
 70
     1
102
RTVSPropertyOp30
 70
     1
102
RTVSPropertyOp31
 70
     1
102
RTVSPropertyOp32
 70
     1
102
RTVSPropertyOp33
 70
     1
102
RTVSPropertyOp34
 70
     1
102
RTVSPropertyOp35
 70
     1
102
RTVSPropertyOp36
 70
     1
102
RTVSPropertyOp37
 70
     1
102
RTVSPropertyOp38
 70
     1
102
RTVSPropertyOp39
 70
     1
102
RTVSPropertyOp40
 70
     1
102
RTVSPropertyOp41
 70
     1
102
RTVSPropertyOp42
 70
     1
102
RTVSPropertyOp43
 70
     1
102
RTVSPropertyOp44
 70
     1
102
RTVSPropertyOp45
 70
     1
102
RTVSPropertyOp46
 70
     1
102
RTVSPropertyOp47
 70
     1
102
RTVSPropertyOp48
 70
     1
102
RTVSPropertyOp49
 70
     1
102
RTVSPropertyOp50
 70
     1
102
RTVSPropertyOp51
 70
     0
102
RTVSPropertyOp52
 70
     0
102
RTVSPropertyOp53
 70
     1
102
RTVSPropertyOp54
 70
     1
102
RTVSPropertyOp55
 70
     1
102
RTVSPropertyOp56
 70
     1
102
RTVSPropertyOp57
 70
     1
102
RTVSPropertyOp58
 70
     1
102
RTVSPropertyOp59
 70
     1
102
RTVSPropertyOp60
 70
     1
102
RTVSPropertyOp61
 70
     1
102
RTVSPropertyOp62
 70
     1
  0
XRECORD
  5
10FE
102
{ACAD_REACTORS
330
10FD
102
}
330
10FD
100
AcDbXrecord
280
     1
102
RTVSPost2010Prop28
280
     0
102
RTVSPost2010PropOp28
 70
     1
102
RTVSPost2010Prop29
280
     1
102
RTVSPost2010PropOp29
 70
     1
102
RTVSPost2010Prop30
280
     1
102
RTVSPost2010PropOp30
 70
     1
102
RTVSPost2010Prop31
280
     0
102
RTVSPost2010PropOp31
 70
     1
102
RTVSPost2010Prop32
280
     0
102
RTVSPost2010PropOp32
 70
     1
102
RTVSPost2010Prop33
280
     0
102
RTVSPost2010PropOp33
 70
     1
102
RTVSPost2010Prop34
280
     0
102
RTVSPost2010PropOp34
 70
     1
102
RTVSPost2010Prop35
280
     0
102
RTVSPost2010PropOp35
 70
     1
102
RTVSPost2010Prop36
280
     0
102
RTVSPost2010PropOp36
 70
     1
102
RTVSPost2010Prop37
 90
       50
102
RTVSPost2010PropOp37
 70
     1
102
RTVSPost2010Prop38
140
0.0
102
RTVSPost2010PropOp38
 70
     1
102
RTVSPost2010Prop39
140
1.0
102
RTVSPost2010PropOp39
 70
     1
102
RTVSPost2010Prop40
 90
        0
102
RTVSPost2010PropOp40
 70
     1
102
RTVSPost2010Prop41ColorIndex
 90
       18
102
RTVSPost2010Prop41ColorRGB
 90
        0
102
RTVSPost2010PropOp41
 70
     1
102
RTVSPost2010Prop42
 90
       50
102
RTVSPost2010PropOp42
 70
     1
102
RTVSPost2010Prop43
 90
        3
102
RTVSPost2010PropOp43
 70
     1
102
RTVSPost2010Prop44ColorIndex
 90
        5
102
RTVSPost2010Prop44ColorRGB
 90
      255
102
RTVSPost2010PropOp44
 70
     1
102
RTVSPost2010Prop45
280
     0
102
RTVSPost2010PropOp45
 70
     1
102
RTVSPost2010Prop46
 90
       50
102
RTVSPost2010PropOp46
 70
     1
102
RTVSPost2010Prop47
 90
       50
102
RTVSPost2010PropOp47
 70
     1
102
RTVSPost2010Prop48
 90
       50
102
RTVSPost2010PropOp48
 70
     1
102
RTVSPost2010Prop49
280
     0
102
RTVSPost2010PropOp49
 70
     1
102
RTVSPost2010Prop50
 90
       50
102
RTVSPost2010PropOp50
 70
     1
102
RTVSPost2010Prop51ColorIndex
 90
      256
102
RTVSPost2010Prop51ColorRGB
 90
-16777216
102
RTVSPost2010PropOp51
 70
     0
102
RTVSPost2010Prop52
140
1.0
102
RTVSPost2010PropOp52
 70
     0
102
RTVSPost2010Prop53
 90
        2
102
RTVSPost2010PropOp53
 70
     1
102
RTVSPost2010Prop54
  1
strokes_ogs.tif
102
RTVSPost2010PropOp54
 70
     1
102
RTVSPost2010Prop55
280
     0
102
RTVSPost2010PropOp55
 70
     1
102
RTVSPost2010Prop56
140
1.0
102
RTVSPost2010PropOp56
 70
     1
102
RTVSPost2010Prop57
140
1.0
102
RTVSPost2010PropOp57
 70
     1
102
RTVSPropertyOp0
 70
     1
102
RTVSPropertyOp1
 70
     1
102
RTVSPropertyOp2
 70
     1
102
RTVSPropertyOp3
 70
     1
102
RTVSPropertyOp4
 70
     1
102
RTVSPropertyOp5
 70
     1
102
RTVSPropertyOp6
 70
     1
102
RTVSPropertyOp7
 70
     1
102
RTVSPropertyOp8
 70
     1
102
RTVSPropertyOp9
 70
     1
102
RTVSPropertyOp10
 70
     1
102
RTVSPropertyOp11
 70
     1
102
RTVSPropertyOp12
 70
     1
102
RTVSPropertyOp13
 70
     1
102
RTVSPropertyOp14
 70
     1
102
RTVSPropertyOp15
 70
     1
102
RTVSPropertyOp16
 70
     1
102
RTVSPropertyOp17
 70
     1
102
RTVSPropertyOp18
 70
     1
102
RTVSPropertyOp19
 70
     1
102
RTVSPropertyOp20
 70
     1
102
RTVSPropertyOp21
 70
     1
102
RTVSPropertyOp22
 70
     1
102
RTVSPropertyOp23
 70
     1
102
RTVSPropertyOp24
 70
     1
102
RTVSPropertyOp25
 70
     1
102
RTVSPropertyOp26
 70
     1
102
RTVSPropertyOp27
 70
     1
102
RTVSPropertyOp28
 70
     1
102
RTVSPropertyOp29
 70
     1
102
RTVSPropertyOp30
 70
     1
102
RTVSPropertyOp31
 70
     1
102
RTVSPropertyOp32
 70
     1
102
RTVSPropertyOp33
 70
     1
102
RTVSPropertyOp34
 70
     1
102
RTVSPropertyOp35
 70
     1
102
RTVSPropertyOp36
 70
     1
102
RTVSPropertyOp37
 70
     1
102
RTVSPropertyOp38
 70
     1
102
RTVSPropertyOp39
 70
     1
102
RTVSPropertyOp40
 70
     1
102
RTVSPropertyOp41
 70
     1
102
RTVSPropertyOp42
 70
     1
102
RTVSPropertyOp43
 70
     1
102
RTVSPropertyOp44
 70
     1
102
RTVSPropertyOp45
 70
     1
102
RTVSPropertyOp46
 70
     1
102
RTVSPropertyOp47
 70
     1
102
RTVSPropertyOp48
 70
     1
102
RTVSPropertyOp49
 70
     1
102
RTVSPropertyOp50
 70
     1
102
RTVSPropertyOp51
 70
     0
102
RTVSPropertyOp52
 70
     0
102
RTVSPropertyOp53
 70
     1
102
RTVSPropertyOp54
 70
     1
102
RTVSPropertyOp55
 70
     1
102
RTVSPropertyOp56
 70
     1
102
RTVSPropertyOp57
 70
     1
102
RTVSPropertyOp58
 70
     1
102
RTVSPropertyOp59
 70
     1
102
RTVSPropertyOp60
 70
     1
102
RTVSPropertyOp61
 70
     1
102
RTVSPropertyOp62
 70
     1
  0
XRECORD
  5
10FC
102
{ACAD_REACTORS
330
10FB
102
}
330
10FB
100
AcDbXrecord
280
     1
102
RTVSPost2010Prop28
280
     0
102
RTVSPost2010PropOp28
 70
     1
102
RTVSPost2010Prop29
280
     1
102
RTVSPost2010PropOp29
 70
     1
102
RTVSPost2010Prop30
280
     1
102
RTVSPost2010PropOp30
 70
     1
102
RTVSPost2010Prop31
280
     0
102
RTVSPost2010PropOp31
 70
     1
102
RTVSPost2010Prop32
280
     0
102
RTVSPost2010PropOp32
 70
     1
102
RTVSPost2010Prop33
280
     0
102
RTVSPost2010PropOp33
 70
     1
102
RTVSPost2010Prop34
280
     0
102
RTVSPost2010PropOp34
 70
     1
102
RTVSPost2010Prop35
280
     0
102
RTVSPost2010PropOp35
 70
     1
102
RTVSPost2010Prop36
280
     0
102
RTVSPost2010PropOp36
 70
     1
102
RTVSPost2010Prop37
 90
       50
102
RTVSPost2010PropOp37
 70
     1
102
RTVSPost2010Prop38
140
0.0
102
RTVSPost2010PropOp38
 70
     1
102
RTVSPost2010Prop39
140
1.0
102
RTVSPost2010PropOp39
 70
     1
102
RTVSPost2010Prop40
 90
        0
102
RTVSPost2010PropOp40
 70
     1
102
RTVSPost2010Prop41ColorIndex
 90
       18
102
RTVSPost2010Prop41ColorRGB
 90
        0
102
RTVSPost2010PropOp41
 70
     1
102
RTVSPost2010Prop42
 90
       50
102
RTVSPost2010PropOp42
 70
     1
102
RTVSPost2010Prop43
 90
        3
102
RTVSPost2010PropOp43
 70
     1
102
RTVSPost2010Prop44ColorIndex
 90
        5
102
RTVSPost2010Prop44ColorRGB
 90
      255
102
RTVSPost2010PropOp44
 70
     1
102
RTVSPost2010Prop45
280
     0
102
RTVSPost2010PropOp45
 70
     1
102
RTVSPost2010Prop46
 90
       50
102
RTVSPost2010PropOp46
 70
     1
102
RTVSPost2010Prop47
 90
       50
102
RTVSPost2010PropOp47
 70
     1
102
RTVSPost2010Prop48
 90
       50
102
RTVSPost2010PropOp48
 70
     1
102
RTVSPost2010Prop49
280
     0
102
RTVSPost2010PropOp49
 70
     1
102
RTVSPost2010Prop50
 90
       50
102
RTVSPost2010PropOp50
 70
     1
102
RTVSPost2010Prop51ColorIndex
 90
      256
102
RTVSPost2010Prop51ColorRGB
 90
-16777216
102
RTVSPost2010PropOp51
 70
     0
102
RTVSPost2010Prop52
140
1.0
102
RTVSPost2010PropOp52
 70
     0
102
RTVSPost2010Prop53
 90
        2
102
RTVSPost2010PropOp53
 70
     1
102
RTVSPost2010Prop54
  1
strokes_ogs.tif
102
RTVSPost2010PropOp54
 70
     1
102
RTVSPost2010Prop55
280
     0
102
RTVSPost2010PropOp55
 70
     1
102
RTVSPost2010Prop56
140
1.0
102
RTVSPost2010PropOp56
 70
     1
102
RTVSPost2010Prop57
140
1.0
102
RTVSPost2010PropOp57
 70
     1
102
RTVSPropertyOp0
 70
     1
102
RTVSPropertyOp1
 70
     1
102
RTVSPropertyOp2
 70
     1
102
RTVSPropertyOp3
 70
     1
102
RTVSPropertyOp4
 70
     1
102
RTVSPropertyOp5
 70
     1
102
RTVSPropertyOp6
 70
     1
102
RTVSPropertyOp7
 70
     1
102
RTVSPropertyOp8
 70
     1
102
RTVSPropertyOp9
 70
     1
102
RTVSPropertyOp10
 70
     1
102
RTVSPropertyOp11
 70
     1
102
RTVSPropertyOp12
 70
     1
102
RTVSPropertyOp13
 70
     1
102
RTVSPropertyOp14
 70
     1
102
RTVSPropertyOp15
 70
     1
102
RTVSPropertyOp16
 70
     1
102
RTVSPropertyOp17
 70
     1
102
RTVSPropertyOp18
 70
     1
102
RTVSPropertyOp19
 70
     1
102
RTVSPropertyOp20
 70
     1
102
RTVSPropertyOp21
 70
     1
102
RTVSPropertyOp22
 70
     1
102
RTVSPropertyOp23
 70
     1
102
RTVSPropertyOp24
 70
     1
102
RTVSPropertyOp25
 70
     1
102
RTVSPropertyOp26
 70
     1
102
RTVSPropertyOp27
 70
     1
102
RTVSPropertyOp28
 70
     1
102
RTVSPropertyOp29
 70
     1
102
RTVSPropertyOp30
 70
     1
102
RTVSPropertyOp31
 70
     1
102
RTVSPropertyOp32
 70
     1
102
RTVSPropertyOp33
 70
     1
102
RTVSPropertyOp34
 70
     1
102
RTVSPropertyOp35
 70
     1
102
RTVSPropertyOp36
 70
     1
102
RTVSPropertyOp37
 70
     1
102
RTVSPropertyOp38
 70
     1
102
RTVSPropertyOp39
 70
     1
102
RTVSPropertyOp40
 70
     1
102
RTVSPropertyOp41
 70
     1
102
RTVSPropertyOp42
 70
     1
102
RTVSPropertyOp43
 70
     1
102
RTVSPropertyOp44
 70
     1
102
RTVSPropertyOp45
 70
     1
102
RTVSPropertyOp46
 70
     1
102
RTVSPropertyOp47
 70
     1
102
RTVSPropertyOp48
 70
     1
102
RTVSPropertyOp49
 70
     1
102
RTVSPropertyOp50
 70
     1
102
RTVSPropertyOp51
 70
     0
102
RTVSPropertyOp52
 70
     0
102
RTVSPropertyOp53
 70
     1
102
RTVSPropertyOp54
 70
     1
102
RTVSPropertyOp55
 70
     1
102
RTVSPropertyOp56
 70
     1
102
RTVSPropertyOp57
 70
     1
102
RTVSPropertyOp58
 70
     1
102
RTVSPropertyOp59
 70
     1
102
RTVSPropertyOp60
 70
     1
102
RTVSPropertyOp61
 70
     1
102
RTVSPropertyOp62
 70
     1
  0
XRECORD
  5
10F6
102
{ACAD_REACTORS
330
10F5
102
}
330
10F5
100
AcDbXrecord
280
     1
102
RTVSPost2010Prop28
280
     0
102
RTVSPost2010PropOp28
 70
     1
102
RTVSPost2010Prop29
280
     1
102
RTVSPost2010PropOp29
 70
     1
102
RTVSPost2010Prop30
280
     1
102
RTVSPost2010PropOp30
 70
     1
102
RTVSPost2010Prop31
280
     0
102
RTVSPost2010PropOp31
 70
     1
102
RTVSPost2010Prop32
280
     0
102
RTVSPost2010PropOp32
 70
     1
102
RTVSPost2010Prop33
280
     0
102
RTVSPost2010PropOp33
 70
     1
102
RTVSPost2010Prop34
280
     0
102
RTVSPost2010PropOp34
 70
     1
102
RTVSPost2010Prop35
280
     0
102
RTVSPost2010PropOp35
 70
     1
102
RTVSPost2010Prop36
280
     0
102
RTVSPost2010PropOp36
 70
     1
102
RTVSPost2010Prop37
 90
       50
102
RTVSPost2010PropOp37
 70
     1
102
RTVSPost2010Prop38
140
0.0
102
RTVSPost2010PropOp38
 70
     1
102
RTVSPost2010Prop39
140
1.0
102
RTVSPost2010PropOp39
 70
     1
102
RTVSPost2010Prop40
 90
        0
102
RTVSPost2010PropOp40
 70
     1
102
RTVSPost2010Prop41ColorIndex
 90
       18
102
RTVSPost2010Prop41ColorRGB
 90
        0
102
RTVSPost2010PropOp41
 70
     1
102
RTVSPost2010Prop42
 90
       50
102
RTVSPost2010PropOp42
 70
     1
102
RTVSPost2010Prop43
 90
        3
102
RTVSPost2010PropOp43
 70
     1
102
RTVSPost2010Prop44ColorIndex
 90
        5
102
RTVSPost2010Prop44ColorRGB
 90
      255
102
RTVSPost2010PropOp44
 70
     1
102
RTVSPost2010Prop45
280
     0
102
RTVSPost2010PropOp45
 70
     1
102
RTVSPost2010Prop46
 90
       50
102
RTVSPost2010PropOp46
 70
     1
102
RTVSPost2010Prop47
 90
       50
102
RTVSPost2010PropOp47
 70
     1
102
RTVSPost2010Prop48
 90
       50
102
RTVSPost2010PropOp48
 70
     1
102
RTVSPost2010Prop49
280
     0
102
RTVSPost2010PropOp49
 70
     1
102
RTVSPost2010Prop50
 90
       50
102
RTVSPost2010PropOp50
 70
     1
102
RTVSPost2010Prop51ColorIndex
 90
      256
102
RTVSPost2010Prop51ColorRGB
 90
-16777216
102
RTVSPost2010PropOp51
 70
     0
102
RTVSPost2010Prop52
140
1.0
102
RTVSPost2010PropOp52
 70
     0
102
RTVSPost2010Prop53
 90
        2
102
RTVSPost2010PropOp53
 70
     1
102
RTVSPost2010Prop54
  1
strokes_ogs.tif
102
RTVSPost2010PropOp54
 70
     1
102
RTVSPost2010Prop55
280
     0
102
RTVSPost2010PropOp55
 70
     1
102
RTVSPost2010Prop56
140
1.0
102
RTVSPost2010PropOp56
 70
     1
102
RTVSPost2010Prop57
140
1.0
102
RTVSPost2010PropOp57
 70
     1
102
RTVSPropertyOp0
 70
     1
102
RTVSPropertyOp1
 70
     1
102
RTVSPropertyOp2
 70
     1
102
RTVSPropertyOp3
 70
     1
102
RTVSPropertyOp4
 70
     1
102
RTVSPropertyOp5
 70
     1
102
RTVSPropertyOp6
 70
     1
102
RTVSPropertyOp7
 70
     1
102
RTVSPropertyOp8
 70
     1
102
RTVSPropertyOp9
 70
     1
102
RTVSPropertyOp10
 70
     1
102
RTVSPropertyOp11
 70
     1
102
RTVSPropertyOp12
 70
     1
102
RTVSPropertyOp13
 70
     1
102
RTVSPropertyOp14
 70
     1
102
RTVSPropertyOp15
 70
     1
102
RTVSPropertyOp16
 70
     1
102
RTVSPropertyOp17
 70
     1
102
RTVSPropertyOp18
 70
     1
102
RTVSPropertyOp19
 70
     1
102
RTVSPropertyOp20
 70
     1
102
RTVSPropertyOp21
 70
     1
102
RTVSPropertyOp22
 70
     1
102
RTVSPropertyOp23
 70
     1
102
RTVSPropertyOp24
 70
     1
102
RTVSPropertyOp25
 70
     1
102
RTVSPropertyOp26
 70
     1
102
RTVSPropertyOp27
 70
     1
102
RTVSPropertyOp28
 70
     1
102
RTVSPropertyOp29
 70
     1
102
RTVSPropertyOp30
 70
     1
102
RTVSPropertyOp31
 70
     1
102
RTVSPropertyOp32
 70
     1
102
RTVSPropertyOp33
 70
     1
102
RTVSPropertyOp34
 70
     1
102
RTVSPropertyOp35
 70
     1
102
RTVSPropertyOp36
 70
     1
102
RTVSPropertyOp37
 70
     1
102
RTVSPropertyOp38
 70
     1
102
RTVSPropertyOp39
 70
     1
102
RTVSPropertyOp40
 70
     1
102
RTVSPropertyOp41
 70
     1
102
RTVSPropertyOp42
 70
     1
102
RTVSPropertyOp43
 70
     1
102
RTVSPropertyOp44
 70
     1
102
RTVSPropertyOp45
 70
     1
102
RTVSPropertyOp46
 70
     1
102
RTVSPropertyOp47
 70
     1
102
RTVSPropertyOp48
 70
     1
102
RTVSPropertyOp49
 70
     1
102
RTVSPropertyOp50
 70
     1
102
RTVSPropertyOp51
 70
     0
102
RTVSPropertyOp52
 70
     0
102
RTVSPropertyOp53
 70
     1
102
RTVSPropertyOp54
 70
     1
102
RTVSPropertyOp55
 70
     1
102
RTVSPropertyOp56
 70
     1
102
RTVSPropertyOp57
 70
     1
102
RTVSPropertyOp58
 70
     1
102
RTVSPropertyOp59
 70
     1
102
RTVSPropertyOp60
 70
     1
102
RTVSPropertyOp61
 70
     1
102
RTVSPropertyOp62
 70
     1
  0
XRECORD
  5
10F8
102
{ACAD_REACTORS
330
10F7
102
}
330
10F7
100
AcDbXrecord
280
     1
102
RTVSPost2010Prop28
280
     0
102
RTVSPost2010PropOp28
 70
     1
102
RTVSPost2010Prop29
280
     1
102
RTVSPost2010PropOp29
 70
     1
102
RTVSPost2010Prop30
280
     1
102
RTVSPost2010PropOp30
 70
     1
102
RTVSPost2010Prop31
280
     0
102
RTVSPost2010PropOp31
 70
     1
102
RTVSPost2010Prop32
280
     0
102
RTVSPost2010PropOp32
 70
     1
102
RTVSPost2010Prop33
280
     0
102
RTVSPost2010PropOp33
 70
     1
102
RTVSPost2010Prop34
280
     0
102
RTVSPost2010PropOp34
 70
     1
102
RTVSPost2010Prop35
280
     0
102
RTVSPost2010PropOp35
 70
     1
102
RTVSPost2010Prop36
280
     0
102
RTVSPost2010PropOp36
 70
     1
102
RTVSPost2010Prop37
 90
       50
102
RTVSPost2010PropOp37
 70
     1
102
RTVSPost2010Prop38
140
0.0
102
RTVSPost2010PropOp38
 70
     1
102
RTVSPost2010Prop39
140
1.0
102
RTVSPost2010PropOp39
 70
     1
102
RTVSPost2010Prop40
 90
        0
102
RTVSPost2010PropOp40
 70
     1
102
RTVSPost2010Prop41ColorIndex
 90
       18
102
RTVSPost2010Prop41ColorRGB
 90
        0
102
RTVSPost2010PropOp41
 70
     1
102
RTVSPost2010Prop42
 90
       50
102
RTVSPost2010PropOp42
 70
     1
102
RTVSPost2010Prop43
 90
        3
102
RTVSPost2010PropOp43
 70
     1
102
RTVSPost2010Prop44ColorIndex
 90
        5
102
RTVSPost2010Prop44ColorRGB
 90
      255
102
RTVSPost2010PropOp44
 70
     1
102
RTVSPost2010Prop45
280
     0
102
RTVSPost2010PropOp45
 70
     1
102
RTVSPost2010Prop46
 90
       50
102
RTVSPost2010PropOp46
 70
     1
102
RTVSPost2010Prop47
 90
       50
102
RTVSPost2010PropOp47
 70
     1
102
RTVSPost2010Prop48
 90
       50
102
RTVSPost2010PropOp48
 70
     1
102
RTVSPost2010Prop49
280
     0
102
RTVSPost2010PropOp49
 70
     1
102
RTVSPost2010Prop50
 90
       50
102
RTVSPost2010PropOp50
 70
     1
102
RTVSPost2010Prop51ColorIndex
 90
      256
102
RTVSPost2010Prop51ColorRGB
 90
-16777216
102
RTVSPost2010PropOp51
 70
     0
102
RTVSPost2010Prop52
140
1.0
102
RTVSPost2010PropOp52
 70
     0
102
RTVSPost2010Prop53
 90
        2
102
RTVSPost2010PropOp53
 70
     1
102
RTVSPost2010Prop54
  1
strokes_ogs.tif
102
RTVSPost2010PropOp54
 70
     1
102
RTVSPost2010Prop55
280
     0
102
RTVSPost2010PropOp55
 70
     1
102
RTVSPost2010Prop56
140
1.0
102
RTVSPost2010PropOp56
 70
     1
102
RTVSPost2010Prop57
140
1.0
102
RTVSPost2010PropOp57
 70
     1
102
RTVSPropertyOp0
 70
     1
102
RTVSPropertyOp1
 70
     1
102
RTVSPropertyOp2
 70
     1
102
RTVSPropertyOp3
 70
     1
102
RTVSPropertyOp4
 70
     1
102
RTVSPropertyOp5
 70
     1
102
RTVSPropertyOp6
 70
     1
102
RTVSPropertyOp7
 70
     1
102
RTVSPropertyOp8
 70
     1
102
RTVSPropertyOp9
 70
     1
102
RTVSPropertyOp10
 70
     1
102
RTVSPropertyOp11
 70
     1
102
RTVSPropertyOp12
 70
     1
102
RTVSPropertyOp13
 70
     1
102
RTVSPropertyOp14
 70
     1
102
RTVSPropertyOp15
 70
     1
102
RTVSPropertyOp16
 70
     1
102
RTVSPropertyOp17
 70
     1
102
RTVSPropertyOp18
 70
     1
102
RTVSPropertyOp19
 70
     1
102
RTVSPropertyOp20
 70
     1
102
RTVSPropertyOp21
 70
     1
102
RTVSPropertyOp22
 70
     1
102
RTVSPropertyOp23
 70
     1
102
RTVSPropertyOp24
 70
     1
102
RTVSPropertyOp25
 70
     1
102
RTVSPropertyOp26
 70
     1
102
RTVSPropertyOp27
 70
     1
102
RTVSPropertyOp28
 70
     1
102
RTVSPropertyOp29
 70
     1
102
RTVSPropertyOp30
 70
     1
102
RTVSPropertyOp31
 70
     1
102
RTVSPropertyOp32
 70
     1
102
RTVSPropertyOp33
 70
     1
102
RTVSPropertyOp34
 70
     1
102
RTVSPropertyOp35
 70
     1
102
RTVSPropertyOp36
 70
     1
102
RTVSPropertyOp37
 70
     1
102
RTVSPropertyOp38
 70
     1
102
RTVSPropertyOp39
 70
     1
102
RTVSPropertyOp40
 70
     1
102
RTVSPropertyOp41
 70
     1
102
RTVSPropertyOp42
 70
     1
102
RTVSPropertyOp43
 70
     1
102
RTVSPropertyOp44
 70
     1
102
RTVSPropertyOp45
 70
     1
102
RTVSPropertyOp46
 70
     1
102
RTVSPropertyOp47
 70
     1
102
RTVSPropertyOp48
 70
     1
102
RTVSPropertyOp49
 70
     1
102
RTVSPropertyOp50
 70
     1
102
RTVSPropertyOp51
 70
     0
102
RTVSPropertyOp52
 70
     0
102
RTVSPropertyOp53
 70
     1
102
RTVSPropertyOp54
 70
     1
102
RTVSPropertyOp55
 70
     1
102
RTVSPropertyOp56
 70
     1
102
RTVSPropertyOp57
 70
     1
102
RTVSPropertyOp58
 70
     1
102
RTVSPropertyOp59
 70
     1
102
RTVSPropertyOp60
 70
     1
102
RTVSPropertyOp61
 70
     1
102
RTVSPropertyOp62
 70
     1
  0
XRECORD
  5
10EE
102
{ACAD_REACTORS
330
10ED
102
}
330
10ED
100
AcDbXrecord
280
     1
102
RTVSPost2010Prop28
280
     0
102
RTVSPost2010PropOp28
 70
     1
102
RTVSPost2010Prop29
280
     1
102
RTVSPost2010PropOp29
 70
     1
102
RTVSPost2010Prop30
280
     1
102
RTVSPost2010PropOp30
 70
     1
102
RTVSPost2010Prop31
280
     0
102
RTVSPost2010PropOp31
 70
     1
102
RTVSPost2010Prop32
280
     0
102
RTVSPost2010PropOp32
 70
     1
102
RTVSPost2010Prop33
280
     0
102
RTVSPost2010PropOp33
 70
     1
102
RTVSPost2010Prop34
280
     0
102
RTVSPost2010PropOp34
 70
     1
102
RTVSPost2010Prop35
280
     0
102
RTVSPost2010PropOp35
 70
     1
102
RTVSPost2010Prop36
280
     0
102
RTVSPost2010PropOp36
 70
     1
102
RTVSPost2010Prop37
 90
       50
102
RTVSPost2010PropOp37
 70
     1
102
RTVSPost2010Prop38
140
0.0
102
RTVSPost2010PropOp38
 70
     1
102
RTVSPost2010Prop39
140
1.0
102
RTVSPost2010PropOp39
 70
     1
102
RTVSPost2010Prop40
 90
        0
102
RTVSPost2010PropOp40
 70
     1
102
RTVSPost2010Prop41ColorIndex
 90
       18
102
RTVSPost2010Prop41ColorRGB
 90
        0
102
RTVSPost2010PropOp41
 70
     1
102
RTVSPost2010Prop42
 90
       50
102
RTVSPost2010PropOp42
 70
     1
102
RTVSPost2010Prop43
 90
        3
102
RTVSPost2010PropOp43
 70
     1
102
RTVSPost2010Prop44ColorIndex
 90
        5
102
RTVSPost2010Prop44ColorRGB
 90
      255
102
RTVSPost2010PropOp44
 70
     1
102
RTVSPost2010Prop45
280
     0
102
RTVSPost2010PropOp45
 70
     1
102
RTVSPost2010Prop46
 90
       50
102
RTVSPost2010PropOp46
 70
     1
102
RTVSPost2010Prop47
 90
       50
102
RTVSPost2010PropOp47
 70
     1
102
RTVSPost2010Prop48
 90
       50
102
RTVSPost2010PropOp48
 70
     1
102
RTVSPost2010Prop49
280
     0
102
RTVSPost2010PropOp49
 70
     1
102
RTVSPost2010Prop50
 90
       50
102
RTVSPost2010PropOp50
 70
     1
102
RTVSPost2010Prop51ColorIndex
 90
      256
102
RTVSPost2010Prop51ColorRGB
 90
-16777216
102
RTVSPost2010PropOp51
 70
     0
102
RTVSPost2010Prop52
140
1.0
102
RTVSPost2010PropOp52
 70
     0
102
RTVSPost2010Prop53
 90
        2
102
RTVSPost2010PropOp53
 70
     1
102
RTVSPost2010Prop54
  1
strokes_ogs.tif
102
RTVSPost2010PropOp54
 70
     1
102
RTVSPost2010Prop55
280
     0
102
RTVSPost2010PropOp55
 70
     1
102
RTVSPost2010Prop56
140
1.0
102
RTVSPost2010PropOp56
 70
     1
102
RTVSPost2010Prop57
140
1.0
102
RTVSPost2010PropOp57
 70
     1
102
RTVSPropertyOp0
 70
     1
102
RTVSPropertyOp1
 70
     1
102
RTVSPropertyOp2
 70
     1
102
RTVSPropertyOp3
 70
     1
102
RTVSPropertyOp4
 70
     1
102
RTVSPropertyOp5
 70
     1
102
RTVSPropertyOp6
 70
     1
102
RTVSPropertyOp7
 70
     1
102
RTVSPropertyOp8
 70
     1
102
RTVSPropertyOp9
 70
     1
102
RTVSPropertyOp10
 70
     1
102
RTVSPropertyOp11
 70
     1
102
RTVSPropertyOp12
 70
     1
102
RTVSPropertyOp13
 70
     1
102
RTVSPropertyOp14
 70
     1
102
RTVSPropertyOp15
 70
     1
102
RTVSPropertyOp16
 70
     1
102
RTVSPropertyOp17
 70
     1
102
RTVSPropertyOp18
 70
     1
102
RTVSPropertyOp19
 70
     1
102
RTVSPropertyOp20
 70
     1
102
RTVSPropertyOp21
 70
     1
102
RTVSPropertyOp22
 70
     1
102
RTVSPropertyOp23
 70
     1
102
RTVSPropertyOp24
 70
     1
102
RTVSPropertyOp25
 70
     1
102
RTVSPropertyOp26
 70
     1
102
RTVSPropertyOp27
 70
     1
102
RTVSPropertyOp28
 70
     1
102
RTVSPropertyOp29
 70
     1
102
RTVSPropertyOp30
 70
     1
102
RTVSPropertyOp31
 70
     1
102
RTVSPropertyOp32
 70
     1
102
RTVSPropertyOp33
 70
     1
102
RTVSPropertyOp34
 70
     1
102
RTVSPropertyOp35
 70
     1
102
RTVSPropertyOp36
 70
     1
102
RTVSPropertyOp37
 70
     1
102
RTVSPropertyOp38
 70
     1
102
RTVSPropertyOp39
 70
     1
102
RTVSPropertyOp40
 70
     1
102
RTVSPropertyOp41
 70
     1
102
RTVSPropertyOp42
 70
     1
102
RTVSPropertyOp43
 70
     1
102
RTVSPropertyOp44
 70
     1
102
RTVSPropertyOp45
 70
     1
102
RTVSPropertyOp46
 70
     1
102
RTVSPropertyOp47
 70
     1
102
RTVSPropertyOp48
 70
     1
102
RTVSPropertyOp49
 70
     1
102
RTVSPropertyOp50
 70
     1
102
RTVSPropertyOp51
 70
     0
102
RTVSPropertyOp52
 70
     0
102
RTVSPropertyOp53
 70
     1
102
RTVSPropertyOp54
 70
     1
102
RTVSPropertyOp55
 70
     1
102
RTVSPropertyOp56
 70
     1
102
RTVSPropertyOp57
 70
     1
102
RTVSPropertyOp58
 70
     1
102
RTVSPropertyOp59
 70
     1
102
RTVSPropertyOp60
 70
     1
102
RTVSPropertyOp61
 70
     1
102
RTVSPropertyOp62
 70
     1
  0
XRECORD
  5
10E2
102
{ACAD_REACTORS
330
10E1
102
}
330
10E1
100
AcDbXrecord
280
     1
102
RTVSPost2010Prop28
280
     0
102
RTVSPost2010PropOp28
 70
     1
102
RTVSPost2010Prop29
280
     1
102
RTVSPost2010PropOp29
 70
     1
102
RTVSPost2010Prop30
280
     1
102
RTVSPost2010PropOp30
 70
     1
102
RTVSPost2010Prop31
280
     0
102
RTVSPost2010PropOp31
 70
     1
102
RTVSPost2010Prop32
280
     0
102
RTVSPost2010PropOp32
 70
     1
102
RTVSPost2010Prop33
280
     0
102
RTVSPost2010PropOp33
 70
     1
102
RTVSPost2010Prop34
280
     0
102
RTVSPost2010PropOp34
 70
     1
102
RTVSPost2010Prop35
280
     0
102
RTVSPost2010PropOp35
 70
     1
102
RTVSPost2010Prop36
280
     0
102
RTVSPost2010PropOp36
 70
     1
102
RTVSPost2010Prop37
 90
       50
102
RTVSPost2010PropOp37
 70
     1
102
RTVSPost2010Prop38
140
0.0
102
RTVSPost2010PropOp38
 70
     1
102
RTVSPost2010Prop39
140
1.0
102
RTVSPost2010PropOp39
 70
     1
102
RTVSPost2010Prop40
 90
        0
102
RTVSPost2010PropOp40
 70
     1
102
RTVSPost2010Prop41ColorIndex
 90
       18
102
RTVSPost2010Prop41ColorRGB
 90
        0
102
RTVSPost2010PropOp41
 70
     1
102
RTVSPost2010Prop42
 90
       50
102
RTVSPost2010PropOp42
 70
     1
102
RTVSPost2010Prop43
 90
        3
102
RTVSPost2010PropOp43
 70
     1
102
RTVSPost2010Prop44ColorIndex
 90
        5
102
RTVSPost2010Prop44ColorRGB
 90
      255
102
RTVSPost2010PropOp44
 70
     1
102
RTVSPost2010Prop45
280
     0
102
RTVSPost2010PropOp45
 70
     1
102
RTVSPost2010Prop46
 90
       50
102
RTVSPost2010PropOp46
 70
     1
102
RTVSPost2010Prop47
 90
       50
102
RTVSPost2010PropOp47
 70
     1
102
RTVSPost2010Prop48
 90
       50
102
RTVSPost2010PropOp48
 70
     1
102
RTVSPost2010Prop49
280
     0
102
RTVSPost2010PropOp49
 70
     1
102
RTVSPost2010Prop50
 90
       50
102
RTVSPost2010PropOp50
 70
     1
102
RTVSPost2010Prop51ColorIndex
 90
      256
102
RTVSPost2010Prop51ColorRGB
 90
-16777216
102
RTVSPost2010PropOp51
 70
     0
102
RTVSPost2010Prop52
140
1.0
102
RTVSPost2010PropOp52
 70
     0
102
RTVSPost2010Prop53
 90
        2
102
RTVSPost2010PropOp53
 70
     1
102
RTVSPost2010Prop54
  1
strokes_ogs.tif
102
RTVSPost2010PropOp54
 70
     1
102
RTVSPost2010Prop55
280
     0
102
RTVSPost2010PropOp55
 70
     1
102
RTVSPost2010Prop56
140
1.0
102
RTVSPost2010PropOp56
 70
     1
102
RTVSPost2010Prop57
140
1.0
102
RTVSPost2010PropOp57
 70
     1
102
RTVSPropertyOp0
 70
     1
102
RTVSPropertyOp1
 70
     1
102
RTVSPropertyOp2
 70
     1
102
RTVSPropertyOp3
 70
     1
102
RTVSPropertyOp4
 70
     1
102
RTVSPropertyOp5
 70
     1
102
RTVSPropertyOp6
 70
     1
102
RTVSPropertyOp7
 70
     1
102
RTVSPropertyOp8
 70
     1
102
RTVSPropertyOp9
 70
     1
102
RTVSPropertyOp10
 70
     1
102
RTVSPropertyOp11
 70
     1
102
RTVSPropertyOp12
 70
     1
102
RTVSPropertyOp13
 70
     1
102
RTVSPropertyOp14
 70
     1
102
RTVSPropertyOp15
 70
     1
102
RTVSPropertyOp16
 70
     1
102
RTVSPropertyOp17
 70
     1
102
RTVSPropertyOp18
 70
     1
102
RTVSPropertyOp19
 70
     1
102
RTVSPropertyOp20
 70
     1
102
RTVSPropertyOp21
 70
     1
102
RTVSPropertyOp22
 70
     1
102
RTVSPropertyOp23
 70
     1
102
RTVSPropertyOp24
 70
     1
102
RTVSPropertyOp25
 70
     1
102
RTVSPropertyOp26
 70
     1
102
RTVSPropertyOp27
 70
     1
102
RTVSPropertyOp28
 70
     1
102
RTVSPropertyOp29
 70
     1
102
RTVSPropertyOp30
 70
     1
102
RTVSPropertyOp31
 70
     1
102
RTVSPropertyOp32
 70
     1
102
RTVSPropertyOp33
 70
     1
102
RTVSPropertyOp34
 70
     1
102
RTVSPropertyOp35
 70
     1
102
RTVSPropertyOp36
 70
     1
102
RTVSPropertyOp37
 70
     1
102
RTVSPropertyOp38
 70
     1
102
RTVSPropertyOp39
 70
     1
102
RTVSPropertyOp40
 70
     1
102
RTVSPropertyOp41
 70
     1
102
RTVSPropertyOp42
 70
     1
102
RTVSPropertyOp43
 70
     1
102
RTVSPropertyOp44
 70
     1
102
RTVSPropertyOp45
 70
     1
102
RTVSPropertyOp46
 70
     1
102
RTVSPropertyOp47
 70
     1
102
RTVSPropertyOp48
 70
     1
102
RTVSPropertyOp49
 70
     1
102
RTVSPropertyOp50
 70
     1
102
RTVSPropertyOp51
 70
     0
102
RTVSPropertyOp52
 70
     0
102
RTVSPropertyOp53
 70
     1
102
RTVSPropertyOp54
 70
     1
102
RTVSPropertyOp55
 70
     1
102
RTVSPropertyOp56
 70
     1
102
RTVSPropertyOp57
 70
     1
102
RTVSPropertyOp58
 70
     1
102
RTVSPropertyOp59
 70
     1
102
RTVSPropertyOp60
 70
     1
102
RTVSPropertyOp61
 70
     1
102
RTVSPropertyOp62
 70
     1
  0
XRECORD
  5
10FA
102
{ACAD_REACTORS
330
10F9
102
}
330
10F9
100
AcDbXrecord
280
     1
102
RTVSPost2010Prop28
280
     0
102
RTVSPost2010PropOp28
 70
     1
102
RTVSPost2010Prop29
280
     1
102
RTVSPost2010PropOp29
 70
     1
102
RTVSPost2010Prop30
280
     1
102
RTVSPost2010PropOp30
 70
     1
102
RTVSPost2010Prop31
280
     0
102
RTVSPost2010PropOp31
 70
     1
102
RTVSPost2010Prop32
280
     0
102
RTVSPost2010PropOp32
 70
     1
102
RTVSPost2010Prop33
280
     0
102
RTVSPost2010PropOp33
 70
     1
102
RTVSPost2010Prop34
280
     0
102
RTVSPost2010PropOp34
 70
     1
102
RTVSPost2010Prop35
280
     0
102
RTVSPost2010PropOp35
 70
     1
102
RTVSPost2010Prop36
280
     0
102
RTVSPost2010PropOp36
 70
     1
102
RTVSPost2010Prop37
 90
       50
102
RTVSPost2010PropOp37
 70
     1
102
RTVSPost2010Prop38
140
0.0
102
RTVSPost2010PropOp38
 70
     1
102
RTVSPost2010Prop39
140
1.0
102
RTVSPost2010PropOp39
 70
     1
102
RTVSPost2010Prop40
 90
        0
102
RTVSPost2010PropOp40
 70
     1
102
RTVSPost2010Prop41ColorIndex
 90
       18
102
RTVSPost2010Prop41ColorRGB
 90
        0
102
RTVSPost2010PropOp41
 70
     1
102
RTVSPost2010Prop42
 90
       50
102
RTVSPost2010PropOp42
 70
     1
102
RTVSPost2010Prop43
 90
        3
102
RTVSPost2010PropOp43
 70
     1
102
RTVSPost2010Prop44ColorIndex
 90
        5
102
RTVSPost2010Prop44ColorRGB
 90
      255
102
RTVSPost2010PropOp44
 70
     1
102
RTVSPost2010Prop45
280
     0
102
RTVSPost2010PropOp45
 70
     1
102
RTVSPost2010Prop46
 90
       50
102
RTVSPost2010PropOp46
 70
     1
102
RTVSPost2010Prop47
 90
       50
102
RTVSPost2010PropOp47
 70
     1
102
RTVSPost2010Prop48
 90
       50
102
RTVSPost2010PropOp48
 70
     1
102
RTVSPost2010Prop49
280
     0
102
RTVSPost2010PropOp49
 70
     1
102
RTVSPost2010Prop50
 90
       50
102
RTVSPost2010PropOp50
 70
     1
102
RTVSPost2010Prop51ColorIndex
 90
      256
102
RTVSPost2010Prop51ColorRGB
 90
-16777216
102
RTVSPost2010PropOp51
 70
     0
102
RTVSPost2010Prop52
140
1.0
102
RTVSPost2010PropOp52
 70
     0
102
RTVSPost2010Prop53
 90
        2
102
RTVSPost2010PropOp53
 70
     1
102
RTVSPost2010Prop54
  1
strokes_ogs.tif
102
RTVSPost2010PropOp54
 70
     1
102
RTVSPost2010Prop55
280
     0
102
RTVSPost2010PropOp55
 70
     1
102
RTVSPost2010Prop56
140
1.0
102
RTVSPost2010PropOp56
 70
     1
102
RTVSPost2010Prop57
140
1.0
102
RTVSPost2010PropOp57
 70
     1
102
RTVSPropertyOp0
 70
     1
102
RTVSPropertyOp1
 70
     1
102
RTVSPropertyOp2
 70
     1
102
RTVSPropertyOp3
 70
     1
102
RTVSPropertyOp4
 70
     1
102
RTVSPropertyOp5
 70
     1
102
RTVSPropertyOp6
 70
     1
102
RTVSPropertyOp7
 70
     1
102
RTVSPropertyOp8
 70
     1
102
RTVSPropertyOp9
 70
     1
102
RTVSPropertyOp10
 70
     1
102
RTVSPropertyOp11
 70
     1
102
RTVSPropertyOp12
 70
     1
102
RTVSPropertyOp13
 70
     1
102
RTVSPropertyOp14
 70
     1
102
RTVSPropertyOp15
 70
     1
102
RTVSPropertyOp16
 70
     1
102
RTVSPropertyOp17
 70
     1
102
RTVSPropertyOp18
 70
     1
102
RTVSPropertyOp19
 70
     1
102
RTVSPropertyOp20
 70
     1
102
RTVSPropertyOp21
 70
     1
102
RTVSPropertyOp22
 70
     1
102
RTVSPropertyOp23
 70
     1
102
RTVSPropertyOp24
 70
     1
102
RTVSPropertyOp25
 70
     1
102
RTVSPropertyOp26
 70
     1
102
RTVSPropertyOp27
 70
     1
102
RTVSPropertyOp28
 70
     1
102
RTVSPropertyOp29
 70
     1
102
RTVSPropertyOp30
 70
     1
102
RTVSPropertyOp31
 70
     1
102
RTVSPropertyOp32
 70
     1
102
RTVSPropertyOp33
 70
     1
102
RTVSPropertyOp34
 70
     1
102
RTVSPropertyOp35
 70
     1
102
RTVSPropertyOp36
 70
     1
102
RTVSPropertyOp37
 70
     1
102
RTVSPropertyOp38
 70
     1
102
RTVSPropertyOp39
 70
     1
102
RTVSPropertyOp40
 70
     1
102
RTVSPropertyOp41
 70
     1
102
RTVSPropertyOp42
 70
     1
102
RTVSPropertyOp43
 70
     1
102
RTVSPropertyOp44
 70
     1
102
RTVSPropertyOp45
 70
     1
102
RTVSPropertyOp46
 70
     1
102
RTVSPropertyOp47
 70
     1
102
RTVSPropertyOp48
 70
     1
102
RTVSPropertyOp49
 70
     1
102
RTVSPropertyOp50
 70
     1
102
RTVSPropertyOp51
 70
     0
102
RTVSPropertyOp52
 70
     0
102
RTVSPropertyOp53
 70
     1
102
RTVSPropertyOp54
 70
     1
102
RTVSPropertyOp55
 70
     1
102
RTVSPropertyOp56
 70
     1
102
RTVSPropertyOp57
 70
     1
102
RTVSPropertyOp58
 70
     1
102
RTVSPropertyOp59
 70
     1
102
RTVSPropertyOp60
 70
     1
102
RTVSPropertyOp61
 70
     1
102
RTVSPropertyOp62
 70
     1
  0
ENDSEC
  0
EOF
