  0
SECTION
  2
HEADER
  9
$ACADVER
  1
AC1018
  9
$ACADMAINTVER
 70
   104
  9
$DWGCODEPAGE
  3
ANSI_1252
  9
$LASTSAVEDBY
  1
TITADI
  9
$INSBASE
 10
0.0
 20
0.0
 30
0.0
  9
$EXTMIN
 10
-54.74262826650238
 20
-4.012755153249827
 30
-0.0000000000000058
  9
$EXTMAX
 10
62.11276352348818
 20
94.14398274168366
 30
0.0000000000000104
  9
$LIMMIN
 10
-170.0
 20
-170.0
  9
$LIMMAX
 10
519.0
 20
260.0
  9
$ORTHOMODE
 70
     0
  9
$REGENMODE
 70
     1
  9
$FILLMODE
 70
     1
  9
$QTEXTMODE
 70
     0
  9
$MIRRTEXT
 70
     0
  9
$LTSCALE
 40
1.0
  9
$ATTMODE
 70
     1
  9
$TEXTSIZE
 40
3.5
  9
$TRACEWID
 40
1.0
  9
$TEXTSTYLE
  7
SIMPLEX
  9
$CLAYER
  8
1
  9
$CELTYPE
  6
BYLAYER
  9
$CECOLOR
 62
   256
  9
$CELTSCALE
 40
1.0
  9
$DISPSILH
 70
     0
  9
$DIMSCALE
 40
1.0
  9
$DIMASZ
 40
2.5
  9
$DIMEXO
 40
0.0
  9
$DIMDLI
 40
3.75
  9
$DIMRND
 40
0.0
  9
$DIMDLE
 40
0.0
  9
$DIMEXE
 40
1.25
  9
$DIMTP
 40
0.0
  9
$DIMTM
 40
0.0
  9
$DIMTXT
 40
3.5
  9
$DIMCEN
 40
0.0
  9
$DIMTSZ
 40
0.0
  9
$DIMTOL
 70
     0
  9
$DIMLIM
 70
     0
  9
$DIMTIH
 70
     0
  9
$DIMTOH
 70
     0
  9
$DIMSE1
 70
     0
  9
$DIMSE2
 70
     0
  9
$DIMTAD
 70
     1
  9
$DIMZIN
 70
     8
  9
$DIMBLK
  1

  9
$DIMASO
 70
     1
  9
$DIMSHO
 70
     1
  9
$DIMPOST
  1

  9
$DIMAPOST
  1

  9
$DIMALT
 70
     0
  9
$DIMALTD
 70
     3
  9
$DIMALTF
 40
0.039370078
  9
$DIMLFAC
 40
1.0
  9
$DIMTOFL
 70
     0
  9
$DIMTVP
 40
0.0
  9
$DIMTIX
 70
     0
  9
$DIMSOXD
 70
     0
  9
$DIMSAH
 70
     0
  9
$DIMBLK1
  1

  9
$DIMBLK2
  1

  9
$DIMSTYLE
  2
STANDARD
  9
$DIMCLRD
 70
     0
  9
$DIMCLRE
 70
     0
  9
$DIMCLRT
 70
     0
  9
$DIMTFAC
 40
1.0
  9
$DIMGAP
 40
0.625
  9
$DIMJUST
 70
     0
  9
$DIMSD1
 70
     0
  9
$DIMSD2
 70
     0
  9
$DIMTOLJ
 70
     0
  9
$DIMTZIN
 70
     8
  9
$DIMALTZ
 70
     0
  9
$DIMALTTZ
 70
     0
  9
$DIMUPT
 70
     0
  9
$DIMDEC
 70
     2
  9
$DIMTDEC
 70
     2
  9
$DIMALTU
 70
     2
  9
$DIMALTTD
 70
     3
  9
$DIMTXSTY
  7
SIMPLEX
  9
$DIMAUNIT
 70
     0
  9
$DIMADEC
 70
     2
  9
$DIMALTRND
 40
0.0
  9
$DIMAZIN
 70
     2
  9
$DIMDSEP
 70
    46
  9
$DIMATFIT
 70
     3
  9
$DIMFRAC
 70
     0
  9
$DIMLDRBLK
  1

  9
$DIMLUNIT
 70
     2
  9
$DIMLWD
 70
    -2
  9
$DIMLWE
 70
    -2
  9
$DIMTMOVE
 70
     0
  9
$LUNITS
 70
     2
  9
$LUPREC
 70
     2
  9
$SKETCHINC
 40
1.0
  9
$FILLETRAD
 40
0.0
  9
$AUNITS
 70
     0
  9
$AUPREC
 70
     0
  9
$MENU
  1
c:\tdm21\cad\caduti13\tdm13
  9
$ELEVATION
 40
0.0
  9
$PELEVATION
 40
0.0
  9
$THICKNESS
 40
0.0
  9
$LIMCHECK
 70
     0
  9
$CHAMFERA
 40
0.1
  9
$CHAMFERB
 40
0.1
  9
$CHAMFERC
 40
0.0
  9
$CHAMFERD
 40
0.0
  9
$SKPOLY
 70
     0
  9
$TDCREATE
 40
2454957.593642639
  9
$TDUCREATE
 40
2454957.510309306
  9
$TDUPDATE
 40
2457134.397538218
  9
$TDUUPDATE
 40
2457134.314204884
  9
$TDINDWG
 40
0.1725838657
  9
$TDUSRTIMER
 40
0.1725667245
  9
$USRTIMER
 70
     1
  9
$ANGBASE
 50
0.0
  9
$ANGDIR
 70
     0
  9
$PDMODE
 70
     1
  9
$PDSIZE
 40
0.0
  9
$PLINEWID
 40
0.0
  9
$SPLFRAME
 70
     0
  9
$SPLINETYPE
 70
     6
  9
$SPLINESEGS
 70
     8
  9
$HANDSEED
  5
1063
  9
$SURFTAB1
 70
     6
  9
$SURFTAB2
 70
     6
  9
$SURFTYPE
 70
     6
  9
$SURFU
 70
     6
  9
$SURFV
 70
     6
  9
$UCSBASE
  2

  9
$UCSNAME
  2

  9
$UCSORG
 10
0.0
 20
0.0
 30
0.0
  9
$UCSXDIR
 10
1.0
 20
0.0
 30
0.0
  9
$UCSYDIR
 10
0.0
 20
1.0
 30
0.0
  9
$UCSORTHOREF
  2

  9
$UCSORTHOVIEW
 70
     0
  9
$UCSORGTOP
 10
0.0
 20
0.0
 30
0.0
  9
$UCSORGBOTTOM
 10
0.0
 20
0.0
 30
0.0
  9
$UCSORGLEFT
 10
0.0
 20
0.0
 30
0.0
  9
$UCSORGRIGHT
 10
0.0
 20
0.0
 30
0.0
  9
$UCSORGFRONT
 10
0.0
 20
0.0
 30
0.0
  9
$UCSORGBACK
 10
0.0
 20
0.0
 30
0.0
  9
$PUCSBASE
  2

  9
$PUCSNAME
  2

  9
$PUCSORG
 10
0.0
 20
0.0
 30
0.0
  9
$PUCSXDIR
 10
1.0
 20
0.0
 30
0.0
  9
$PUCSYDIR
 10
0.0
 20
1.0
 30
0.0
  9
$PUCSORTHOREF
  2

  9
$PUCSORTHOVIEW
 70
     0
  9
$PUCSORGTOP
 10
0.0
 20
0.0
 30
0.0
  9
$PUCSORGBOTTOM
 10
0.0
 20
0.0
 30
0.0
  9
$PUCSORGLEFT
 10
0.0
 20
0.0
 30
0.0
  9
$PUCSORGRIGHT
 10
0.0
 20
0.0
 30
0.0
  9
$PUCSORGFRONT
 10
0.0
 20
0.0
 30
0.0
  9
$PUCSORGBACK
 10
0.0
 20
0.0
 30
0.0
  9
$USERI1
 70
     0
  9
$USERI2
 70
     0
  9
$USERI3
 70
     0
  9
$USERI4
 70
     0
  9
$USERI5
 70
     0
  9
$USERR1
 40
0.0
  9
$USERR2
 40
0.0
  9
$USERR3
 40
0.0
  9
$USERR4
 40
0.0
  9
$USERR5
 40
0.0
  9
$WORLDVIEW
 70
     1
  9
$SHADEDGE
 70
     3
  9
$SHADEDIF
 70
    70
  9
$TILEMODE
 70
     1
  9
$MAXACTVP
 70
    64
  9
$PINSBASE
 10
0.0
 20
0.0
 30
0.0
  9
$PLIMCHECK
 70
     0
  9
$PEXTMIN
 10
0.0
 20
0.0
 30
0.0
  9
$PEXTMAX
 10
0.0
 20
0.0
 30
0.0
  9
$PLIMMIN
 10
0.0
 20
0.0
  9
$PLIMMAX
 10
12.0
 20
9.0
  9
$UNITMODE
 70
     0
  9
$VISRETAIN
 70
     0
  9
$PLINEGEN
 70
     0
  9
$PSLTSCALE
 70
     1
  9
$TREEDEPTH
 70
  3020
  9
$CMLSTYLE
  2
STANDARD
  9
$CMLJUST
 70
     0
  9
$CMLSCALE
 40
20.0
  9
$PROXYGRAPHICS
 70
     1
  9
$MEASUREMENT
 70
     1
  9
$CELWEIGHT
370
    -1
  9
$ENDCAPS
280
     0
  9
$JOINSTYLE
280
     0
  9
$LWDISPLAY
290
     0
  9
$INSUNITS
 70
     4
  9
$HYPERLINKBASE
  1

  9
$STYLESHEET
  1
MONOCHROME.CTB
  9
$XEDIT
290
     1
  9
$CEPSNTYPE
380
     0
  9
$PSTYLEMODE
290
     1
  9
$FINGERPRINTGUID
  2
{46B44192-1510-48B1-B61B-CBE2ADA013A7}
  9
$VERSIONGUID
  2
{42A60147-4CF2-4033-BC4D-3B35A5293EC7}
  9
$EXTNAMES
290
     1
  9
$PSVPSCALE
 40
0.0
  9
$OLESTARTUP
290
     0
  9
$SORTENTS
280
   127
  9
$INDEXCTL
280
     0
  9
$HIDETEXT
280
     1
  9
$XCLIPFRAME
290
     0
  9
$HALOGAP
280
     0
  9
$OBSCOLOR
 70
   257
  9
$OBSLTYPE
280
     0
  9
$INTERSECTIONDISPLAY
280
     0
  9
$INTERSECTIONCOLOR
 70
   257
  9
$DIMASSOC
280
     2
  9
$PROJECTNAME
  1

  0
ENDSEC
  0
SECTION
  2
CLASSES
  0
CLASS
  1
ACDBDICTIONARYWDFLT
  2
AcDbDictionaryWithDefault
  3
ObjectDBX Classes
 90
        0
 91
        1
280
     0
281
     0
  0
CLASS
  1
DICTIONARYVAR
  2
AcDbDictionaryVar
  3
ObjectDBX Classes
 90
        0
 91
       16
280
     0
281
     0
  0
CLASS
  1
TABLESTYLE
  2
AcDbTableStyle
  3
ObjectDBX Classes
 90
     4095
 91
        1
280
     0
281
     0
  0
CLASS
  1
SCALE
  2
AcDbScale
  3
ObjectDBX Classes
 90
     1153
 91
       33
280
     0
281
     0
  0
CLASS
  1
MATERIAL
  2
AcDbMaterial
  3
ObjectDBX Classes
 90
     1153
 91
        3
280
     0
281
     0
  0
CLASS
  1
VISUALSTYLE
  2
AcDbVisualStyle
  3
ObjectDBX Classes
 90
     4095
 91
       24
280
     0
281
     0
  0
CLASS
  1
MLEADERSTYLE
  2
AcDbMLeaderStyle
  3
ACDB_MLEADERSTYLE_CLASS
 90
     4095
 91
        1
280
     0
281
     0
  0
CLASS
  1
ACDBSECTIONVIEWSTYLE
  2
AcDbSectionViewStyle
  3
ObjectDBX Classes
 90
     1025
 91
        1
280
     0
281
     0
  0
CLASS
  1
ACDBDETAILVIEWSTYLE
  2
AcDbDetailViewStyle
  3
ObjectDBX Classes
 90
     1025
 91
        1
280
     0
281
     0
  0
CLASS
  1
EXACXREFPANELOBJECT
  2
ExAcXREFPanelObject
  3
EXAC_ESW
 90
     1025
 91
        0
280
     0
281
     0
  0
CLASS
  1
NPOCOLLECTION
  2
AcDbImpNonPersistentObjectsCollection
  3
ObjectDBX Classes
 90
     1153
 91
        0
280
     0
281
     0
  0
CLASS
  1
CELLSTYLEMAP
  2
AcDbCellStyleMap
  3
ObjectDBX Classes
 90
     1152
 91
        2
280
     0
281
     0
  0
CLASS
  1
AMGSETTINGSOBJ
  2
AmgSettingsObj
  3
"AcadM|Product Description: AutoCAD Mechanical|Company: Autodesk, Inc."
 90
     1024
 91
        0
280
     0
281
     0
  0
CLASS
  1
ACME_DOCUMENT
  2
AcMeDbDoc
  3
AcMeServices
 90
     1024
 91
        0
280
     0
281
     0
  0
CLASS
  1
ACMESCOPE
  2
AcMeScope
  3
AcMeServices
 90
     1024
 91
        0
280
     0
281
     0
  0
CLASS
  1
ACMECOMMANDHISTORY
  2
AcMeCommandHistory
  3
AcMeServices
 90
     1024
 91
        0
280
     0
281
     0
  0
CLASS
  1
ACIMSYSVARMAN
  2
AcImSysVarManager
  3
AcMeServices
 90
     1024
 91
        0
280
     0
281
     0
  0
CLASS
  1
ACIMINTSYSVAR
  2
AcImIntSysVar
  3
AcMeServices
 90
     1024
 91
        0
280
     0
281
     0
  0
CLASS
  1
ACMESTATEMGR
  2
AcMeStateMgr
  3
AcMeServices
 90
     1024
 91
        0
280
     0
281
     0
  0
CLASS
  1
ACDBENTITYCACHE
  2
AcMeEntityCache
  3
AcMeServices
 90
     1024
 91
        0
280
     0
281
     0
  0
CLASS
  1
ACGREFMASTER
  2
AcGrefMaster
  3
AcAttribServices
 90
     1024
 91
        0
280
     0
281
     0
  0
CLASS
  1
ACME_DATABASE
  2
AcMeDbDatabase
  3
AcMeServices
 90
     1024
 91
        0
280
     0
281
     0
  0
CLASS
  1
ACRFINSADJUSTERMGR
  2
AcRfInsAdjusterMgr
  3
AcMeServices
 90
     1024
 91
        0
280
     0
281
     0
  0
CLASS
  1
ACGREFACADMASTER
  2
AcGrefacadMaster
  3
AcGrefServices
 90
     1024
 91
        0
280
     0
281
     0
  0
CLASS
  1
AMDTMENUSTATEMGR
  2
AmdtMenuStateMgr
  3
McadcomServices
 90
     1024
 91
        0
280
     0
281
     0
  0
CLASS
  1
AMDTMCOMMENUSTATE
  2
AmdtMcomMenuState
  3
McadcomServices
 90
     1024
 91
        0
280
     0
281
     0
  0
CLASS
  1
AMIMASTER
  2
AmiMaster
  3
AmiServices
 90
     1024
 91
        0
280
     0
281
     0
  0
CLASS
  1
MAPIAMMOUDLE
  2
MApiAmModule
  3
MApiAmServices
 90
     1024
 91
        0
280
     0
281
     0
  0
CLASS
  1
ACIMSTRSYSVAR
  2
AcImStrSysVar
  3
AcMeServices
 90
     1024
 91
        0
280
     0
281
     0
  0
CLASS
  1
AMDTAMMENUSTATE
  2
AmdtAmMenuState
  3
DesignerAssemblies
 90
     1024
 91
        0
280
     0
281
     0
  0
CLASS
  1
ACAMPROJECT
  2
AcAmProject
  3
DesignerAssemblies
 90
     1024
 91
        0
280
     0
281
     0
  0
CLASS
  1
ACAMGRCOMPDEF
  2
AcAmGrCompDef
  3
DesignerAssemblies
 90
     1024
 91
        0
280
     0
281
     0
  0
CLASS
  1
ACAMCOMPDEF
  2
AcAmCompDef
  3
DesignerAssemblies
 90
     1024
 91
        0
280
     0
281
     0
  0
CLASS
  1
ACAMCOMPDEFMGR
  2
AcAmCompDefMgr
  3
DesignerAssemblies
 90
     1024
 91
        0
280
     0
281
     0
  0
CLASS
  1
AMCONTEXTMGR
  2
AcAmContextMgr
  3
DesignerAssemblies
 90
     1024
 91
        0
280
     0
281
     0
  0
CLASS
  1
ACAMCONTEXTMODELER
  2
AcAmContextModeler
  3
DesignerAssemblies
 90
     1024
 91
        0
280
     0
281
     0
  0
CLASS
  1
ACMDATADICTIONARY
  2
AcmDataDictionary
  3
"AcmSymBB|Product Description: AutoCAD Mechanical|Company: Autodesk, Inc."
 90
     1024
 91
        0
280
     0
281
     0
  0
CLASS
  1
ACAMGRCOMPDEFSET
  2
AcAmGrCompDefSet
  3
DesignerAssemblies
 90
     1024
 91
        0
280
     0
281
     0
  0
CLASS
  1
AMDTBROWSERDBTAB
  2
AmdtBrowserDbTab
  3
McadcomServices
 90
     1024
 91
        0
280
     0
281
     0
  0
CLASS
  1
CBROWSERAPPOBJECT
  2
CBrowserAppObject
  3
McadcomServices
 90
     1024
 91
        0
280
     0
281
     0
  0
CLASS
  1
DM_PLACEHOLDER
  2
AcDmSelsetPlaceholder
  3
McadcomServices
 90
     1024
 91
        0
280
     0
281
     0
  0
CLASS
  1
ACMSTANDARDISO
  2
AcmStandardISO
  3
"Amdt_StdImp|Product Description: AutoCAD Mechanical|Company: Autodesk, Inc."
 90
     1024
 91
        0
280
     0
281
     0
  0
CLASS
  1
AMDTEDGESTANDARDISO13715
  2
AmdtEdgeStdISO13715
  3
"Amdt_StdImp|Product Description: AutoCAD Mechanical|Company: Autodesk, Inc."
 90
     1024
 91
        0
280
     0
281
     0
  0
CLASS
  1
ACMSURFSTANDARDISO2002
  2
AcmSurfTextStdISO2002
  3
"Amdt_StdImp|Product Description: AutoCAD Mechanical|Company: Autodesk, Inc."
 90
     1024
 91
        0
280
     0
281
     0
  0
CLASS
  1
ACMFCFSTANDARDISO2004
  2
AcmFCFStdISO2004
  3
"Amdt_StdImp|Product Description: AutoCAD Mechanical|Company: Autodesk, Inc."
 90
     1024
 91
        0
280
     0
281
     0
  0
CLASS
  1
ACMWELDSTANDARDISO
  2
AcmWeldingStdISO
  3
"Amdt_StdImp|Product Description: AutoCAD Mechanical|Company: Autodesk, Inc."
 90
     1024
 91
        0
280
     0
281
     0
  0
CLASS
  1
ACMIDSTANDARDISO2004
  2
AcmIdStdISO2004
  3
"Amdt_StdImp|Product Description: AutoCAD Mechanical|Company: Autodesk, Inc."
 90
     1024
 91
        0
280
     0
281
     0
  0
CLASS
  1
ACMDATUMSTANDARDISO
  2
AcmDatumStdISO
  3
"Amdt_StdImp|Product Description: AutoCAD Mechanical|Company: Autodesk, Inc."
 90
     1024
 91
        0
280
     0
281
     0
  0
CLASS
  1
ACMBOMSTANDARDISO
  2
AcmBOMStdISO
  3
"Amdt_StdImp|Product Description: AutoCAD Mechanical|Company: Autodesk, Inc."
 90
     1024
 91
        0
280
     0
281
     0
  0
CLASS
  1
ACMDETAILSTANDARDISO
  2
AmdtDetailSymStdISO
  3
"Amdt_StdImp|Product Description: AutoCAD Mechanical|Company: Autodesk, Inc."
 90
     1024
 91
        0
280
     0
281
     0
  0
CLASS
  1
ACMSECTIONSTANDARDISO2001
  2
AmdtSectionSymStdISO2001
  3
"Amdt_StdImp|Product Description: AutoCAD Mechanical|Company: Autodesk, Inc."
 90
     1024
 91
        0
280
     0
281
     0
  0
CLASS
  1
ACMCENTERLINESTANDARDISO
  2
AmdtCenterLineStdISO
  3
"Amdt_StdImp|Product Description: AutoCAD Mechanical|Company: Autodesk, Inc."
 90
     1024
 91
        0
280
     0
281
     0
  0
CLASS
  1
ACMTHREADLINESTANDARDISO
  2
AmdtThreadLineStdISO
  3
"Amdt_StdImp|Product Description: AutoCAD Mechanical|Company: Autodesk, Inc."
 90
     1024
 91
        0
280
     0
281
     0
  0
CLASS
  1
ACMNOTESTANDARDISO
  2
AmdtNoteStdISO
  3
"Amdt_StdImp|Product Description: AutoCAD Mechanical|Company: Autodesk, Inc."
 90
     1024
 91
        0
280
     0
281
     0
  0
CLASS
  1
ACMTAPERSTANDARDISO
  2
AcmTaperStdISO
  3
"Amdt_StdImp|Product Description: AutoCAD Mechanical|Company: Autodesk, Inc."
 90
     1024
 91
        0
280
     0
281
     0
  0
CLASS
  1
ACMANOOTATIONVIEWSTANDARDISO
  2
AmdtAnViewStdISO
  3
"Amdt_StdImp|Product Description: AutoCAD Mechanical|Company: Autodesk, Inc."
 90
     1024
 91
        0
280
     0
281
     0
  0
CLASS
  1
ACAMGLAYSTD
  2
AcAmgLayStd
  3
"AmgLay|Product Description: AutoCAD Mechanical|Company: Autodesk, Inc."
 90
     1024
 91
        0
280
     0
281
     0
  0
CLASS
  1
ACAMGDIMSTD
  2
AcAmgDimStd
  3
"AmgDim|Product Description: AutoCAD Mechanical|Company: Autodesk, Inc."
 90
     1024
 91
        0
280
     0
281
     0
  0
CLASS
  1
AMGOBJPROPCFG
  2
AmgObjPropCfg
  3
"AmgLay|Product Description: AutoCAD Mechanical|Company: Autodesk, Inc."
 90
     1024
 91
        0
280
     0
281
     0
  0
CLASS
  1
ACAMGHOLECHARTSTDISO
  2
AcAmgHoleChartStdISO
  3
AmgDim|Product Description: AutoCAD Mechanical|Company: Autodesk, Inc.
 90
     1024
 91
        0
280
     0
281
     0
  0
CLASS
  1
ACAMGTITLESTD
  2
AcAmgTitleStd
  3
"AmgTitle|Product Description: AutoCAD Mechanical|Company: Autodesk, Inc."
 90
     1024
 91
        0
280
     0
281
     0
  0
CLASS
  1
ACMSECTIONSTANDARDCUSTOM
  2
AmdtSectionSymStdCustom
  3
"Amdt_StdImp|Product Description: AutoCAD Mechanical|Company: Autodesk, Inc."
 90
     1024
 91
        0
280
     0
281
     0
  0
CLASS
  1
ACMDETAILTANDARDCUSTOM
  2
AmdtDetailSymStdCustom
  3
"Amdt_StdImp|Product Description: AutoCAD Mechanical|Company: Autodesk, Inc."
 90
     1024
 91
        0
280
     0
281
     0
  0
CLASS
  1
FIELD
  2
AcDbField
  3
ObjectDBX Classes
 90
     1152
 91
        0
280
     0
281
     0
  0
CLASS
  1
FIELDLIST
  2
AcDbFieldList
  3
ObjectDBX Classes
 90
     1152
 91
        1
280
     0
281
     0
  0
CLASS
  1
AMDTNOTETEMPLATEDB
  2
AmdtNoteTemplateDB
  3
AcmSymBB|Product Description: AutoCAD Mechanical|Company: Autodesk, Inc.
 90
     1024
 91
        0
280
     0
281
     0
  0
CLASS
  1
CAMSSTRUCTBTNSTATE
  2
StructBtnState
  3
DesignerAssemblies
 90
     1024
 91
        0
280
     0
281
     0
  0
CLASS
  1
ACAMGFILTERDAT
  2
AcAmgFilterDat
  3
"AcadM|Product Description: AutoCAD Mechanical|Company: Autodesk, Inc."
 90
     1024
 91
        0
280
     0
281
     0
  0
CLASS
  1
DIMASSOC
  2
AcDbDimAssoc
  3
"AcDbDimAssoc|Product Desc:     AcDim ARX App For Dimension|Company:          Autodesk, Inc.|WEB Address:      www.autodesk.com"
 90
        0
 91
        0
280
     0
281
     0
  0
CLASS
  1
SORTENTSTABLE
  2
AcDbSortentsTable
  3
ObjectDBX Classes
 90
        0
 91
        1
280
     0
281
     0
  0
ENDSEC
  0
SECTION
  2
TABLES
  0
TABLE
  2
VPORT
  5
8
330
0
100
AcDbSymbolTable
 70
     1
  0
VPORT
  5
39A
330
8
100
AcDbSymbolTableRecord
100
AcDbViewportTableRecord
  2
*Active
 70
     0
 10
0.0
 20
0.0
 11
1.0
 21
1.0
 12
3.685067628492902
 22
45.0656137942169
 13
0.0
 23
0.0
 14
5.0
 24
5.0
 15
5.0
 25
5.0
 16
0.0
 26
0.0
 36
1.0
 17
0.0
 27
0.0
 37
0.0
 40
98.87233987229629
 41
2.329683698296836
 42
50.0
 43
0.0
 44
0.0
 50
0.0
 51
0.0
 71
     0
 72
  2000
 73
     1
 74
     1
 75
     0
 76
     0
 77
     0
 78
     0
281
     0
 65
     0
110
0.0
120
0.0
130
0.0
111
1.0
121
0.0
131
0.0
112
0.0
122
1.0
132
0.0
 79
     0
146
0.0
1001
ACAD_NAV_VCDISPLAY
1070
     3
  0
ENDTAB
  0
TABLE
  2
LTYPE
  5
5
330
0
100
AcDbSymbolTable
 70
     7
  0
LTYPE
  5
12
330
5
100
AcDbSymbolTableRecord
100
AcDbLinetypeTableRecord
  2
BYBLOCK
 70
     0
  3

 72
    65
 73
     0
 40
0.0
  0
LTYPE
  5
13
330
5
100
AcDbSymbolTableRecord
100
AcDbLinetypeTableRecord
  2
BYLAYER
 70
     0
  3

 72
    65
 73
     0
 40
0.0
  0
LTYPE
  5
14
330
5
100
AcDbSymbolTableRecord
100
AcDbLinetypeTableRecord
  2
CONTINUOUS
 70
     0
  3
Solid line
 72
    65
 73
     0
 40
0.0
  0
LTYPE
  5
20
330
5
100
AcDbSymbolTableRecord
100
AcDbLinetypeTableRecord
  2
HIDDEN
 70
     0
  3
Hidden __ __ __ __ __ __ __ __ __ __ __ __ __ _
 72
    65
 73
     2
 40
9.524999999999996
 49
6.349999999999997
 74
     0
 49
-3.174999999999998
 74
     0
  0
LTYPE
  5
351
330
5
100
AcDbSymbolTableRecord
100
AcDbLinetypeTableRecord
  2
CENTER
 70
     0
  3
Dash dot __ . __ . __ . __ . __ . __ . __ . __
 72
    65
 73
     4
 40
25.4
 49
12.7
 74
     0
 49
-6.349999999999997
 74
     0
 49
0.0
 74
     0
 49
-6.349999999999997
 74
     0
  0
LTYPE
  5
601
330
5
100
AcDbSymbolTableRecord
100
AcDbLinetypeTableRecord
  2
PHANTOM2
 70
     0
  3
Phantom (.5x) ___ _ _ ___ _ _ ___ _ _ ___ _ _
 72
    65
 73
     6
 40
31.75
 49
15.875
 74
     0
 49
-3.174999999999998
 74
     0
 49
3.174999999999998
 74
     0
 49
-3.174999999999998
 74
     0
 49
3.174999999999998
 74
     0
 49
-3.174999999999998
 74
     0
  0
LTYPE
  5
64C
330
5
100
AcDbSymbolTableRecord
100
AcDbLinetypeTableRecord
  2
ACISOWELD
 70
     0
  3
_ _ _ _ _
 72
    65
 73
     2
 40
2.0
 49
2.0
 74
     0
 49
-1.0
 74
     0
  0
LTYPE
  5
64D
330
5
100
AcDbSymbolTableRecord
100
AcDbLinetypeTableRecord
  2
ACISOTGL
 70
     0
  3
_ _ _ _ _
 72
    65
 73
     2
 40
3.0
 49
2.0
 74
     0
 49
-1.0
 74
     0
  0
LTYPE
  5
64E
330
5
100
AcDbSymbolTableRecord
100
AcDbLinetypeTableRecord
  2
ACISOTGB
 70
     0
  3
__ . . __ . .
 72
    65
 73
     6
 40
9.0
 49
4.0
 74
     0
 49
-1.0
 74
     0
 49
1.0
 74
     0
 49
-1.0
 74
     0
 49
1.0
 74
     0
 49
-1.0
 74
     0
  0
ENDTAB
  0
TABLE
  2
LAYER
  5
2
102
{ACAD_XDICTIONARY
360
D20
102
}
330
0
100
AcDbSymbolTable
 70
    17
  0
LAYER
  5
F
102
{ACAD_XDICTIONARY
360
58D
102
}
330
2
100
AcDbSymbolTableRecord
100
AcDbLayerTableRecord
  2
0
 70
     0
 62
     7
  6
CONTINUOUS
370
    -3
390
300
  0
LAYER
  5
23
102
{ACAD_XDICTIONARY
360
58F
102
}
330
2
100
AcDbSymbolTableRecord
100
AcDbLayerTableRecord
  2
1
 70
     0
 62
     4
  6
CONTINUOUS
370
    -3
390
300
  0
LAYER
  5
24
102
{ACAD_XDICTIONARY
360
591
102
}
330
2
100
AcDbSymbolTableRecord
100
AcDbLayerTableRecord
  2
SK1
 70
     0
 62
     4
  6
CONTINUOUS
370
    -3
390
300
  0
LAYER
  5
25
102
{ACAD_XDICTIONARY
360
593
102
}
330
2
100
AcDbSymbolTableRecord
100
AcDbLayerTableRecord
  2
2
 70
     0
 62
     7
  6
CONTINUOUS
370
    -3
390
300
  0
LAYER
  5
26
102
{ACAD_XDICTIONARY
360
595
102
}
330
2
100
AcDbSymbolTableRecord
100
AcDbLayerTableRecord
  2
2L
 70
     0
 62
     7
  6
CONTINUOUS
370
    -3
390
300
  0
LAYER
  5
27
102
{ACAD_XDICTIONARY
360
597
102
}
330
2
100
AcDbSymbolTableRecord
100
AcDbLayerTableRecord
  2
SK2
 70
     0
 62
     7
  6
CONTINUOUS
370
    -3
390
300
  0
LAYER
  5
28
102
{ACAD_XDICTIONARY
360
599
102
}
330
2
100
AcDbSymbolTableRecord
100
AcDbLayerTableRecord
  2
3
 70
     0
 62
     1
  6
HIDDEN
370
    -3
390
300
  0
LAYER
  5
29
102
{ACAD_XDICTIONARY
360
59B
102
}
330
2
100
AcDbSymbolTableRecord
100
AcDbLayerTableRecord
  2
SK3
 70
     0
 62
     1
  6
HIDDEN
370
    -3
390
300
  0
LAYER
  5
2A
102
{ACAD_XDICTIONARY
360
59D
102
}
330
2
100
AcDbSymbolTableRecord
100
AcDbLayerTableRecord
  2
4
 70
     0
 62
     2
  6
CENTER
370
    -3
390
300
  0
LAYER
  5
2B
102
{ACAD_XDICTIONARY
360
59F
102
}
330
2
100
AcDbSymbolTableRecord
100
AcDbLayerTableRecord
  2
SK4
 70
     0
 62
     2
  6
CENTER
370
    -3
390
300
  0
LAYER
  5
2C
102
{ACAD_XDICTIONARY
360
5A1
102
}
330
2
100
AcDbSymbolTableRecord
100
AcDbLayerTableRecord
  2
5
 70
     0
 62
    -7
  6
CONTINUOUS
370
    -3
390
300
  0
LAYER
  5
2D
102
{ACAD_XDICTIONARY
360
5A3
102
}
330
2
100
AcDbSymbolTableRecord
100
AcDbLayerTableRecord
  2
6
 70
     0
 62
     5
  6
CONTINUOUS
370
    -3
390
300
  0
LAYER
  5
2E
102
{ACAD_XDICTIONARY
360
5A5
102
}
330
2
100
AcDbSymbolTableRecord
100
AcDbLayerTableRecord
  2
SK6
 70
     0
 62
     5
  6
CONTINUOUS
370
    -3
390
300
  0
LAYER
  5
2F
330
2
100
AcDbSymbolTableRecord
100
AcDbLayerTableRecord
  2
DEFPOINTS
 70
     0
 62
     7
  6
CONTINUOUS
290
     0
370
    -3
390
300
  0
LAYER
  5
375
102
{ACAD_XDICTIONARY
360
5A7
102
}
330
2
100
AcDbSymbolTableRecord
100
AcDbLayerTableRecord
  2
CUT
 70
     0
 62
     1
  6
CONTINUOUS
370
    -3
390
300
  0
LAYER
  5
376
102
{ACAD_XDICTIONARY
360
5A9
102
}
330
2
100
AcDbSymbolTableRecord
100
AcDbLayerTableRecord
  2
NOCUT
 70
     0
 62
     7
  6
CONTINUOUS
370
    -3
390
300
  0
LAYER
  5
684
330
2
100
AcDbSymbolTableRecord
100
AcDbLayerTableRecord
  2
AM_5
 70
     0
 62
    92
  6
CONTINUOUS
370
    25
390
300
1001
AcAecLayerStandard
1000

1000

  0
ENDTAB
  0
TABLE
  2
STYLE
  5
3
330
0
100
AcDbSymbolTable
 70
     6
  0
STYLE
  5
10
330
3
100
AcDbSymbolTableRecord
100
AcDbTextStyleTableRecord
  2
STANDARD
 70
     0
 40
0.0
 41
1.0
 50
0.0
 71
     0
 42
5.0
  3
txt
  4

  0
STYLE
  5
1D
330
3
100
AcDbSymbolTableRecord
100
AcDbTextStyleTableRecord
  2
TXT
 70
     0
 40
8.0
 41
1.0
 50
0.0
 71
     0
 42
8.0
  3
txt
  4

  0
STYLE
  5
1E
330
3
100
AcDbSymbolTableRecord
100
AcDbTextStyleTableRecord
  2
SIMPLEX
 70
     0
 40
0.0
 41
1.0
 50
0.0
 71
     0
 42
3.5
  3
simplex
  4

  0
STYLE
  5
34C
330
3
100
AcDbSymbolTableRecord
100
AcDbTextStyleTableRecord
  2

 70
     1
 40
0.0
 41
1.0
 50
0.0
 71
     0
 42
2.5
  3
ltypeshp.shx
  4

  0
STYLE
  5
64A
330
3
100
AcDbSymbolTableRecord
100
AcDbTextStyleTableRecord
  2
ACISOTS
 70
     0
 40
0.0
 41
1.0
 50
0.0
 71
     0
 42
3.5
  3
isocp.shx
  4

  0
STYLE
  5
64B
330
3
100
AcDbSymbolTableRecord
100
AcDbTextStyleTableRecord
  2
ACISOGDT
 70
     0
 40
0.0
 41
1.0
 50
0.0
 71
     0
 42
3.5
  3
amgdt.shx
  4

  0
ENDTAB
  0
TABLE
  2
VIEW
  5
6
330
0
100
AcDbSymbolTable
 70
     0
  0
ENDTAB
  0
TABLE
  2
UCS
  5
7
330
0
100
AcDbSymbolTable
 70
     0
  0
ENDTAB
  0
TABLE
  2
APPID
  5
9
330
0
100
AcDbSymbolTable
 70
    18
  0
APPID
  5
11
330
9
100
AcDbSymbolTableRecord
100
AcDbRegAppTableRecord
  2
ACAD
 70
     0
  0
APPID
  5
5B1
330
9
100
AcDbSymbolTableRecord
100
AcDbRegAppTableRecord
  2
ACAD_NAV_VCDISPLAY
 70
     0
  0
APPID
  5
5EF
330
9
100
AcDbSymbolTableRecord
100
AcDbRegAppTableRecord
  2
ACAD_MLEADERVER
 70
     0
  0
APPID
  5
5FA
330
9
100
AcDbSymbolTableRecord
100
AcDbRegAppTableRecord
  2
MCAD_NO_VIS
 70
     0
  0
APPID
  5
5FB
330
9
100
AcDbSymbolTableRecord
100
AcDbRegAppTableRecord
  2
ACAD_TEMP_GRAPHIC
 70
     0
  0
APPID
  5
606
330
9
100
AcDbSymbolTableRecord
100
AcDbRegAppTableRecord
  2
ACATTRIBSERVICES
 70
     0
  0
APPID
  5
61E
330
9
100
AcDbSymbolTableRecord
100
AcDbRegAppTableRecord
  2
DESIGNERASSEMBLIES
 70
     0
  0
APPID
  5
639
330
9
100
AcDbSymbolTableRecord
100
AcDbRegAppTableRecord
  2
ACAD_DSTYLE_DIMJAG
 70
     0
  0
APPID
  5
63A
330
9
100
AcDbSymbolTableRecord
100
AcDbRegAppTableRecord
  2
ACAD_DSTYLE_DIMBREAK
 70
     0
  0
APPID
  5
685
330
9
100
AcDbSymbolTableRecord
100
AcDbRegAppTableRecord
  2
AcAecLayerStandard
 70
     0
  0
APPID
  5
6A3
330
9
100
AcDbSymbolTableRecord
100
AcDbRegAppTableRecord
  2
GENIUS_GENDTOL_13
 70
     0
  0
APPID
  5
6A4
330
9
100
AcDbSymbolTableRecord
100
AcDbRegAppTableRecord
  2
ACAD_DSTYLE_DIMINSPECT
 70
     0
  0
APPID
  5
D97
330
9
100
AcDbSymbolTableRecord
100
AcDbRegAppTableRecord
  2
ACAD_DSTYLE_DIMARC_LENGTH_SYMBOL
 70
     0
  0
APPID
  5
D98
330
9
100
AcDbSymbolTableRecord
100
AcDbRegAppTableRecord
  2
ACAD_DSTYLE_DIM_LINETYPE
 70
     0
  0
APPID
  5
D99
330
9
100
AcDbSymbolTableRecord
100
AcDbRegAppTableRecord
  2
ACAD_DSTYLE_DIM_EXT1_LINETYPE
 70
     0
  0
APPID
  5
D9A
330
9
100
AcDbSymbolTableRecord
100
AcDbRegAppTableRecord
  2
ACAD_DSTYLE_DIM_EXT2_LINETYPE
 70
     0
  0
APPID
  5
DA2
330
9
100
AcDbSymbolTableRecord
100
AcDbRegAppTableRecord
  2
ACAD_EXEMPT_FROM_CAD_STANDARDS
 70
     0
  0
APPID
  5
F34
330
9
100
AcDbSymbolTableRecord
100
AcDbRegAppTableRecord
  2
AcadAnnoMonitorAlertIconDisabled
 70
     0
  0
ENDTAB
  0
TABLE
  2
DIMSTYLE
  5
A
330
0
100
AcDbSymbolTable
 70
     9
100
AcDbDimStyleTable
 71
     1
340
3F
  0
DIMSTYLE
105
3F
102
{ACAD_REACTORS
330
506
330
513
330
520
330
52D
330
AFF
330
B00
102
}
330
A
100
AcDbSymbolTableRecord
100
AcDbDimStyleTableRecord
  2
STANDARD
 70
     0
 41
2.5
 42
0.0
 43
3.75
 44
1.25
 73
     0
 74
     0
 77
     1
 78
     8
 79
     2
140
3.5
141
0.0
143
0.039370078
147
0.625
171
     3
179
     2
271
     2
272
     2
274
     3
283
     0
284
     8
340
1E
  0
DIMSTYLE
105
638
330
A
100
AcDbSymbolTableRecord
100
AcDbDimStyleTableRecord
  2
AM_ISO
 70
     0
  4
"
 41
3.5
 42
1.0
 43
10.0
 44
1.0
 47
0.1
 48
0.1
 73
     0
 74
     0
 77
     1
 78
     8
 79
     2
140
3.5
141
0.0
143
0.0393701
146
0.71
147
1.5
172
     1
176
   256
177
   256
178
   140
271
     2
272
     3
274
     4
283
     0
284
     8
340
10
371
    -1
372
    -1
1001
ACAD_DSTYLE_DIMJAG
1070
   388
1040
1.5
1001
ACAD_DSTYLE_DIMBREAK
1070
   391
1040
3.75
1001
ACAD_DSTYLE_DIMARC_LENGTH_SYMBOL
1070
   379
1070
     1
1001
ACAD_DSTYLE_DIM_LINETYPE
1070
   380
1005
12
1001
ACAD_DSTYLE_DIM_EXT1_LINETYPE
1070
   381
1005
12
1001
ACAD_DSTYLE_DIM_EXT2_LINETYPE
1070
   382
1005
12
  0
DIMSTYLE
105
63C
330
A
100
AcDbSymbolTableRecord
100
AcDbDimStyleTableRecord
  2
AM_ISO$3
 70
     0
  4
"
 41
3.5
 42
1.0
 43
10.0
 44
1.0
 47
0.1
 48
0.1
 73
     0
 77
     1
 78
     8
 79
     2
140
3.5
141
0.0
143
0.0393701
146
0.71
147
1.5
176
   256
177
   256
178
   140
271
     2
272
     3
274
     4
283
     0
284
     8
288
     1
289
     0
340
10
371
    -1
372
    -1
1001
ACAD_DSTYLE_DIMBREAK
1070
   391
1040
3.75
1001
ACAD_DSTYLE_DIMJAG
1070
   388
1040
1.5
1001
ACAD_DSTYLE_DIMARC_LENGTH_SYMBOL
1070
   379
1070
     1
1001
ACAD_DSTYLE_DIM_LINETYPE
1070
   380
1005
12
1001
ACAD_DSTYLE_DIM_EXT1_LINETYPE
1070
   381
1005
12
1001
ACAD_DSTYLE_DIM_EXT2_LINETYPE
1070
   382
1005
12
  0
DIMSTYLE
105
63D
330
A
100
AcDbSymbolTableRecord
100
AcDbDimStyleTableRecord
  2
AM_ISO$4
 70
     0
  4
"
 41
3.5
 42
1.0
 43
10.0
 44
1.0
 47
0.1
 48
0.1
 73
     0
 77
     1
 78
     8
 79
     2
140
3.5
141
0.0
143
0.0393701
146
0.71
147
1.5
176
   256
177
   256
178
   140
271
     2
272
     3
274
     4
283
     0
284
     8
288
     1
289
     0
340
10
371
    -1
372
    -1
1001
ACAD_DSTYLE_DIMBREAK
1070
   391
1040
3.75
1001
ACAD_DSTYLE_DIMJAG
1070
   388
1040
1.5
1001
ACAD_DSTYLE_DIMARC_LENGTH_SYMBOL
1070
   379
1070
     1
1001
ACAD_DSTYLE_DIM_LINETYPE
1070
   380
1005
12
1001
ACAD_DSTYLE_DIM_EXT1_LINETYPE
1070
   381
1005
12
1001
ACAD_DSTYLE_DIM_EXT2_LINETYPE
1070
   382
1005
12
  0
DIMSTYLE
105
63E
330
A
100
AcDbSymbolTableRecord
100
AcDbDimStyleTableRecord
  2
AM_ISO$6
 70
     0
  4
"
 41
3.5
 42
1.0
 43
10.0
 44
1.0
 47
0.1
 48
0.1
 73
     0
 74
     0
 78
     8
 79
     2
140
3.5
141
0.0
143
0.0393701
146
0.71
147
1.5
172
     1
176
   256
177
   256
178
   140
271
     2
272
     3
274
     4
283
     0
284
     8
340
10
371
    -1
372
    -1
1001
ACAD_DSTYLE_DIMBREAK
1070
   391
1040
3.75
1001
ACAD_DSTYLE_DIMJAG
1070
   388
1040
1.5
1001
ACAD_DSTYLE_DIMARC_LENGTH_SYMBOL
1070
   379
1070
     1
1001
ACAD_DSTYLE_DIM_LINETYPE
1070
   380
1005
12
1001
ACAD_DSTYLE_DIM_EXT1_LINETYPE
1070
   381
1005
12
1001
ACAD_DSTYLE_DIM_EXT2_LINETYPE
1070
   382
1005
12
  0
DIMSTYLE
105
63F
330
A
100
AcDbSymbolTableRecord
100
AcDbDimStyleTableRecord
  2
AM_ISO$7
 70
     0
  4
"
 41
3.5
 42
1.0
 43
10.0
 44
1.0
 47
0.1
 48
0.1
 73
     0
 74
     0
 77
     1
 78
     8
 79
     2
140
3.5
141
0.0
143
0.0393701
146
0.71
147
1.5
172
     1
176
   256
177
   256
178
   140
271
     2
272
     3
274
     4
283
     0
284
     8
340
10
371
    -1
372
    -1
1001
ACAD_DSTYLE_DIMBREAK
1070
   391
1040
3.75
1001
ACAD_DSTYLE_DIMJAG
1070
   388
1040
1.5
1001
ACAD_DSTYLE_DIMARC_LENGTH_SYMBOL
1070
   379
1070
     1
1001
ACAD_DSTYLE_DIM_LINETYPE
1070
   380
1005
12
1001
ACAD_DSTYLE_DIM_EXT1_LINETYPE
1070
   381
1005
12
1001
ACAD_DSTYLE_DIM_EXT2_LINETYPE
1070
   382
1005
12
  0
DIMSTYLE
105
640
330
A
100
AcDbSymbolTableRecord
100
AcDbDimStyleTableRecord
  2
AM_ISO$SF
 70
     0
  4
"
 41
3.5
 42
1.0
 43
10.0
 44
1.0
 47
0.1
 48
0.1
 73
     0
 74
     0
 75
     1
 76
     1
 77
     1
 78
     8
 79
     2
140
3.5
141
0.0
143
0.0393701
146
0.71
147
1.5
172
     1
176
   256
177
   256
178
   140
271
     2
272
     3
274
     4
283
     0
284
     8
340
10
371
    -1
372
    -1
1001
ACAD_DSTYLE_DIMBREAK
1070
   391
1040
3.75
1001
ACAD_DSTYLE_DIMJAG
1070
   388
1040
1.5
1001
ACAD_DSTYLE_DIMARC_LENGTH_SYMBOL
1070
   379
1070
     1
1001
ACAD_DSTYLE_DIM_LINETYPE
1070
   380
1005
12
1001
ACAD_DSTYLE_DIM_EXT1_LINETYPE
1070
   381
1005
12
1001
ACAD_DSTYLE_DIM_EXT2_LINETYPE
1070
   382
1005
12
  0
DIMSTYLE
105
645
330
A
100
AcDbSymbolTableRecord
100
AcDbDimStyleTableRecord
  2
AM_ISO$SH
 70
     0
  4
"
 41
3.5
 42
1.0
 43
10.0
 44
1.0
 47
0.1
 48
0.1
 73
     0
 74
     0
 75
     1
 76
     1
 77
     1
 78
     8
 79
     2
140
3.5
141
0.0
143
0.0393701
144
2.0
146
0.71
147
1.5
172
     1
173
     1
176
   256
177
   256
178
   140
271
     2
272
     3
274
     4
283
     0
284
     8
340
10
343
641
371
    -1
372
    -1
1001
ACAD_DSTYLE_DIMBREAK
1070
   391
1040
3.75
1001
ACAD_DSTYLE_DIMJAG
1070
   388
1040
1.5
1001
ACAD_DSTYLE_DIMARC_LENGTH_SYMBOL
1070
   379
1070
     1
1001
ACAD_DSTYLE_DIM_LINETYPE
1070
   380
1005
12
1001
ACAD_DSTYLE_DIM_EXT1_LINETYPE
1070
   381
1005
12
1001
ACAD_DSTYLE_DIM_EXT2_LINETYPE
1070
   382
1005
12
  0
DIMSTYLE
105
689
330
A
100
AcDbSymbolTableRecord
100
AcDbDimStyleTableRecord
  2
STANDARD$0
 70
     0
 41
2.5
 42
0.0
 43
3.75
 44
1.25
 73
     0
 74
     0
 77
     1
 78
     8
 79
     2
140
3.5
141
0.0
143
0.039370078
147
0.625
171
     3
179
     2
271
     2
272
     2
274
     3
283
     0
284
     8
340
1E
1001
ACAD_DSTYLE_DIMBREAK
1070
   391
1040
3.75
1001
ACAD_DSTYLE_DIMJAG
1070
   388
1040
1.5
  0
ENDTAB
  0
TABLE
  2
BLOCK_RECORD
  5
1
330
0
100
AcDbSymbolTable
 70
    12
  0
BLOCK_RECORD
  5
18
102
{ACAD_XDICTIONARY
360
B89
102
}
330
1
100
AcDbSymbolTableRecord
100
AcDbBlockTableRecord
  2
*MODEL_SPACE
340
303
  0
BLOCK_RECORD
  5
338
330
1
100
AcDbSymbolTableRecord
100
AcDbBlockTableRecord
  2
*Paper_Space
340
33B
  0
BLOCK_RECORD
  5
507
330
1
100
AcDbSymbolTableRecord
100
AcDbBlockTableRecord
  2
*D0
340
0
  0
BLOCK_RECORD
  5
514
330
1
100
AcDbSymbolTableRecord
100
AcDbBlockTableRecord
  2
*D1
340
0
  0
BLOCK_RECORD
  5
521
330
1
100
AcDbSymbolTableRecord
100
AcDbBlockTableRecord
  2
*D2
340
0
  0
BLOCK_RECORD
  5
52E
330
1
100
AcDbSymbolTableRecord
100
AcDbBlockTableRecord
  2
*D3
340
0
  0
BLOCK_RECORD
  5
641
330
1
100
AcDbSymbolTableRecord
100
AcDbBlockTableRecord
  2
GENAXEH
340
0
  0
BLOCK_RECORD
  5
B01
330
1
100
AcDbSymbolTableRecord
100
AcDbBlockTableRecord
  2
*D5
340
0
  0
BLOCK_RECORD
  5
B0D
330
1
100
AcDbSymbolTableRecord
100
AcDbBlockTableRecord
  2
*D6
340
0
  0
BLOCK_RECORD
  5
E1A
330
1
100
AcDbSymbolTableRecord
100
AcDbBlockTableRecord
  2
*D7
340
0
  0
BLOCK_RECORD
  5
E44
330
1
100
AcDbSymbolTableRecord
100
AcDbBlockTableRecord
  2
*D8
340
0
  0
BLOCK_RECORD
  5
E65
330
1
100
AcDbSymbolTableRecord
100
AcDbBlockTableRecord
  2
*D9
340
0
  0
BLOCK_RECORD
  5
ED1
330
1
100
AcDbSymbolTableRecord
100
AcDbBlockTableRecord
  2
*D10
340
0
  0
BLOCK_RECORD
  5
F4B
330
1
100
AcDbSymbolTableRecord
100
AcDbBlockTableRecord
  2
*D11
340
0
  0
ENDTAB
  0
ENDSEC
  0
SECTION
  2
BLOCKS
  0
BLOCK
  5
32
330
18
100
AcDbEntity
  8
0
100
AcDbBlockBegin
  2
*MODEL_SPACE
 70
     0
 10
0.0
 20
0.0
 30
0.0
  3
*MODEL_SPACE
  1

  0
ENDBLK
  5
33
330
18
100
AcDbEntity
  8
0
100
AcDbBlockEnd
  0
BLOCK
  5
339
330
338
100
AcDbEntity
 67
     1
  8
0
100
AcDbBlockBegin
  2
*Paper_Space
 70
     0
 10
0.0
 20
0.0
 30
0.0
  3
*Paper_Space
  1

  0
ENDBLK
  5
33A
330
338
100
AcDbEntity
 67
     1
  8
0
100
AcDbBlockEnd
  0
BLOCK
  5
511
330
507
100
AcDbEntity
  8
0
100
AcDbBlockBegin
  2
*D0
 70
     1
 10
0.0
 20
0.0
 30
0.0
  3
*D0
  1

  0
LINE
  5
F83
330
507
100
AcDbEntity
  8
2
 62
     0
440
 16777216
370
    -2
100
AcDbLine
 10
0.0
 20
0.0
 30
0.0
 11
0.0000000000000047
 21
76.25
 31
0.0
  0
LINE
  5
F84
330
507
100
AcDbEntity
  8
2
 62
     0
440
 16777216
370
    -2
100
AcDbLine
 10
38.0
 20
0.0000000000000016
 30
0.0
 11
38.00000000000001
 21
76.25
 31
0.0
  0
LINE
  5
F85
330
507
100
AcDbEntity
  8
2
 62
     0
440
 16777216
370
    -2
100
AcDbLine
 10
2.500000000000003
 20
75.0
 30
0.0
 11
35.50000000000001
 21
75.0
 31
0.0
  0
SOLID
  5
F86
330
507
100
AcDbEntity
  8
2
 62
     0
440
 16777216
100
AcDbTrace
 10
2.500000000000003
 20
75.41666666666667
 30
0.0
 11
2.500000000000003
 21
74.58333333333333
 31
0.0
 12
0.0000000000000046
 22
75.0
 32
0.0
 13
0.0000000000000046
 23
75.0
 33
0.0
  0
SOLID
  5
F87
330
507
100
AcDbEntity
  8
2
 62
     0
440
 16777216
100
AcDbTrace
 10
35.50000000000001
 20
75.41666666666667
 30
0.0
 11
35.50000000000001
 21
74.58333333333333
 31
0.0
 12
38.00000000000001
 22
75.0
 32
0.0
 13
38.00000000000001
 23
75.0
 33
0.0
  0
MTEXT
  5
F88
330
507
100
AcDbEntity
  8
2
 62
     0
440
 16777216
100
AcDbMText
 10
19.00000000000001
 20
77.375
 30
0.0
 40
3.5
 41
0.0
 71
     5
 72
     1
  1
38
  7
SIMPLEX
 73
     1
 44
1.0
  0
POINT
  5
F89
330
507
100
AcDbEntity
  8
DEFPOINTS
 62
     0
440
 16777216
100
AcDbPoint
 10
0.0
 20
0.0
 30
0.0
  0
POINT
  5
F8A
330
507
100
AcDbEntity
  8
DEFPOINTS
 62
     0
440
 16777216
100
AcDbPoint
 10
38.0
 20
0.0000000000000016
 30
0.0
  0
POINT
  5
F8B
330
507
100
AcDbEntity
  8
DEFPOINTS
 62
     0
440
 16777216
100
AcDbPoint
 10
38.00000000000001
 20
75.0
 30
0.0
  0
ENDBLK
  5
512
330
507
100
AcDbEntity
  8
0
100
AcDbBlockEnd
  0
BLOCK
  5
51E
330
514
100
AcDbEntity
  8
0
100
AcDbBlockBegin
  2
*D1
 70
     1
 10
0.0
 20
0.0
 30
0.0
  3
*D1
  1

  0
LINE
  5
F95
330
514
100
AcDbEntity
  8
2
 62
     0
440
 16777216
370
    -2
100
AcDbLine
 10
6.0
 20
4.0
 30
0.0
 11
6.000000000000002
 21
61.25
 31
0.0
  0
LINE
  5
F96
330
514
100
AcDbEntity
  8
2
 62
     0
440
 16777216
370
    -2
100
AcDbLine
 10
38.0
 20
3.998879899923818
 30
0.0
 11
38.0
 21
61.25
 31
0.0
  0
LINE
  5
F97
330
514
100
AcDbEntity
  8
2
 62
     0
440
 16777216
370
    -2
100
AcDbLine
 10
8.500000000000001
 20
60.0
 30
0.0
 11
35.5
 21
60.0
 31
0.0
  0
SOLID
  5
F98
330
514
100
AcDbEntity
  8
2
 62
     0
440
 16777216
100
AcDbTrace
 10
8.500000000000001
 20
60.41666666666666
 30
0.0
 11
8.500000000000001
 21
59.58333333333333
 31
0.0
 12
6.000000000000002
 22
60.0
 32
0.0
 13
6.000000000000002
 23
60.0
 33
0.0
  0
SOLID
  5
F99
330
514
100
AcDbEntity
  8
2
 62
     0
440
 16777216
100
AcDbTrace
 10
35.5
 20
60.41666666666666
 30
0.0
 11
35.5
 21
59.58333333333333
 31
0.0
 12
38.0
 22
60.0
 32
0.0
 13
38.0
 23
60.0
 33
0.0
  0
MTEXT
  5
F9A
330
514
100
AcDbEntity
  8
2
 62
     0
440
 16777216
100
AcDbMText
 10
22.0
 20
62.375
 30
0.0
 40
3.5
 41
0.0
 71
     5
 72
     1
  1
32
  7
SIMPLEX
 73
     1
 44
1.0
  0
POINT
  5
F9B
330
514
100
AcDbEntity
  8
DEFPOINTS
 62
     0
440
 16777216
100
AcDbPoint
 10
6.0
 20
4.0
 30
0.0
  0
POINT
  5
F9C
330
514
100
AcDbEntity
  8
DEFPOINTS
 62
     0
440
 16777216
100
AcDbPoint
 10
38.0
 20
3.998879899923818
 30
0.0
  0
POINT
  5
F9D
330
514
100
AcDbEntity
  8
DEFPOINTS
 62
     0
440
 16777216
100
AcDbPoint
 10
38.0
 20
60.0
 30
0.0
  0
ENDBLK
  5
51F
330
514
100
AcDbEntity
  8
0
100
AcDbBlockEnd
  0
BLOCK
  5
52B
330
521
100
AcDbEntity
  8
0
100
AcDbBlockBegin
  2
*D2
 70
     1
 10
0.0
 20
0.0
 30
0.0
  3
*D2
  1

  0
LINE
  5
E3A
330
521
100
AcDbEntity
  8
SK2
 62
     0
440
 16777216
370
    -2
100
AcDbLine
 10
-35.6
 20
4.0
 30
0.0
 11
-51.84999999997447
 21
4.000000000000004
 31
0.0
  0
LINE
  5
E3B
330
521
100
AcDbEntity
  8
SK2
 62
     0
440
 16777216
370
    -2
100
AcDbLine
 10
-35.6
 20
-3.999999992212611
 30
0.0
 11
-51.84999999997447
 21
-3.999999992212606
 31
0.0
  0
LINE
  5
E3C
330
521
100
AcDbEntity
  8
SK2
 62
     0
440
 16777216
370
    -2
100
AcDbLine
 10
-50.59999999997447
 20
1.500000000000004
 30
0.0
 11
-50.59999999997447
 21
-1.499999992212608
 31
0.0
  0
SOLID
  5
E3D
330
521
100
AcDbEntity
  8
SK2
 62
     0
440
 16777216
100
AcDbTrace
 10
-51.01666666664114
 20
1.500000000000004
 30
0.0
 11
-50.1833333333078
 21
1.500000000000004
 31
0.0
 12
-50.59999999997447
 22
4.000000000000004
 32
0.0
 13
-50.59999999997447
 23
4.000000000000004
 33
0.0
  0
SOLID
  5
E3E
330
521
100
AcDbEntity
  8
SK2
 62
     0
440
 16777216
100
AcDbTrace
 10
-51.01666666664114
 20
-1.499999992212608
 30
0.0
 11
-50.1833333333078
 21
-1.499999992212608
 31
0.0
 12
-50.59999999997447
 22
-3.999999992212606
 32
0.0
 13
-50.59999999997447
 23
-3.999999992212606
 33
0.0
  0
MTEXT
  5
E3F
330
521
100
AcDbEntity
  8
SK2
 62
     0
440
 16777216
100
AcDbMText
 10
-52.97499999997448
 20
0.0000000038936905
 30
0.0
 40
3.5
 41
0.0
 71
     5
 72
     1
  1
%%c8
  7
SIMPLEX
 11
0.0000000000000001
 21
1.0
 31
0.0
 73
     1
 44
1.0
  0
POINT
  5
E40
330
521
100
AcDbEntity
  8
DEFPOINTS
 62
     0
440
 16777216
100
AcDbPoint
 10
-35.6
 20
4.0
 30
0.0
  0
POINT
  5
E41
330
521
100
AcDbEntity
  8
DEFPOINTS
 62
     0
440
 16777216
100
AcDbPoint
 10
-35.6
 20
-3.999999992212611
 30
0.0
  0
POINT
  5
E42
330
521
100
AcDbEntity
  8
DEFPOINTS
 62
     0
440
 16777216
100
AcDbPoint
 10
-50.59999999997447
 20
-3.999999992212606
 30
0.0
  0
ENDBLK
  5
52C
330
521
100
AcDbEntity
  8
0
100
AcDbBlockEnd
  0
BLOCK
  5
538
330
52E
100
AcDbEntity
  8
0
100
AcDbBlockBegin
  2
*D3
 70
     1
 10
0.0
 20
0.0
 30
0.0
  3
*D3
  1

  0
LINE
  5
F8C
330
52E
100
AcDbEntity
  8
SK2
 62
     0
440
 16777216
370
    -2
100
AcDbLine
 10
-36.0
 20
0.0000000000000009
 30
0.0
 11
-36.0
 21
91.25
 31
0.0
  0
LINE
  5
F8D
330
52E
100
AcDbEntity
  8
SK2
 62
     0
440
 16777216
370
    -2
100
AcDbLine
 10
38.0
 20
0.0000000000000016
 30
0.0
 11
38.00000000000001
 21
91.25
 31
0.0
  0
LINE
  5
F8E
330
52E
100
AcDbEntity
  8
SK2
 62
     0
440
 16777216
370
    -2
100
AcDbLine
 10
-33.5
 20
90.0
 30
0.0
 11
35.50000000000001
 21
90.0
 31
0.0
  0
SOLID
  5
F8F
330
52E
100
AcDbEntity
  8
SK2
 62
     0
440
 16777216
100
AcDbTrace
 10
-33.5
 20
90.41666666666669
 30
0.0
 11
-33.5
 21
89.58333333333332
 31
0.0
 12
-36.0
 22
90.0
 32
0.0
 13
-36.0
 23
90.0
 33
0.0
  0
SOLID
  5
F90
330
52E
100
AcDbEntity
  8
SK2
 62
     0
440
 16777216
100
AcDbTrace
 10
35.50000000000001
 20
90.41666666666669
 30
0.0
 11
35.50000000000001
 21
89.58333333333332
 31
0.0
 12
38.00000000000001
 22
90.0
 32
0.0
 13
38.00000000000001
 23
90.0
 33
0.0
  0
MTEXT
  5
F91
330
52E
100
AcDbEntity
  8
SK2
 62
     0
440
 16777216
100
AcDbMText
 10
1.000000000000007
 20
92.375
 30
0.0
 40
3.5
 41
0.0
 71
     5
 72
     1
  1
74
  7
SIMPLEX
 73
     1
 44
1.0
  0
POINT
  5
F92
330
52E
100
AcDbEntity
  8
DEFPOINTS
 62
     0
440
 16777216
100
AcDbPoint
 10
-36.0
 20
0.0000000000000009
 30
0.0
  0
POINT
  5
F93
330
52E
100
AcDbEntity
  8
DEFPOINTS
 62
     0
440
 16777216
100
AcDbPoint
 10
38.0
 20
0.0000000000000016
 30
0.0
  0
POINT
  5
F94
330
52E
100
AcDbEntity
  8
DEFPOINTS
 62
     0
440
 16777216
100
AcDbPoint
 10
38.00000000000001
 20
90.0
 30
0.0
  0
ENDBLK
  5
539
330
52E
100
AcDbEntity
  8
0
100
AcDbBlockEnd
  0
BLOCK
  5
643
330
641
100
AcDbEntity
  8
0
100
AcDbBlockBegin
  2
GENAXEH
 70
     0
 10
0.0
 20
0.0
 30
0.0
  3
GENAXEH
  1

  0
LINE
  5
642
330
641
100
AcDbEntity
  8
0
100
AcDbLine
 10
-1.0
 20
0.0
 30
0.0
 11
1.0
 21
0.0
 31
0.0
  0
ENDBLK
  5
644
330
641
100
AcDbEntity
  8
0
100
AcDbBlockEnd
  0
BLOCK
  5
B02
330
B01
100
AcDbEntity
  8
0
100
AcDbBlockBegin
  2
*D5
 70
     1
 10
0.0
 20
0.0
 30
0.0
  3
*D5
  1

  0
LINE
  5
F67
330
B01
100
AcDbEntity
  8
2
 62
     0
440
 16777216
370
    -2
100
AcDbLine
 10
37.92847956699509
 20
3.998879899923818
 30
0.0
 11
47.15054911701805
 21
3.998879899923815
 31
0.0
  0
LINE
  5
F68
330
B01
100
AcDbEntity
  8
2
 62
     0
440
 16777216
370
    -2
100
AcDbLine
 10
37.90008074236846
 20
-3.999302527994053
 30
0.0
 11
47.15054911701805
 21
-3.999302527994055
 31
0.0
  0
LINE
  5
F69
330
B01
100
AcDbEntity
  8
2
 62
     0
440
 16777216
370
    -2
100
AcDbLine
 10
45.90054911701805
 20
1.498879899923814
 30
0.0
 11
45.90054911701805
 21
-1.499302527994053
 31
0.0
  0
SOLID
  5
F6A
330
B01
100
AcDbEntity
  8
2
 62
     0
440
 16777216
100
AcDbTrace
 10
45.4838824503514
 20
1.498879899923814
 30
0.0
 11
46.31721578368472
 21
1.498879899923814
 31
0.0
 12
45.90054911701805
 22
3.998879899923815
 32
0.0
 13
45.90054911701805
 23
3.998879899923815
 33
0.0
  0
SOLID
  5
F6B
330
B01
100
AcDbEntity
  8
2
 62
     0
440
 16777216
100
AcDbTrace
 10
45.4838824503514
 20
-1.499302527994053
 30
0.0
 11
46.31721578368472
 21
-1.499302527994053
 31
0.0
 12
45.90054911701805
 22
-3.999302527994055
 32
0.0
 13
45.90054911701805
 23
-3.999302527994055
 33
0.0
  0
MTEXT
  5
F6C
330
B01
100
AcDbEntity
  8
2
 62
     0
440
 16777216
100
AcDbMText
 10
43.52554911701806
 20
-0.1841540123332092
 30
0.0
 40
3.5
 41
0.0
 71
     5
 72
     1
  1
%%c8
  7
SIMPLEX
 11
0.0000000000000001
 21
1.0
 31
0.0
 73
     1
 44
1.0
  0
POINT
  5
F6D
330
B01
100
AcDbEntity
  8
DEFPOINTS
 62
     0
440
 16777216
100
AcDbPoint
 10
37.92847956699509
 20
3.998879899923818
 30
0.0
  0
POINT
  5
F6E
330
B01
100
AcDbEntity
  8
DEFPOINTS
 62
     0
440
 16777216
100
AcDbPoint
 10
37.90008074236846
 20
-3.999302527994053
 30
0.0
  0
POINT
  5
F6F
330
B01
100
AcDbEntity
  8
DEFPOINTS
 62
     0
440
 16777216
100
AcDbPoint
 10
45.90054911701805
 20
-3.999302527994055
 30
0.0
  0
ENDBLK
  5
B03
330
B01
100
AcDbEntity
  8
0
100
AcDbBlockEnd
  0
BLOCK
  5
B0E
330
B0D
100
AcDbEntity
  8
0
100
AcDbBlockBegin
  2
*D6
 70
     1
 10
0.0
 20
0.0
 30
0.0
  3
*D6
  1

  0
LINE
  5
F70
330
B0D
100
AcDbEntity
  8
2
 62
     0
440
 16777216
370
    -2
100
AcDbLine
 10
37.90010847732915
 20
3.998879899923818
 30
0.0
 11
37.90010847732915
 21
21.10237863121776
 31
0.0
  0
LINE
  5
F71
330
B0D
100
AcDbEntity
  8
2
 62
     0
440
 16777216
370
    -2
100
AcDbLine
 10
38.0
 20
3.998879899923818
 30
0.0
 11
38.0
 21
21.10237863121776
 31
0.0
  0
LINE
  5
F72
330
B0D
100
AcDbEntity
  8
2
 62
     0
440
 16777216
370
    -2
100
AcDbLine
 10
35.40010847732915
 20
19.85237863121776
 30
0.0
 11
32.90010847732915
 21
19.85237863121776
 31
0.0
  0
LINE
  5
F73
330
B0D
100
AcDbEntity
  8
2
 62
     0
440
 16777216
370
    -2
100
AcDbLine
 10
40.49999999999999
 20
19.85237863121776
 30
0.0
 11
62.08333333333333
 21
19.85237863121776
 31
0.0
  0
SOLID
  5
F74
330
B0D
100
AcDbEntity
  8
2
 62
     0
440
 16777216
100
AcDbTrace
 10
35.40010847732915
 20
20.26904529788443
 30
0.0
 11
35.40010847732915
 21
19.43571196455109
 31
0.0
 12
37.90010847732915
 22
19.85237863121776
 32
0.0
 13
37.90010847732915
 23
19.85237863121776
 33
0.0
  0
SOLID
  5
F75
330
B0D
100
AcDbEntity
  8
2
 62
     0
440
 16777216
100
AcDbTrace
 10
40.49999999999999
 20
20.26904529788443
 30
0.0
 11
40.49999999999999
 21
19.43571196455109
 31
0.0
 12
38.0
 22
19.85237863121776
 32
0.0
 13
38.0
 23
19.85237863121776
 33
0.0
  0
MTEXT
  5
F76
330
B0D
100
AcDbEntity
  8
2
 62
     0
440
 16777216
100
AcDbMText
 10
52.54166666666666
 20
22.22737863121776
 30
0.0
 40
3.5
 41
0.0
 71
     5
 72
     1
  1
0.1x45°
  7
SIMPLEX
 73
     1
 44
1.0
  0
POINT
  5
F77
330
B0D
100
AcDbEntity
  8
DEFPOINTS
 62
     0
440
 16777216
100
AcDbPoint
 10
37.90010847732915
 20
3.998879899923818
 30
0.0
  0
POINT
  5
F78
330
B0D
100
AcDbEntity
  8
DEFPOINTS
 62
     0
440
 16777216
100
AcDbPoint
 10
38.0
 20
3.998879899923818
 30
0.0
  0
POINT
  5
F79
330
B0D
100
AcDbEntity
  8
DEFPOINTS
 62
     0
440
 16777216
100
AcDbPoint
 10
38.0
 20
19.85237863121776
 30
0.0
  0
ENDBLK
  5
B0F
330
B0D
100
AcDbEntity
  8
0
100
AcDbBlockEnd
  0
BLOCK
  5
E1B
330
E1A
100
AcDbEntity
  8
0
100
AcDbBlockBegin
  2
*D7
 70
     1
 10
0.0
 20
0.0
 30
0.0
  3
*D7
  1

  0
LINE
  5
E31
330
E1A
100
AcDbEntity
  8
1
  6
ByBlock
 62
     0
440
 16777216
370
    -2
100
AcDbLine
 10
0.0
 20
0.0
 30
0.0
 11
0.0000000000000011
 21
17.68974608517558
 31
0.0
  0
LINE
  5
E32
330
E1A
100
AcDbEntity
  8
1
  6
ByBlock
 62
     0
440
 16777216
370
    -2
100
AcDbLine
 10
-36.0
 20
0.0000000000000004
 30
0.0
 11
-36.0
 21
17.68974608517558
 31
0.0
  0
LINE
  5
E33
330
E1A
100
AcDbEntity
  8
1
  6
ByBlock
 62
     0
440
 16777216
370
    -2
100
AcDbLine
 10
-2.499999999999999
 20
16.43974608517558
 30
0.0
 11
-33.5
 21
16.43974608517558
 31
0.0
  0
SOLID
  5
E34
330
E1A
100
AcDbEntity
  8
1
 62
     0
440
 16777216
100
AcDbTrace
 10
-2.499999999999999
 20
16.85641275184225
 30
0.0
 11
-2.499999999999999
 21
16.02307941850891
 31
0.0
 12
0.000000000000001
 22
16.43974608517558
 32
0.0
 13
0.000000000000001
 23
16.43974608517558
 33
0.0
  0
SOLID
  5
E35
330
E1A
100
AcDbEntity
  8
1
 62
     0
440
 16777216
100
AcDbTrace
 10
-33.5
 20
16.85641275184225
 30
0.0
 11
-33.5
 21
16.02307941850891
 31
0.0
 12
-36.0
 22
16.43974608517558
 32
0.0
 13
-36.0
 23
16.43974608517558
 33
0.0
  0
MTEXT
  5
E36
330
E1A
100
AcDbEntity
  8
1
 62
     0
440
 16777216
100
AcDbMText
 10
-18.0
 20
18.81474608517558
 30
0.0
 40
3.5
 41
0.0
 71
     5
 72
     1
  1
36
  7
SIMPLEX
 73
     1
 44
1.0
  0
POINT
  5
E37
330
E1A
100
AcDbEntity
  8
DEFPOINTS
 62
     0
440
 16777216
100
AcDbPoint
 10
0.0
 20
0.0
 30
0.0
  0
POINT
  5
E38
330
E1A
100
AcDbEntity
  8
DEFPOINTS
 62
     0
440
 16777216
100
AcDbPoint
 10
-36.0
 20
0.0000000000000004
 30
0.0
  0
POINT
  5
E39
330
E1A
100
AcDbEntity
  8
DEFPOINTS
 62
     0
440
 16777216
100
AcDbPoint
 10
-36.0
 20
16.43974608517558
 30
0.0
  0
ENDBLK
  5
E1C
330
E1A
100
AcDbEntity
  8
0
100
AcDbBlockEnd
  0
BLOCK
  5
E45
330
E44
100
AcDbEntity
  8
0
100
AcDbBlockBegin
  2
*D8
 70
     1
 10
0.0
 20
0.0
 30
0.0
  3
*D8
  1

  0
LINE
  5
E5B
330
E44
100
AcDbEntity
  8
1
  6
ByBlock
 62
     0
440
 16777216
370
    -2
100
AcDbLine
 10
-36.0
 20
0.0000000000000009
 30
0.0
 11
-36.0
 21
-16.40205273141384
 31
0.0
  0
LINE
  5
E5C
330
E44
100
AcDbEntity
  8
1
  6
ByBlock
 62
     0
440
 16777216
370
    -2
100
AcDbLine
 10
-18.5
 20
-2.85657137141714
 30
0.0
 11
-18.5
 21
-16.40205273141384
 31
0.0
  0
LINE
  5
E5D
330
E44
100
AcDbEntity
  8
1
  6
ByBlock
 62
     0
440
 16777216
370
    -2
100
AcDbLine
 10
-33.5
 20
-15.15205273141384
 30
0.0
 11
-21.0
 21
-15.15205273141384
 31
0.0
  0
SOLID
  5
E5E
330
E44
100
AcDbEntity
  8
1
 62
     0
440
 16777216
100
AcDbTrace
 10
-33.5
 20
-14.73538606474718
 30
0.0
 11
-33.5
 21
-15.56871939808051
 31
0.0
 12
-36.0
 22
-15.15205273141384
 32
0.0
 13
-36.0
 23
-15.15205273141384
 33
0.0
  0
SOLID
  5
E5F
330
E44
100
AcDbEntity
  8
1
 62
     0
440
 16777216
100
AcDbTrace
 10
-21.0
 20
-14.73538606474718
 30
0.0
 11
-21.0
 21
-15.56871939808051
 31
0.0
 12
-18.5
 22
-15.15205273141384
 32
0.0
 13
-18.5
 23
-15.15205273141384
 33
0.0
  0
MTEXT
  5
E60
330
E44
100
AcDbEntity
  8
1
 62
     0
440
 16777216
100
AcDbMText
 10
-27.25
 20
-12.77705273141384
 30
0.0
 40
3.5
 41
0.0
 71
     5
 72
     1
  1
17.5
  7
SIMPLEX
 73
     1
 44
1.0
  0
POINT
  5
E61
330
E44
100
AcDbEntity
  8
DEFPOINTS
 62
     0
440
 16777216
100
AcDbPoint
 10
-36.0
 20
0.0000000000000009
 30
0.0
  0
POINT
  5
E62
330
E44
100
AcDbEntity
  8
DEFPOINTS
 62
     0
440
 16777216
100
AcDbPoint
 10
-18.5
 20
-2.85657137141714
 30
0.0
  0
POINT
  5
E63
330
E44
100
AcDbEntity
  8
DEFPOINTS
 62
     0
440
 16777216
100
AcDbPoint
 10
-18.5
 20
-15.15205273141384
 30
0.0
  0
ENDBLK
  5
E46
330
E44
100
AcDbEntity
  8
0
100
AcDbBlockEnd
  0
BLOCK
  5
E66
330
E65
100
AcDbEntity
  8
0
100
AcDbBlockBegin
  2
*D9
 70
     1
 10
0.0
 20
0.0
 30
0.0
  3
*D9
  1

  0
LINE
  5
E88
330
E65
100
AcDbEntity
  8
1
  6
ByBlock
 62
     0
440
 16777216
370
    -2
100
AcDbLine
 10
-21.25
 20
2.856571371417198
 30
0.0
 11
-21.25
 21
9.641702940299607
 31
0.0
  0
LINE
  5
E89
330
E65
100
AcDbEntity
  8
1
  6
ByBlock
 62
     0
440
 16777216
370
    -2
100
AcDbLine
 10
-15.75
 20
2.856571371417136
 30
0.0
 11
-15.75
 21
9.641702940299607
 31
0.0
  0
LINE
  5
E8A
330
E65
100
AcDbEntity
  8
1
  6
ByBlock
 62
     0
440
 16777216
370
    -2
100
AcDbLine
 10
-23.75
 20
8.391702940299609
 30
0.0
 11
-26.25
 21
8.391702940299609
 31
0.0
  0
LINE
  5
E8B
330
E65
100
AcDbEntity
  8
1
  6
ByBlock
 62
     0
440
 16777216
370
    -2
100
AcDbLine
 10
-13.25
 20
8.391702940299609
 30
0.0
 11
-2.166666666666666
 21
8.391702940299609
 31
0.0
  0
SOLID
  5
E8C
330
E65
100
AcDbEntity
  8
1
 62
     0
440
 16777216
100
AcDbTrace
 10
-23.75
 20
8.808369606966275
 30
0.0
 11
-23.75
 21
7.975036273632942
 31
0.0
 12
-21.25
 22
8.391702940299609
 32
0.0
 13
-21.25
 23
8.391702940299609
 33
0.0
  0
SOLID
  5
E8D
330
E65
100
AcDbEntity
  8
1
 62
     0
440
 16777216
100
AcDbTrace
 10
-13.25
 20
8.808369606966275
 30
0.0
 11
-13.25
 21
7.975036273632942
 31
0.0
 12
-15.75
 22
8.391702940299609
 32
0.0
 13
-15.75
 23
8.391702940299609
 33
0.0
  0
MTEXT
  5
E8E
330
E65
100
AcDbEntity
  8
1
 62
     0
440
 16777216
100
AcDbMText
 10
-6.458333333333332
 20
10.76670294029961
 30
0.0
 40
3.5
 41
0.0
 71
     5
 72
     1
  1
5.5
  7
SIMPLEX
 73
     1
 44
1.0
  0
POINT
  5
E8F
330
E65
100
AcDbEntity
  8
DEFPOINTS
 62
     0
440
 16777216
100
AcDbPoint
 10
-21.25
 20
2.856571371417198
 30
0.0
  0
POINT
  5
E90
330
E65
100
AcDbEntity
  8
DEFPOINTS
 62
     0
440
 16777216
100
AcDbPoint
 10
-15.75
 20
2.856571371417136
 30
0.0
  0
POINT
  5
E91
330
E65
100
AcDbEntity
  8
DEFPOINTS
 62
     0
440
 16777216
100
AcDbPoint
 10
-15.75
 20
8.391702940299609
 30
0.0
  0
ENDBLK
  5
E67
330
E65
100
AcDbEntity
  8
0
100
AcDbBlockEnd
  0
BLOCK
  5
ED2
330
ED1
100
AcDbEntity
  8
0
100
AcDbBlockBegin
  2
*D10
 70
     1
 10
0.0
 20
0.0
 30
0.0
  3
*D10
  1

  0
LINE
  5
EDF
330
ED1
100
AcDbEntity
  8
1
  6
ByBlock
 62
     0
440
 16777216
370
    -2
100
AcDbLine
 10
39.04590749798808
 20
0.0000000000000016
 30
0.0
 11
41.71168596361645
 21
0.0000000000000009
 31
0.0
  0
LINE
  5
EE0
330
ED1
100
AcDbEntity
  8
1
  6
ByBlock
 62
     0
440
 16777216
370
    -2
100
AcDbLine
 10
39.04590749798808
 20
-3.999302527994053
 30
0.0
 11
41.71168596361645
 21
-3.999302527994053
 31
0.0
  0
LINE
  5
EE1
330
ED1
100
AcDbEntity
  8
1
  6
ByBlock
 62
     0
440
 16777216
370
    -2
100
AcDbLine
 10
40.46168596361645
 20
2.5
 30
0.0
 11
40.46168596361645
 21
5.0
 31
0.0
  0
LINE
  5
EE2
330
ED1
100
AcDbEntity
  8
1
  6
ByBlock
 62
     0
440
 16777216
370
    -2
100
AcDbLine
 10
40.46168596361645
 20
-6.499302527994052
 30
0.0
 11
40.46168596361645
 21
-8.999302527994052
 31
0.0
  0
SOLID
  5
EE3
330
ED1
100
AcDbEntity
  8
1
 62
     0
440
 16777216
100
AcDbTrace
 10
40.04501929694978
 20
2.5
 30
0.0
 11
40.87835263028311
 21
2.5
 31
0.0
 12
40.46168596361645
 22
0.0000000000000012
 32
0.0
 13
40.46168596361645
 23
0.0000000000000012
 33
0.0
  0
SOLID
  5
EE4
330
ED1
100
AcDbEntity
  8
1
 62
     0
440
 16777216
100
AcDbTrace
 10
40.04501929694978
 20
-6.499302527994052
 30
0.0
 11
40.87835263028311
 21
-6.499302527994052
 31
0.0
 12
40.46168596361645
 22
-3.999302527994053
 32
0.0
 13
40.46168596361645
 23
-3.999302527994053
 33
0.0
  0
MTEXT
  5
EE5
330
ED1
100
AcDbEntity
  8
1
 62
     0
440
 16777216
100
AcDbMText
 10
38.08668596361645
 20
-1.999651263997018
 30
0.0
 40
3.5
 41
0.0
 71
     5
 72
     1
  1
4
  7
SIMPLEX
 11
0.0000000000000001
 21
1.0
 31
0.0
 73
     1
 44
1.0
  0
POINT
  5
EE6
330
ED1
100
AcDbEntity
  8
DEFPOINTS
 62
     0
440
 16777216
100
AcDbPoint
 10
39.04590749798808
 20
0.0000000000000016
 30
0.0
  0
POINT
  5
EE7
330
ED1
100
AcDbEntity
  8
DEFPOINTS
 62
     0
440
 16777216
100
AcDbPoint
 10
39.04590749798808
 20
-3.999302527994053
 30
0.0
  0
POINT
  5
EE8
330
ED1
100
AcDbEntity
  8
DEFPOINTS
 62
     0
440
 16777216
100
AcDbPoint
 10
40.46168596361645
 20
-3.999302527994053
 30
0.0
  0
ENDBLK
  5
ED3
330
ED1
100
AcDbEntity
  8
0
100
AcDbBlockEnd
  0
BLOCK
  5
F4C
330
F4B
100
AcDbEntity
  8
0
100
AcDbBlockBegin
  2
*D11
 70
     1
 10
0.0
 20
0.0
 30
0.0
  3
*D11
  1

  0
LINE
  5
F58
330
F4B
100
AcDbEntity
  8
1
  6
ByBlock
 62
     0
440
 16777216
370
    -2
100
AcDbLine
 10
-36.0
 20
-0.1615079020378434
 30
0.0
 11
-36.0
 21
9.441730461027162
 31
0.0
  0
LINE
  5
F59
330
F4B
100
AcDbEntity
  8
1
  6
ByBlock
 62
     0
440
 16777216
370
    -2
100
AcDbLine
 10
0.0
 20
-0.0000000000000001
 30
0.0
 11
0.0000000000000006
 21
9.441730461027162
 31
0.0
  0
LINE
  5
F5A
330
F4B
100
AcDbEntity
  8
1
  6
ByBlock
 62
     0
440
 16777216
370
    -2
100
AcDbLine
 10
-33.5
 20
8.191730461027162
 30
0.0
 11
-2.499999999999999
 21
8.191730461027162
 31
0.0
  0
SOLID
  5
F5B
330
F4B
100
AcDbEntity
  8
1
 62
     0
440
 16777216
100
AcDbTrace
 10
-33.5
 20
8.608397127693827
 30
0.0
 11
-33.5
 21
7.775063794360494
 31
0.0
 12
-36.0
 22
8.191730461027162
 32
0.0
 13
-36.0
 23
8.191730461027162
 33
0.0
  0
SOLID
  5
F5C
330
F4B
100
AcDbEntity
  8
1
 62
     0
440
 16777216
100
AcDbTrace
 10
-2.499999999999999
 20
8.608397127693827
 30
0.0
 11
-2.499999999999999
 21
7.775063794360494
 31
0.0
 12
0.0000000000000005
 22
8.191730461027162
 32
0.0
 13
0.0000000000000005
 23
8.191730461027162
 33
0.0
  0
MTEXT
  5
F5D
330
F4B
100
AcDbEntity
  8
1
 62
     0
440
 16777216
100
AcDbMText
 10
-18.0
 20
10.56673046102716
 30
0.0
 40
3.5
 41
0.0
 71
     5
 72
     1
  1
36
  7
SIMPLEX
 73
     1
 44
1.0
  0
POINT
  5
F5E
330
F4B
100
AcDbEntity
  8
DEFPOINTS
 62
     0
440
 16777216
100
AcDbPoint
 10
-36.0
 20
-0.1615079020378434
 30
0.0
  0
POINT
  5
F5F
330
F4B
100
AcDbEntity
  8
DEFPOINTS
 62
     0
440
 16777216
100
AcDbPoint
 10
0.0
 20
-0.0000000000000001
 30
0.0
  0
POINT
  5
F60
330
F4B
100
AcDbEntity
  8
DEFPOINTS
 62
     0
440
 16777216
100
AcDbPoint
 10
0.0000000000000005
 20
8.191730461027162
 30
0.0
  0
ENDBLK
  5
F4D
330
F4B
100
AcDbEntity
  8
0
100
AcDbBlockEnd
  0
ENDSEC
  0
SECTION
  2
ENTITIES
  0
LINE
  5
3C2
330
18
100
AcDbEntity
  8
SK4
100
AcDbLine
 10
-38.64195312553807
 20
0.0000000000000007
 30
0.0
 11
0.0
 21
0.0
 31
0.0
  0
LINE
  5
3C3
330
18
100
AcDbEntity
  8
4
100
AcDbLine
 10
0.0
 20
0.000000000000004
 30
0.0
 11
39.44590749798808
 21
0.0000000000000016
 31
0.0
  0
LINE
  5
3C6
330
18
100
AcDbEntity
  8
1
 62
     4
100
AcDbLine
 10
5.200000000000001
 20
-3.828490320546841
 30
0.0
 11
5.200000000000001
 21
-3.999999999999998
 31
0.0
  0
LINE
  5
3C7
330
18
100
AcDbEntity
  8
1
 62
     4
100
AcDbLine
 10
5.999999999999997
 20
-3.913895485970265
 30
0.0
 11
5.199999999999995
 21
-3.561178230776403
 31
0.0
  0
ARC
  5
3C8
330
18
100
AcDbEntity
  8
1
 62
     4
100
AcDbCircle
 10
6.83044748327067
 20
3.691296902089866
 30
0.0
 40
7.694504413296897
100
AcDbArc
 50
257.7664336438684
 51
263.8041077949
  0
LINE
  5
3C9
330
18
100
AcDbEntity
  8
1
 62
     4
100
AcDbLine
 10
5.99999999999999
 20
-3.279047847309012
 30
0.0
 11
6.0
 21
-3.958209994475951
 31
0.0
  0
LINE
  5
3CC
330
18
100
AcDbEntity
  8
1
 62
     4
100
AcDbLine
 10
5.199999999999995
 20
-0.6753345490809906
 30
0.0
 11
5.199999999999995
 21
-3.561178230776403
 31
0.0
  0
LINE
  5
3CD
330
18
100
AcDbEntity
  8
1
 62
     4
100
AcDbLine
 10
5.199999999999995
 20
-0.6753345490809906
 30
0.0
 11
5.999999999999997
 21
-1.015160013625648
 31
0.0
  0
ARC
  5
3CE
330
18
100
AcDbEntity
  8
1
 62
     4
100
AcDbCircle
 10
-2.82216216577125
 20
-13.51796876575092
 30
0.0
 40
16.83338919083742
100
AcDbArc
 50
59.02784707936092
 51
61.53884718876822
  0
LINE
  5
3CF
330
18
100
AcDbEntity
  8
1
 62
     4
100
AcDbLine
 10
5.200000000000001
 20
4.0
 30
0.0
 11
5.200000000000001
 21
3.999723712770835
 31
0.0
  0
LINE
  5
3D0
330
18
100
AcDbEntity
  8
1
 62
     4
100
AcDbLine
 10
5.200000000000001
 20
3.957728962758062
 30
0.0
 11
5.200000000000001
 21
3.915734212745295
 31
0.0
  0
LINE
  5
3D1
330
18
100
AcDbEntity
  8
1
 62
     4
100
AcDbLine
 10
5.200000000000001
 20
3.915734212745295
 30
0.0
 11
5.200004965184126
 21
1.280944240724291
 31
0.0
  0
LINE
  5
3D2
330
18
100
AcDbEntity
  8
1
100
AcDbLine
 10
0.0
 20
4.0
 30
0.0
 11
6.0
 21
4.0
 31
0.0
  0
ARC
  5
3D3
330
18
100
AcDbEntity
  8
1
 62
     4
100
AcDbCircle
 10
6.954087827704155
 20
15.41003376886177
 30
0.0
 40
11.58585816757679
100
AcDbArc
 50
261.2919882056564
 51
265.2763810069255
  0
LINE
  5
3D4
330
18
100
AcDbEntity
  8
1
 62
     4
100
AcDbLine
 10
6.0
 20
2.398671993778707
 30
0.0
 11
6.0
 21
3.958209994475957
 31
0.0
  0
LINE
  5
3D5
330
18
100
AcDbEntity
  8
1
 62
     4
100
AcDbLine
 10
6.0
 20
2.290817586596122
 30
0.0
 11
6.0
 21
2.398671993778707
 31
0.0
  0
LINE
  5
3D6
330
18
100
AcDbEntity
  8
1
 62
     4
100
AcDbLine
 10
6.0
 20
2.290817586596125
 30
0.0
 11
6.0
 21
0.5766919798563679
 31
0.0
  0
LINE
  5
3D7
330
18
100
AcDbEntity
  8
1
 62
     4
100
AcDbLine
 10
6.0
 20
0.3494748644081009
 30
0.0
 11
6.0
 21
0.5766919798563647
 31
0.0
  0
LINE
  5
3D8
330
18
100
AcDbEntity
  8
1
 62
     4
100
AcDbLine
 10
6.0
 20
-3.279047847309012
 30
0.0
 11
6.0
 21
0.3494748644081009
 31
0.0
  0
LINE
  5
3D9
330
18
100
AcDbEntity
  8
1
 62
     4
100
AcDbLine
 10
5.840688625539042
 20
0.9153211903800176
 30
0.0
 11
5.999999999999997
 21
0.8189074060856359
 31
0.0
  0
LINE
  5
3DA
330
18
100
AcDbEntity
  8
1
100
AcDbLine
 10
0.0
 20
-4.0
 30
0.0
 11
5.999999999999997
 21
-4.000276287229162
 31
0.0
  0
LINE
  5
3DB
330
18
100
AcDbEntity
  8
1
 62
     4
100
AcDbLine
 10
6.0
 20
2.290817586596125
 30
0.0
 11
6.0
 21
0.5766919798563679
 31
0.0
  0
LINE
  5
427
330
18
100
AcDbEntity
  8
1
 62
     4
100
AcDbLine
 10
6.0
 20
2.290817586596122
 30
0.0
 11
6.0
 21
2.398671993778707
 31
0.0
  0
LINE
  5
439
330
18
100
AcDbEntity
  8
1
 62
     4
100
AcDbLine
 10
5.99999999999999
 20
-3.279047847309012
 30
0.0
 11
6.0
 21
-3.958209994475951
 31
0.0
  0
LINE
  5
43A
330
18
100
AcDbEntity
  8
1
 62
     4
100
AcDbLine
 10
6.0
 20
-3.279047847309012
 30
0.0
 11
6.0
 21
0.3494748644081009
 31
0.0
  0
LINE
  5
43B
330
18
100
AcDbEntity
  8
1
 62
     4
100
AcDbLine
 10
6.0
 20
0.3494748644081009
 30
0.0
 11
6.0
 21
0.5766919798563647
 31
0.0
  0
LINE
  5
43C
330
18
100
AcDbEntity
  8
1
 62
     4
100
AcDbLine
 10
6.0
 20
2.398671993778707
 30
0.0
 11
6.0
 21
3.999723712770835
 31
0.0
  0
LINE
  5
4F1
330
18
100
AcDbEntity
  8
SK1
100
AcDbLine
 10
0.0
 20
4.0
 30
0.0
 11
-35.6
 21
4.0
 31
0.0
  0
LINE
  5
4F2
330
18
100
AcDbEntity
  8
SK1
100
AcDbLine
 10
-35.6
 20
4.0
 30
0.0
 11
-36.0
 21
3.6
 31
0.0
  0
LINE
  5
4F3
330
18
100
AcDbEntity
  8
SK1
100
AcDbLine
 10
-36.0
 20
3.6
 30
0.0
 11
-36.0
 21
3.59642090414041
 31
0.0
  0
LINE
  5
4F4
330
18
100
AcDbEntity
  8
SK1
100
AcDbLine
 10
-36.0
 20
3.59642090414041
 30
0.0
 11
-36.0
 21
3.276984195924312
 31
0.0
  0
LINE
  5
4F5
330
18
100
AcDbEntity
  8
SK1
100
AcDbLine
 10
-36.0
 20
3.276984195924312
 30
0.0
 11
-36.0
 21
-3.599999999999998
 31
0.0
  0
LINE
  5
4F6
330
18
100
AcDbEntity
  8
SK1
100
AcDbLine
 10
-35.6
 20
4.0
 30
0.0
 11
-35.6
 21
-3.999999992212611
 31
0.0
  0
LINE
  5
4F7
330
18
100
AcDbEntity
  8
SK1
100
AcDbLine
 10
0.0
 20
-4.0
 30
0.0
 11
-35.6
 21
-3.999999992212611
 31
0.0
  0
LINE
  5
4F8
330
18
100
AcDbEntity
  8
SK1
100
AcDbLine
 10
-35.6
 20
-3.999999999999998
 30
0.0
 11
-36.0
 21
-3.599999999999998
 31
0.0
  0
DIMENSION
  5
506
330
18
100
AcDbEntity
  8
2
100
AcDbDimension
  2
*D0
 10
38.00000000000001
 20
75.0
 30
0.0
 11
19.00000000000001
 21
77.375
 31
0.0
 70
    32
  1
<>
 71
     5
 42
38.0
  3
STANDARD
100
AcDbAlignedDimension
 13
0.0
 23
0.0
 33
0.0
 14
38.0
 24
0.0000000000000016
 34
0.0
100
AcDbRotatedDimension
  0
DIMENSION
  5
513
330
18
100
AcDbEntity
  8
2
100
AcDbDimension
  2
*D1
 10
38.0
 20
60.0
 30
0.0
 11
22.0
 21
62.375
 31
0.0
 70
    32
  1
<>
 71
     5
 42
32.0
  3
STANDARD
100
AcDbAlignedDimension
 13
6.0
 23
4.0
 33
0.0
 14
38.0
 24
3.998879899923818
 34
0.0
100
AcDbRotatedDimension
  0
DIMENSION
  5
520
330
18
100
AcDbEntity
  8
SK2
100
AcDbDimension
  2
*D2
 10
-50.59999999997447
 20
-3.999999992212606
 30
0.0
 11
-52.97499999997448
 21
0.0000000038936905
 31
0.0
 70
    32
  1
%%c<>
 71
     5
 42
7.999999992212612
  3
STANDARD
100
AcDbAlignedDimension
 13
-35.6
 23
4.0
 33
0.0
 14
-35.6
 24
-3.999999992212611
 34
0.0
 50
90.00000000029242
100
AcDbRotatedDimension
  0
DIMENSION
  5
52D
330
18
100
AcDbEntity
  8
SK2
100
AcDbDimension
  2
*D3
 10
38.00000000000001
 20
90.0
 30
0.0
 11
1.000000000000007
 21
92.375
 31
0.0
 70
    32
  1
<>
 71
     5
 42
74.0
  3
STANDARD
100
AcDbAlignedDimension
 13
-36.0
 23
0.0000000000000009
 33
0.0
 14
38.0
 24
0.0000000000000016
 34
0.0
100
AcDbRotatedDimension
  0
LINE
  5
9C5
330
18
100
AcDbEntity
  8
1
 62
     4
100
AcDbLine
 10
5.200000000000001
 20
3.999723712770835
 30
0.0
 11
5.999999999999997
 21
3.999723712770835
 31
0.0
  0
LINE
  5
9C6
330
18
100
AcDbEntity
  8
1
 62
     4
100
AcDbLine
 10
37.90008074236846
 20
-3.999302527994053
 30
0.0
 11
37.62182681423386
 21
-3.988114071876221
 31
0.0
  0
LINE
  5
9C7
330
18
100
AcDbEntity
  8
1
 62
     4
100
AcDbLine
 10
37.62182681423386
 20
-3.988114071876221
 30
0.0
 11
37.36366171341554
 21
-3.968489088484076
 31
0.0
  0
LINE
  5
9C8
330
18
100
AcDbEntity
  8
1
 62
     4
100
AcDbLine
 10
37.36366171341554
 20
-3.968489088484076
 30
0.0
 11
37.10548324343692
 21
-3.939662339134341
 31
0.0
  0
LINE
  5
9C9
330
18
100
AcDbEntity
  8
1
 62
     4
100
AcDbLine
 10
37.10548324343692
 20
-3.939662339134341
 30
0.0
 11
36.58914605887251
 21
-3.854699775028998
 31
0.0
  0
LINE
  5
9CA
330
18
100
AcDbEntity
  8
1
 62
     4
100
AcDbLine
 10
36.58914605887251
 20
-3.854699775028998
 30
0.0
 11
36.07280769676421
 21
-3.734012450649245
 31
0.0
  0
LINE
  5
9CB
330
18
100
AcDbEntity
  8
1
 62
     4
100
AcDbLine
 10
36.07280769676421
 20
-3.734012450649245
 30
0.0
 11
35.55646348750084
 21
-3.57871799427464
 31
0.0
  0
LINE
  5
9CC
330
18
100
AcDbEntity
  8
1
 62
     4
100
AcDbLine
 10
35.55646348750084
 20
-3.57871799427464
 30
0.0
 11
35.0401180542882
 21
-3.390256647982508
 31
0.0
  0
LINE
  5
9CD
330
18
100
AcDbEntity
  8
1
 62
     4
100
AcDbLine
 10
35.0401180542882
 20
-3.390256647982508
 30
0.0
 11
34.52377575677763
 21
-3.17037687150773
 31
0.0
  0
LINE
  5
9CE
330
18
100
AcDbEntity
  8
1
 62
     4
100
AcDbLine
 10
34.52377575677763
 20
-3.17037687150773
 30
0.0
 11
34.00744004802535
 21
-2.92111832020843
 31
0.0
  0
LINE
  5
9CF
330
18
100
AcDbEntity
  8
1
 62
     4
100
AcDbLine
 10
34.00744004802535
 20
-2.92111832020843
 30
0.0
 11
33.49110004866503
 21
-2.644786074674259
 31
0.0
  0
LINE
  5
9D0
330
18
100
AcDbEntity
  8
1
 62
     4
100
AcDbLine
 10
33.49110004866503
 20
-2.644786074674259
 30
0.0
 11
32.45841038686279
 21
-2.02137365773149
 31
0.0
  0
LINE
  5
9D1
330
18
100
AcDbEntity
  8
1
 62
     4
100
AcDbLine
 10
32.45841038686279
 20
-2.02137365773149
 30
0.0
 11
31.4257344890978
 21
-1.323214464311778
 31
0.0
  0
LINE
  5
9D2
330
18
100
AcDbEntity
  8
1
 62
     4
100
AcDbLine
 10
31.4257344890978
 20
-1.323214464311778
 30
0.0
 11
29.61855084940593
 21
-0.0002762872301026
 31
0.0
  0
LINE
  5
9D3
330
18
100
AcDbEntity
  8
1
 62
     4
100
AcDbLine
 10
37.90008074236843
 20
-3.528014064793453
 30
0.0
 11
37.90008074236846
 21
-3.999302527994053
 31
0.0
  0
LINE
  5
9D5
330
18
100
AcDbEntity
  8
1
 62
     4
100
AcDbLine
 10
37.90000000000001
 20
1.890717382578831
 30
0.0
 11
37.10503661890014
 21
2.386954237093728
 31
0.0
  0
LINE
  5
9D6
330
18
100
AcDbEntity
  8
1
 62
     4
100
AcDbLine
 10
37.99999999999998
 20
1.845554639498994
 30
0.0
 11
37.89999999999999
 21
1.890717382578831
 31
0.0
  0
LINE
  5
9D7
330
18
100
AcDbEntity
  8
1
 62
     4
100
AcDbLine
 10
37.89999999999999
 20
1.890717382578831
 30
0.0
 11
37.89999999999999
 21
0.1040137174409148
 31
0.0
  0
LINE
  5
9D8
330
18
100
AcDbEntity
  8
1
 62
     4
100
AcDbLine
 10
37.99999999999998
 20
0.0286723854745695
 30
0.0
 11
37.89999999999996
 21
0.1040137174409138
 31
0.0
  0
LINE
  5
9D9
330
18
100
AcDbEntity
  8
1
 62
     4
100
AcDbLine
 10
38.0
 20
1.845554639498988
 30
0.0
 11
38.0
 21
0.0286723854745695
 31
0.0
  0
LINE
  5
9DB
330
18
100
AcDbEntity
  8
1
 62
     4
100
AcDbLine
 10
38.0
 20
-3.413091575218523
 30
0.0
 11
38.0
 21
-3.903320233105464
 31
0.0
  0
LINE
  5
9DC
330
18
100
AcDbEntity
  8
1
 62
     4
100
AcDbLine
 10
29.61855084940534
 20
3.999723712770835
 30
0.0
 11
32.11220556741648
 21
3.999723712770835
 31
0.0
  0
LINE
  5
9DD
330
18
100
AcDbEntity
  8
1
 62
     4
100
AcDbLine
 10
21.19710157696501
 20
3.999723712770835
 30
0.0
 11
23.69075727816372
 21
3.999723712770835
 31
0.0
  0
LINE
  5
9DE
330
18
100
AcDbEntity
  8
1
 62
     4
100
AcDbLine
 10
13.17039558140903
 20
3.999723712770835
 30
0.0
 11
15.26930816104349
 21
3.999723712770835
 31
0.0
  0
LINE
  5
9DF
330
18
100
AcDbEntity
  8
1
 62
     4
100
AcDbLine
 10
38.0
 20
2.423659634162731
 30
0.0
 11
37.99999999999999
 21
3.903536475758091
 31
0.0
  0
LINE
  5
9E0
330
18
100
AcDbEntity
  8
1
 62
     4
100
AcDbLine
 10
13.17039558140903
 20
-3.696380550770081
 30
0.0
 11
13.22600019697452
 21
-3.713264057681881
 31
0.0
  0
LINE
  5
9E1
330
18
100
AcDbEntity
  8
1
 62
     4
100
AcDbLine
 10
13.22600019697452
 20
-3.713264057681881
 30
0.0
 11
13.63466615470554
 21
-3.81578534702539
 31
0.0
  0
LINE
  5
9E2
330
18
100
AcDbEntity
  8
1
 62
     4
100
AcDbLine
 10
13.63466615470554
 20
-3.81578534702539
 30
0.0
 11
14.04333191338142
 21
-3.896147942169361
 31
0.0
  0
LINE
  5
9E3
330
18
100
AcDbEntity
  8
1
 62
     4
100
AcDbLine
 10
14.04333191338142
 20
-3.896147942169361
 30
0.0
 11
14.45199721960484
 21
-3.953885199206213
 31
0.0
  0
LINE
  5
9E4
330
18
100
AcDbEntity
  8
1
 62
     4
100
AcDbLine
 10
14.45199721960484
 20
-3.953885199206213
 30
0.0
 11
14.86066243957986
 21
-3.988661713465908
 31
0.0
  0
LINE
  5
9E5
330
18
100
AcDbEntity
  8
1
 62
     4
100
AcDbLine
 10
14.86066243957986
 20
-3.988661713465908
 30
0.0
 11
15.26930816104697
 21
-4.000276287221205
 31
0.0
  0
LINE
  5
9E6
330
18
100
AcDbEntity
  8
1
 62
     4
100
AcDbLine
 10
38.0
 20
2.423659634162731
 30
0.0
 11
38.0
 21
1.845554639498988
 31
0.0
  0
LINE
  5
9E7
330
18
100
AcDbEntity
  8
1
 62
     4
100
AcDbLine
 10
38.0
 20
0.0178091975069287
 30
0.0
 11
38.0
 21
0.0286723854745695
 31
0.0
  0
LINE
  5
9E8
330
18
100
AcDbEntity
  8
1
 62
     4
100
AcDbLine
 10
37.89999999999999
 20
0.1040137174409138
 30
0.0
 11
35.81462956150049
 21
1.61278863019149
 31
0.0
  0
LINE
  5
9E9
330
18
100
AcDbEntity
  8
1
 62
     4
100
AcDbLine
 10
35.81462956150049
 20
1.61278863019149
 30
0.0
 11
34.78195418269812
 21
2.283651093465102
 31
0.0
  0
LINE
  5
9EA
330
18
100
AcDbEntity
  8
1
 62
     4
100
AcDbLine
 10
34.78195418269812
 20
2.283651093465102
 30
0.0
 11
34.14988398373115
 21
2.657248274892985
 31
0.0
  0
LINE
  5
9EB
330
18
100
AcDbEntity
  8
1
 62
     4
100
AcDbLine
 10
33.93164910265038
 20
2.811639770526065
 30
0.0
 11
33.74926460703234
 21
2.870045008886185
 31
0.0
  0
LINE
  5
9EC
330
18
100
AcDbEntity
  8
1
 62
     4
100
AcDbLine
 10
33.74926460703234
 20
2.870045008886185
 30
0.0
 11
33.23292316904298
 21
3.124638506552321
 31
0.0
  0
LINE
  5
9ED
330
18
100
AcDbEntity
  8
1
 62
     4
100
AcDbLine
 10
33.23292316904298
 20
3.124638506552321
 30
0.0
 11
32.71658783239946
 21
3.350266312059478
 31
0.0
  0
LINE
  5
9EE
330
18
100
AcDbEntity
  8
1
 62
     4
100
AcDbLine
 10
32.71658783239946
 20
3.350266312059478
 30
0.0
 11
32.20024706602592
 21
3.544842204424352
 31
0.0
  0
LINE
  5
9EF
330
18
100
AcDbEntity
  8
1
 62
     4
100
AcDbLine
 10
32.20024706602592
 20
3.544842204424352
 30
0.0
 11
31.6839021736236
 21
3.706561984053537
 31
0.0
  0
LINE
  5
9F0
330
18
100
AcDbEntity
  8
1
 62
     4
100
AcDbLine
 10
31.6839021736236
 20
3.706561984053537
 30
0.0
 11
31.16755772579522
 21
3.833925197653002
 31
0.0
  0
LINE
  5
9F1
330
18
100
AcDbEntity
  8
1
 62
     4
100
AcDbLine
 10
31.16755772579522
 20
3.833925197653002
 30
0.0
 11
30.65121840394686
 21
3.925750547947676
 31
0.0
  0
LINE
  5
9F2
330
18
100
AcDbEntity
  8
1
 62
     4
100
AcDbLine
 10
30.65121840394686
 20
3.925750547947676
 30
0.0
 11
30.39304862779362
 21
3.958057095267075
 31
0.0
  0
LINE
  5
9F3
330
18
100
AcDbEntity
  8
1
 62
     4
100
AcDbLine
 10
30.39304862779362
 20
3.958057095267075
 30
0.0
 11
30.13488276660089
 21
3.981187412281345
 31
0.0
  0
LINE
  5
9F4
330
18
100
AcDbEntity
  8
1
 62
     4
100
AcDbLine
 10
30.13488276660089
 20
3.981187412281345
 30
0.0
 11
29.87670474553372
 21
3.995087068659501
 31
0.0
  0
LINE
  5
9F5
330
18
100
AcDbEntity
  8
1
 62
     4
100
AcDbLine
 10
29.87670474553372
 20
3.995087068659501
 30
0.0
 11
29.61855084940534
 21
3.999723712770835
 31
0.0
  0
LINE
  5
9F6
330
18
100
AcDbEntity
  8
1
 62
     4
100
AcDbLine
 10
37.90008074236843
 20
-3.528014064793453
 30
0.0
 11
37.30521900425994
 21
-3.296691654030846
 31
0.0
  0
LINE
  5
9F7
330
18
100
AcDbEntity
  8
1
 62
     4
100
AcDbLine
 10
37.30521900425994
 20
-3.296691654030846
 30
0.0
 11
36.73043770150936
 21
-3.035316699302208
 31
0.0
  0
LINE
  5
9F8
330
18
100
AcDbEntity
  8
1
 62
     4
100
AcDbLine
 10
36.73043770150936
 20
-3.035316699302208
 30
0.0
 11
36.15566551583136
 21
-2.739097857977995
 31
0.0
  0
LINE
  5
9F9
330
18
100
AcDbEntity
  8
1
 62
     4
100
AcDbLine
 10
36.15566551583136
 20
-2.739097857977995
 30
0.0
 11
35.58088976564531
 21
-2.411426467571013
 31
0.0
  0
LINE
  5
9FA
330
18
100
AcDbEntity
  8
1
 62
     4
100
AcDbLine
 10
35.58088976564531
 20
-2.411426467571013
 30
0.0
 11
34.14988398373115
 21
-1.473659484593125
 31
0.0
  0
LINE
  5
9FB
330
18
100
AcDbEntity
  8
1
 62
     4
100
AcDbLine
 10
33.7492700483452
 20
-1.184079338704629
 30
0.0
 11
32.13224472572886
 21
-0.0152272657544223
 31
0.0
  0
LINE
  5
9FC
330
18
100
AcDbEntity
  8
1
 62
     4
100
AcDbLine
 10
32.13224472572886
 20
-0.0152272657544223
 30
0.0
 11
30.40791643107004
 21
1.249974067106438
 31
0.0
  0
LINE
  5
9FD
330
18
100
AcDbEntity
  8
1
 62
     4
100
AcDbLine
 10
30.40791643107004
 20
1.249974067106438
 30
0.0
 11
29.54575202725524
 21
1.842238978549805
 31
0.0
  0
LINE
  5
9FE
330
18
100
AcDbEntity
  8
1
 62
     4
100
AcDbLine
 10
29.54575202725524
 20
1.842238978549805
 30
0.0
 11
28.68358706776006
 21
2.386956056045836
 31
0.0
  0
LINE
  5
9FF
330
18
100
AcDbEntity
  8
1
 62
     4
100
AcDbLine
 10
38.0
 20
0.0178091975069287
 30
0.0
 11
38.0
 21
-3.413091575218523
 31
0.0
  0
LINE
  5
A00
330
18
100
AcDbEntity
  8
1
 62
     4
100
AcDbLine
 10
13.17039558140903
 20
1.515803056765764
 30
0.0
 11
13.46134448068458
 21
1.323210703810947
 31
0.0
  0
LINE
  5
A01
330
18
100
AcDbEntity
  8
1
 62
     4
100
AcDbLine
 10
13.46134448068458
 20
1.323210703810947
 30
0.0
 11
16.38402792218646
 21
-0.8259817401113156
 31
0.0
  0
LINE
  5
A02
330
18
100
AcDbEntity
  8
1
 62
     4
100
AcDbLine
 10
16.38402792218646
 20
-0.8259817401113156
 30
0.0
 11
17.84537658497179
 21
-1.849155798437573
 31
0.0
  0
LINE
  5
A03
330
18
100
AcDbEntity
  8
1
 62
     4
100
AcDbLine
 10
17.84537658497179
 20
-1.849155798437573
 30
0.0
 11
18.57605498483528
 21
-2.313939020968152
 31
0.0
  0
LINE
  5
A04
330
18
100
AcDbEntity
  8
1
 62
     4
100
AcDbLine
 10
18.57605498483528
 20
-2.313939020968152
 30
0.0
 11
19.30672467487777
 21
-2.735809568724706
 31
0.0
  0
LINE
  5
A05
330
18
100
AcDbEntity
  8
1
 62
     4
100
AcDbLine
 10
19.30672467487777
 20
-2.735809568724706
 30
0.0
 11
20.03739735128506
 21
-3.106950802055606
 31
0.0
  0
LINE
  5
A06
330
18
100
AcDbEntity
  8
1
 62
     4
100
AcDbLine
 10
20.03739735128506
 20
-3.106950802055606
 30
0.0
 11
20.40273891355715
 21
-3.271307102751968
 31
0.0
  0
LINE
  5
A07
330
18
100
AcDbEntity
  8
1
 62
     4
100
AcDbLine
 10
20.40273891355715
 20
-3.271307102751968
 30
0.0
 11
20.76807923738098
 21
-3.420479537615026
 31
0.0
  0
LINE
  5
A08
330
18
100
AcDbEntity
  8
1
 62
     4
100
AcDbLine
 10
20.76807923738098
 20
-3.420479537615026
 30
0.0
 11
21.13341618644355
 21
-3.553774476569971
 31
0.0
  0
LINE
  5
A09
330
18
100
AcDbEntity
  8
1
 62
     4
100
AcDbLine
 10
21.13341618644355
 20
-3.553774476569971
 30
0.0
 11
21.49875143697269
 21
-3.670574144028837
 31
0.0
  0
LINE
  5
A0A
330
18
100
AcDbEntity
  8
1
 62
     4
100
AcDbLine
 10
21.49875143697269
 20
-3.670574144028837
 30
0.0
 11
21.86408588307079
 21
-3.770337395307588
 31
0.0
  0
LINE
  5
A0B
330
18
100
AcDbEntity
  8
1
 62
     4
100
AcDbLine
 10
21.86408588307079
 20
-3.770337395307588
 30
0.0
 11
22.22942121133257
 21
-3.852601336492372
 31
0.0
  0
LINE
  5
A0C
330
18
100
AcDbEntity
  8
1
 62
     4
100
AcDbLine
 10
22.22942121133257
 20
-3.852601336492372
 30
0.0
 11
22.5947588091225
 21
-3.916984168042935
 31
0.0
  0
LINE
  5
A0D
330
18
100
AcDbEntity
  8
1
 62
     4
100
AcDbLine
 10
22.5947588091225
 20
-3.916984168042935
 30
0.0
 11
22.96009927872488
 21
-3.963186792354493
 31
0.0
  0
LINE
  5
A0E
330
18
100
AcDbEntity
  8
1
 62
     4
100
AcDbLine
 10
22.96009927872488
 20
-3.963186792354493
 30
0.0
 11
23.32543997364872
 21
-3.990993557785528
 31
0.0
  0
LINE
  5
A0F
330
18
100
AcDbEntity
  8
1
 62
     4
100
AcDbLine
 10
23.32543997364872
 20
-3.990993557785528
 30
0.0
 11
23.69075727819354
 21
-4.000276287188691
 31
0.0
  0
LINE
  5
A11
330
18
100
AcDbEntity
  8
1
 62
     4
100
AcDbLine
 10
23.69075727819354
 20
-4.000276287188691
 30
0.0
 11
24.06124601967221
 21
-3.990728849009857
 31
0.0
  0
LINE
  5
A12
330
18
100
AcDbEntity
  8
1
 62
     4
100
AcDbLine
 10
24.06124601967221
 20
-3.990728849009857
 30
0.0
 11
24.43173263699864
 21
-3.962132944747325
 31
0.0
  0
LINE
  5
A13
330
18
100
AcDbEntity
  8
1
 62
     4
100
AcDbLine
 10
24.43173263699864
 20
-3.962132944747325
 30
0.0
 11
24.80221754782822
 21
-3.9146254684051
 31
0.0
  0
LINE
  5
A14
330
18
100
AcDbEntity
  8
1
 62
     4
100
AcDbLine
 10
24.80221754782822
 20
-3.9146254684051
 30
0.0
 11
25.1727017021813
 21
-3.848433156147113
 31
0.0
  0
LINE
  5
A15
330
18
100
AcDbEntity
  8
1
 62
     4
100
AcDbLine
 10
25.1727017021813
 20
-3.848433156147113
 30
0.0
 11
25.44544344854149
 21
-3.78618140479866
 31
0.0
  0
LINE
  5
A17
330
18
100
AcDbEntity
  8
1
 62
     4
100
AcDbLine
 10
25.84605738392746
 20
-3.685759904586846
 30
0.0
 11
26.28416284851077
 21
-3.541340288089756
 31
0.0
  0
LINE
  5
A18
330
18
100
AcDbEntity
  8
1
 62
     4
100
AcDbLine
 10
26.28416284851077
 20
-3.541340288089756
 30
0.0
 11
26.65465410101067
 21
-3.404431815081906
 31
0.0
  0
LINE
  5
A19
330
18
100
AcDbEntity
  8
1
 62
     4
100
AcDbLine
 10
21.1971015769652
 20
-4.000276287229162
 30
0.0
 11
23.69075727819354
 21
-4.000276287229162
 31
0.0
  0
LINE
  5
A1A
330
18
100
AcDbEntity
  8
1
 62
     4
100
AcDbLine
 10
29.61855084940468
 20
-4.000276287220228
 30
0.0
 11
29.35537828774567
 21
-3.99545737085758
 31
0.0
  0
LINE
  5
A1B
330
18
100
AcDbEntity
  8
1
 62
     4
100
AcDbLine
 10
29.35537828774567
 20
-3.99545737085758
 30
0.0
 11
29.09221322746097
 21
-3.981015076186062
 31
0.0
  0
LINE
  5
A1C
330
18
100
AcDbEntity
  8
1
 62
     4
100
AcDbLine
 10
29.09221322746097
 20
-3.981015076186062
 30
0.0
 11
28.82903459457872
 21
-3.956981531513038
 31
0.0
  0
LINE
  5
A1D
330
18
100
AcDbEntity
  8
1
 62
     4
100
AcDbLine
 10
28.82903459457872
 20
-3.956981531513038
 30
0.0
 11
28.56586838408031
 21
-3.923416531679876
 31
0.0
  0
LINE
  5
A1E
330
18
100
AcDbEntity
  8
1
 62
     4
100
AcDbLine
 10
28.56586838408031
 20
-3.923416531679876
 30
0.0
 11
28.03952231167805
 21
-3.828035642848603
 31
0.0
  0
LINE
  5
A1F
330
18
100
AcDbEntity
  8
1
 62
     4
100
AcDbLine
 10
28.03952231167805
 20
-3.828035642848603
 30
0.0
 11
27.51318101834148
 21
-3.695792224712155
 31
0.0
  0
LINE
  5
A20
330
18
100
AcDbEntity
  8
1
 62
     4
100
AcDbLine
 10
27.51318101834148
 20
-3.695792224712155
 30
0.0
 11
26.9868453770272
 21
-3.527960312501537
 31
0.0
  0
LINE
  5
A21
330
18
100
AcDbEntity
  8
1
 62
     4
100
AcDbLine
 10
26.9868453770272
 20
-3.527960312501537
 30
0.0
 11
26.460502303227
 21
-3.326152133046136
 31
0.0
  0
LINE
  5
A22
330
18
100
AcDbEntity
  8
1
 62
     4
100
AcDbLine
 10
26.460502303227
 20
-3.326152133046136
 30
0.0
 11
25.93415611349905
 21
-3.092312571191623
 31
0.0
  0
LINE
  5
A23
330
18
100
AcDbEntity
  8
1
 62
     4
100
AcDbLine
 10
25.93415611349905
 20
-3.092312571191623
 30
0.0
 11
25.40781295660428
 21
-2.828696323099169
 31
0.0
  0
LINE
  5
A24
330
18
100
AcDbEntity
  8
1
 62
     4
100
AcDbLine
 10
25.40781295660428
 20
-2.828696323099169
 30
0.0
 11
24.88147743484184
 21
-2.53784467648473
 31
0.0
  0
LINE
  5
A25
330
18
100
AcDbEntity
  8
1
 62
     4
100
AcDbLine
 10
24.88147743484184
 20
-2.53784467648473
 30
0.0
 11
23.82879060791994
 21
-1.885853794772707
 31
0.0
  0
LINE
  5
A26
330
18
100
AcDbEntity
  8
1
 62
     4
100
AcDbLine
 10
23.82879060791994
 20
-1.885853794772707
 30
0.0
 11
22.77610946921871
 21
-1.161405073378168
 31
0.0
  0
LINE
  5
A27
330
18
100
AcDbEntity
  8
1
 62
     4
100
AcDbLine
 10
22.77610946921871
 20
-1.161405073378168
 30
0.0
 11
21.19710157696514
 21
-0.0002762872288407
 31
0.0
  0
LINE
  5
A28
330
18
100
AcDbEntity
  8
1
 62
     4
100
AcDbLine
 10
32.11220556741727
 20
-4.000276287227901
 30
0.0
 11
31.74188974289967
 21
-3.990737663281798
 31
0.0
  0
LINE
  5
A29
330
18
100
AcDbEntity
  8
1
 62
     4
100
AcDbLine
 10
31.74188974289967
 20
-3.990737663281798
 30
0.0
 11
31.37157515138899
 21
-3.962168307217658
 31
0.0
  0
LINE
  5
A2A
330
18
100
AcDbEntity
  8
1
 62
     4
100
AcDbLine
 10
31.37157515138899
 20
-3.962168307217658
 30
0.0
 11
31.00126197611846
 21
-3.914704725757471
 31
0.0
  0
LINE
  5
A2B
330
18
100
AcDbEntity
  8
1
 62
     4
100
AcDbLine
 10
31.00126197611846
 20
-3.914704725757471
 30
0.0
 11
30.63094899766126
 21
-3.848573225613158
 31
0.0
  0
LINE
  5
A2C
330
18
100
AcDbEntity
  8
1
 62
     4
100
AcDbLine
 10
30.63094899766126
 20
-3.848573225613158
 30
0.0
 11
30.26063477117079
 21
-3.764089018139153
 31
0.0
  0
LINE
  5
A2D
330
18
100
AcDbEntity
  8
1
 62
     4
100
AcDbLine
 10
30.26063477117079
 20
-3.764089018139153
 30
0.0
 11
29.89031872421689
 21
-3.661654183901778
 31
0.0
  0
LINE
  5
A2E
330
18
100
AcDbEntity
  8
1
 62
     4
100
AcDbLine
 10
29.89031872421689
 20
-3.661654183901778
 30
0.0
 11
29.51999963734051
 21
-3.541756396001138
 31
0.0
  0
LINE
  5
A2F
330
18
100
AcDbEntity
  8
1
 62
     4
100
AcDbLine
 10
29.51999963734051
 20
-3.541756396001138
 30
0.0
 11
29.14968081622792
 21
-3.404969068122048
 31
0.0
  0
LINE
  5
A30
330
18
100
AcDbEntity
  8
1
 62
     4
100
AcDbLine
 10
29.14968081622792
 20
-3.404969068122048
 30
0.0
 11
28.77936544496619
 21
-3.251945063498922
 31
0.0
  0
LINE
  5
A31
330
18
100
AcDbEntity
  8
1
 62
     4
100
AcDbLine
 10
28.77936544496619
 20
-3.251945063498922
 30
0.0
 11
28.03873900602532
 21
-2.900180819482498
 31
0.0
  0
LINE
  5
A32
330
18
100
AcDbEntity
  8
1
 62
     4
100
AcDbLine
 10
28.03873900602532
 20
-2.900180819482498
 30
0.0
 11
27.29811116378535
 21
-2.493162891381923
 31
0.0
  0
LINE
  5
A33
330
18
100
AcDbEntity
  8
1
 62
     4
100
AcDbLine
 10
27.29811116378535
 20
-2.493162891381923
 30
0.0
 11
26.55747442555757
 21
-2.038640621111603
 31
0.0
  0
LINE
  5
A34
330
18
100
AcDbEntity
  8
1
 62
     4
100
AcDbLine
 10
26.55747442555757
 20
-2.038640621111603
 30
0.0
 11
25.07621692584458
 21
-1.022491690589488
 31
0.0
  0
LINE
  5
A35
330
18
100
AcDbEntity
  8
1
 62
     4
100
AcDbLine
 10
25.07621692584458
 20
-1.022491690589488
 30
0.0
 11
23.59498197950965
 21
0.0711768077417695
 31
0.0
  0
LINE
  5
A36
330
18
100
AcDbEntity
  8
1
 62
     4
100
AcDbLine
 10
23.59498197950965
 20
0.0711768077417695
 30
0.0
 11
22.11371313124848
 21
1.159450253725998
 31
0.0
  0
LINE
  5
A37
330
18
100
AcDbEntity
  8
1
 62
     4
100
AcDbLine
 10
22.11371313124848
 20
1.159450253725998
 30
0.0
 11
21.18792291860233
 21
1.799978522350706
 31
0.0
  0
LINE
  5
A38
330
18
100
AcDbEntity
  8
1
 62
     4
100
AcDbLine
 10
21.18792291860233
 20
1.799978522350706
 30
0.0
 11
20.26213786087686
 21
2.386956627085259
 31
0.0
  0
LINE
  5
A39
330
18
100
AcDbEntity
  8
1
 62
     4
100
AcDbLine
 10
29.61855084940468
 20
-4.000276287229162
 30
0.0
 11
32.11220556741727
 21
-4.000276287229162
 31
0.0
  0
LINE
  5
A3A
330
18
100
AcDbEntity
  8
1
 62
     4
100
AcDbLine
 10
15.26930816104697
 20
-4.000276287221205
 30
0.0
 11
15.63979737933152
 21
-3.990728876654602
 31
0.0
  0
LINE
  5
A3B
330
18
100
AcDbEntity
  8
1
 62
     4
100
AcDbLine
 10
15.63979737933152
 20
-3.990728876654602
 30
0.0
 11
16.01028379151734
 21
-3.962132882441665
 31
0.0
  0
LINE
  5
A3C
330
18
100
AcDbEntity
  8
1
 62
     4
100
AcDbLine
 10
16.01028379151734
 20
-3.962132882441665
 30
0.0
 11
16.5660109358726
 21
-3.881529210496973
 31
0.0
  0
LINE
  5
A3F
330
18
100
AcDbEntity
  8
1
 62
     4
100
AcDbLine
 10
16.96662487125857
 20
-3.78110771028516
 30
0.0
 11
17.49222482577704
 21
-3.661344805548518
 31
0.0
  0
LINE
  5
A40
330
18
100
AcDbEntity
  8
1
 62
     4
100
AcDbLine
 10
17.49222482577704
 20
-3.661344805548518
 30
0.0
 11
17.86271384667715
 21
-3.541340251238898
 31
0.0
  0
LINE
  5
A41
330
18
100
AcDbEntity
  8
1
 62
     4
100
AcDbLine
 10
17.86271384667715
 20
-3.541340251238898
 30
0.0
 11
18.23320485753317
 21
-3.404431479634066
 31
0.0
  0
LINE
  5
A42
330
18
100
AcDbEntity
  8
1
 62
     4
100
AcDbLine
 10
13.17039558140903
 20
-4.000276287229162
 30
0.0
 11
15.26930816104697
 21
-4.000276287229162
 31
0.0
  0
LINE
  5
A43
330
18
100
AcDbEntity
  8
1
 62
     4
100
AcDbLine
 10
13.17039558140903
 20
-0.287279875147781
 30
0.0
 11
14.88102130887386
 21
-1.531014531977429
 31
0.0
  0
LINE
  5
A44
330
18
100
AcDbEntity
  8
1
 62
     4
100
AcDbLine
 10
14.88102130887386
 20
-1.531014531977429
 30
0.0
 11
15.93369870467774
 21
-2.222558659368409
 31
0.0
  0
LINE
  5
A45
330
18
100
AcDbEntity
  8
1
 62
     4
100
AcDbLine
 10
15.93369870467774
 20
-2.222558659368409
 30
0.0
 11
16.98638889619855
 21
-2.828709483187978
 31
0.0
  0
LINE
  5
A46
330
18
100
AcDbEntity
  8
1
 62
     4
100
AcDbLine
 10
16.98638889619855
 20
-2.828709483187978
 30
0.0
 11
17.51272522873217
 21
-3.092321710782776
 31
0.0
  0
LINE
  5
A47
330
18
100
AcDbEntity
  8
1
 62
     4
100
AcDbLine
 10
17.51272522873217
 20
-3.092321710782776
 30
0.0
 11
18.0390647596856
 21
-3.326157116536412
 31
0.0
  0
LINE
  5
A48
330
18
100
AcDbEntity
  8
1
 62
     4
100
AcDbLine
 10
18.0390647596856
 20
-3.326157116536412
 30
0.0
 11
18.56541020951362
 21
-3.527964766008439
 31
0.0
  0
LINE
  5
A49
330
18
100
AcDbEntity
  8
1
 62
     4
100
AcDbLine
 10
18.56541020951362
 20
-3.527964766008439
 30
0.0
 11
19.09175526293971
 21
-3.695798619687602
 31
0.0
  0
LINE
  5
A4A
330
18
100
AcDbEntity
  8
1
 62
     4
100
AcDbLine
 10
19.09175526293971
 20
-3.695798619687602
 30
0.0
 11
19.61809363934719
 21
-3.828040626558938
 31
0.0
  0
LINE
  5
A4B
330
18
100
AcDbEntity
  8
1
 62
     4
100
AcDbLine
 10
19.61809363934719
 20
-3.828040626558938
 30
0.0
 11
20.14443072209939
 21
-3.923418580758727
 31
0.0
  0
LINE
  5
A4C
330
18
100
AcDbEntity
  8
1
 62
     4
100
AcDbLine
 10
20.14443072209939
 20
-3.923418580758727
 30
0.0
 11
20.40760897575938
 21
-3.956984117948323
 31
0.0
  0
LINE
  5
A4D
330
18
100
AcDbEntity
  8
1
 62
     4
100
AcDbLine
 10
20.40760897575938
 20
-3.956984117948323
 30
0.0
 11
20.67077520282933
 21
-3.981015536671062
 31
0.0
  0
LINE
  5
A4E
330
18
100
AcDbEntity
  8
1
 62
     4
100
AcDbLine
 10
20.67077520282933
 20
-3.981015536671062
 30
0.0
 11
20.93394412790163
 21
-3.995458558080448
 31
0.0
  0
LINE
  5
A4F
330
18
100
AcDbEntity
  8
1
 62
     4
100
AcDbLine
 10
20.93394412790163
 20
-3.995458558080448
 30
0.0
 11
21.1971015769652
 21
-4.000276287196562
 31
0.0
  0
LINE
  5
A50
330
18
100
AcDbEntity
  8
1
 62
     4
100
AcDbLine
 10
35.07610269362688
 20
3.403878719558226
 30
0.0
 11
35.42658940909799
 21
3.533821135714971
 31
0.0
  0
LINE
  5
A51
330
18
100
AcDbEntity
  8
1
 62
     4
100
AcDbLine
 10
35.42658940909799
 20
3.533821135714971
 30
0.0
 11
35.77707507980429
 21
3.648665018809948
 31
0.0
  0
LINE
  5
A52
330
18
100
AcDbEntity
  8
1
 62
     4
100
AcDbLine
 10
35.77707507980429
 20
3.648665018809948
 30
0.0
 11
36.12756237923014
 21
3.747920565192671
 31
0.0
  0
LINE
  5
A53
330
18
100
AcDbEntity
  8
1
 62
     4
100
AcDbLine
 10
36.12756237923014
 20
3.747920565192671
 30
0.0
 11
36.47805385521043
 21
3.831163857639563
 31
0.0
  0
LINE
  5
A54
330
18
100
AcDbEntity
  8
1
 62
     4
100
AcDbLine
 10
36.47805385521043
 20
3.831163857639563
 30
0.0
 11
36.82854768160475
 21
3.898037844298126
 31
0.0
  0
LINE
  5
A55
330
18
100
AcDbEntity
  8
1
 62
     4
100
AcDbLine
 10
36.82854768160475
 20
3.898037844298126
 30
0.0
 11
37.17903658192732
 21
3.948255800367053
 31
0.0
  0
LINE
  5
A56
330
18
100
AcDbEntity
  8
1
 62
     4
100
AcDbLine
 10
37.17903658192732
 20
3.948255800367053
 30
0.0
 11
37.52952255902371
 21
3.981604545763993
 31
0.0
  0
LINE
  5
A57
330
18
100
AcDbEntity
  8
1
 62
     4
100
AcDbLine
 10
37.52952255902371
 20
3.981604545763993
 30
0.0
 11
37.90010847732915
 21
3.998879899923818
 31
0.0
  0
LINE
  5
A58
330
18
100
AcDbEntity
  8
1
 62
     4
100
AcDbLine
 10
37.10503661890014
 20
2.386954237093728
 30
0.0
 11
36.48093861813398
 21
2.743574531204707
 31
0.0
  0
LINE
  5
A59
330
18
100
AcDbEntity
  8
1
 62
     4
100
AcDbLine
 10
36.48093861813398
 20
2.743574531204707
 30
0.0
 11
35.85682491646533
 21
3.063060752193706
 31
0.0
  0
LINE
  5
A5A
330
18
100
AcDbEntity
  8
1
 62
     4
100
AcDbLine
 10
35.85682491646533
 20
3.063060752193706
 30
0.0
 11
35.23272601703208
 21
3.341074241580976
 31
0.0
  0
LINE
  5
A5B
330
18
100
AcDbEntity
  8
1
 62
     4
100
AcDbLine
 10
35.23272601703208
 20
3.341074241580976
 30
0.0
 11
34.60861267233988
 21
3.573864548537858
 31
0.0
  0
LINE
  5
A5C
330
18
100
AcDbEntity
  8
1
 62
     4
100
AcDbLine
 10
34.60861267233988
 20
3.573864548537858
 30
0.0
 11
34.29656421297797
 21
3.672286134871106
 31
0.0
  0
LINE
  5
A5D
330
18
100
AcDbEntity
  8
1
 62
     4
100
AcDbLine
 10
34.29656421297797
 20
3.672286134871106
 30
0.0
 11
34.14988398373116
 21
3.712703560846024
 31
0.0
  0
LINE
  5
A5E
330
18
100
AcDbEntity
  8
1
 62
     4
100
AcDbLine
 10
33.7492700483452
 20
3.813494727398177
 30
0.0
 11
33.6724526715164
 21
3.831527690417022
 31
0.0
  0
LINE
  5
A5F
330
18
100
AcDbEntity
  8
1
 62
     4
100
AcDbLine
 10
33.6724526715164
 20
3.831527690417022
 30
0.0
 11
33.36040094816266
 21
3.891803976285482
 31
0.0
  0
LINE
  5
A60
330
18
100
AcDbEntity
  8
1
 62
     4
100
AcDbLine
 10
33.36040094816266
 20
3.891803976285482
 30
0.0
 11
33.04835267402428
 21
3.938898406305657
 31
0.0
  0
LINE
  5
A61
330
18
100
AcDbEntity
  8
1
 62
     4
100
AcDbLine
 10
33.04835267402428
 20
3.938898406305657
 30
0.0
 11
32.73629886924254
 21
3.972652668751721
 31
0.0
  0
LINE
  5
A62
330
18
100
AcDbEntity
  8
1
 62
     4
100
AcDbLine
 10
32.73629886924254
 20
3.972652668751721
 30
0.0
 11
32.42423997066879
 21
3.9929505124752
 31
0.0
  0
LINE
  5
A63
330
18
100
AcDbEntity
  8
1
 62
     4
100
AcDbLine
 10
32.42423997066879
 20
3.9929505124752
 30
0.0
 11
32.11220556741648
 21
3.999723712770835
 31
0.0
  0
LINE
  5
A64
330
18
100
AcDbEntity
  8
1
 62
     4
100
AcDbLine
 10
26.65465402304004
 20
3.403878868437617
 30
0.0
 11
27.02514165109397
 21
3.540786224483714
 31
0.0
  0
LINE
  5
A65
330
18
100
AcDbEntity
  8
1
 62
     4
100
AcDbLine
 10
27.02514165109397
 20
3.540786224483714
 30
0.0
 11
27.39562853114474
 21
3.660790050954985
 31
0.0
  0
LINE
  5
A66
330
18
100
AcDbEntity
  8
1
 62
     4
100
AcDbLine
 10
27.39562853114474
 20
3.660790050954985
 30
0.0
 11
27.76611565981891
 21
3.763317956968133
 31
0.0
  0
LINE
  5
A67
330
18
100
AcDbEntity
  8
1
 62
     4
100
AcDbLine
 10
27.76611565981891
 20
3.763317956968133
 30
0.0
 11
28.13660412795159
 21
3.847880623709345
 31
0.0
  0
LINE
  5
A68
330
18
100
AcDbEntity
  8
1
 62
     4
100
AcDbLine
 10
28.13660412795159
 20
3.847880623709345
 30
0.0
 11
28.50709498824168
 21
3.914074219792303
 31
0.0
  0
LINE
  5
A69
330
18
100
AcDbEntity
  8
1
 62
     4
100
AcDbLine
 10
28.50709498824168
 20
3.914074219792303
 30
0.0
 11
28.87758847514909
 21
3.961582259702682
 31
0.0
  0
LINE
  5
A6A
330
18
100
AcDbEntity
  8
1
 62
     4
100
AcDbLine
 10
28.87758847514909
 20
3.961582259702682
 30
0.0
 11
29.24807974141901
 21
3.990177234202396
 31
0.0
  0
LINE
  5
A6B
330
18
100
AcDbEntity
  8
1
 62
     4
100
AcDbLine
 10
29.24807974141901
 20
3.990177234202396
 30
0.0
 11
29.61855084940534
 21
3.999723712770835
 31
0.0
  0
LINE
  5
A6C
330
18
100
AcDbEntity
  8
1
 62
     4
100
AcDbLine
 10
28.68358706776009
 20
2.38695605604584
 30
0.0
 11
28.05948490834449
 21
2.743576593629469
 31
0.0
  0
LINE
  5
A6D
330
18
100
AcDbEntity
  8
1
 62
     4
100
AcDbLine
 10
28.05948490834449
 20
2.743576593629469
 30
0.0
 11
27.43537364147075
 21
3.063061505261681
 31
0.0
  0
LINE
  5
A6E
330
18
100
AcDbEntity
  8
1
 62
     4
100
AcDbLine
 10
27.43537364147075
 20
3.063061505261681
 30
0.0
 11
26.81127411806193
 21
3.341074841003057
 31
0.0
  0
LINE
  5
A6F
330
18
100
AcDbEntity
  8
1
 62
     4
100
AcDbLine
 10
26.81127411806193
 20
3.341074841003057
 30
0.0
 11
26.18716159358977
 21
3.573865404617488
 31
0.0
  0
LINE
  5
A70
330
18
100
AcDbEntity
  8
1
 62
     4
100
AcDbLine
 10
26.18716159358977
 20
3.573865404617488
 30
0.0
 11
25.84605738392746
 21
3.685091397522576
 31
0.0
  0
LINE
  5
A73
330
18
100
AcDbEntity
  8
1
 62
     4
100
AcDbLine
 10
25.44544344854149
 20
3.785882564074732
 30
0.0
 11
24.93895031995246
 21
3.891804522875595
 31
0.0
  0
LINE
  5
A74
330
18
100
AcDbEntity
  8
1
 62
     4
100
AcDbLine
 10
24.93895031995246
 20
3.891804522875595
 30
0.0
 11
24.62690153089286
 21
3.93889852940314
 31
0.0
  0
LINE
  5
A75
330
18
100
AcDbEntity
  8
1
 62
     4
100
AcDbLine
 10
24.62690153089286
 20
3.93889852940314
 30
0.0
 11
24.31485207646322
 21
3.972652308994693
 31
0.0
  0
LINE
  5
A76
330
18
100
AcDbEntity
  8
1
 62
     4
100
AcDbLine
 10
24.31485207646322
 20
3.972652308994693
 30
0.0
 11
24.00279275213428
 21
3.992950620975524
 31
0.0
  0
LINE
  5
A77
330
18
100
AcDbEntity
  8
1
 62
     4
100
AcDbLine
 10
24.00279275213428
 20
3.992950620975524
 30
0.0
 11
23.69075727816374
 21
3.999723712770835
 31
0.0
  0
LINE
  5
A78
330
18
100
AcDbEntity
  8
1
 62
     4
100
AcDbLine
 10
21.19710157696514
 20
-0.0002762872288407
 30
0.0
 11
19.09173319798835
 21
1.53046153399623
 31
0.0
  0
LINE
  5
A79
330
18
100
AcDbEntity
  8
1
 62
     4
100
AcDbLine
 10
19.09173319798835
 20
1.53046153399623
 30
0.0
 11
18.03905625752991
 21
2.222005503296874
 31
0.0
  0
LINE
  5
A7A
330
18
100
AcDbEntity
  8
1
 62
     4
100
AcDbLine
 10
18.03905625752991
 20
2.222005503296874
 30
0.0
 11
16.9565234834525
 21
2.830953829019565
 31
0.0
  0
LINE
  5
A7B
330
18
100
AcDbEntity
  8
1
 62
     4
100
AcDbLine
 10
16.55590954806654
 20
3.043747880053833
 30
0.0
 11
16.46002939757458
 21
3.091768859714478
 31
0.0
  0
LINE
  5
A7C
330
18
100
AcDbEntity
  8
1
 62
     4
100
AcDbLine
 10
16.46002939757458
 20
3.091768859714478
 30
0.0
 11
15.9336903458439
 21
3.325604081006544
 31
0.0
  0
LINE
  5
A7D
330
18
100
AcDbEntity
  8
1
 62
     4
100
AcDbLine
 10
15.9336903458439
 20
3.325604081006544
 30
0.0
 11
15.40734510337221
 21
3.527411712491232
 31
0.0
  0
LINE
  5
A7E
330
18
100
AcDbEntity
  8
1
 62
     4
100
AcDbLine
 10
15.40734510337221
 20
3.527411712491232
 30
0.0
 11
14.8809999432723
 21
3.695245664315366
 31
0.0
  0
LINE
  5
A7F
330
18
100
AcDbEntity
  8
1
 62
     4
100
AcDbLine
 10
14.8809999432723
 20
3.695245664315366
 30
0.0
 11
14.35466112593873
 21
3.827487852823022
 31
0.0
  0
LINE
  5
A80
330
18
100
AcDbEntity
  8
1
 62
     4
100
AcDbLine
 10
14.35466112593873
 20
3.827487852823022
 30
0.0
 11
13.82832452538845
 21
3.922865835365066
 31
0.0
  0
LINE
  5
A81
330
18
100
AcDbEntity
  8
1
 62
     4
100
AcDbLine
 10
13.82832452538845
 20
3.922865835365066
 30
0.0
 11
13.56514626994987
 21
3.956431388960403
 31
0.0
  0
LINE
  5
A82
330
18
100
AcDbEntity
  8
1
 62
     4
100
AcDbLine
 10
13.56514626994987
 20
3.956431388960403
 30
0.0
 11
13.30198030054645
 21
3.980462848354747
 31
0.0
  0
LINE
  5
A83
330
18
100
AcDbEntity
  8
1
 62
     4
100
AcDbLine
 10
13.30198030054645
 20
3.980462848354747
 30
0.0
 11
13.17039558140903
 21
3.999723712770835
 31
0.0
  0
LINE
  5
A84
330
18
100
AcDbEntity
  8
1
 62
     4
100
AcDbLine
 10
20.26213786087686
 20
2.386956627085259
 30
0.0
 11
19.63803352172024
 21
2.74357801013248
 31
0.0
  0
LINE
  5
A85
330
18
100
AcDbEntity
  8
1
 62
     4
100
AcDbLine
 10
19.63803352172024
 20
2.74357801013248
 30
0.0
 11
19.01392409206399
 21
3.063061766715283
 31
0.0
  0
LINE
  5
A86
330
18
100
AcDbEntity
  8
1
 62
     4
100
AcDbLine
 10
19.01392409206399
 20
3.063061766715283
 30
0.0
 11
18.38982343193604
 21
3.341075436545078
 31
0.0
  0
LINE
  5
A87
330
18
100
AcDbEntity
  8
1
 62
     4
100
AcDbLine
 10
18.38982343193604
 20
3.341075436545078
 30
0.0
 11
17.76571183859538
 21
3.573865425317117
 31
0.0
  0
LINE
  5
A88
330
18
100
AcDbEntity
  8
1
 62
     4
100
AcDbLine
 10
17.76571183859538
 20
3.573865425317117
 30
0.0
 11
17.45366140687212
 21
3.672287489999247
 31
0.0
  0
LINE
  5
A89
330
18
100
AcDbEntity
  8
1
 62
     4
100
AcDbLine
 10
17.45366140687212
 20
3.672287489999247
 30
0.0
 11
16.9565234834525
 21
3.781996925462415
 31
0.0
  0
LINE
  5
A8C
330
18
100
AcDbEntity
  8
1
 62
     4
100
AcDbLine
 10
16.55590954806654
 20
3.882788092014573
 30
0.0
 11
16.20545183846724
 21
3.938898639118613
 31
0.0
  0
LINE
  5
A8D
330
18
100
AcDbEntity
  8
1
 62
     4
100
AcDbLine
 10
16.20545183846724
 20
3.938898639118613
 30
0.0
 11
15.89340302034123
 21
3.972652120470151
 31
0.0
  0
LINE
  5
A8E
330
18
100
AcDbEntity
  8
1
 62
     4
100
AcDbLine
 10
15.89340302034123
 20
3.972652120470151
 30
0.0
 11
15.58134557669525
 21
3.992950578518538
 31
0.0
  0
LINE
  5
A8F
330
18
100
AcDbEntity
  8
1
 62
     4
100
AcDbLine
 10
15.58134557669525
 20
3.992950578518538
 30
0.0
 11
15.2693081610435
 21
3.999723712770835
 31
0.0
  0
LINE
  5
A90
330
18
100
AcDbEntity
  8
1
 62
     4
100
AcDbLine
 10
35.07610302051543
 20
-3.404431165949708
 30
0.0
 11
34.70561596974555
 21
-3.541338481457781
 31
0.0
  0
LINE
  5
A91
330
18
100
AcDbEntity
  8
1
 62
     4
100
AcDbLine
 10
34.70561596974555
 20
-3.541338481457781
 30
0.0
 11
34.33512833959718
 21
-3.661342682813763
 31
0.0
  0
LINE
  5
A92
330
18
100
AcDbEntity
  8
1
 62
     4
100
AcDbLine
 10
34.33512833959718
 20
-3.661342682813763
 30
0.0
 11
34.14988398373115
 21
-3.712607018032908
 31
0.0
  0
LINE
  5
A93
330
18
100
AcDbEntity
  8
1
 62
     4
100
AcDbLine
 10
33.7492700483452
 20
-3.813028518244723
 30
0.0
 11
33.59414792346558
 21
-3.848434465099968
 31
0.0
  0
LINE
  5
A94
330
18
100
AcDbEntity
  8
1
 62
     4
100
AcDbLine
 10
33.59414792346558
 20
-3.848434465099968
 30
0.0
 11
33.22365389645834
 21
-3.91462793703209
 31
0.0
  0
LINE
  5
A95
330
18
100
AcDbEntity
  8
1
 62
     4
100
AcDbLine
 10
33.22365389645834
 20
-3.91462793703209
 30
0.0
 11
32.85316320042783
 21
-3.962135124776961
 31
0.0
  0
LINE
  5
A96
330
18
100
AcDbEntity
  8
1
 62
     4
100
AcDbLine
 10
32.85316320042783
 20
-3.962135124776961
 30
0.0
 11
32.48267454321818
 21
-3.990729638608008
 31
0.0
  0
LINE
  5
A97
330
18
100
AcDbEntity
  8
1
 62
     4
100
AcDbLine
 10
32.48267454321818
 20
-3.990729638608008
 30
0.0
 11
32.11220556741727
 21
-4.000276287227901
 31
0.0
  0
LINE
  5
A98
330
18
100
AcDbEntity
  8
1
 62
     4
100
AcDbLine
 10
29.61855084940593
 20
-0.0002762872301026
 30
0.0
 11
27.51318201532134
 21
1.530461864890606
 31
0.0
  0
LINE
  5
A99
330
18
100
AcDbEntity
  8
1
 62
     4
100
AcDbLine
 10
27.51318201532134
 20
1.530461864890606
 30
0.0
 11
25.84605738392746
 21
2.593694699827453
 31
0.0
  0
LINE
  5
A9B
330
18
100
AcDbEntity
  8
1
 62
     4
100
AcDbLine
 10
25.44543800722864
 20
2.806491433820648
 30
0.0
 11
24.88147967804203
 21
3.091768275930321
 31
0.0
  0
LINE
  5
A9C
330
18
100
AcDbEntity
  8
1
 62
     4
100
AcDbLine
 10
24.88147967804203
 20
3.091768275930321
 30
0.0
 11
24.35513893960143
 21
3.325604253923348
 31
0.0
  0
LINE
  5
A9D
330
18
100
AcDbEntity
  8
1
 62
     4
100
AcDbLine
 10
24.35513893960143
 20
3.325604253923348
 30
0.0
 11
23.82879334987403
 21
3.527412062659524
 31
0.0
  0
LINE
  5
A9E
330
18
100
AcDbEntity
  8
1
 62
     4
100
AcDbLine
 10
23.82879334987403
 20
3.527412062659524
 30
0.0
 11
23.30244923193737
 21
3.695245746691683
 31
0.0
  0
LINE
  5
A9F
330
18
100
AcDbEntity
  8
1
 62
     4
100
AcDbLine
 10
23.30244923193737
 20
3.695245746691683
 30
0.0
 11
22.77611270930077
 21
3.82748735722936
 31
0.0
  0
LINE
  5
AA0
330
18
100
AcDbEntity
  8
1
 62
     4
100
AcDbLine
 10
22.77611270930077
 20
3.82748735722936
 30
0.0
 11
22.24977421233663
 21
3.922865661891508
 31
0.0
  0
LINE
  5
AA1
330
18
100
AcDbEntity
  8
1
 62
     4
100
AcDbLine
 10
22.24977421233663
 20
3.922865661891508
 30
0.0
 11
21.98659668494943
 21
3.956431347398736
 31
0.0
  0
LINE
  5
AA2
330
18
100
AcDbEntity
  8
1
 62
     4
100
AcDbLine
 10
21.98659668494943
 20
3.956431347398736
 30
0.0
 11
21.72342934542168
 21
3.980462850999606
 31
0.0
  0
LINE
  5
AA3
330
18
100
AcDbEntity
  8
1
 62
     4
100
AcDbLine
 10
21.72342934542168
 20
3.980462850999606
 30
0.0
 11
21.4602622960046
 21
3.994905828451146
 31
0.0
  0
LINE
  5
AA4
330
18
100
AcDbEntity
  8
1
 62
     4
100
AcDbLine
 10
21.4602622960046
 20
3.994905828451146
 30
0.0
 11
21.19710157696498
 21
3.999723712770835
 31
0.0
  0
LINE
  5
AA5
330
18
100
AcDbEntity
  8
1
 62
     4
100
AcDbLine
 10
18.23320466294202
 20
3.40387882893889
 30
0.0
 11
18.60369239225657
 21
3.540786202753475
 31
0.0
  0
LINE
  5
AA6
330
18
100
AcDbEntity
  8
1
 62
     4
100
AcDbLine
 10
18.60369239225657
 20
3.540786202753475
 30
0.0
 11
18.97417926895997
 21
3.660790040236879
 31
0.0
  0
LINE
  5
AA7
330
18
100
AcDbEntity
  8
1
 62
     4
100
AcDbLine
 10
18.97417926895997
 20
3.660790040236879
 30
0.0
 11
19.34466638408272
 21
3.763317912940828
 31
0.0
  0
LINE
  5
AA8
330
18
100
AcDbEntity
  8
1
 62
     4
100
AcDbLine
 10
19.34466638408272
 20
3.763317912940828
 30
0.0
 11
19.71515472261273
 21
3.847880571259477
 31
0.0
  0
LINE
  5
AA9
330
18
100
AcDbEntity
  8
1
 62
     4
100
AcDbLine
 10
19.71515472261273
 20
3.847880571259477
 30
0.0
 11
20.08564539807277
 21
3.91407416242729
 31
0.0
  0
LINE
  5
AAA
330
18
100
AcDbEntity
  8
1
 62
     4
100
AcDbLine
 10
20.08564539807277
 20
3.91407416242729
 30
0.0
 11
20.45613889567428
 21
3.961582221390091
 31
0.0
  0
LINE
  5
AAB
330
18
100
AcDbEntity
  8
1
 62
     4
100
AcDbLine
 10
20.45613889567428
 20
3.961582221390091
 30
0.0
 11
20.82663032205848
 21
3.990177239299306
 31
0.0
  0
LINE
  5
AAC
330
18
100
AcDbEntity
  8
1
 62
     4
100
AcDbLine
 10
20.82663032205848
 20
3.990177239299306
 30
0.0
 11
21.19710157696499
 21
3.999723712770835
 31
0.0
  0
LINE
  5
AAD
330
18
100
AcDbEntity
  8
1
 62
     4
100
AcDbLine
 10
5.999999999999997
 20
3.999723712770835
 30
0.0
 11
7.113525062103237
 21
3.999723712770835
 31
0.0
  0
LINE
  5
AAE
330
18
100
AcDbEntity
  8
1
 62
     4
100
AcDbLine
 10
13.29947252947322
 20
3.995087068659496
 30
0.0
 11
13.04131863334485
 21
3.999723712770835
 31
0.0
  0
LINE
  5
AAF
330
18
100
AcDbEntity
  8
1
 62
     4
100
AcDbLine
 10
13.17039558140903
 20
1.515803056765764
 30
0.0
 11
12.10635485169958
 21
2.386956056045836
 31
0.0
  0
LINE
  5
AB4
330
18
100
AcDbEntity
  8
1
 62
     4
100
AcDbLine
 10
5.999999999999997
 20
-3.913895485970265
 30
0.0
 11
6.017526593062004
 21
-3.916984168042935
 31
0.0
  0
LINE
  5
AB5
330
18
100
AcDbEntity
  8
1
 62
     4
100
AcDbLine
 10
6.017526593062004
 20
-3.916984168042935
 30
0.0
 11
6.382867062664388
 21
-3.963186792354493
 31
0.0
  0
LINE
  5
AB6
330
18
100
AcDbEntity
  8
1
 62
     4
100
AcDbLine
 10
6.382867062664388
 20
-3.963186792354493
 30
0.0
 11
6.748207757588231
 21
-3.990993557785528
 31
0.0
  0
LINE
  5
AB7
330
18
100
AcDbEntity
  8
1
 62
     4
100
AcDbLine
 10
6.748207757588231
 20
-3.990993557785528
 30
0.0
 11
7.113525062133049
 21
-4.000276287188691
 31
0.0
  0
LINE
  5
AB8
330
18
100
AcDbEntity
  8
1
 62
     4
100
AcDbLine
 10
7.113525062133049
 20
-4.000276287188691
 30
0.0
 11
7.484013803611728
 21
-3.990728849009863
 31
0.0
  0
LINE
  5
AB9
330
18
100
AcDbEntity
  8
1
 62
     4
100
AcDbLine
 10
7.484013803611728
 20
-3.990728849009863
 30
0.0
 11
7.854500420938146
 21
-3.962132944747325
 31
0.0
  0
LINE
  5
ABA
330
18
100
AcDbEntity
  8
1
 62
     4
100
AcDbLine
 10
7.854500420938146
 20
-3.962132944747325
 30
0.0
 11
8.224985331767726
 21
-3.9146254684051
 31
0.0
  0
LINE
  5
ABB
330
18
100
AcDbEntity
  8
1
 62
     4
100
AcDbLine
 10
8.224985331767726
 20
-3.9146254684051
 30
0.0
 11
8.5954694861208
 21
-3.848433156147113
 31
0.0
  0
LINE
  5
ABC
330
18
100
AcDbEntity
  8
1
 62
     4
100
AcDbLine
 10
8.5954694861208
 20
-3.848433156147113
 30
0.0
 11
8.965954706011286
 21
-3.763872013253936
 31
0.0
  0
LINE
  5
ABD
330
18
100
AcDbEntity
  8
1
 62
     4
100
AcDbLine
 10
8.965954706011286
 20
-3.763872013253936
 30
0.0
 11
9.336441154001992
 21
-3.661344765237586
 31
0.0
  0
LINE
  5
ABE
330
18
100
AcDbEntity
  8
1
 62
     4
100
AcDbLine
 10
9.336441154001992
 20
-3.661344765237586
 30
0.0
 11
9.706930632450278
 21
-3.541340288089756
 31
0.0
  0
LINE
  5
ABF
330
18
100
AcDbEntity
  8
1
 62
     4
100
AcDbLine
 10
9.706930632450278
 20
-3.541340288089756
 30
0.0
 11
10.07742188495018
 21
-3.404431815081906
 31
0.0
  0
LINE
  5
AC0
330
18
100
AcDbEntity
  8
1
 62
     4
100
AcDbLine
 10
5.999999999999997
 20
-4.000276287229162
 30
0.0
 11
7.113525062133049
 21
-4.000276287229162
 31
0.0
  0
LINE
  5
AC1
330
18
100
AcDbEntity
  8
1
 62
     4
100
AcDbLine
 10
13.17039558140903
 20
-4.000276287229162
 30
0.0
 11
12.77814607168518
 21
-3.99545737085758
 31
0.0
  0
LINE
  5
AC2
330
18
100
AcDbEntity
  8
1
 62
     4
100
AcDbLine
 10
12.77814607168518
 20
-3.99545737085758
 30
0.0
 11
12.51498101140048
 21
-3.981015076186068
 31
0.0
  0
LINE
  5
AC3
330
18
100
AcDbEntity
  8
1
 62
     4
100
AcDbLine
 10
12.51498101140048
 20
-3.981015076186068
 30
0.0
 11
12.25180237851823
 21
-3.956981531513038
 31
0.0
  0
LINE
  5
AC4
330
18
100
AcDbEntity
  8
1
 62
     4
100
AcDbLine
 10
12.25180237851823
 20
-3.956981531513038
 30
0.0
 11
11.98863616801981
 21
-3.923416531679876
 31
0.0
  0
LINE
  5
AC5
330
18
100
AcDbEntity
  8
1
 62
     4
100
AcDbLine
 10
11.98863616801981
 20
-3.923416531679876
 30
0.0
 11
11.46229009561756
 21
-3.828035642848603
 31
0.0
  0
LINE
  5
AC6
330
18
100
AcDbEntity
  8
1
 62
     4
100
AcDbLine
 10
11.46229009561756
 20
-3.828035642848603
 30
0.0
 11
10.93594880228099
 21
-3.695792224712155
 31
0.0
  0
LINE
  5
AC7
330
18
100
AcDbEntity
  8
1
 62
     4
100
AcDbLine
 10
10.93594880228099
 20
-3.695792224712155
 30
0.0
 11
10.4096131609667
 21
-3.527960312501537
 31
0.0
  0
LINE
  5
AC8
330
18
100
AcDbEntity
  8
1
 62
     4
100
AcDbLine
 10
10.4096131609667
 20
-3.527960312501537
 30
0.0
 11
9.883270087166515
 21
-3.326152133046136
 31
0.0
  0
LINE
  5
AC9
330
18
100
AcDbEntity
  8
1
 62
     4
100
AcDbLine
 10
9.883270087166515
 20
-3.326152133046136
 30
0.0
 11
9.356923897438552
 21
-3.092312571191623
 31
0.0
  0
LINE
  5
ACA
330
18
100
AcDbEntity
  8
1
 62
     4
100
AcDbLine
 10
9.356923897438552
 20
-3.092312571191623
 30
0.0
 11
8.830580740543785
 21
-2.828696323099169
 31
0.0
  0
LINE
  5
ACB
330
18
100
AcDbEntity
  8
1
 62
     4
100
AcDbLine
 10
8.830580740543785
 20
-2.828696323099169
 30
0.0
 11
8.304245218781343
 21
-2.53784467648473
 31
0.0
  0
LINE
  5
ACC
330
18
100
AcDbEntity
  8
1
 62
     4
100
AcDbLine
 10
8.304245218781343
 20
-2.53784467648473
 30
0.0
 11
7.251558391859449
 21
-1.885853794772707
 31
0.0
  0
LINE
  5
ACD
330
18
100
AcDbEntity
  8
1
 62
     4
100
AcDbLine
 10
7.251558391859449
 20
-1.885853794772707
 30
0.0
 11
6.198877253158221
 21
-1.161405073378168
 31
0.0
  0
LINE
  5
ACE
330
18
100
AcDbEntity
  8
1
 62
     4
100
AcDbLine
 10
6.198877253158221
 20
-1.161405073378168
 30
0.0
 11
5.999999999999997
 21
-1.015160013625648
 31
0.0
  0
LINE
  5
ACF
330
18
100
AcDbEntity
  8
1
 62
     4
100
AcDbLine
 10
13.17039558140903
 20
-3.696380550770081
 30
0.0
 11
12.20213322890569
 21
-3.251945063498922
 31
0.0
  0
LINE
  5
AD0
330
18
100
AcDbEntity
  8
1
 62
     4
100
AcDbLine
 10
12.20213322890569
 20
-3.251945063498922
 30
0.0
 11
11.46150678996483
 21
-2.900180819482498
 31
0.0
  0
LINE
  5
AD1
330
18
100
AcDbEntity
  8
1
 62
     4
100
AcDbLine
 10
11.46150678996483
 20
-2.900180819482498
 30
0.0
 11
10.72087894772486
 21
-2.493162891381923
 31
0.0
  0
LINE
  5
AD2
330
18
100
AcDbEntity
  8
1
 62
     4
100
AcDbLine
 10
10.72087894772486
 20
-2.493162891381923
 30
0.0
 11
9.980242209497072
 21
-2.038640621111603
 31
0.0
  0
LINE
  5
AD3
330
18
100
AcDbEntity
  8
1
 62
     4
100
AcDbLine
 10
9.980242209497072
 20
-2.038640621111603
 30
0.0
 11
8.49898470978408
 21
-1.022491690589488
 31
0.0
  0
LINE
  5
AD4
330
18
100
AcDbEntity
  8
1
 62
     4
100
AcDbLine
 10
8.49898470978408
 20
-1.022491690589488
 30
0.0
 11
7.017749763449161
 21
0.0711768077417638
 31
0.0
  0
LINE
  5
AD5
330
18
100
AcDbEntity
  8
1
 62
     4
100
AcDbLine
 10
7.017749763449161
 20
0.0711768077417638
 30
0.0
 11
5.999999999999997
 21
0.8189074060856336
 31
0.0
  0
LINE
  5
AD9
330
18
100
AcDbEntity
  8
1
 62
     4
100
AcDbLine
 10
10.07742180697955
 20
3.403878868437614
 30
0.0
 11
10.44790943503348
 21
3.540786224483714
 31
0.0
  0
LINE
  5
ADA
330
18
100
AcDbEntity
  8
1
 62
     4
100
AcDbLine
 10
10.44790943503348
 20
3.540786224483714
 30
0.0
 11
10.81839631508426
 21
3.66079005095498
 31
0.0
  0
LINE
  5
ADB
330
18
100
AcDbEntity
  8
1
 62
     4
100
AcDbLine
 10
10.81839631508426
 20
3.66079005095498
 30
0.0
 11
11.18888344375842
 21
3.763317956968133
 31
0.0
  0
LINE
  5
ADC
330
18
100
AcDbEntity
  8
1
 62
     4
100
AcDbLine
 10
11.18888344375842
 20
3.763317956968133
 30
0.0
 11
11.5593719118911
 21
3.847880623709345
 31
0.0
  0
LINE
  5
ADD
330
18
100
AcDbEntity
  8
1
 62
     4
100
AcDbLine
 10
11.5593719118911
 20
3.847880623709345
 30
0.0
 11
11.92986277218119
 21
3.914074219792303
 31
0.0
  0
LINE
  5
ADE
330
18
100
AcDbEntity
  8
1
 62
     4
100
AcDbLine
 10
11.92986277218119
 20
3.914074219792303
 30
0.0
 11
12.30035625908861
 21
3.961582259702682
 31
0.0
  0
LINE
  5
ADF
330
18
100
AcDbEntity
  8
1
 62
     4
100
AcDbLine
 10
12.30035625908861
 20
3.961582259702682
 30
0.0
 11
12.67084752535852
 21
3.990177234202396
 31
0.0
  0
LINE
  5
AE0
330
18
100
AcDbEntity
  8
1
 62
     4
100
AcDbLine
 10
12.67084752535852
 20
3.990177234202396
 30
0.0
 11
13.04131863334485
 21
3.999723712770835
 31
0.0
  0
LINE
  5
AE1
330
18
100
AcDbEntity
  8
1
 62
     4
100
AcDbLine
 10
12.10635485169959
 20
2.38695605604584
 30
0.0
 11
11.482252692284
 21
2.743576593629469
 31
0.0
  0
LINE
  5
AE2
330
18
100
AcDbEntity
  8
1
 62
     4
100
AcDbLine
 10
11.482252692284
 20
2.743576593629469
 30
0.0
 11
10.85814142541025
 21
3.063061505261676
 31
0.0
  0
LINE
  5
AE3
330
18
100
AcDbEntity
  8
1
 62
     4
100
AcDbLine
 10
10.85814142541025
 20
3.063061505261676
 30
0.0
 11
10.23404190200143
 21
3.341074841003057
 31
0.0
  0
LINE
  5
AE4
330
18
100
AcDbEntity
  8
1
 62
     4
100
AcDbLine
 10
10.23404190200143
 20
3.341074841003057
 30
0.0
 11
9.609929377529278
 21
3.573865404617488
 31
0.0
  0
LINE
  5
AE5
330
18
100
AcDbEntity
  8
1
 62
     4
100
AcDbLine
 10
9.609929377529278
 20
3.573865404617488
 30
0.0
 11
9.297879613841679
 21
3.672287118821782
 31
0.0
  0
LINE
  5
AE6
330
18
100
AcDbEntity
  8
1
 62
     4
100
AcDbLine
 10
9.297879613841679
 20
3.672287118821782
 30
0.0
 11
8.985830999865031
 21
3.758270932903408
 31
0.0
  0
LINE
  5
AE7
330
18
100
AcDbEntity
  8
1
 62
     4
100
AcDbLine
 10
8.985830999865031
 20
3.758270932903408
 30
0.0
 11
8.673774088268167
 21
3.831527158264896
 31
0.0
  0
LINE
  5
AE8
330
18
100
AcDbEntity
  8
1
 62
     4
100
AcDbLine
 10
8.673774088268167
 20
3.831527158264896
 30
0.0
 11
8.361718103891965
 21
3.891804522875595
 31
0.0
  0
LINE
  5
AE9
330
18
100
AcDbEntity
  8
1
 62
     4
100
AcDbLine
 10
8.361718103891965
 20
3.891804522875595
 30
0.0
 11
8.066989582977548
 21
3.936284576554464
 31
0.0
  0
LINE
  5
AEB
330
18
100
AcDbEntity
  8
1
 62
     4
100
AcDbLine
 10
7.666375647591585
 20
3.977286483158785
 30
0.0
 11
7.425560536073789
 21
3.992950620975524
 31
0.0
  0
LINE
  5
AEC
330
18
100
AcDbEntity
  8
1
 62
     4
100
AcDbLine
 10
7.425560536073789
 20
3.992950620975524
 30
0.0
 11
7.113525062103248
 21
3.999723712770828
 31
0.0
  0
LINE
  5
AED
330
18
100
AcDbEntity
  8
1
 62
     4
100
AcDbLine
 10
13.17039558140903
 20
-0.287279875147781
 30
0.0
 11
10.93594979926086
 21
1.530461864890606
 31
0.0
  0
LINE
  5
AEE
330
18
100
AcDbEntity
  8
1
 62
     4
100
AcDbLine
 10
10.93594979926086
 20
1.530461864890606
 30
0.0
 11
9.883271582769056
 21
2.222006464727037
 31
0.0
  0
LINE
  5
AEF
330
18
100
AcDbEntity
  8
1
 62
     4
100
AcDbLine
 10
9.883271582769056
 20
2.222006464727037
 30
0.0
 11
8.830582734559648
 21
2.828156605896408
 31
0.0
  0
LINE
  5
AF0
330
18
100
AcDbEntity
  8
1
 62
     4
100
AcDbLine
 10
8.830582734559648
 20
2.828156605896408
 30
0.0
 11
8.304247461981541
 21
3.091768275930321
 31
0.0
  0
LINE
  5
AF1
330
18
100
AcDbEntity
  8
1
 62
     4
100
AcDbLine
 10
8.304247461981541
 20
3.091768275930321
 30
0.0
 11
8.066989582977548
 21
3.197174192899279
 31
0.0
  0
LINE
  5
AF2
330
18
100
AcDbEntity
  8
1
 62
     4
100
AcDbLine
 10
7.666375647591585
 20
3.368366732573515
 30
0.0
 11
7.251561133813535
 21
3.527412062659524
 31
0.0
  0
LINE
  5
AF3
330
18
100
AcDbEntity
  8
1
 62
     4
100
AcDbLine
 10
7.251561133813535
 20
3.527412062659524
 30
0.0
 11
6.725217015876878
 21
3.695245746691683
 31
0.0
  0
LINE
  5
AF4
330
18
100
AcDbEntity
  8
1
 62
     4
100
AcDbLine
 10
6.725217015876878
 20
3.695245746691683
 30
0.0
 11
6.198880493240282
 21
3.82748735722936
 31
0.0
  0
LINE
  5
AF5
330
18
100
AcDbEntity
  8
1
 62
     4
100
AcDbLine
 10
6.198880493240282
 20
3.82748735722936
 30
0.0
 11
6.0
 21
3.863526682464053
 31
0.0
  0
DIMENSION
  5
AFF
330
18
100
AcDbEntity
  8
2
100
AcDbDimension
  2
*D5
 10
45.90054911701805
 20
-3.999302527994055
 30
0.0
 11
45.90054911701805
 21
-0.1841540123332095
 31
0.0
 70
   160
  1
%%c<>
 71
     5
 42
7.998182427917871
  3
STANDARD
100
AcDbAlignedDimension
 13
37.92847956699509
 23
3.998879899923818
 33
0.0
 14
37.90008074236846
 24
-3.999302527994053
 34
0.0
 50
90.00000000000019
100
AcDbRotatedDimension
  0
DIMENSION
  5
B00
330
18
100
AcDbEntity
  8
2
100
AcDbDimension
  2
*D6
 10
38.0
 20
19.85237863121776
 30
0.0
 11
52.54166666666666
 21
22.22737863121776
 31
0.0
 70
    32
  1
0.1x45°
 71
     5
 42
0.0998915226708519
  3
STANDARD
100
AcDbAlignedDimension
 13
37.90010847732915
 23
3.998879899923818
 33
0.0
 14
38.0
 24
3.998879899923818
 34
0.0
100
AcDbRotatedDimension
  0
LINE
  5
BD8
330
18
100
AcDbEntity
  8
1
 62
     4
100
AcDbLine
 10
34.14988398373115
 20
3.712703560846021
 30
0.0
 11
34.14988398373115
 21
2.657248274892985
 31
0.0
  0
LINE
  5
BD9
330
18
100
AcDbEntity
  8
1
 62
     4
100
AcDbLine
 10
33.7492700483452
 20
3.813494727398177
 30
0.0
 11
33.7492700483452
 21
2.870042325927256
 31
0.0
  0
LINE
  5
BDD
330
18
100
AcDbEntity
  8
1
 62
     4
100
AcDbLine
 10
34.14988398373115
 20
3.712703560846021
 30
0.0
 11
34.04748286190761
 21
3.623715335831046
 31
0.0
  0
LINE
  5
BDE
330
18
100
AcDbEntity
  8
1
 62
     4
100
AcDbLine
 10
33.7492700483452
 20
3.813494727398177
 30
0.0
 11
33.94197925308926
 21
3.647150384982248
 31
0.0
  0
ARC
  5
BDF
330
18
100
AcDbEntity
  8
1
 62
     4
100
AcDbCircle
 10
34.01254407352735
 20
3.715626311799236
 30
0.0
 40
0.0983277500856419
100
AcDbArc
 50
224.1392754477617
 51
290.8136637753667
  0
LINE
  5
BE0
330
18
100
AcDbEntity
  8
1
 62
     4
100
AcDbLine
 10
34.14988398373115
 20
2.657248274892985
 30
0.0
 11
34.0328848032408
 21
2.74830620981056
 31
0.0
  0
ARC
  5
BE2
330
18
100
AcDbEntity
  8
1
 62
     4
100
AcDbCircle
 10
33.77645674854156
 20
2.450995114992564
 30
0.0
 40
0.392618433518748
100
AcDbArc
 50
49.2225357121466
 51
66.71685745953292
  0
LINE
  5
BF0
330
18
100
AcDbEntity
  8
1
 62
     4
100
AcDbLine
 10
33.7492700483452
 20
-1.184079338704629
 30
0.0
 11
33.95973008662752
 21
-1.294167842731883
 31
0.0
  0
LINE
  5
BF1
330
18
100
AcDbEntity
  8
1
 62
     4
100
AcDbLine
 10
34.14988398373115
 20
-1.473659484593125
 30
0.0
 11
33.95973008662754
 21
-1.294167842731886
 31
0.0
  0
POINT
  5
BF3
330
18
100
AcDbEntity
  8
1
100
AcDbPoint
 10
41.68658756043149
 20
0.6440890812230215
 30
0.0
  0
LINE
  5
BF4
330
18
100
AcDbEntity
  8
1
 62
     4
100
AcDbLine
 10
33.74926850934328
 20
-1.184078226251074
 30
0.0
 11
33.7492700483452
 21
-2.782952197441344
 31
0.0
  0
LINE
  5
BF5
330
18
100
AcDbEntity
  8
1
 62
     4
100
AcDbLine
 10
34.14988398373115
 20
-1.473659484593125
 30
0.0
 11
34.14988398373115
 21
-2.989882437145451
 31
0.0
  0
LINE
  5
BF8
330
18
100
AcDbEntity
  8
1
 62
     4
100
AcDbLine
 10
33.7492700483452
 20
-3.813028518244723
 30
0.0
 11
33.96788052226198
 21
-3.724342858489176
 31
0.0
  0
LINE
  5
BF9
330
18
100
AcDbEntity
  8
1
 62
     4
100
AcDbLine
 10
34.14988398373115
 20
-3.712607018032908
 30
0.0
 11
34.02802816556402
 21
-3.712607018032908
 31
0.0
  0
ARC
  5
C01
330
18
100
AcDbEntity
  8
1
 62
     4
100
AcDbCircle
 10
34.04785398841597
 20
-3.974216828213363
 30
0.0
 40
0.2623599741469921
100
AcDbArc
 50
94.33381607116777
 51
107.7475411081572
  0
LINE
  5
C0E
330
18
100
AcDbEntity
  8
1
 62
     4
100
AcDbLine
 10
25.62782250284669
 20
2.748086195460529
 30
0.0
 11
25.44543800722864
 21
2.806491433820648
 31
0.0
  0
LINE
  5
C0F
330
18
100
AcDbEntity
  8
1
 62
     4
100
AcDbLine
 10
25.84605738392746
 20
3.685091397522576
 30
0.0
 11
25.84605738392746
 21
2.593694699827453
 31
0.0
  0
LINE
  5
C10
330
18
100
AcDbEntity
  8
1
 62
     4
100
AcDbLine
 10
25.44544344854149
 20
3.785882564074732
 30
0.0
 11
25.44544344854149
 21
2.806489691341537
 31
0.0
  0
LINE
  5
C11
330
18
100
AcDbEntity
  8
1
 62
     4
100
AcDbLine
 10
25.84605738392746
 20
3.685091397522576
 30
0.0
 11
25.74365626210391
 21
3.5961031725076
 31
0.0
  0
LINE
  5
C12
330
18
100
AcDbEntity
  8
1
 62
     4
100
AcDbLine
 10
25.44544344854149
 20
3.785882564074732
 30
0.0
 11
25.63815265328557
 21
3.619538221658805
 31
0.0
  0
ARC
  5
C13
330
18
100
AcDbEntity
  8
1
 62
     4
100
AcDbCircle
 10
25.70871747372365
 20
3.68801414847579
 30
0.0
 40
0.0983277500856419
100
AcDbArc
 50
224.1392754477617
 51
290.8136637753667
  0
LINE
  5
C14
330
18
100
AcDbEntity
  8
1
 62
     4
100
AcDbLine
 10
25.84605738392746
 20
2.593694699827453
 30
0.0
 11
25.72905820343712
 21
2.684752634745025
 31
0.0
  0
ARC
  5
C15
330
18
100
AcDbEntity
  8
1
 62
     4
100
AcDbCircle
 10
25.47263014873786
 20
2.387441539927029
 30
0.0
 40
0.392618433518748
100
AcDbArc
 50
49.22253571214657
 51
66.71685745953292
  0
LINE
  5
C16
330
18
100
AcDbEntity
  8
1
 62
     4
100
AcDbLine
 10
25.44544193376201
 20
-1.275781612827868
 30
0.0
 11
25.44544344666694
 21
-2.847543359437064
 31
0.0
  0
LINE
  5
C17
330
18
100
AcDbEntity
  8
1
 62
     4
100
AcDbLine
 10
25.84605738392747
 20
-1.550605511653789
 30
0.0
 11
25.84605738392746
 21
-3.04818877809742
 31
0.0
  0
LINE
  5
C18
330
18
100
AcDbEntity
  8
1
 62
     4
100
AcDbLine
 10
25.44544344854149
 20
-3.78618140479866
 30
0.0
 11
25.66405392245827
 21
-3.697495745043113
 31
0.0
  0
LINE
  5
C19
330
18
100
AcDbEntity
  8
1
 62
     4
100
AcDbLine
 10
25.84605738392746
 20
-3.685759904586846
 30
0.0
 11
25.72420156576032
 21
-3.685759904586846
 31
0.0
  0
ARC
  5
C1A
330
18
100
AcDbEntity
  8
1
 62
     4
100
AcDbCircle
 10
25.74402738861229
 20
-3.947369714767298
 30
0.0
 40
0.2623599741469921
100
AcDbArc
 50
94.33381607116784
 51
107.7475411081574
  0
LINE
  5
C1B
330
18
100
AcDbEntity
  8
1
 62
     4
100
AcDbLine
 10
16.73828860237173
 20
2.985345324652643
 30
0.0
 11
16.55590410675368
 21
3.043750563012761
 31
0.0
  0
LINE
  5
C1C
330
18
100
AcDbEntity
  8
1
 62
     4
100
AcDbLine
 10
16.9565234834525
 20
3.781996925462415
 30
0.0
 11
16.9565234834525
 21
2.830953829019565
 31
0.0
  0
LINE
  5
C1D
330
18
100
AcDbEntity
  8
1
 62
     4
100
AcDbLine
 10
16.55590954806654
 20
3.882788092014573
 30
0.0
 11
16.55590954806654
 21
3.043747880053833
 31
0.0
  0
LINE
  5
C1E
330
18
100
AcDbEntity
  8
1
 62
     4
100
AcDbLine
 10
16.9565234834525
 20
3.781996925462415
 30
0.0
 11
16.85412236162895
 21
3.693008700447442
 31
0.0
  0
LINE
  5
C1F
330
18
100
AcDbEntity
  8
1
 62
     4
100
AcDbLine
 10
16.55590954806654
 20
3.882788092014573
 30
0.0
 11
16.74861875281061
 21
3.716443749598646
 31
0.0
  0
ARC
  5
C20
330
18
100
AcDbEntity
  8
1
 62
     4
100
AcDbCircle
 10
16.81918357324869
 20
3.78491967641563
 30
0.0
 40
0.0983277500856419
100
AcDbArc
 50
224.1392754477617
 51
290.8136637753667
  0
LINE
  5
C21
330
18
100
AcDbEntity
  8
1
 62
     4
100
AcDbLine
 10
16.9565234834525
 20
2.830953829019565
 30
0.0
 11
16.83952430296215
 21
2.922011763937138
 31
0.0
  0
ARC
  5
C22
330
18
100
AcDbEntity
  8
1
 62
     4
100
AcDbCircle
 10
16.5830962482629
 20
2.624700669119141
 30
0.0
 40
0.392618433518748
100
AcDbArc
 50
49.22253571214657
 51
66.716857459533
  0
LINE
  5
C23
330
18
100
AcDbEntity
  8
1
 62
     4
100
AcDbLine
 10
16.55590784691273
 20
-0.9463247387436808
 30
0.0
 11
16.55590942021606
 21
-2.580834570791167
 31
0.0
  0
LINE
  5
C24
330
18
100
AcDbEntity
  8
1
 62
     4
100
AcDbLine
 10
16.95652348345251
 20
-1.226818735218209
 30
0.0
 11
16.9565234834525
 21
-2.811512643428713
 31
0.0
  0
LINE
  5
C25
330
18
100
AcDbEntity
  8
1
 62
     4
100
AcDbLine
 10
16.5660109358726
 20
-3.881529210496973
 30
0.0
 11
16.78462140978938
 21
-3.792843550741423
 31
0.0
  0
LINE
  5
C26
330
18
100
AcDbEntity
  8
1
 62
     4
100
AcDbLine
 10
16.96662487125857
 20
-3.78110771028516
 30
0.0
 11
16.84476905309143
 21
-3.78110771028516
 31
0.0
  0
ARC
  5
C27
330
18
100
AcDbEntity
  8
1
 62
     4
100
AcDbCircle
 10
16.8645948759434
 20
-4.042717520465613
 30
0.0
 40
0.2623599741469921
100
AcDbArc
 50
94.33381607116766
 51
107.7475411081574
  0
LINE
  5
CD2
330
18
100
AcDbEntity
  8
SK1
100
AcDbLine
 10
-21.25
 20
-2.85657137141714
 30
0.0
 11
-15.75
 21
-2.85657137141714
 31
0.0
  0
LINE
  5
CD8
330
18
100
AcDbEntity
  8
SK1
100
AcDbLine
 10
-15.75
 20
-2.856571371417223
 30
0.0
 11
-15.75
 21
2.856571371417226
 31
0.0
  0
LINE
  5
CD9
330
18
100
AcDbEntity
  8
SK1
100
AcDbLine
 10
-15.75
 20
2.856571371417226
 30
0.0
 11
-15.6120355074659
 21
2.717054608241748
 31
0.0
  0
LINE
  5
CDA
330
18
100
AcDbEntity
  8
SK1
100
AcDbLine
 10
-15.6120355074659
 20
2.717054608241748
 30
0.0
 11
-15.48003666098718
 21
2.569821689882811
 31
0.0
  0
LINE
  5
CDB
330
18
100
AcDbEntity
  8
SK1
100
AcDbLine
 10
-15.48003666098718
 20
2.569821689882811
 30
0.0
 11
-15.35464344175581
 21
2.41523641571249
 31
0.0
  0
LINE
  5
CDC
330
18
100
AcDbEntity
  8
SK1
100
AcDbLine
 10
-15.35464344175581
 20
2.41523641571249
 30
0.0
 11
-15.23646533701748
 21
2.253728970868603
 31
0.0
  0
LINE
  5
CDD
330
18
100
AcDbEntity
  8
SK1
100
AcDbLine
 10
-15.23646533701748
 20
2.253728970868603
 30
0.0
 11
-15.12607259160548
 21
2.085792801791737
 31
0.0
  0
LINE
  5
CDE
330
18
100
AcDbEntity
  8
SK1
100
AcDbLine
 10
-15.12607259160548
 20
2.085792801791737
 30
0.0
 11
-15.02398787234565
 21
1.911980172004415
 31
0.0
  0
LINE
  5
CDF
330
18
100
AcDbEntity
  8
SK1
100
AcDbLine
 10
-15.02398787234565
 20
1.911980172004415
 30
0.0
 11
-14.93067858381675
 21
1.732896463768504
 31
0.0
  0
LINE
  5
CE0
330
18
100
AcDbEntity
  8
SK1
100
AcDbLine
 10
-14.93067858381675
 20
1.732896463768504
 30
0.0
 11
-14.84655006049131
 21
1.549193338483024
 31
0.0
  0
LINE
  5
CE1
330
18
100
AcDbEntity
  8
SK1
100
AcDbLine
 10
-14.84655006049131
 20
1.549193338483024
 30
0.0
 11
-14.77193983601097
 21
1.361560912644497
 31
0.0
  0
LINE
  5
CE2
330
18
100
AcDbEntity
  8
SK1
100
AcDbLine
 10
-14.77193983601097
 20
1.361560912644497
 30
0.0
 11
-14.70711315624178
 21
1.170719144258037
 31
0.0
  0
LINE
  5
CE3
330
18
100
AcDbEntity
  8
SK1
100
AcDbLine
 10
-14.70711315624178
 20
1.170719144258037
 30
0.0
 11
-14.65225986049371
 21
0.9774086544490844
 31
0.0
  0
LINE
  5
CE4
330
18
100
AcDbEntity
  8
SK1
100
AcDbLine
 10
-14.65225986049371
 20
0.9774086544490844
 30
0.0
 11
-14.60749270716492
 21
0.782381228892172
 31
0.0
  0
LINE
  5
CE5
330
18
100
AcDbEntity
  8
SK1
100
AcDbLine
 10
-14.60749270716492
 20
0.782381228892172
 30
0.0
 11
-14.5728471687878
 21
0.586390252427595
 31
0.0
  0
LINE
  5
CE6
330
18
100
AcDbEntity
  8
SK1
100
AcDbLine
 10
-14.5728471687878
 20
0.586390252427595
 30
0.0
 11
-14.54828266991405
 21
0.3901813275281547
 31
0.0
  0
LINE
  5
CE7
330
18
100
AcDbEntity
  8
SK1
100
AcDbLine
 10
-14.54828266991405
 20
0.3901813275281547
 30
0.0
 11
-14.53368519234017
 21
0.194483313538888
 31
0.0
  0
LINE
  5
CE8
330
18
100
AcDbEntity
  8
SK1
100
AcDbLine
 10
-14.53368519234017
 20
0.194483313538888
 30
0.0
 11
-14.52887112843335
 21
0.0000000000000004
 31
0.0
  0
LINE
  5
CE9
330
18
100
AcDbEntity
  8
SK1
100
AcDbLine
 10
-14.52887112843335
 20
0.0000000000000004
 30
0.0
 11
-14.53368519234016
 21
-0.1944833135388815
 31
0.0
  0
LINE
  5
CEA
330
18
100
AcDbEntity
  8
SK1
100
AcDbLine
 10
-14.53368519234016
 20
-0.1944833135388815
 30
0.0
 11
-14.54828266991404
 21
-0.3901813275281538
 31
0.0
  0
LINE
  5
CEB
330
18
100
AcDbEntity
  8
SK1
100
AcDbLine
 10
-14.54828266991404
 20
-0.3901813275281538
 30
0.0
 11
-14.5728471687878
 21
-0.5863902524275942
 31
0.0
  0
LINE
  5
CEC
330
18
100
AcDbEntity
  8
SK1
100
AcDbLine
 10
-14.5728471687878
 20
-0.5863902524275942
 30
0.0
 11
-14.60749270716492
 21
-0.7823812288921711
 31
0.0
  0
LINE
  5
CED
330
18
100
AcDbEntity
  8
SK1
100
AcDbLine
 10
-14.60749270716492
 20
-0.7823812288921711
 30
0.0
 11
-14.65225986049371
 21
-0.9774086544490836
 31
0.0
  0
LINE
  5
CEE
330
18
100
AcDbEntity
  8
SK1
100
AcDbLine
 10
-14.65225986049371
 20
-0.9774086544490836
 30
0.0
 11
-14.70711315624178
 21
-1.170719144258034
 31
0.0
  0
LINE
  5
CEF
330
18
100
AcDbEntity
  8
SK1
100
AcDbLine
 10
-14.70711315624178
 20
-1.170719144258034
 30
0.0
 11
-14.77193983601097
 21
-1.361560912644494
 31
0.0
  0
LINE
  5
CF0
330
18
100
AcDbEntity
  8
SK1
100
AcDbLine
 10
-14.77193983601097
 20
-1.361560912644494
 30
0.0
 11
-14.84655006049131
 21
-1.549193338483021
 31
0.0
  0
LINE
  5
CF1
330
18
100
AcDbEntity
  8
SK1
100
AcDbLine
 10
-14.84655006049131
 20
-1.549193338483021
 30
0.0
 11
-14.93067858381675
 21
-1.732896463768505
 31
0.0
  0
LINE
  5
CF2
330
18
100
AcDbEntity
  8
SK1
100
AcDbLine
 10
-14.93067858381675
 20
-1.732896463768505
 30
0.0
 11
-15.02398787234564
 21
-1.911980172004414
 31
0.0
  0
LINE
  5
CF3
330
18
100
AcDbEntity
  8
SK1
100
AcDbLine
 10
-15.02398787234564
 20
-1.911980172004414
 30
0.0
 11
-15.12607259160548
 21
-2.085792801791736
 31
0.0
  0
LINE
  5
CF4
330
18
100
AcDbEntity
  8
SK1
100
AcDbLine
 10
-15.12607259160548
 20
-2.085792801791736
 30
0.0
 11
-15.23646533701748
 21
-2.253728970868603
 31
0.0
  0
LINE
  5
CF5
330
18
100
AcDbEntity
  8
SK1
100
AcDbLine
 10
-15.23646533701748
 20
-2.253728970868603
 30
0.0
 11
-15.3546434417558
 21
-2.41523641571249
 31
0.0
  0
LINE
  5
CF6
330
18
100
AcDbEntity
  8
SK1
100
AcDbLine
 10
-15.3546434417558
 20
-2.41523641571249
 30
0.0
 11
-15.48003666098718
 21
-2.569821689882813
 31
0.0
  0
LINE
  5
CF7
330
18
100
AcDbEntity
  8
SK1
100
AcDbLine
 10
-15.48003666098718
 20
-2.569821689882813
 30
0.0
 11
-15.6120355074659
 21
-2.717054608241748
 31
0.0
  0
LINE
  5
CF8
330
18
100
AcDbEntity
  8
SK1
100
AcDbLine
 10
-15.6120355074659
 20
-2.717054608241748
 30
0.0
 11
-15.75
 21
-2.856571371417223
 31
0.0
  0
LINE
  5
CF9
330
18
100
AcDbEntity
  8
SK1
100
AcDbLine
 10
-21.25
 20
2.856571371417136
 30
0.0
 11
-15.75
 21
2.856571371417136
 31
0.0
  0
LINE
  5
CFA
330
18
100
AcDbEntity
  8
SK1
100
AcDbLine
 10
-21.25
 20
-2.856571371417201
 30
0.0
 11
-21.25
 21
2.856571371417198
 31
0.0
  0
LINE
  5
CFB
330
18
100
AcDbEntity
  8
SK1
100
AcDbLine
 10
-21.25
 20
2.856571371417198
 30
0.0
 11
-21.3879644925341
 21
2.71705460824172
 31
0.0
  0
LINE
  5
CFC
330
18
100
AcDbEntity
  8
SK1
100
AcDbLine
 10
-21.3879644925341
 20
2.71705460824172
 30
0.0
 11
-21.51996333901282
 21
2.569821689882785
 31
0.0
  0
LINE
  5
CFD
330
18
100
AcDbEntity
  8
SK1
100
AcDbLine
 10
-21.51996333901282
 20
2.569821689882785
 30
0.0
 11
-21.64535655824418
 21
2.415236415712461
 31
0.0
  0
LINE
  5
CFE
330
18
100
AcDbEntity
  8
SK1
100
AcDbLine
 10
-21.64535655824418
 20
2.415236415712461
 30
0.0
 11
-21.7635346629825
 21
2.253728970868578
 31
0.0
  0
LINE
  5
CFF
330
18
100
AcDbEntity
  8
SK1
100
AcDbLine
 10
-21.7635346629825
 20
2.253728970868578
 30
0.0
 11
-21.8739274083945
 21
2.085792801791714
 31
0.0
  0
LINE
  5
D00
330
18
100
AcDbEntity
  8
SK1
100
AcDbLine
 10
-21.8739274083945
 20
2.085792801791714
 30
0.0
 11
-21.97601212765434
 21
1.911980172004391
 31
0.0
  0
LINE
  5
D01
330
18
100
AcDbEntity
  8
SK1
100
AcDbLine
 10
-21.97601212765434
 20
1.911980172004391
 30
0.0
 11
-22.06932141618322
 21
1.732896463768485
 31
0.0
  0
LINE
  5
D02
330
18
100
AcDbEntity
  8
SK1
100
AcDbLine
 10
-22.06932141618322
 20
1.732896463768485
 30
0.0
 11
-22.15344993950866
 21
1.549193338483004
 31
0.0
  0
LINE
  5
D03
330
18
100
AcDbEntity
  8
SK1
100
AcDbLine
 10
-22.15344993950866
 20
1.549193338483004
 30
0.0
 11
-22.228060163989
 21
1.36156091264448
 31
0.0
  0
LINE
  5
D04
330
18
100
AcDbEntity
  8
SK1
100
AcDbLine
 10
-22.228060163989
 20
1.36156091264448
 30
0.0
 11
-22.29288684375819
 21
1.170719144258027
 31
0.0
  0
LINE
  5
D05
330
18
100
AcDbEntity
  8
SK1
100
AcDbLine
 10
-22.29288684375819
 20
1.170719144258027
 30
0.0
 11
-22.34774013950627
 21
0.9774086544490725
 31
0.0
  0
LINE
  5
D06
330
18
100
AcDbEntity
  8
SK1
100
AcDbLine
 10
-22.34774013950627
 20
0.9774086544490725
 30
0.0
 11
-22.39250729283504
 21
0.7823812288921636
 31
0.0
  0
LINE
  5
D07
330
18
100
AcDbEntity
  8
SK1
100
AcDbLine
 10
-22.39250729283504
 20
0.7823812288921636
 30
0.0
 11
-22.42715283121216
 21
0.5863902524275894
 31
0.0
  0
LINE
  5
D08
330
18
100
AcDbEntity
  8
SK1
100
AcDbLine
 10
-22.42715283121216
 20
0.5863902524275894
 30
0.0
 11
-22.45171733008591
 21
0.3901813275281489
 31
0.0
  0
LINE
  5
D09
330
18
100
AcDbEntity
  8
SK1
100
AcDbLine
 10
-22.45171733008591
 20
0.3901813275281489
 30
0.0
 11
-22.46631480765979
 21
0.1944833135388824
 31
0.0
  0
LINE
  5
D0A
330
18
100
AcDbEntity
  8
SK1
100
AcDbLine
 10
-22.46631480765979
 20
0.1944833135388824
 30
0.0
 11
-22.47112887156661
 21
0.0000000000000004
 31
0.0
  0
LINE
  5
D0B
330
18
100
AcDbEntity
  8
SK1
100
AcDbLine
 10
-22.47112887156661
 20
0.0000000000000004
 30
0.0
 11
-22.46631480765979
 21
-0.1944833135388815
 31
0.0
  0
LINE
  5
D0C
330
18
100
AcDbEntity
  8
SK1
100
AcDbLine
 10
-22.46631480765979
 20
-0.1944833135388815
 30
0.0
 11
-22.45171733008591
 21
-0.3901813275281479
 31
0.0
  0
LINE
  5
D0D
330
18
100
AcDbEntity
  8
SK1
100
AcDbLine
 10
-22.45171733008591
 20
-0.3901813275281479
 30
0.0
 11
-22.42715283121216
 21
-0.5863902524275884
 31
0.0
  0
LINE
  5
D0E
330
18
100
AcDbEntity
  8
SK1
100
AcDbLine
 10
-22.42715283121216
 20
-0.5863902524275884
 30
0.0
 11
-22.39250729283504
 21
-0.7823812288921596
 31
0.0
  0
LINE
  5
D0F
330
18
100
AcDbEntity
  8
SK1
100
AcDbLine
 10
-22.39250729283504
 20
-0.7823812288921596
 30
0.0
 11
-22.34774013950627
 21
-0.9774086544490659
 31
0.0
  0
LINE
  5
D10
330
18
100
AcDbEntity
  8
SK1
100
AcDbLine
 10
-22.34774013950627
 20
-0.9774086544490659
 30
0.0
 11
-22.29288684375819
 21
-1.170719144258018
 31
0.0
  0
LINE
  5
D11
330
18
100
AcDbEntity
  8
SK1
100
AcDbLine
 10
-22.29288684375819
 20
-1.170719144258018
 30
0.0
 11
-22.228060163989
 21
-1.361560912644475
 31
0.0
  0
LINE
  5
D12
330
18
100
AcDbEntity
  8
SK1
100
AcDbLine
 10
-22.228060163989
 20
-1.361560912644475
 30
0.0
 11
-22.15344993950866
 21
-1.549193338483
 31
0.0
  0
LINE
  5
D13
330
18
100
AcDbEntity
  8
SK1
100
AcDbLine
 10
-22.15344993950866
 20
-1.549193338483
 30
0.0
 11
-22.06932141618322
 21
-1.732896463768478
 31
0.0
  0
LINE
  5
D14
330
18
100
AcDbEntity
  8
SK1
100
AcDbLine
 10
-22.06932141618322
 20
-1.732896463768478
 30
0.0
 11
-21.97601212765434
 21
-1.91198017200439
 31
0.0
  0
LINE
  5
D15
330
18
100
AcDbEntity
  8
SK1
100
AcDbLine
 10
-21.97601212765434
 20
-1.91198017200439
 30
0.0
 11
-21.87392740839452
 21
-2.08579280179171
 31
0.0
  0
LINE
  5
D16
330
18
100
AcDbEntity
  8
SK1
100
AcDbLine
 10
-21.87392740839452
 20
-2.08579280179171
 30
0.0
 11
-21.7635346629825
 21
-2.253728970868575
 31
0.0
  0
LINE
  5
D17
330
18
100
AcDbEntity
  8
SK1
100
AcDbLine
 10
-21.7635346629825
 20
-2.253728970868575
 30
0.0
 11
-21.64535655824419
 21
-2.41523641571246
 31
0.0
  0
LINE
  5
D18
330
18
100
AcDbEntity
  8
SK1
100
AcDbLine
 10
-21.64535655824419
 20
-2.41523641571246
 30
0.0
 11
-21.51996333901282
 21
-2.569821689882779
 31
0.0
  0
LINE
  5
D19
330
18
100
AcDbEntity
  8
SK1
100
AcDbLine
 10
-21.51996333901282
 20
-2.569821689882779
 30
0.0
 11
-21.3879644925341
 21
-2.71705460824172
 31
0.0
  0
LINE
  5
D1A
330
18
100
AcDbEntity
  8
SK1
100
AcDbLine
 10
-21.3879644925341
 20
-2.71705460824172
 30
0.0
 11
-21.25000000000001
 21
-2.856571371417197
 31
0.0
  0
LINE
  5
DA9
330
18
100
AcDbEntity
  8
1
 62
     4
100
AcDbLine
 10
7.666373729659889
 20
-0.4077341178089731
 30
0.0
 11
7.666375399729142
 21
-2.1427743715229
 31
0.0
  0
LINE
  5
DAA
330
18
100
AcDbEntity
  8
1
 62
     4
100
AcDbLine
 10
8.066989582977559
 20
-0.7035284749362722
 30
0.0
 11
8.066989582977548
 21
-2.390898303429814
 31
0.0
  0
LINE
  5
DAB
330
18
100
AcDbEntity
  8
1
 62
     4
100
AcDbLine
 10
7.852754761255956
 20
3.324368960853481
 30
0.0
 11
7.666370013570138
 21
3.368368982897159
 31
0.0
  0
LINE
  5
DAC
330
18
100
AcDbEntity
  8
1
 62
     4
100
AcDbLine
 10
8.066989582977548
 20
3.936284576554464
 30
0.0
 11
8.066989582977548
 21
3.197174192899279
 31
0.0
  0
LINE
  5
DAD
330
18
100
AcDbEntity
  8
1
 62
     4
100
AcDbLine
 10
7.666375647591585
 20
3.977286483158785
 30
0.0
 11
7.666375647591585
 21
3.368366732573513
 31
0.0
  0
LINE
  5
DAE
330
18
100
AcDbEntity
  8
1
 62
     4
100
AcDbLine
 10
8.066989582977548
 20
3.936284576554464
 30
0.0
 11
7.991759848378579
 21
3.840381887700275
 31
0.0
  0
LINE
  5
DAF
330
18
100
AcDbEntity
  8
1
 62
     4
100
AcDbLine
 10
7.666375647591582
 20
3.977286483158785
 30
0.0
 11
7.883821429408373
 21
3.845814264033522
 31
0.0
  0
ARC
  5
DB0
330
18
100
AcDbEntity
  8
1
 62
     4
100
AcDbCircle
 10
7.941919796296766
 20
3.925142230109845
 30
0.0
 40
0.0983277500856419
100
AcDbArc
 50
233.7816274548932
 51
300.4560157824982
  0
LINE
  5
DB1
330
18
100
AcDbEntity
  8
1
 62
     4
100
AcDbLine
 10
8.066989582977548
 20
3.197174192899279
 30
0.0
 11
7.958622431871344
 21
3.269125469785207
 31
0.0
  0
ARC
  5
DB2
330
18
100
AcDbEntity
  8
1
 62
     4
100
AcDbCircle
 10
7.726168069684906
 20
2.952717183169301
 30
0.0
 40
0.392618433518748
100
AcDbArc
 50
53.69654588629583
 51
71.1908676336823
  0
LINE
  5
E9D
330
18
100
AcDbEntity
  8
1
 62
     4
100
AcDbLine
 10
37.90008074236846
 20
-3.999302527994053
 30
0.0
 11
38.0
 21
-3.903320233105464
 31
0.0
  0
LINE
  5
E9E
330
18
100
AcDbEntity
  8
1
 62
     4
100
AcDbLine
 10
37.90010847732915
 20
3.998879899923818
 30
0.0
 11
37.99999999999999
 21
3.903536475758091
 31
0.0
  0
LINE
  5
EC5
330
18
100
AcDbEntity
  8
1
 62
     4
100
AcDbLine
 10
37.90008074236843
 20
-3.528014064793456
 30
0.0
 11
37.99999999999997
 21
-3.432031769904868
 31
0.0
  0
ENDSEC
  0
SECTION
  2
OBJECTS
  0
DICTIONARY
  5
C
330
0
100
AcDbDictionary
281
     1
  3
ACAD_2007HEADERVARS_RT
350
1029
  3
ACAD_CIP_PREVIOUS_PRODUCT_INFO
350
58A
  3
ACAD_COLOR
350
387
  3
ACAD_DETAILVIEWSTYLE
350
584
  3
ACAD_FIELDLIST
350
655
  3
ACAD_GROUP
350
D
  3
ACAD_LAYOUT
350
301
  3
ACAD_MATERIAL
350
386
  3
ACAD_MLEADERSTYLE
350
548
  3
ACAD_MLINESTYLE
350
E
  3
ACAD_PLOTSETTINGS
350
302
  3
ACAD_PLOTSTYLENAME
350
2FF
  3
ACAD_SCALELIST
350
3A0
  3
ACAD_SECTIONVIEWSTYLE
350
582
  3
ACAD_TABLESTYLE
350
388
  3
ACAD_VISUALSTYLE
350
567
  3
ACDB_RECOMPOSE_DATA
350
1028
  3
AcDbVariableDictionary
350
357
  3
AcmDictionary
350
61F
  3
AMG
350
5F5
  3
AMGSNAPSETTINGS
350
66B
  0
DICTIONARY
  5
D20
330
2
100
AcDbDictionary
280
     1
281
     1
  3
ACAD_LAYERSTATES
360
D21
  0
DICTIONARY
  5
58D
330
F
100
AcDbDictionary
280
     1
281
     1
  3
ADSK_XREC_LAYER_RECONCILED
360
58E
  0
DICTIONARY
  5
58F
330
23
100
AcDbDictionary
280
     1
281
     1
  3
ADSK_XREC_LAYER_RECONCILED
360
590
  0
DICTIONARY
  5
591
330
24
100
AcDbDictionary
280
     1
281
     1
  3
ADSK_XREC_LAYER_RECONCILED
360
592
  0
DICTIONARY
  5
593
330
25
100
AcDbDictionary
280
     1
281
     1
  3
ADSK_XREC_LAYER_RECONCILED
360
594
  0
DICTIONARY
  5
595
330
26
100
AcDbDictionary
280
     1
281
     1
  3
ADSK_XREC_LAYER_RECONCILED
360
596
  0
DICTIONARY
  5
597
330
27
100
AcDbDictionary
280
     1
281
     1
  3
ADSK_XREC_LAYER_RECONCILED
360
598
  0
DICTIONARY
  5
599
330
28
100
AcDbDictionary
280
     1
281
     1
  3
ADSK_XREC_LAYER_RECONCILED
360
59A
  0
DICTIONARY
  5
59B
330
29
100
AcDbDictionary
280
     1
281
     1
  3
ADSK_XREC_LAYER_RECONCILED
360
59C
  0
DICTIONARY
  5
59D
330
2A
100
AcDbDictionary
280
     1
281
     1
  3
ADSK_XREC_LAYER_RECONCILED
360
59E
  0
DICTIONARY
  5
59F
330
2B
100
AcDbDictionary
280
     1
281
     1
  3
ADSK_XREC_LAYER_RECONCILED
360
5A0
  0
DICTIONARY
  5
5A1
330
2C
100
AcDbDictionary
280
     1
281
     1
  3
ADSK_XREC_LAYER_RECONCILED
360
5A2
  0
DICTIONARY
  5
5A3
330
2D
100
AcDbDictionary
280
     1
281
     1
  3
ADSK_XREC_LAYER_RECONCILED
360
5A4
  0
DICTIONARY
  5
5A5
330
2E
100
AcDbDictionary
280
     1
281
     1
  3
ADSK_XREC_LAYER_RECONCILED
360
5A6
  0
DICTIONARY
  5
5A7
330
375
100
AcDbDictionary
280
     1
281
     1
  3
ADSK_XREC_LAYER_RECONCILED
360
5A8
  0
DICTIONARY
  5
5A9
330
376
100
AcDbDictionary
280
     1
281
     1
  3
ADSK_XREC_LAYER_RECONCILED
360
5AA
  0
DICTIONARY
  5
B89
330
18
100
AcDbDictionary
280
     1
281
     1
  3
ACAD_SORTENTS
360
B8A
  0
DICTIONARY
  5
1029
102
{ACAD_REACTORS
330
C
102
}
330
C
100
AcDbDictionary
281
     1
  3
DIMARCSYM
350
102A
  3
DIMLTEX1
350
102C
  3
DIMLTEX2
350
102D
  3
DIMLTYPE
350
102B
  0
XRECORD
  5
58A
102
{ACAD_REACTORS
330
C
102
}
330
C
100
AcDbXrecord
280
     1
300
AMECH_PP
300
2014
300
86132PDSS_2014_0F
  0
DICTIONARY
  5
387
102
{ACAD_REACTORS
330
C
102
}
330
C
100
AcDbDictionary
281
     1
  0
DICTIONARY
  5
584
102
{ACAD_REACTORS
330
C
102
}
330
C
100
AcDbDictionary
281
     1
  3
Metric50
350
585
  0
FIELDLIST
  5
655
102
{ACAD_REACTORS
330
C
102
}
330
C
100
AcDbIdSet
 90
        0
100
AcDbFieldList
  0
DICTIONARY
  5
D
102
{ACAD_REACTORS
330
C
102
}
330
C
100
AcDbDictionary
281
     1
  0
DICTIONARY
  5
301
102
{ACAD_REACTORS
330
C
102
}
330
C
100
AcDbDictionary
281
     1
  3
Layout1
350
33B
  3
Model
350
303
  0
DICTIONARY
  5
386
102
{ACAD_REACTORS
330
C
102
}
330
C
100
AcDbDictionary
281
     1
  3
ByBlock
350
557
  3
ByLayer
350
54F
  3
Global
350
55F
  0
DICTIONARY
  5
548
102
{ACAD_REACTORS
330
C
102
}
330
C
100
AcDbDictionary
281
     1
  3
Standard
350
581
  0
DICTIONARY
  5
E
102
{ACAD_REACTORS
330
C
102
}
330
C
100
AcDbDictionary
281
     1
  3
STANDARD
350
1B
  0
DICTIONARY
  5
302
102
{ACAD_REACTORS
330
C
102
}
330
C
100
AcDbDictionary
281
     1
  0
ACDBDICTIONARYWDFLT
  5
2FF
102
{ACAD_REACTORS
330
C
102
}
330
C
100
AcDbDictionary
281
     1
  3
Normal
350
300
100
AcDbDictionaryWithDefault
340
300
  0
DICTIONARY
  5
3A0
102
{ACAD_REACTORS
330
C
102
}
330
C
100
AcDbDictionary
281
     1
  3
A0
350
3A1
  3
A1
350
3A2
  3
A2
350
3A3
  3
A3
350
3A4
  3
A4
350
3A5
  3
A5
350
3A6
  3
A6
350
3A7
  3
A7
350
3A8
  3
A8
350
3A9
  3
A9
350
3AA
  3
B0
350
3AB
  3
B1
350
3AC
  3
B2
350
3AD
  3
B3
350
3AE
  3
B4
350
3AF
  3
B5
350
3B0
  3
B6
350
3B1
  3
B7
350
3B2
  3
B8
350
3B3
  3
B9
350
3B4
  3
C0
350
3B5
  3
C1
350
3B6
  3
C2
350
3B7
  3
C3
350
3B8
  3
C4
350
3B9
  3
C5
350
3BA
  3
C6
350
3BB
  3
C7
350
3BC
  3
C8
350
3BD
  3
C9
350
3BE
  3
D0
350
3BF
  3
D1
350
3C0
  3
D2
350
3C1
  0
DICTIONARY
  5
582
102
{ACAD_REACTORS
330
C
102
}
330
C
100
AcDbDictionary
281
     1
  3
Metric50
350
583
  0
DICTIONARY
  5
388
102
{ACAD_REACTORS
330
C
102
}
330
C
100
AcDbDictionary
281
     1
  3
Standard
350
580
  0
DICTIONARY
  5
567
102
{ACAD_REACTORS
330
C
102
}
330
C
100
AcDbDictionary
281
     1
  3
2dWireframe
350
56D
  3
Basic
350
56C
  3
Brighten
350
573
  3
ColorChange
350
577
  3
Conceptual
350
570
  3
Dim
350
572
  3
EdgeColorOff
350
57F
  3
Facepattern
350
576
  3
Flat
350
568
  3
FlatWithEdges
350
569
  3
Gouraud
350
56A
  3
GouraudWithEdges
350
56B
  3
Hidden
350
56F
  3
JitterOff
350
57D
  3
Linepattern
350
575
  3
OverhangOff
350
57E
  3
Realistic
350
571
  3
Shaded
350
57C
  3
Shaded with edges
350
57B
  3
Shades of Gray
350
578
  3
Sketchy
350
579
  3
Thicken
350
574
  3
Wireframe
350
56E
  3
X-Ray
350
57A
  0
XRECORD
  5
1028
102
{ACAD_REACTORS
330
C
102
}
330
C
100
AcDbXrecord
280
     1
 90
        1
330
580
  0
DICTIONARY
  5
357
102
{ACAD_REACTORS
330
C
102
}
330
C
100
AcDbDictionary
281
     1
  3
CANNOSCALE
350
549
  3
CMLEADERSTYLE
350
5AB
  3
CTABLESTYLE
350
38D
  3
CVIEWDETAILSTYLE
350
5AC
  3
CVIEWSECTIONSTYLE
350
5AD
  3
DIMASSOC
350
359
  3
HIDETEXT
350
358
  3
INDEXCTL
350
5AF
  3
LAYEREVAL
350
D43
  3
LAYERNOTIFY
350
D44
  3
LIGHTINGUNITS
350
D42
  3
MSLTSCALE
350
D41
  3
PROJECTNAME
350
38E
  3
SORTENTS
350
5AE
  3
XCLIPFRAME
350
1026
  0
DICTIONARY
  5
61F
102
{ACAD_REACTORS
330
C
102
}
330
C
100
AcDbDictionary
281
     1
  3
AcmStdDictionary
350
626
  0
DICTIONARY
  5
5F5
102
{ACAD_REACTORS
330
C
102
}
330
C
100
AcDbDictionary
281
     1
  0
DICTIONARY
  5
66B
102
{ACAD_REACTORS
330
C
102
}
330
C
100
AcDbDictionary
281
     1
  0
DICTIONARY
  5
D21
102
{ACAD_REACTORS
330
D20
102
}
330
D20
100
AcDbDictionary
281
     1
  0
XRECORD
  5
58E
102
{ACAD_REACTORS
330
58D
102
}
330
58D
100
AcDbXrecord
280
     1
290
     1
  0
XRECORD
  5
590
102
{ACAD_REACTORS
330
58F
102
}
330
58F
100
AcDbXrecord
280
     1
290
     1
  0
XRECORD
  5
592
102
{ACAD_REACTORS
330
591
102
}
330
591
100
AcDbXrecord
280
     1
290
     1
  0
XRECORD
  5
594
102
{ACAD_REACTORS
330
593
102
}
330
593
100
AcDbXrecord
280
     1
290
     1
  0
XRECORD
  5
596
102
{ACAD_REACTORS
330
595
102
}
330
595
100
AcDbXrecord
280
     1
290
     1
  0
XRECORD
  5
598
102
{ACAD_REACTORS
330
597
102
}
330
597
100
AcDbXrecord
280
     1
290
     1
  0
XRECORD
  5
59A
102
{ACAD_REACTORS
330
599
102
}
330
599
100
AcDbXrecord
280
     1
290
     1
  0
XRECORD
  5
59C
102
{ACAD_REACTORS
330
59B
102
}
330
59B
100
AcDbXrecord
280
     1
290
     1
  0
XRECORD
  5
59E
102
{ACAD_REACTORS
330
59D
102
}
330
59D
100
AcDbXrecord
280
     1
290
     1
  0
XRECORD
  5
5A0
102
{ACAD_REACTORS
330
59F
102
}
330
59F
100
AcDbXrecord
280
     1
290
     1
  0
XRECORD
  5
5A2
102
{ACAD_REACTORS
330
5A1
102
}
330
5A1
100
AcDbXrecord
280
     1
290
     1
  0
XRECORD
  5
5A4
102
{ACAD_REACTORS
330
5A3
102
}
330
5A3
100
AcDbXrecord
280
     1
290
     1
  0
XRECORD
  5
5A6
102
{ACAD_REACTORS
330
5A5
102
}
330
5A5
100
AcDbXrecord
280
     1
290
     1
  0
XRECORD
  5
5A8
102
{ACAD_REACTORS
330
5A7
102
}
330
5A7
100
AcDbXrecord
280
     1
290
     1
  0
XRECORD
  5
5AA
102
{ACAD_REACTORS
330
5A9
102
}
330
5A9
100
AcDbXrecord
280
     1
290
     1
  0
SORTENTSTABLE
  5
B8A
102
{ACAD_REACTORS
330
B89
102
}
330
B89
100
AcDbSortentsTable
330
18
331
A37
  5
A3A
331
DB0
  5
E9B
331
DAC
  5
DAF
331
A33
  5
A36
331
4F5
  5
4F5
331
9F4
  5
9F7
331
A2F
  5
A32
331
A6E
  5
A73
331
A6A
  5
A6D
331
4F1
  5
4F1
331
9F0
  5
9F3
331
A2B
  5
A2E
331
C0F
  5
C12
331
AAD
  5
AB4
331
AA9
  5
AAC
331
B00
  5
BDD
331
AA5
  5
AA8
331
AE4
  5
AE7
331
CEE
  5
CF1
331
CEA
  5
CED
331
AA1
  5
AA4
331
AE0
  5
AE3
331
A66
  5
A69
331
9EC
  5
9EF
331
D18
  5
DA9
331
A27
  5
A2A
331
9E8
  5
9EB
331
D14
  5
D17
331
A23
  5
A26
331
A62
  5
A65
331
439
  5
439
331
9E4
  5
9E7
331
D10
  5
D13
331
A1F
  5
A22
331
A5E
  5
A61
331
9E0
  5
9E3
331
A1B
  5
A1E
331
A5A
  5
A5D
331
ADC
  5
ADF
331
CE6
  5
CE9
331
A9D
  5
AA0
331
CE2
  5
CE5
331
A99
  5
A9D
331
A95
  5
A98
331
AD4
  5
ADA
331
CDE
  5
CE1
331
CDA
  5
CDD
331
A91
  5
A94
331
AD0
  5
AD3
331
BF3
  5
BF8
331
D0C
  5
D0F
331
A56
  5
A59
331
9DC
  5
9DD
331
D08
  5
D0B
331
A17
  5
A1A
331
9D8
  5
9D8
331
D04
  5
D07
331
A13
  5
A17
331
A52
  5
A55
331
3D9
  5
3D9
331
D00
  5
D03
331
A0F
  5
A13
331
A4E
  5
A51
331
3D5
  5
3D5
331
3D1
  5
3D1
331
9D0
  5
9D0
331
A0B
  5
A0E
331
A4A
  5
A4D
331
520
  5
520
331
A8D
  5
A90
331
ACC
  5
ACF
331
AC8
  5
ACB
331
CD2
  5
CDA
331
A89
  5
A8E
331
A85
  5
A88
331
AC4
  5
AC7
331
BDF
  5
BF0
331
C26
  5
CD8
331
C22
  5
C25
331
A81
  5
A84
331
AC0
  5
AC3
331
CFC
  5
CFF
331
A46
  5
A49
331
3CD
  5
3CD
331
9CC
  5
9CC
331
CF8
  5
CFB
331
A07
  5
A0A
331
A03
  5
A06
331
A42
  5
A45
331
3C9
  5
3C9
331
9C8
  5
9C8
331
CF4
  5
CF7
331
CF0
  5
CF3
331
9FF
  5
A02
331
9FB
  5
9FE
331
A3A
  5
A3F
331
C1E
  5
C21
331
A7D
  5
A80
331
ABC
  5
ABF
331
AB8
  5
ABB
331
AF3
  5
AFF
331
C1A
  5
C1D
331
A79
  5
A7C
331
A75
  5
A78
331
AB4
  5
AB7
331
AEF
  5
AF2
331
C16
  5
C19
331
C12
  5
C15
331
AEB
  5
AEE
331
A36
  5
A39
331
DAF
  5
DB2
331
9F7
  5
9FA
331
DAB
  5
DAE
331
A32
  5
A35
331
4F8
  5
4F8
331
4F4
  5
4F4
331
9F3
  5
9F6
331
A2E
  5
A31
331
A6D
  5
A70
331
A69
  5
A6C
331
A2A
  5
A2D
331
C0E
  5
C11
331
AAC
  5
AAF
331
AA8
  5
AAB
331
AE7
  5
AEB
331
CED
  5
CF0
331
AA4
  5
AA7
331
AE3
  5
AE6
331
CE9
  5
CEC
331
AA0
  5
AA3
331
9EF
  5
9F2
331
A26
  5
A29
331
A65
  5
A68
331
43C
  5
43C
331
9EB
  5
9EE
331
D17
  5
D1A
331
9E7
  5
9EA
331
D13
  5
D16
331
A22
  5
A25
331
A61
  5
A64
331
9E3
  5
9E6
331
A1E
  5
A21
331
A5D
  5
A60
331
A59
  5
A5C
331
A1A
  5
A1D
331
AFF
  5
BD9
331
ADF
  5
AE2
331
ADB
  5
ADE
331
CE5
  5
CE8
331
A9C
  5
A9F
331
A98
  5
A9C
331
CE1
  5
CE4
331
A94
  5
A97
331
AD3
  5
AD9
331
CDD
  5
CE0
331
CD9
  5
CDC
331
A90
  5
A93
331
D0F
  5
D12
331
9DF
  5
9E1
331
D0B
  5
D0E
331
A55
  5
A58
331
9DB
  5
9DB
331
D07
  5
D0A
331
9D7
  5
9D7
331
D03
  5
D06
331
A12
  5
A15
331
A51
  5
A54
331
3D8
  5
3D8
331
3D4
  5
3D4
331
9D3
  5
9D3
331
A0E
  5
A12
331
A4D
  5
A50
331
3D0
  5
3D0
331
A0A
  5
A0D
331
A49
  5
A4C
331
ACF
  5
AD2
331
ACB
  5
ACE
331
513
  5
513
331
A8C
  5
A8F
331
AC7
  5
ACA
331
BE2
  5
BF3
331
A88
  5
A8D
331
A84
  5
A87
331
AC3
  5
AC6
331
BDE
  5
BE2
331
C25
  5
CD2
331
C21
  5
C24
331
A80
  5
A83
331
CFF
  5
D02
331
9CF
  5
9CF
331
CFB
  5
CFE
331
E9E
  5
9E2
331
A45
  5
A48
331
3CC
  5
3CC
331
9CB
  5
9CB
331
CF7
  5
CFA
331
A06
  5
A09
331
9C7
  5
9C7
331
CF3
  5
CF6
331
A02
  5
A05
331
A41
  5
A44
331
3C8
  5
3C8
331
9FE
  5
A01
331
9FA
  5
9FD
331
A39
  5
A3C
331
ABF
  5
AC2
331
C1D
  5
C20
331
A7C
  5
A7F
331
ABB
  5
ABE
331
AB7
  5
ABA
331
AF2
  5
AF5
331
C19
  5
C1C
331
A78
  5
A7B
331
A74
  5
A77
331
AEE
  5
AF1
331
C15
  5
C18
331
C11
  5
C14
331
A70
  5
A75
331
DB2
  5
E9E
331
DAE
  5
DB1
331
A35
  5
A38
331
DAA
  5
DAD
331
9F6
  5
9F9
331
A31
  5
A34
331
4F7
  5
4F7
331
4F3
  5
4F3
331
9F2
  5
9F5
331
A2D
  5
A30
331
A6C
  5
A6F
331
A68
  5
A6B
331
A29
  5
A2C
331
AAF
  5
AB6
331
AAB
  5
AAE
331
AA7
  5
AAA
331
AE6
  5
AE9
331
CEC
  5
CEF
331
AA3
  5
AA6
331
AE2
  5
AE5
331
C01
  5
C10
331
CE8
  5
CEB
331
D1A
  5
DAB
331
9EE
  5
9F1
331
D16
  5
D19
331
A25
  5
A28
331
A64
  5
A67
331
43B
  5
43B
331
9EA
  5
9ED
331
D12
  5
D15
331
9E6
  5
9E9
331
A21
  5
A24
331
A60
  5
A63
331
427
  5
427
331
9E2
  5
9E5
331
A1D
  5
A20
331
A5C
  5
A5F
331
A58
  5
A5B
331
A19
  5
A1C
331
A9F
  5
AA2
331
ADE
  5
AE1
331
ADA
  5
ADD
331
CE4
  5
CE7
331
A9B
  5
A9E
331
A97
  5
A9B
331
BF9
  5
C0F
331
CE0
  5
CE3
331
CDC
  5
CDF
331
A93
  5
A96
331
AD2
  5
AD5
331
BF5
  5
C01
331
CD8
  5
CDB
331
BF1
  5
BF5
331
D0E
  5
D11
331
D0A
  5
D0D
331
9DE
  5
9DF
331
A15
  5
A19
331
A54
  5
A57
331
3DB
  5
3DB
331
D06
  5
D09
331
D02
  5
D05
331
9D6
  5
9D6
331
A11
  5
A14
331
A50
  5
A53
331
3D7
  5
3D7
331
3D3
  5
3D3
331
9D2
  5
9D2
331
A0D
  5
A10
331
A4C
  5
A4F
331
A48
  5
A4B
331
A09
  5
A0C
331
A8F
  5
A92
331
ACE
  5
AD1
331
ACA
  5
ACD
331
A87
  5
A8C
331
AC6
  5
AC9
331
A83
  5
A86
331
AC2
  5
AC5
331
BDD
  5
BE0
331
C24
  5
C27
331
C20
  5
C23
331
BD9
  5
BDF
331
CFE
  5
D01
331
CFA
  5
CFD
331
3CF
  5
3CF
331
9CE
  5
9CE
331
E9D
  5
9DC
331
CF6
  5
CF9
331
A44
  5
A47
331
9CA
  5
9CA
331
A05
  5
A08
331
9C6
  5
9C6
331
CF2
  5
CF5
331
A01
  5
A04
331
A40
  5
A43
331
3C7
  5
3C7
331
3C3
  5
3C3
331
9FD
  5
A00
331
A3C
  5
A41
331
9F9
  5
9FC
331
A38
  5
A3B
331
506
  5
506
331
A7F
  5
A82
331
ABE
  5
AC1
331
ABA
  5
ABD
331
AF5
  5
BD8
331
C1C
  5
C1F
331
A7B
  5
A7E
331
AB6
  5
AB9
331
AF1
  5
AF4
331
C18
  5
C1B
331
A77
  5
A7A
331
A73
  5
A76
331
AED
  5
AF0
331
C14
  5
C17
331
C10
  5
C13
331
AE9
  5
AED
331
DB1
  5
E9D
331
DAD
  5
DB0
331
A34
  5
A37
331
4F6
  5
4F6
331
9F5
  5
9F8
331
DA9
  5
DAC
331
A30
  5
A33
331
A6F
  5
A74
331
4F2
  5
4F2
331
9F1
  5
9F4
331
A2C
  5
A2F
331
A6B
  5
A6E
331
A28
  5
A2B
331
AAE
  5
AB5
331
AAA
  5
AAD
331
AA6
  5
AA9
331
AE5
  5
AE8
331
CEF
  5
CF2
331
CEB
  5
CEE
331
AA2
  5
AA5
331
AE1
  5
AE4
331
A67
  5
A6A
331
9ED
  5
9F0
331
D19
  5
DAA
331
9E9
  5
9EC
331
D15
  5
D18
331
A24
  5
A27
331
A63
  5
A66
331
43A
  5
43A
331
9E5
  5
9E8
331
D11
  5
D14
331
A20
  5
A23
331
A5F
  5
A62
331
9E1
  5
9E4
331
A1C
  5
A1F
331
A5B
  5
A5E
331
A18
  5
A1B
331
52D
  5
52D
331
CE7
  5
CEA
331
A9E
  5
AA1
331
ADD
  5
AE0
331
AD9
  5
ADC
331
CE3
  5
CE6
331
A96
  5
A99
331
AD5
  5
ADB
331
BF8
  5
C0E
331
CDF
  5
CE2
331
CDB
  5
CDE
331
A92
  5
A95
331
AD1
  5
AD4
331
BF4
  5
BF9
331
BF0
  5
BF4
331
D0D
  5
D10
331
A57
  5
A5A
331
9DD
  5
9DE
331
D09
  5
D0C
331
A14
  5
A18
331
A53
  5
A56
331
3DA
  5
3DA
331
9D9
  5
9D9
331
D05
  5
D08
331
9D5
  5
9D5
331
D01
  5
D04
331
A4F
  5
A52
331
3D6
  5
3D6
331
3D2
  5
3D2
331
9D1
  5
9D1
331
A0C
  5
A0F
331
A4B
  5
A4E
331
A08
  5
A0B
331
A8E
  5
A91
331
ACD
  5
AD0
331
AC9
  5
ACC
331
A86
  5
A89
331
AC5
  5
AC8
331
BE0
  5
BF1
331
C27
  5
CD9
331
C23
  5
C26
331
A82
  5
A85
331
AC1
  5
AC4
331
BD8
  5
BDE
331
CFD
  5
D00
331
A47
  5
A4A
331
3CE
  5
3CE
331
9CD
  5
9CD
331
CF9
  5
CFC
331
A04
  5
A07
331
A43
  5
A46
331
9C9
  5
9C9
331
CF5
  5
CF8
331
9C5
  5
9C5
331
CF1
  5
CF4
331
A00
  5
A03
331
A3F
  5
A42
331
3C6
  5
3C6
331
3C2
  5
3C2
331
9FC
  5
9FF
331
A3B
  5
A40
331
9F8
  5
9FB
331
C1F
  5
C22
331
A7E
  5
A81
331
ABD
  5
AC0
331
AB9
  5
ABC
331
AF4
  5
B00
331
C1B
  5
C1E
331
A7A
  5
A7D
331
A76
  5
A79
331
AB5
  5
AB8
331
AF0
  5
AF3
331
C17
  5
C1A
331
AEC
  5
AEF
331
C13
  5
C16
331
AE8
  5
AEC
  0
XRECORD
  5
102A
102
{ACAD_REACTORS
330
1029
102
}
330
1029
100
AcDbXrecord
280
     1
 70
     1
  0
XRECORD
  5
102C
102
{ACAD_REACTORS
330
1029
102
}
330
1029
100
AcDbXrecord
280
     1
340
12
  0
XRECORD
  5
102D
102
{ACAD_REACTORS
330
1029
102
}
330
1029
100
AcDbXrecord
280
     1
340
12
  0
XRECORD
  5
102B
102
{ACAD_REACTORS
330
1029
102
}
330
1029
100
AcDbXrecord
280
     1
340
12
  0
ACDBDETAILVIEWSTYLE
  5
585
102
{ACAD_XDICTIONARY
360
1061
102
}
102
{ACAD_REACTORS
330
584
102
}
330
584
100
AcDbModelDocViewStyle
 70
     0
  3
Metric50
290
     0
100
AcDbDetailViewStyle
 70
     0
 71
     0
 90
        3
 71
     1
340
10
 62
   256
 40
5.0
340
0
 62
   256
 40
5.0
300

 40
0.0
280
     1
 71
     2
340
14
 90
       25
 62
   256
 71
     3
340
10
 62
   256
 40
5.0
 90
        0
 40
15.0
 90
        1
300
%<\AcVar ViewDetailId>% (%<\AcVar ViewScale \f "%sn">%)
 71
     4
340
14
 90
       25
 62
   256
340
14
 90
       25
 62
   256
280
     0
  0
LAYOUT
  5
33B
102
{ACAD_REACTORS
330
301
102
}
330
301
100
AcDbPlotSettings
  1

  2
Lexmark Optra PS2
  4

  6

 40
0.0
 41
0.0
 42
0.0
 43
0.0
 44
0.0
 45
0.0
 46
0.0
 47
0.0
 48
0.0
 49
0.0
140
0.0
141
0.0
142
1.0
143
1.0
 70
   688
 72
     0
 73
     0
 74
     5
  7
monochrome.ctb
 75
    16
147
1.0
 76
     0
 77
     2
 78
   300
148
0.0
149
0.0
100
AcDbLayout
  1
Layout1
 70
     1
 71
     1
 10
0.0
 20
0.0
 11
12.0
 21
9.0
 12
0.0
 22
0.0
 32
0.0
 14
0.0
 24
0.0
 34
0.0
 15
0.0
 25
0.0
 35
0.0
146
0.0
 13
0.0
 23
0.0
 33
0.0
 16
1.0
 26
0.0
 36
0.0
 17
0.0
 27
1.0
 37
0.0
 76
     0
330
338
  0
LAYOUT
  5
303
102
{ACAD_REACTORS
330
301
102
}
330
301
100
AcDbPlotSettings
  1

  2
Lexmark Optra Rx
  4
A4
  6

 40
6.805083274841307
 41
5.535083293914794
 42
6.974411010742187
 43
7.14373779296875
 44
209.9733276367186
 45
296.9259948730469
 46
0.0
 47
0.0
 48
0.0
 49
0.0
140
0.0
141
0.0
142
1.0
143
2.976565420630883
 70
 11952
 72
     1
 73
     1
 74
     0
  7
monochrome.ctb
 75
     0
147
0.335957675604539
 76
     0
 77
     2
 78
   300
148
204.1199660668592
149
172.3933209647495
100
AcDbLayout
  1
Model
 70
     1
 71
     0
 10
0.0
 20
0.0
 11
12.0
 21
9.0
 12
0.0
 22
0.0
 32
0.0
 14
0.0
 24
0.0
 34
0.0
 15
0.0
 25
0.0
 35
0.0
146
0.0
 13
0.0
 23
0.0
 33
0.0
 16
1.0
 26
0.0
 36
0.0
 17
0.0
 27
1.0
 37
0.0
 76
     0
330
18
331
39A
  0
MATERIAL
  5
557
102
{ACAD_XDICTIONARY
360
558
102
}
102
{ACAD_REACTORS
330
386
102
}
330
386
100
AcDbMaterial
  1
ByBlock
 72
     0
 43
0.0008202099737533
 43
0.0
 43
0.0
 43
0.0
 43
0.0
 43
0.0008202099737533
 43
0.0
 43
0.0
 43
0.0
 43
0.0
 43
1.0
 43
0.0
 43
0.0
 43
0.0
 43
0.0
 43
1.0
 77
     0
 47
0.0008202099737533
 47
0.0
 47
0.0
 47
0.0
 47
0.0
 47
0.0008202099737533
 47
0.0
 47
0.0
 47
0.0
 47
0.0
 47
1.0
 47
0.0
 47
0.0
 47
0.0
 47
0.0
 47
1.0
171
     0
 49
0.0008202099737533
 49
0.0
 49
0.0
 49
0.0
 49
0.0
 49
0.0008202099737533
 49
0.0
 49
0.0
 49
0.0
 49
0.0
 49
1.0
 49
0.0
 49
0.0
 49
0.0
 49
0.0
 49
1.0
175
     0
142
0.0008202099737533
142
0.0
142
0.0
142
0.0
142
0.0
142
0.0008202099737533
142
0.0
142
0.0
142
0.0
142
0.0
142
1.0
142
0.0
142
0.0
142
0.0
142
0.0
142
1.0
179
     0
144
0.0008202099737533
144
0.0
144
0.0
144
0.0
144
0.0
144
0.0008202099737533
144
0.0
144
0.0
144
0.0
144
0.0
144
1.0
144
0.0
144
0.0
144
0.0
144
0.0
144
1.0
147
0.0008202099737533
147
0.0
147
0.0
147
0.0
147
0.0
147
0.0008202099737533
147
0.0
147
0.0
147
0.0
147
0.0
147
1.0
147
0.0
147
0.0
147
0.0
147
0.0
147
1.0
  0
MATERIAL
  5
54F
102
{ACAD_XDICTIONARY
360
550
102
}
102
{ACAD_REACTORS
330
386
102
}
330
386
100
AcDbMaterial
  1
ByLayer
 72
     0
 43
0.0008202099737533
 43
0.0
 43
0.0
 43
0.0
 43
0.0
 43
0.0008202099737533
 43
0.0
 43
0.0
 43
0.0
 43
0.0
 43
1.0
 43
0.0
 43
0.0
 43
0.0
 43
0.0
 43
1.0
 77
     0
 47
0.0008202099737533
 47
0.0
 47
0.0
 47
0.0
 47
0.0
 47
0.0008202099737533
 47
0.0
 47
0.0
 47
0.0
 47
0.0
 47
1.0
 47
0.0
 47
0.0
 47
0.0
 47
0.0
 47
1.0
171
     0
 49
0.0008202099737533
 49
0.0
 49
0.0
 49
0.0
 49
0.0
 49
0.0008202099737533
 49
0.0
 49
0.0
 49
0.0
 49
0.0
 49
1.0
 49
0.0
 49
0.0
 49
0.0
 49
0.0
 49
1.0
175
     0
142
0.0008202099737533
142
0.0
142
0.0
142
0.0
142
0.0
142
0.0008202099737533
142
0.0
142
0.0
142
0.0
142
0.0
142
1.0
142
0.0
142
0.0
142
0.0
142
0.0
142
1.0
179
     0
144
0.0008202099737533
144
0.0
144
0.0
144
0.0
144
0.0
144
0.0008202099737533
144
0.0
144
0.0
144
0.0
144
0.0
144
1.0
144
0.0
144
0.0
144
0.0
144
0.0
144
1.0
147
0.0008202099737533
147
0.0
147
0.0
147
0.0
147
0.0
147
0.0008202099737533
147
0.0
147
0.0
147
0.0
147
0.0
147
1.0
147
0.0
147
0.0
147
0.0
147
0.0
147
1.0
  0
MATERIAL
  5
55F
102
{ACAD_XDICTIONARY
360
560
102
}
102
{ACAD_REACTORS
330
386
102
}
330
386
100
AcDbMaterial
  1
Global
 72
     0
 43
0.0008202099737533
 43
0.0
 43
0.0
 43
0.0
 43
0.0
 43
0.0008202099737533
 43
0.0
 43
0.0
 43
0.0
 43
0.0
 43
1.0
 43
0.0
 43
0.0
 43
0.0
 43
0.0
 43
1.0
 77
     0
 47
0.0008202099737533
 47
0.0
 47
0.0
 47
0.0
 47
0.0
 47
0.0008202099737533
 47
0.0
 47
0.0
 47
0.0
 47
0.0
 47
1.0
 47
0.0
 47
0.0
 47
0.0
 47
0.0
 47
1.0
171
     0
 49
0.0008202099737533
 49
0.0
 49
0.0
 49
0.0
 49
0.0
 49
0.0008202099737533
 49
0.0
 49
0.0
 49
0.0
 49
0.0
 49
1.0
 49
0.0
 49
0.0
 49
0.0
 49
0.0
 49
1.0
175
     0
142
0.0008202099737533
142
0.0
142
0.0
142
0.0
142
0.0
142
0.0008202099737533
142
0.0
142
0.0
142
0.0
142
0.0
142
1.0
142
0.0
142
0.0
142
0.0
142
0.0
142
1.0
179
     0
144
0.0008202099737533
144
0.0
144
0.0
144
0.0
144
0.0
144
0.0008202099737533
144
0.0
144
0.0
144
0.0
144
0.0
144
1.0
144
0.0
144
0.0
144
0.0
144
0.0
144
1.0
147
0.0008202099737533
147
0.0
147
0.0
147
0.0
147
0.0
147
0.0008202099737533
147
0.0
147
0.0
147
0.0
147
0.0
147
1.0
147
0.0
147
0.0
147
0.0
147
0.0
147
1.0
  0
MLEADERSTYLE
  5
581
102
{ACAD_REACTORS
330
548
102
}
330
548
100
AcDbMLeaderStyle
170
     2
171
     1
172
     0
 90
        2
 40
0.0
 41
0.0
173
     1
 91
-1056964608
340
12
 92
       -2
290
     1
 42
2.0
291
     1
 43
0.36
  3
Standard
 44
4.0
300

342
10
174
     1
178
     6
175
     1
176
     0
 93
-1056964608
 45
4.0
292
     0
297
     0
 46
4.0
 94
-1056964608
 47
1.0
 49
1.0
140
1.0
293
     1
141
0.0
294
     1
177
     0
142
1.0
295
     0
296
     0
143
0.125
1001
ACAD_MLEADERVER
1070
     2
  0
MLINESTYLE
  5
1B
102
{ACAD_REACTORS
330
E
102
}
330
E
100
AcDbMlineStyle
  2
STANDARD
 70
     0
  3

 62
     0
 51
90.0
 52
90.0
 71
     2
 49
0.5
 62
   256
  6
BYLAYER
 49
-0.5
 62
   256
  6
BYLAYER
  0
ACDBPLACEHOLDER
  5
300
102
{ACAD_REACTORS
330
2FF
102
}
330
2FF
  0
SCALE
  5
3A1
102
{ACAD_REACTORS
330
3A0
102
}
330
3A0
100
AcDbScale
 70
     0
300
1:1
140
1.0
141
1.0
290
     1
  0
SCALE
  5
3A2
102
{ACAD_REACTORS
330
3A0
102
}
330
3A0
100
AcDbScale
 70
     0
300
1:2
140
1.0
141
2.0
290
     0
  0
SCALE
  5
3A3
102
{ACAD_REACTORS
330
3A0
102
}
330
3A0
100
AcDbScale
 70
     0
300
1:4
140
1.0
141
4.0
290
     0
  0
SCALE
  5
3A4
102
{ACAD_REACTORS
330
3A0
102
}
330
3A0
100
AcDbScale
 70
     0
300
1:5
140
1.0
141
5.0
290
     0
  0
SCALE
  5
3A5
102
{ACAD_REACTORS
330
3A0
102
}
330
3A0
100
AcDbScale
 70
     0
300
1:8
140
1.0
141
8.0
290
     0
  0
SCALE
  5
3A6
102
{ACAD_REACTORS
330
3A0
102
}
330
3A0
100
AcDbScale
 70
     0
300
1:10
140
1.0
141
10.0
290
     0
  0
SCALE
  5
3A7
102
{ACAD_REACTORS
330
3A0
102
}
330
3A0
100
AcDbScale
 70
     0
300
1:16
140
1.0
141
16.0
290
     0
  0
SCALE
  5
3A8
102
{ACAD_REACTORS
330
3A0
102
}
330
3A0
100
AcDbScale
 70
     0
300
1:20
140
1.0
141
20.0
290
     0
  0
SCALE
  5
3A9
102
{ACAD_REACTORS
330
3A0
102
}
330
3A0
100
AcDbScale
 70
     0
300
1:30
140
1.0
141
30.0
290
     0
  0
SCALE
  5
3AA
102
{ACAD_REACTORS
330
3A0
102
}
330
3A0
100
AcDbScale
 70
     0
300
1:40
140
1.0
141
40.0
290
     0
  0
SCALE
  5
3AB
102
{ACAD_REACTORS
330
3A0
102
}
330
3A0
100
AcDbScale
 70
     0
300
1:50
140
1.0
141
50.0
290
     0
  0
SCALE
  5
3AC
102
{ACAD_REACTORS
330
3A0
102
}
330
3A0
100
AcDbScale
 70
     0
300
1:100
140
1.0
141
100.0
290
     0
  0
SCALE
  5
3AD
102
{ACAD_REACTORS
330
3A0
102
}
330
3A0
100
AcDbScale
 70
     0
300
2:1
140
2.0
141
1.0
290
     0
  0
SCALE
  5
3AE
102
{ACAD_REACTORS
330
3A0
102
}
330
3A0
100
AcDbScale
 70
     0
300
4:1
140
4.0
141
1.0
290
     0
  0
SCALE
  5
3AF
102
{ACAD_REACTORS
330
3A0
102
}
330
3A0
100
AcDbScale
 70
     0
300
8:1
140
8.0
141
1.0
290
     0
  0
SCALE
  5
3B0
102
{ACAD_REACTORS
330
3A0
102
}
330
3A0
100
AcDbScale
 70
     0
300
10:1
140
10.0
141
1.0
290
     0
  0
SCALE
  5
3B1
102
{ACAD_REACTORS
330
3A0
102
}
330
3A0
100
AcDbScale
 70
     0
300
100:1
140
100.0
141
1.0
290
     0
  0
SCALE
  5
3B2
102
{ACAD_REACTORS
330
3A0
102
}
330
3A0
100
AcDbScale
 70
     0
300
1/128" = 1'-0"
140
0.0078125
141
12.0
290
     0
  0
SCALE
  5
3B3
102
{ACAD_REACTORS
330
3A0
102
}
330
3A0
100
AcDbScale
 70
     0
300
1/64" = 1'-0"
140
0.015625
141
12.0
290
     0
  0
SCALE
  5
3B4
102
{ACAD_REACTORS
330
3A0
102
}
330
3A0
100
AcDbScale
 70
     0
300
1/32" = 1'-0"
140
0.03125
141
12.0
290
     0
  0
SCALE
  5
3B5
102
{ACAD_REACTORS
330
3A0
102
}
330
3A0
100
AcDbScale
 70
     0
300
1/16" = 1'-0"
140
0.0625
141
12.0
290
     0
  0
SCALE
  5
3B6
102
{ACAD_REACTORS
330
3A0
102
}
330
3A0
100
AcDbScale
 70
     0
300
3/32" = 1'-0"
140
0.09375
141
12.0
290
     0
  0
SCALE
  5
3B7
102
{ACAD_REACTORS
330
3A0
102
}
330
3A0
100
AcDbScale
 70
     0
300
1/8" = 1'-0"
140
0.125
141
12.0
290
     0
  0
SCALE
  5
3B8
102
{ACAD_REACTORS
330
3A0
102
}
330
3A0
100
AcDbScale
 70
     0
300
3/16" = 1'-0"
140
0.1875
141
12.0
290
     0
  0
SCALE
  5
3B9
102
{ACAD_REACTORS
330
3A0
102
}
330
3A0
100
AcDbScale
 70
     0
300
1/4" = 1'-0"
140
0.25
141
12.0
290
     0
  0
SCALE
  5
3BA
102
{ACAD_REACTORS
330
3A0
102
}
330
3A0
100
AcDbScale
 70
     0
300
3/8" = 1'-0"
140
0.375
141
12.0
290
     0
  0
SCALE
  5
3BB
102
{ACAD_REACTORS
330
3A0
102
}
330
3A0
100
AcDbScale
 70
     0
300
1/2" = 1'-0"
140
0.5
141
12.0
290
     0
  0
SCALE
  5
3BC
102
{ACAD_REACTORS
330
3A0
102
}
330
3A0
100
AcDbScale
 70
     0
300
3/4" = 1'-0"
140
0.75
141
12.0
290
     0
  0
SCALE
  5
3BD
102
{ACAD_REACTORS
330
3A0
102
}
330
3A0
100
AcDbScale
 70
     0
300
1" = 1'-0"
140
1.0
141
12.0
290
     0
  0
SCALE
  5
3BE
102
{ACAD_REACTORS
330
3A0
102
}
330
3A0
100
AcDbScale
 70
     0
300
1-1/2" = 1'-0"
140
1.5
141
12.0
290
     0
  0
SCALE
  5
3BF
102
{ACAD_REACTORS
330
3A0
102
}
330
3A0
100
AcDbScale
 70
     0
300
3" = 1'-0"
140
3.0
141
12.0
290
     0
  0
SCALE
  5
3C0
102
{ACAD_REACTORS
330
3A0
102
}
330
3A0
100
AcDbScale
 70
     0
300
6" = 1'-0"
140
6.0
141
12.0
290
     0
  0
SCALE
  5
3C1
102
{ACAD_REACTORS
330
3A0
102
}
330
3A0
100
AcDbScale
 70
     0
300
1'-0" = 1'-0"
140
12.0
141
12.0
290
     0
  0
ACDBSECTIONVIEWSTYLE
  5
583
102
{ACAD_XDICTIONARY
360
105F
102
}
102
{ACAD_REACTORS
330
582
102
}
330
582
100
AcDbModelDocViewStyle
 70
     0
  3
Metric50
290
     0
100
AcDbSectionViewStyle
 70
     0
 71
     0
 90
      102
 71
     1
340
10
 62
   256
 40
5.0
340
0
340
0
 62
   256
 40
5.0
300
I, O, Q, S, X, Z
 40
10.0
 90
        0
 40
2.5
 90
        0
 71
     2
340
14
 90
       25
 62
   256
340
14
 90
       50
 62
   256
 40
5.0
 40
2.5
 40
5.0
 71
     3
340
10
 62
   256
 40
5.0
 90
        0
 40
15.0
 90
        1
300
%<\AcVar ViewSectionStartId>%-%<\AcVar ViewSectionEndId>% (%<\AcVar ViewScale \f "%sn">%)
 71
     4
 62
   256
 62
   257
300
ANSI31
 40
1.0
 90
        0
290
     0
290
     0
 90
        6
 40
0.0
 40
1.570796326794896
 40
0.2617993877991494
 40
1.308996938995747
 40
-0.2617993877991494
 40
1.832595714594044
  0
TABLESTYLE
  5
580
102
{ACAD_XDICTIONARY
360
5B2
102
}
102
{ACAD_REACTORS
330
388
102
}
330
388
100
AcDbTableStyle
  3
Standard
 70
     0
 71
     0
 40
1.5
 41
1.5
280
     0
281
     0
  7
STANDARD
140
4.5
170
     2
 62
     0
 63
     7
283
     0
274
    -2
284
     1
 64
     0
275
    -2
285
     1
 65
     0
276
    -2
286
     1
 66
     0
277
    -2
287
     1
 67
     0
278
    -2
288
     1
 68
     0
279
    -2
289
     1
 69
     0
  7
STANDARD
140
6.0
170
     5
 62
     0
 63
     7
283
     0
274
    -2
284
     1
 64
     0
275
    -2
285
     1
 65
     0
276
    -2
286
     1
 66
     0
277
    -2
287
     1
 67
     0
278
    -2
288
     1
 68
     0
279
    -2
289
     1
 69
     0
  7
STANDARD
140
4.5
170
     5
 62
     0
 63
     7
283
     0
274
    -2
284
     1
 64
     0
275
    -2
285
     1
 65
     0
276
    -2
286
     1
 66
     0
277
    -2
287
     1
 67
     0
278
    -2
288
     1
 68
     0
279
    -2
289
     1
 69
     0
  0
VISUALSTYLE
  5
56D
102
{ACAD_XDICTIONARY
360
1038
102
}
102
{ACAD_REACTORS
330
567
102
}
330
567
100
AcDbVisualStyle
  2

 70
     4
 71
     0
 72
     2
 73
     0
 90
        0
 40
-0.6
 41
-30.0
 62
     5
 63
     7
 74
     1
 91
        4
 64
     7
 65
   257
 75
     1
175
     1
 42
1.0
 92
        0
 66
   257
 43
1.0
 76
     1
 77
     6
 78
     2
 67
     7
 79
     5
170
     0
171
     0
290
     0
174
     0
 93
        1
 44
0.0
173
     0
291
     0
 45
0.0
1001
ACAD
1000
AcDbSavedByObjectVersion
1070
     0
  0
VISUALSTYLE
  5
56C
102
{ACAD_XDICTIONARY
360
1036
102
}
102
{ACAD_REACTORS
330
567
102
}
330
567
100
AcDbVisualStyle
  2

 70
     7
 71
     1
 72
     0
 73
     1
 90
        0
 40
-0.6
 41
-30.0
 62
     5
 63
     7
 74
     0
 91
        4
 64
     7
 65
   257
 75
     1
175
     1
 42
1.0
 92
        8
 66
     7
 43
1.0
 76
     1
 77
     6
 78
     2
 67
     7
 79
     5
170
     0
171
     0
290
     0
174
     0
 93
        1
 44
0.0
173
     0
291
     1
 45
0.0
1001
ACAD
1000
AcDbSavedByObjectVersion
1070
     0
  0
VISUALSTYLE
  5
573
102
{ACAD_XDICTIONARY
360
1044
102
}
102
{ACAD_REACTORS
330
567
102
}
330
567
100
AcDbVisualStyle
  2

 70
    12
 71
     2
 72
     2
 73
     0
 90
        0
 40
-0.6
 41
-30.0
 62
     5
 63
     7
 74
     1
 91
        4
 64
     7
 65
   257
 75
     1
175
     1
 42
1.0
 92
        8
 66
     7
 43
1.0
 76
     1
 77
     6
 78
     2
 67
     7
 79
     5
170
     0
171
     0
290
     0
174
     0
 93
        1
 44
50.0
173
     0
291
     1
 45
0.0
1001
ACAD
1000
AcDbSavedByObjectVersion
1070
     0
  0
VISUALSTYLE
  5
577
102
{ACAD_XDICTIONARY
360
104C
102
}
102
{ACAD_REACTORS
330
567
102
}
330
567
100
AcDbVisualStyle
  2

 70
    16
 71
     2
 72
     2
 73
     3
 90
        0
 40
-0.6
 41
-30.0
 62
     5
 63
     8
 74
     1
 91
        4
 64
     7
 65
   257
 75
     1
175
     1
 42
1.0
 92
        8
 66
     8
 43
1.0
 76
     1
 77
     6
 78
     2
 67
     7
 79
     5
170
     0
171
     0
290
     0
174
     0
 93
        1
 44
0.0
173
     0
291
     1
 45
0.0
1001
ACAD
1000
AcDbSavedByObjectVersion
1070
     0
  0
VISUALSTYLE
  5
570
102
{ACAD_XDICTIONARY
360
103E
102
}
102
{ACAD_REACTORS
330
567
102
}
330
567
100
AcDbVisualStyle
  2

 70
     9
 71
     3
 72
     2
 73
     0
 90
        0
 40
-0.6
 41
-30.0
 62
     5
 63
     7
 74
     2
 91
        2
 64
     7
 65
   257
 75
     1
175
     1
 42
179.0
 92
        8
 66
     7
 43
1.0
 76
     1
 77
     6
 78
     2
 67
     7
 79
     3
170
     0
171
     0
290
     0
174
     0
 93
        1
 44
0.0
173
     0
291
     0
 45
0.0
1001
ACAD
1000
AcDbSavedByObjectVersion
1070
     0
  0
VISUALSTYLE
  5
572
102
{ACAD_XDICTIONARY
360
1042
102
}
102
{ACAD_REACTORS
330
567
102
}
330
567
100
AcDbVisualStyle
  2

 70
    11
 71
     2
 72
     2
 73
     0
 90
        0
 40
-0.6
 41
-30.0
 62
     5
 63
     7
 74
     1
 91
        4
 64
     7
 65
   257
 75
     1
175
     1
 42
1.0
 92
        8
 66
     7
 43
1.0
 76
     1
 77
     6
 78
     2
 67
     7
 79
     5
170
     0
171
     0
290
     0
174
     0
 93
        1
 44
-50.0
173
     0
291
     1
 45
0.0
1001
ACAD
1000
AcDbSavedByObjectVersion
1070
     0
  0
VISUALSTYLE
  5
57F
102
{ACAD_XDICTIONARY
360
105C
102
}
102
{ACAD_REACTORS
330
567
102
}
330
567
100
AcDbVisualStyle
  2

 70
    22
 71
     2
 72
     2
 73
     0
 90
        0
 40
-0.6
 41
-30.0
 62
     5
 63
     7
 74
     1
 91
        4
 64
     7
 65
   257
 75
     1
175
     1
 42
1.0
 92
        8
 66
     7
 43
1.0
 76
     1
 77
     6
 78
     2
 67
     7
 79
     5
170
     0
171
     0
290
     0
174
     0
 93
        1
 44
0.0
173
     0
291
     1
 45
0.0
1001
ACAD
1000
AcDbSavedByObjectVersion
1070
     0
  0
VISUALSTYLE
  5
576
102
{ACAD_XDICTIONARY
360
104A
102
}
102
{ACAD_REACTORS
330
567
102
}
330
567
100
AcDbVisualStyle
  2

 70
    15
 71
     2
 72
     2
 73
     0
 90
        0
 40
-0.6
 41
-30.0
 62
     5
 63
     7
 74
     1
 91
        4
 64
     7
 65
   257
 75
     1
175
     1
 42
1.0
 92
        8
 66
     7
 43
1.0
 76
     1
 77
     6
 78
     2
 67
     7
 79
     5
170
     0
171
     0
290
     0
174
     0
 93
        1
 44
0.0
173
     0
291
     1
 45
0.0
1001
ACAD
1000
AcDbSavedByObjectVersion
1070
     0
  0
VISUALSTYLE
  5
568
102
{ACAD_XDICTIONARY
360
102E
102
}
102
{ACAD_REACTORS
330
567
102
}
330
567
100
AcDbVisualStyle
  2

 70
     0
 71
     2
 72
     1
 73
     1
 90
        2
 40
-0.6
 41
30.0
 62
     5
 63
     7
 74
     0
 91
        0
 64
     7
 65
   257
 75
     1
175
     1
 42
1.0
 92
        8
 66
     7
 43
1.0
 76
     1
 77
     6
 78
     2
 67
     7
 79
     5
170
     0
171
     0
290
     0
174
     0
 93
       13
 44
0.0
173
     0
291
     1
 45
0.0
1001
ACAD
1000
AcDbSavedByObjectVersion
1070
     0
  0
VISUALSTYLE
  5
569
102
{ACAD_XDICTIONARY
360
1030
102
}
102
{ACAD_REACTORS
330
567
102
}
330
567
100
AcDbVisualStyle
  2

 70
     1
 71
     2
 72
     1
 73
     1
 90
        2
 40
-0.6
 41
30.0
 62
     5
 63
     7
 74
     1
 91
        0
 64
     7
 65
   257
 75
     1
175
     1
 42
1.0
 92
        0
 66
   257
 43
1.0
 76
     1
 77
     6
 78
     2
 67
     7
 79
     5
170
     0
171
     0
290
     0
174
     0
 93
       13
 44
0.0
173
     0
291
     1
 45
0.0
1001
ACAD
1000
AcDbSavedByObjectVersion
1070
     0
  0
VISUALSTYLE
  5
56A
102
{ACAD_XDICTIONARY
360
1032
102
}
102
{ACAD_REACTORS
330
567
102
}
330
567
100
AcDbVisualStyle
  2

 70
     2
 71
     2
 72
     2
 73
     1
 90
        2
 40
-0.6
 41
30.0
 62
     5
 63
     7
 74
     0
 91
        0
 64
     7
 65
   257
 75
     1
175
     1
 42
1.0
 92
        0
 66
     7
 43
1.0
 76
     1
 77
     6
 78
     2
 67
     7
 79
     5
170
     0
171
     0
290
     0
174
     0
 93
       13
 44
0.0
173
     0
291
     1
 45
0.0
1001
ACAD
1000
AcDbSavedByObjectVersion
1070
     0
  0
VISUALSTYLE
  5
56B
102
{ACAD_XDICTIONARY
360
1034
102
}
102
{ACAD_REACTORS
330
567
102
}
330
567
100
AcDbVisualStyle
  2

 70
     3
 71
     2
 72
     2
 73
     1
 90
        2
 40
-0.6
 41
30.0
 62
     5
 63
     7
 74
     1
 91
        0
 64
     7
 65
   257
 75
     1
175
     1
 42
1.0
 92
        0
 66
   257
 43
1.0
 76
     1
 77
     6
 78
     2
 67
     7
 79
     5
170
     0
171
     0
290
     0
174
     0
 93
       13
 44
0.0
173
     0
291
     1
 45
0.0
1001
ACAD
1000
AcDbSavedByObjectVersion
1070
     0
  0
VISUALSTYLE
  5
56F
102
{ACAD_XDICTIONARY
360
103C
102
}
102
{ACAD_REACTORS
330
567
102
}
330
567
100
AcDbVisualStyle
  2

 70
     6
 71
     1
 72
     2
 73
     2
 90
        0
 40
-0.6
 41
-30.0
 62
     5
 63
     7
 74
     2
 91
        2
 64
     7
 65
   257
 75
     2
175
     1
 42
40.0
 92
        0
 66
   257
 43
1.0
 76
     1
 77
     6
 78
     2
 67
     7
 79
     3
170
     0
171
     0
290
     0
174
     0
 93
        1
 44
0.0
173
     0
291
     0
 45
0.0
1001
ACAD
1000
AcDbSavedByObjectVersion
1070
     0
  0
VISUALSTYLE
  5
57D
102
{ACAD_XDICTIONARY
360
1058
102
}
102
{ACAD_REACTORS
330
567
102
}
330
567
100
AcDbVisualStyle
  2

 70
    20
 71
     2
 72
     2
 73
     0
 90
        0
 40
-0.6
 41
-30.0
 62
     5
 63
     7
 74
     1
 91
        4
 64
     7
 65
   257
 75
     1
175
     1
 42
1.0
 92
       10
 66
     7
 43
1.0
 76
     1
 77
     6
 78
     2
 67
     7
 79
     5
170
     0
171
     0
290
     0
174
     0
 93
        1
 44
0.0
173
     0
291
     1
 45
0.0
1001
ACAD
1000
AcDbSavedByObjectVersion
1070
     0
  0
VISUALSTYLE
  5
575
102
{ACAD_XDICTIONARY
360
1048
102
}
102
{ACAD_REACTORS
330
567
102
}
330
567
100
AcDbVisualStyle
  2

 70
    14
 71
     2
 72
     2
 73
     0
 90
        0
 40
-0.6
 41
-30.0
 62
     5
 63
     7
 74
     1
 91
        4
 64
     7
 65
   257
 75
     7
175
     7
 42
1.0
 92
        8
 66
     7
 43
1.0
 76
     1
 77
     6
 78
     2
 67
     7
 79
     5
170
     0
171
     0
290
     0
174
     0
 93
        1
 44
0.0
173
     0
291
     1
 45
0.0
1001
ACAD
1000
AcDbSavedByObjectVersion
1070
     0
  0
VISUALSTYLE
  5
57E
102
{ACAD_XDICTIONARY
360
105A
102
}
102
{ACAD_REACTORS
330
567
102
}
330
567
100
AcDbVisualStyle
  2

 70
    21
 71
     2
 72
     2
 73
     0
 90
        0
 40
-0.6
 41
-30.0
 62
     5
 63
     7
 74
     1
 91
        4
 64
     7
 65
   257
 75
     1
175
     1
 42
1.0
 92
        9
 66
     7
 43
1.0
 76
     1
 77
     6
 78
     2
 67
     7
 79
     5
170
     0
171
     0
290
     0
174
     0
 93
        1
 44
0.0
173
     0
291
     1
 45
0.0
1001
ACAD
1000
AcDbSavedByObjectVersion
1070
     0
  0
VISUALSTYLE
  5
571
102
{ACAD_XDICTIONARY
360
1040
102
}
102
{ACAD_REACTORS
330
567
102
}
330
567
100
AcDbVisualStyle
  2

 70
     8
 71
     2
 72
     3
 73
     0
 90
        2
 40
-0.6
 41
30.0
 62
     5
 63
     7
 74
     0
 91
        0
 64
     7
 65
   257
 75
     1
175
     1
 42
1.0
 92
        8
 66
   257
 43
1.0
 76
     1
 77
     6
 78
     2
 67
     7
 79
     3
170
     0
171
     0
290
     0
174
     0
 93
       13
 44
0.0
173
     0
291
     0
 45
0.0
1001
ACAD
1000
AcDbSavedByObjectVersion
1070
     0
  0
VISUALSTYLE
  5
57C
102
{ACAD_XDICTIONARY
360
1056
102
}
102
{ACAD_REACTORS
330
567
102
}
330
567
100
AcDbVisualStyle
  2

 70
    27
 71
     2
 72
     2
 73
     1
 90
        2
 40
-0.6
 41
30.0
 62
     5
 63
     7
 74
     0
 91
        4
 64
     7
 65
   257
 75
     1
175
     1
 42
1.0
 92
        8
 66
   257
 43
1.0
 76
     1
 77
     6
 78
     2
 67
     8
 79
     3
170
     0
171
     0
290
     0
174
     0
 93
        5
 44
0.0
173
     0
291
     0
 45
0.0
1001
ACAD
1000
AcDbSavedByObjectVersion
1070
     0
  0
VISUALSTYLE
  5
57B
102
{ACAD_XDICTIONARY
360
1054
102
}
102
{ACAD_REACTORS
330
567
102
}
330
567
100
AcDbVisualStyle
  2

 70
    26
 71
     2
 72
     2
 73
     1
 90
        2
 40
-0.6
 41
30.0
 62
     5
 63
     7
 74
     1
 91
       10
 64
     7
 65
   257
 75
     2
175
     1
 42
1.0
 92
        8
 66
   257
 43
1.0
 76
     1
 77
     6
 78
     2
 67
     7
 79
     3
170
     0
171
     0
290
     0
174
     0
 93
        5
 44
0.0
173
     0
291
     0
 45
0.0
1001
ACAD
1000
AcDbSavedByObjectVersion
1070
     0
  0
VISUALSTYLE
  5
578
102
{ACAD_XDICTIONARY
360
104E
102
}
102
{ACAD_REACTORS
330
567
102
}
330
567
100
AcDbVisualStyle
  2

 70
    23
 71
     2
 72
     2
 73
     3
 90
        0
 40
-0.6
 41
-30.0
 62
     5
 63
     7
 74
     2
 91
        2
 64
     7
 65
     7
 75
     1
175
     1
 42
40.0
 92
        8
 66
     7
 43
1.0
 76
     1
 77
     6
 78
     2
 67
     7
 79
     3
170
     0
171
     0
290
     0
174
     0
 93
        1
 44
0.0
173
     0
291
     0
 45
0.0
1001
ACAD
1000
AcDbSavedByObjectVersion
1070
     0
  0
VISUALSTYLE
  5
579
102
{ACAD_XDICTIONARY
360
1050
102
}
102
{ACAD_REACTORS
330
567
102
}
330
567
100
AcDbVisualStyle
  2

 70
    24
 71
     1
 72
     2
 73
     2
 90
        0
 40
-0.6
 41
-30.0
 62
     5
 63
     7
 74
     2
 91
        2
 64
     7
 65
     7
 75
     1
175
     1
 42
40.0
 92
       11
 66
     7
 43
1.0
 76
     1
 77
     6
 78
     2
 67
     7
 79
     6
170
     0
171
     0
290
     0
174
     0
 93
        1
 44
0.0
173
     0
291
     0
 45
0.0
1001
ACAD
1000
AcDbSavedByObjectVersion
1070
     0
  0
VISUALSTYLE
  5
574
102
{ACAD_XDICTIONARY
360
1046
102
}
102
{ACAD_REACTORS
330
567
102
}
330
567
100
AcDbVisualStyle
  2

 70
    13
 71
     2
 72
     2
 73
     0
 90
        0
 40
-0.6
 41
-30.0
 62
     5
 63
     7
 74
     1
 91
        4
 64
     7
 65
   257
 75
     1
175
     1
 42
1.0
 92
       12
 66
     7
 43
1.0
 76
     1
 77
     6
 78
     2
 67
     7
 79
     5
170
     0
171
     0
290
     0
174
     0
 93
        1
 44
0.0
173
     0
291
     1
 45
0.0
1001
ACAD
1000
AcDbSavedByObjectVersion
1070
     0
  0
VISUALSTYLE
  5
56E
102
{ACAD_XDICTIONARY
360
103A
102
}
102
{ACAD_REACTORS
330
567
102
}
330
567
100
AcDbVisualStyle
  2

 70
     5
 71
     0
 72
     2
 73
     0
 90
        0
 40
-0.6
 41
-30.0
 62
     5
 63
     7
 74
     1
 91
        4
 64
     7
 65
   257
 75
     1
175
     1
 42
1.0
 92
        0
 66
   257
 43
1.0
 76
     1
 77
     6
 78
     2
 67
     7
 79
     3
170
     0
171
     0
290
     0
174
     0
 93
        1
 44
0.0
173
     0
291
     0
 45
0.0
1001
ACAD
1000
AcDbSavedByObjectVersion
1070
     0
  0
VISUALSTYLE
  5
57A
102
{ACAD_XDICTIONARY
360
1052
102
}
102
{ACAD_REACTORS
330
567
102
}
330
567
100
AcDbVisualStyle
  2

 70
    25
 71
     2
 72
     2
 73
     1
 90
        1
 40
0.5
 41
-30.0
 62
     5
 63
     7
 74
     1
 91
        0
 64
     7
 65
   257
 75
     1
175
     1
 42
1.0
 92
        8
 66
     7
 43
1.0
 76
     1
 77
     6
 78
     2
 67
     7
 79
     3
170
     0
171
     0
290
     0
174
     0
 93
       13
 44
0.0
173
     0
291
     0
 45
0.0
1001
ACAD
1000
AcDbSavedByObjectVersion
1070
     0
  0
DICTIONARYVAR
  5
549
102
{ACAD_REACTORS
330
357
102
}
330
357
100
DictionaryVariables
280
     0
  1
1:1
  0
DICTIONARYVAR
  5
5AB
102
{ACAD_REACTORS
330
357
102
}
330
357
100
DictionaryVariables
280
     0
  1
STANDARD
  0
DICTIONARYVAR
  5
38D
102
{ACAD_REACTORS
330
357
102
}
330
357
100
DictionaryVariables
280
     0
  1
STANDARD
  0
DICTIONARYVAR
  5
5AC
102
{ACAD_REACTORS
330
357
102
}
330
357
100
DictionaryVariables
280
     0
  1
Metric50
  0
DICTIONARYVAR
  5
5AD
102
{ACAD_REACTORS
330
357
102
}
330
357
100
DictionaryVariables
280
     0
  1
Metric50
  0
DICTIONARYVAR
  5
359
102
{ACAD_REACTORS
330
357
102
}
330
357
100
DictionaryVariables
280
     0
  1
2
  0
DICTIONARYVAR
  5
358
102
{ACAD_REACTORS
330
357
102
}
330
357
100
DictionaryVariables
280
     0
  1
1
  0
DICTIONARYVAR
  5
5AF
102
{ACAD_REACTORS
330
357
102
}
330
357
100
DictionaryVariables
280
     0
  1
0
  0
DICTIONARYVAR
  5
D43
102
{ACAD_REACTORS
330
357
102
}
330
357
100
DictionaryVariables
280
     0
  1
1
  0
DICTIONARYVAR
  5
D44
102
{ACAD_REACTORS
330
357
102
}
330
357
100
DictionaryVariables
280
     0
  1
15
  0
DICTIONARYVAR
  5
D42
102
{ACAD_REACTORS
330
357
102
}
330
357
100
DictionaryVariables
280
     0
  1
0
  0
DICTIONARYVAR
  5
D41
102
{ACAD_REACTORS
330
357
102
}
330
357
100
DictionaryVariables
280
     0
  1
0
  0
DICTIONARYVAR
  5
38E
102
{ACAD_REACTORS
330
357
102
}
330
357
100
DictionaryVariables
280
     0
  1

  0
DICTIONARYVAR
  5
5AE
102
{ACAD_REACTORS
330
357
102
}
330
357
100
DictionaryVariables
280
     0
  1
127
  0
DICTIONARYVAR
  5
1026
102
{ACAD_REACTORS
330
357
102
}
330
357
100
DictionaryVariables
280
     0
  1
2
  0
DICTIONARY
  5
626
102
{ACAD_REACTORS
330
61F
102
}
330
61F
100
AcDbDictionary
281
     1
  0
DICTIONARY
  5
1061
330
585
100
AcDbDictionary
280
     1
281
     1
  3
ACAD_XREC_ROUNDTRIP
360
1062
  0
DICTIONARY
  5
558
330
557
100
AcDbDictionary
280
     1
281
     1
  3
ACAD_XREC_ROUNDTRIP
360
5BC
  3
BUMPTILE
360
55A
  3
DIFFUSETILE
360
559
  3
OPACITYTILE
360
55D
  3
REFLECTIONTILE
360
55C
  3
REFRACTIONTILE
360
55E
  3
SPECULARTILE
360
55B
  0
DICTIONARY
  5
550
330
54F
100
AcDbDictionary
280
     1
281
     1
  3
ACAD_XREC_ROUNDTRIP
360
5BB
  3
BUMPTILE
360
552
  3
DIFFUSETILE
360
551
  3
OPACITYTILE
360
555
  3
REFLECTIONTILE
360
554
  3
REFRACTIONTILE
360
556
  3
SPECULARTILE
360
553
  0
DICTIONARY
  5
560
330
55F
100
AcDbDictionary
280
     1
281
     1
  3
ACAD_XREC_ROUNDTRIP
360
5BD
  3
BUMPTILE
360
562
  3
DIFFUSETILE
360
561
  3
OPACITYTILE
360
565
  3
REFLECTIONTILE
360
564
  3
REFRACTIONTILE
360
566
  3
SPECULARTILE
360
563
  0
DICTIONARY
  5
105F
330
583
100
AcDbDictionary
280
     1
281
     1
  3
ACAD_XREC_ROUNDTRIP
360
1060
  0
DICTIONARY
  5
5B2
330
580
100
AcDbDictionary
280
     1
281
     1
  3
ACAD_ROUNDTRIP_2008_TABLESTYLE_CELLSTYLEMAP
360
1027
  3
ACAD_XREC_ROUNDTRIP
360
105E
  0
DICTIONARY
  5
1038
330
56D
100
AcDbDictionary
280
     1
281
     1
  3
ACAD_XREC_ROUNDTRIP
360
1039
  0
DICTIONARY
  5
1036
330
56C
100
AcDbDictionary
280
     1
281
     1
  3
ACAD_XREC_ROUNDTRIP
360
1037
  0
DICTIONARY
  5
1044
330
573
100
AcDbDictionary
280
     1
281
     1
  3
ACAD_XREC_ROUNDTRIP
360
1045
  0
DICTIONARY
  5
104C
330
577
100
AcDbDictionary
280
     1
281
     1
  3
ACAD_XREC_ROUNDTRIP
360
104D
  0
DICTIONARY
  5
103E
330
570
100
AcDbDictionary
280
     1
281
     1
  3
ACAD_XREC_ROUNDTRIP
360
103F
  0
DICTIONARY
  5
1042
330
572
100
AcDbDictionary
280
     1
281
     1
  3
ACAD_XREC_ROUNDTRIP
360
1043
  0
DICTIONARY
  5
105C
330
57F
100
AcDbDictionary
280
     1
281
     1
  3
ACAD_XREC_ROUNDTRIP
360
105D
  0
DICTIONARY
  5
104A
330
576
100
AcDbDictionary
280
     1
281
     1
  3
ACAD_XREC_ROUNDTRIP
360
104B
  0
DICTIONARY
  5
102E
330
568
100
AcDbDictionary
280
     1
281
     1
  3
ACAD_XREC_ROUNDTRIP
360
102F
  0
DICTIONARY
  5
1030
330
569
100
AcDbDictionary
280
     1
281
     1
  3
ACAD_XREC_ROUNDTRIP
360
1031
  0
DICTIONARY
  5
1032
330
56A
100
AcDbDictionary
280
     1
281
     1
  3
ACAD_XREC_ROUNDTRIP
360
1033
  0
DICTIONARY
  5
1034
330
56B
100
AcDbDictionary
280
     1
281
     1
  3
ACAD_XREC_ROUNDTRIP
360
1035
  0
DICTIONARY
  5
103C
330
56F
100
AcDbDictionary
280
     1
281
     1
  3
ACAD_XREC_ROUNDTRIP
360
103D
  0
DICTIONARY
  5
1058
330
57D
100
AcDbDictionary
280
     1
281
     1
  3
ACAD_XREC_ROUNDTRIP
360
1059
  0
DICTIONARY
  5
1048
330
575
100
AcDbDictionary
280
     1
281
     1
  3
ACAD_XREC_ROUNDTRIP
360
1049
  0
DICTIONARY
  5
105A
330
57E
100
AcDbDictionary
280
     1
281
     1
  3
ACAD_XREC_ROUNDTRIP
360
105B
  0
DICTIONARY
  5
1040
330
571
100
AcDbDictionary
280
     1
281
     1
  3
ACAD_XREC_ROUNDTRIP
360
1041
  0
DICTIONARY
  5
1056
330
57C
100
AcDbDictionary
280
     1
281
     1
  3
ACAD_XREC_ROUNDTRIP
360
1057
  0
DICTIONARY
  5
1054
330
57B
100
AcDbDictionary
280
     1
281
     1
  3
ACAD_XREC_ROUNDTRIP
360
1055
  0
DICTIONARY
  5
104E
330
578
100
AcDbDictionary
280
     1
281
     1
  3
ACAD_XREC_ROUNDTRIP
360
104F
  0
DICTIONARY
  5
1050
330
579
100
AcDbDictionary
280
     1
281
     1
  3
ACAD_XREC_ROUNDTRIP
360
1051
  0
DICTIONARY
  5
1046
330
574
100
AcDbDictionary
280
     1
281
     1
  3
ACAD_XREC_ROUNDTRIP
360
1047
  0
DICTIONARY
  5
103A
330
56E
100
AcDbDictionary
280
     1
281
     1
  3
ACAD_XREC_ROUNDTRIP
360
103B
  0
DICTIONARY
  5
1052
330
57A
100
AcDbDictionary
280
     1
281
     1
  3
ACAD_XREC_ROUNDTRIP
360
1053
  0
XRECORD
  5
1062
102
{ACAD_REACTORS
330
1061
102
}
330
1061
100
AcDbXrecord
280
     1
102
DISPLAYNAME
  1
Metric50
102
FLAGS
 90
        0
  0
XRECORD
  5
5BC
102
{ACAD_REACTORS
330
558
102
}
330
558
100
AcDbXrecord
280
     1
102
MATERIAL
148
0.0
149
0.0
149
0.0
 93
        0
 94
      127
282
     0
 72
     0
 77
     0
171
     0
175
     0
179
     0
273
     0
  0
XRECORD
  5
55A
102
{ACAD_REACTORS
330
558
102
}
330
558
100
AcDbXrecord
280
     1
270
     1
271
     1
  0
XRECORD
  5
559
102
{ACAD_REACTORS
330
558
102
}
330
558
100
AcDbXrecord
280
     1
270
     1
271
     1
  0
XRECORD
  5
55D
102
{ACAD_REACTORS
330
558
102
}
330
558
100
AcDbXrecord
280
     1
270
     1
271
     1
  0
XRECORD
  5
55C
102
{ACAD_REACTORS
330
558
102
}
330
558
100
AcDbXrecord
280
     1
270
     1
271
     1
  0
XRECORD
  5
55E
102
{ACAD_REACTORS
330
558
102
}
330
558
100
AcDbXrecord
280
     1
270
     1
271
     1
  0
XRECORD
  5
55B
102
{ACAD_REACTORS
330
558
102
}
330
558
100
AcDbXrecord
280
     1
270
     1
271
     1
  0
XRECORD
  5
5BB
102
{ACAD_REACTORS
330
550
102
}
330
550
100
AcDbXrecord
280
     1
102
MATERIAL
148
0.0
149
0.0
149
0.0
 93
        0
 94
      127
282
     0
 72
     0
 77
     0
171
     0
175
     0
179
     0
273
     0
  0
XRECORD
  5
552
102
{ACAD_REACTORS
330
550
102
}
330
550
100
AcDbXrecord
280
     1
270
     1
271
     1
  0
XRECORD
  5
551
102
{ACAD_REACTORS
330
550
102
}
330
550
100
AcDbXrecord
280
     1
270
     1
271
     1
  0
XRECORD
  5
555
102
{ACAD_REACTORS
330
550
102
}
330
550
100
AcDbXrecord
280
     1
270
     1
271
     1
  0
XRECORD
  5
554
102
{ACAD_REACTORS
330
550
102
}
330
550
100
AcDbXrecord
280
     1
270
     1
271
     1
  0
XRECORD
  5
556
102
{ACAD_REACTORS
330
550
102
}
330
550
100
AcDbXrecord
280
     1
270
     1
271
     1
  0
XRECORD
  5
553
102
{ACAD_REACTORS
330
550
102
}
330
550
100
AcDbXrecord
280
     1
270
     1
271
     1
  0
XRECORD
  5
5BD
102
{ACAD_REACTORS
330
560
102
}
330
560
100
AcDbXrecord
280
     1
102
MATERIAL
148
0.0
149
0.0
149
0.0
 93
        0
 94
      127
282
     0
 72
     0
 77
     0
171
     0
175
     0
179
     0
273
     0
  0
XRECORD
  5
562
102
{ACAD_REACTORS
330
560
102
}
330
560
100
AcDbXrecord
280
     1
270
     1
271
     1
  0
XRECORD
  5
561
102
{ACAD_REACTORS
330
560
102
}
330
560
100
AcDbXrecord
280
     1
270
     1
271
     1
  0
XRECORD
  5
565
102
{ACAD_REACTORS
330
560
102
}
330
560
100
AcDbXrecord
280
     1
270
     1
271
     1
  0
XRECORD
  5
564
102
{ACAD_REACTORS
330
560
102
}
330
560
100
AcDbXrecord
280
     1
270
     1
271
     1
  0
XRECORD
  5
566
102
{ACAD_REACTORS
330
560
102
}
330
560
100
AcDbXrecord
280
     1
270
     1
271
     1
  0
XRECORD
  5
563
102
{ACAD_REACTORS
330
560
102
}
330
560
100
AcDbXrecord
280
     1
270
     1
271
     1
  0
XRECORD
  5
1060
102
{ACAD_REACTORS
330
105F
102
}
330
105F
100
AcDbXrecord
280
     1
102
DISPLAYNAME
  1
Metric50
102
FLAGS
 90
        0
  0
CELLSTYLEMAP
  5
1027
102
{ACAD_REACTORS
330
5B2
102
}
330
5B2
100
AcDbCellStyleMap
 90
        3
300
CELLSTYLE
  1
TABLEFORMAT_BEGIN
 90
        5
170
     1
 91
        0
 92
    32768
 62
   257
 93
        1
300
CONTENTFORMAT
  1
CONTENTFORMAT_BEGIN
 90
        0
 91
        0
 92
      512
 93
        0
300

 40
0.0
140
1.0
 94
        5
 62
     0
340
10
144
6.0
309
CONTENTFORMAT_END
171
     1
301
MARGIN
  1
CELLMARGIN_BEGIN
 40
1.5
 40
1.5
 40
1.5
 40
1.5
 40
0.18
 40
0.18
309
CELLMARGIN_END
 94
        6
 95
        1
302
GRIDFORMAT
  1
GRIDFORMAT_BEGIN
 90
        0
 91
        1
 62
     0
 92
       -2
340
0
 93
        0
 40
1.125
309
GRIDFORMAT_END
 95
        2
302
GRIDFORMAT
  1
GRIDFORMAT_BEGIN
 90
        0
 91
        1
 62
     0
 92
       -2
340
0
 93
        0
 40
1.125
309
GRIDFORMAT_END
 95
        4
302
GRIDFORMAT
  1
GRIDFORMAT_BEGIN
 90
        0
 91
        1
 62
     0
 92
       -2
340
0
 93
        0
 40
1.125
309
GRIDFORMAT_END
 95
        8
302
GRIDFORMAT
  1
GRIDFORMAT_BEGIN
 90
        0
 91
        1
 62
     0
 92
       -2
340
0
 93
        0
 40
1.125
309
GRIDFORMAT_END
 95
       16
302
GRIDFORMAT
  1
GRIDFORMAT_BEGIN
 90
        0
 91
        1
 62
     0
 92
       -2
340
0
 93
        0
 40
1.125
309
GRIDFORMAT_END
 95
       32
302
GRIDFORMAT
  1
GRIDFORMAT_BEGIN
 90
        0
 91
        1
 62
     0
 92
       -2
340
0
 93
        0
 40
1.125
309
GRIDFORMAT_END
309
TABLEFORMAT_END
  1
CELLSTYLE_BEGIN
 90
        1
 91
        1
300
_TITLE
309
CELLSTYLE_END
300
CELLSTYLE
  1
TABLEFORMAT_BEGIN
 90
        5
170
     1
 91
        0
 92
        0
 62
   257
 93
        1
300
CONTENTFORMAT
  1
CONTENTFORMAT_BEGIN
 90
        0
 91
        0
 92
      512
 93
        0
300

 40
0.0
140
1.0
 94
        5
 62
     0
340
10
144
4.5
309
CONTENTFORMAT_END
171
     1
301
MARGIN
  1
CELLMARGIN_BEGIN
 40
1.5
 40
1.5
 40
1.5
 40
1.5
 40
0.18
 40
0.18
309
CELLMARGIN_END
 94
        6
 95
        1
302
GRIDFORMAT
  1
GRIDFORMAT_BEGIN
 90
        0
 91
        1
 62
     0
 92
       -2
340
0
 93
        0
 40
1.125
309
GRIDFORMAT_END
 95
        2
302
GRIDFORMAT
  1
GRIDFORMAT_BEGIN
 90
        0
 91
        1
 62
     0
 92
       -2
340
0
 93
        0
 40
1.125
309
GRIDFORMAT_END
 95
        4
302
GRIDFORMAT
  1
GRIDFORMAT_BEGIN
 90
        0
 91
        1
 62
     0
 92
       -2
340
0
 93
        0
 40
1.125
309
GRIDFORMAT_END
 95
        8
302
GRIDFORMAT
  1
GRIDFORMAT_BEGIN
 90
        0
 91
        1
 62
     0
 92
       -2
340
0
 93
        0
 40
1.125
309
GRIDFORMAT_END
 95
       16
302
GRIDFORMAT
  1
GRIDFORMAT_BEGIN
 90
        0
 91
        1
 62
     0
 92
       -2
340
0
 93
        0
 40
1.125
309
GRIDFORMAT_END
 95
       32
302
GRIDFORMAT
  1
GRIDFORMAT_BEGIN
 90
        0
 91
        1
 62
     0
 92
       -2
340
0
 93
        0
 40
1.125
309
GRIDFORMAT_END
309
TABLEFORMAT_END
  1
CELLSTYLE_BEGIN
 90
        2
 91
        1
300
_HEADER
309
CELLSTYLE_END
300
CELLSTYLE
  1
TABLEFORMAT_BEGIN
 90
        5
170
     1
 91
        0
 92
        0
 62
   257
 93
        1
300
CONTENTFORMAT
  1
CONTENTFORMAT_BEGIN
 90
        0
 91
        0
 92
      512
 93
        0
300

 40
0.0
140
1.0
 94
        2
 62
     0
340
10
144
4.5
309
CONTENTFORMAT_END
171
     1
301
MARGIN
  1
CELLMARGIN_BEGIN
 40
1.5
 40
1.5
 40
1.5
 40
1.5
 40
0.18
 40
0.18
309
CELLMARGIN_END
 94
        6
 95
        1
302
GRIDFORMAT
  1
GRIDFORMAT_BEGIN
 90
        0
 91
        1
 62
     0
 92
       -2
340
0
 93
        0
 40
1.125
309
GRIDFORMAT_END
 95
        2
302
GRIDFORMAT
  1
GRIDFORMAT_BEGIN
 90
        0
 91
        1
 62
     0
 92
       -2
340
0
 93
        0
 40
1.125
309
GRIDFORMAT_END
 95
        4
302
GRIDFORMAT
  1
GRIDFORMAT_BEGIN
 90
        0
 91
        1
 62
     0
 92
       -2
340
0
 93
        0
 40
1.125
309
GRIDFORMAT_END
 95
        8
302
GRIDFORMAT
  1
GRIDFORMAT_BEGIN
 90
        0
 91
        1
 62
     0
 92
       -2
340
0
 93
        0
 40
1.125
309
GRIDFORMAT_END
 95
       16
302
GRIDFORMAT
  1
GRIDFORMAT_BEGIN
 90
        0
 91
        1
 62
     0
 92
       -2
340
0
 93
        0
 40
1.125
309
GRIDFORMAT_END
 95
       32
302
GRIDFORMAT
  1
GRIDFORMAT_BEGIN
 90
        0
 91
        1
 62
     0
 92
       -2
340
0
 93
        0
 40
1.125
309
GRIDFORMAT_END
309
TABLEFORMAT_END
  1
CELLSTYLE_BEGIN
 90
        3
 91
        2
300
_DATA
309
CELLSTYLE_END
  0
XRECORD
  5
105E
102
{ACAD_REACTORS
330
5B2
102
}
330
5B2
100
AcDbXrecord
280
     1
102
ACAD_ROUNDTRIP_PRE2007_TABLESTYLE
 90
      512
 91
        0
  1

 92
      512
 93
        0
  2

 94
      512
 95
        0
  3

  0
XRECORD
  5
1039
102
{ACAD_REACTORS
330
1038
102
}
330
1038
100
AcDbXrecord
280
     1
102
RTVSPost2010Prop28
280
     1
102
RTVSPost2010PropOp28
 70
     1
102
RTVSPost2010Prop29
280
     1
102
RTVSPost2010PropOp29
 70
     1
102
RTVSPost2010Prop30
280
     0
102
RTVSPost2010PropOp30
 70
     1
102
RTVSPost2010Prop31
280
     0
102
RTVSPost2010PropOp31
 70
     1
102
RTVSPost2010Prop32
280
     0
102
RTVSPost2010PropOp32
 70
     1
102
RTVSPost2010Prop33
280
     0
102
RTVSPost2010PropOp33
 70
     1
102
RTVSPost2010Prop34
280
     0
102
RTVSPost2010PropOp34
 70
     1
102
RTVSPost2010Prop35
280
     0
102
RTVSPost2010PropOp35
 70
     1
102
RTVSPost2010Prop36
280
     0
102
RTVSPost2010PropOp36
 70
     1
102
RTVSPost2010Prop37
 90
       50
102
RTVSPost2010PropOp37
 70
     1
102
RTVSPost2010Prop38
140
0.0
102
RTVSPost2010PropOp38
 70
     1
102
RTVSPost2010Prop39
140
1.0
102
RTVSPost2010PropOp39
 70
     1
102
RTVSPost2010Prop40
 90
        0
102
RTVSPost2010PropOp40
 70
     1
102
RTVSPost2010Prop41ColorIndex
 90
       18
102
RTVSPost2010Prop41ColorRGB
 90
        0
102
RTVSPost2010PropOp41
 70
     1
102
RTVSPost2010Prop42
 90
       50
102
RTVSPost2010PropOp42
 70
     1
102
RTVSPost2010Prop43
 90
        3
102
RTVSPost2010PropOp43
 70
     1
102
RTVSPost2010Prop44ColorIndex
 90
        5
102
RTVSPost2010Prop44ColorRGB
 90
      255
102
RTVSPost2010PropOp44
 70
     1
102
RTVSPost2010Prop45
280
     0
102
RTVSPost2010PropOp45
 70
     1
102
RTVSPost2010Prop46
 90
       50
102
RTVSPost2010PropOp46
 70
     1
102
RTVSPost2010Prop47
 90
       50
102
RTVSPost2010PropOp47
 70
     1
102
RTVSPost2010Prop48
 90
       50
102
RTVSPost2010PropOp48
 70
     1
102
RTVSPost2010Prop49
280
     0
102
RTVSPost2010PropOp49
 70
     1
102
RTVSPost2010Prop50
 90
       50
102
RTVSPost2010PropOp50
 70
     1
102
RTVSPost2010Prop51ColorIndex
 90
      256
102
RTVSPost2010Prop51ColorRGB
 90
-16777216
102
RTVSPost2010PropOp51
 70
     0
102
RTVSPost2010Prop52
140
1.0
102
RTVSPost2010PropOp52
 70
     0
102
RTVSPost2010Prop53
 90
        2
102
RTVSPost2010PropOp53
 70
     1
102
RTVSPost2010Prop54
  1
strokes_ogs.tif
102
RTVSPost2010PropOp54
 70
     1
102
RTVSPost2010Prop55
280
     0
102
RTVSPost2010PropOp55
 70
     1
102
RTVSPost2010Prop56
140
1.0
102
RTVSPost2010PropOp56
 70
     1
102
RTVSPost2010Prop57
140
1.0
102
RTVSPost2010PropOp57
 70
     1
102
RTVSPropertyOp0
 70
     1
102
RTVSPropertyOp1
 70
     1
102
RTVSPropertyOp2
 70
     1
102
RTVSPropertyOp3
 70
     1
102
RTVSPropertyOp4
 70
     1
102
RTVSPropertyOp5
 70
     1
102
RTVSPropertyOp6
 70
     1
102
RTVSPropertyOp7
 70
     1
102
RTVSPropertyOp8
 70
     1
102
RTVSPropertyOp9
 70
     1
102
RTVSPropertyOp10
 70
     1
102
RTVSPropertyOp11
 70
     1
102
RTVSPropertyOp12
 70
     1
102
RTVSPropertyOp13
 70
     1
102
RTVSPropertyOp14
 70
     1
102
RTVSPropertyOp15
 70
     1
102
RTVSPropertyOp16
 70
     1
102
RTVSPropertyOp17
 70
     1
102
RTVSPropertyOp18
 70
     1
102
RTVSPropertyOp19
 70
     1
102
RTVSPropertyOp20
 70
     1
102
RTVSPropertyOp21
 70
     1
102
RTVSPropertyOp22
 70
     1
102
RTVSPropertyOp23
 70
     1
102
RTVSPropertyOp24
 70
     1
102
RTVSPropertyOp25
 70
     1
102
RTVSPropertyOp26
 70
     1
102
RTVSPropertyOp27
 70
     1
102
RTVSPropertyOp28
 70
     1
102
RTVSPropertyOp29
 70
     1
102
RTVSPropertyOp30
 70
     1
102
RTVSPropertyOp31
 70
     1
102
RTVSPropertyOp32
 70
     1
102
RTVSPropertyOp33
 70
     1
102
RTVSPropertyOp34
 70
     1
102
RTVSPropertyOp35
 70
     1
102
RTVSPropertyOp36
 70
     1
102
RTVSPropertyOp37
 70
     1
102
RTVSPropertyOp38
 70
     1
102
RTVSPropertyOp39
 70
     1
102
RTVSPropertyOp40
 70
     1
102
RTVSPropertyOp41
 70
     1
102
RTVSPropertyOp42
 70
     1
102
RTVSPropertyOp43
 70
     1
102
RTVSPropertyOp44
 70
     1
102
RTVSPropertyOp45
 70
     1
102
RTVSPropertyOp46
 70
     1
102
RTVSPropertyOp47
 70
     1
102
RTVSPropertyOp48
 70
     1
102
RTVSPropertyOp49
 70
     1
102
RTVSPropertyOp50
 70
     1
102
RTVSPropertyOp51
 70
     0
102
RTVSPropertyOp52
 70
     0
102
RTVSPropertyOp53
 70
     1
102
RTVSPropertyOp54
 70
     1
102
RTVSPropertyOp55
 70
     1
102
RTVSPropertyOp56
 70
     1
102
RTVSPropertyOp57
 70
     1
102
RTVSPropertyOp58
 70
     1
102
RTVSPropertyOp59
 70
     1
102
RTVSPropertyOp60
 70
     1
102
RTVSPropertyOp61
 70
     1
102
RTVSPropertyOp62
 70
     1
  0
XRECORD
  5
1037
102
{ACAD_REACTORS
330
1036
102
}
330
1036
100
AcDbXrecord
280
     1
102
RTVSPost2010Prop28
280
     0
102
RTVSPost2010PropOp28
 70
     1
102
RTVSPost2010Prop29
280
     1
102
RTVSPost2010PropOp29
 70
     1
102
RTVSPost2010Prop30
280
     1
102
RTVSPost2010PropOp30
 70
     1
102
RTVSPost2010Prop31
280
     0
102
RTVSPost2010PropOp31
 70
     1
102
RTVSPost2010Prop32
280
     0
102
RTVSPost2010PropOp32
 70
     1
102
RTVSPost2010Prop33
280
     0
102
RTVSPost2010PropOp33
 70
     1
102
RTVSPost2010Prop34
280
     0
102
RTVSPost2010PropOp34
 70
     1
102
RTVSPost2010Prop35
280
     0
102
RTVSPost2010PropOp35
 70
     1
102
RTVSPost2010Prop36
280
     0
102
RTVSPost2010PropOp36
 70
     1
102
RTVSPost2010Prop37
 90
       50
102
RTVSPost2010PropOp37
 70
     1
102
RTVSPost2010Prop38
140
0.0
102
RTVSPost2010PropOp38
 70
     1
102
RTVSPost2010Prop39
140
1.0
102
RTVSPost2010PropOp39
 70
     1
102
RTVSPost2010Prop40
 90
        0
102
RTVSPost2010PropOp40
 70
     1
102
RTVSPost2010Prop41ColorIndex
 90
       18
102
RTVSPost2010Prop41ColorRGB
 90
        0
102
RTVSPost2010PropOp41
 70
     1
102
RTVSPost2010Prop42
 90
       50
102
RTVSPost2010PropOp42
 70
     1
102
RTVSPost2010Prop43
 90
        3
102
RTVSPost2010PropOp43
 70
     1
102
RTVSPost2010Prop44ColorIndex
 90
        5
102
RTVSPost2010Prop44ColorRGB
 90
      255
102
RTVSPost2010PropOp44
 70
     1
102
RTVSPost2010Prop45
280
     0
102
RTVSPost2010PropOp45
 70
     1
102
RTVSPost2010Prop46
 90
       50
102
RTVSPost2010PropOp46
 70
     1
102
RTVSPost2010Prop47
 90
       50
102
RTVSPost2010PropOp47
 70
     1
102
RTVSPost2010Prop48
 90
       50
102
RTVSPost2010PropOp48
 70
     1
102
RTVSPost2010Prop49
280
     0
102
RTVSPost2010PropOp49
 70
     1
102
RTVSPost2010Prop50
 90
       50
102
RTVSPost2010PropOp50
 70
     1
102
RTVSPost2010Prop51ColorIndex
 90
      256
102
RTVSPost2010Prop51ColorRGB
 90
-16777216
102
RTVSPost2010PropOp51
 70
     0
102
RTVSPost2010Prop52
140
1.0
102
RTVSPost2010PropOp52
 70
     0
102
RTVSPost2010Prop53
 90
        2
102
RTVSPost2010PropOp53
 70
     1
102
RTVSPost2010Prop54
  1
strokes_ogs.tif
102
RTVSPost2010PropOp54
 70
     1
102
RTVSPost2010Prop55
280
     0
102
RTVSPost2010PropOp55
 70
     1
102
RTVSPost2010Prop56
140
1.0
102
RTVSPost2010PropOp56
 70
     1
102
RTVSPost2010Prop57
140
1.0
102
RTVSPost2010PropOp57
 70
     1
102
RTVSPropertyOp0
 70
     1
102
RTVSPropertyOp1
 70
     1
102
RTVSPropertyOp2
 70
     1
102
RTVSPropertyOp3
 70
     1
102
RTVSPropertyOp4
 70
     1
102
RTVSPropertyOp5
 70
     1
102
RTVSPropertyOp6
 70
     1
102
RTVSPropertyOp7
 70
     1
102
RTVSPropertyOp8
 70
     1
102
RTVSPropertyOp9
 70
     1
102
RTVSPropertyOp10
 70
     1
102
RTVSPropertyOp11
 70
     1
102
RTVSPropertyOp12
 70
     1
102
RTVSPropertyOp13
 70
     1
102
RTVSPropertyOp14
 70
     1
102
RTVSPropertyOp15
 70
     1
102
RTVSPropertyOp16
 70
     1
102
RTVSPropertyOp17
 70
     1
102
RTVSPropertyOp18
 70
     1
102
RTVSPropertyOp19
 70
     1
102
RTVSPropertyOp20
 70
     1
102
RTVSPropertyOp21
 70
     1
102
RTVSPropertyOp22
 70
     1
102
RTVSPropertyOp23
 70
     1
102
RTVSPropertyOp24
 70
     1
102
RTVSPropertyOp25
 70
     1
102
RTVSPropertyOp26
 70
     1
102
RTVSPropertyOp27
 70
     1
102
RTVSPropertyOp28
 70
     1
102
RTVSPropertyOp29
 70
     1
102
RTVSPropertyOp30
 70
     1
102
RTVSPropertyOp31
 70
     1
102
RTVSPropertyOp32
 70
     1
102
RTVSPropertyOp33
 70
     1
102
RTVSPropertyOp34
 70
     1
102
RTVSPropertyOp35
 70
     1
102
RTVSPropertyOp36
 70
     1
102
RTVSPropertyOp37
 70
     1
102
RTVSPropertyOp38
 70
     1
102
RTVSPropertyOp39
 70
     1
102
RTVSPropertyOp40
 70
     1
102
RTVSPropertyOp41
 70
     1
102
RTVSPropertyOp42
 70
     1
102
RTVSPropertyOp43
 70
     1
102
RTVSPropertyOp44
 70
     1
102
RTVSPropertyOp45
 70
     1
102
RTVSPropertyOp46
 70
     1
102
RTVSPropertyOp47
 70
     1
102
RTVSPropertyOp48
 70
     1
102
RTVSPropertyOp49
 70
     1
102
RTVSPropertyOp50
 70
     1
102
RTVSPropertyOp51
 70
     0
102
RTVSPropertyOp52
 70
     0
102
RTVSPropertyOp53
 70
     1
102
RTVSPropertyOp54
 70
     1
102
RTVSPropertyOp55
 70
     1
102
RTVSPropertyOp56
 70
     1
102
RTVSPropertyOp57
 70
     1
102
RTVSPropertyOp58
 70
     1
102
RTVSPropertyOp59
 70
     1
102
RTVSPropertyOp60
 70
     1
102
RTVSPropertyOp61
 70
     1
102
RTVSPropertyOp62
 70
     1
  0
XRECORD
  5
1045
102
{ACAD_REACTORS
330
1044
102
}
330
1044
100
AcDbXrecord
280
     1
102
RTVSPost2010Prop28
280
     0
102
RTVSPost2010PropOp28
 70
     1
102
RTVSPost2010Prop29
280
     1
102
RTVSPost2010PropOp29
 70
     1
102
RTVSPost2010Prop30
280
     1
102
RTVSPost2010PropOp30
 70
     1
102
RTVSPost2010Prop31
280
     0
102
RTVSPost2010PropOp31
 70
     1
102
RTVSPost2010Prop32
280
     0
102
RTVSPost2010PropOp32
 70
     1
102
RTVSPost2010Prop33
280
     0
102
RTVSPost2010PropOp33
 70
     1
102
RTVSPost2010Prop34
280
     0
102
RTVSPost2010PropOp34
 70
     1
102
RTVSPost2010Prop35
280
     0
102
RTVSPost2010PropOp35
 70
     1
102
RTVSPost2010Prop36
280
     0
102
RTVSPost2010PropOp36
 70
     1
102
RTVSPost2010Prop37
 90
       50
102
RTVSPost2010PropOp37
 70
     1
102
RTVSPost2010Prop38
140
0.0
102
RTVSPost2010PropOp38
 70
     1
102
RTVSPost2010Prop39
140
1.0
102
RTVSPost2010PropOp39
 70
     1
102
RTVSPost2010Prop40
 90
        0
102
RTVSPost2010PropOp40
 70
     1
102
RTVSPost2010Prop41ColorIndex
 90
       18
102
RTVSPost2010Prop41ColorRGB
 90
        0
102
RTVSPost2010PropOp41
 70
     1
102
RTVSPost2010Prop42
 90
       50
102
RTVSPost2010PropOp42
 70
     1
102
RTVSPost2010Prop43
 90
        3
102
RTVSPost2010PropOp43
 70
     1
102
RTVSPost2010Prop44ColorIndex
 90
        5
102
RTVSPost2010Prop44ColorRGB
 90
      255
102
RTVSPost2010PropOp44
 70
     1
102
RTVSPost2010Prop45
280
     0
102
RTVSPost2010PropOp45
 70
     1
102
RTVSPost2010Prop46
 90
       50
102
RTVSPost2010PropOp46
 70
     1
102
RTVSPost2010Prop47
 90
       50
102
RTVSPost2010PropOp47
 70
     1
102
RTVSPost2010Prop48
 90
       50
102
RTVSPost2010PropOp48
 70
     1
102
RTVSPost2010Prop49
280
     0
102
RTVSPost2010PropOp49
 70
     1
102
RTVSPost2010Prop50
 90
       50
102
RTVSPost2010PropOp50
 70
     1
102
RTVSPost2010Prop51ColorIndex
 90
      256
102
RTVSPost2010Prop51ColorRGB
 90
-16777216
102
RTVSPost2010PropOp51
 70
     0
102
RTVSPost2010Prop52
140
1.0
102
RTVSPost2010PropOp52
 70
     0
102
RTVSPost2010Prop53
 90
        2
102
RTVSPost2010PropOp53
 70
     1
102
RTVSPost2010Prop54
  1
strokes_ogs.tif
102
RTVSPost2010PropOp54
 70
     1
102
RTVSPost2010Prop55
280
     0
102
RTVSPost2010PropOp55
 70
     1
102
RTVSPost2010Prop56
140
1.0
102
RTVSPost2010PropOp56
 70
     1
102
RTVSPost2010Prop57
140
1.0
102
RTVSPost2010PropOp57
 70
     1
102
RTVSPropertyOp0
 70
     1
102
RTVSPropertyOp1
 70
     1
102
RTVSPropertyOp2
 70
     1
102
RTVSPropertyOp3
 70
     1
102
RTVSPropertyOp4
 70
     1
102
RTVSPropertyOp5
 70
     1
102
RTVSPropertyOp6
 70
     1
102
RTVSPropertyOp7
 70
     1
102
RTVSPropertyOp8
 70
     1
102
RTVSPropertyOp9
 70
     1
102
RTVSPropertyOp10
 70
     1
102
RTVSPropertyOp11
 70
     1
102
RTVSPropertyOp12
 70
     1
102
RTVSPropertyOp13
 70
     1
102
RTVSPropertyOp14
 70
     1
102
RTVSPropertyOp15
 70
     1
102
RTVSPropertyOp16
 70
     1
102
RTVSPropertyOp17
 70
     1
102
RTVSPropertyOp18
 70
     1
102
RTVSPropertyOp19
 70
     1
102
RTVSPropertyOp20
 70
     1
102
RTVSPropertyOp21
 70
     1
102
RTVSPropertyOp22
 70
     1
102
RTVSPropertyOp23
 70
     1
102
RTVSPropertyOp24
 70
     1
102
RTVSPropertyOp25
 70
     1
102
RTVSPropertyOp26
 70
     1
102
RTVSPropertyOp27
 70
     1
102
RTVSPropertyOp28
 70
     1
102
RTVSPropertyOp29
 70
     1
102
RTVSPropertyOp30
 70
     1
102
RTVSPropertyOp31
 70
     1
102
RTVSPropertyOp32
 70
     1
102
RTVSPropertyOp33
 70
     1
102
RTVSPropertyOp34
 70
     1
102
RTVSPropertyOp35
 70
     1
102
RTVSPropertyOp36
 70
     1
102
RTVSPropertyOp37
 70
     1
102
RTVSPropertyOp38
 70
     1
102
RTVSPropertyOp39
 70
     1
102
RTVSPropertyOp40
 70
     1
102
RTVSPropertyOp41
 70
     1
102
RTVSPropertyOp42
 70
     1
102
RTVSPropertyOp43
 70
     1
102
RTVSPropertyOp44
 70
     1
102
RTVSPropertyOp45
 70
     1
102
RTVSPropertyOp46
 70
     1
102
RTVSPropertyOp47
 70
     1
102
RTVSPropertyOp48
 70
     1
102
RTVSPropertyOp49
 70
     1
102
RTVSPropertyOp50
 70
     1
102
RTVSPropertyOp51
 70
     0
102
RTVSPropertyOp52
 70
     0
102
RTVSPropertyOp53
 70
     1
102
RTVSPropertyOp54
 70
     1
102
RTVSPropertyOp55
 70
     1
102
RTVSPropertyOp56
 70
     1
102
RTVSPropertyOp57
 70
     1
102
RTVSPropertyOp58
 70
     1
102
RTVSPropertyOp59
 70
     1
102
RTVSPropertyOp60
 70
     1
102
RTVSPropertyOp61
 70
     1
102
RTVSPropertyOp62
 70
     1
  0
XRECORD
  5
104D
102
{ACAD_REACTORS
330
104C
102
}
330
104C
100
AcDbXrecord
280
     1
102
RTVSPost2010Prop28
280
     0
102
RTVSPost2010PropOp28
 70
     1
102
RTVSPost2010Prop29
280
     1
102
RTVSPost2010PropOp29
 70
     1
102
RTVSPost2010Prop30
280
     1
102
RTVSPost2010PropOp30
 70
     1
102
RTVSPost2010Prop31
280
     0
102
RTVSPost2010PropOp31
 70
     1
102
RTVSPost2010Prop32
280
     0
102
RTVSPost2010PropOp32
 70
     1
102
RTVSPost2010Prop33
280
     0
102
RTVSPost2010PropOp33
 70
     1
102
RTVSPost2010Prop34
280
     0
102
RTVSPost2010PropOp34
 70
     1
102
RTVSPost2010Prop35
280
     0
102
RTVSPost2010PropOp35
 70
     1
102
RTVSPost2010Prop36
280
     0
102
RTVSPost2010PropOp36
 70
     1
102
RTVSPost2010Prop37
 90
       50
102
RTVSPost2010PropOp37
 70
     1
102
RTVSPost2010Prop38
140
0.0
102
RTVSPost2010PropOp38
 70
     1
102
RTVSPost2010Prop39
140
1.0
102
RTVSPost2010PropOp39
 70
     1
102
RTVSPost2010Prop40
 90
        0
102
RTVSPost2010PropOp40
 70
     1
102
RTVSPost2010Prop41ColorIndex
 90
       18
102
RTVSPost2010Prop41ColorRGB
 90
        0
102
RTVSPost2010PropOp41
 70
     1
102
RTVSPost2010Prop42
 90
       50
102
RTVSPost2010PropOp42
 70
     1
102
RTVSPost2010Prop43
 90
        3
102
RTVSPost2010PropOp43
 70
     1
102
RTVSPost2010Prop44ColorIndex
 90
        5
102
RTVSPost2010Prop44ColorRGB
 90
      255
102
RTVSPost2010PropOp44
 70
     1
102
RTVSPost2010Prop45
280
     0
102
RTVSPost2010PropOp45
 70
     1
102
RTVSPost2010Prop46
 90
       50
102
RTVSPost2010PropOp46
 70
     1
102
RTVSPost2010Prop47
 90
       50
102
RTVSPost2010PropOp47
 70
     1
102
RTVSPost2010Prop48
 90
       50
102
RTVSPost2010PropOp48
 70
     1
102
RTVSPost2010Prop49
280
     0
102
RTVSPost2010PropOp49
 70
     1
102
RTVSPost2010Prop50
 90
       50
102
RTVSPost2010PropOp50
 70
     1
102
RTVSPost2010Prop51ColorIndex
 90
      256
102
RTVSPost2010Prop51ColorRGB
 90
-16777216
102
RTVSPost2010PropOp51
 70
     0
102
RTVSPost2010Prop52
140
1.0
102
RTVSPost2010PropOp52
 70
     0
102
RTVSPost2010Prop53
 90
        2
102
RTVSPost2010PropOp53
 70
     1
102
RTVSPost2010Prop54
  1
strokes_ogs.tif
102
RTVSPost2010PropOp54
 70
     1
102
RTVSPost2010Prop55
280
     0
102
RTVSPost2010PropOp55
 70
     1
102
RTVSPost2010Prop56
140
1.0
102
RTVSPost2010PropOp56
 70
     1
102
RTVSPost2010Prop57
140
1.0
102
RTVSPost2010PropOp57
 70
     1
102
RTVSPropertyOp0
 70
     1
102
RTVSPropertyOp1
 70
     1
102
RTVSPropertyOp2
 70
     1
102
RTVSPropertyOp3
 70
     1
102
RTVSPropertyOp4
 70
     1
102
RTVSPropertyOp5
 70
     1
102
RTVSPropertyOp6
 70
     1
102
RTVSPropertyOp7
 70
     1
102
RTVSPropertyOp8
 70
     1
102
RTVSPropertyOp9
 70
     1
102
RTVSPropertyOp10
 70
     1
102
RTVSPropertyOp11
 70
     1
102
RTVSPropertyOp12
 70
     1
102
RTVSPropertyOp13
 70
     1
102
RTVSPropertyOp14
 70
     1
102
RTVSPropertyOp15
 70
     1
102
RTVSPropertyOp16
 70
     1
102
RTVSPropertyOp17
 70
     1
102
RTVSPropertyOp18
 70
     1
102
RTVSPropertyOp19
 70
     1
102
RTVSPropertyOp20
 70
     1
102
RTVSPropertyOp21
 70
     1
102
RTVSPropertyOp22
 70
     1
102
RTVSPropertyOp23
 70
     1
102
RTVSPropertyOp24
 70
     1
102
RTVSPropertyOp25
 70
     1
102
RTVSPropertyOp26
 70
     1
102
RTVSPropertyOp27
 70
     1
102
RTVSPropertyOp28
 70
     1
102
RTVSPropertyOp29
 70
     1
102
RTVSPropertyOp30
 70
     1
102
RTVSPropertyOp31
 70
     1
102
RTVSPropertyOp32
 70
     1
102
RTVSPropertyOp33
 70
     1
102
RTVSPropertyOp34
 70
     1
102
RTVSPropertyOp35
 70
     1
102
RTVSPropertyOp36
 70
     1
102
RTVSPropertyOp37
 70
     1
102
RTVSPropertyOp38
 70
     1
102
RTVSPropertyOp39
 70
     1
102
RTVSPropertyOp40
 70
     1
102
RTVSPropertyOp41
 70
     1
102
RTVSPropertyOp42
 70
     1
102
RTVSPropertyOp43
 70
     1
102
RTVSPropertyOp44
 70
     1
102
RTVSPropertyOp45
 70
     1
102
RTVSPropertyOp46
 70
     1
102
RTVSPropertyOp47
 70
     1
102
RTVSPropertyOp48
 70
     1
102
RTVSPropertyOp49
 70
     1
102
RTVSPropertyOp50
 70
     1
102
RTVSPropertyOp51
 70
     0
102
RTVSPropertyOp52
 70
     0
102
RTVSPropertyOp53
 70
     1
102
RTVSPropertyOp54
 70
     1
102
RTVSPropertyOp55
 70
     1
102
RTVSPropertyOp56
 70
     1
102
RTVSPropertyOp57
 70
     1
102
RTVSPropertyOp58
 70
     1
102
RTVSPropertyOp59
 70
     1
102
RTVSPropertyOp60
 70
     1
102
RTVSPropertyOp61
 70
     1
102
RTVSPropertyOp62
 70
     1
  0
XRECORD
  5
103F
102
{ACAD_REACTORS
330
103E
102
}
330
103E
100
AcDbXrecord
280
     1
102
RTVSPost2010Prop28
280
     0
102
RTVSPost2010PropOp28
 70
     1
102
RTVSPost2010Prop29
280
     1
102
RTVSPost2010PropOp29
 70
     1
102
RTVSPost2010Prop30
280
     1
102
RTVSPost2010PropOp30
 70
     1
102
RTVSPost2010Prop31
280
     0
102
RTVSPost2010PropOp31
 70
     1
102
RTVSPost2010Prop32
280
     0
102
RTVSPost2010PropOp32
 70
     1
102
RTVSPost2010Prop33
280
     0
102
RTVSPost2010PropOp33
 70
     1
102
RTVSPost2010Prop34
280
     0
102
RTVSPost2010PropOp34
 70
     1
102
RTVSPost2010Prop35
280
     0
102
RTVSPost2010PropOp35
 70
     1
102
RTVSPost2010Prop36
280
     0
102
RTVSPost2010PropOp36
 70
     1
102
RTVSPost2010Prop37
 90
       50
102
RTVSPost2010PropOp37
 70
     1
102
RTVSPost2010Prop38
140
0.0
102
RTVSPost2010PropOp38
 70
     1
102
RTVSPost2010Prop39
140
1.0
102
RTVSPost2010PropOp39
 70
     1
102
RTVSPost2010Prop40
 90
        0
102
RTVSPost2010PropOp40
 70
     1
102
RTVSPost2010Prop41ColorIndex
 90
       18
102
RTVSPost2010Prop41ColorRGB
 90
        0
102
RTVSPost2010PropOp41
 70
     1
102
RTVSPost2010Prop42
 90
       50
102
RTVSPost2010PropOp42
 70
     1
102
RTVSPost2010Prop43
 90
        3
102
RTVSPost2010PropOp43
 70
     1
102
RTVSPost2010Prop44ColorIndex
 90
        5
102
RTVSPost2010Prop44ColorRGB
 90
      255
102
RTVSPost2010PropOp44
 70
     1
102
RTVSPost2010Prop45
280
     0
102
RTVSPost2010PropOp45
 70
     1
102
RTVSPost2010Prop46
 90
       50
102
RTVSPost2010PropOp46
 70
     1
102
RTVSPost2010Prop47
 90
       50
102
RTVSPost2010PropOp47
 70
     1
102
RTVSPost2010Prop48
 90
       50
102
RTVSPost2010PropOp48
 70
     1
102
RTVSPost2010Prop49
280
     0
102
RTVSPost2010PropOp49
 70
     1
102
RTVSPost2010Prop50
 90
       50
102
RTVSPost2010PropOp50
 70
     1
102
RTVSPost2010Prop51ColorIndex
 90
      256
102
RTVSPost2010Prop51ColorRGB
 90
-16777216
102
RTVSPost2010PropOp51
 70
     0
102
RTVSPost2010Prop52
140
1.0
102
RTVSPost2010PropOp52
 70
     0
102
RTVSPost2010Prop53
 90
        2
102
RTVSPost2010PropOp53
 70
     1
102
RTVSPost2010Prop54
  1
strokes_ogs.tif
102
RTVSPost2010PropOp54
 70
     1
102
RTVSPost2010Prop55
280
     0
102
RTVSPost2010PropOp55
 70
     1
102
RTVSPost2010Prop56
140
1.0
102
RTVSPost2010PropOp56
 70
     1
102
RTVSPost2010Prop57
140
1.0
102
RTVSPost2010PropOp57
 70
     1
102
RTVSPropertyOp0
 70
     1
102
RTVSPropertyOp1
 70
     1
102
RTVSPropertyOp2
 70
     1
102
RTVSPropertyOp3
 70
     1
102
RTVSPropertyOp4
 70
     1
102
RTVSPropertyOp5
 70
     1
102
RTVSPropertyOp6
 70
     1
102
RTVSPropertyOp7
 70
     1
102
RTVSPropertyOp8
 70
     1
102
RTVSPropertyOp9
 70
     1
102
RTVSPropertyOp10
 70
     1
102
RTVSPropertyOp11
 70
     1
102
RTVSPropertyOp12
 70
     1
102
RTVSPropertyOp13
 70
     1
102
RTVSPropertyOp14
 70
     1
102
RTVSPropertyOp15
 70
     1
102
RTVSPropertyOp16
 70
     1
102
RTVSPropertyOp17
 70
     1
102
RTVSPropertyOp18
 70
     1
102
RTVSPropertyOp19
 70
     1
102
RTVSPropertyOp20
 70
     1
102
RTVSPropertyOp21
 70
     1
102
RTVSPropertyOp22
 70
     1
102
RTVSPropertyOp23
 70
     1
102
RTVSPropertyOp24
 70
     1
102
RTVSPropertyOp25
 70
     1
102
RTVSPropertyOp26
 70
     1
102
RTVSPropertyOp27
 70
     1
102
RTVSPropertyOp28
 70
     1
102
RTVSPropertyOp29
 70
     1
102
RTVSPropertyOp30
 70
     1
102
RTVSPropertyOp31
 70
     1
102
RTVSPropertyOp32
 70
     1
102
RTVSPropertyOp33
 70
     1
102
RTVSPropertyOp34
 70
     1
102
RTVSPropertyOp35
 70
     1
102
RTVSPropertyOp36
 70
     1
102
RTVSPropertyOp37
 70
     1
102
RTVSPropertyOp38
 70
     1
102
RTVSPropertyOp39
 70
     1
102
RTVSPropertyOp40
 70
     1
102
RTVSPropertyOp41
 70
     1
102
RTVSPropertyOp42
 70
     1
102
RTVSPropertyOp43
 70
     1
102
RTVSPropertyOp44
 70
     1
102
RTVSPropertyOp45
 70
     1
102
RTVSPropertyOp46
 70
     1
102
RTVSPropertyOp47
 70
     1
102
RTVSPropertyOp48
 70
     1
102
RTVSPropertyOp49
 70
     1
102
RTVSPropertyOp50
 70
     1
102
RTVSPropertyOp51
 70
     0
102
RTVSPropertyOp52
 70
     0
102
RTVSPropertyOp53
 70
     1
102
RTVSPropertyOp54
 70
     1
102
RTVSPropertyOp55
 70
     1
102
RTVSPropertyOp56
 70
     1
102
RTVSPropertyOp57
 70
     1
102
RTVSPropertyOp58
 70
     1
102
RTVSPropertyOp59
 70
     1
102
RTVSPropertyOp60
 70
     1
102
RTVSPropertyOp61
 70
     1
102
RTVSPropertyOp62
 70
     1
  0
XRECORD
  5
1043
102
{ACAD_REACTORS
330
1042
102
}
330
1042
100
AcDbXrecord
280
     1
102
RTVSPost2010Prop28
280
     0
102
RTVSPost2010PropOp28
 70
     1
102
RTVSPost2010Prop29
280
     1
102
RTVSPost2010PropOp29
 70
     1
102
RTVSPost2010Prop30
280
     1
102
RTVSPost2010PropOp30
 70
     1
102
RTVSPost2010Prop31
280
     0
102
RTVSPost2010PropOp31
 70
     1
102
RTVSPost2010Prop32
280
     0
102
RTVSPost2010PropOp32
 70
     1
102
RTVSPost2010Prop33
280
     0
102
RTVSPost2010PropOp33
 70
     1
102
RTVSPost2010Prop34
280
     0
102
RTVSPost2010PropOp34
 70
     1
102
RTVSPost2010Prop35
280
     0
102
RTVSPost2010PropOp35
 70
     1
102
RTVSPost2010Prop36
280
     0
102
RTVSPost2010PropOp36
 70
     1
102
RTVSPost2010Prop37
 90
       50
102
RTVSPost2010PropOp37
 70
     1
102
RTVSPost2010Prop38
140
0.0
102
RTVSPost2010PropOp38
 70
     1
102
RTVSPost2010Prop39
140
1.0
102
RTVSPost2010PropOp39
 70
     1
102
RTVSPost2010Prop40
 90
        0
102
RTVSPost2010PropOp40
 70
     1
102
RTVSPost2010Prop41ColorIndex
 90
       18
102
RTVSPost2010Prop41ColorRGB
 90
        0
102
RTVSPost2010PropOp41
 70
     1
102
RTVSPost2010Prop42
 90
       50
102
RTVSPost2010PropOp42
 70
     1
102
RTVSPost2010Prop43
 90
        3
102
RTVSPost2010PropOp43
 70
     1
102
RTVSPost2010Prop44ColorIndex
 90
        5
102
RTVSPost2010Prop44ColorRGB
 90
      255
102
RTVSPost2010PropOp44
 70
     1
102
RTVSPost2010Prop45
280
     0
102
RTVSPost2010PropOp45
 70
     1
102
RTVSPost2010Prop46
 90
       50
102
RTVSPost2010PropOp46
 70
     1
102
RTVSPost2010Prop47
 90
       50
102
RTVSPost2010PropOp47
 70
     1
102
RTVSPost2010Prop48
 90
       50
102
RTVSPost2010PropOp48
 70
     1
102
RTVSPost2010Prop49
280
     0
102
RTVSPost2010PropOp49
 70
     1
102
RTVSPost2010Prop50
 90
       50
102
RTVSPost2010PropOp50
 70
     1
102
RTVSPost2010Prop51ColorIndex
 90
      256
102
RTVSPost2010Prop51ColorRGB
 90
-16777216
102
RTVSPost2010PropOp51
 70
     0
102
RTVSPost2010Prop52
140
1.0
102
RTVSPost2010PropOp52
 70
     0
102
RTVSPost2010Prop53
 90
        2
102
RTVSPost2010PropOp53
 70
     1
102
RTVSPost2010Prop54
  1
strokes_ogs.tif
102
RTVSPost2010PropOp54
 70
     1
102
RTVSPost2010Prop55
280
     0
102
RTVSPost2010PropOp55
 70
     1
102
RTVSPost2010Prop56
140
1.0
102
RTVSPost2010PropOp56
 70
     1
102
RTVSPost2010Prop57
140
1.0
102
RTVSPost2010PropOp57
 70
     1
102
RTVSPropertyOp0
 70
     1
102
RTVSPropertyOp1
 70
     1
102
RTVSPropertyOp2
 70
     1
102
RTVSPropertyOp3
 70
     1
102
RTVSPropertyOp4
 70
     1
102
RTVSPropertyOp5
 70
     1
102
RTVSPropertyOp6
 70
     1
102
RTVSPropertyOp7
 70
     1
102
RTVSPropertyOp8
 70
     1
102
RTVSPropertyOp9
 70
     1
102
RTVSPropertyOp10
 70
     1
102
RTVSPropertyOp11
 70
     1
102
RTVSPropertyOp12
 70
     1
102
RTVSPropertyOp13
 70
     1
102
RTVSPropertyOp14
 70
     1
102
RTVSPropertyOp15
 70
     1
102
RTVSPropertyOp16
 70
     1
102
RTVSPropertyOp17
 70
     1
102
RTVSPropertyOp18
 70
     1
102
RTVSPropertyOp19
 70
     1
102
RTVSPropertyOp20
 70
     1
102
RTVSPropertyOp21
 70
     1
102
RTVSPropertyOp22
 70
     1
102
RTVSPropertyOp23
 70
     1
102
RTVSPropertyOp24
 70
     1
102
RTVSPropertyOp25
 70
     1
102
RTVSPropertyOp26
 70
     1
102
RTVSPropertyOp27
 70
     1
102
RTVSPropertyOp28
 70
     1
102
RTVSPropertyOp29
 70
     1
102
RTVSPropertyOp30
 70
     1
102
RTVSPropertyOp31
 70
     1
102
RTVSPropertyOp32
 70
     1
102
RTVSPropertyOp33
 70
     1
102
RTVSPropertyOp34
 70
     1
102
RTVSPropertyOp35
 70
     1
102
RTVSPropertyOp36
 70
     1
102
RTVSPropertyOp37
 70
     1
102
RTVSPropertyOp38
 70
     1
102
RTVSPropertyOp39
 70
     1
102
RTVSPropertyOp40
 70
     1
102
RTVSPropertyOp41
 70
     1
102
RTVSPropertyOp42
 70
     1
102
RTVSPropertyOp43
 70
     1
102
RTVSPropertyOp44
 70
     1
102
RTVSPropertyOp45
 70
     1
102
RTVSPropertyOp46
 70
     1
102
RTVSPropertyOp47
 70
     1
102
RTVSPropertyOp48
 70
     1
102
RTVSPropertyOp49
 70
     1
102
RTVSPropertyOp50
 70
     1
102
RTVSPropertyOp51
 70
     0
102
RTVSPropertyOp52
 70
     0
102
RTVSPropertyOp53
 70
     1
102
RTVSPropertyOp54
 70
     1
102
RTVSPropertyOp55
 70
     1
102
RTVSPropertyOp56
 70
     1
102
RTVSPropertyOp57
 70
     1
102
RTVSPropertyOp58
 70
     1
102
RTVSPropertyOp59
 70
     1
102
RTVSPropertyOp60
 70
     1
102
RTVSPropertyOp61
 70
     1
102
RTVSPropertyOp62
 70
     1
  0
XRECORD
  5
105D
102
{ACAD_REACTORS
330
105C
102
}
330
105C
100
AcDbXrecord
280
     1
102
RTVSPost2010Prop28
280
     0
102
RTVSPost2010PropOp28
 70
     1
102
RTVSPost2010Prop29
280
     1
102
RTVSPost2010PropOp29
 70
     1
102
RTVSPost2010Prop30
280
     1
102
RTVSPost2010PropOp30
 70
     1
102
RTVSPost2010Prop31
280
     0
102
RTVSPost2010PropOp31
 70
     1
102
RTVSPost2010Prop32
280
     0
102
RTVSPost2010PropOp32
 70
     1
102
RTVSPost2010Prop33
280
     0
102
RTVSPost2010PropOp33
 70
     1
102
RTVSPost2010Prop34
280
     0
102
RTVSPost2010PropOp34
 70
     1
102
RTVSPost2010Prop35
280
     0
102
RTVSPost2010PropOp35
 70
     1
102
RTVSPost2010Prop36
280
     0
102
RTVSPost2010PropOp36
 70
     1
102
RTVSPost2010Prop37
 90
       50
102
RTVSPost2010PropOp37
 70
     0
102
RTVSPost2010Prop38
140
0.0
102
RTVSPost2010PropOp38
 70
     0
102
RTVSPost2010Prop39
140
1.0
102
RTVSPost2010PropOp39
 70
     0
102
RTVSPost2010Prop40
 90
        0
102
RTVSPost2010PropOp40
 70
     0
102
RTVSPost2010Prop41ColorIndex
 90
       18
102
RTVSPost2010Prop41ColorRGB
 90
        0
102
RTVSPost2010PropOp41
 70
     0
102
RTVSPost2010Prop42
 90
       50
102
RTVSPost2010PropOp42
 70
     0
102
RTVSPost2010Prop43
 90
        3
102
RTVSPost2010PropOp43
 70
     0
102
RTVSPost2010Prop44ColorIndex
 90
        5
102
RTVSPost2010Prop44ColorRGB
 90
      255
102
RTVSPost2010PropOp44
 70
     0
102
RTVSPost2010Prop45
280
     0
102
RTVSPost2010PropOp45
 70
     1
102
RTVSPost2010Prop46
 90
       50
102
RTVSPost2010PropOp46
 70
     0
102
RTVSPost2010Prop47
 90
       50
102
RTVSPost2010PropOp47
 70
     0
102
RTVSPost2010Prop48
 90
       50
102
RTVSPost2010PropOp48
 70
     0
102
RTVSPost2010Prop49
280
     0
102
RTVSPost2010PropOp49
 70
     1
102
RTVSPost2010Prop50
 90
       50
102
RTVSPost2010PropOp50
 70
     0
102
RTVSPost2010Prop51ColorIndex
 90
      256
102
RTVSPost2010Prop51ColorRGB
 90
-16777216
102
RTVSPost2010PropOp51
 70
     0
102
RTVSPost2010Prop52
140
1.0
102
RTVSPost2010PropOp52
 70
     0
102
RTVSPost2010Prop53
 90
        2
102
RTVSPost2010PropOp53
 70
     0
102
RTVSPost2010Prop54
  1
strokes_ogs.tif
102
RTVSPost2010PropOp54
 70
     0
102
RTVSPost2010Prop55
280
     0
102
RTVSPost2010PropOp55
 70
     1
102
RTVSPost2010Prop56
140
1.0
102
RTVSPost2010PropOp56
 70
     0
102
RTVSPost2010Prop57
140
1.0
102
RTVSPost2010PropOp57
 70
     0
102
RTVSPropertyOp0
 70
     0
102
RTVSPropertyOp1
 70
     0
102
RTVSPropertyOp2
 70
     0
102
RTVSPropertyOp3
 70
     0
102
RTVSPropertyOp4
 70
     0
102
RTVSPropertyOp5
 70
     0
102
RTVSPropertyOp6
 70
     0
102
RTVSPropertyOp7
 70
     0
102
RTVSPropertyOp8
 70
     0
102
RTVSPropertyOp9
 70
     0
102
RTVSPropertyOp10
 70
     0
102
RTVSPropertyOp11
 70
     0
102
RTVSPropertyOp12
 70
     0
102
RTVSPropertyOp13
 70
     0
102
RTVSPropertyOp14
 70
     2
102
RTVSPropertyOp15
 70
     0
102
RTVSPropertyOp16
 70
     0
102
RTVSPropertyOp17
 70
     0
102
RTVSPropertyOp18
 70
     0
102
RTVSPropertyOp19
 70
     0
102
RTVSPropertyOp20
 70
     0
102
RTVSPropertyOp21
 70
     0
102
RTVSPropertyOp22
 70
     0
102
RTVSPropertyOp23
 70
     0
102
RTVSPropertyOp24
 70
     0
102
RTVSPropertyOp25
 70
     0
102
RTVSPropertyOp26
 70
     0
102
RTVSPropertyOp27
 70
     0
102
RTVSPropertyOp28
 70
     1
102
RTVSPropertyOp29
 70
     1
102
RTVSPropertyOp30
 70
     1
102
RTVSPropertyOp31
 70
     1
102
RTVSPropertyOp32
 70
     1
102
RTVSPropertyOp33
 70
     1
102
RTVSPropertyOp34
 70
     1
102
RTVSPropertyOp35
 70
     1
102
RTVSPropertyOp36
 70
     1
102
RTVSPropertyOp37
 70
     0
102
RTVSPropertyOp38
 70
     0
102
RTVSPropertyOp39
 70
     0
102
RTVSPropertyOp40
 70
     0
102
RTVSPropertyOp41
 70
     0
102
RTVSPropertyOp42
 70
     0
102
RTVSPropertyOp43
 70
     0
102
RTVSPropertyOp44
 70
     0
102
RTVSPropertyOp45
 70
     1
102
RTVSPropertyOp46
 70
     0
102
RTVSPropertyOp47
 70
     0
102
RTVSPropertyOp48
 70
     0
102
RTVSPropertyOp49
 70
     1
102
RTVSPropertyOp50
 70
     0
102
RTVSPropertyOp51
 70
     0
102
RTVSPropertyOp52
 70
     0
102
RTVSPropertyOp53
 70
     0
102
RTVSPropertyOp54
 70
     0
102
RTVSPropertyOp55
 70
     1
102
RTVSPropertyOp56
 70
     0
102
RTVSPropertyOp57
 70
     0
102
RTVSPropertyOp58
 70
     1
102
RTVSPropertyOp59
 70
     1
102
RTVSPropertyOp60
 70
     1
102
RTVSPropertyOp61
 70
     1
102
RTVSPropertyOp62
 70
     1
  0
XRECORD
  5
104B
102
{ACAD_REACTORS
330
104A
102
}
330
104A
100
AcDbXrecord
280
     1
102
RTVSPost2010Prop28
280
     0
102
RTVSPost2010PropOp28
 70
     1
102
RTVSPost2010Prop29
280
     1
102
RTVSPost2010PropOp29
 70
     1
102
RTVSPost2010Prop30
280
     1
102
RTVSPost2010PropOp30
 70
     1
102
RTVSPost2010Prop31
280
     0
102
RTVSPost2010PropOp31
 70
     1
102
RTVSPost2010Prop32
280
     0
102
RTVSPost2010PropOp32
 70
     1
102
RTVSPost2010Prop33
280
     0
102
RTVSPost2010PropOp33
 70
     1
102
RTVSPost2010Prop34
280
     0
102
RTVSPost2010PropOp34
 70
     1
102
RTVSPost2010Prop35
280
     0
102
RTVSPost2010PropOp35
 70
     1
102
RTVSPost2010Prop36
280
     0
102
RTVSPost2010PropOp36
 70
     1
102
RTVSPost2010Prop37
 90
       50
102
RTVSPost2010PropOp37
 70
     1
102
RTVSPost2010Prop38
140
0.0
102
RTVSPost2010PropOp38
 70
     1
102
RTVSPost2010Prop39
140
1.0
102
RTVSPost2010PropOp39
 70
     1
102
RTVSPost2010Prop40
 90
        0
102
RTVSPost2010PropOp40
 70
     1
102
RTVSPost2010Prop41ColorIndex
 90
       18
102
RTVSPost2010Prop41ColorRGB
 90
        0
102
RTVSPost2010PropOp41
 70
     1
102
RTVSPost2010Prop42
 90
       50
102
RTVSPost2010PropOp42
 70
     1
102
RTVSPost2010Prop43
 90
        3
102
RTVSPost2010PropOp43
 70
     1
102
RTVSPost2010Prop44ColorIndex
 90
        5
102
RTVSPost2010Prop44ColorRGB
 90
      255
102
RTVSPost2010PropOp44
 70
     1
102
RTVSPost2010Prop45
280
     0
102
RTVSPost2010PropOp45
 70
     1
102
RTVSPost2010Prop46
 90
       50
102
RTVSPost2010PropOp46
 70
     1
102
RTVSPost2010Prop47
 90
       50
102
RTVSPost2010PropOp47
 70
     1
102
RTVSPost2010Prop48
 90
       50
102
RTVSPost2010PropOp48
 70
     1
102
RTVSPost2010Prop49
280
     0
102
RTVSPost2010PropOp49
 70
     1
102
RTVSPost2010Prop50
 90
       50
102
RTVSPost2010PropOp50
 70
     1
102
RTVSPost2010Prop51ColorIndex
 90
      256
102
RTVSPost2010Prop51ColorRGB
 90
-16777216
102
RTVSPost2010PropOp51
 70
     0
102
RTVSPost2010Prop52
140
1.0
102
RTVSPost2010PropOp52
 70
     0
102
RTVSPost2010Prop53
 90
        2
102
RTVSPost2010PropOp53
 70
     1
102
RTVSPost2010Prop54
  1
strokes_ogs.tif
102
RTVSPost2010PropOp54
 70
     1
102
RTVSPost2010Prop55
280
     0
102
RTVSPost2010PropOp55
 70
     1
102
RTVSPost2010Prop56
140
1.0
102
RTVSPost2010PropOp56
 70
     1
102
RTVSPost2010Prop57
140
1.0
102
RTVSPost2010PropOp57
 70
     1
102
RTVSPropertyOp0
 70
     1
102
RTVSPropertyOp1
 70
     1
102
RTVSPropertyOp2
 70
     1
102
RTVSPropertyOp3
 70
     1
102
RTVSPropertyOp4
 70
     1
102
RTVSPropertyOp5
 70
     1
102
RTVSPropertyOp6
 70
     1
102
RTVSPropertyOp7
 70
     1
102
RTVSPropertyOp8
 70
     1
102
RTVSPropertyOp9
 70
     1
102
RTVSPropertyOp10
 70
     1
102
RTVSPropertyOp11
 70
     1
102
RTVSPropertyOp12
 70
     1
102
RTVSPropertyOp13
 70
     1
102
RTVSPropertyOp14
 70
     1
102
RTVSPropertyOp15
 70
     1
102
RTVSPropertyOp16
 70
     1
102
RTVSPropertyOp17
 70
     1
102
RTVSPropertyOp18
 70
     1
102
RTVSPropertyOp19
 70
     1
102
RTVSPropertyOp20
 70
     1
102
RTVSPropertyOp21
 70
     1
102
RTVSPropertyOp22
 70
     1
102
RTVSPropertyOp23
 70
     1
102
RTVSPropertyOp24
 70
     1
102
RTVSPropertyOp25
 70
     1
102
RTVSPropertyOp26
 70
     1
102
RTVSPropertyOp27
 70
     1
102
RTVSPropertyOp28
 70
     1
102
RTVSPropertyOp29
 70
     1
102
RTVSPropertyOp30
 70
     1
102
RTVSPropertyOp31
 70
     1
102
RTVSPropertyOp32
 70
     1
102
RTVSPropertyOp33
 70
     1
102
RTVSPropertyOp34
 70
     1
102
RTVSPropertyOp35
 70
     1
102
RTVSPropertyOp36
 70
     1
102
RTVSPropertyOp37
 70
     1
102
RTVSPropertyOp38
 70
     1
102
RTVSPropertyOp39
 70
     1
102
RTVSPropertyOp40
 70
     1
102
RTVSPropertyOp41
 70
     1
102
RTVSPropertyOp42
 70
     1
102
RTVSPropertyOp43
 70
     1
102
RTVSPropertyOp44
 70
     1
102
RTVSPropertyOp45
 70
     1
102
RTVSPropertyOp46
 70
     1
102
RTVSPropertyOp47
 70
     1
102
RTVSPropertyOp48
 70
     1
102
RTVSPropertyOp49
 70
     1
102
RTVSPropertyOp50
 70
     1
102
RTVSPropertyOp51
 70
     0
102
RTVSPropertyOp52
 70
     0
102
RTVSPropertyOp53
 70
     1
102
RTVSPropertyOp54
 70
     1
102
RTVSPropertyOp55
 70
     1
102
RTVSPropertyOp56
 70
     1
102
RTVSPropertyOp57
 70
     1
102
RTVSPropertyOp58
 70
     1
102
RTVSPropertyOp59
 70
     1
102
RTVSPropertyOp60
 70
     1
102
RTVSPropertyOp61
 70
     1
102
RTVSPropertyOp62
 70
     1
  0
XRECORD
  5
102F
102
{ACAD_REACTORS
330
102E
102
}
330
102E
100
AcDbXrecord
280
     1
102
RTVSPost2010Prop28
280
     0
102
RTVSPost2010PropOp28
 70
     1
102
RTVSPost2010Prop29
280
     1
102
RTVSPost2010PropOp29
 70
     1
102
RTVSPost2010Prop30
280
     1
102
RTVSPost2010PropOp30
 70
     1
102
RTVSPost2010Prop31
280
     0
102
RTVSPost2010PropOp31
 70
     1
102
RTVSPost2010Prop32
280
     0
102
RTVSPost2010PropOp32
 70
     1
102
RTVSPost2010Prop33
280
     0
102
RTVSPost2010PropOp33
 70
     1
102
RTVSPost2010Prop34
280
     0
102
RTVSPost2010PropOp34
 70
     1
102
RTVSPost2010Prop35
280
     0
102
RTVSPost2010PropOp35
 70
     1
102
RTVSPost2010Prop36
280
     0
102
RTVSPost2010PropOp36
 70
     1
102
RTVSPost2010Prop37
 90
       50
102
RTVSPost2010PropOp37
 70
     1
102
RTVSPost2010Prop38
140
0.0
102
RTVSPost2010PropOp38
 70
     1
102
RTVSPost2010Prop39
140
1.0
102
RTVSPost2010PropOp39
 70
     1
102
RTVSPost2010Prop40
 90
        0
102
RTVSPost2010PropOp40
 70
     1
102
RTVSPost2010Prop41ColorIndex
 90
       18
102
RTVSPost2010Prop41ColorRGB
 90
        0
102
RTVSPost2010PropOp41
 70
     1
102
RTVSPost2010Prop42
 90
       50
102
RTVSPost2010PropOp42
 70
     1
102
RTVSPost2010Prop43
 90
        3
102
RTVSPost2010PropOp43
 70
     1
102
RTVSPost2010Prop44ColorIndex
 90
        5
102
RTVSPost2010Prop44ColorRGB
 90
      255
102
RTVSPost2010PropOp44
 70
     1
102
RTVSPost2010Prop45
280
     0
102
RTVSPost2010PropOp45
 70
     1
102
RTVSPost2010Prop46
 90
       50
102
RTVSPost2010PropOp46
 70
     1
102
RTVSPost2010Prop47
 90
       50
102
RTVSPost2010PropOp47
 70
     1
102
RTVSPost2010Prop48
 90
       50
102
RTVSPost2010PropOp48
 70
     1
102
RTVSPost2010Prop49
280
     0
102
RTVSPost2010PropOp49
 70
     1
102
RTVSPost2010Prop50
 90
       50
102
RTVSPost2010PropOp50
 70
     1
102
RTVSPost2010Prop51ColorIndex
 90
      256
102
RTVSPost2010Prop51ColorRGB
 90
-16777216
102
RTVSPost2010PropOp51
 70
     0
102
RTVSPost2010Prop52
140
1.0
102
RTVSPost2010PropOp52
 70
     0
102
RTVSPost2010Prop53
 90
        2
102
RTVSPost2010PropOp53
 70
     1
102
RTVSPost2010Prop54
  1
strokes_ogs.tif
102
RTVSPost2010PropOp54
 70
     1
102
RTVSPost2010Prop55
280
     0
102
RTVSPost2010PropOp55
 70
     1
102
RTVSPost2010Prop56
140
1.0
102
RTVSPost2010PropOp56
 70
     1
102
RTVSPost2010Prop57
140
1.0
102
RTVSPost2010PropOp57
 70
     1
102
RTVSPropertyOp0
 70
     1
102
RTVSPropertyOp1
 70
     1
102
RTVSPropertyOp2
 70
     1
102
RTVSPropertyOp3
 70
     1
102
RTVSPropertyOp4
 70
     1
102
RTVSPropertyOp5
 70
     1
102
RTVSPropertyOp6
 70
     1
102
RTVSPropertyOp7
 70
     1
102
RTVSPropertyOp8
 70
     1
102
RTVSPropertyOp9
 70
     1
102
RTVSPropertyOp10
 70
     1
102
RTVSPropertyOp11
 70
     1
102
RTVSPropertyOp12
 70
     1
102
RTVSPropertyOp13
 70
     1
102
RTVSPropertyOp14
 70
     1
102
RTVSPropertyOp15
 70
     1
102
RTVSPropertyOp16
 70
     1
102
RTVSPropertyOp17
 70
     1
102
RTVSPropertyOp18
 70
     1
102
RTVSPropertyOp19
 70
     1
102
RTVSPropertyOp20
 70
     1
102
RTVSPropertyOp21
 70
     1
102
RTVSPropertyOp22
 70
     1
102
RTVSPropertyOp23
 70
     1
102
RTVSPropertyOp24
 70
     1
102
RTVSPropertyOp25
 70
     1
102
RTVSPropertyOp26
 70
     1
102
RTVSPropertyOp27
 70
     1
102
RTVSPropertyOp28
 70
     1
102
RTVSPropertyOp29
 70
     1
102
RTVSPropertyOp30
 70
     1
102
RTVSPropertyOp31
 70
     1
102
RTVSPropertyOp32
 70
     1
102
RTVSPropertyOp33
 70
     1
102
RTVSPropertyOp34
 70
     1
102
RTVSPropertyOp35
 70
     1
102
RTVSPropertyOp36
 70
     1
102
RTVSPropertyOp37
 70
     1
102
RTVSPropertyOp38
 70
     1
102
RTVSPropertyOp39
 70
     1
102
RTVSPropertyOp40
 70
     1
102
RTVSPropertyOp41
 70
     1
102
RTVSPropertyOp42
 70
     1
102
RTVSPropertyOp43
 70
     1
102
RTVSPropertyOp44
 70
     1
102
RTVSPropertyOp45
 70
     1
102
RTVSPropertyOp46
 70
     1
102
RTVSPropertyOp47
 70
     1
102
RTVSPropertyOp48
 70
     1
102
RTVSPropertyOp49
 70
     1
102
RTVSPropertyOp50
 70
     1
102
RTVSPropertyOp51
 70
     0
102
RTVSPropertyOp52
 70
     0
102
RTVSPropertyOp53
 70
     1
102
RTVSPropertyOp54
 70
     1
102
RTVSPropertyOp55
 70
     1
102
RTVSPropertyOp56
 70
     1
102
RTVSPropertyOp57
 70
     1
102
RTVSPropertyOp58
 70
     1
102
RTVSPropertyOp59
 70
     1
102
RTVSPropertyOp60
 70
     1
102
RTVSPropertyOp61
 70
     1
102
RTVSPropertyOp62
 70
     1
  0
XRECORD
  5
1031
102
{ACAD_REACTORS
330
1030
102
}
330
1030
100
AcDbXrecord
280
     1
102
RTVSPost2010Prop28
280
     0
102
RTVSPost2010PropOp28
 70
     1
102
RTVSPost2010Prop29
280
     1
102
RTVSPost2010PropOp29
 70
     1
102
RTVSPost2010Prop30
280
     1
102
RTVSPost2010PropOp30
 70
     1
102
RTVSPost2010Prop31
280
     0
102
RTVSPost2010PropOp31
 70
     1
102
RTVSPost2010Prop32
280
     0
102
RTVSPost2010PropOp32
 70
     1
102
RTVSPost2010Prop33
280
     0
102
RTVSPost2010PropOp33
 70
     1
102
RTVSPost2010Prop34
280
     0
102
RTVSPost2010PropOp34
 70
     1
102
RTVSPost2010Prop35
280
     0
102
RTVSPost2010PropOp35
 70
     1
102
RTVSPost2010Prop36
280
     0
102
RTVSPost2010PropOp36
 70
     1
102
RTVSPost2010Prop37
 90
       50
102
RTVSPost2010PropOp37
 70
     1
102
RTVSPost2010Prop38
140
0.0
102
RTVSPost2010PropOp38
 70
     1
102
RTVSPost2010Prop39
140
1.0
102
RTVSPost2010PropOp39
 70
     1
102
RTVSPost2010Prop40
 90
        0
102
RTVSPost2010PropOp40
 70
     1
102
RTVSPost2010Prop41ColorIndex
 90
       18
102
RTVSPost2010Prop41ColorRGB
 90
        0
102
RTVSPost2010PropOp41
 70
     1
102
RTVSPost2010Prop42
 90
       50
102
RTVSPost2010PropOp42
 70
     1
102
RTVSPost2010Prop43
 90
        3
102
RTVSPost2010PropOp43
 70
     1
102
RTVSPost2010Prop44ColorIndex
 90
        5
102
RTVSPost2010Prop44ColorRGB
 90
      255
102
RTVSPost2010PropOp44
 70
     1
102
RTVSPost2010Prop45
280
     0
102
RTVSPost2010PropOp45
 70
     1
102
RTVSPost2010Prop46
 90
       50
102
RTVSPost2010PropOp46
 70
     1
102
RTVSPost2010Prop47
 90
       50
102
RTVSPost2010PropOp47
 70
     1
102
RTVSPost2010Prop48
 90
       50
102
RTVSPost2010PropOp48
 70
     1
102
RTVSPost2010Prop49
280
     0
102
RTVSPost2010PropOp49
 70
     1
102
RTVSPost2010Prop50
 90
       50
102
RTVSPost2010PropOp50
 70
     1
102
RTVSPost2010Prop51ColorIndex
 90
      256
102
RTVSPost2010Prop51ColorRGB
 90
-16777216
102
RTVSPost2010PropOp51
 70
     0
102
RTVSPost2010Prop52
140
1.0
102
RTVSPost2010PropOp52
 70
     0
102
RTVSPost2010Prop53
 90
        2
102
RTVSPost2010PropOp53
 70
     1
102
RTVSPost2010Prop54
  1
strokes_ogs.tif
102
RTVSPost2010PropOp54
 70
     1
102
RTVSPost2010Prop55
280
     0
102
RTVSPost2010PropOp55
 70
     1
102
RTVSPost2010Prop56
140
1.0
102
RTVSPost2010PropOp56
 70
     1
102
RTVSPost2010Prop57
140
1.0
102
RTVSPost2010PropOp57
 70
     1
102
RTVSPropertyOp0
 70
     1
102
RTVSPropertyOp1
 70
     1
102
RTVSPropertyOp2
 70
     1
102
RTVSPropertyOp3
 70
     1
102
RTVSPropertyOp4
 70
     1
102
RTVSPropertyOp5
 70
     1
102
RTVSPropertyOp6
 70
     1
102
RTVSPropertyOp7
 70
     1
102
RTVSPropertyOp8
 70
     1
102
RTVSPropertyOp9
 70
     1
102
RTVSPropertyOp10
 70
     1
102
RTVSPropertyOp11
 70
     1
102
RTVSPropertyOp12
 70
     1
102
RTVSPropertyOp13
 70
     1
102
RTVSPropertyOp14
 70
     1
102
RTVSPropertyOp15
 70
     1
102
RTVSPropertyOp16
 70
     1
102
RTVSPropertyOp17
 70
     1
102
RTVSPropertyOp18
 70
     1
102
RTVSPropertyOp19
 70
     1
102
RTVSPropertyOp20
 70
     1
102
RTVSPropertyOp21
 70
     1
102
RTVSPropertyOp22
 70
     1
102
RTVSPropertyOp23
 70
     1
102
RTVSPropertyOp24
 70
     1
102
RTVSPropertyOp25
 70
     1
102
RTVSPropertyOp26
 70
     1
102
RTVSPropertyOp27
 70
     1
102
RTVSPropertyOp28
 70
     1
102
RTVSPropertyOp29
 70
     1
102
RTVSPropertyOp30
 70
     1
102
RTVSPropertyOp31
 70
     1
102
RTVSPropertyOp32
 70
     1
102
RTVSPropertyOp33
 70
     1
102
RTVSPropertyOp34
 70
     1
102
RTVSPropertyOp35
 70
     1
102
RTVSPropertyOp36
 70
     1
102
RTVSPropertyOp37
 70
     1
102
RTVSPropertyOp38
 70
     1
102
RTVSPropertyOp39
 70
     1
102
RTVSPropertyOp40
 70
     1
102
RTVSPropertyOp41
 70
     1
102
RTVSPropertyOp42
 70
     1
102
RTVSPropertyOp43
 70
     1
102
RTVSPropertyOp44
 70
     1
102
RTVSPropertyOp45
 70
     1
102
RTVSPropertyOp46
 70
     1
102
RTVSPropertyOp47
 70
     1
102
RTVSPropertyOp48
 70
     1
102
RTVSPropertyOp49
 70
     1
102
RTVSPropertyOp50
 70
     1
102
RTVSPropertyOp51
 70
     0
102
RTVSPropertyOp52
 70
     0
102
RTVSPropertyOp53
 70
     1
102
RTVSPropertyOp54
 70
     1
102
RTVSPropertyOp55
 70
     1
102
RTVSPropertyOp56
 70
     1
102
RTVSPropertyOp57
 70
     1
102
RTVSPropertyOp58
 70
     1
102
RTVSPropertyOp59
 70
     1
102
RTVSPropertyOp60
 70
     1
102
RTVSPropertyOp61
 70
     1
102
RTVSPropertyOp62
 70
     1
  0
XRECORD
  5
1033
102
{ACAD_REACTORS
330
1032
102
}
330
1032
100
AcDbXrecord
280
     1
102
RTVSPost2010Prop28
280
     0
102
RTVSPost2010PropOp28
 70
     1
102
RTVSPost2010Prop29
280
     1
102
RTVSPost2010PropOp29
 70
     1
102
RTVSPost2010Prop30
280
     1
102
RTVSPost2010PropOp30
 70
     1
102
RTVSPost2010Prop31
280
     0
102
RTVSPost2010PropOp31
 70
     1
102
RTVSPost2010Prop32
280
     0
102
RTVSPost2010PropOp32
 70
     1
102
RTVSPost2010Prop33
280
     0
102
RTVSPost2010PropOp33
 70
     1
102
RTVSPost2010Prop34
280
     0
102
RTVSPost2010PropOp34
 70
     1
102
RTVSPost2010Prop35
280
     0
102
RTVSPost2010PropOp35
 70
     1
102
RTVSPost2010Prop36
280
     0
102
RTVSPost2010PropOp36
 70
     1
102
RTVSPost2010Prop37
 90
       50
102
RTVSPost2010PropOp37
 70
     1
102
RTVSPost2010Prop38
140
0.0
102
RTVSPost2010PropOp38
 70
     1
102
RTVSPost2010Prop39
140
1.0
102
RTVSPost2010PropOp39
 70
     1
102
RTVSPost2010Prop40
 90
        0
102
RTVSPost2010PropOp40
 70
     1
102
RTVSPost2010Prop41ColorIndex
 90
       18
102
RTVSPost2010Prop41ColorRGB
 90
        0
102
RTVSPost2010PropOp41
 70
     1
102
RTVSPost2010Prop42
 90
       50
102
RTVSPost2010PropOp42
 70
     1
102
RTVSPost2010Prop43
 90
        3
102
RTVSPost2010PropOp43
 70
     1
102
RTVSPost2010Prop44ColorIndex
 90
        5
102
RTVSPost2010Prop44ColorRGB
 90
      255
102
RTVSPost2010PropOp44
 70
     1
102
RTVSPost2010Prop45
280
     0
102
RTVSPost2010PropOp45
 70
     1
102
RTVSPost2010Prop46
 90
       50
102
RTVSPost2010PropOp46
 70
     1
102
RTVSPost2010Prop47
 90
       50
102
RTVSPost2010PropOp47
 70
     1
102
RTVSPost2010Prop48
 90
       50
102
RTVSPost2010PropOp48
 70
     1
102
RTVSPost2010Prop49
280
     0
102
RTVSPost2010PropOp49
 70
     1
102
RTVSPost2010Prop50
 90
       50
102
RTVSPost2010PropOp50
 70
     1
102
RTVSPost2010Prop51ColorIndex
 90
      256
102
RTVSPost2010Prop51ColorRGB
 90
-16777216
102
RTVSPost2010PropOp51
 70
     0
102
RTVSPost2010Prop52
140
1.0
102
RTVSPost2010PropOp52
 70
     0
102
RTVSPost2010Prop53
 90
        2
102
RTVSPost2010PropOp53
 70
     1
102
RTVSPost2010Prop54
  1
strokes_ogs.tif
102
RTVSPost2010PropOp54
 70
     1
102
RTVSPost2010Prop55
280
     0
102
RTVSPost2010PropOp55
 70
     1
102
RTVSPost2010Prop56
140
1.0
102
RTVSPost2010PropOp56
 70
     1
102
RTVSPost2010Prop57
140
1.0
102
RTVSPost2010PropOp57
 70
     1
102
RTVSPropertyOp0
 70
     1
102
RTVSPropertyOp1
 70
     1
102
RTVSPropertyOp2
 70
     1
102
RTVSPropertyOp3
 70
     1
102
RTVSPropertyOp4
 70
     1
102
RTVSPropertyOp5
 70
     1
102
RTVSPropertyOp6
 70
     1
102
RTVSPropertyOp7
 70
     1
102
RTVSPropertyOp8
 70
     1
102
RTVSPropertyOp9
 70
     1
102
RTVSPropertyOp10
 70
     1
102
RTVSPropertyOp11
 70
     1
102
RTVSPropertyOp12
 70
     1
102
RTVSPropertyOp13
 70
     1
102
RTVSPropertyOp14
 70
     1
102
RTVSPropertyOp15
 70
     1
102
RTVSPropertyOp16
 70
     1
102
RTVSPropertyOp17
 70
     1
102
RTVSPropertyOp18
 70
     1
102
RTVSPropertyOp19
 70
     1
102
RTVSPropertyOp20
 70
     1
102
RTVSPropertyOp21
 70
     1
102
RTVSPropertyOp22
 70
     1
102
RTVSPropertyOp23
 70
     1
102
RTVSPropertyOp24
 70
     1
102
RTVSPropertyOp25
 70
     1
102
RTVSPropertyOp26
 70
     1
102
RTVSPropertyOp27
 70
     1
102
RTVSPropertyOp28
 70
     1
102
RTVSPropertyOp29
 70
     1
102
RTVSPropertyOp30
 70
     1
102
RTVSPropertyOp31
 70
     1
102
RTVSPropertyOp32
 70
     1
102
RTVSPropertyOp33
 70
     1
102
RTVSPropertyOp34
 70
     1
102
RTVSPropertyOp35
 70
     1
102
RTVSPropertyOp36
 70
     1
102
RTVSPropertyOp37
 70
     1
102
RTVSPropertyOp38
 70
     1
102
RTVSPropertyOp39
 70
     1
102
RTVSPropertyOp40
 70
     1
102
RTVSPropertyOp41
 70
     1
102
RTVSPropertyOp42
 70
     1
102
RTVSPropertyOp43
 70
     1
102
RTVSPropertyOp44
 70
     1
102
RTVSPropertyOp45
 70
     1
102
RTVSPropertyOp46
 70
     1
102
RTVSPropertyOp47
 70
     1
102
RTVSPropertyOp48
 70
     1
102
RTVSPropertyOp49
 70
     1
102
RTVSPropertyOp50
 70
     1
102
RTVSPropertyOp51
 70
     0
102
RTVSPropertyOp52
 70
     0
102
RTVSPropertyOp53
 70
     1
102
RTVSPropertyOp54
 70
     1
102
RTVSPropertyOp55
 70
     1
102
RTVSPropertyOp56
 70
     1
102
RTVSPropertyOp57
 70
     1
102
RTVSPropertyOp58
 70
     1
102
RTVSPropertyOp59
 70
     1
102
RTVSPropertyOp60
 70
     1
102
RTVSPropertyOp61
 70
     1
102
RTVSPropertyOp62
 70
     1
  0
XRECORD
  5
1035
102
{ACAD_REACTORS
330
1034
102
}
330
1034
100
AcDbXrecord
280
     1
102
RTVSPost2010Prop28
280
     0
102
RTVSPost2010PropOp28
 70
     1
102
RTVSPost2010Prop29
280
     1
102
RTVSPost2010PropOp29
 70
     1
102
RTVSPost2010Prop30
280
     1
102
RTVSPost2010PropOp30
 70
     1
102
RTVSPost2010Prop31
280
     0
102
RTVSPost2010PropOp31
 70
     1
102
RTVSPost2010Prop32
280
     0
102
RTVSPost2010PropOp32
 70
     1
102
RTVSPost2010Prop33
280
     0
102
RTVSPost2010PropOp33
 70
     1
102
RTVSPost2010Prop34
280
     0
102
RTVSPost2010PropOp34
 70
     1
102
RTVSPost2010Prop35
280
     0
102
RTVSPost2010PropOp35
 70
     1
102
RTVSPost2010Prop36
280
     0
102
RTVSPost2010PropOp36
 70
     1
102
RTVSPost2010Prop37
 90
       50
102
RTVSPost2010PropOp37
 70
     1
102
RTVSPost2010Prop38
140
0.0
102
RTVSPost2010PropOp38
 70
     1
102
RTVSPost2010Prop39
140
1.0
102
RTVSPost2010PropOp39
 70
     1
102
RTVSPost2010Prop40
 90
        0
102
RTVSPost2010PropOp40
 70
     1
102
RTVSPost2010Prop41ColorIndex
 90
       18
102
RTVSPost2010Prop41ColorRGB
 90
        0
102
RTVSPost2010PropOp41
 70
     1
102
RTVSPost2010Prop42
 90
       50
102
RTVSPost2010PropOp42
 70
     1
102
RTVSPost2010Prop43
 90
        3
102
RTVSPost2010PropOp43
 70
     1
102
RTVSPost2010Prop44ColorIndex
 90
        5
102
RTVSPost2010Prop44ColorRGB
 90
      255
102
RTVSPost2010PropOp44
 70
     1
102
RTVSPost2010Prop45
280
     0
102
RTVSPost2010PropOp45
 70
     1
102
RTVSPost2010Prop46
 90
       50
102
RTVSPost2010PropOp46
 70
     1
102
RTVSPost2010Prop47
 90
       50
102
RTVSPost2010PropOp47
 70
     1
102
RTVSPost2010Prop48
 90
       50
102
RTVSPost2010PropOp48
 70
     1
102
RTVSPost2010Prop49
280
     0
102
RTVSPost2010PropOp49
 70
     1
102
RTVSPost2010Prop50
 90
       50
102
RTVSPost2010PropOp50
 70
     1
102
RTVSPost2010Prop51ColorIndex
 90
      256
102
RTVSPost2010Prop51ColorRGB
 90
-16777216
102
RTVSPost2010PropOp51
 70
     0
102
RTVSPost2010Prop52
140
1.0
102
RTVSPost2010PropOp52
 70
     0
102
RTVSPost2010Prop53
 90
        2
102
RTVSPost2010PropOp53
 70
     1
102
RTVSPost2010Prop54
  1
strokes_ogs.tif
102
RTVSPost2010PropOp54
 70
     1
102
RTVSPost2010Prop55
280
     0
102
RTVSPost2010PropOp55
 70
     1
102
RTVSPost2010Prop56
140
1.0
102
RTVSPost2010PropOp56
 70
     1
102
RTVSPost2010Prop57
140
1.0
102
RTVSPost2010PropOp57
 70
     1
102
RTVSPropertyOp0
 70
     1
102
RTVSPropertyOp1
 70
     1
102
RTVSPropertyOp2
 70
     1
102
RTVSPropertyOp3
 70
     1
102
RTVSPropertyOp4
 70
     1
102
RTVSPropertyOp5
 70
     1
102
RTVSPropertyOp6
 70
     1
102
RTVSPropertyOp7
 70
     1
102
RTVSPropertyOp8
 70
     1
102
RTVSPropertyOp9
 70
     1
102
RTVSPropertyOp10
 70
     1
102
RTVSPropertyOp11
 70
     1
102
RTVSPropertyOp12
 70
     1
102
RTVSPropertyOp13
 70
     1
102
RTVSPropertyOp14
 70
     1
102
RTVSPropertyOp15
 70
     1
102
RTVSPropertyOp16
 70
     1
102
RTVSPropertyOp17
 70
     1
102
RTVSPropertyOp18
 70
     1
102
RTVSPropertyOp19
 70
     1
102
RTVSPropertyOp20
 70
     1
102
RTVSPropertyOp21
 70
     1
102
RTVSPropertyOp22
 70
     1
102
RTVSPropertyOp23
 70
     1
102
RTVSPropertyOp24
 70
     1
102
RTVSPropertyOp25
 70
     1
102
RTVSPropertyOp26
 70
     1
102
RTVSPropertyOp27
 70
     1
102
RTVSPropertyOp28
 70
     1
102
RTVSPropertyOp29
 70
     1
102
RTVSPropertyOp30
 70
     1
102
RTVSPropertyOp31
 70
     1
102
RTVSPropertyOp32
 70
     1
102
RTVSPropertyOp33
 70
     1
102
RTVSPropertyOp34
 70
     1
102
RTVSPropertyOp35
 70
     1
102
RTVSPropertyOp36
 70
     1
102
RTVSPropertyOp37
 70
     1
102
RTVSPropertyOp38
 70
     1
102
RTVSPropertyOp39
 70
     1
102
RTVSPropertyOp40
 70
     1
102
RTVSPropertyOp41
 70
     1
102
RTVSPropertyOp42
 70
     1
102
RTVSPropertyOp43
 70
     1
102
RTVSPropertyOp44
 70
     1
102
RTVSPropertyOp45
 70
     1
102
RTVSPropertyOp46
 70
     1
102
RTVSPropertyOp47
 70
     1
102
RTVSPropertyOp48
 70
     1
102
RTVSPropertyOp49
 70
     1
102
RTVSPropertyOp50
 70
     1
102
RTVSPropertyOp51
 70
     0
102
RTVSPropertyOp52
 70
     0
102
RTVSPropertyOp53
 70
     1
102
RTVSPropertyOp54
 70
     1
102
RTVSPropertyOp55
 70
     1
102
RTVSPropertyOp56
 70
     1
102
RTVSPropertyOp57
 70
     1
102
RTVSPropertyOp58
 70
     1
102
RTVSPropertyOp59
 70
     1
102
RTVSPropertyOp60
 70
     1
102
RTVSPropertyOp61
 70
     1
102
RTVSPropertyOp62
 70
     1
  0
XRECORD
  5
103D
102
{ACAD_REACTORS
330
103C
102
}
330
103C
100
AcDbXrecord
280
     1
102
RTVSPost2010Prop28
280
     0
102
RTVSPost2010PropOp28
 70
     1
102
RTVSPost2010Prop29
280
     1
102
RTVSPost2010PropOp29
 70
     1
102
RTVSPost2010Prop30
280
     1
102
RTVSPost2010PropOp30
 70
     1
102
RTVSPost2010Prop31
280
     0
102
RTVSPost2010PropOp31
 70
     1
102
RTVSPost2010Prop32
280
     0
102
RTVSPost2010PropOp32
 70
     1
102
RTVSPost2010Prop33
280
     0
102
RTVSPost2010PropOp33
 70
     1
102
RTVSPost2010Prop34
280
     0
102
RTVSPost2010PropOp34
 70
     1
102
RTVSPost2010Prop35
280
     0
102
RTVSPost2010PropOp35
 70
     1
102
RTVSPost2010Prop36
280
     0
102
RTVSPost2010PropOp36
 70
     1
102
RTVSPost2010Prop37
 90
       50
102
RTVSPost2010PropOp37
 70
     1
102
RTVSPost2010Prop38
140
0.0
102
RTVSPost2010PropOp38
 70
     1
102
RTVSPost2010Prop39
140
1.0
102
RTVSPost2010PropOp39
 70
     1
102
RTVSPost2010Prop40
 90
        0
102
RTVSPost2010PropOp40
 70
     1
102
RTVSPost2010Prop41ColorIndex
 90
       18
102
RTVSPost2010Prop41ColorRGB
 90
        0
102
RTVSPost2010PropOp41
 70
     1
102
RTVSPost2010Prop42
 90
       50
102
RTVSPost2010PropOp42
 70
     1
102
RTVSPost2010Prop43
 90
        3
102
RTVSPost2010PropOp43
 70
     1
102
RTVSPost2010Prop44ColorIndex
 90
        5
102
RTVSPost2010Prop44ColorRGB
 90
      255
102
RTVSPost2010PropOp44
 70
     1
102
RTVSPost2010Prop45
280
     0
102
RTVSPost2010PropOp45
 70
     1
102
RTVSPost2010Prop46
 90
       50
102
RTVSPost2010PropOp46
 70
     1
102
RTVSPost2010Prop47
 90
       50
102
RTVSPost2010PropOp47
 70
     1
102
RTVSPost2010Prop48
 90
       50
102
RTVSPost2010PropOp48
 70
     1
102
RTVSPost2010Prop49
280
     0
102
RTVSPost2010PropOp49
 70
     1
102
RTVSPost2010Prop50
 90
       50
102
RTVSPost2010PropOp50
 70
     1
102
RTVSPost2010Prop51ColorIndex
 90
      256
102
RTVSPost2010Prop51ColorRGB
 90
-16777216
102
RTVSPost2010PropOp51
 70
     0
102
RTVSPost2010Prop52
140
1.0
102
RTVSPost2010PropOp52
 70
     0
102
RTVSPost2010Prop53
 90
        2
102
RTVSPost2010PropOp53
 70
     1
102
RTVSPost2010Prop54
  1
strokes_ogs.tif
102
RTVSPost2010PropOp54
 70
     1
102
RTVSPost2010Prop55
280
     0
102
RTVSPost2010PropOp55
 70
     1
102
RTVSPost2010Prop56
140
1.0
102
RTVSPost2010PropOp56
 70
     1
102
RTVSPost2010Prop57
140
1.0
102
RTVSPost2010PropOp57
 70
     1
102
RTVSPropertyOp0
 70
     1
102
RTVSPropertyOp1
 70
     1
102
RTVSPropertyOp2
 70
     1
102
RTVSPropertyOp3
 70
     1
102
RTVSPropertyOp4
 70
     1
102
RTVSPropertyOp5
 70
     1
102
RTVSPropertyOp6
 70
     1
102
RTVSPropertyOp7
 70
     1
102
RTVSPropertyOp8
 70
     1
102
RTVSPropertyOp9
 70
     1
102
RTVSPropertyOp10
 70
     1
102
RTVSPropertyOp11
 70
     1
102
RTVSPropertyOp12
 70
     1
102
RTVSPropertyOp13
 70
     1
102
RTVSPropertyOp14
 70
     1
102
RTVSPropertyOp15
 70
     1
102
RTVSPropertyOp16
 70
     1
102
RTVSPropertyOp17
 70
     1
102
RTVSPropertyOp18
 70
     1
102
RTVSPropertyOp19
 70
     1
102
RTVSPropertyOp20
 70
     1
102
RTVSPropertyOp21
 70
     1
102
RTVSPropertyOp22
 70
     1
102
RTVSPropertyOp23
 70
     1
102
RTVSPropertyOp24
 70
     1
102
RTVSPropertyOp25
 70
     1
102
RTVSPropertyOp26
 70
     1
102
RTVSPropertyOp27
 70
     1
102
RTVSPropertyOp28
 70
     1
102
RTVSPropertyOp29
 70
     1
102
RTVSPropertyOp30
 70
     1
102
RTVSPropertyOp31
 70
     1
102
RTVSPropertyOp32
 70
     1
102
RTVSPropertyOp33
 70
     1
102
RTVSPropertyOp34
 70
     1
102
RTVSPropertyOp35
 70
     1
102
RTVSPropertyOp36
 70
     1
102
RTVSPropertyOp37
 70
     1
102
RTVSPropertyOp38
 70
     1
102
RTVSPropertyOp39
 70
     1
102
RTVSPropertyOp40
 70
     1
102
RTVSPropertyOp41
 70
     1
102
RTVSPropertyOp42
 70
     1
102
RTVSPropertyOp43
 70
     1
102
RTVSPropertyOp44
 70
     1
102
RTVSPropertyOp45
 70
     1
102
RTVSPropertyOp46
 70
     1
102
RTVSPropertyOp47
 70
     1
102
RTVSPropertyOp48
 70
     1
102
RTVSPropertyOp49
 70
     1
102
RTVSPropertyOp50
 70
     1
102
RTVSPropertyOp51
 70
     0
102
RTVSPropertyOp52
 70
     0
102
RTVSPropertyOp53
 70
     1
102
RTVSPropertyOp54
 70
     1
102
RTVSPropertyOp55
 70
     1
102
RTVSPropertyOp56
 70
     1
102
RTVSPropertyOp57
 70
     1
102
RTVSPropertyOp58
 70
     1
102
RTVSPropertyOp59
 70
     1
102
RTVSPropertyOp60
 70
     1
102
RTVSPropertyOp61
 70
     1
102
RTVSPropertyOp62
 70
     1
  0
XRECORD
  5
1059
102
{ACAD_REACTORS
330
1058
102
}
330
1058
100
AcDbXrecord
280
     1
102
RTVSPost2010Prop28
280
     0
102
RTVSPost2010PropOp28
 70
     1
102
RTVSPost2010Prop29
280
     1
102
RTVSPost2010PropOp29
 70
     1
102
RTVSPost2010Prop30
280
     1
102
RTVSPost2010PropOp30
 70
     1
102
RTVSPost2010Prop31
280
     0
102
RTVSPost2010PropOp31
 70
     1
102
RTVSPost2010Prop32
280
     0
102
RTVSPost2010PropOp32
 70
     1
102
RTVSPost2010Prop33
280
     0
102
RTVSPost2010PropOp33
 70
     1
102
RTVSPost2010Prop34
280
     0
102
RTVSPost2010PropOp34
 70
     1
102
RTVSPost2010Prop35
280
     0
102
RTVSPost2010PropOp35
 70
     1
102
RTVSPost2010Prop36
280
     0
102
RTVSPost2010PropOp36
 70
     1
102
RTVSPost2010Prop37
 90
       50
102
RTVSPost2010PropOp37
 70
     0
102
RTVSPost2010Prop38
140
0.0
102
RTVSPost2010PropOp38
 70
     0
102
RTVSPost2010Prop39
140
1.0
102
RTVSPost2010PropOp39
 70
     0
102
RTVSPost2010Prop40
 90
        0
102
RTVSPost2010PropOp40
 70
     0
102
RTVSPost2010Prop41ColorIndex
 90
       18
102
RTVSPost2010Prop41ColorRGB
 90
        0
102
RTVSPost2010PropOp41
 70
     0
102
RTVSPost2010Prop42
 90
       50
102
RTVSPost2010PropOp42
 70
     0
102
RTVSPost2010Prop43
 90
        3
102
RTVSPost2010PropOp43
 70
     0
102
RTVSPost2010Prop44ColorIndex
 90
        5
102
RTVSPost2010Prop44ColorRGB
 90
      255
102
RTVSPost2010PropOp44
 70
     0
102
RTVSPost2010Prop45
280
     0
102
RTVSPost2010PropOp45
 70
     1
102
RTVSPost2010Prop46
 90
       50
102
RTVSPost2010PropOp46
 70
     0
102
RTVSPost2010Prop47
 90
       50
102
RTVSPost2010PropOp47
 70
     0
102
RTVSPost2010Prop48
 90
       50
102
RTVSPost2010PropOp48
 70
     0
102
RTVSPost2010Prop49
280
     0
102
RTVSPost2010PropOp49
 70
     1
102
RTVSPost2010Prop50
 90
       50
102
RTVSPost2010PropOp50
 70
     0
102
RTVSPost2010Prop51ColorIndex
 90
      256
102
RTVSPost2010Prop51ColorRGB
 90
-16777216
102
RTVSPost2010PropOp51
 70
     0
102
RTVSPost2010Prop52
140
1.0
102
RTVSPost2010PropOp52
 70
     0
102
RTVSPost2010Prop53
 90
        2
102
RTVSPost2010PropOp53
 70
     0
102
RTVSPost2010Prop54
  1
strokes_ogs.tif
102
RTVSPost2010PropOp54
 70
     0
102
RTVSPost2010Prop55
280
     0
102
RTVSPost2010PropOp55
 70
     1
102
RTVSPost2010Prop56
140
1.0
102
RTVSPost2010PropOp56
 70
     0
102
RTVSPost2010Prop57
140
1.0
102
RTVSPost2010PropOp57
 70
     0
102
RTVSPropertyOp0
 70
     0
102
RTVSPropertyOp1
 70
     0
102
RTVSPropertyOp2
 70
     0
102
RTVSPropertyOp3
 70
     0
102
RTVSPropertyOp4
 70
     0
102
RTVSPropertyOp5
 70
     0
102
RTVSPropertyOp6
 70
     0
102
RTVSPropertyOp7
 70
     0
102
RTVSPropertyOp8
 70
     0
102
RTVSPropertyOp9
 70
     0
102
RTVSPropertyOp10
 70
     0
102
RTVSPropertyOp11
 70
     0
102
RTVSPropertyOp12
 70
     0
102
RTVSPropertyOp13
 70
     0
102
RTVSPropertyOp14
 70
     2
102
RTVSPropertyOp15
 70
     0
102
RTVSPropertyOp16
 70
     0
102
RTVSPropertyOp17
 70
     0
102
RTVSPropertyOp18
 70
     0
102
RTVSPropertyOp19
 70
     0
102
RTVSPropertyOp20
 70
     0
102
RTVSPropertyOp21
 70
     0
102
RTVSPropertyOp22
 70
     0
102
RTVSPropertyOp23
 70
     0
102
RTVSPropertyOp24
 70
     0
102
RTVSPropertyOp25
 70
     0
102
RTVSPropertyOp26
 70
     0
102
RTVSPropertyOp27
 70
     0
102
RTVSPropertyOp28
 70
     1
102
RTVSPropertyOp29
 70
     1
102
RTVSPropertyOp30
 70
     1
102
RTVSPropertyOp31
 70
     1
102
RTVSPropertyOp32
 70
     1
102
RTVSPropertyOp33
 70
     1
102
RTVSPropertyOp34
 70
     1
102
RTVSPropertyOp35
 70
     1
102
RTVSPropertyOp36
 70
     1
102
RTVSPropertyOp37
 70
     0
102
RTVSPropertyOp38
 70
     0
102
RTVSPropertyOp39
 70
     0
102
RTVSPropertyOp40
 70
     0
102
RTVSPropertyOp41
 70
     0
102
RTVSPropertyOp42
 70
     0
102
RTVSPropertyOp43
 70
     0
102
RTVSPropertyOp44
 70
     0
102
RTVSPropertyOp45
 70
     1
102
RTVSPropertyOp46
 70
     0
102
RTVSPropertyOp47
 70
     0
102
RTVSPropertyOp48
 70
     0
102
RTVSPropertyOp49
 70
     1
102
RTVSPropertyOp50
 70
     0
102
RTVSPropertyOp51
 70
     0
102
RTVSPropertyOp52
 70
     0
102
RTVSPropertyOp53
 70
     0
102
RTVSPropertyOp54
 70
     0
102
RTVSPropertyOp55
 70
     1
102
RTVSPropertyOp56
 70
     0
102
RTVSPropertyOp57
 70
     0
102
RTVSPropertyOp58
 70
     1
102
RTVSPropertyOp59
 70
     1
102
RTVSPropertyOp60
 70
     1
102
RTVSPropertyOp61
 70
     1
102
RTVSPropertyOp62
 70
     1
  0
XRECORD
  5
1049
102
{ACAD_REACTORS
330
1048
102
}
330
1048
100
AcDbXrecord
280
     1
102
RTVSPost2010Prop28
280
     0
102
RTVSPost2010PropOp28
 70
     1
102
RTVSPost2010Prop29
280
     1
102
RTVSPost2010PropOp29
 70
     1
102
RTVSPost2010Prop30
280
     1
102
RTVSPost2010PropOp30
 70
     1
102
RTVSPost2010Prop31
280
     0
102
RTVSPost2010PropOp31
 70
     1
102
RTVSPost2010Prop32
280
     0
102
RTVSPost2010PropOp32
 70
     1
102
RTVSPost2010Prop33
280
     0
102
RTVSPost2010PropOp33
 70
     1
102
RTVSPost2010Prop34
280
     0
102
RTVSPost2010PropOp34
 70
     1
102
RTVSPost2010Prop35
280
     0
102
RTVSPost2010PropOp35
 70
     1
102
RTVSPost2010Prop36
280
     0
102
RTVSPost2010PropOp36
 70
     1
102
RTVSPost2010Prop37
 90
       50
102
RTVSPost2010PropOp37
 70
     1
102
RTVSPost2010Prop38
140
0.0
102
RTVSPost2010PropOp38
 70
     1
102
RTVSPost2010Prop39
140
1.0
102
RTVSPost2010PropOp39
 70
     1
102
RTVSPost2010Prop40
 90
        0
102
RTVSPost2010PropOp40
 70
     1
102
RTVSPost2010Prop41ColorIndex
 90
       18
102
RTVSPost2010Prop41ColorRGB
 90
        0
102
RTVSPost2010PropOp41
 70
     1
102
RTVSPost2010Prop42
 90
       50
102
RTVSPost2010PropOp42
 70
     1
102
RTVSPost2010Prop43
 90
        3
102
RTVSPost2010PropOp43
 70
     1
102
RTVSPost2010Prop44ColorIndex
 90
        5
102
RTVSPost2010Prop44ColorRGB
 90
      255
102
RTVSPost2010PropOp44
 70
     1
102
RTVSPost2010Prop45
280
     0
102
RTVSPost2010PropOp45
 70
     1
102
RTVSPost2010Prop46
 90
       50
102
RTVSPost2010PropOp46
 70
     1
102
RTVSPost2010Prop47
 90
       50
102
RTVSPost2010PropOp47
 70
     1
102
RTVSPost2010Prop48
 90
       50
102
RTVSPost2010PropOp48
 70
     1
102
RTVSPost2010Prop49
280
     0
102
RTVSPost2010PropOp49
 70
     1
102
RTVSPost2010Prop50
 90
       50
102
RTVSPost2010PropOp50
 70
     1
102
RTVSPost2010Prop51ColorIndex
 90
      256
102
RTVSPost2010Prop51ColorRGB
 90
-16777216
102
RTVSPost2010PropOp51
 70
     0
102
RTVSPost2010Prop52
140
1.0
102
RTVSPost2010PropOp52
 70
     0
102
RTVSPost2010Prop53
 90
        2
102
RTVSPost2010PropOp53
 70
     1
102
RTVSPost2010Prop54
  1
strokes_ogs.tif
102
RTVSPost2010PropOp54
 70
     1
102
RTVSPost2010Prop55
280
     0
102
RTVSPost2010PropOp55
 70
     1
102
RTVSPost2010Prop56
140
1.0
102
RTVSPost2010PropOp56
 70
     1
102
RTVSPost2010Prop57
140
1.0
102
RTVSPost2010PropOp57
 70
     1
102
RTVSPropertyOp0
 70
     1
102
RTVSPropertyOp1
 70
     1
102
RTVSPropertyOp2
 70
     1
102
RTVSPropertyOp3
 70
     1
102
RTVSPropertyOp4
 70
     1
102
RTVSPropertyOp5
 70
     1
102
RTVSPropertyOp6
 70
     1
102
RTVSPropertyOp7
 70
     1
102
RTVSPropertyOp8
 70
     1
102
RTVSPropertyOp9
 70
     1
102
RTVSPropertyOp10
 70
     1
102
RTVSPropertyOp11
 70
     1
102
RTVSPropertyOp12
 70
     1
102
RTVSPropertyOp13
 70
     1
102
RTVSPropertyOp14
 70
     1
102
RTVSPropertyOp15
 70
     1
102
RTVSPropertyOp16
 70
     1
102
RTVSPropertyOp17
 70
     1
102
RTVSPropertyOp18
 70
     1
102
RTVSPropertyOp19
 70
     1
102
RTVSPropertyOp20
 70
     1
102
RTVSPropertyOp21
 70
     1
102
RTVSPropertyOp22
 70
     1
102
RTVSPropertyOp23
 70
     1
102
RTVSPropertyOp24
 70
     1
102
RTVSPropertyOp25
 70
     1
102
RTVSPropertyOp26
 70
     1
102
RTVSPropertyOp27
 70
     1
102
RTVSPropertyOp28
 70
     1
102
RTVSPropertyOp29
 70
     1
102
RTVSPropertyOp30
 70
     1
102
RTVSPropertyOp31
 70
     1
102
RTVSPropertyOp32
 70
     1
102
RTVSPropertyOp33
 70
     1
102
RTVSPropertyOp34
 70
     1
102
RTVSPropertyOp35
 70
     1
102
RTVSPropertyOp36
 70
     1
102
RTVSPropertyOp37
 70
     1
102
RTVSPropertyOp38
 70
     1
102
RTVSPropertyOp39
 70
     1
102
RTVSPropertyOp40
 70
     1
102
RTVSPropertyOp41
 70
     1
102
RTVSPropertyOp42
 70
     1
102
RTVSPropertyOp43
 70
     1
102
RTVSPropertyOp44
 70
     1
102
RTVSPropertyOp45
 70
     1
102
RTVSPropertyOp46
 70
     1
102
RTVSPropertyOp47
 70
     1
102
RTVSPropertyOp48
 70
     1
102
RTVSPropertyOp49
 70
     1
102
RTVSPropertyOp50
 70
     1
102
RTVSPropertyOp51
 70
     0
102
RTVSPropertyOp52
 70
     0
102
RTVSPropertyOp53
 70
     1
102
RTVSPropertyOp54
 70
     1
102
RTVSPropertyOp55
 70
     1
102
RTVSPropertyOp56
 70
     1
102
RTVSPropertyOp57
 70
     1
102
RTVSPropertyOp58
 70
     1
102
RTVSPropertyOp59
 70
     1
102
RTVSPropertyOp60
 70
     1
102
RTVSPropertyOp61
 70
     1
102
RTVSPropertyOp62
 70
     1
  0
XRECORD
  5
105B
102
{ACAD_REACTORS
330
105A
102
}
330
105A
100
AcDbXrecord
280
     1
102
RTVSPost2010Prop28
280
     0
102
RTVSPost2010PropOp28
 70
     1
102
RTVSPost2010Prop29
280
     1
102
RTVSPost2010PropOp29
 70
     1
102
RTVSPost2010Prop30
280
     1
102
RTVSPost2010PropOp30
 70
     1
102
RTVSPost2010Prop31
280
     0
102
RTVSPost2010PropOp31
 70
     1
102
RTVSPost2010Prop32
280
     0
102
RTVSPost2010PropOp32
 70
     1
102
RTVSPost2010Prop33
280
     0
102
RTVSPost2010PropOp33
 70
     1
102
RTVSPost2010Prop34
280
     0
102
RTVSPost2010PropOp34
 70
     1
102
RTVSPost2010Prop35
280
     0
102
RTVSPost2010PropOp35
 70
     1
102
RTVSPost2010Prop36
280
     0
102
RTVSPost2010PropOp36
 70
     1
102
RTVSPost2010Prop37
 90
       50
102
RTVSPost2010PropOp37
 70
     0
102
RTVSPost2010Prop38
140
0.0
102
RTVSPost2010PropOp38
 70
     0
102
RTVSPost2010Prop39
140
1.0
102
RTVSPost2010PropOp39
 70
     0
102
RTVSPost2010Prop40
 90
        0
102
RTVSPost2010PropOp40
 70
     0
102
RTVSPost2010Prop41ColorIndex
 90
       18
102
RTVSPost2010Prop41ColorRGB
 90
        0
102
RTVSPost2010PropOp41
 70
     0
102
RTVSPost2010Prop42
 90
       50
102
RTVSPost2010PropOp42
 70
     0
102
RTVSPost2010Prop43
 90
        3
102
RTVSPost2010PropOp43
 70
     0
102
RTVSPost2010Prop44ColorIndex
 90
        5
102
RTVSPost2010Prop44ColorRGB
 90
      255
102
RTVSPost2010PropOp44
 70
     0
102
RTVSPost2010Prop45
280
     0
102
RTVSPost2010PropOp45
 70
     1
102
RTVSPost2010Prop46
 90
       50
102
RTVSPost2010PropOp46
 70
     0
102
RTVSPost2010Prop47
 90
       50
102
RTVSPost2010PropOp47
 70
     0
102
RTVSPost2010Prop48
 90
       50
102
RTVSPost2010PropOp48
 70
     0
102
RTVSPost2010Prop49
280
     0
102
RTVSPost2010PropOp49
 70
     1
102
RTVSPost2010Prop50
 90
       50
102
RTVSPost2010PropOp50
 70
     0
102
RTVSPost2010Prop51ColorIndex
 90
      256
102
RTVSPost2010Prop51ColorRGB
 90
-16777216
102
RTVSPost2010PropOp51
 70
     0
102
RTVSPost2010Prop52
140
1.0
102
RTVSPost2010PropOp52
 70
     0
102
RTVSPost2010Prop53
 90
        2
102
RTVSPost2010PropOp53
 70
     0
102
RTVSPost2010Prop54
  1
strokes_ogs.tif
102
RTVSPost2010PropOp54
 70
     0
102
RTVSPost2010Prop55
280
     0
102
RTVSPost2010PropOp55
 70
     1
102
RTVSPost2010Prop56
140
1.0
102
RTVSPost2010PropOp56
 70
     0
102
RTVSPost2010Prop57
140
1.0
102
RTVSPost2010PropOp57
 70
     0
102
RTVSPropertyOp0
 70
     0
102
RTVSPropertyOp1
 70
     0
102
RTVSPropertyOp2
 70
     0
102
RTVSPropertyOp3
 70
     0
102
RTVSPropertyOp4
 70
     0
102
RTVSPropertyOp5
 70
     0
102
RTVSPropertyOp6
 70
     0
102
RTVSPropertyOp7
 70
     0
102
RTVSPropertyOp8
 70
     0
102
RTVSPropertyOp9
 70
     0
102
RTVSPropertyOp10
 70
     0
102
RTVSPropertyOp11
 70
     0
102
RTVSPropertyOp12
 70
     0
102
RTVSPropertyOp13
 70
     0
102
RTVSPropertyOp14
 70
     2
102
RTVSPropertyOp15
 70
     0
102
RTVSPropertyOp16
 70
     0
102
RTVSPropertyOp17
 70
     0
102
RTVSPropertyOp18
 70
     0
102
RTVSPropertyOp19
 70
     0
102
RTVSPropertyOp20
 70
     0
102
RTVSPropertyOp21
 70
     0
102
RTVSPropertyOp22
 70
     0
102
RTVSPropertyOp23
 70
     0
102
RTVSPropertyOp24
 70
     0
102
RTVSPropertyOp25
 70
     0
102
RTVSPropertyOp26
 70
     0
102
RTVSPropertyOp27
 70
     0
102
RTVSPropertyOp28
 70
     1
102
RTVSPropertyOp29
 70
     1
102
RTVSPropertyOp30
 70
     1
102
RTVSPropertyOp31
 70
     1
102
RTVSPropertyOp32
 70
     1
102
RTVSPropertyOp33
 70
     1
102
RTVSPropertyOp34
 70
     1
102
RTVSPropertyOp35
 70
     1
102
RTVSPropertyOp36
 70
     1
102
RTVSPropertyOp37
 70
     0
102
RTVSPropertyOp38
 70
     0
102
RTVSPropertyOp39
 70
     0
102
RTVSPropertyOp40
 70
     0
102
RTVSPropertyOp41
 70
     0
102
RTVSPropertyOp42
 70
     0
102
RTVSPropertyOp43
 70
     0
102
RTVSPropertyOp44
 70
     0
102
RTVSPropertyOp45
 70
     1
102
RTVSPropertyOp46
 70
     0
102
RTVSPropertyOp47
 70
     0
102
RTVSPropertyOp48
 70
     0
102
RTVSPropertyOp49
 70
     1
102
RTVSPropertyOp50
 70
     0
102
RTVSPropertyOp51
 70
     0
102
RTVSPropertyOp52
 70
     0
102
RTVSPropertyOp53
 70
     0
102
RTVSPropertyOp54
 70
     0
102
RTVSPropertyOp55
 70
     1
102
RTVSPropertyOp56
 70
     0
102
RTVSPropertyOp57
 70
     0
102
RTVSPropertyOp58
 70
     1
102
RTVSPropertyOp59
 70
     1
102
RTVSPropertyOp60
 70
     1
102
RTVSPropertyOp61
 70
     1
102
RTVSPropertyOp62
 70
     1
  0
XRECORD
  5
1041
102
{ACAD_REACTORS
330
1040
102
}
330
1040
100
AcDbXrecord
280
     1
102
RTVSPost2010Prop28
280
     0
102
RTVSPost2010PropOp28
 70
     1
102
RTVSPost2010Prop29
280
     1
102
RTVSPost2010PropOp29
 70
     1
102
RTVSPost2010Prop30
280
     1
102
RTVSPost2010PropOp30
 70
     1
102
RTVSPost2010Prop31
280
     0
102
RTVSPost2010PropOp31
 70
     1
102
RTVSPost2010Prop32
280
     0
102
RTVSPost2010PropOp32
 70
     1
102
RTVSPost2010Prop33
280
     0
102
RTVSPost2010PropOp33
 70
     1
102
RTVSPost2010Prop34
280
     0
102
RTVSPost2010PropOp34
 70
     1
102
RTVSPost2010Prop35
280
     0
102
RTVSPost2010PropOp35
 70
     1
102
RTVSPost2010Prop36
280
     0
102
RTVSPost2010PropOp36
 70
     1
102
RTVSPost2010Prop37
 90
       50
102
RTVSPost2010PropOp37
 70
     1
102
RTVSPost2010Prop38
140
0.0
102
RTVSPost2010PropOp38
 70
     1
102
RTVSPost2010Prop39
140
1.0
102
RTVSPost2010PropOp39
 70
     1
102
RTVSPost2010Prop40
 90
        0
102
RTVSPost2010PropOp40
 70
     1
102
RTVSPost2010Prop41ColorIndex
 90
       18
102
RTVSPost2010Prop41ColorRGB
 90
        0
102
RTVSPost2010PropOp41
 70
     1
102
RTVSPost2010Prop42
 90
       50
102
RTVSPost2010PropOp42
 70
     1
102
RTVSPost2010Prop43
 90
        3
102
RTVSPost2010PropOp43
 70
     1
102
RTVSPost2010Prop44ColorIndex
 90
        5
102
RTVSPost2010Prop44ColorRGB
 90
      255
102
RTVSPost2010PropOp44
 70
     1
102
RTVSPost2010Prop45
280
     0
102
RTVSPost2010PropOp45
 70
     1
102
RTVSPost2010Prop46
 90
       50
102
RTVSPost2010PropOp46
 70
     1
102
RTVSPost2010Prop47
 90
       50
102
RTVSPost2010PropOp47
 70
     1
102
RTVSPost2010Prop48
 90
       50
102
RTVSPost2010PropOp48
 70
     1
102
RTVSPost2010Prop49
280
     0
102
RTVSPost2010PropOp49
 70
     1
102
RTVSPost2010Prop50
 90
       50
102
RTVSPost2010PropOp50
 70
     1
102
RTVSPost2010Prop51ColorIndex
 90
      256
102
RTVSPost2010Prop51ColorRGB
 90
-16777216
102
RTVSPost2010PropOp51
 70
     0
102
RTVSPost2010Prop52
140
1.0
102
RTVSPost2010PropOp52
 70
     0
102
RTVSPost2010Prop53
 90
        2
102
RTVSPost2010PropOp53
 70
     1
102
RTVSPost2010Prop54
  1
strokes_ogs.tif
102
RTVSPost2010PropOp54
 70
     1
102
RTVSPost2010Prop55
280
     0
102
RTVSPost2010PropOp55
 70
     1
102
RTVSPost2010Prop56
140
1.0
102
RTVSPost2010PropOp56
 70
     1
102
RTVSPost2010Prop57
140
1.0
102
RTVSPost2010PropOp57
 70
     1
102
RTVSPropertyOp0
 70
     1
102
RTVSPropertyOp1
 70
     1
102
RTVSPropertyOp2
 70
     1
102
RTVSPropertyOp3
 70
     1
102
RTVSPropertyOp4
 70
     1
102
RTVSPropertyOp5
 70
     1
102
RTVSPropertyOp6
 70
     1
102
RTVSPropertyOp7
 70
     1
102
RTVSPropertyOp8
 70
     1
102
RTVSPropertyOp9
 70
     1
102
RTVSPropertyOp10
 70
     1
102
RTVSPropertyOp11
 70
     1
102
RTVSPropertyOp12
 70
     1
102
RTVSPropertyOp13
 70
     1
102
RTVSPropertyOp14
 70
     1
102
RTVSPropertyOp15
 70
     1
102
RTVSPropertyOp16
 70
     1
102
RTVSPropertyOp17
 70
     1
102
RTVSPropertyOp18
 70
     1
102
RTVSPropertyOp19
 70
     1
102
RTVSPropertyOp20
 70
     1
102
RTVSPropertyOp21
 70
     1
102
RTVSPropertyOp22
 70
     1
102
RTVSPropertyOp23
 70
     1
102
RTVSPropertyOp24
 70
     1
102
RTVSPropertyOp25
 70
     1
102
RTVSPropertyOp26
 70
     1
102
RTVSPropertyOp27
 70
     1
102
RTVSPropertyOp28
 70
     1
102
RTVSPropertyOp29
 70
     1
102
RTVSPropertyOp30
 70
     1
102
RTVSPropertyOp31
 70
     1
102
RTVSPropertyOp32
 70
     1
102
RTVSPropertyOp33
 70
     1
102
RTVSPropertyOp34
 70
     1
102
RTVSPropertyOp35
 70
     1
102
RTVSPropertyOp36
 70
     1
102
RTVSPropertyOp37
 70
     1
102
RTVSPropertyOp38
 70
     1
102
RTVSPropertyOp39
 70
     1
102
RTVSPropertyOp40
 70
     1
102
RTVSPropertyOp41
 70
     1
102
RTVSPropertyOp42
 70
     1
102
RTVSPropertyOp43
 70
     1
102
RTVSPropertyOp44
 70
     1
102
RTVSPropertyOp45
 70
     1
102
RTVSPropertyOp46
 70
     1
102
RTVSPropertyOp47
 70
     1
102
RTVSPropertyOp48
 70
     1
102
RTVSPropertyOp49
 70
     1
102
RTVSPropertyOp50
 70
     1
102
RTVSPropertyOp51
 70
     0
102
RTVSPropertyOp52
 70
     0
102
RTVSPropertyOp53
 70
     1
102
RTVSPropertyOp54
 70
     1
102
RTVSPropertyOp55
 70
     1
102
RTVSPropertyOp56
 70
     1
102
RTVSPropertyOp57
 70
     1
102
RTVSPropertyOp58
 70
     1
102
RTVSPropertyOp59
 70
     1
102
RTVSPropertyOp60
 70
     1
102
RTVSPropertyOp61
 70
     1
102
RTVSPropertyOp62
 70
     1
  0
XRECORD
  5
1057
102
{ACAD_REACTORS
330
1056
102
}
330
1056
100
AcDbXrecord
280
     1
102
RTVSPost2010Prop28
280
     0
102
RTVSPost2010PropOp28
 70
     1
102
RTVSPost2010Prop29
280
     1
102
RTVSPost2010PropOp29
 70
     1
102
RTVSPost2010Prop30
280
     1
102
RTVSPost2010PropOp30
 70
     1
102
RTVSPost2010Prop31
280
     0
102
RTVSPost2010PropOp31
 70
     1
102
RTVSPost2010Prop32
280
     0
102
RTVSPost2010PropOp32
 70
     1
102
RTVSPost2010Prop33
280
     0
102
RTVSPost2010PropOp33
 70
     1
102
RTVSPost2010Prop34
280
     0
102
RTVSPost2010PropOp34
 70
     1
102
RTVSPost2010Prop35
280
     0
102
RTVSPost2010PropOp35
 70
     1
102
RTVSPost2010Prop36
280
     0
102
RTVSPost2010PropOp36
 70
     1
102
RTVSPost2010Prop37
 90
       50
102
RTVSPost2010PropOp37
 70
     1
102
RTVSPost2010Prop38
140
0.0
102
RTVSPost2010PropOp38
 70
     1
102
RTVSPost2010Prop39
140
1.0
102
RTVSPost2010PropOp39
 70
     1
102
RTVSPost2010Prop40
 90
        0
102
RTVSPost2010PropOp40
 70
     1
102
RTVSPost2010Prop41ColorIndex
 90
       18
102
RTVSPost2010Prop41ColorRGB
 90
        0
102
RTVSPost2010PropOp41
 70
     1
102
RTVSPost2010Prop42
 90
       50
102
RTVSPost2010PropOp42
 70
     1
102
RTVSPost2010Prop43
 90
        3
102
RTVSPost2010PropOp43
 70
     1
102
RTVSPost2010Prop44ColorIndex
 90
        5
102
RTVSPost2010Prop44ColorRGB
 90
      255
102
RTVSPost2010PropOp44
 70
     1
102
RTVSPost2010Prop45
280
     0
102
RTVSPost2010PropOp45
 70
     1
102
RTVSPost2010Prop46
 90
       50
102
RTVSPost2010PropOp46
 70
     1
102
RTVSPost2010Prop47
 90
       50
102
RTVSPost2010PropOp47
 70
     1
102
RTVSPost2010Prop48
 90
       50
102
RTVSPost2010PropOp48
 70
     1
102
RTVSPost2010Prop49
280
     0
102
RTVSPost2010PropOp49
 70
     1
102
RTVSPost2010Prop50
 90
       50
102
RTVSPost2010PropOp50
 70
     1
102
RTVSPost2010Prop51ColorIndex
 90
      256
102
RTVSPost2010Prop51ColorRGB
 90
-16777216
102
RTVSPost2010PropOp51
 70
     0
102
RTVSPost2010Prop52
140
1.0
102
RTVSPost2010PropOp52
 70
     0
102
RTVSPost2010Prop53
 90
        2
102
RTVSPost2010PropOp53
 70
     1
102
RTVSPost2010Prop54
  1
strokes_ogs.tif
102
RTVSPost2010PropOp54
 70
     1
102
RTVSPost2010Prop55
280
     0
102
RTVSPost2010PropOp55
 70
     1
102
RTVSPost2010Prop56
140
1.0
102
RTVSPost2010PropOp56
 70
     1
102
RTVSPost2010Prop57
140
1.0
102
RTVSPost2010PropOp57
 70
     1
102
RTVSPropertyOp0
 70
     1
102
RTVSPropertyOp1
 70
     1
102
RTVSPropertyOp2
 70
     1
102
RTVSPropertyOp3
 70
     1
102
RTVSPropertyOp4
 70
     1
102
RTVSPropertyOp5
 70
     1
102
RTVSPropertyOp6
 70
     1
102
RTVSPropertyOp7
 70
     1
102
RTVSPropertyOp8
 70
     1
102
RTVSPropertyOp9
 70
     1
102
RTVSPropertyOp10
 70
     1
102
RTVSPropertyOp11
 70
     1
102
RTVSPropertyOp12
 70
     1
102
RTVSPropertyOp13
 70
     1
102
RTVSPropertyOp14
 70
     1
102
RTVSPropertyOp15
 70
     1
102
RTVSPropertyOp16
 70
     1
102
RTVSPropertyOp17
 70
     1
102
RTVSPropertyOp18
 70
     1
102
RTVSPropertyOp19
 70
     1
102
RTVSPropertyOp20
 70
     1
102
RTVSPropertyOp21
 70
     1
102
RTVSPropertyOp22
 70
     1
102
RTVSPropertyOp23
 70
     1
102
RTVSPropertyOp24
 70
     1
102
RTVSPropertyOp25
 70
     1
102
RTVSPropertyOp26
 70
     1
102
RTVSPropertyOp27
 70
     1
102
RTVSPropertyOp28
 70
     1
102
RTVSPropertyOp29
 70
     1
102
RTVSPropertyOp30
 70
     1
102
RTVSPropertyOp31
 70
     1
102
RTVSPropertyOp32
 70
     1
102
RTVSPropertyOp33
 70
     1
102
RTVSPropertyOp34
 70
     1
102
RTVSPropertyOp35
 70
     1
102
RTVSPropertyOp36
 70
     1
102
RTVSPropertyOp37
 70
     1
102
RTVSPropertyOp38
 70
     1
102
RTVSPropertyOp39
 70
     1
102
RTVSPropertyOp40
 70
     1
102
RTVSPropertyOp41
 70
     1
102
RTVSPropertyOp42
 70
     1
102
RTVSPropertyOp43
 70
     1
102
RTVSPropertyOp44
 70
     1
102
RTVSPropertyOp45
 70
     1
102
RTVSPropertyOp46
 70
     1
102
RTVSPropertyOp47
 70
     1
102
RTVSPropertyOp48
 70
     1
102
RTVSPropertyOp49
 70
     1
102
RTVSPropertyOp50
 70
     1
102
RTVSPropertyOp51
 70
     0
102
RTVSPropertyOp52
 70
     0
102
RTVSPropertyOp53
 70
     1
102
RTVSPropertyOp54
 70
     1
102
RTVSPropertyOp55
 70
     1
102
RTVSPropertyOp56
 70
     1
102
RTVSPropertyOp57
 70
     1
102
RTVSPropertyOp58
 70
     1
102
RTVSPropertyOp59
 70
     1
102
RTVSPropertyOp60
 70
     1
102
RTVSPropertyOp61
 70
     1
102
RTVSPropertyOp62
 70
     1
  0
XRECORD
  5
1055
102
{ACAD_REACTORS
330
1054
102
}
330
1054
100
AcDbXrecord
280
     1
102
RTVSPost2010Prop28
280
     0
102
RTVSPost2010PropOp28
 70
     1
102
RTVSPost2010Prop29
280
     1
102
RTVSPost2010PropOp29
 70
     1
102
RTVSPost2010Prop30
280
     1
102
RTVSPost2010PropOp30
 70
     1
102
RTVSPost2010Prop31
280
     0
102
RTVSPost2010PropOp31
 70
     1
102
RTVSPost2010Prop32
280
     0
102
RTVSPost2010PropOp32
 70
     1
102
RTVSPost2010Prop33
280
     0
102
RTVSPost2010PropOp33
 70
     1
102
RTVSPost2010Prop34
280
     0
102
RTVSPost2010PropOp34
 70
     1
102
RTVSPost2010Prop35
280
     0
102
RTVSPost2010PropOp35
 70
     1
102
RTVSPost2010Prop36
280
     0
102
RTVSPost2010PropOp36
 70
     1
102
RTVSPost2010Prop37
 90
       50
102
RTVSPost2010PropOp37
 70
     1
102
RTVSPost2010Prop38
140
0.0
102
RTVSPost2010PropOp38
 70
     1
102
RTVSPost2010Prop39
140
1.0
102
RTVSPost2010PropOp39
 70
     1
102
RTVSPost2010Prop40
 90
        0
102
RTVSPost2010PropOp40
 70
     1
102
RTVSPost2010Prop41ColorIndex
 90
       18
102
RTVSPost2010Prop41ColorRGB
 90
        0
102
RTVSPost2010PropOp41
 70
     1
102
RTVSPost2010Prop42
 90
       50
102
RTVSPost2010PropOp42
 70
     1
102
RTVSPost2010Prop43
 90
        3
102
RTVSPost2010PropOp43
 70
     1
102
RTVSPost2010Prop44ColorIndex
 90
        5
102
RTVSPost2010Prop44ColorRGB
 90
      255
102
RTVSPost2010PropOp44
 70
     1
102
RTVSPost2010Prop45
280
     0
102
RTVSPost2010PropOp45
 70
     1
102
RTVSPost2010Prop46
 90
       50
102
RTVSPost2010PropOp46
 70
     1
102
RTVSPost2010Prop47
 90
       50
102
RTVSPost2010PropOp47
 70
     1
102
RTVSPost2010Prop48
 90
       50
102
RTVSPost2010PropOp48
 70
     1
102
RTVSPost2010Prop49
280
     0
102
RTVSPost2010PropOp49
 70
     1
102
RTVSPost2010Prop50
 90
       50
102
RTVSPost2010PropOp50
 70
     1
102
RTVSPost2010Prop51ColorIndex
 90
      256
102
RTVSPost2010Prop51ColorRGB
 90
-16777216
102
RTVSPost2010PropOp51
 70
     0
102
RTVSPost2010Prop52
140
1.0
102
RTVSPost2010PropOp52
 70
     0
102
RTVSPost2010Prop53
 90
        2
102
RTVSPost2010PropOp53
 70
     1
102
RTVSPost2010Prop54
  1
strokes_ogs.tif
102
RTVSPost2010PropOp54
 70
     1
102
RTVSPost2010Prop55
280
     0
102
RTVSPost2010PropOp55
 70
     1
102
RTVSPost2010Prop56
140
1.0
102
RTVSPost2010PropOp56
 70
     1
102
RTVSPost2010Prop57
140
1.0
102
RTVSPost2010PropOp57
 70
     1
102
RTVSPropertyOp0
 70
     1
102
RTVSPropertyOp1
 70
     1
102
RTVSPropertyOp2
 70
     1
102
RTVSPropertyOp3
 70
     1
102
RTVSPropertyOp4
 70
     1
102
RTVSPropertyOp5
 70
     1
102
RTVSPropertyOp6
 70
     1
102
RTVSPropertyOp7
 70
     1
102
RTVSPropertyOp8
 70
     1
102
RTVSPropertyOp9
 70
     1
102
RTVSPropertyOp10
 70
     1
102
RTVSPropertyOp11
 70
     1
102
RTVSPropertyOp12
 70
     1
102
RTVSPropertyOp13
 70
     1
102
RTVSPropertyOp14
 70
     1
102
RTVSPropertyOp15
 70
     1
102
RTVSPropertyOp16
 70
     1
102
RTVSPropertyOp17
 70
     1
102
RTVSPropertyOp18
 70
     1
102
RTVSPropertyOp19
 70
     1
102
RTVSPropertyOp20
 70
     1
102
RTVSPropertyOp21
 70
     1
102
RTVSPropertyOp22
 70
     1
102
RTVSPropertyOp23
 70
     1
102
RTVSPropertyOp24
 70
     1
102
RTVSPropertyOp25
 70
     1
102
RTVSPropertyOp26
 70
     1
102
RTVSPropertyOp27
 70
     1
102
RTVSPropertyOp28
 70
     1
102
RTVSPropertyOp29
 70
     1
102
RTVSPropertyOp30
 70
     1
102
RTVSPropertyOp31
 70
     1
102
RTVSPropertyOp32
 70
     1
102
RTVSPropertyOp33
 70
     1
102
RTVSPropertyOp34
 70
     1
102
RTVSPropertyOp35
 70
     1
102
RTVSPropertyOp36
 70
     1
102
RTVSPropertyOp37
 70
     1
102
RTVSPropertyOp38
 70
     1
102
RTVSPropertyOp39
 70
     1
102
RTVSPropertyOp40
 70
     1
102
RTVSPropertyOp41
 70
     1
102
RTVSPropertyOp42
 70
     1
102
RTVSPropertyOp43
 70
     1
102
RTVSPropertyOp44
 70
     1
102
RTVSPropertyOp45
 70
     1
102
RTVSPropertyOp46
 70
     1
102
RTVSPropertyOp47
 70
     1
102
RTVSPropertyOp48
 70
     1
102
RTVSPropertyOp49
 70
     1
102
RTVSPropertyOp50
 70
     1
102
RTVSPropertyOp51
 70
     0
102
RTVSPropertyOp52
 70
     0
102
RTVSPropertyOp53
 70
     1
102
RTVSPropertyOp54
 70
     1
102
RTVSPropertyOp55
 70
     1
102
RTVSPropertyOp56
 70
     1
102
RTVSPropertyOp57
 70
     1
102
RTVSPropertyOp58
 70
     1
102
RTVSPropertyOp59
 70
     1
102
RTVSPropertyOp60
 70
     1
102
RTVSPropertyOp61
 70
     1
102
RTVSPropertyOp62
 70
     1
  0
XRECORD
  5
104F
102
{ACAD_REACTORS
330
104E
102
}
330
104E
100
AcDbXrecord
280
     1
102
RTVSPost2010Prop28
280
     0
102
RTVSPost2010PropOp28
 70
     1
102
RTVSPost2010Prop29
280
     1
102
RTVSPost2010PropOp29
 70
     1
102
RTVSPost2010Prop30
280
     1
102
RTVSPost2010PropOp30
 70
     1
102
RTVSPost2010Prop31
280
     0
102
RTVSPost2010PropOp31
 70
     1
102
RTVSPost2010Prop32
280
     0
102
RTVSPost2010PropOp32
 70
     1
102
RTVSPost2010Prop33
280
     0
102
RTVSPost2010PropOp33
 70
     1
102
RTVSPost2010Prop34
280
     0
102
RTVSPost2010PropOp34
 70
     1
102
RTVSPost2010Prop35
280
     0
102
RTVSPost2010PropOp35
 70
     1
102
RTVSPost2010Prop36
280
     0
102
RTVSPost2010PropOp36
 70
     1
102
RTVSPost2010Prop37
 90
       50
102
RTVSPost2010PropOp37
 70
     1
102
RTVSPost2010Prop38
140
0.0
102
RTVSPost2010PropOp38
 70
     1
102
RTVSPost2010Prop39
140
1.0
102
RTVSPost2010PropOp39
 70
     1
102
RTVSPost2010Prop40
 90
        0
102
RTVSPost2010PropOp40
 70
     1
102
RTVSPost2010Prop41ColorIndex
 90
       18
102
RTVSPost2010Prop41ColorRGB
 90
        0
102
RTVSPost2010PropOp41
 70
     1
102
RTVSPost2010Prop42
 90
       50
102
RTVSPost2010PropOp42
 70
     1
102
RTVSPost2010Prop43
 90
        3
102
RTVSPost2010PropOp43
 70
     1
102
RTVSPost2010Prop44ColorIndex
 90
        5
102
RTVSPost2010Prop44ColorRGB
 90
      255
102
RTVSPost2010PropOp44
 70
     1
102
RTVSPost2010Prop45
280
     0
102
RTVSPost2010PropOp45
 70
     1
102
RTVSPost2010Prop46
 90
       50
102
RTVSPost2010PropOp46
 70
     1
102
RTVSPost2010Prop47
 90
       50
102
RTVSPost2010PropOp47
 70
     1
102
RTVSPost2010Prop48
 90
       50
102
RTVSPost2010PropOp48
 70
     1
102
RTVSPost2010Prop49
280
     0
102
RTVSPost2010PropOp49
 70
     1
102
RTVSPost2010Prop50
 90
       50
102
RTVSPost2010PropOp50
 70
     1
102
RTVSPost2010Prop51ColorIndex
 90
      256
102
RTVSPost2010Prop51ColorRGB
 90
-16777216
102
RTVSPost2010PropOp51
 70
     0
102
RTVSPost2010Prop52
140
1.0
102
RTVSPost2010PropOp52
 70
     0
102
RTVSPost2010Prop53
 90
        2
102
RTVSPost2010PropOp53
 70
     1
102
RTVSPost2010Prop54
  1
strokes_ogs.tif
102
RTVSPost2010PropOp54
 70
     1
102
RTVSPost2010Prop55
280
     0
102
RTVSPost2010PropOp55
 70
     1
102
RTVSPost2010Prop56
140
1.0
102
RTVSPost2010PropOp56
 70
     1
102
RTVSPost2010Prop57
140
1.0
102
RTVSPost2010PropOp57
 70
     1
102
RTVSPropertyOp0
 70
     1
102
RTVSPropertyOp1
 70
     1
102
RTVSPropertyOp2
 70
     1
102
RTVSPropertyOp3
 70
     1
102
RTVSPropertyOp4
 70
     1
102
RTVSPropertyOp5
 70
     1
102
RTVSPropertyOp6
 70
     1
102
RTVSPropertyOp7
 70
     1
102
RTVSPropertyOp8
 70
     1
102
RTVSPropertyOp9
 70
     1
102
RTVSPropertyOp10
 70
     1
102
RTVSPropertyOp11
 70
     1
102
RTVSPropertyOp12
 70
     1
102
RTVSPropertyOp13
 70
     1
102
RTVSPropertyOp14
 70
     1
102
RTVSPropertyOp15
 70
     1
102
RTVSPropertyOp16
 70
     1
102
RTVSPropertyOp17
 70
     1
102
RTVSPropertyOp18
 70
     1
102
RTVSPropertyOp19
 70
     1
102
RTVSPropertyOp20
 70
     1
102
RTVSPropertyOp21
 70
     1
102
RTVSPropertyOp22
 70
     1
102
RTVSPropertyOp23
 70
     1
102
RTVSPropertyOp24
 70
     1
102
RTVSPropertyOp25
 70
     1
102
RTVSPropertyOp26
 70
     1
102
RTVSPropertyOp27
 70
     1
102
RTVSPropertyOp28
 70
     1
102
RTVSPropertyOp29
 70
     1
102
RTVSPropertyOp30
 70
     1
102
RTVSPropertyOp31
 70
     1
102
RTVSPropertyOp32
 70
     1
102
RTVSPropertyOp33
 70
     1
102
RTVSPropertyOp34
 70
     1
102
RTVSPropertyOp35
 70
     1
102
RTVSPropertyOp36
 70
     1
102
RTVSPropertyOp37
 70
     1
102
RTVSPropertyOp38
 70
     1
102
RTVSPropertyOp39
 70
     1
102
RTVSPropertyOp40
 70
     1
102
RTVSPropertyOp41
 70
     1
102
RTVSPropertyOp42
 70
     1
102
RTVSPropertyOp43
 70
     1
102
RTVSPropertyOp44
 70
     1
102
RTVSPropertyOp45
 70
     1
102
RTVSPropertyOp46
 70
     1
102
RTVSPropertyOp47
 70
     1
102
RTVSPropertyOp48
 70
     1
102
RTVSPropertyOp49
 70
     1
102
RTVSPropertyOp50
 70
     1
102
RTVSPropertyOp51
 70
     0
102
RTVSPropertyOp52
 70
     0
102
RTVSPropertyOp53
 70
     1
102
RTVSPropertyOp54
 70
     1
102
RTVSPropertyOp55
 70
     1
102
RTVSPropertyOp56
 70
     1
102
RTVSPropertyOp57
 70
     1
102
RTVSPropertyOp58
 70
     1
102
RTVSPropertyOp59
 70
     1
102
RTVSPropertyOp60
 70
     1
102
RTVSPropertyOp61
 70
     1
102
RTVSPropertyOp62
 70
     1
  0
XRECORD
  5
1051
102
{ACAD_REACTORS
330
1050
102
}
330
1050
100
AcDbXrecord
280
     1
102
RTVSPost2010Prop28
280
     0
102
RTVSPost2010PropOp28
 70
     1
102
RTVSPost2010Prop29
280
     1
102
RTVSPost2010PropOp29
 70
     1
102
RTVSPost2010Prop30
280
     1
102
RTVSPost2010PropOp30
 70
     1
102
RTVSPost2010Prop31
280
     0
102
RTVSPost2010PropOp31
 70
     1
102
RTVSPost2010Prop32
280
     0
102
RTVSPost2010PropOp32
 70
     1
102
RTVSPost2010Prop33
280
     0
102
RTVSPost2010PropOp33
 70
     1
102
RTVSPost2010Prop34
280
     0
102
RTVSPost2010PropOp34
 70
     1
102
RTVSPost2010Prop35
280
     0
102
RTVSPost2010PropOp35
 70
     1
102
RTVSPost2010Prop36
280
     0
102
RTVSPost2010PropOp36
 70
     1
102
RTVSPost2010Prop37
 90
       50
102
RTVSPost2010PropOp37
 70
     1
102
RTVSPost2010Prop38
140
0.0
102
RTVSPost2010PropOp38
 70
     1
102
RTVSPost2010Prop39
140
1.0
102
RTVSPost2010PropOp39
 70
     1
102
RTVSPost2010Prop40
 90
        0
102
RTVSPost2010PropOp40
 70
     1
102
RTVSPost2010Prop41ColorIndex
 90
       18
102
RTVSPost2010Prop41ColorRGB
 90
        0
102
RTVSPost2010PropOp41
 70
     1
102
RTVSPost2010Prop42
 90
       50
102
RTVSPost2010PropOp42
 70
     1
102
RTVSPost2010Prop43
 90
        3
102
RTVSPost2010PropOp43
 70
     1
102
RTVSPost2010Prop44ColorIndex
 90
        5
102
RTVSPost2010Prop44ColorRGB
 90
      255
102
RTVSPost2010PropOp44
 70
     1
102
RTVSPost2010Prop45
280
     0
102
RTVSPost2010PropOp45
 70
     1
102
RTVSPost2010Prop46
 90
       50
102
RTVSPost2010PropOp46
 70
     1
102
RTVSPost2010Prop47
 90
       50
102
RTVSPost2010PropOp47
 70
     1
102
RTVSPost2010Prop48
 90
       50
102
RTVSPost2010PropOp48
 70
     1
102
RTVSPost2010Prop49
280
     0
102
RTVSPost2010PropOp49
 70
     1
102
RTVSPost2010Prop50
 90
       50
102
RTVSPost2010PropOp50
 70
     1
102
RTVSPost2010Prop51ColorIndex
 90
      256
102
RTVSPost2010Prop51ColorRGB
 90
-16777216
102
RTVSPost2010PropOp51
 70
     0
102
RTVSPost2010Prop52
140
1.0
102
RTVSPost2010PropOp52
 70
     0
102
RTVSPost2010Prop53
 90
        2
102
RTVSPost2010PropOp53
 70
     1
102
RTVSPost2010Prop54
  1
strokes_ogs.tif
102
RTVSPost2010PropOp54
 70
     1
102
RTVSPost2010Prop55
280
     0
102
RTVSPost2010PropOp55
 70
     1
102
RTVSPost2010Prop56
140
1.0
102
RTVSPost2010PropOp56
 70
     1
102
RTVSPost2010Prop57
140
1.0
102
RTVSPost2010PropOp57
 70
     1
102
RTVSPropertyOp0
 70
     1
102
RTVSPropertyOp1
 70
     1
102
RTVSPropertyOp2
 70
     1
102
RTVSPropertyOp3
 70
     1
102
RTVSPropertyOp4
 70
     1
102
RTVSPropertyOp5
 70
     1
102
RTVSPropertyOp6
 70
     1
102
RTVSPropertyOp7
 70
     1
102
RTVSPropertyOp8
 70
     1
102
RTVSPropertyOp9
 70
     1
102
RTVSPropertyOp10
 70
     1
102
RTVSPropertyOp11
 70
     1
102
RTVSPropertyOp12
 70
     1
102
RTVSPropertyOp13
 70
     1
102
RTVSPropertyOp14
 70
     1
102
RTVSPropertyOp15
 70
     1
102
RTVSPropertyOp16
 70
     1
102
RTVSPropertyOp17
 70
     1
102
RTVSPropertyOp18
 70
     1
102
RTVSPropertyOp19
 70
     1
102
RTVSPropertyOp20
 70
     1
102
RTVSPropertyOp21
 70
     1
102
RTVSPropertyOp22
 70
     1
102
RTVSPropertyOp23
 70
     1
102
RTVSPropertyOp24
 70
     1
102
RTVSPropertyOp25
 70
     1
102
RTVSPropertyOp26
 70
     1
102
RTVSPropertyOp27
 70
     1
102
RTVSPropertyOp28
 70
     1
102
RTVSPropertyOp29
 70
     1
102
RTVSPropertyOp30
 70
     1
102
RTVSPropertyOp31
 70
     1
102
RTVSPropertyOp32
 70
     1
102
RTVSPropertyOp33
 70
     1
102
RTVSPropertyOp34
 70
     1
102
RTVSPropertyOp35
 70
     1
102
RTVSPropertyOp36
 70
     1
102
RTVSPropertyOp37
 70
     1
102
RTVSPropertyOp38
 70
     1
102
RTVSPropertyOp39
 70
     1
102
RTVSPropertyOp40
 70
     1
102
RTVSPropertyOp41
 70
     1
102
RTVSPropertyOp42
 70
     1
102
RTVSPropertyOp43
 70
     1
102
RTVSPropertyOp44
 70
     1
102
RTVSPropertyOp45
 70
     1
102
RTVSPropertyOp46
 70
     1
102
RTVSPropertyOp47
 70
     1
102
RTVSPropertyOp48
 70
     1
102
RTVSPropertyOp49
 70
     1
102
RTVSPropertyOp50
 70
     1
102
RTVSPropertyOp51
 70
     0
102
RTVSPropertyOp52
 70
     0
102
RTVSPropertyOp53
 70
     1
102
RTVSPropertyOp54
 70
     1
102
RTVSPropertyOp55
 70
     1
102
RTVSPropertyOp56
 70
     1
102
RTVSPropertyOp57
 70
     1
102
RTVSPropertyOp58
 70
     1
102
RTVSPropertyOp59
 70
     1
102
RTVSPropertyOp60
 70
     1
102
RTVSPropertyOp61
 70
     1
102
RTVSPropertyOp62
 70
     1
  0
XRECORD
  5
1047
102
{ACAD_REACTORS
330
1046
102
}
330
1046
100
AcDbXrecord
280
     1
102
RTVSPost2010Prop28
280
     0
102
RTVSPost2010PropOp28
 70
     1
102
RTVSPost2010Prop29
280
     1
102
RTVSPost2010PropOp29
 70
     1
102
RTVSPost2010Prop30
280
     1
102
RTVSPost2010PropOp30
 70
     1
102
RTVSPost2010Prop31
280
     0
102
RTVSPost2010PropOp31
 70
     1
102
RTVSPost2010Prop32
280
     0
102
RTVSPost2010PropOp32
 70
     1
102
RTVSPost2010Prop33
280
     0
102
RTVSPost2010PropOp33
 70
     1
102
RTVSPost2010Prop34
280
     0
102
RTVSPost2010PropOp34
 70
     1
102
RTVSPost2010Prop35
280
     0
102
RTVSPost2010PropOp35
 70
     1
102
RTVSPost2010Prop36
280
     0
102
RTVSPost2010PropOp36
 70
     1
102
RTVSPost2010Prop37
 90
       50
102
RTVSPost2010PropOp37
 70
     1
102
RTVSPost2010Prop38
140
0.0
102
RTVSPost2010PropOp38
 70
     1
102
RTVSPost2010Prop39
140
1.0
102
RTVSPost2010PropOp39
 70
     1
102
RTVSPost2010Prop40
 90
        0
102
RTVSPost2010PropOp40
 70
     1
102
RTVSPost2010Prop41ColorIndex
 90
       18
102
RTVSPost2010Prop41ColorRGB
 90
        0
102
RTVSPost2010PropOp41
 70
     1
102
RTVSPost2010Prop42
 90
       50
102
RTVSPost2010PropOp42
 70
     1
102
RTVSPost2010Prop43
 90
        3
102
RTVSPost2010PropOp43
 70
     1
102
RTVSPost2010Prop44ColorIndex
 90
        5
102
RTVSPost2010Prop44ColorRGB
 90
      255
102
RTVSPost2010PropOp44
 70
     1
102
RTVSPost2010Prop45
280
     0
102
RTVSPost2010PropOp45
 70
     1
102
RTVSPost2010Prop46
 90
       50
102
RTVSPost2010PropOp46
 70
     1
102
RTVSPost2010Prop47
 90
       50
102
RTVSPost2010PropOp47
 70
     1
102
RTVSPost2010Prop48
 90
       50
102
RTVSPost2010PropOp48
 70
     1
102
RTVSPost2010Prop49
280
     0
102
RTVSPost2010PropOp49
 70
     1
102
RTVSPost2010Prop50
 90
       50
102
RTVSPost2010PropOp50
 70
     1
102
RTVSPost2010Prop51ColorIndex
 90
      256
102
RTVSPost2010Prop51ColorRGB
 90
-16777216
102
RTVSPost2010PropOp51
 70
     0
102
RTVSPost2010Prop52
140
1.0
102
RTVSPost2010PropOp52
 70
     0
102
RTVSPost2010Prop53
 90
        2
102
RTVSPost2010PropOp53
 70
     1
102
RTVSPost2010Prop54
  1
strokes_ogs.tif
102
RTVSPost2010PropOp54
 70
     1
102
RTVSPost2010Prop55
280
     0
102
RTVSPost2010PropOp55
 70
     1
102
RTVSPost2010Prop56
140
1.0
102
RTVSPost2010PropOp56
 70
     1
102
RTVSPost2010Prop57
140
1.0
102
RTVSPost2010PropOp57
 70
     1
102
RTVSPropertyOp0
 70
     1
102
RTVSPropertyOp1
 70
     1
102
RTVSPropertyOp2
 70
     1
102
RTVSPropertyOp3
 70
     1
102
RTVSPropertyOp4
 70
     1
102
RTVSPropertyOp5
 70
     1
102
RTVSPropertyOp6
 70
     1
102
RTVSPropertyOp7
 70
     1
102
RTVSPropertyOp8
 70
     1
102
RTVSPropertyOp9
 70
     1
102
RTVSPropertyOp10
 70
     1
102
RTVSPropertyOp11
 70
     1
102
RTVSPropertyOp12
 70
     1
102
RTVSPropertyOp13
 70
     1
102
RTVSPropertyOp14
 70
     1
102
RTVSPropertyOp15
 70
     1
102
RTVSPropertyOp16
 70
     1
102
RTVSPropertyOp17
 70
     1
102
RTVSPropertyOp18
 70
     1
102
RTVSPropertyOp19
 70
     1
102
RTVSPropertyOp20
 70
     1
102
RTVSPropertyOp21
 70
     1
102
RTVSPropertyOp22
 70
     1
102
RTVSPropertyOp23
 70
     1
102
RTVSPropertyOp24
 70
     1
102
RTVSPropertyOp25
 70
     1
102
RTVSPropertyOp26
 70
     1
102
RTVSPropertyOp27
 70
     1
102
RTVSPropertyOp28
 70
     1
102
RTVSPropertyOp29
 70
     1
102
RTVSPropertyOp30
 70
     1
102
RTVSPropertyOp31
 70
     1
102
RTVSPropertyOp32
 70
     1
102
RTVSPropertyOp33
 70
     1
102
RTVSPropertyOp34
 70
     1
102
RTVSPropertyOp35
 70
     1
102
RTVSPropertyOp36
 70
     1
102
RTVSPropertyOp37
 70
     1
102
RTVSPropertyOp38
 70
     1
102
RTVSPropertyOp39
 70
     1
102
RTVSPropertyOp40
 70
     1
102
RTVSPropertyOp41
 70
     1
102
RTVSPropertyOp42
 70
     1
102
RTVSPropertyOp43
 70
     1
102
RTVSPropertyOp44
 70
     1
102
RTVSPropertyOp45
 70
     1
102
RTVSPropertyOp46
 70
     1
102
RTVSPropertyOp47
 70
     1
102
RTVSPropertyOp48
 70
     1
102
RTVSPropertyOp49
 70
     1
102
RTVSPropertyOp50
 70
     1
102
RTVSPropertyOp51
 70
     0
102
RTVSPropertyOp52
 70
     0
102
RTVSPropertyOp53
 70
     1
102
RTVSPropertyOp54
 70
     1
102
RTVSPropertyOp55
 70
     1
102
RTVSPropertyOp56
 70
     1
102
RTVSPropertyOp57
 70
     1
102
RTVSPropertyOp58
 70
     1
102
RTVSPropertyOp59
 70
     1
102
RTVSPropertyOp60
 70
     1
102
RTVSPropertyOp61
 70
     1
102
RTVSPropertyOp62
 70
     1
  0
XRECORD
  5
103B
102
{ACAD_REACTORS
330
103A
102
}
330
103A
100
AcDbXrecord
280
     1
102
RTVSPost2010Prop28
280
     0
102
RTVSPost2010PropOp28
 70
     1
102
RTVSPost2010Prop29
280
     1
102
RTVSPost2010PropOp29
 70
     1
102
RTVSPost2010Prop30
280
     1
102
RTVSPost2010PropOp30
 70
     1
102
RTVSPost2010Prop31
280
     0
102
RTVSPost2010PropOp31
 70
     1
102
RTVSPost2010Prop32
280
     0
102
RTVSPost2010PropOp32
 70
     1
102
RTVSPost2010Prop33
280
     0
102
RTVSPost2010PropOp33
 70
     1
102
RTVSPost2010Prop34
280
     0
102
RTVSPost2010PropOp34
 70
     1
102
RTVSPost2010Prop35
280
     0
102
RTVSPost2010PropOp35
 70
     1
102
RTVSPost2010Prop36
280
     0
102
RTVSPost2010PropOp36
 70
     1
102
RTVSPost2010Prop37
 90
       50
102
RTVSPost2010PropOp37
 70
     1
102
RTVSPost2010Prop38
140
0.0
102
RTVSPost2010PropOp38
 70
     1
102
RTVSPost2010Prop39
140
1.0
102
RTVSPost2010PropOp39
 70
     1
102
RTVSPost2010Prop40
 90
        0
102
RTVSPost2010PropOp40
 70
     1
102
RTVSPost2010Prop41ColorIndex
 90
       18
102
RTVSPost2010Prop41ColorRGB
 90
        0
102
RTVSPost2010PropOp41
 70
     1
102
RTVSPost2010Prop42
 90
       50
102
RTVSPost2010PropOp42
 70
     1
102
RTVSPost2010Prop43
 90
        3
102
RTVSPost2010PropOp43
 70
     1
102
RTVSPost2010Prop44ColorIndex
 90
        5
102
RTVSPost2010Prop44ColorRGB
 90
      255
102
RTVSPost2010PropOp44
 70
     1
102
RTVSPost2010Prop45
280
     0
102
RTVSPost2010PropOp45
 70
     1
102
RTVSPost2010Prop46
 90
       50
102
RTVSPost2010PropOp46
 70
     1
102
RTVSPost2010Prop47
 90
       50
102
RTVSPost2010PropOp47
 70
     1
102
RTVSPost2010Prop48
 90
       50
102
RTVSPost2010PropOp48
 70
     1
102
RTVSPost2010Prop49
280
     0
102
RTVSPost2010PropOp49
 70
     1
102
RTVSPost2010Prop50
 90
       50
102
RTVSPost2010PropOp50
 70
     1
102
RTVSPost2010Prop51ColorIndex
 90
      256
102
RTVSPost2010Prop51ColorRGB
 90
-16777216
102
RTVSPost2010PropOp51
 70
     0
102
RTVSPost2010Prop52
140
1.0
102
RTVSPost2010PropOp52
 70
     0
102
RTVSPost2010Prop53
 90
        2
102
RTVSPost2010PropOp53
 70
     1
102
RTVSPost2010Prop54
  1
strokes_ogs.tif
102
RTVSPost2010PropOp54
 70
     1
102
RTVSPost2010Prop55
280
     0
102
RTVSPost2010PropOp55
 70
     1
102
RTVSPost2010Prop56
140
1.0
102
RTVSPost2010PropOp56
 70
     1
102
RTVSPost2010Prop57
140
1.0
102
RTVSPost2010PropOp57
 70
     1
102
RTVSPropertyOp0
 70
     1
102
RTVSPropertyOp1
 70
     1
102
RTVSPropertyOp2
 70
     1
102
RTVSPropertyOp3
 70
     1
102
RTVSPropertyOp4
 70
     1
102
RTVSPropertyOp5
 70
     1
102
RTVSPropertyOp6
 70
     1
102
RTVSPropertyOp7
 70
     1
102
RTVSPropertyOp8
 70
     1
102
RTVSPropertyOp9
 70
     1
102
RTVSPropertyOp10
 70
     1
102
RTVSPropertyOp11
 70
     1
102
RTVSPropertyOp12
 70
     1
102
RTVSPropertyOp13
 70
     1
102
RTVSPropertyOp14
 70
     1
102
RTVSPropertyOp15
 70
     1
102
RTVSPropertyOp16
 70
     1
102
RTVSPropertyOp17
 70
     1
102
RTVSPropertyOp18
 70
     1
102
RTVSPropertyOp19
 70
     1
102
RTVSPropertyOp20
 70
     1
102
RTVSPropertyOp21
 70
     1
102
RTVSPropertyOp22
 70
     1
102
RTVSPropertyOp23
 70
     1
102
RTVSPropertyOp24
 70
     1
102
RTVSPropertyOp25
 70
     1
102
RTVSPropertyOp26
 70
     1
102
RTVSPropertyOp27
 70
     1
102
RTVSPropertyOp28
 70
     1
102
RTVSPropertyOp29
 70
     1
102
RTVSPropertyOp30
 70
     1
102
RTVSPropertyOp31
 70
     1
102
RTVSPropertyOp32
 70
     1
102
RTVSPropertyOp33
 70
     1
102
RTVSPropertyOp34
 70
     1
102
RTVSPropertyOp35
 70
     1
102
RTVSPropertyOp36
 70
     1
102
RTVSPropertyOp37
 70
     1
102
RTVSPropertyOp38
 70
     1
102
RTVSPropertyOp39
 70
     1
102
RTVSPropertyOp40
 70
     1
102
RTVSPropertyOp41
 70
     1
102
RTVSPropertyOp42
 70
     1
102
RTVSPropertyOp43
 70
     1
102
RTVSPropertyOp44
 70
     1
102
RTVSPropertyOp45
 70
     1
102
RTVSPropertyOp46
 70
     1
102
RTVSPropertyOp47
 70
     1
102
RTVSPropertyOp48
 70
     1
102
RTVSPropertyOp49
 70
     1
102
RTVSPropertyOp50
 70
     1
102
RTVSPropertyOp51
 70
     0
102
RTVSPropertyOp52
 70
     0
102
RTVSPropertyOp53
 70
     1
102
RTVSPropertyOp54
 70
     1
102
RTVSPropertyOp55
 70
     1
102
RTVSPropertyOp56
 70
     1
102
RTVSPropertyOp57
 70
     1
102
RTVSPropertyOp58
 70
     1
102
RTVSPropertyOp59
 70
     1
102
RTVSPropertyOp60
 70
     1
102
RTVSPropertyOp61
 70
     1
102
RTVSPropertyOp62
 70
     1
  0
XRECORD
  5
1053
102
{ACAD_REACTORS
330
1052
102
}
330
1052
100
AcDbXrecord
280
     1
102
RTVSPost2010Prop28
280
     0
102
RTVSPost2010PropOp28
 70
     1
102
RTVSPost2010Prop29
280
     1
102
RTVSPost2010PropOp29
 70
     1
102
RTVSPost2010Prop30
280
     1
102
RTVSPost2010PropOp30
 70
     1
102
RTVSPost2010Prop31
280
     0
102
RTVSPost2010PropOp31
 70
     1
102
RTVSPost2010Prop32
280
     0
102
RTVSPost2010PropOp32
 70
     1
102
RTVSPost2010Prop33
280
     0
102
RTVSPost2010PropOp33
 70
     1
102
RTVSPost2010Prop34
280
     0
102
RTVSPost2010PropOp34
 70
     1
102
RTVSPost2010Prop35
280
     0
102
RTVSPost2010PropOp35
 70
     1
102
RTVSPost2010Prop36
280
     0
102
RTVSPost2010PropOp36
 70
     1
102
RTVSPost2010Prop37
 90
       50
102
RTVSPost2010PropOp37
 70
     1
102
RTVSPost2010Prop38
140
0.0
102
RTVSPost2010PropOp38
 70
     1
102
RTVSPost2010Prop39
140
1.0
102
RTVSPost2010PropOp39
 70
     1
102
RTVSPost2010Prop40
 90
        0
102
RTVSPost2010PropOp40
 70
     1
102
RTVSPost2010Prop41ColorIndex
 90
       18
102
RTVSPost2010Prop41ColorRGB
 90
        0
102
RTVSPost2010PropOp41
 70
     1
102
RTVSPost2010Prop42
 90
       50
102
RTVSPost2010PropOp42
 70
     1
102
RTVSPost2010Prop43
 90
        3
102
RTVSPost2010PropOp43
 70
     1
102
RTVSPost2010Prop44ColorIndex
 90
        5
102
RTVSPost2010Prop44ColorRGB
 90
      255
102
RTVSPost2010PropOp44
 70
     1
102
RTVSPost2010Prop45
280
     0
102
RTVSPost2010PropOp45
 70
     1
102
RTVSPost2010Prop46
 90
       50
102
RTVSPost2010PropOp46
 70
     1
102
RTVSPost2010Prop47
 90
       50
102
RTVSPost2010PropOp47
 70
     1
102
RTVSPost2010Prop48
 90
       50
102
RTVSPost2010PropOp48
 70
     1
102
RTVSPost2010Prop49
280
     0
102
RTVSPost2010PropOp49
 70
     1
102
RTVSPost2010Prop50
 90
       50
102
RTVSPost2010PropOp50
 70
     1
102
RTVSPost2010Prop51ColorIndex
 90
      256
102
RTVSPost2010Prop51ColorRGB
 90
-16777216
102
RTVSPost2010PropOp51
 70
     0
102
RTVSPost2010Prop52
140
1.0
102
RTVSPost2010PropOp52
 70
     0
102
RTVSPost2010Prop53
 90
        2
102
RTVSPost2010PropOp53
 70
     1
102
RTVSPost2010Prop54
  1
strokes_ogs.tif
102
RTVSPost2010PropOp54
 70
     1
102
RTVSPost2010Prop55
280
     0
102
RTVSPost2010PropOp55
 70
     1
102
RTVSPost2010Prop56
140
1.0
102
RTVSPost2010PropOp56
 70
     1
102
RTVSPost2010Prop57
140
1.0
102
RTVSPost2010PropOp57
 70
     1
102
RTVSPropertyOp0
 70
     1
102
RTVSPropertyOp1
 70
     1
102
RTVSPropertyOp2
 70
     1
102
RTVSPropertyOp3
 70
     1
102
RTVSPropertyOp4
 70
     1
102
RTVSPropertyOp5
 70
     1
102
RTVSPropertyOp6
 70
     1
102
RTVSPropertyOp7
 70
     1
102
RTVSPropertyOp8
 70
     1
102
RTVSPropertyOp9
 70
     1
102
RTVSPropertyOp10
 70
     1
102
RTVSPropertyOp11
 70
     1
102
RTVSPropertyOp12
 70
     1
102
RTVSPropertyOp13
 70
     1
102
RTVSPropertyOp14
 70
     1
102
RTVSPropertyOp15
 70
     1
102
RTVSPropertyOp16
 70
     1
102
RTVSPropertyOp17
 70
     1
102
RTVSPropertyOp18
 70
     1
102
RTVSPropertyOp19
 70
     1
102
RTVSPropertyOp20
 70
     1
102
RTVSPropertyOp21
 70
     1
102
RTVSPropertyOp22
 70
     1
102
RTVSPropertyOp23
 70
     1
102
RTVSPropertyOp24
 70
     1
102
RTVSPropertyOp25
 70
     1
102
RTVSPropertyOp26
 70
     1
102
RTVSPropertyOp27
 70
     1
102
RTVSPropertyOp28
 70
     1
102
RTVSPropertyOp29
 70
     1
102
RTVSPropertyOp30
 70
     1
102
RTVSPropertyOp31
 70
     1
102
RTVSPropertyOp32
 70
     1
102
RTVSPropertyOp33
 70
     1
102
RTVSPropertyOp34
 70
     1
102
RTVSPropertyOp35
 70
     1
102
RTVSPropertyOp36
 70
     1
102
RTVSPropertyOp37
 70
     1
102
RTVSPropertyOp38
 70
     1
102
RTVSPropertyOp39
 70
     1
102
RTVSPropertyOp40
 70
     1
102
RTVSPropertyOp41
 70
     1
102
RTVSPropertyOp42
 70
     1
102
RTVSPropertyOp43
 70
     1
102
RTVSPropertyOp44
 70
     1
102
RTVSPropertyOp45
 70
     1
102
RTVSPropertyOp46
 70
     1
102
RTVSPropertyOp47
 70
     1
102
RTVSPropertyOp48
 70
     1
102
RTVSPropertyOp49
 70
     1
102
RTVSPropertyOp50
 70
     1
102
RTVSPropertyOp51
 70
     0
102
RTVSPropertyOp52
 70
     0
102
RTVSPropertyOp53
 70
     1
102
RTVSPropertyOp54
 70
     1
102
RTVSPropertyOp55
 70
     1
102
RTVSPropertyOp56
 70
     1
102
RTVSPropertyOp57
 70
     1
102
RTVSPropertyOp58
 70
     1
102
RTVSPropertyOp59
 70
     1
102
RTVSPropertyOp60
 70
     1
102
RTVSPropertyOp61
 70
     1
102
RTVSPropertyOp62
 70
     1
  0
ENDSEC
  0
EOF
