  0
SECTION
  2
HEADER
  9
$ACADVER
  1
AC1015
  9
$ACADMAINTVER
 70
    20
  9
$DWGCODEPAGE
  3
ANSI_1252
  9
$INSBASE
 10
0.0
 20
0.0
 30
0.0
  9
$EXTMIN
 10
-55.16316049355464
 20
-27.43652227036239
 30
-0.0015258207003583
  9
$EXTMAX
 10
43.76704511834191
 20
94.17678913820623
 30
0.0000000349246037
  9
$LIMMIN
 10
-170.0
 20
-170.0
  9
$LIMMAX
 10
519.0
 20
260.0
  9
$ORTHOMODE
 70
     0
  9
$REGENMODE
 70
     1
  9
$FILLMODE
 70
     1
  9
$QTEXTMODE
 70
     0
  9
$MIRRTEXT
 70
     0
  9
$LTSCALE
 40
1.0
  9
$ATTMODE
 70
     1
  9
$TEXTSIZE
 40
3.5
  9
$TRACEWID
 40
1.0
  9
$TEXTSTYLE
  7
SIMPLEX
  9
$CLAYER
  8
1
  9
$CELTYPE
  6
BYLAYER
  9
$CECOLOR
 62
   256
  9
$CELTSCALE
 40
1.0
  9
$DISPSILH
 70
     0
  9
$DIMSCALE
 40
1.0
  9
$DIMASZ
 40
2.5
  9
$DIMEXO
 40
0.0
  9
$DIMDLI
 40
3.75
  9
$DIMRND
 40
0.0
  9
$DIMDLE
 40
0.0
  9
$DIMEXE
 40
1.25
  9
$DIMTP
 40
0.0
  9
$DIMTM
 40
0.0
  9
$DIMTXT
 40
3.5
  9
$DIMCEN
 40
0.0
  9
$DIMTSZ
 40
0.0
  9
$DIMTOL
 70
     0
  9
$DIMLIM
 70
     0
  9
$DIMTIH
 70
     0
  9
$DIMTOH
 70
     0
  9
$DIMSE1
 70
     0
  9
$DIMSE2
 70
     0
  9
$DIMTAD
 70
     1
  9
$DIMZIN
 70
     8
  9
$DIMBLK
  1

  9
$DIMASO
 70
     1
  9
$DIMSHO
 70
     1
  9
$DIMPOST
  1

  9
$DIMAPOST
  1

  9
$DIMALT
 70
     0
  9
$DIMALTD
 70
     3
  9
$DIMALTF
 40
0.039370078
  9
$DIMLFAC
 40
1.0
  9
$DIMTOFL
 70
     0
  9
$DIMTVP
 40
0.0
  9
$DIMTIX
 70
     0
  9
$DIMSOXD
 70
     0
  9
$DIMSAH
 70
     0
  9
$DIMBLK1
  1

  9
$DIMBLK2
  1

  9
$DIMSTYLE
  2
STANDARD
  9
$DIMCLRD
 70
     0
  9
$DIMCLRE
 70
     0
  9
$DIMCLRT
 70
     0
  9
$DIMTFAC
 40
1.0
  9
$DIMGAP
 40
0.625
  9
$DIMJUST
 70
     0
  9
$DIMSD1
 70
     0
  9
$DIMSD2
 70
     0
  9
$DIMTOLJ
 70
     0
  9
$DIMTZIN
 70
     8
  9
$DIMALTZ
 70
     0
  9
$DIMALTTZ
 70
     0
  9
$DIMUPT
 70
     0
  9
$DIMDEC
 70
     2
  9
$DIMTDEC
 70
     2
  9
$DIMALTU
 70
     2
  9
$DIMALTTD
 70
     3
  9
$DIMTXSTY
  7
SIMPLEX
  9
$DIMAUNIT
 70
     0
  9
$DIMADEC
 70
     2
  9
$DIMALTRND
 40
0.0
  9
$DIMAZIN
 70
     2
  9
$DIMDSEP
 70
    46
  9
$DIMATFIT
 70
     3
  9
$DIMFRAC
 70
     0
  9
$DIMLDRBLK
  1

  9
$DIMLUNIT
 70
     2
  9
$DIMLWD
 70
    -2
  9
$DIMLWE
 70
    -2
  9
$DIMTMOVE
 70
     0
  9
$LUNITS
 70
     2
  9
$LUPREC
 70
     4
  9
$SKETCHINC
 40
1.0
  9
$FILLETRAD
 40
0.0
  9
$AUNITS
 70
     0
  9
$AUPREC
 70
     0
  9
$MENU
  1
c:\tdm21\cad\caduti13\tdm13
  9
$ELEVATION
 40
0.0
  9
$PELEVATION
 40
0.0
  9
$THICKNESS
 40
0.0
  9
$LIMCHECK
 70
     0
  9
$CHAMFERA
 40
0.0
  9
$CHAMFERB
 40
0.0
  9
$CHAMFERC
 40
0.0
  9
$CHAMFERD
 40
0.0
  9
$SKPOLY
 70
     0
  9
$TDCREATE
 40
2454957.551975972
  9
$TDUCREATE
 40
2454957.510309306
  9
$TDUPDATE
 40
2456961.575680810
  9
$TDUUPDATE
 40
2456961.534014144
  9
$TDINDWG
 40
0.0024605903
  9
$TDUSRTIMER
 40
0.0024437384
  9
$USRTIMER
 70
     1
  9
$ANGBASE
 50
0.0
  9
$ANGDIR
 70
     0
  9
$PDMODE
 70
     1
  9
$PDSIZE
 40
0.0
  9
$PLINEWID
 40
0.0
  9
$SPLFRAME
 70
     0
  9
$SPLINETYPE
 70
     6
  9
$SPLINESEGS
 70
     8
  9
$HANDSEED
  5
6CB
  9
$SURFTAB1
 70
     6
  9
$SURFTAB2
 70
     6
  9
$SURFTYPE
 70
     6
  9
$SURFU
 70
     6
  9
$SURFV
 70
     6
  9
$UCSBASE
  2

  9
$UCSNAME
  2

  9
$UCSORG
 10
0.0
 20
0.0
 30
0.0
  9
$UCSXDIR
 10
1.0
 20
0.0
 30
0.0
  9
$UCSYDIR
 10
0.0
 20
1.0
 30
0.0
  9
$UCSORTHOREF
  2

  9
$UCSORTHOVIEW
 70
     0
  9
$UCSORGTOP
 10
0.0
 20
0.0
 30
0.0
  9
$UCSORGBOTTOM
 10
0.0
 20
0.0
 30
0.0
  9
$UCSORGLEFT
 10
0.0
 20
0.0
 30
0.0
  9
$UCSORGRIGHT
 10
0.0
 20
0.0
 30
0.0
  9
$UCSORGFRONT
 10
0.0
 20
0.0
 30
0.0
  9
$UCSORGBACK
 10
0.0
 20
0.0
 30
0.0
  9
$PUCSBASE
  2

  9
$PUCSNAME
  2

  9
$PUCSORG
 10
0.0
 20
0.0
 30
0.0
  9
$PUCSXDIR
 10
1.0
 20
0.0
 30
0.0
  9
$PUCSYDIR
 10
0.0
 20
1.0
 30
0.0
  9
$PUCSORTHOREF
  2

  9
$PUCSORTHOVIEW
 70
     0
  9
$PUCSORGTOP
 10
0.0
 20
0.0
 30
0.0
  9
$PUCSORGBOTTOM
 10
0.0
 20
0.0
 30
0.0
  9
$PUCSORGLEFT
 10
0.0
 20
0.0
 30
0.0
  9
$PUCSORGRIGHT
 10
0.0
 20
0.0
 30
0.0
  9
$PUCSORGFRONT
 10
0.0
 20
0.0
 30
0.0
  9
$PUCSORGBACK
 10
0.0
 20
0.0
 30
0.0
  9
$USERI1
 70
     0
  9
$USERI2
 70
     0
  9
$USERI3
 70
     0
  9
$USERI4
 70
     0
  9
$USERI5
 70
     0
  9
$USERR1
 40
0.0
  9
$USERR2
 40
0.0
  9
$USERR3
 40
0.0
  9
$USERR4
 40
0.0
  9
$USERR5
 40
0.0
  9
$WORLDVIEW
 70
     1
  9
$SHADEDGE
 70
     3
  9
$SHADEDIF
 70
    70
  9
$TILEMODE
 70
     1
  9
$MAXACTVP
 70
    64
  9
$PINSBASE
 10
0.0
 20
0.0
 30
0.0
  9
$PLIMCHECK
 70
     0
  9
$PEXTMIN
 10
0.0
 20
0.0
 30
0.0
  9
$PEXTMAX
 10
0.0
 20
0.0
 30
0.0
  9
$PLIMMIN
 10
0.0
 20
0.0
  9
$PLIMMAX
 10
12.0
 20
9.0
  9
$UNITMODE
 70
     0
  9
$VISRETAIN
 70
     0
  9
$PLINEGEN
 70
     0
  9
$PSLTSCALE
 70
     1
  9
$TREEDEPTH
 70
  3020
  9
$CMLSTYLE
  2
STANDARD
  9
$CMLJUST
 70
     0
  9
$CMLSCALE
 40
20.0
  9
$PROXYGRAPHICS
 70
     1
  9
$MEASUREMENT
 70
     1
  9
$CELWEIGHT
370
    -1
  9
$ENDCAPS
280
     0
  9
$JOINSTYLE
280
     0
  9
$LWDISPLAY
290
     0
  9
$INSUNITS
 70
     4
  9
$HYPERLINKBASE
  1

  9
$STYLESHEET
  1
MONOCHROME.CTB
  9
$XEDIT
290
     1
  9
$CEPSNTYPE
380
     0
  9
$PSTYLEMODE
290
     1
  9
$FINGERPRINTGUID
  2
{46B44192-1510-48B1-B61B-CBE2ADA013A7}
  9
$VERSIONGUID
  2
{F5046686-A175-40AE-B0EC-B1A0FF43A308}
  9
$EXTNAMES
290
     1
  9
$PSVPSCALE
 40
0.0
  9
$OLESTARTUP
290
     0
  0
ENDSEC
  0
SECTION
  2
CLASSES
  0
CLASS
  1
ACDBDICTIONARYWDFLT
  2
AcDbDictionaryWithDefault
  3
ObjectDBX Classes
 90
        0
280
     0
281
     0
  0
CLASS
  1
ACDBPLACEHOLDER
  2
AcDbPlaceHolder
  3
ObjectDBX Classes
 90
        0
280
     0
281
     0
  0
CLASS
  1
LAYOUT
  2
AcDbLayout
  3
ObjectDBX Classes
 90
        0
280
     0
281
     0
  0
CLASS
  1
DICTIONARYVAR
  2
AcDbDictionaryVar
  3
ObjectDBX Classes
 90
        0
280
     0
281
     0
  0
CLASS
  1
TABLESTYLE
  2
AcDbTableStyle
  3
ObjectDBX Classes
 90
     4095
280
     0
281
     0
  0
CLASS
  1
SCALE
  2
AcDbScale
  3
ObjectDBX Classes
 90
     1153
280
     0
281
     0
  0
CLASS
  1
MATERIAL
  2
AcDbMaterial
  3
ObjectDBX Classes
 90
     1153
280
     0
281
     0
  0
CLASS
  1
VISUALSTYLE
  2
AcDbVisualStyle
  3
ObjectDBX Classes
 90
     4095
280
     0
281
     0
  0
CLASS
  1
MLEADERSTYLE
  2
AcDbMLeaderStyle
  3
ACDB_MLEADERSTYLE_CLASS
 90
     4095
280
     0
281
     0
  0
CLASS
  1
CELLSTYLEMAP
  2
AcDbCellStyleMap
  3
ObjectDBX Classes
 90
     1152
280
     0
281
     0
  0
ENDSEC
  0
SECTION
  2
TABLES
  0
TABLE
  2
VPORT
  5
8
330
0
100
AcDbSymbolTable
 70
     1
  0
VPORT
  5
39A
330
8
100
AcDbSymbolTableRecord
100
AcDbViewportTableRecord
  2
*Active
 70
     0
 10
0.0
 20
0.0
 11
1.0
 21
1.0
 12
-5.698057687606365
 22
33.37013343392192
 13
0.0
 23
0.0
 14
5.0
 24
5.0
 15
5.0
 25
5.0
 16
0.0
 26
0.0
 36
1.0
 17
0.0
 27
0.0
 37
0.0
 40
124.9432468099747
 41
1.820980615735461
 42
50.0
 43
0.0
 44
0.0
 50
0.0
 51
0.0
 71
     0
 72
  2000
 73
     1
 74
     1
 75
     0
 76
     0
 77
     0
 78
     0
281
     0
 65
     1
110
0.0
120
0.0
130
0.0
111
1.0
121
0.0
131
0.0
112
0.0
122
1.0
132
0.0
 79
     0
146
0.0
  0
ENDTAB
  0
TABLE
  2
LTYPE
  5
5
330
0
100
AcDbSymbolTable
 70
     3
  0
LTYPE
  5
12
330
5
100
AcDbSymbolTableRecord
100
AcDbLinetypeTableRecord
  2
BYBLOCK
 70
     0
  3

 72
    65
 73
     0
 40
0.0
  0
LTYPE
  5
13
330
5
100
AcDbSymbolTableRecord
100
AcDbLinetypeTableRecord
  2
BYLAYER
 70
     0
  3

 72
    65
 73
     0
 40
0.0
  0
LTYPE
  5
14
330
5
100
AcDbSymbolTableRecord
100
AcDbLinetypeTableRecord
  2
CONTINUOUS
 70
     0
  3
Solid line
 72
    65
 73
     0
 40
0.0
  0
LTYPE
  5
20
330
5
100
AcDbSymbolTableRecord
100
AcDbLinetypeTableRecord
  2
HIDDEN
 70
     0
  3
Hidden __ __ __ __ __ __ __ __ __ __ __ __ __ _
 72
    65
 73
     2
 40
9.524999999999996
 49
6.349999999999997
 74
     0
 49
-3.174999999999998
 74
     0
  0
LTYPE
  5
351
330
5
100
AcDbSymbolTableRecord
100
AcDbLinetypeTableRecord
  2
CENTER
 70
     0
  3
Dash dot __ . __ . __ . __ . __ . __ . __ . __
 72
    65
 73
     4
 40
25.4
 49
12.7
 74
     0
 49
-6.349999999999997
 74
     0
 49
0.0
 74
     0
 49
-6.349999999999997
 74
     0
  0
ENDTAB
  0
TABLE
  2
LAYER
  5
2
330
0
100
AcDbSymbolTable
 70
    16
  0
LAYER
  5
F
102
{ACAD_XDICTIONARY
360
699
102
}
330
2
100
AcDbSymbolTableRecord
100
AcDbLayerTableRecord
  2
0
 70
     0
 62
     7
  6
CONTINUOUS
370
    -3
390
300
  0
LAYER
  5
23
102
{ACAD_XDICTIONARY
360
69B
102
}
330
2
100
AcDbSymbolTableRecord
100
AcDbLayerTableRecord
  2
1
 70
     0
 62
     4
  6
CONTINUOUS
370
    -3
390
300
  0
LAYER
  5
24
102
{ACAD_XDICTIONARY
360
69D
102
}
330
2
100
AcDbSymbolTableRecord
100
AcDbLayerTableRecord
  2
SK1
 70
     0
 62
     4
  6
CONTINUOUS
370
    -3
390
300
  0
LAYER
  5
25
102
{ACAD_XDICTIONARY
360
69F
102
}
330
2
100
AcDbSymbolTableRecord
100
AcDbLayerTableRecord
  2
2
 70
     0
 62
     7
  6
CONTINUOUS
370
    -3
390
300
  0
LAYER
  5
26
102
{ACAD_XDICTIONARY
360
6A1
102
}
330
2
100
AcDbSymbolTableRecord
100
AcDbLayerTableRecord
  2
2L
 70
     0
 62
     7
  6
CONTINUOUS
370
    -3
390
300
  0
LAYER
  5
27
102
{ACAD_XDICTIONARY
360
6A3
102
}
330
2
100
AcDbSymbolTableRecord
100
AcDbLayerTableRecord
  2
SK2
 70
     0
 62
     7
  6
CONTINUOUS
370
    -3
390
300
  0
LAYER
  5
28
102
{ACAD_XDICTIONARY
360
6A5
102
}
330
2
100
AcDbSymbolTableRecord
100
AcDbLayerTableRecord
  2
3
 70
     0
 62
     1
  6
HIDDEN
370
    -3
390
300
  0
LAYER
  5
29
102
{ACAD_XDICTIONARY
360
6A7
102
}
330
2
100
AcDbSymbolTableRecord
100
AcDbLayerTableRecord
  2
SK3
 70
     0
 62
     1
  6
HIDDEN
370
    -3
390
300
  0
LAYER
  5
2A
102
{ACAD_XDICTIONARY
360
6A9
102
}
330
2
100
AcDbSymbolTableRecord
100
AcDbLayerTableRecord
  2
4
 70
     0
 62
     2
  6
CENTER
370
    -3
390
300
  0
LAYER
  5
2B
102
{ACAD_XDICTIONARY
360
6AB
102
}
330
2
100
AcDbSymbolTableRecord
100
AcDbLayerTableRecord
  2
SK4
 70
     0
 62
     2
  6
CENTER
370
    -3
390
300
  0
LAYER
  5
2C
102
{ACAD_XDICTIONARY
360
6AD
102
}
330
2
100
AcDbSymbolTableRecord
100
AcDbLayerTableRecord
  2
5
 70
     0
 62
    -7
  6
CONTINUOUS
370
    -3
390
300
  0
LAYER
  5
2D
102
{ACAD_XDICTIONARY
360
6AF
102
}
330
2
100
AcDbSymbolTableRecord
100
AcDbLayerTableRecord
  2
6
 70
     0
 62
     5
  6
CONTINUOUS
370
    -3
390
300
  0
LAYER
  5
2E
102
{ACAD_XDICTIONARY
360
6B1
102
}
330
2
100
AcDbSymbolTableRecord
100
AcDbLayerTableRecord
  2
SK6
 70
     0
 62
     5
  6
CONTINUOUS
370
    -3
390
300
  0
LAYER
  5
2F
330
2
100
AcDbSymbolTableRecord
100
AcDbLayerTableRecord
  2
DEFPOINTS
 70
     0
 62
     7
  6
CONTINUOUS
290
     0
370
    -3
390
300
  0
LAYER
  5
375
102
{ACAD_XDICTIONARY
360
6B3
102
}
330
2
100
AcDbSymbolTableRecord
100
AcDbLayerTableRecord
  2
CUT
 70
     0
 62
     1
  6
CONTINUOUS
370
    -3
390
300
  0
LAYER
  5
376
102
{ACAD_XDICTIONARY
360
6B5
102
}
330
2
100
AcDbSymbolTableRecord
100
AcDbLayerTableRecord
  2
NOCUT
 70
     0
 62
     7
  6
CONTINUOUS
370
    -3
390
300
  0
ENDTAB
  0
TABLE
  2
STYLE
  5
3
330
0
100
AcDbSymbolTable
 70
     4
  0
STYLE
  5
10
330
3
100
AcDbSymbolTableRecord
100
AcDbTextStyleTableRecord
  2
STANDARD
 70
     0
 40
0.0
 41
1.0
 50
0.0
 71
     0
 42
5.0
  3
txt
  4

  0
STYLE
  5
1D
330
3
100
AcDbSymbolTableRecord
100
AcDbTextStyleTableRecord
  2
TXT
 70
     0
 40
8.0
 41
1.0
 50
0.0
 71
     0
 42
8.0
  3
txt
  4

  0
STYLE
  5
1E
330
3
100
AcDbSymbolTableRecord
100
AcDbTextStyleTableRecord
  2
SIMPLEX
 70
     0
 40
0.0
 41
1.0
 50
0.0
 71
     0
 42
3.5
  3
simplex
  4

  0
STYLE
  5
34C
330
3
100
AcDbSymbolTableRecord
100
AcDbTextStyleTableRecord
  2

 70
     1
 40
0.0
 41
1.0
 50
0.0
 71
     0
 42
2.5
  3
ltypeshp.shx
  4

  0
ENDTAB
  0
TABLE
  2
VIEW
  5
6
330
0
100
AcDbSymbolTable
 70
     0
  0
ENDTAB
  0
TABLE
  2
UCS
  5
7
330
0
100
AcDbSymbolTable
 70
     0
  0
ENDTAB
  0
TABLE
  2
APPID
  5
9
330
0
100
AcDbSymbolTable
 70
     2
  0
APPID
  5
11
330
9
100
AcDbSymbolTableRecord
100
AcDbRegAppTableRecord
  2
ACAD
 70
     0
  0
APPID
  5
6CA
330
9
100
AcDbSymbolTableRecord
100
AcDbRegAppTableRecord
  2
ACAD_MLEADERVER
 70
     0
  0
ENDTAB
  0
TABLE
  2
DIMSTYLE
  5
A
330
0
100
AcDbSymbolTable
 70
     1
100
AcDbDimStyleTable
 71
     0
  0
DIMSTYLE
105
3F
102
{ACAD_REACTORS
330
5D6
330
5E4
330
5FE
330
60C
330
619
330
627
330
634
102
}
330
A
100
AcDbSymbolTableRecord
100
AcDbDimStyleTableRecord
  2
STANDARD
 70
     0
 41
2.5
 42
0.0
 43
3.75
 44
1.25
 73
     0
 74
     0
 77
     1
 78
     8
 79
     2
140
3.5
141
0.0
143
0.039370078
147
0.625
171
     3
179
     2
271
     2
272
     2
274
     3
283
     0
284
     8
340
1E
  0
ENDTAB
  0
TABLE
  2
BLOCK_RECORD
  5
1
330
0
100
AcDbSymbolTable
 70
     8
  0
BLOCK_RECORD
  5
18
330
1
100
AcDbSymbolTableRecord
100
AcDbBlockTableRecord
  2
*MODEL_SPACE
340
303
  0
BLOCK_RECORD
  5
338
330
1
100
AcDbSymbolTableRecord
100
AcDbBlockTableRecord
  2
*Paper_Space
340
33B
  0
BLOCK_RECORD
  5
5D7
330
1
100
AcDbSymbolTableRecord
100
AcDbBlockTableRecord
  2
*D0
340
0
  0
BLOCK_RECORD
  5
5E5
330
1
100
AcDbSymbolTableRecord
100
AcDbBlockTableRecord
  2
*D1
340
0
  0
BLOCK_RECORD
  5
5F2
330
1
100
AcDbSymbolTableRecord
100
AcDbBlockTableRecord
  2
*D2
340
0
  0
BLOCK_RECORD
  5
5FF
330
1
100
AcDbSymbolTableRecord
100
AcDbBlockTableRecord
  2
*D3
340
0
  0
BLOCK_RECORD
  5
60D
330
1
100
AcDbSymbolTableRecord
100
AcDbBlockTableRecord
  2
*D4
340
0
  0
BLOCK_RECORD
  5
61A
330
1
100
AcDbSymbolTableRecord
100
AcDbBlockTableRecord
  2
*D5
340
0
  0
BLOCK_RECORD
  5
628
330
1
100
AcDbSymbolTableRecord
100
AcDbBlockTableRecord
  2
*D6
340
0
  0
BLOCK_RECORD
  5
635
330
1
100
AcDbSymbolTableRecord
100
AcDbBlockTableRecord
  2
*D7
340
0
  0
ENDTAB
  0
ENDSEC
  0
SECTION
  2
BLOCKS
  0
BLOCK
  5
32
330
18
100
AcDbEntity
  8
0
100
AcDbBlockBegin
  2
*MODEL_SPACE
 70
     0
 10
0.0
 20
0.0
 30
0.0
  3
*MODEL_SPACE
  1

  0
ENDBLK
  5
33
330
18
100
AcDbEntity
  8
0
100
AcDbBlockEnd
  0
BLOCK
  5
339
330
338
100
AcDbEntity
 67
     1
  8
0
100
AcDbBlockBegin
  2
*Paper_Space
 70
     0
 10
0.0
 20
0.0
 30
0.0
  3
*Paper_Space
  1

  0
ENDBLK
  5
33A
330
338
100
AcDbEntity
 67
     1
  8
0
100
AcDbBlockEnd
  0
BLOCK
  5
5D8
330
5D7
100
AcDbEntity
  8
0
100
AcDbBlockBegin
  2
*D0
 70
     1
 10
0.0
 20
0.0
 30
0.0
  3
*D0
  1

  0
LINE
  5
5DA
330
5D7
100
AcDbEntity
  8
2
 62
     0
370
    -2
100
AcDbLine
 10
27.5
 20
3.174999999999999
 30
0.0
 11
43.74999999999999
 21
3.175000000000056
 31
0.0
  0
LINE
  5
5DB
330
5D7
100
AcDbEntity
  8
2
 62
     0
370
    -2
100
AcDbLine
 10
27.5
 20
-3.174999999999999
 30
0.0
 11
43.75
 21
-3.174999999999943
 31
0.0
  0
LINE
  5
5DC
330
5D7
100
AcDbEntity
  8
2
 62
     0
370
    -2
100
AcDbLine
 10
42.5
 20
-3.174999999999946
 30
0.0
 11
42.50000000000007
 21
-21.10349999999995
 31
0.0
  0
LINE
  5
5DD
330
5D7
100
AcDbEntity
  8
2
 62
     0
370
    -2
100
AcDbLine
 10
42.5
 20
0.6750000000000523
 30
0.0
 11
42.5
 21
-0.6749999999999475
 31
0.0
  0
SOLID
  5
5DE
330
5D7
100
AcDbEntity
  8
2
 62
     0
100
AcDbTrace
 10
42.91666666666666
 20
0.6750000000000537
 30
0.0
 11
42.08333333333334
 21
0.6750000000000508
 31
0.0
 12
42.49999999999999
 22
3.175000000000051
 32
0.0
 13
42.49999999999999
 23
3.175000000000051
 33
0.0
  0
SOLID
  5
5DF
330
5D7
100
AcDbEntity
  8
2
 62
     0
100
AcDbTrace
 10
42.08333333333334
 20
-0.6749999999999489
 30
0.0
 11
42.91666666666666
 21
-0.6749999999999461
 31
0.0
 12
42.5
 22
-3.174999999999946
 32
0.0
 13
42.5
 23
-3.174999999999946
 33
0.0
  0
MTEXT
  5
5E0
330
5D7
100
AcDbEntity
  8
2
 62
     0
100
AcDbMText
 10
40.10225000000004
 20
-13.38924999999996
 30
0.0
 40
3.5
 41
0.0
 71
     5
 72
     1
  1
%%c6.35
  7
SIMPLEX
 11
-0.0000000000000034
 21
1.0
 31
0.0
 73
     1
 44
1.0
1001
ACAD
1000
MTEXTBEGIN
1070
    73
1070
     1
1070
    44
1040
1.0
1070
    74
1070
     0
1000
MTEXTEND
  0
POINT
  5
5E1
330
5D7
100
AcDbEntity
  8
DEFPOINTS
 62
     0
100
AcDbPoint
 10
27.5
 20
3.174999999999999
 30
0.0
  0
POINT
  5
5E2
330
5D7
100
AcDbEntity
  8
DEFPOINTS
 62
     0
100
AcDbPoint
 10
27.5
 20
-3.174999999999999
 30
0.0
  0
POINT
  5
5E3
330
5D7
100
AcDbEntity
  8
DEFPOINTS
 62
     0
100
AcDbPoint
 10
42.5
 20
-3.174999999999946
 30
0.0
  0
ENDBLK
  5
5D9
330
5D7
100
AcDbEntity
  8
0
100
AcDbBlockEnd
  0
BLOCK
  5
5E6
330
5E5
100
AcDbEntity
  8
0
100
AcDbBlockBegin
  2
*D1
 70
     1
 10
0.0
 20
0.0
 30
0.0
  3
*D1
  1

  0
LINE
  5
5E8
330
5E5
100
AcDbEntity
  8
2
 62
     0
370
    -2
100
AcDbLine
 10
0.0
 20
0.0
 30
0.0
 11
0.0
 21
76.25
 31
0.0
  0
LINE
  5
5E9
330
5E5
100
AcDbEntity
  8
2
 62
     0
370
    -2
100
AcDbLine
 10
27.5
 20
0.0
 30
0.0
 11
27.5
 21
76.25
 31
0.0
  0
LINE
  5
5EA
330
5E5
100
AcDbEntity
  8
2
 62
     0
370
    -2
100
AcDbLine
 10
2.5
 20
75.0
 30
0.0
 11
25.0
 21
75.0
 31
0.0
  0
SOLID
  5
5EB
330
5E5
100
AcDbEntity
  8
2
 62
     0
100
AcDbTrace
 10
2.5
 20
75.41666666666667
 30
0.0
 11
2.5
 21
74.58333333333333
 31
0.0
 12
0.0
 22
75.0
 32
0.0
 13
0.0
 23
75.0
 33
0.0
  0
SOLID
  5
5EC
330
5E5
100
AcDbEntity
  8
2
 62
     0
100
AcDbTrace
 10
25.0
 20
74.58333333333333
 30
0.0
 11
25.0
 21
75.41666666666667
 31
0.0
 12
27.5
 22
75.0
 32
0.0
 13
27.5
 23
75.0
 33
0.0
  0
MTEXT
  5
5ED
330
5E5
100
AcDbEntity
  8
2
 62
     0
100
AcDbMText
 10
13.75
 20
77.39775
 30
0.0
 40
3.5
 41
0.0
 71
     5
 72
     1
  1
27.5
  7
SIMPLEX
 73
     1
 44
1.0
1001
ACAD
1000
MTEXTBEGIN
1070
    73
1070
     1
1070
    44
1040
1.0
1070
    74
1070
     0
1000
MTEXTEND
  0
POINT
  5
5EE
330
5E5
100
AcDbEntity
  8
DEFPOINTS
 62
     0
100
AcDbPoint
 10
0.0
 20
0.0
 30
0.0
  0
POINT
  5
5EF
330
5E5
100
AcDbEntity
  8
DEFPOINTS
 62
     0
100
AcDbPoint
 10
27.5
 20
0.0
 30
0.0
  0
POINT
  5
5F0
330
5E5
100
AcDbEntity
  8
DEFPOINTS
 62
     0
100
AcDbPoint
 10
27.5
 20
75.0
 30
0.0
  0
ENDBLK
  5
5E7
330
5E5
100
AcDbEntity
  8
0
100
AcDbBlockEnd
  0
BLOCK
  5
5F3
330
5F2
100
AcDbEntity
  8
0
100
AcDbBlockBegin
  2
*D2
 70
     1
 10
0.0
 20
0.0
 30
0.0
  3
*D2
  1

  0
LINE
  5
5F5
330
5F2
100
AcDbEntity
  8
2
 62
     0
370
    -2
100
AcDbLine
 10
11.6
 20
3.174999999999999
 30
0.0
 11
11.6
 21
46.25
 31
0.0
  0
LINE
  5
5F6
330
5F2
100
AcDbEntity
  8
2
 62
     0
370
    -2
100
AcDbLine
 10
27.5
 20
3.174999999999999
 30
0.0
 11
27.5
 21
46.25
 31
0.0
  0
LINE
  5
5F7
330
5F2
100
AcDbEntity
  8
2
 62
     0
370
    -2
100
AcDbLine
 10
14.1
 20
45.0
 30
0.0
 11
25.0
 21
45.0
 31
0.0
  0
SOLID
  5
5F8
330
5F2
100
AcDbEntity
  8
2
 62
     0
100
AcDbTrace
 10
14.1
 20
45.41666666666666
 30
0.0
 11
14.1
 21
44.58333333333334
 31
0.0
 12
11.6
 22
45.0
 32
0.0
 13
11.6
 23
45.0
 33
0.0
  0
SOLID
  5
5F9
330
5F2
100
AcDbEntity
  8
2
 62
     0
100
AcDbTrace
 10
25.0
 20
44.58333333333334
 30
0.0
 11
25.0
 21
45.41666666666666
 31
0.0
 12
27.5
 22
45.0
 32
0.0
 13
27.5
 23
45.0
 33
0.0
  0
MTEXT
  5
5FA
330
5F2
100
AcDbEntity
  8
2
 62
     0
100
AcDbMText
 10
19.55
 20
47.39775
 30
0.0
 40
3.5
 41
0.0
 71
     5
 72
     1
  1
15.9
  7
SIMPLEX
 73
     1
 44
1.0
1001
ACAD
1000
MTEXTBEGIN
1070
    73
1070
     1
1070
    44
1040
1.0
1070
    74
1070
     0
1000
MTEXTEND
  0
POINT
  5
5FB
330
5F2
100
AcDbEntity
  8
DEFPOINTS
 62
     0
100
AcDbPoint
 10
11.6
 20
3.174999999999999
 30
0.0
  0
POINT
  5
5FC
330
5F2
100
AcDbEntity
  8
DEFPOINTS
 62
     0
100
AcDbPoint
 10
27.5
 20
3.174999999999999
 30
0.0
  0
POINT
  5
5FD
330
5F2
100
AcDbEntity
  8
DEFPOINTS
 62
     0
100
AcDbPoint
 10
27.5
 20
45.0
 30
0.0
  0
ENDBLK
  5
5F4
330
5F2
100
AcDbEntity
  8
0
100
AcDbBlockEnd
  0
BLOCK
  5
600
330
5FF
100
AcDbEntity
  8
0
100
AcDbBlockBegin
  2
*D3
 70
     1
 10
0.0
 20
0.0
 30
0.0
  3
*D3
  1

  0
LINE
  5
602
330
5FF
100
AcDbEntity
  8
SK2
 62
     0
370
    -2
100
AcDbLine
 10
-36.0
 20
3.174999999999999
 30
0.0
 11
-52.25000000001621
 21
3.174999999917069
 31
0.0
  0
LINE
  5
603
330
5FF
100
AcDbEntity
  8
SK2
 62
     0
370
    -2
100
AcDbLine
 10
-36.0
 20
-3.174999999999999
 30
0.0
 11
-52.2499999999838
 21
-3.17500000008293
 31
0.0
  0
LINE
  5
604
330
5FF
100
AcDbEntity
  8
SK2
 62
     0
370
    -2
100
AcDbLine
 10
-50.9999999999838
 20
-3.175000000076551
 30
0.0
 11
-50.9999999998923
 21
-21.10350000007655
 31
0.0
  0
LINE
  5
605
330
5FF
100
AcDbEntity
  8
SK2
 62
     0
370
    -2
100
AcDbLine
 10
-51.00000000000346
 20
0.6749999999234487
 30
0.0
 11
-50.99999999999656
 21
-0.6750000000765511
 31
0.0
  0
SOLID
  5
606
330
5FF
100
AcDbEntity
  8
SK2
 62
     0
100
AcDbTrace
 10
-50.58333333333678
 20
0.6749999999255751
 30
0.0
 11
-51.41666666667011
 21
0.6749999999213222
 31
0.0
 12
-51.00000000001621
 22
3.174999999923448
 32
0.0
 13
-51.00000000001621
 23
3.174999999923448
 33
0.0
  0
SOLID
  5
607
330
5FF
100
AcDbEntity
  8
SK2
 62
     0
100
AcDbTrace
 10
-51.41666666666322
 20
-0.6750000000786775
 30
0.0
 11
-50.58333333332989
 21
-0.6750000000744246
 31
0.0
 12
-50.9999999999838
 22
-3.175000000076551
 32
0.0
 13
-50.9999999999838
 23
-3.175000000076551
 33
0.0
  0
MTEXT
  5
608
330
5FF
100
AcDbEntity
  8
SK2
 62
     0
100
AcDbMText
 10
-53.39774999993167
 20
-13.38925000008879
 30
0.0
 40
3.5
 41
0.0
 71
     5
 72
     1
  1
%%c6.35
  7
SIMPLEX
 11
-0.0000000000051036
 21
1.0
 31
0.0
 73
     1
 44
1.0
1001
ACAD
1000
MTEXTBEGIN
1070
    73
1070
     1
1070
    44
1040
1.0
1070
    74
1070
     0
1000
MTEXTEND
  0
POINT
  5
609
330
5FF
100
AcDbEntity
  8
DEFPOINTS
 62
     0
100
AcDbPoint
 10
-36.0
 20
3.174999999999999
 30
0.0
  0
POINT
  5
60A
330
5FF
100
AcDbEntity
  8
DEFPOINTS
 62
     0
100
AcDbPoint
 10
-36.0
 20
-3.174999999999999
 30
0.0
  0
POINT
  5
60B
330
5FF
100
AcDbEntity
  8
DEFPOINTS
 62
     0
100
AcDbPoint
 10
-50.9999999999838
 20
-3.175000000076551
 30
0.0
  0
ENDBLK
  5
601
330
5FF
100
AcDbEntity
  8
0
100
AcDbBlockEnd
  0
BLOCK
  5
60E
330
60D
100
AcDbEntity
  8
0
100
AcDbBlockBegin
  2
*D4
 70
     1
 10
0.0
 20
0.0
 30
0.0
  3
*D4
  1

  0
LINE
  5
610
330
60D
100
AcDbEntity
  8
SK2
 62
     0
370
    -2
100
AcDbLine
 10
-36.0
 20
0.0
 30
0.0
 11
-36.0
 21
91.25
 31
0.0
  0
LINE
  5
611
330
60D
100
AcDbEntity
  8
SK2
 62
     0
370
    -2
100
AcDbLine
 10
27.5
 20
0.0
 30
0.0
 11
27.5
 21
91.25
 31
0.0
  0
LINE
  5
612
330
60D
100
AcDbEntity
  8
SK2
 62
     0
370
    -2
100
AcDbLine
 10
-33.5
 20
90.0
 30
0.0
 11
25.0
 21
90.0
 31
0.0
  0
SOLID
  5
613
330
60D
100
AcDbEntity
  8
SK2
 62
     0
100
AcDbTrace
 10
-33.5
 20
90.41666666666669
 30
0.0
 11
-33.5
 21
89.58333333333332
 31
0.0
 12
-36.0
 22
90.0
 32
0.0
 13
-36.0
 23
90.0
 33
0.0
  0
SOLID
  5
614
330
60D
100
AcDbEntity
  8
SK2
 62
     0
100
AcDbTrace
 10
25.0
 20
89.58333333333332
 30
0.0
 11
25.0
 21
90.41666666666669
 31
0.0
 12
27.5
 22
90.0
 32
0.0
 13
27.5
 23
90.0
 33
0.0
  0
MTEXT
  5
615
330
60D
100
AcDbEntity
  8
SK2
 62
     0
100
AcDbMText
 10
-4.25
 20
92.39774999999999
 30
0.0
 40
3.5
 41
0.0
 71
     5
 72
     1
  1
63.5
  7
SIMPLEX
 73
     1
 44
1.0
1001
ACAD
1000
MTEXTBEGIN
1070
    73
1070
     1
1070
    44
1040
1.0
1070
    74
1070
     0
1000
MTEXTEND
  0
POINT
  5
616
330
60D
100
AcDbEntity
  8
DEFPOINTS
 62
     0
100
AcDbPoint
 10
-36.0
 20
0.0
 30
0.0
  0
POINT
  5
617
330
60D
100
AcDbEntity
  8
DEFPOINTS
 62
     0
100
AcDbPoint
 10
27.5
 20
0.0
 30
0.0
  0
POINT
  5
618
330
60D
100
AcDbEntity
  8
DEFPOINTS
 62
     0
100
AcDbPoint
 10
27.5
 20
90.0
 30
0.0
  0
ENDBLK
  5
60F
330
60D
100
AcDbEntity
  8
0
100
AcDbBlockEnd
  0
BLOCK
  5
61B
330
61A
100
AcDbEntity
  8
0
100
AcDbBlockBegin
  2
*D5
 70
     1
 10
0.0
 20
0.0
 30
0.0
  3
*D5
  1

  0
LINE
  5
68F
330
61A
100
AcDbEntity
  8
2
 62
     0
370
    -2
100
AcDbLine
 10
7.145000000000005
 20
3.009999999999999
 30
0.0
 11
8.395000000000006
 21
3.009999999999999
 31
0.0
  0
LINE
  5
690
330
61A
100
AcDbEntity
  8
2
 62
     0
370
    -2
100
AcDbLine
 10
7.145000000000005
 20
-3.009999999999999
 30
0.0
 11
5.895000000000005
 21
-3.009999999999999
 31
0.0
  0
LINE
  5
691
330
61A
100
AcDbEntity
  8
2
 62
     0
370
    -2
100
AcDbLine
 10
7.145000000000007
 20
5.509999999999999
 30
0.0
 11
7.145000000000008
 21
8.009999999999999
 31
0.0
  0
LINE
  5
692
330
61A
100
AcDbEntity
  8
2
 62
     0
370
    -2
100
AcDbLine
 10
7.145000000000005
 20
-5.509999999999999
 30
0.0
 11
7.145000000000001
 21
-23.09333333333333
 31
0.0
  0
SOLID
  5
693
330
61A
100
AcDbEntity
  8
2
 62
     0
100
AcDbTrace
 10
6.72833333333334
 20
5.509999999999999
 30
0.0
 11
7.561666666666674
 21
5.509999999999999
 31
0.0
 12
7.145000000000007
 22
3.009999999999999
 32
0.0
 13
7.145000000000007
 23
3.009999999999999
 33
0.0
  0
SOLID
  5
694
330
61A
100
AcDbEntity
  8
2
 62
     0
100
AcDbTrace
 10
6.728333333333338
 20
-5.509999999999999
 30
0.0
 11
7.561666666666672
 21
-5.509999999999999
 31
0.0
 12
7.145000000000005
 22
-3.009999999999999
 32
0.0
 13
7.145000000000005
 23
-3.009999999999999
 33
0.0
  0
MTEXT
  5
695
330
61A
100
AcDbEntity
  8
2
 62
     0
100
AcDbMText
 10
4.770000000000005
 20
-15.55166666666666
 30
0.0
 40
3.5
 41
0.0
 71
     5
 72
     1
  1
%%c6.02
  7
SIMPLEX
 11
0.0000000000000001
 21
1.0
 31
0.0
 73
     1
 44
1.0
1001
ACAD
1000
MTEXTBEGIN
1070
    73
1070
     1
1070
    44
1040
1.0
1070
    74
1070
     0
1000
MTEXTEND
  0
POINT
  5
696
330
61A
100
AcDbEntity
  8
DEFPOINTS
 62
     0
100
AcDbPoint
 10
7.145000000000005
 20
3.009999999999999
 30
0.0
  0
POINT
  5
697
330
61A
100
AcDbEntity
  8
DEFPOINTS
 62
     0
100
AcDbPoint
 10
7.145000000000005
 20
-3.009999999999999
 30
0.0
  0
POINT
  5
698
330
61A
100
AcDbEntity
  8
DEFPOINTS
 62
     0
100
AcDbPoint
 10
7.145000000000005
 20
-3.009999999999999
 30
0.0
  0
ENDBLK
  5
61C
330
61A
100
AcDbEntity
  8
0
100
AcDbBlockEnd
  0
BLOCK
  5
629
330
628
100
AcDbEntity
  8
0
100
AcDbBlockBegin
  2
*D6
 70
     1
 10
0.0
 20
0.0
 30
0.0
  3
*D6
  1

  0
LINE
  5
62B
330
628
100
AcDbEntity
  8
2
 62
     0
370
    -2
100
AcDbLine
 10
27.5
 20
3.174999999999999
 30
0.0
 11
27.5
 21
61.25
 31
0.0
  0
LINE
  5
62C
330
628
100
AcDbEntity
  8
2
 62
     0
370
    -2
100
AcDbLine
 10
11.6
 20
3.174999999999999
 30
0.0
 11
11.6
 21
61.25
 31
0.0
  0
LINE
  5
62D
330
628
100
AcDbEntity
  8
2
 62
     0
370
    -2
100
AcDbLine
 10
25.0
 20
60.0
 30
0.0
 11
14.1
 21
60.0
 31
0.0
  0
SOLID
  5
62E
330
628
100
AcDbEntity
  8
2
 62
     0
100
AcDbTrace
 10
25.0
 20
59.58333333333334
 30
0.0
 11
25.0
 21
60.41666666666666
 31
0.0
 12
27.5
 22
60.0
 32
0.0
 13
27.5
 23
60.0
 33
0.0
  0
SOLID
  5
62F
330
628
100
AcDbEntity
  8
2
 62
     0
100
AcDbTrace
 10
14.1
 20
60.41666666666666
 30
0.0
 11
14.1
 21
59.58333333333334
 31
0.0
 12
11.6
 22
60.0
 32
0.0
 13
11.6
 23
60.0
 33
0.0
  0
MTEXT
  5
630
330
628
100
AcDbEntity
  8
2
 62
     0
100
AcDbMText
 10
19.55
 20
62.39775
 30
0.0
 40
3.5
 41
0.0
 71
     5
 72
     1
  1
15.9
  7
SIMPLEX
 73
     1
 44
1.0
1001
ACAD
1000
MTEXTBEGIN
1070
    73
1070
     1
1070
    44
1040
1.0
1070
    74
1070
     0
1000
MTEXTEND
  0
POINT
  5
631
330
628
100
AcDbEntity
  8
DEFPOINTS
 62
     0
100
AcDbPoint
 10
27.5
 20
3.174999999999999
 30
0.0
  0
POINT
  5
632
330
628
100
AcDbEntity
  8
DEFPOINTS
 62
     0
100
AcDbPoint
 10
11.6
 20
3.174999999999999
 30
0.0
  0
POINT
  5
633
330
628
100
AcDbEntity
  8
DEFPOINTS
 62
     0
100
AcDbPoint
 10
11.6
 20
60.0
 30
0.0
  0
ENDBLK
  5
62A
330
628
100
AcDbEntity
  8
0
100
AcDbBlockEnd
  0
BLOCK
  5
636
330
635
100
AcDbEntity
  8
0
100
AcDbBlockBegin
  2
*D7
 70
     1
 10
0.0
 20
0.0
 30
0.0
  3
*D7
  1

  0
LINE
  5
638
330
635
100
AcDbEntity
  8
2
 62
     0
370
    -2
100
AcDbLine
 10
27.30444035554952
 20
-5.625442890325822
 30
0.0
 11
31.14601563522005
 21
-27.41209893261413
 31
0.0
  0
MTEXT
  5
639
330
635
100
AcDbEntity
  8
2
 62
     0
100
AcDbMText
 10
32.19633809566417
 20
-19.56068168130933
 30
0.0
 40
3.5
 41
0.0
 71
     5
 72
     1
  1
R0.76
  7
SIMPLEX
 11
0.17364817766693
 21
-0.9848077530122083
 31
0.0
 73
     1
 44
1.0
1001
ACAD
1000
MTEXTBEGIN
1070
    73
1070
     1
1070
    44
1040
1.0
1070
    74
1070
     0
1000
MTEXTEND
  0
SOLID
  5
63A
330
635
100
AcDbEntity
  8
2
 62
     0
100
AcDbTrace
 10
27.71477691930461
 20
-5.553089482964601
 30
0.0
 11
26.89410379179444
 21
-5.697796297687044
 31
0.0
 12
26.8703199113822
 22
-3.163423507795303
 32
0.0
 13
26.8703199113822
 23
-3.163423507795303
 33
0.0
  0
POINT
  5
63B
330
635
100
AcDbEntity
  8
DEFPOINTS
 62
     0
100
AcDbPoint
 10
26.8703199113822
 20
-3.163423507795303
 30
0.0
  0
POINT
  5
63C
330
635
100
AcDbEntity
  8
DEFPOINTS
 62
     0
100
AcDbPoint
 10
26.738
 20
-2.413
 30
0.0
  0
ENDBLK
  5
637
330
635
100
AcDbEntity
  8
0
100
AcDbBlockEnd
  0
ENDSEC
  0
SECTION
  2
ENTITIES
  0
LINE
  5
3D6
330
18
100
AcDbEntity
  8
SK4
100
AcDbLine
 10
-38.0
 20
0.0
 30
0.0
 11
3.399999999999999
 21
0.0
 31
0.0
  0
LINE
  5
3D7
330
18
100
AcDbEntity
  8
4
100
AcDbLine
 10
1.399999999999999
 20
0.0
 30
0.0
 11
29.5
 21
0.0
 31
0.0
  0
LINE
  5
3D8
330
18
100
AcDbEntity
  8
SK4
100
AcDbLine
 10
1.399999999999999
 20
0.0
 30
0.0
 11
29.5
 21
0.0
 31
0.0
  0
LINE
  5
3D9
330
18
100
AcDbEntity
  8
1
100
AcDbLine
 10
3.399999999999999
 20
3.174999999999999
 30
0.0
 11
-0.0000000000000018
 21
3.174999999999999
 31
0.0
  0
LINE
  5
3DA
330
18
100
AcDbEntity
  8
1
100
AcDbLine
 10
3.399999999999999
 20
3.174999999999999
 30
0.0
 11
3.399999999999999
 21
3.171843436290501
 31
0.0
  0
LINE
  5
3DB
330
18
100
AcDbEntity
  8
1
100
AcDbLine
 10
3.399999999999999
 20
3.171843436290501
 30
0.0
 11
3.399999999999999
 21
2.890118006127691
 31
0.0
  0
LINE
  5
3DC
330
18
100
AcDbEntity
  8
1
100
AcDbLine
 10
3.399999999999999
 20
2.890118006127691
 30
0.0
 11
3.399999999999999
 21
-3.174999999999999
 31
0.0
  0
LINE
  5
3DD
330
18
100
AcDbEntity
  8
1
100
AcDbLine
 10
3.399999999999999
 20
3.174999999999999
 30
0.0
 11
3.690000000000001
 21
3.009999999999999
 31
0.0
  0
LINE
  5
3DE
330
18
100
AcDbEntity
  8
1
100
AcDbLine
 10
11.31
 20
2.415374879721299
 30
0.0
 11
11.31
 21
1.445517514049759
 31
0.0
  0
ARC
  5
3DF
330
18
100
AcDbEntity
  8
1
100
AcDbCircle
 10
9.960812321708987
 20
-2.190460833599459
 30
0.0
 40
3.878246158347783
100
AcDbArc
 50
64.99725323043506
 51
69.64182591569151
  0
LINE
  5
3E0
330
18
100
AcDbEntity
  8
1
100
AcDbLine
 10
11.6
 20
-1.347376574725501
 30
0.0
 11
11.31
 21
-0.9618242812331452
 31
0.0
  0
LINE
  5
3E1
330
18
100
AcDbEntity
  8
1
100
AcDbLine
 10
11.6
 20
0.8025552478859875
 30
0.0
 11
11.6
 21
1.324348552932557
 31
0.0
  0
LINE
  5
3E2
330
18
100
AcDbEntity
  8
1
100
AcDbLine
 10
11.6
 20
1.324348552932557
 30
0.0
 11
11.6
 21
1.324349216469768
 31
0.0
  0
ARC
  5
3E3
330
18
100
AcDbEntity
  8
1
100
AcDbCircle
 10
3.203722772146753
 20
-18.81870802857024
 30
0.0
 40
21.34220819736128
100
AcDbArc
 50
66.8330820288013
 51
69.72297513360882
  0
LINE
  5
3E4
330
18
100
AcDbEntity
  8
1
100
AcDbLine
 10
10.60000000000001
 20
1.878376926004939
 30
0.0
 11
10.60000000000001
 21
-0.4565437515467029
 31
0.0
  0
ARC
  5
3E5
330
18
100
AcDbEntity
  8
1
100
AcDbCircle
 10
18.41165232460078
 20
-7.237569457696098
 30
0.0
 40
12.42479577568536
100
AcDbArc
 50
123.2457161325881
 51
124.8597786987467
  0
ARC
  5
3E6
330
18
100
AcDbEntity
  8
1
100
AcDbCircle
 10
17.96420778816407
 20
10.33630701499638
 30
0.0
 40
14.07324659233433
100
AcDbArc
 50
238.4477248909074
 51
241.7817961768388
  0
ARC
  5
3E7
330
18
100
AcDbEntity
  8
1
100
AcDbCircle
 10
37.41591376436192
 20
36.46157066041603
 30
0.0
 40
45.629361229912
100
AcDbArc
 50
234.0067721676692
 51
235.1010382482249
  0
ARC
  5
3E8
330
18
100
AcDbEntity
  8
1
100
AcDbCircle
 10
2.650739624958267
 20
-11.95403885736103
 30
0.0
 40
15.95390755266754
100
AcDbArc
 50
57.12804680060763
 51
60.11473060006328
  0
ARC
  5
3E9
330
18
100
AcDbEntity
  8
1
100
AcDbCircle
 10
8.081908975468758
 20
-4.913041550466803
 30
0.0
 40
8.007763706713244
100
AcDbArc
 50
66.22700902000528
 51
71.67195691687095
  0
LINE
  5
3EA
330
18
100
AcDbEntity
  8
1
100
AcDbLine
 10
3.690000000000001
 20
3.009999999999999
 30
0.0
 11
10.60000000000001
 21
3.009999999999999
 31
0.0
  0
LINE
  5
3EB
330
18
100
AcDbEntity
  8
1
100
AcDbLine
 10
3.690000000000001
 20
3.009999999999999
 30
0.0
 11
3.690000000000001
 21
3.007007478184066
 31
0.0
  0
LINE
  5
3EC
330
18
100
AcDbEntity
  8
1
100
AcDbLine
 10
3.690000000000001
 20
3.007007478184066
 30
0.0
 11
3.690000000000001
 21
2.739922897147828
 31
0.0
  0
LINE
  5
3ED
330
18
100
AcDbEntity
  8
1
100
AcDbLine
 10
3.690000000000001
 20
2.739922897147828
 30
0.0
 11
3.690000000000001
 21
-3.009999999999999
 31
0.0
  0
ARC
  5
3EE
330
18
100
AcDbEntity
  8
1
100
AcDbCircle
 10
12.15607698757936
 20
-3.185074620932548
 30
0.0
 40
6.200795846576321
100
AcDbArc
 50
97.84236507056204
 51
104.5335792320884
  0
ARC
  5
3EF
330
18
100
AcDbEntity
  8
1
100
AcDbCircle
 10
11.26663120852403
 20
2.651885845218564
 30
0.0
 40
5.661902968591611
100
AcDbArc
 50
263.2383279577439
 51
269.9783294223477
  0
ARC
  5
3F0
330
18
100
AcDbEntity
  8
1
100
AcDbCircle
 10
10.70643157107419
 20
0.1420994995309388
 30
0.0
 40
2.352090321741849
100
AcDbArc
 50
67.67236888820375
 51
75.13068288073056
  0
LINE
  5
3F1
330
18
100
AcDbEntity
  8
1
100
AcDbLine
 10
10.60000000000001
 20
3.009999999999999
 30
0.0
 11
10.60000000000001
 21
3.00993107380762
 31
0.0
  0
LINE
  5
3F2
330
18
100
AcDbEntity
  8
1
100
AcDbLine
 10
10.60000000000001
 20
3.00993107380762
 30
0.0
 11
10.60000000000001
 21
2.989227624885752
 31
0.0
  0
LINE
  5
3F3
330
18
100
AcDbEntity
  8
1
100
AcDbLine
 10
10.60000000000001
 20
2.989227624885752
 30
0.0
 11
10.60000000000001
 21
2.688480036276883
 31
0.0
  0
LINE
  5
3F4
330
18
100
AcDbEntity
  8
1
100
AcDbLine
 10
11.6
 20
-2.335128826930063
 30
0.0
 11
11.31
 21
-2.064276082044739
 31
0.0
  0
LINE
  5
3F5
330
18
100
AcDbEntity
  8
1
100
AcDbLine
 10
11.31
 20
-0.9618242812332191
 30
0.0
 11
11.31
 21
-2.064276082044738
 31
0.0
  0
ARC
  5
3F6
330
18
100
AcDbEntity
  8
1
100
AcDbCircle
 10
12.68433829997308
 20
-0.5486653083175029
 30
0.0
 40
2.818829074941866
100
AcDbArc
 50
240.820435402271
 51
247.3762452906956
  0
LINE
  5
3F7
330
18
100
AcDbEntity
  8
1
100
AcDbLine
 10
10.60000000000001
 20
-1.656413532531901
 30
0.0
 11
10.60000000000001
 21
-2.970639592084131
 31
0.0
  0
LINE
  5
3F8
330
18
100
AcDbEntity
  8
1
100
AcDbLine
 10
11.6
 20
2.317855492480433
 30
0.0
 11
11.6
 21
3.153621245594131
 31
0.0
  0
LINE
  5
3F9
330
18
100
AcDbEntity
  8
1
100
AcDbLine
 10
11.6
 20
2.317855154474482
 30
0.0
 11
11.6
 21
1.324349216469757
 31
0.0
  0
LINE
  5
3FA
330
18
100
AcDbEntity
  8
1
100
AcDbLine
 10
11.6
 20
-1.347378359153606
 30
0.0
 11
11.6
 21
-1.347376574725497
 31
0.0
  0
LINE
  5
3FB
330
18
100
AcDbEntity
  8
1
100
AcDbLine
 10
11.6
 20
-1.347376574725497
 30
0.0
 11
11.6
 21
0.8025552478859875
 31
0.0
  0
LINE
  5
3FC
330
18
100
AcDbEntity
  8
1
100
AcDbLine
 10
11.6
 20
-1.347378359153594
 30
0.0
 11
11.6
 21
-2.33512882693006
 31
0.0
  0
LINE
  5
3FD
330
18
100
AcDbEntity
  8
1
100
AcDbLine
 10
11.6
 20
-3.150579673300215
 30
0.0
 11
11.6
 21
-2.335130163819201
 31
0.0
  0
LINE
  5
3FE
330
18
100
AcDbEntity
  8
1
100
AcDbLine
 10
-0.0000000000000082
 20
-3.174999999999999
 30
0.0
 11
3.399999999999999
 21
-3.174999999999999
 31
0.0
  0
LINE
  5
3FF
330
18
100
AcDbEntity
  8
1
100
AcDbLine
 10
3.399999999999999
 20
-3.174999999999999
 30
0.0
 11
3.690000000000001
 21
-3.009999999999999
 31
0.0
  0
LINE
  5
400
330
18
100
AcDbEntity
  8
1
100
AcDbLine
 10
11.26448975336345
 20
-3.009999999998627
 30
0.0
 11
11.31
 21
-3.009814976728327
 31
0.0
  0
LINE
  5
401
330
18
100
AcDbEntity
  8
1
100
AcDbLine
 10
3.690000000000001
 20
-3.009999999999999
 30
0.0
 11
11.26448975336345
 21
-3.009999999999999
 31
0.0
  0
LINE
  5
402
330
18
100
AcDbEntity
  8
1
 62
     1
100
AcDbLine
 10
26.738
 20
-3.172148364112305
 30
0.0
 11
26.56402940567772
 21
-3.174999999958953
 31
0.0
  0
ARC
  5
403
330
18
100
AcDbEntity
  8
1
 62
     1
100
AcDbCircle
 10
12.0770213646737
 20
-2.155473117502487
 30
0.0
 40
5.330474384869156
100
AcDbArc
 50
90.00477287016822
 51
95.13423095441513
  0
LINE
  5
404
330
18
100
AcDbEntity
  8
1
 62
     1
100
AcDbLine
 10
12.07657732400612
 20
3.174999999999999
 30
0.0
 11
13.66951053835416
 21
3.174999999999999
 31
0.0
  0
ARC
  5
405
330
18
100
AcDbEntity
  8
1
 62
     1
100
AcDbCircle
 10
26.71414823141895
 20
-2.411765809835689
 30
0.0
 40
0.7858502066094017
100
AcDbArc
 50
353.5860042065875
 51
0.0734115054359541
  0
LINE
  5
406
330
18
100
AcDbEntity
  8
1
 62
     1
100
AcDbLine
 10
26.738
 20
-1.108198459138792
 30
0.0
 11
24.67238067112575
 21
0.4641595177551129
 31
0.0
  0
LINE
  5
407
330
18
100
AcDbEntity
  8
1
 62
     1
100
AcDbLine
 10
24.67238067112575
 20
0.4641595177551129
 30
0.0
 11
23.63956841169077
 21
1.231575939865615
 31
0.0
  0
LINE
  5
408
330
18
100
AcDbEntity
  8
1
 62
     1
100
AcDbLine
 10
23.63956841169077
 20
1.231575939865615
 30
0.0
 11
22.60675654169739
 21
1.92142089086549
 31
0.0
  0
LINE
  5
409
330
18
100
AcDbEntity
  8
1
 62
     1
100
AcDbLine
 10
26.738
 20
-2.151729124865155
 30
0.0
 11
25.97391038513711
 21
-1.6824325539301
 31
0.0
  0
LINE
  5
40A
330
18
100
AcDbEntity
  8
1
 62
     1
100
AcDbLine
 10
25.97391038513711
 20
-1.6824325539301
 30
0.0
 11
25.20981590425376
 21
-1.154994413613524
 31
0.0
  0
LINE
  5
40B
330
18
100
AcDbEntity
  8
1
 62
     1
100
AcDbLine
 10
25.20981590425376
 20
-1.154994413613524
 30
0.0
 11
23.68164437117087
 21
-0.0000000000153639
 31
0.0
  0
LINE
  5
40C
330
18
100
AcDbEntity
  8
1
 62
     1
100
AcDbLine
 10
17.23438496032848
 20
3.174999999999998
 30
0.0
 11
17.01157737052181
 21
3.17032244707097
 31
0.0
  0
LINE
  5
40D
330
18
100
AcDbEntity
  8
1
 62
     1
100
AcDbLine
 10
17.01157737052181
 20
3.17032244707097
 30
0.0
 11
16.78877848668322
 21
3.156306505075301
 31
0.0
  0
LINE
  5
40E
330
18
100
AcDbEntity
  8
1
 62
     1
100
AcDbLine
 10
16.78877848668322
 20
3.156306505075301
 30
0.0
 11
16.56596683604341
 21
3.132991176683361
 31
0.0
  0
LINE
  5
40F
330
18
100
AcDbEntity
  8
1
 62
     1
100
AcDbLine
 10
16.56596683604341
 20
3.132991176683361
 30
0.0
 11
16.34316402791131
 21
3.100445941893693
 31
0.0
  0
LINE
  5
410
330
18
100
AcDbEntity
  8
1
 62
     1
100
AcDbLine
 10
16.34316402791131
 20
3.100445941893693
 30
0.0
 11
16.12036339152267
 21
3.058768608370311
 31
0.0
  0
LINE
  5
411
330
18
100
AcDbEntity
  8
1
 62
     1
100
AcDbLine
 10
16.12036339152267
 20
3.058768608370311
 30
0.0
 11
15.89755082284324
 21
3.008076930934606
 31
0.0
  0
LINE
  5
412
330
18
100
AcDbEntity
  8
1
 62
     1
100
AcDbLine
 10
15.89755082284324
 20
3.008076930934606
 30
0.0
 11
15.67475092305054
 21
2.948526188276131
 31
0.0
  0
LINE
  5
413
330
18
100
AcDbEntity
  8
1
 62
     1
100
AcDbLine
 10
15.67475092305054
 20
2.948526188276131
 30
0.0
 11
15.45194693457558
 21
2.880289174635276
 31
0.0
  0
LINE
  5
414
330
18
100
AcDbEntity
  8
1
 62
     1
100
AcDbLine
 10
17.23438496032848
 20
3.174999999999999
 30
0.0
 11
18.82731802937277
 21
3.174999999999999
 31
0.0
  0
LINE
  5
415
330
18
100
AcDbEntity
  8
1
 62
     1
100
AcDbLine
 10
27.49999999999999
 20
-0.6460810496090677
 30
0.0
 11
27.49804262165667
 21
-0.7272723752586975
 31
0.0
  0
LINE
  5
416
330
18
100
AcDbEntity
  8
1
 62
     1
100
AcDbLine
 10
27.49804262165667
 20
-0.7272723752586975
 30
0.0
 11
27.49167996492679
 21
-0.8075507352336833
 31
0.0
  0
LINE
  5
417
330
18
100
AcDbEntity
  8
1
 62
     1
100
AcDbLine
 10
27.49167996492679
 20
-0.8075507352336833
 30
0.0
 11
27.4865904276888
 21
-0.8471820361580808
 31
0.0
  0
LINE
  5
418
330
18
100
AcDbEntity
  8
1
 62
     1
100
AcDbLine
 10
27.4865904276888
 20
-0.8471820361580808
 30
0.0
 11
27.48007603935243
 21
-0.8863195740893935
 31
0.0
  0
LINE
  5
419
330
18
100
AcDbEntity
  8
1
 62
     1
100
AcDbLine
 10
27.48007603935243
 20
-0.8863195740893935
 30
0.0
 11
27.47201139562129
 21
-0.9248562410503959
 31
0.0
  0
LINE
  5
41A
330
18
100
AcDbEntity
  8
1
 62
     1
100
AcDbLine
 10
27.47201139562129
 20
-0.9248562410503959
 30
0.0
 11
27.46225869075232
 21
-0.9626408756001955
 31
0.0
  0
LINE
  5
41B
330
18
100
AcDbEntity
  8
1
 62
     1
100
AcDbLine
 10
27.46225869075232
 20
-0.9626408756001955
 30
0.0
 11
27.45067431526283
 21
-0.9994981098990642
 31
0.0
  0
LINE
  5
41C
330
18
100
AcDbEntity
  8
1
 62
     1
100
AcDbLine
 10
27.45067431526283
 20
-0.9994981098990642
 30
0.0
 11
27.43711401260179
 21
-1.03520661474023
 31
0.0
  0
LINE
  5
41D
330
18
100
AcDbEntity
  8
1
 62
     1
100
AcDbLine
 10
27.43711401260179
 20
-1.03520661474023
 30
0.0
 11
27.42954866993668
 21
-1.052548273669612
 31
0.0
  0
LINE
  5
41E
330
18
100
AcDbEntity
  8
1
 62
     1
100
AcDbLine
 10
27.42954866993668
 20
-1.052548273669612
 30
0.0
 11
27.42143110444954
 21
-1.069514156265402
 31
0.0
  0
LINE
  5
41F
330
18
100
AcDbEntity
  8
1
 62
     1
100
AcDbLine
 10
27.42143110444954
 20
-1.069514156265402
 30
0.0
 11
27.41275120806634
 21
-1.086055010678762
 31
0.0
  0
LINE
  5
420
330
18
100
AcDbEntity
  8
1
 62
     1
100
AcDbLine
 10
27.41275120806634
 20
-1.086055010678762
 30
0.0
 11
27.40349910251549
 21
-1.102121118981812
 31
0.0
  0
LINE
  5
421
330
18
100
AcDbEntity
  8
1
 62
     1
100
AcDbLine
 10
27.40349910251549
 20
-1.102121118981812
 30
0.0
 11
27.39365633773015
 21
-1.117675400465936
 31
0.0
  0
LINE
  5
422
330
18
100
AcDbEntity
  8
1
 62
     1
100
AcDbLine
 10
27.39365633773015
 20
-1.117675400465936
 30
0.0
 11
27.38320386878449
 21
-1.132688070973981
 31
0.0
  0
LINE
  5
423
330
18
100
AcDbEntity
  8
1
 62
     1
100
AcDbLine
 10
27.38320386878449
 20
-1.132688070973981
 30
0.0
 11
27.37214560443756
 21
-1.147100756248375
 31
0.0
  0
LINE
  5
424
330
18
100
AcDbEntity
  8
1
 62
     1
100
AcDbLine
 10
27.37214560443756
 20
-1.147100756248375
 30
0.0
 11
27.36048600170299
 21
-1.160854343361934
 31
0.0
  0
LINE
  5
425
330
18
100
AcDbEntity
  8
1
 62
     1
100
AcDbLine
 10
27.36048600170299
 20
-1.160854343361934
 30
0.0
 11
27.34822093349139
 21
-1.173901904337429
 31
0.0
  0
LINE
  5
426
330
18
100
AcDbEntity
  8
1
 62
     1
100
AcDbLine
 10
27.34822093349139
 20
-1.173901904337429
 30
0.0
 11
27.33534650636885
 21
-1.186211126236649
 31
0.0
  0
LINE
  5
427
330
18
100
AcDbEntity
  8
1
 62
     1
100
AcDbLine
 10
27.33534650636885
 20
-1.186211126236649
 30
0.0
 11
27.32188491275967
 21
-1.197725359338915
 31
0.0
  0
LINE
  5
428
330
18
100
AcDbEntity
  8
1
 62
     1
100
AcDbLine
 10
27.32188491275967
 20
-1.197725359338915
 30
0.0
 11
27.30783962406032
 21
-1.208407613511925
 31
0.0
  0
LINE
  5
429
330
18
100
AcDbEntity
  8
1
 62
     1
100
AcDbLine
 10
27.30783962406032
 20
-1.208407613511925
 30
0.0
 11
27.29323328155007
 21
-1.218221461311745
 31
0.0
  0
LINE
  5
42A
330
18
100
AcDbEntity
  8
1
 62
     1
100
AcDbLine
 10
27.29323328155007
 20
-1.218221461311745
 30
0.0
 11
27.27810132937661
 21
-1.227122761824066
 31
0.0
  0
LINE
  5
42B
330
18
100
AcDbEntity
  8
1
 62
     1
100
AcDbLine
 10
27.27810132937661
 20
-1.227122761824066
 30
0.0
 11
27.26245536901928
 21
-1.235092544858845
 31
0.0
  0
LINE
  5
42C
330
18
100
AcDbEntity
  8
1
 62
     1
100
AcDbLine
 10
27.26245536901928
 20
-1.235092544858845
 30
0.0
 11
27.24634122200108
 21
-1.242105715832646
 31
0.0
  0
LINE
  5
42D
330
18
100
AcDbEntity
  8
1
 62
     1
100
AcDbLine
 10
27.24634122200108
 20
-1.242105715832646
 30
0.0
 11
27.22979765968378
 21
-1.248141274083705
 31
0.0
  0
LINE
  5
42E
330
18
100
AcDbEntity
  8
1
 62
     1
100
AcDbLine
 10
27.22979765968378
 20
-1.248141274083705
 30
0.0
 11
27.2128489097261
 21
-1.253199135518815
 31
0.0
  0
LINE
  5
42F
330
18
100
AcDbEntity
  8
1
 62
     1
100
AcDbLine
 10
27.2128489097261
 20
-1.253199135518815
 30
0.0
 11
27.19555349950228
 21
-1.257272982136323
 31
0.0
  0
LINE
  5
430
330
18
100
AcDbEntity
  8
1
 62
     1
100
AcDbLine
 10
27.19555349950228
 20
-1.257272982136323
 30
0.0
 11
27.17794115272647
 21
-1.260367516540273
 31
0.0
  0
LINE
  5
431
330
18
100
AcDbEntity
  8
1
 62
     1
100
AcDbLine
 10
27.17794115272647
 20
-1.260367516540273
 30
0.0
 11
27.16005105949316
 21
-1.262497980847777
 31
0.0
  0
LINE
  5
432
330
18
100
AcDbEntity
  8
1
 62
     1
100
AcDbLine
 10
27.16005105949316
 20
-1.262497980847777
 30
0.0
 11
27.14193780656018
 21
-1.263677804593962
 31
0.0
  0
LINE
  5
433
330
18
100
AcDbEntity
  8
1
 62
     1
100
AcDbLine
 10
27.14193780656018
 20
-1.263677804593962
 30
0.0
 11
27.12362194609302
 21
-1.263929418480514
 31
0.0
  0
LINE
  5
434
330
18
100
AcDbEntity
  8
1
 62
     1
100
AcDbLine
 10
27.12362194609302
 20
-1.263929418480514
 30
0.0
 11
27.10514911253077
 21
-1.263279799925814
 31
0.0
  0
LINE
  5
435
330
18
100
AcDbEntity
  8
1
 62
     1
100
AcDbLine
 10
27.10514911253077
 20
-1.263279799925814
 30
0.0
 11
27.08655854321343
 21
-1.261755700921727
 31
0.0
  0
LINE
  5
436
330
18
100
AcDbEntity
  8
1
 62
     1
100
AcDbLine
 10
27.08655854321343
 20
-1.261755700921727
 30
0.0
 11
27.06786782699282
 21
-1.259387853090468
 31
0.0
  0
LINE
  5
437
330
18
100
AcDbEntity
  8
1
 62
     1
100
AcDbLine
 10
27.06786782699282
 20
-1.259387853090468
 30
0.0
 11
27.04911963574931
 21
-1.25621027173462
 31
0.0
  0
LINE
  5
438
330
18
100
AcDbEntity
  8
1
 62
     1
100
AcDbLine
 10
27.04911963574931
 20
-1.25621027173462
 30
0.0
 11
27.03033338035749
 21
-1.25225399241961
 31
0.0
  0
LINE
  5
439
330
18
100
AcDbEntity
  8
1
 62
     1
100
AcDbLine
 10
27.03033338035749
 20
-1.25225399241961
 30
0.0
 11
27.01153032623609
 21
-1.247552780100944
 31
0.0
  0
LINE
  5
43A
330
18
100
AcDbEntity
  8
1
 62
     1
100
AcDbLine
 10
27.01153032623609
 20
-1.247552780100944
 30
0.0
 11
26.97397570861012
 21
-1.236051509534842
 31
0.0
  0
LINE
  5
43B
330
18
100
AcDbEntity
  8
1
 62
     1
100
AcDbLine
 10
26.97397570861012
 20
-1.236051509534842
 30
0.0
 11
26.9365936074504
 21
-1.221964248235239
 31
0.0
  0
LINE
  5
43C
330
18
100
AcDbEntity
  8
1
 62
     1
100
AcDbLine
 10
26.9365936074504
 20
-1.221964248235239
 30
0.0
 11
26.89947843725377
 21
-1.205526437513002
 31
0.0
  0
LINE
  5
43D
330
18
100
AcDbEntity
  8
1
 62
     1
100
AcDbLine
 10
26.89947843725377
 20
-1.205526437513002
 30
0.0
 11
26.86275346952814
 21
-1.186980035538842
 31
0.0
  0
LINE
  5
43E
330
18
100
AcDbEntity
  8
1
 62
     1
100
AcDbLine
 10
26.86275346952814
 20
-1.186980035538842
 30
0.0
 11
26.8264599630004
 21
-1.166517775611015
 31
0.0
  0
LINE
  5
43F
330
18
100
AcDbEntity
  8
1
 62
     1
100
AcDbLine
 10
26.8264599630004
 20
-1.166517775611015
 30
0.0
 11
26.79067338751886
 21
-1.144339438758502
 31
0.0
  0
LINE
  5
440
330
18
100
AcDbEntity
  8
1
 62
     1
100
AcDbLine
 10
26.79067338751886
 20
-1.144339438758502
 30
0.0
 11
26.738
 21
-1.108198459138792
 31
0.0
  0
LINE
  5
441
330
18
100
AcDbEntity
  8
1
 62
     1
100
AcDbLine
 10
27.5
 20
-1.934735423343436
 30
0.0
 11
27.49970774855278
 21
-1.951522429782464
 31
0.0
  0
LINE
  5
442
330
18
100
AcDbEntity
  8
1
 62
     1
100
AcDbLine
 10
27.49970774855278
 20
-1.951522429782464
 30
0.0
 11
27.49883297123166
 21
-1.968091641381985
 31
0.0
  0
LINE
  5
443
330
18
100
AcDbEntity
  8
1
 62
     1
100
AcDbLine
 10
27.49883297123166
 20
-1.968091641381985
 30
0.0
 11
27.49737863356744
 21
-1.98441202627211
 31
0.0
  0
LINE
  5
444
330
18
100
AcDbEntity
  8
1
 62
     1
100
AcDbLine
 10
27.49737863356744
 20
-1.98441202627211
 30
0.0
 11
27.49534770109091
 21
-2.000452552582943
 31
0.0
  0
LINE
  5
445
330
18
100
AcDbEntity
  8
1
 62
     1
100
AcDbLine
 10
27.49534770109091
 20
-2.000452552582943
 30
0.0
 11
27.49274193500635
 21
-2.016193233800549
 31
0.0
  0
LINE
  5
446
330
18
100
AcDbEntity
  8
1
 62
     1
100
AcDbLine
 10
27.49274193500635
 20
-2.016193233800549
 30
0.0
 11
27.48956495080606
 21
-2.031628171015332
 31
0.0
  0
LINE
  5
447
330
18
100
AcDbEntity
  8
1
 62
     1
100
AcDbLine
 10
27.48956495080606
 20
-2.031628171015332
 30
0.0
 11
27.48582565137782
 21
-2.04672978145056
 31
0.0
  0
LINE
  5
448
330
18
100
AcDbEntity
  8
1
 62
     1
100
AcDbLine
 10
27.48582565137782
 20
-2.04672978145056
 30
0.0
 11
27.4815330718333
 21
-2.061469705498161
 31
0.0
  0
LINE
  5
449
330
18
100
AcDbEntity
  8
1
 62
     1
100
AcDbLine
 10
27.4815330718333
 20
-2.061469705498161
 30
0.0
 11
27.47669463180836
 21
-2.075825231019384
 31
0.0
  0
LINE
  5
44A
330
18
100
AcDbEntity
  8
1
 62
     1
100
AcDbLine
 10
27.47669463180836
 20
-2.075825231019384
 30
0.0
 11
27.47131460246974
 21
-2.089794697776079
 31
0.0
  0
LINE
  5
44B
330
18
100
AcDbEntity
  8
1
 62
     1
100
AcDbLine
 10
27.47131460246974
 20
-2.089794697776079
 30
0.0
 11
27.4654064558443
 21
-2.103357553116376
 31
0.0
  0
LINE
  5
44C
330
18
100
AcDbEntity
  8
1
 62
     1
100
AcDbLine
 10
27.4654064558443
 20
-2.103357553116376
 30
0.0
 11
27.45898463650978
 21
-2.116490535554438
 31
0.0
  0
LINE
  5
44D
330
18
100
AcDbEntity
  8
1
 62
     1
100
AcDbLine
 10
27.45898463650978
 20
-2.116490535554438
 30
0.0
 11
27.45206251029457
 21
-2.129172534059526
 31
0.0
  0
LINE
  5
44E
330
18
100
AcDbEntity
  8
1
 62
     1
100
AcDbLine
 10
27.45206251029457
 20
-2.129172534059526
 30
0.0
 11
27.44464517908278
 21
-2.141403483121377
 31
0.0
  0
LINE
  5
44F
330
18
100
AcDbEntity
  8
1
 62
     1
100
AcDbLine
 10
27.44464517908278
 20
-2.141403483121377
 30
0.0
 11
27.43674798919435
 21
-2.153171673272558
 31
0.0
  0
LINE
  5
450
330
18
100
AcDbEntity
  8
1
 62
     1
100
AcDbLine
 10
27.43674798919435
 20
-2.153171673272558
 30
0.0
 11
27.42838921059869
 21
-2.164460455788223
 31
0.0
  0
LINE
  5
451
330
18
100
AcDbEntity
  8
1
 62
     1
100
AcDbLine
 10
27.42838921059869
 20
-2.164460455788223
 30
0.0
 11
27.41958676224737
 21
-2.175253630369796
 31
0.0
  0
LINE
  5
452
330
18
100
AcDbEntity
  8
1
 62
     1
100
AcDbLine
 10
27.41958676224737
 20
-2.175253630369796
 30
0.0
 11
27.41034758600015
 21
-2.185551222583405
 31
0.0
  0
LINE
  5
453
330
18
100
AcDbEntity
  8
1
 62
     1
100
AcDbLine
 10
27.41034758600015
 20
-2.185551222583405
 30
0.0
 11
27.40068584704453
 21
-2.195350045347443
 31
0.0
  0
LINE
  5
454
330
18
100
AcDbEntity
  8
1
 62
     1
100
AcDbLine
 10
27.40068584704453
 20
-2.195350045347443
 30
0.0
 11
27.39062164453632
 21
-2.204640316847865
 31
0.0
  0
LINE
  5
455
330
18
100
AcDbEntity
  8
1
 62
     1
100
AcDbLine
 10
27.39062164453632
 20
-2.204640316847865
 30
0.0
 11
27.3801750754687
 21
-2.213412257100834
 31
0.0
  0
LINE
  5
456
330
18
100
AcDbEntity
  8
1
 62
     1
100
AcDbLine
 10
27.3801750754687
 20
-2.213412257100834
 30
0.0
 11
27.36935606259441
 21
-2.221665736959753
 31
0.0
  0
LINE
  5
457
330
18
100
AcDbEntity
  8
1
 62
     1
100
AcDbLine
 10
27.36935606259441
 20
-2.221665736959753
 30
0.0
 11
27.35817511499518
 21
-2.229404172806256
 31
0.0
  0
LINE
  5
458
330
18
100
AcDbEntity
  8
1
 62
     1
100
AcDbLine
 10
27.35817511499518
 20
-2.229404172806256
 30
0.0
 11
27.34665234354772
 21
-2.23662383615431
 31
0.0
  0
LINE
  5
459
330
18
100
AcDbEntity
  8
1
 62
     1
100
AcDbLine
 10
27.34665234354772
 20
-2.23662383615431
 30
0.0
 11
27.33480785912874
 21
-2.243320998517878
 31
0.0
  0
LINE
  5
45A
330
18
100
AcDbEntity
  8
1
 62
     1
100
AcDbLine
 10
27.33480785912874
 20
-2.243320998517878
 30
0.0
 11
27.32265452066528
 21
-2.249496389029208
 31
0.0
  0
LINE
  5
45B
330
18
100
AcDbEntity
  8
1
 62
     1
100
AcDbLine
 10
27.32265452066528
 20
-2.249496389029208
 30
0.0
 11
27.31019854567991
 21
-2.255157012977916
 31
0.0
  0
LINE
  5
45C
330
18
100
AcDbEntity
  8
1
 62
     1
100
AcDbLine
 10
27.31019854567991
 20
-2.255157012977916
 30
0.0
 11
27.29745851277882
 21
-2.260303967763846
 31
0.0
  0
LINE
  5
45D
330
18
100
AcDbEntity
  8
1
 62
     1
100
AcDbLine
 10
27.29745851277882
 20
-2.260303967763846
 30
0.0
 11
27.28445327066772
 21
-2.264938202073528
 31
0.0
  0
LINE
  5
45E
330
18
100
AcDbEntity
  8
1
 62
     1
100
AcDbLine
 10
27.28445327066772
 20
-2.264938202073528
 30
0.0
 11
27.2711971622003
 21
-2.269062343557325
 31
0.0
  0
LINE
  5
45F
330
18
100
AcDbEntity
  8
1
 62
     1
100
AcDbLine
 10
27.2711971622003
 20
-2.269062343557325
 30
0.0
 11
27.25769336121432
 21
-2.272684339153095
 31
0.0
  0
LINE
  5
460
330
18
100
AcDbEntity
  8
1
 62
     1
100
AcDbLine
 10
27.25769336121432
 20
-2.272684339153095
 30
0.0
 11
27.24395767047895
 21
-2.275808733852535
 31
0.0
  0
LINE
  5
461
330
18
100
AcDbEntity
  8
1
 62
     1
100
AcDbLine
 10
27.24395767047895
 20
-2.275808733852535
 30
0.0
 11
27.23000701138949
 21
-2.278439703058758
 31
0.0
  0
LINE
  5
462
330
18
100
AcDbEntity
  8
1
 62
     1
100
AcDbLine
 10
27.23000701138949
 20
-2.278439703058758
 30
0.0
 11
27.215855914714
 21
-2.280581865164355
 31
0.0
  0
LINE
  5
463
330
18
100
AcDbEntity
  8
1
 62
     1
100
AcDbLine
 10
27.215855914714
 20
-2.280581865164355
 30
0.0
 11
27.18696942677909
 21
-2.283429193517388
 31
0.0
  0
LINE
  5
464
330
18
100
AcDbEntity
  8
1
 62
     1
100
AcDbLine
 10
27.18696942677909
 20
-2.283429193517388
 30
0.0
 11
27.15739526001716
 21
-2.284402711112462
 31
0.0
  0
LINE
  5
465
330
18
100
AcDbEntity
  8
1
 62
     1
100
AcDbLine
 10
27.15739526001716
 20
-2.284402711112462
 30
0.0
 11
27.12720184567589
 21
-2.283555330918404
 31
0.0
  0
LINE
  5
466
330
18
100
AcDbEntity
  8
1
 62
     1
100
AcDbLine
 10
27.12720184567589
 20
-2.283555330918404
 30
0.0
 11
27.09646805465429
 21
-2.280944975594466
 31
0.0
  0
LINE
  5
467
330
18
100
AcDbEntity
  8
1
 62
     1
100
AcDbLine
 10
27.09646805465429
 20
-2.280944975594466
 30
0.0
 11
27.06525469056395
 21
-2.276626847204259
 31
0.0
  0
LINE
  5
468
330
18
100
AcDbEntity
  8
1
 62
     1
100
AcDbLine
 10
27.06525469056395
 20
-2.276626847204259
 30
0.0
 11
27.03362433845396
 21
-2.270659782669386
 31
0.0
  0
LINE
  5
469
330
18
100
AcDbEntity
  8
1
 62
     1
100
AcDbLine
 10
27.03362433845396
 20
-2.270659782669386
 30
0.0
 11
27.00163209712009
 21
-2.263099475373419
 31
0.0
  0
LINE
  5
46A
330
18
100
AcDbEntity
  8
1
 62
     1
100
AcDbLine
 10
27.00163209712009
 20
-2.263099475373419
 30
0.0
 11
26.96932671811116
 21
-2.254002544482503
 31
0.0
  0
LINE
  5
46B
330
18
100
AcDbEntity
  8
1
 62
     1
100
AcDbLine
 10
26.96932671811116
 20
-2.254002544482503
 30
0.0
 11
26.93675344159701
 21
-2.243421800314068
 31
0.0
  0
LINE
  5
46C
330
18
100
AcDbEntity
  8
1
 62
     1
100
AcDbLine
 10
26.93675344159701
 20
-2.243421800314068
 30
0.0
 11
26.90394164451499
 21
-2.231406667999243
 31
0.0
  0
LINE
  5
46D
330
18
100
AcDbEntity
  8
1
 62
     1
100
AcDbLine
 10
26.90394164451499
 20
-2.231406667999243
 30
0.0
 11
26.83784591281997
 21
-2.203311507173621
 31
0.0
  0
LINE
  5
46E
330
18
100
AcDbEntity
  8
1
 62
     1
100
AcDbLine
 10
26.83784591281997
 20
-2.203311507173621
 30
0.0
 11
26.78796469793789
 21
-2.178863181332445
 31
0.0
  0
LINE
  5
46F
330
18
100
AcDbEntity
  8
1
 62
     1
100
AcDbLine
 10
26.78796469793789
 20
-2.178863181332445
 30
0.0
 11
26.738
 21
-2.151729124865154
 31
0.0
  0
LINE
  5
470
330
18
100
AcDbEntity
  8
1
 62
     1
100
AcDbLine
 10
26.738
 20
2.487244050084272
 30
0.0
 11
26.39388896145665
 21
2.643759802448963
 31
0.0
  0
LINE
  5
471
330
18
100
AcDbEntity
  8
1
 62
     1
100
AcDbLine
 10
26.39388896145665
 20
2.643759802448963
 30
0.0
 11
26.04977753553275
 21
2.781703324942029
 31
0.0
  0
LINE
  5
472
330
18
100
AcDbEntity
  8
1
 62
     1
100
AcDbLine
 10
26.04977753553275
 20
2.781703324942029
 30
0.0
 11
25.70566673433174
 21
2.900106294987416
 31
0.0
  0
LINE
  5
473
330
18
100
AcDbEntity
  8
1
 62
     1
100
AcDbLine
 10
25.70566673433174
 20
2.900106294987416
 30
0.0
 11
25.36155603107095
 21
2.998136606021986
 31
0.0
  0
LINE
  5
474
330
18
100
AcDbEntity
  8
1
 62
     1
100
AcDbLine
 10
25.36155603107095
 20
2.998136606021986
 30
0.0
 11
25.01744513436
 21
3.075105547126201
 31
0.0
  0
LINE
  5
475
330
18
100
AcDbEntity
  8
1
 62
     1
100
AcDbLine
 10
25.01744513436
 20
3.075105547126201
 30
0.0
 11
24.67333419103621
 21
3.130472571563497
 31
0.0
  0
LINE
  5
476
330
18
100
AcDbEntity
  8
1
 62
     1
100
AcDbLine
 10
24.67333419103621
 20
3.130472571563497
 30
0.0
 11
24.3292234835932
 21
3.163848829694706
 31
0.0
  0
LINE
  5
477
330
18
100
AcDbEntity
  8
1
 62
     1
100
AcDbLine
 10
24.3292234835932
 20
3.163848829694706
 30
0.0
 11
23.98512519048282
 21
3.174999999999999
 31
0.0
  0
LINE
  5
478
330
18
100
AcDbEntity
  8
1
 62
     1
100
AcDbLine
 10
26.73800000000001
 20
1.555482813061086
 30
0.0
 11
26.19477117948679
 21
1.907140537055257
 31
0.0
  0
LINE
  5
479
330
18
100
AcDbEntity
  8
1
 62
     1
100
AcDbLine
 10
26.19477117948679
 20
1.907140537055257
 30
0.0
 11
25.65154712271104
 21
2.22543820976584
 31
0.0
  0
LINE
  5
47A
330
18
100
AcDbEntity
  8
1
 62
     1
100
AcDbLine
 10
25.65154712271104
 20
2.22543820976584
 30
0.0
 11
25.10831399809624
 21
2.504814431479002
 31
0.0
  0
LINE
  5
47B
330
18
100
AcDbEntity
  8
1
 62
     1
100
AcDbLine
 10
25.10831399809624
 20
2.504814431479002
 30
0.0
 11
24.83670435719747
 21
2.628346118947197
 31
0.0
  0
LINE
  5
47C
330
18
100
AcDbEntity
  8
1
 62
     1
100
AcDbLine
 10
24.83670435719747
 20
2.628346118947197
 30
0.0
 11
24.56509282669251
 21
2.740373559857312
 31
0.0
  0
LINE
  5
47D
330
18
100
AcDbEntity
  8
1
 62
     1
100
AcDbLine
 10
24.56509282669251
 20
2.740373559857312
 30
0.0
 11
24.29347414218745
 21
2.840407334928028
 31
0.0
  0
LINE
  5
47E
330
18
100
AcDbEntity
  8
1
 62
     1
100
AcDbLine
 10
24.29347414218745
 20
2.840407334928028
 30
0.0
 11
24.02185770220116
 21
2.928005221465568
 31
0.0
  0
LINE
  5
47F
330
18
100
AcDbEntity
  8
1
 62
     1
100
AcDbLine
 10
24.02185770220116
 20
2.928005221465568
 30
0.0
 11
23.7502472206674
 21
3.002783862277839
 31
0.0
  0
LINE
  5
480
330
18
100
AcDbEntity
  8
1
 62
     1
100
AcDbLine
 10
23.7502472206674
 20
3.002783862277839
 30
0.0
 11
23.47863725557512
 21
3.064418277999218
 31
0.0
  0
LINE
  5
481
330
18
100
AcDbEntity
  8
1
 62
     1
100
AcDbLine
 10
23.47863725557512
 20
3.064418277999218
 30
0.0
 11
23.20702251076595
 21
3.112639319832484
 31
0.0
  0
LINE
  5
482
330
18
100
AcDbEntity
  8
1
 62
     1
100
AcDbLine
 10
23.20702251076595
 20
3.112639319832484
 30
0.0
 11
22.93540295770472
 21
3.147234308837173
 31
0.0
  0
LINE
  5
483
330
18
100
AcDbEntity
  8
1
 62
     1
100
AcDbLine
 10
22.93540295770472
 20
3.147234308837173
 30
0.0
 11
22.66379041907535
 21
3.168050729579273
 31
0.0
  0
LINE
  5
484
330
18
100
AcDbEntity
  8
1
 62
     1
100
AcDbLine
 10
22.66379041907535
 20
3.168050729579273
 30
0.0
 11
22.39219249265253
 21
3.174999999999999
 31
0.0
  0
LINE
  5
485
330
18
100
AcDbEntity
  8
1
 62
     1
100
AcDbLine
 10
22.39219249265253
 20
3.174999999999999
 30
0.0
 11
22.16938493426397
 21
3.170322446544538
 31
0.0
  0
LINE
  5
486
330
18
100
AcDbEntity
  8
1
 62
     1
100
AcDbLine
 10
22.16938493426397
 20
3.170322446544538
 30
0.0
 11
21.9465860703004
 21
3.156306507730173
 31
0.0
  0
LINE
  5
487
330
18
100
AcDbEntity
  8
1
 62
     1
100
AcDbLine
 10
21.9465860703004
 20
3.156306507730173
 30
0.0
 11
21.72377444704149
 21
3.132991182385916
 31
0.0
  0
LINE
  5
488
330
18
100
AcDbEntity
  8
1
 62
     1
100
AcDbLine
 10
21.72377444704149
 20
3.132991182385916
 30
0.0
 11
21.50097165096966
 21
3.100445956785796
 31
0.0
  0
LINE
  5
489
330
18
100
AcDbEntity
  8
1
 62
     1
100
AcDbLine
 10
21.50097165096966
 20
3.100445956785796
 30
0.0
 11
21.27817104335261
 21
3.058768628407971
 31
0.0
  0
LINE
  5
48A
330
18
100
AcDbEntity
  8
1
 62
     1
100
AcDbLine
 10
21.27817104335261
 20
3.058768628407971
 30
0.0
 11
21.05535847810668
 21
3.008076968072781
 31
0.0
  0
LINE
  5
48B
330
18
100
AcDbEntity
  8
1
 62
     1
100
AcDbLine
 10
21.05535847810668
 20
3.008076968072781
 30
0.0
 11
20.83255861226583
 21
2.94852623128524
 31
0.0
  0
LINE
  5
48C
330
18
100
AcDbEntity
  8
1
 62
     1
100
AcDbLine
 10
20.83255861226583
 20
2.94852623128524
 30
0.0
 11
20.60975463661222
 21
2.880289235963939
 31
0.0
  0
LINE
  5
48D
330
18
100
AcDbEntity
  8
1
 62
     1
100
AcDbLine
 10
22.39219249265254
 20
3.174999999999999
 30
0.0
 11
23.98512519048281
 21
3.174999999999999
 31
0.0
  0
LINE
  5
48E
330
18
100
AcDbEntity
  8
1
 62
     1
100
AcDbLine
 10
27.5
 20
2.011458870895659
 30
0.0
 11
27.49999279749447
 21
2.01181441487175
 31
0.0
  0
LINE
  5
48F
330
18
100
AcDbEntity
  8
1
 62
     1
100
AcDbLine
 10
27.49999279749447
 20
2.01181441487175
 30
0.0
 11
27.49997107170437
 21
2.012175156816057
 31
0.0
  0
LINE
  5
490
330
18
100
AcDbEntity
  8
1
 62
     1
100
AcDbLine
 10
27.49997107170437
 20
2.012175156816057
 30
0.0
 11
27.49993464521943
 21
2.012541223285134
 31
0.0
  0
LINE
  5
491
330
18
100
AcDbEntity
  8
1
 62
     1
100
AcDbLine
 10
27.49993464521943
 20
2.012541223285134
 30
0.0
 11
27.49988334062938
 21
2.012912740835538
 31
0.0
  0
LINE
  5
492
330
18
100
AcDbEntity
  8
1
 62
     1
100
AcDbLine
 10
27.49988334062938
 20
2.012912740835538
 30
0.0
 11
27.49981698052397
 21
2.013289836023823
 31
0.0
  0
LINE
  5
493
330
18
100
AcDbEntity
  8
1
 62
     1
100
AcDbLine
 10
27.49981698052397
 20
2.013289836023823
 30
0.0
 11
27.49973538749292
 21
2.013672635406544
 31
0.0
  0
LINE
  5
494
330
18
100
AcDbEntity
  8
1
 62
     1
100
AcDbLine
 10
27.49973538749292
 20
2.013672635406544
 30
0.0
 11
27.49952579301286
 21
2.014455852981523
 31
0.0
  0
LINE
  5
495
330
18
100
AcDbEntity
  8
1
 62
     1
100
AcDbLine
 10
27.49952579301286
 20
2.014455852981523
 30
0.0
 11
27.49925313790708
 21
2.015263406012918
 31
0.0
  0
LINE
  5
496
330
18
100
AcDbEntity
  8
1
 62
     1
100
AcDbLine
 10
27.49925313790708
 20
2.015263406012918
 30
0.0
 11
27.49891600289343
 21
2.016096306953174
 31
0.0
  0
LINE
  5
497
330
18
100
AcDbEntity
  8
1
 62
     1
100
AcDbLine
 10
27.49891600289343
 20
2.016096306953174
 30
0.0
 11
27.49851296868983
 21
2.016955568254735
 31
0.0
  0
LINE
  5
498
330
18
100
AcDbEntity
  8
1
 62
     1
100
AcDbLine
 10
27.49851296868983
 20
2.016955568254735
 30
0.0
 11
27.49804261601413
 21
2.017842202370049
 31
0.0
  0
LINE
  5
499
330
18
100
AcDbEntity
  8
1
 62
     1
100
AcDbLine
 10
27.49804261601413
 20
2.017842202370049
 30
0.0
 11
27.49750352558421
 21
2.018757221751559
 31
0.0
  0
LINE
  5
49A
330
18
100
AcDbEntity
  8
1
 62
     1
100
AcDbLine
 10
27.49750352558421
 20
2.018757221751559
 30
0.0
 11
27.49689427811794
 21
2.019701638851709
 31
0.0
  0
LINE
  5
49B
330
18
100
AcDbEntity
  8
1
 62
     1
100
AcDbLine
 10
27.49689427811794
 20
2.019701638851709
 30
0.0
 11
27.49621345433321
 21
2.020676466122945
 31
0.0
  0
LINE
  5
49C
330
18
100
AcDbEntity
  8
1
 62
     1
100
AcDbLine
 10
27.49621345433321
 20
2.020676466122945
 30
0.0
 11
27.49463123252621
 21
2.022721583443058
 31
0.0
  0
LINE
  5
49D
330
18
100
AcDbEntity
  8
1
 62
     1
100
AcDbLine
 10
27.49463123252621
 20
2.022721583443058
 30
0.0
 11
27.49274319694833
 21
2.02490291481039
 31
0.0
  0
LINE
  5
49E
330
18
100
AcDbEntity
  8
1
 62
     1
100
AcDbLine
 10
27.49274319694833
 20
2.02490291481039
 30
0.0
 11
27.49053487663625
 21
2.027231224090545
 31
0.0
  0
LINE
  5
49F
330
18
100
AcDbEntity
  8
1
 62
     1
100
AcDbLine
 10
27.49053487663625
 20
2.027231224090545
 30
0.0
 11
27.48509991299544
 21
2.032371227388119
 31
0.0
  0
LINE
  5
4A0
330
18
100
AcDbEntity
  8
1
 62
     1
100
AcDbLine
 10
27.48509991299544
 20
2.032371227388119
 30
0.0
 11
27.47821102366558
 21
2.038226814052685
 31
0.0
  0
LINE
  5
4A1
330
18
100
AcDbEntity
  8
1
 62
     1
100
AcDbLine
 10
27.47821102366558
 20
2.038226814052685
 30
0.0
 11
27.45954102444185
 21
2.052485204641729
 31
0.0
  0
LINE
  5
4A2
330
18
100
AcDbEntity
  8
1
 62
     1
100
AcDbLine
 10
27.45954102444185
 20
2.052485204641729
 30
0.0
 11
27.3986541704839
 21
2.09423494999155
 31
0.0
  0
LINE
  5
4A3
330
18
100
AcDbEntity
  8
1
 62
     1
100
AcDbLine
 10
27.3986541704839
 20
2.09423494999155
 30
0.0
 11
27.16902742638256
 21
2.242105805889671
 31
0.0
  0
LINE
  5
4A4
330
18
100
AcDbEntity
  8
1
 62
     1
100
AcDbLine
 10
27.16902742638256
 20
2.242105805889671
 30
0.0
 11
26.95058421057482
 21
2.37423596194772
 31
0.0
  0
LINE
  5
4A5
330
18
100
AcDbEntity
  8
1
 62
     1
100
AcDbLine
 10
26.95058421057482
 20
2.37423596194772
 30
0.0
 11
26.84228121810166
 21
2.434299970734871
 31
0.0
  0
LINE
  5
4A6
330
18
100
AcDbEntity
  8
1
 62
     1
100
AcDbLine
 10
26.84228121810166
 20
2.434299970734871
 30
0.0
 11
26.738
 21
2.487244050084272
 31
0.0
  0
LINE
  5
4A7
330
18
100
AcDbEntity
  8
1
 62
     1
100
AcDbLine
 10
27.5
 20
0.7735586379287243
 30
0.0
 11
27.49992687538425
 21
0.7769759294754697
 31
0.0
  0
LINE
  5
4A8
330
18
100
AcDbEntity
  8
1
 62
     1
100
AcDbLine
 10
27.49992687538425
 20
0.7769759294754697
 30
0.0
 11
27.49970774866445
 21
0.7804761735064353
 31
0.0
  0
LINE
  5
4A9
330
18
100
AcDbEntity
  8
1
 62
     1
100
AcDbLine
 10
27.49970774866445
 20
0.7804761735064353
 30
0.0
 11
27.49934299053171
 21
0.7840588655464551
 31
0.0
  0
LINE
  5
4AA
330
18
100
AcDbEntity
  8
1
 62
     1
100
AcDbLine
 10
27.49934299053171
 20
0.7840588655464551
 30
0.0
 11
27.49883297167718
 21
0.7877235011203628
 31
0.0
  0
LINE
  5
4AB
330
18
100
AcDbEntity
  8
1
 62
     1
100
AcDbLine
 10
27.49883297167718
 20
0.7877235011203628
 30
0.0
 11
27.4973786345673
 21
0.7952965849691776
 31
0.0
  0
LINE
  5
4AC
330
18
100
AcDbEntity
  8
1
 62
     1
100
AcDbLine
 10
27.4973786345673
 20
0.7952965849691776
 30
0.0
 11
27.49534770286393
 21
0.8031913892515508
 31
0.0
  0
LINE
  5
4AD
330
18
100
AcDbEntity
  8
1
 62
     1
100
AcDbLine
 10
27.49534770286393
 20
0.8031913892515508
 30
0.0
 11
27.49274193777055
 21
0.8114092167425091
 31
0.0
  0
LINE
  5
4AE
330
18
100
AcDbEntity
  8
1
 62
     1
100
AcDbLine
 10
27.49274193777055
 20
0.8114092167425091
 30
0.0
 11
27.48956495476878
 21
0.8199550886125036
 31
0.0
  0
LINE
  5
4AF
330
18
100
AcDbEntity
  8
1
 62
     1
100
AcDbLine
 10
27.48956495476878
 20
0.8199550886125036
 30
0.0
 11
27.48582565674161
 21
0.8288208807813782
 31
0.0
  0
LINE
  5
4B0
330
18
100
AcDbEntity
  8
1
 62
     1
100
AcDbLine
 10
27.48582565674161
 20
0.8288208807813782
 30
0.0
 11
27.48153307879696
 21
0.8379980503758577
 31
0.0
  0
LINE
  5
4B1
330
18
100
AcDbEntity
  8
1
 62
     1
100
AcDbLine
 10
27.48153307879696
 20
0.8379980503758577
 30
0.0
 11
27.47131461320271
 21
0.8572762514061254
 31
0.0
  0
LINE
  5
4B2
330
18
100
AcDbEntity
  8
1
 62
     1
100
AcDbLine
 10
27.47131461320271
 20
0.8572762514061254
 30
0.0
 11
27.45898465158068
 21
0.8777538853473728
 31
0.0
  0
LINE
  5
4B3
330
18
100
AcDbEntity
  8
1
 62
     1
100
AcDbLine
 10
27.45898465158068
 20
0.8777538853473728
 30
0.0
 11
27.44464519926884
 21
0.8993516936126058
 31
0.0
  0
LINE
  5
4B4
330
18
100
AcDbEntity
  8
1
 62
     1
100
AcDbLine
 10
27.44464519926884
 20
0.8993516936126058
 30
0.0
 11
27.41034761737003
 21
0.9456453935626964
 31
0.0
  0
LINE
  5
4B5
330
18
100
AcDbEntity
  8
1
 62
     1
100
AcDbLine
 10
27.41034761737003
 20
0.9456453935626964
 30
0.0
 11
27.36935610559834
 21
0.9954748098496912
 31
0.0
  0
LINE
  5
4B6
330
18
100
AcDbEntity
  8
1
 62
     1
100
AcDbLine
 10
27.36935610559834
 20
0.9954748098496912
 30
0.0
 11
27.27119722492872
 21
1.10267851442321
 31
0.0
  0
LINE
  5
4B7
330
18
100
AcDbEntity
  8
1
 62
     1
100
AcDbLine
 10
27.27119722492872
 20
1.10267851442321
 30
0.0
 11
27.15739533351983
 21
1.214915910504781
 31
0.0
  0
LINE
  5
4B8
330
18
100
AcDbEntity
  8
1
 62
     1
100
AcDbLine
 10
27.15739533351983
 20
1.214915910504781
 30
0.0
 11
27.03362441310236
 21
1.326846296177633
 31
0.0
  0
LINE
  5
4B9
330
18
100
AcDbEntity
  8
1
 62
     1
100
AcDbLine
 10
27.03362441310236
 20
1.326846296177633
 30
0.0
 11
26.90394177566251
 21
1.434029905795567
 31
0.0
  0
LINE
  5
4BA
330
18
100
AcDbEntity
  8
1
 62
     1
100
AcDbLine
 10
26.90394177566251
 20
1.434029905795567
 30
0.0
 11
26.82123962108787
 21
1.496880180428808
 31
0.0
  0
LINE
  5
4BB
330
18
100
AcDbEntity
  8
1
 62
     1
100
AcDbLine
 10
26.82123962108787
 20
1.496880180428808
 30
0.0
 11
26.73800000000001
 21
1.555482813061083
 31
0.0
  0
ARC
  5
4BC
330
18
100
AcDbEntity
  8
1
 62
     1
100
AcDbCircle
 10
27.65568817022945
 20
-2.843786945716324
 30
0.0
 40
6.02717808929224
100
AcDbArc
 50
98.75789365908923
 51
108.2554920590408
  0
LINE
  5
4BD
330
18
100
AcDbEntity
  8
1
 62
     1
100
AcDbLine
 10
27.49999999999999
 20
2.41282095387449
 30
0.0
 11
27.49883297215002
 21
2.454931523985846
 31
0.0
  0
LINE
  5
4BE
330
18
100
AcDbEntity
  8
1
 62
     1
100
AcDbLine
 10
27.49883297215002
 20
2.454931523985846
 30
0.0
 11
27.49534770474563
 21
2.496852101520049
 31
0.0
  0
LINE
  5
4BF
330
18
100
AcDbEntity
  8
1
 62
     1
100
AcDbLine
 10
27.49534770474563
 20
2.496852101520049
 30
0.0
 11
27.48956495897441
 21
2.538388242388144
 31
0.0
  0
LINE
  5
4C0
330
18
100
AcDbEntity
  8
1
 62
     1
100
AcDbLine
 10
27.48956495897441
 20
2.538388242388144
 30
0.0
 11
27.48153308618729
 21
2.579380928045639
 31
0.0
  0
LINE
  5
4C1
330
18
100
AcDbEntity
  8
1
 62
     1
100
AcDbLine
 10
27.48153308618729
 20
2.579380928045639
 30
0.0
 11
27.47131462459281
 21
2.619620492409437
 31
0.0
  0
LINE
  5
4C2
330
18
100
AcDbEntity
  8
1
 62
     1
100
AcDbLine
 10
27.47131462459281
 20
2.619620492409437
 30
0.0
 11
27.45898466757192
 21
2.658972194623786
 31
0.0
  0
LINE
  5
4C3
330
18
100
AcDbEntity
  8
1
 62
     1
100
AcDbLine
 10
27.45898466757192
 20
2.658972194623786
 30
0.0
 11
27.44464522068779
 21
2.697233313131129
 31
0.0
  0
LINE
  5
4C4
330
18
100
AcDbEntity
  8
1
 62
     1
100
AcDbLine
 10
27.44464522068779
 20
2.697233313131129
 30
0.0
 11
27.42838926258531
 21
2.734298553534062
 31
0.0
  0
LINE
  5
4C5
330
18
100
AcDbEntity
  8
1
 62
     1
100
AcDbLine
 10
27.42838926258531
 20
2.734298553534062
 30
0.0
 11
27.41034765064616
 21
2.769992122175096
 31
0.0
  0
LINE
  5
4C6
330
18
100
AcDbEntity
  8
1
 62
     1
100
AcDbLine
 10
27.41034765064616
 20
2.769992122175096
 30
0.0
 11
27.3906217197176
 21
2.804239113962443
 31
0.0
  0
LINE
  5
4C7
330
18
100
AcDbEntity
  8
1
 62
     1
100
AcDbLine
 10
27.3906217197176
 20
2.804239113962443
 30
0.0
 11
27.36935615119271
 21
2.836902907422945
 31
0.0
  0
LINE
  5
4C8
330
18
100
AcDbEntity
  8
1
 62
     1
100
AcDbLine
 10
27.36935615119271
 20
2.836902907422945
 30
0.0
 11
27.34665244260815
 21
2.867936218910781
 31
0.0
  0
LINE
  5
4C9
330
18
100
AcDbEntity
  8
1
 62
     1
100
AcDbLine
 10
27.34665244260815
 20
2.867936218910781
 30
0.0
 11
27.32265463142783
 21
2.897244496099986
 31
0.0
  0
LINE
  5
4CA
330
18
100
AcDbEntity
  8
1
 62
     1
100
AcDbLine
 10
27.32265463142783
 20
2.897244496099986
 30
0.0
 11
27.2974586352568
 21
2.92480304326287
 31
0.0
  0
LINE
  5
4CB
330
18
100
AcDbEntity
  8
1
 62
     1
100
AcDbLine
 10
27.2974586352568
 20
2.92480304326287
 30
0.0
 11
27.27119729132872
 21
2.950555065177658
 31
0.0
  0
LINE
  5
4CC
330
18
100
AcDbEntity
  8
1
 62
     1
100
AcDbLine
 10
27.27119729132872
 20
2.950555065177658
 30
0.0
 11
27.24395781512036
 21
2.974492675490556
 31
0.0
  0
LINE
  5
4CD
330
18
100
AcDbEntity
  8
1
 62
     1
100
AcDbLine
 10
27.24395781512036
 20
2.974492675490556
 30
0.0
 11
27.21585605738602
 21
2.996588898366539
 31
0.0
  0
LINE
  5
4CE
330
18
100
AcDbEntity
  8
1
 62
     1
100
AcDbLine
 10
27.21585605738602
 20
2.996588898366539
 30
0.0
 11
27.18696959185538
 21
3.016847245437343
 31
0.0
  0
LINE
  5
4CF
330
18
100
AcDbEntity
  8
1
 62
     1
100
AcDbLine
 10
27.18696959185538
 20
3.016847245437343
 30
0.0
 11
27.15739541116418
 21
3.035261992461906
 31
0.0
  0
LINE
  5
4D0
330
18
100
AcDbEntity
  8
1
 62
     1
100
AcDbLine
 10
27.15739541116418
 20
3.035261992461906
 30
0.0
 11
27.12720202927386
 21
3.051843602185131
 31
0.0
  0
LINE
  5
4D1
330
18
100
AcDbEntity
  8
1
 62
     1
100
AcDbLine
 10
27.12720202927386
 20
3.051843602185131
 30
0.0
 11
27.09646820932094
 21
3.06660008611354
 31
0.0
  0
LINE
  5
4D2
330
18
100
AcDbEntity
  8
1
 62
     1
100
AcDbLine
 10
27.09646820932094
 20
3.06660008611354
 30
0.0
 11
27.0652548907943
 21
3.079545559817036
 31
0.0
  0
LINE
  5
4D3
330
18
100
AcDbEntity
  8
1
 62
     1
100
AcDbLine
 10
27.0652548907943
 20
3.079545559817036
 30
0.0
 11
27.03362449178888
 21
3.090695882117423
 31
0.0
  0
LINE
  5
4D4
330
18
100
AcDbEntity
  8
1
 62
     1
100
AcDbLine
 10
27.03362449178888
 20
3.090695882117423
 30
0.0
 11
27.00163231221285
 21
3.100066607172936
 31
0.0
  0
LINE
  5
4D5
330
18
100
AcDbEntity
  8
1
 62
     1
100
AcDbLine
 10
27.00163231221285
 20
3.100066607172936
 30
0.0
 11
26.96932688308186
 21
3.107677089116732
 31
0.0
  0
LINE
  5
4D6
330
18
100
AcDbEntity
  8
1
 62
     1
100
AcDbLine
 10
26.96932688308186
 20
3.107677089116732
 30
0.0
 11
26.93675371798269
 21
3.113543400282502
 31
0.0
  0
LINE
  5
4D7
330
18
100
AcDbEntity
  8
1
 62
     1
100
AcDbLine
 10
26.93675371798269
 20
3.113543400282502
 30
0.0
 11
26.90394191494958
 21
3.11768592138314
 31
0.0
  0
LINE
  5
4D8
330
18
100
AcDbEntity
  8
1
 62
     1
100
AcDbLine
 10
26.90394191494958
 20
3.11768592138314
 30
0.0
 11
26.87095958458952
 21
3.120118502975295
 31
0.0
  0
LINE
  5
4D9
330
18
100
AcDbEntity
  8
1
 62
     1
100
AcDbLine
 10
26.87095958458952
 20
3.120118502975295
 30
0.0
 11
26.83784613503143
 21
3.120856404297573
 31
0.0
  0
LINE
  5
4DA
330
18
100
AcDbEntity
  8
1
 62
     1
100
AcDbLine
 10
26.83784613503143
 20
3.120856404297573
 30
0.0
 11
26.80461009038351
 21
3.1199172866328
 31
0.0
  0
LINE
  5
4DB
330
18
100
AcDbEntity
  8
1
 62
     1
100
AcDbLine
 10
26.80461009038351
 20
3.1199172866328
 30
0.0
 11
26.7713118102769
 21
3.117316916660403
 31
0.0
  0
LINE
  5
4DC
330
18
100
AcDbEntity
  8
1
 62
     1
100
AcDbLine
 10
26.7713118102769
 20
3.117316916660403
 30
0.0
 11
26.738
 21
3.113070372253208
 31
0.0
  0
LINE
  5
4DD
330
18
100
AcDbEntity
  8
1
 62
     1
100
AcDbLine
 10
27.49999999999999
 20
2.011458870895658
 30
0.0
 11
27.5
 21
2.412820953874462
 31
0.0
  0
LINE
  5
4DE
330
18
100
AcDbEntity
  8
1
 62
     1
100
AcDbLine
 10
27.5
 20
2.011458870895659
 30
0.0
 11
27.5
 21
0.7735586379287958
 31
0.0
  0
LINE
  5
4DF
330
18
100
AcDbEntity
  8
1
 62
     1
100
AcDbLine
 10
27.5
 20
0.616812488638287
 30
0.0
 11
27.5
 21
-0.6460810496090704
 31
0.0
  0
LINE
  5
4E0
330
18
100
AcDbEntity
  8
1
 62
     1
100
AcDbLine
 10
27.5
 20
-0.6460810496090679
 30
0.0
 11
27.5
 21
-1.934735423343438
 31
0.0
  0
LINE
  5
4E1
330
18
100
AcDbEntity
  8
1
 62
     1
100
AcDbLine
 10
27.5
 20
-1.934735423343436
 30
0.0
 11
27.5
 21
-2.410758919041274
 31
0.0
  0
LINE
  5
4E2
330
18
100
AcDbEntity
  8
1
 62
     1
100
AcDbLine
 10
27.5
 20
-2.410758919041274
 30
0.0
 11
27.5
 21
-2.413
 31
0.0
  0
LINE
  5
4E3
330
18
100
AcDbEntity
  8
1
 62
     1
100
AcDbLine
 10
27.5
 20
0.6168124886382845
 30
0.0
 11
26.27668915943862
 21
1.12479810001186
 31
0.0
  0
LINE
  5
4E4
330
18
100
AcDbEntity
  8
1
 62
     1
100
AcDbLine
 10
26.27668915943862
 20
1.12479810001186
 30
0.0
 11
25.66503373915793
 21
1.344098826551691
 31
0.0
  0
LINE
  5
4E5
330
18
100
AcDbEntity
  8
1
 62
     1
100
AcDbLine
 10
25.66503373915793
 20
1.344098826551691
 30
0.0
 11
25.05337831887725
 21
1.533605860213739
 31
0.0
  0
LINE
  5
4E6
330
18
100
AcDbEntity
  8
1
 62
     1
100
AcDbLine
 10
25.05337831887725
 20
1.533605860213739
 30
0.0
 11
24.44172289859656
 21
1.689118104040581
 31
0.0
  0
LINE
  5
4E7
330
18
100
AcDbEntity
  8
1
 62
     1
100
AcDbLine
 10
24.44172289859656
 20
1.689118104040581
 30
0.0
 11
23.83006747831588
 21
1.807187780972324
 31
0.0
  0
LINE
  5
4E8
330
18
100
AcDbEntity
  8
1
 62
     1
100
AcDbLine
 10
23.83006747831588
 20
1.807187780972324
 30
0.0
 11
23.21841205803519
 21
1.885199204827118
 31
0.0
  0
LINE
  5
4E9
330
18
100
AcDbEntity
  8
1
 62
     1
100
AcDbLine
 10
23.21841205803519
 20
1.885199204827118
 30
0.0
 11
22.6067566377545
 21
1.9214210468486
 31
0.0
  0
LINE
  5
4EA
330
18
100
AcDbEntity
  8
1
 62
     1
100
AcDbLine
 10
27.5
 20
0.616812488638287
 30
0.0
 11
27.5
 21
0.7735586379287236
 31
0.0
  0
LINE
  5
4EB
330
18
100
AcDbEntity
  8
1
 62
     1
100
AcDbLine
 10
11.6
 20
0.8025552478859875
 30
0.0
 11
11.6
 21
1.324348552932557
 31
0.0
  0
LINE
  5
4EC
330
18
100
AcDbEntity
  8
1
 62
     1
100
AcDbLine
 10
11.6
 20
1.324348552932557
 30
0.0
 11
11.6
 21
1.324349216469768
 31
0.0
  0
LINE
  5
4ED
330
18
100
AcDbEntity
  8
1
 62
     1
100
AcDbLine
 10
11.6
 20
-3.150579673300228
 30
0.0
 11
11.6
 21
-2.335130163819201
 31
0.0
  0
LINE
  5
4EE
330
18
100
AcDbEntity
  8
1
 62
     1
100
AcDbLine
 10
11.6
 20
-1.347378359153594
 30
0.0
 11
11.6
 21
-2.33512882693006
 31
0.0
  0
LINE
  5
4EF
330
18
100
AcDbEntity
  8
1
 62
     1
100
AcDbLine
 10
11.6
 20
-1.347378359153606
 30
0.0
 11
11.6
 21
-1.347376574725497
 31
0.0
  0
LINE
  5
4F0
330
18
100
AcDbEntity
  8
1
 62
     1
100
AcDbLine
 10
11.6
 20
-1.347376574725497
 30
0.0
 11
11.6
 21
0.8025552478859875
 31
0.0
  0
LINE
  5
4F1
330
18
100
AcDbEntity
  8
1
 62
     1
100
AcDbLine
 10
11.6
 20
2.317855154474482
 30
0.0
 11
11.6
 21
1.324349216469757
 31
0.0
  0
LINE
  5
4F2
330
18
100
AcDbEntity
  8
1
 62
     1
100
AcDbLine
 10
11.6
 20
2.317855492480433
 30
0.0
 11
11.6
 21
3.153621245594116
 31
0.0
  0
LINE
  5
4F3
330
18
100
AcDbEntity
  8
1
 62
     1
100
AcDbLine
 10
19.8132887302729
 20
-3.174999999972908
 30
0.0
 11
19.61181370257988
 21
-3.171174865296944
 31
0.0
  0
LINE
  5
4F4
330
18
100
AcDbEntity
  8
1
 62
     1
100
AcDbLine
 10
19.61181370257988
 20
-3.171174865296944
 30
0.0
 11
19.41033893864357
 21
-3.159711736733515
 31
0.0
  0
LINE
  5
4F5
330
18
100
AcDbEntity
  8
1
 62
     1
100
AcDbLine
 10
19.41033893864357
 20
-3.159711736733515
 30
0.0
 11
19.20885618957886
 21
-3.140634570326134
 31
0.0
  0
LINE
  5
4F6
330
18
100
AcDbEntity
  8
1
 62
     1
100
AcDbLine
 10
19.20885618957886
 20
-3.140634570326134
 30
0.0
 11
19.00738543757211
 21
-3.113993520683405
 31
0.0
  0
LINE
  5
4F7
330
18
100
AcDbEntity
  8
1
 62
     1
100
AcDbLine
 10
19.00738543757211
 20
-3.113993520683405
 30
0.0
 11
18.80590029530759
 21
-3.079848153718031
 31
0.0
  0
LINE
  5
4F8
330
18
100
AcDbEntity
  8
1
 62
     1
100
AcDbLine
 10
18.80590029530759
 20
-3.079848153718031
 30
0.0
 11
18.60442915987504
 21
-3.038285282240326
 31
0.0
  0
LINE
  5
4F9
330
18
100
AcDbEntity
  8
1
 62
     1
100
AcDbLine
 10
18.60442915987504
 20
-3.038285282240326
 30
0.0
 11
18.20147161900267
 21
-2.933316144383788
 31
0.0
  0
LINE
  5
4FA
330
18
100
AcDbEntity
  8
1
 62
     1
100
AcDbLine
 10
18.20147161900267
 20
-2.933316144383788
 30
0.0
 11
17.7985143193722
 21
-2.800097353445257
 31
0.0
  0
LINE
  5
4FB
330
18
100
AcDbEntity
  8
1
 62
     1
100
AcDbLine
 10
17.7985143193722
 20
-2.800097353445257
 30
0.0
 11
17.39555879182873
 21
-2.63991251948229
 31
0.0
  0
LINE
  5
4FC
330
18
100
AcDbEntity
  8
1
 62
     1
100
AcDbLine
 10
17.39555879182873
 20
-2.63991251948229
 30
0.0
 11
16.99260662203761
 21
-2.454305221339219
 31
0.0
  0
LINE
  5
4FD
330
18
100
AcDbEntity
  8
1
 62
     1
100
AcDbLine
 10
16.99260662203761
 20
-2.454305221339219
 30
0.0
 11
16.58965640219176
 21
-2.245062562980556
 31
0.0
  0
LINE
  5
4FE
330
18
100
AcDbEntity
  8
1
 62
     1
100
AcDbLine
 10
16.58965640219176
 20
-2.245062562980556
 30
0.0
 11
16.18670243348877
 21
-2.014196706866135
 31
0.0
  0
LINE
  5
4FF
330
18
100
AcDbEntity
  8
1
 62
     1
100
AcDbLine
 10
16.18670243348877
 20
-2.014196706866135
 30
0.0
 11
15.38078851581005
 21
-1.496677940151581
 31
0.0
  0
LINE
  5
500
330
18
100
AcDbEntity
  8
1
 62
     1
100
AcDbLine
 10
15.38078851581005
 20
-1.496677940151581
 30
0.0
 11
14.57487740569283
 21
-0.9216441536651284
 31
0.0
  0
LINE
  5
501
330
18
100
AcDbEntity
  8
1
 62
     1
100
AcDbLine
 10
14.57487740569283
 20
-0.9216441536651284
 30
0.0
 11
13.36602929533796
 21
-0.0000000000005955
 31
0.0
  0
LINE
  5
502
330
18
100
AcDbEntity
  8
1
 62
     1
100
AcDbLine
 10
21.4062216281053
 20
-3.17499999998879
 30
0.0
 11
21.12137400401674
 21
-3.167356687599597
 31
0.0
  0
LINE
  5
503
330
18
100
AcDbEntity
  8
1
 62
     1
100
AcDbLine
 10
21.12137400401674
 20
-3.167356687599597
 30
0.0
 11
20.8365297107836
 21
-3.144465119771767
 31
0.0
  0
LINE
  5
504
330
18
100
AcDbEntity
  8
1
 62
     1
100
AcDbLine
 10
20.8365297107836
 20
-3.144465119771767
 30
0.0
 11
20.55168647505104
 21
-3.106435752531002
 31
0.0
  0
LINE
  5
505
330
18
100
AcDbEntity
  8
1
 62
     1
100
AcDbLine
 10
20.55168647505104
 20
-3.106435752531002
 30
0.0
 11
20.2668404693788
 21
-3.053451086387622
 31
0.0
  0
LINE
  5
506
330
18
100
AcDbEntity
  8
1
 62
     1
100
AcDbLine
 10
20.2668404693788
 20
-3.053451086387622
 30
0.0
 11
19.98198886780584
 21
-2.985764477874997
 31
0.0
  0
LINE
  5
507
330
18
100
AcDbEntity
  8
1
 62
     1
100
AcDbLine
 10
19.98198886780584
 20
-2.985764477874997
 30
0.0
 11
19.69713929481471
 21
-2.903702687970958
 31
0.0
  0
LINE
  5
508
330
18
100
AcDbEntity
  8
1
 62
     1
100
AcDbLine
 10
19.69713929481471
 20
-2.903702687970958
 30
0.0
 11
19.41229444777484
 21
-2.807663041411436
 31
0.0
  0
LINE
  5
509
330
18
100
AcDbEntity
  8
1
 62
     1
100
AcDbLine
 10
19.41229444777484
 20
-2.807663041411436
 30
0.0
 11
19.12745119144949
 21
-2.698107606494953
 31
0.0
  0
LINE
  5
50A
330
18
100
AcDbEntity
  8
1
 62
     1
100
AcDbLine
 10
19.12745119144949
 20
-2.698107606494953
 30
0.0
 11
18.84260664707337
 21
-2.575562272866165
 31
0.0
  0
LINE
  5
50B
330
18
100
AcDbEntity
  8
1
 62
     1
100
AcDbLine
 10
18.84260664707337
 20
-2.575562272866165
 30
0.0
 11
18.27290531821534
 21
-2.293916641660684
 31
0.0
  0
LINE
  5
50C
330
18
100
AcDbEntity
  8
1
 62
     1
100
AcDbLine
 10
18.27290531821534
 20
-2.293916641660684
 30
0.0
 11
17.70321623105454
 21
-1.968154407093101
 31
0.0
  0
LINE
  5
50D
330
18
100
AcDbEntity
  8
1
 62
     1
100
AcDbLine
 10
17.70321623105454
 20
-1.968154407093101
 30
0.0
 11
17.13352518262131
 21
-1.604536171705299
 31
0.0
  0
LINE
  5
50E
330
18
100
AcDbEntity
  8
1
 62
     1
100
AcDbLine
 10
17.13352518262131
 20
-1.604536171705299
 30
0.0
 11
15.99413828179927
 21
-0.7922985063197931
 31
0.0
  0
LINE
  5
50F
330
18
100
AcDbEntity
  8
1
 62
     1
100
AcDbLine
 10
15.99413828179927
 20
-0.7922985063197931
 30
0.0
 11
14.85476737964791
 21
0.0805912342366668
 31
0.0
  0
LINE
  5
510
330
18
100
AcDbEntity
  8
1
 62
     1
100
AcDbLine
 10
14.85476737964791
 20
0.0805912342366668
 30
0.0
 11
13.71537649021503
 21
0.9473246062145616
 31
0.0
  0
LINE
  5
511
330
18
100
AcDbEntity
  8
1
 62
     1
100
AcDbLine
 10
13.71537649021503
 20
0.9473246062145616
 30
0.0
 11
13.00325882972487
 21
1.456235581741089
 31
0.0
  0
LINE
  5
512
330
18
100
AcDbEntity
  8
1
 62
     1
100
AcDbLine
 10
13.00325882972487
 20
1.456235581741089
 30
0.0
 11
12.29114120348637
 21
1.921420937069243
 31
0.0
  0
LINE
  5
513
330
18
100
AcDbEntity
  8
1
 62
     1
100
AcDbLine
 10
19.81328873027291
 20
-3.174999999999999
 30
0.0
 11
21.4062216281053
 21
-3.174999999999999
 31
0.0
  0
LINE
  5
514
330
18
100
AcDbEntity
  8
1
 62
     1
100
AcDbLine
 10
24.97109624963946
 20
-3.174999999955937
 30
0.0
 11
24.76961963243039
 21
-3.171174810382298
 31
0.0
  0
LINE
  5
515
330
18
100
AcDbEntity
  8
1
 62
     1
100
AcDbLine
 10
24.76961963243039
 20
-3.171174810382298
 30
0.0
 11
24.56814592976039
 21
-3.159711649750194
 31
0.0
  0
LINE
  5
516
330
18
100
AcDbEntity
  8
1
 62
     1
100
AcDbLine
 10
24.56814592976039
 20
-3.159711649750194
 30
0.0
 11
24.36666230585464
 21
-3.140634454932651
 31
0.0
  0
LINE
  5
517
330
18
100
AcDbEntity
  8
1
 62
     1
100
AcDbLine
 10
24.36666230585464
 20
-3.140634454932651
 30
0.0
 11
24.16519181347562
 21
-3.113993280611048
 31
0.0
  0
LINE
  5
518
330
18
100
AcDbEntity
  8
1
 62
     1
100
AcDbLine
 10
24.16519181347562
 20
-3.113993280611048
 30
0.0
 11
23.96370685994715
 21
-3.079848031260203
 31
0.0
  0
LINE
  5
519
330
18
100
AcDbEntity
  8
1
 62
     1
100
AcDbLine
 10
23.96370685994715
 20
-3.079848031260203
 30
0.0
 11
23.7622351834717
 21
-3.038284905367727
 31
0.0
  0
LINE
  5
51A
330
18
100
AcDbEntity
  8
1
 62
     1
100
AcDbLine
 10
23.7622351834717
 20
-3.038284905367727
 30
0.0
 11
23.35927756702108
 21
-2.933315681406483
 31
0.0
  0
LINE
  5
51B
330
18
100
AcDbEntity
  8
1
 62
     1
100
AcDbLine
 10
23.35927756702108
 20
-2.933315681406483
 30
0.0
 11
22.95632047578221
 21
-2.800096888413973
 31
0.0
  0
LINE
  5
51C
330
18
100
AcDbEntity
  8
1
 62
     1
100
AcDbLine
 10
22.95632047578221
 20
-2.800096888413973
 30
0.0
 11
22.55336543823062
 21
-2.63991217366284
 31
0.0
  0
LINE
  5
51D
330
18
100
AcDbEntity
  8
1
 62
     1
100
AcDbLine
 10
22.55336543823062
 20
-2.63991217366284
 30
0.0
 11
22.1504140318468
 21
-2.454305156586102
 31
0.0
  0
LINE
  5
51E
330
18
100
AcDbEntity
  8
1
 62
     1
100
AcDbLine
 10
22.1504140318468
 20
-2.454305156586102
 30
0.0
 11
21.74746325284642
 21
-2.245062145467497
 31
0.0
  0
LINE
  5
51F
330
18
100
AcDbEntity
  8
1
 62
     1
100
AcDbLine
 10
21.74746325284642
 20
-2.245062145467497
 30
0.0
 11
21.3445087059248
 21
-2.014195922464555
 31
0.0
  0
LINE
  5
520
330
18
100
AcDbEntity
  8
1
 62
     1
100
AcDbLine
 10
21.3445087059248
 20
-2.014195922464555
 30
0.0
 11
20.53859451342143
 21
-1.496676895241481
 31
0.0
  0
LINE
  5
521
330
18
100
AcDbEntity
  8
1
 62
     1
100
AcDbLine
 10
20.53859451342143
 20
-1.496676895241481
 30
0.0
 11
19.73268425721659
 21
-0.9216436843375552
 31
0.0
  0
LINE
  5
522
330
18
100
AcDbEntity
  8
1
 62
     1
100
AcDbLine
 10
19.73268425721659
 20
-0.9216436843375552
 30
0.0
 11
18.52383684625357
 21
-0.0000000000021055
 31
0.0
  0
LINE
  5
523
330
18
100
AcDbEntity
  8
1
 62
     1
100
AcDbLine
 10
26.56402940567772
 20
-3.174999999958953
 30
0.0
 11
26.27918010626018
 21
-3.167356691930618
 31
0.0
  0
LINE
  5
524
330
18
100
AcDbEntity
  8
1
 62
     1
100
AcDbLine
 10
26.27918010626018
 20
-3.167356691930618
 30
0.0
 11
25.99433519567496
 21
-3.144464930772212
 31
0.0
  0
LINE
  5
525
330
18
100
AcDbEntity
  8
1
 62
     1
100
AcDbLine
 10
25.99433519567496
 20
-3.144464930772212
 30
0.0
 11
25.70949218789343
 21
-3.106435400960794
 31
0.0
  0
LINE
  5
526
330
18
100
AcDbEntity
  8
1
 62
     1
100
AcDbLine
 10
25.70949218789343
 20
-3.106435400960794
 30
0.0
 11
25.42464715317392
 21
-3.053450752116379
 31
0.0
  0
LINE
  5
527
330
18
100
AcDbEntity
  8
1
 62
     1
100
AcDbLine
 10
25.42464715317392
 20
-3.053450752116379
 30
0.0
 11
25.13979682457238
 21
-2.985764594105376
 31
0.0
  0
LINE
  5
528
330
18
100
AcDbEntity
  8
1
 62
     1
100
AcDbLine
 10
25.13979682457238
 20
-2.985764594105376
 30
0.0
 11
24.85494583376687
 21
-2.903702561840312
 31
0.0
  0
LINE
  5
529
330
18
100
AcDbEntity
  8
1
 62
     1
100
AcDbLine
 10
24.85494583376687
 20
-2.903702561840312
 30
0.0
 11
24.57010043873516
 21
-2.807662513647393
 31
0.0
  0
LINE
  5
52A
330
18
100
AcDbEntity
  8
1
 62
     1
100
AcDbLine
 10
24.57010043873516
 20
-2.807662513647393
 30
0.0
 11
24.28525712484066
 21
-2.69810694963558
 31
0.0
  0
LINE
  5
52B
330
18
100
AcDbEntity
  8
1
 62
     1
100
AcDbLine
 10
24.28525712484066
 20
-2.69810694963558
 30
0.0
 11
24.00041325491963
 21
-2.575561796319826
 31
0.0
  0
LINE
  5
52C
330
18
100
AcDbEntity
  8
1
 62
     1
100
AcDbLine
 10
24.00041325491963
 20
-2.575561796319826
 30
0.0
 11
23.43071267206197
 21
-2.293916639200091
 31
0.0
  0
LINE
  5
52D
330
18
100
AcDbEntity
  8
1
 62
     1
100
AcDbLine
 10
23.43071267206197
 20
-2.293916639200091
 30
0.0
 11
22.86102251941872
 21
-1.96815363234388
 31
0.0
  0
LINE
  5
52E
330
18
100
AcDbEntity
  8
1
 62
     1
100
AcDbLine
 10
22.86102251941872
 20
-1.96815363234388
 30
0.0
 11
22.29133298203589
 21
-1.60453633572158
 31
0.0
  0
LINE
  5
52F
330
18
100
AcDbEntity
  8
1
 62
     1
100
AcDbLine
 10
22.29133298203589
 20
-1.60453633572158
 30
0.0
 11
21.15194516815548
 21
-0.7922979825131723
 31
0.0
  0
LINE
  5
530
330
18
100
AcDbEntity
  8
1
 62
     1
100
AcDbLine
 10
21.15194516815548
 20
-0.7922979825131723
 30
0.0
 11
20.01257486846175
 21
0.0805910153378261
 31
0.0
  0
LINE
  5
531
330
18
100
AcDbEntity
  8
1
 62
     1
100
AcDbLine
 10
20.01257486846175
 20
0.0805910153378261
 30
0.0
 11
18.8731837579736
 21
0.9473248085778484
 31
0.0
  0
LINE
  5
532
330
18
100
AcDbEntity
  8
1
 62
     1
100
AcDbLine
 10
18.8731837579736
 20
0.9473248085778484
 30
0.0
 11
18.16106631529119
 21
1.456235691719888
 31
0.0
  0
LINE
  5
533
330
18
100
AcDbEntity
  8
1
 62
     1
100
AcDbLine
 10
18.16106631529119
 20
1.456235691719888
 30
0.0
 11
17.44894887368928
 21
1.921420923586034
 31
0.0
  0
LINE
  5
534
330
18
100
AcDbEntity
  8
1
 62
     1
100
AcDbLine
 10
24.97109624963947
 20
-3.174999999999998
 30
0.0
 11
26.56402940567773
 21
-3.174999999999998
 31
0.0
  0
LINE
  5
535
330
18
100
AcDbEntity
  8
1
 62
     1
100
AcDbLine
 10
27.5
 20
-2.413
 30
0.0
 11
27.5
 21
-2.410758919041274
 31
0.0
  0
LINE
  5
536
330
18
100
AcDbEntity
  8
1
 62
     1
100
AcDbLine
 10
27.49506838807601
 20
-2.499553202958614
 30
0.0
 11
27.49157662502931
 21
-2.525817827194491
 31
0.0
  0
LINE
  5
537
330
18
100
AcDbEntity
  8
1
 62
     1
100
AcDbLine
 10
27.49157662502931
 20
-2.525817827194491
 30
0.0
 11
27.48701771334993
 21
-2.552393118321008
 31
0.0
  0
LINE
  5
538
330
18
100
AcDbEntity
  8
1
 62
     1
100
AcDbLine
 10
27.48701771334993
 20
-2.552393118321008
 30
0.0
 11
27.48130654591295
 21
-2.579287529738989
 31
0.0
  0
LINE
  5
539
330
18
100
AcDbEntity
  8
1
 62
     1
100
AcDbLine
 10
27.48130654591295
 20
-2.579287529738989
 30
0.0
 11
27.47434876880402
 21
-2.606526697595905
 31
0.0
  0
LINE
  5
53A
330
18
100
AcDbEntity
  8
1
 62
     1
100
AcDbLine
 10
27.47434876880402
 20
-2.606526697595905
 30
0.0
 11
27.46604757416613
 21
-2.634109358295229
 31
0.0
  0
LINE
  5
53B
330
18
100
AcDbEntity
  8
1
 62
     1
100
AcDbLine
 10
27.46604757416613
 20
-2.634109358295229
 30
0.0
 11
27.45629727674367
 21
-2.662045777066826
 31
0.0
  0
LINE
  5
53C
330
18
100
AcDbEntity
  8
1
 62
     1
100
AcDbLine
 10
27.45629727674367
 20
-2.662045777066826
 30
0.0
 11
27.44499219837293
 21
-2.690322208605871
 31
0.0
  0
LINE
  5
53D
330
18
100
AcDbEntity
  8
1
 62
     1
100
AcDbLine
 10
27.44499219837293
 20
-2.690322208605871
 30
0.0
 11
27.432026138385
 21
-2.718910837152888
 31
0.0
  0
LINE
  5
53E
330
18
100
AcDbEntity
  8
1
 62
     1
100
AcDbLine
 10
27.432026138385
 20
-2.718910837152888
 30
0.0
 11
27.41729096651995
 21
-2.747781648508011
 31
0.0
  0
LINE
  5
53F
330
18
100
AcDbEntity
  8
1
 62
     1
100
AcDbLine
 10
27.41729096651995
 20
-2.747781648508011
 30
0.0
 11
27.40070568069413
 21
-2.776841416279498
 31
0.0
  0
LINE
  5
540
330
18
100
AcDbEntity
  8
1
 62
     1
100
AcDbLine
 10
27.40070568069413
 20
-2.776841416279498
 30
0.0
 11
27.38217457391474
 21
-2.806032469132905
 31
0.0
  0
LINE
  5
541
330
18
100
AcDbEntity
  8
1
 62
     1
100
AcDbLine
 10
27.38217457391474
 20
-2.806032469132905
 30
0.0
 11
27.36168616138369
 21
-2.835174142787827
 31
0.0
  0
LINE
  5
542
330
18
100
AcDbEntity
  8
1
 62
     1
100
AcDbLine
 10
27.36168616138369
 20
-2.835174142787827
 30
0.0
 11
27.33921158579147
 21
-2.864134018075662
 31
0.0
  0
LINE
  5
543
330
18
100
AcDbEntity
  8
1
 62
     1
100
AcDbLine
 10
27.33921158579147
 20
-2.864134018075662
 30
0.0
 11
27.31479596012001
 21
-2.892711530300526
 31
0.0
  0
LINE
  5
544
330
18
100
AcDbEntity
  8
1
 62
     1
100
AcDbLine
 10
27.31479596012001
 20
-2.892711530300526
 30
0.0
 11
27.28853203708901
 21
-2.920691633517897
 31
0.0
  0
LINE
  5
545
330
18
100
AcDbEntity
  8
1
 62
     1
100
AcDbLine
 10
27.28853203708901
 20
-2.920691633517897
 30
0.0
 11
27.26055086757324
 21
-2.947856484908154
 31
0.0
  0
LINE
  5
546
330
18
100
AcDbEntity
  8
1
 62
     1
100
AcDbLine
 10
27.26055086757324
 20
-2.947856484908154
 30
0.0
 11
27.23105453706911
 21
-2.973964672918126
 31
0.0
  0
LINE
  5
547
330
18
100
AcDbEntity
  8
1
 62
     1
100
AcDbLine
 10
27.23105453706911
 20
-2.973964672918126
 30
0.0
 11
27.20026451685608
 21
-2.998810845119455
 31
0.0
  0
LINE
  5
548
330
18
100
AcDbEntity
  8
1
 62
     1
100
AcDbLine
 10
27.20026451685608
 20
-2.998810845119455
 30
0.0
 11
27.16840632459035
 21
-3.022224445841156
 31
0.0
  0
LINE
  5
549
330
18
100
AcDbEntity
  8
1
 62
     1
100
AcDbLine
 10
27.16840632459035
 20
-3.022224445841156
 30
0.0
 11
27.13573314337476
 21
-3.044052046124093
 31
0.0
  0
LINE
  5
54A
330
18
100
AcDbEntity
  8
1
 62
     1
100
AcDbLine
 10
27.13573314337476
 20
-3.044052046124093
 30
0.0
 11
27.10246970186088
 21
-3.064195648078889
 31
0.0
  0
LINE
  5
54B
330
18
100
AcDbEntity
  8
1
 62
     1
100
AcDbLine
 10
27.10246970186088
 20
-3.064195648078889
 30
0.0
 11
27.06880989916987
 21
-3.082596612153878
 31
0.0
  0
LINE
  5
54C
330
18
100
AcDbEntity
  8
1
 62
     1
100
AcDbLine
 10
27.06880989916987
 20
-3.082596612153878
 30
0.0
 11
27.03494123594454
 21
-3.099217205289713
 31
0.0
  0
LINE
  5
54D
330
18
100
AcDbEntity
  8
1
 62
     1
100
AcDbLine
 10
27.03494123594454
 20
-3.099217205289713
 30
0.0
 11
27.00101317012829
 21
-3.114053688331161
 31
0.0
  0
LINE
  5
54E
330
18
100
AcDbEntity
  8
1
 62
     1
100
AcDbLine
 10
27.00101317012829
 20
-3.114053688331161
 30
0.0
 11
26.96714159112455
 21
-3.127123156464511
 31
0.0
  0
LINE
  5
54F
330
18
100
AcDbEntity
  8
1
 62
     1
100
AcDbLine
 10
26.96714159112455
 20
-3.127123156464511
 30
0.0
 11
26.93342301746819
 21
-3.138453024121481
 31
0.0
  0
LINE
  5
550
330
18
100
AcDbEntity
  8
1
 62
     1
100
AcDbLine
 10
26.93342301746819
 20
-3.138453024121481
 30
0.0
 11
26.89993765436186
 21
-3.148080832594913
 31
0.0
  0
LINE
  5
551
330
18
100
AcDbEntity
  8
1
 62
     1
100
AcDbLine
 10
26.89993765436186
 20
-3.148080832594913
 30
0.0
 11
26.86677082664375
 21
-3.156040785566254
 31
0.0
  0
LINE
  5
552
330
18
100
AcDbEntity
  8
1
 62
     1
100
AcDbLine
 10
26.86677082664375
 20
-3.156040785566254
 30
0.0
 11
26.83394734425669
 21
-3.162384933102711
 31
0.0
  0
LINE
  5
553
330
18
100
AcDbEntity
  8
1
 62
     1
100
AcDbLine
 10
26.83394734425669
 20
-3.162384933102711
 30
0.0
 11
26.80153242678225
 21
-3.167153091132238
 31
0.0
  0
LINE
  5
554
330
18
100
AcDbEntity
  8
1
 62
     1
100
AcDbLine
 10
26.80153242678225
 20
-3.167153091132238
 30
0.0
 11
26.76953398152774
 21
-3.170393813246142
 31
0.0
  0
LINE
  5
555
330
18
100
AcDbEntity
  8
1
 62
     1
100
AcDbLine
 10
26.76953398152774
 20
-3.170393813246142
 30
0.0
 11
26.73800000000001
 21
-3.172148364112306
 31
0.0
  0
ARC
  5
556
330
18
100
AcDbEntity
  8
1
 62
     1
100
AcDbCircle
 10
26.73798257971874
 20
-2.412998869613089
 30
0.0
 40
0.7620174311467196
100
AcDbArc
 50
353.4779391482337
 51
359.9999150066685
  0
LINE
  5
557
330
18
100
AcDbEntity
  8
1
 62
     1
100
AcDbLine
 10
14.65548118304955
 20
-3.174999999964493
 30
0.0
 11
14.46451511864481
 21
-3.171563350002224
 31
0.0
  0
LINE
  5
558
330
18
100
AcDbEntity
  8
1
 62
     1
100
AcDbLine
 10
14.46451511864481
 20
-3.171563350002224
 30
0.0
 11
14.27354705522145
 21
-3.161263789597691
 31
0.0
  0
LINE
  5
559
330
18
100
AcDbEntity
  8
1
 62
     1
100
AcDbLine
 10
14.27354705522145
 20
-3.161263789597691
 30
0.0
 11
14.08257596355063
 21
-3.144120243113464
 31
0.0
  0
LINE
  5
55A
330
18
100
AcDbEntity
  8
1
 62
     1
100
AcDbLine
 10
14.08257596355063
 20
-3.144120243113464
 30
0.0
 11
13.89161174133185
 21
-3.120173757510721
 31
0.0
  0
LINE
  5
55B
330
18
100
AcDbEntity
  8
1
 62
     1
100
AcDbLine
 10
13.89161174133185
 20
-3.120173757510721
 30
0.0
 11
13.50967508604205
 21
-3.052085192014664
 31
0.0
  0
LINE
  5
55C
330
18
100
AcDbEntity
  8
1
 62
     1
100
AcDbLine
 10
13.50967508604205
 20
-3.052085192014664
 30
0.0
 11
13.12773738947304
 21
-2.957587117842743
 31
0.0
  0
LINE
  5
55D
330
18
100
AcDbEntity
  8
1
 62
     1
100
AcDbLine
 10
13.12773738947304
 20
-2.957587117842743
 30
0.0
 11
12.74579895056447
 21
-2.837497155332877
 31
0.0
  0
LINE
  5
55E
330
18
100
AcDbEntity
  8
1
 62
     1
100
AcDbLine
 10
12.74579895056447
 20
-2.837497155332877
 30
0.0
 11
12.36386005395827
 21
-2.692854458440298
 31
0.0
  0
LINE
  5
55F
330
18
100
AcDbEntity
  8
1
 62
     1
100
AcDbLine
 10
12.36386005395827
 20
-2.692854458440298
 30
0.0
 11
11.98192103017879
 21
-2.524910684605901
 31
0.0
  0
LINE
  5
560
330
18
100
AcDbEntity
  8
1
 62
     1
100
AcDbLine
 10
11.98192103017879
 20
-2.524910684605901
 30
0.0
 11
11.6
 21
-2.33512882693006
 31
0.0
  0
LINE
  5
561
330
18
100
AcDbEntity
  8
1
 62
     1
100
AcDbLine
 10
16.24841434663261
 20
-3.174999999989156
 30
0.0
 11
15.95789249224362
 21
-3.167049118390971
 31
0.0
  0
LINE
  5
562
330
18
100
AcDbEntity
  8
1
 62
     1
100
AcDbLine
 10
15.95789249224362
 20
-3.167049118390971
 30
0.0
 11
15.66736916936979
 21
-3.143238044473519
 31
0.0
  0
LINE
  5
563
330
18
100
AcDbEntity
  8
1
 62
     1
100
AcDbLine
 10
15.66736916936979
 20
-3.143238044473519
 30
0.0
 11
15.37684533941334
 21
-3.103685636234521
 31
0.0
  0
LINE
  5
564
330
18
100
AcDbEntity
  8
1
 62
     1
100
AcDbLine
 10
15.37684533941334
 20
-3.103685636234521
 30
0.0
 11
15.08631814330021
 21
-3.048589243819614
 31
0.0
  0
LINE
  5
565
330
18
100
AcDbEntity
  8
1
 62
     1
100
AcDbLine
 10
15.08631814330021
 20
-3.048589243819614
 30
0.0
 11
14.79578643382932
 21
-2.978223325164868
 31
0.0
  0
LINE
  5
566
330
18
100
AcDbEntity
  8
1
 62
     1
100
AcDbLine
 10
14.79578643382932
 20
-2.978223325164868
 30
0.0
 11
14.50525832817748
 21
-2.892941910650792
 31
0.0
  0
LINE
  5
567
330
18
100
AcDbEntity
  8
1
 62
     1
100
AcDbLine
 10
14.50525832817748
 20
-2.892941910650792
 30
0.0
 11
14.21473377965866
 21
-2.793173558741086
 31
0.0
  0
LINE
  5
568
330
18
100
AcDbEntity
  8
1
 62
     1
100
AcDbLine
 10
14.21473377965866
 20
-2.793173558741086
 30
0.0
 11
13.92421059281151
 21
-2.679417557675361
 31
0.0
  0
LINE
  5
569
330
18
100
AcDbEntity
  8
1
 62
     1
100
AcDbLine
 10
13.92421059281151
 20
-2.679417557675361
 30
0.0
 11
13.6336864440161
 21
-2.552242488924878
 31
0.0
  0
LINE
  5
56A
330
18
100
AcDbEntity
  8
1
 62
     1
100
AcDbLine
 10
13.6336864440161
 20
-2.552242488924878
 30
0.0
 11
13.05262670580103
 21
-2.260241840723576
 31
0.0
  0
LINE
  5
56B
330
18
100
AcDbEntity
  8
1
 62
     1
100
AcDbLine
 10
13.05262670580103
 20
-2.260241840723576
 30
0.0
 11
12.47157568099048
 21
-1.923021980791554
 31
0.0
  0
LINE
  5
56C
330
18
100
AcDbEntity
  8
1
 62
     1
100
AcDbLine
 10
12.47157568099048
 20
-1.923021980791554
 30
0.0
 11
11.6
 21
-1.347376574725499
 31
0.0
  0
LINE
  5
56D
330
18
100
AcDbEntity
  8
1
 62
     1
100
AcDbLine
 10
14.65548118304956
 20
-3.174999999999999
 30
0.0
 11
16.24841434663261
 21
-3.174999999999999
 31
0.0
  0
ARC
  5
56E
330
18
100
AcDbEntity
  8
1
 62
     1
100
AcDbCircle
 10
10.99730256069063
 20
2.809144991101954
 30
0.0
 40
5.990572422798999
100
AcDbArc
 50
275.7745985794197
 51
288.2467873582764
  0
LINE
  5
56F
330
18
100
AcDbEntity
  8
1
 62
     1
100
AcDbLine
 10
22.60675654169739
 20
1.92142089086549
 30
0.0
 11
22.13432296838227
 21
2.198998609584569
 31
0.0
  0
LINE
  5
570
330
18
100
AcDbEntity
  8
1
 62
     1
100
AcDbLine
 10
22.13432296838227
 20
2.198998609584569
 30
0.0
 11
21.66189798784078
 21
2.44747021365872
 31
0.0
  0
LINE
  5
571
330
18
100
AcDbEntity
  8
1
 62
     1
100
AcDbLine
 10
21.66189798784078
 20
2.44747021365872
 30
0.0
 11
21.18946099490056
 21
2.663558350094794
 31
0.0
  0
LINE
  5
572
330
18
100
AcDbEntity
  8
1
 62
     1
100
AcDbLine
 10
21.18946099490056
 20
2.663558350094794
 30
0.0
 11
20.71702948279435
 21
2.844395089670589
 31
0.0
  0
LINE
  5
573
330
18
100
AcDbEntity
  8
1
 62
     1
100
AcDbLine
 10
20.71702948279435
 20
2.844395089670589
 30
0.0
 11
20.48081326123553
 21
2.920827244754942
 31
0.0
  0
LINE
  5
574
330
18
100
AcDbEntity
  8
1
 62
     1
100
AcDbLine
 10
20.48081326123553
 20
2.920827244754942
 30
0.0
 11
20.24460319368122
 21
2.987587023171025
 31
0.0
  0
LINE
  5
575
330
18
100
AcDbEntity
  8
1
 62
     1
100
AcDbLine
 10
20.24460319368122
 20
2.987587023171025
 30
0.0
 11
20.00838293151097
 21
3.044457298412446
 31
0.0
  0
LINE
  5
576
330
18
100
AcDbEntity
  8
1
 62
     1
100
AcDbLine
 10
20.00838293151097
 20
3.044457298412446
 30
0.0
 11
19.77216592972265
 21
3.091244803377402
 31
0.0
  0
LINE
  5
577
330
18
100
AcDbEntity
  8
1
 62
     1
100
AcDbLine
 10
19.77216592972265
 20
3.091244803377402
 30
0.0
 11
19.53595583047995
 21
3.127796000161847
 31
0.0
  0
LINE
  5
578
330
18
100
AcDbEntity
  8
1
 62
     1
100
AcDbLine
 10
19.53595583047995
 20
3.127796000161847
 30
0.0
 11
19.29973711965037
 21
3.153992304827011
 31
0.0
  0
LINE
  5
579
330
18
100
AcDbEntity
  8
1
 62
     1
100
AcDbLine
 10
19.29973711965037
 20
3.153992304827011
 30
0.0
 11
19.06351842513314
 21
3.169743518462048
 31
0.0
  0
LINE
  5
57A
330
18
100
AcDbEntity
  8
1
 62
     1
100
AcDbLine
 10
19.06351842513314
 20
3.169743518462048
 30
0.0
 11
18.82731802937277
 21
3.174999999999999
 31
0.0
  0
LINE
  5
57B
330
18
100
AcDbEntity
  8
1
 62
     1
100
AcDbLine
 10
23.68164437117087
 20
-0.0000000000153639
 30
0.0
 11
22.06982758769564
 21
1.215020960992267
 31
0.0
  0
LINE
  5
57C
330
18
100
AcDbEntity
  8
1
 62
     1
100
AcDbLine
 10
22.06982758769564
 20
1.215020960992267
 30
0.0
 11
21.2639146821109
 21
1.763940080502091
 31
0.0
  0
LINE
  5
57D
330
18
100
AcDbEntity
  8
1
 62
     1
100
AcDbLine
 10
21.2639146821109
 20
1.763940080502091
 30
0.0
 11
20.8609623879014
 21
2.014202210969671
 31
0.0
  0
LINE
  5
57E
330
18
100
AcDbEntity
  8
1
 62
     1
100
AcDbLine
 10
20.8609623879014
 20
2.014202210969671
 30
0.0
 11
20.4580122462604
 21
2.245065229521831
 31
0.0
  0
LINE
  5
57F
330
18
100
AcDbEntity
  8
1
 62
     1
100
AcDbLine
 10
20.4580122462604
 20
2.245065229521831
 30
0.0
 11
20.05505839312152
 21
2.454309062167879
 31
0.0
  0
LINE
  5
580
330
18
100
AcDbEntity
  8
1
 62
     1
100
AcDbLine
 10
20.05505839312152
 20
2.454309062167879
 30
0.0
 11
19.65210198217516
 21
2.639917668850646
 31
0.0
  0
LINE
  5
581
330
18
100
AcDbEntity
  8
1
 62
     1
100
AcDbLine
 10
19.65210198217516
 20
2.639917668850646
 30
0.0
 11
19.24914457700178
 21
2.800102603893966
 31
0.0
  0
LINE
  5
582
330
18
100
AcDbEntity
  8
1
 62
     1
100
AcDbLine
 10
19.24914457700178
 20
2.800102603893966
 30
0.0
 11
18.84618780700955
 21
2.933320565540819
 31
0.0
  0
LINE
  5
583
330
18
100
AcDbEntity
  8
1
 62
     1
100
AcDbLine
 10
18.84618780700955
 20
2.933320565540819
 30
0.0
 11
18.44323333351844
 21
3.038288250057423
 31
0.0
  0
LINE
  5
584
330
18
100
AcDbEntity
  8
1
 62
     1
100
AcDbLine
 10
18.44323333351844
 20
3.038288250057423
 30
0.0
 11
18.24176090354819
 21
3.079850069796135
 31
0.0
  0
LINE
  5
585
330
18
100
AcDbEntity
  8
1
 62
     1
100
AcDbLine
 10
18.24176090354819
 20
3.079850069796135
 30
0.0
 11
18.04028277633732
 21
3.1139947131237
 31
0.0
  0
LINE
  5
586
330
18
100
AcDbEntity
  8
1
 62
     1
100
AcDbLine
 10
18.04028277633732
 20
3.1139947131237
 30
0.0
 11
17.83880361105926
 21
3.14063605675199
 31
0.0
  0
LINE
  5
587
330
18
100
AcDbEntity
  8
1
 62
     1
100
AcDbLine
 10
17.83880361105926
 20
3.14063605675199
 30
0.0
 11
17.63733171519002
 21
3.159711813538781
 31
0.0
  0
LINE
  5
588
330
18
100
AcDbEntity
  8
1
 62
     1
100
AcDbLine
 10
17.63733171519002
 20
3.159711813538781
 30
0.0
 11
17.43584727050951
 21
3.171175667076906
 31
0.0
  0
LINE
  5
589
330
18
100
AcDbEntity
  8
1
 62
     1
100
AcDbLine
 10
17.43584727050951
 20
3.171175667076906
 30
0.0
 11
17.23438496032848
 21
3.174999999999998
 31
0.0
  0
LINE
  5
58A
330
18
100
AcDbEntity
  8
1
 62
     1
100
AcDbLine
 10
23.68164437118176
 20
-0.0000000000007565
 30
0.0
 11
22.12347054884143
 21
0.7130082899285503
 31
0.0
  0
LINE
  5
58B
330
18
100
AcDbEntity
  8
1
 62
     1
100
AcDbLine
 10
22.12347054884143
 20
0.7130082899285503
 30
0.0
 11
21.34438363767127
 21
1.037379847362285
 31
0.0
  0
LINE
  5
58C
330
18
100
AcDbEntity
  8
1
 62
     1
100
AcDbLine
 10
21.34438363767127
 20
1.037379847362285
 30
0.0
 11
20.56529672650111
 21
1.324487146175935
 31
0.0
  0
LINE
  5
58D
330
18
100
AcDbEntity
  8
1
 62
     1
100
AcDbLine
 10
20.56529672650111
 20
1.324487146175935
 30
0.0
 11
19.78620981533094
 21
1.564016341936953
 31
0.0
  0
LINE
  5
58E
330
18
100
AcDbEntity
  8
1
 62
     1
100
AcDbLine
 10
19.78620981533094
 20
1.564016341936953
 30
0.0
 11
19.39666635974586
 21
1.66317458123068
 31
0.0
  0
LINE
  5
58F
330
18
100
AcDbEntity
  8
1
 62
     1
100
AcDbLine
 10
19.39666635974586
 20
1.66317458123068
 30
0.0
 11
19.00712290416078
 21
1.747363113594493
 31
0.0
  0
LINE
  5
590
330
18
100
AcDbEntity
  8
1
 62
     1
100
AcDbLine
 10
19.00712290416078
 20
1.747363113594493
 30
0.0
 11
18.6175794485757
 21
1.815824246331979
 31
0.0
  0
LINE
  5
591
330
18
100
AcDbEntity
  8
1
 62
     1
100
AcDbLine
 10
18.6175794485757
 20
1.815824246331979
 30
0.0
 11
18.22803599299062
 21
1.86794182255558
 31
0.0
  0
LINE
  5
592
330
18
100
AcDbEntity
  8
1
 62
     1
100
AcDbLine
 10
18.22803599299062
 20
1.86794182255558
 30
0.0
 11
17.83849253740554
 21
1.903246758575608
 31
0.0
  0
LINE
  5
593
330
18
100
AcDbEntity
  8
1
 62
     1
100
AcDbLine
 10
17.83849253740554
 20
1.903246758575608
 30
0.0
 11
17.44894908182046
 21
1.921421261560013
 31
0.0
  0
LINE
  5
594
330
18
100
AcDbEntity
  8
1
 62
     1
100
AcDbLine
 10
17.44894887368928
 20
1.921420923586034
 30
0.0
 11
16.9765153866923
 21
2.198998709811779
 31
0.0
  0
LINE
  5
595
330
18
100
AcDbEntity
  8
1
 62
     1
100
AcDbLine
 10
16.9765153866923
 20
2.198998709811779
 30
0.0
 11
16.50409043569552
 21
2.447470295646747
 31
0.0
  0
LINE
  5
596
330
18
100
AcDbEntity
  8
1
 62
     1
100
AcDbLine
 10
16.50409043569552
 20
2.447470295646747
 30
0.0
 11
16.03165335348086
 21
2.663558339580025
 31
0.0
  0
LINE
  5
597
330
18
100
AcDbEntity
  8
1
 62
     1
100
AcDbLine
 10
16.03165335348086
 20
2.663558339580025
 30
0.0
 11
15.55922177663683
 21
2.844395033004146
 31
0.0
  0
LINE
  5
598
330
18
100
AcDbEntity
  8
1
 62
     1
100
AcDbLine
 10
15.55922177663683
 20
2.844395033004146
 30
0.0
 11
15.32300571450457
 21
2.920827250197069
 31
0.0
  0
LINE
  5
599
330
18
100
AcDbEntity
  8
1
 62
     1
100
AcDbLine
 10
15.32300571450457
 20
2.920827250197069
 30
0.0
 11
15.08679558455633
 21
2.987586996321812
 31
0.0
  0
LINE
  5
59A
330
18
100
AcDbEntity
  8
1
 62
     1
100
AcDbLine
 10
15.08679558455633
 20
2.987586996321812
 30
0.0
 11
14.85057550830168
 21
3.044457350990948
 31
0.0
  0
LINE
  5
59B
330
18
100
AcDbEntity
  8
1
 62
     1
100
AcDbLine
 10
14.85057550830168
 20
3.044457350990948
 30
0.0
 11
14.61435842350696
 21
3.091244809666393
 31
0.0
  0
LINE
  5
59C
330
18
100
AcDbEntity
  8
1
 62
     1
100
AcDbLine
 10
14.61435842350696
 20
3.091244809666393
 30
0.0
 11
14.37814839925122
 21
3.127796028121783
 31
0.0
  0
LINE
  5
59D
330
18
100
AcDbEntity
  8
1
 62
     1
100
AcDbLine
 10
14.37814839925122
 20
3.127796028121783
 30
0.0
 11
14.14192950197272
 21
3.153992291288957
 31
0.0
  0
LINE
  5
59E
330
18
100
AcDbEntity
  8
1
 62
     1
100
AcDbLine
 10
14.14192950197272
 20
3.153992291288957
 30
0.0
 11
13.90571087267684
 21
3.169743516888243
 31
0.0
  0
LINE
  5
59F
330
18
100
AcDbEntity
  8
1
 62
     1
100
AcDbLine
 10
13.90571087267684
 20
3.169743516888243
 30
0.0
 11
13.66951053835416
 21
3.174999999999999
 31
0.0
  0
LINE
  5
5A0
330
18
100
AcDbEntity
  8
1
 62
     1
100
AcDbLine
 10
18.52383684625357
 20
-0.0000000000021055
 30
0.0
 11
16.91201837621209
 21
1.215022161995541
 31
0.0
  0
LINE
  5
5A1
330
18
100
AcDbEntity
  8
1
 62
     1
100
AcDbLine
 10
16.91201837621209
 20
1.215022161995541
 30
0.0
 11
16.1061062441112
 21
1.763940671930791
 31
0.0
  0
LINE
  5
5A2
330
18
100
AcDbEntity
  8
1
 62
     1
100
AcDbLine
 10
16.1061062441112
 20
1.763940671930791
 30
0.0
 11
15.70315482128487
 21
2.014202226038976
 31
0.0
  0
LINE
  5
5A3
330
18
100
AcDbEntity
  8
1
 62
     1
100
AcDbLine
 10
15.70315482128487
 20
2.014202226038976
 30
0.0
 11
15.3002041268406
 21
2.245065505062448
 31
0.0
  0
LINE
  5
5A4
330
18
100
AcDbEntity
  8
1
 62
     1
100
AcDbLine
 10
15.3002041268406
 20
2.245065505062448
 30
0.0
 11
14.89724965719141
 21
2.454309614327223
 31
0.0
  0
LINE
  5
5A5
330
18
100
AcDbEntity
  8
1
 62
     1
100
AcDbLine
 10
14.89724965719141
 20
2.454309614327223
 30
0.0
 11
14.49429292591865
 21
2.639918300345448
 31
0.0
  0
LINE
  5
5A6
330
18
100
AcDbEntity
  8
1
 62
     1
100
AcDbLine
 10
14.49429292591865
 20
2.639918300345448
 30
0.0
 11
14.09133552444209
 21
2.800103173613801
 31
0.0
  0
LINE
  5
5A7
330
18
100
AcDbEntity
  8
1
 62
     1
100
AcDbLine
 10
14.09133552444209
 20
2.800103173613801
 30
0.0
 11
13.68837910048508
 21
2.933320977649254
 31
0.0
  0
LINE
  5
5A8
330
18
100
AcDbEntity
  8
1
 62
     1
100
AcDbLine
 10
13.68837910048508
 20
2.933320977649254
 30
0.0
 11
13.28542528700999
 21
3.038288429512645
 31
0.0
  0
LINE
  5
5A9
330
18
100
AcDbEntity
  8
1
 62
     1
100
AcDbLine
 10
13.28542528700999
 20
3.038288429512645
 30
0.0
 11
13.08395188891022
 21
3.079850330693961
 31
0.0
  0
LINE
  5
5AA
330
18
100
AcDbEntity
  8
1
 62
     1
100
AcDbLine
 10
13.08395188891022
 20
3.079850330693961
 30
0.0
 11
12.88247535893176
 21
3.113994679197193
 31
0.0
  0
LINE
  5
5AB
330
18
100
AcDbEntity
  8
1
 62
     1
100
AcDbLine
 10
12.88247535893176
 20
3.113994679197193
 30
0.0
 11
12.68099466486423
 21
3.140636251600623
 31
0.0
  0
LINE
  5
5AC
330
18
100
AcDbEntity
  8
1
 62
     1
100
AcDbLine
 10
12.68099466486423
 20
3.140636251600623
 30
0.0
 11
12.47952345507107
 21
3.159711800752298
 31
0.0
  0
LINE
  5
5AD
330
18
100
AcDbEntity
  8
1
 62
     1
100
AcDbLine
 10
12.47952345507107
 20
3.159711800752298
 30
0.0
 11
12.27803870589461
 21
3.171175772323765
 31
0.0
  0
LINE
  5
5AE
330
18
100
AcDbEntity
  8
1
 62
     1
100
AcDbLine
 10
12.27803870589461
 20
3.171175772323765
 30
0.0
 11
12.07657732400613
 21
3.174999999999999
 31
0.0
  0
LINE
  5
5AF
330
18
100
AcDbEntity
  8
1
 62
     1
100
AcDbLine
 10
18.52383684625497
 20
-0.0000000000001827
 30
0.0
 11
16.96566301885256
 21
0.7130083096263992
 31
0.0
  0
LINE
  5
5B0
330
18
100
AcDbEntity
  8
1
 62
     1
100
AcDbLine
 10
16.96566301885256
 20
0.7130083096263992
 30
0.0
 11
16.18657610515134
 21
1.037379981523842
 31
0.0
  0
LINE
  5
5B1
330
18
100
AcDbEntity
  8
1
 62
     1
100
AcDbLine
 10
16.18657610515134
 20
1.037379981523842
 30
0.0
 11
15.40748919145014
 21
1.324487164094843
 31
0.0
  0
LINE
  5
5B2
330
18
100
AcDbEntity
  8
1
 62
     1
100
AcDbLine
 10
15.40748919145014
 20
1.324487164094843
 30
0.0
 11
14.62840227774893
 21
1.564016139593198
 31
0.0
  0
LINE
  5
5B3
330
18
100
AcDbEntity
  8
1
 62
     1
100
AcDbLine
 10
14.62840227774893
 20
1.564016139593198
 30
0.0
 11
14.23885882089833
 21
1.66317439083347
 31
0.0
  0
LINE
  5
5B4
330
18
100
AcDbEntity
  8
1
 62
     1
100
AcDbLine
 10
14.23885882089833
 20
1.66317439083347
 30
0.0
 11
13.84931536404772
 21
1.747363002806338
 31
0.0
  0
LINE
  5
5B5
330
18
100
AcDbEntity
  8
1
 62
     1
100
AcDbLine
 10
13.84931536404772
 20
1.747363002806338
 30
0.0
 11
13.45977190719712
 21
1.815824260212147
 31
0.0
  0
LINE
  5
5B6
330
18
100
AcDbEntity
  8
1
 62
     1
100
AcDbLine
 10
13.45977190719712
 20
1.815824260212147
 30
0.0
 11
13.07022845034651
 21
1.867941955048583
 31
0.0
  0
LINE
  5
5B7
330
18
100
AcDbEntity
  8
1
 62
     1
100
AcDbLine
 10
13.07022845034651
 20
1.867941955048583
 30
0.0
 11
12.6806849934959
 21
1.90324700403685
 31
0.0
  0
LINE
  5
5B8
330
18
100
AcDbEntity
  8
1
 62
     1
100
AcDbLine
 10
12.6806849934959
 20
1.90324700403685
 30
0.0
 11
12.2911415366453
 21
1.921421478072229
 31
0.0
  0
ARC
  5
5B9
330
18
100
AcDbEntity
  8
1
 62
     1
100
AcDbCircle
 10
5.812826752985784
 20
-8.567734394923272
 30
0.0
 40
12.32843790575521
100
AcDbArc
 50
58.29968335052517
 51
62.00327206637167
  0
LINE
  5
5BA
330
18
100
AcDbEntity
  8
1
 62
     1
100
AcDbLine
 10
23.18865889736153
 20
-2.880289439492742
 30
0.0
 11
22.9658464211533
 21
-2.948528994024741
 31
0.0
  0
LINE
  5
5BB
330
18
100
AcDbEntity
  8
1
 62
     1
100
AcDbLine
 10
22.9658464211533
 20
-2.948528994024741
 30
0.0
 11
22.74304709178754
 21
-3.00807868839681
 31
0.0
  0
LINE
  5
5BC
330
18
100
AcDbEntity
  8
1
 62
     1
100
AcDbLine
 10
22.74304709178754
 20
-3.00807868839681
 30
0.0
 11
22.52024048493531
 21
-3.058769231512981
 31
0.0
  0
LINE
  5
5BD
330
18
100
AcDbEntity
  8
1
 62
     1
100
AcDbLine
 10
22.52024048493531
 20
-3.058769231512981
 30
0.0
 11
22.29743150548335
 21
-3.100447872755925
 31
0.0
  0
LINE
  5
5BE
330
18
100
AcDbEntity
  8
1
 62
     1
100
AcDbLine
 10
22.29743150548335
 20
-3.100447872755925
 30
0.0
 11
22.07463238567117
 21
-3.132991574374723
 31
0.0
  0
LINE
  5
5BF
330
18
100
AcDbEntity
  8
1
 62
     1
100
AcDbLine
 10
22.07463238567117
 20
-3.132991574374723
 30
0.0
 11
21.85182200000831
 21
-3.156307448368011
 31
0.0
  0
LINE
  5
5C0
330
18
100
AcDbEntity
  8
1
 62
     1
100
AcDbLine
 10
21.85182200000831
 20
-3.156307448368011
 30
0.0
 11
21.62901729563022
 21
-3.170322874413232
 31
0.0
  0
LINE
  5
5C1
330
18
100
AcDbEntity
  8
1
 62
     1
100
AcDbLine
 10
21.62901729563022
 20
-3.170322874413232
 30
0.0
 11
21.4062216281053
 21
-3.17499999998879
 31
0.0
  0
LINE
  5
5C2
330
18
100
AcDbEntity
  8
1
 62
     1
100
AcDbLine
 10
13.36602929533796
 20
-0.0000000000005955
 30
0.0
 11
11.6
 21
1.324348552932553
 31
0.0
  0
LINE
  5
5C3
330
18
100
AcDbEntity
  8
1
 62
     1
100
AcDbLine
 10
13.3660292953384
 20
-0.0000000000000022
 30
0.0
 11
11.6
 21
0.8025552478859856
 31
0.0
  0
LINE
  5
5C4
330
18
100
AcDbEntity
  8
1
 62
     1
100
AcDbLine
 10
18.03085090595614
 20
-2.880289291536647
 30
0.0
 11
17.80803771874476
 21
-2.948529449630169
 31
0.0
  0
LINE
  5
5C5
330
18
100
AcDbEntity
  8
1
 62
     1
100
AcDbLine
 10
17.80803771874476
 20
-2.948529449630169
 30
0.0
 11
17.58523634174426
 21
-3.008079348713901
 31
0.0
  0
LINE
  5
5C6
330
18
100
AcDbEntity
  8
1
 62
     1
100
AcDbLine
 10
17.58523634174426
 20
-3.008079348713901
 30
0.0
 11
17.36243348149965
 21
-3.058768995924504
 31
0.0
  0
LINE
  5
5C7
330
18
100
AcDbEntity
  8
1
 62
     1
100
AcDbLine
 10
17.36243348149965
 20
-3.058768995924504
 30
0.0
 11
17.13962144753556
 21
-3.100448553886366
 31
0.0
  0
LINE
  5
5C8
330
18
100
AcDbEntity
  8
1
 62
     1
100
AcDbLine
 10
17.13962144753556
 20
-3.100448553886366
 30
0.0
 11
16.91682158956484
 21
-3.132991861443841
 31
0.0
  0
LINE
  5
5C9
330
18
100
AcDbEntity
  8
1
 62
     1
100
AcDbLine
 10
16.91682158956484
 20
-3.132991861443841
 30
0.0
 11
16.69401531421132
 21
-3.156307429184062
 31
0.0
  0
LINE
  5
5CA
330
18
100
AcDbEntity
  8
1
 62
     1
100
AcDbLine
 10
16.69401531421132
 20
-3.156307429184062
 30
0.0
 11
16.47120570833804
 21
-3.17032317413012
 31
0.0
  0
LINE
  5
5CB
330
18
100
AcDbEntity
  8
1
 62
     1
100
AcDbLine
 10
16.47120570833804
 20
-3.17032317413012
 30
0.0
 11
16.24841434663261
 21
-3.174999999989156
 31
0.0
  0
LINE
  5
5CC
330
18
100
AcDbEntity
  8
SK1
100
AcDbLine
 10
0.0000000000000022
 20
3.174999999999998
 30
0.0
 11
-35.6825
 21
3.174999999999999
 31
0.0
  0
LINE
  5
5CD
330
18
100
AcDbEntity
  8
SK1
100
AcDbLine
 10
-35.6825
 20
3.174999999999999
 30
0.0
 11
-35.6825
 21
3.171843436290501
 31
0.0
  0
LINE
  5
5CE
330
18
100
AcDbEntity
  8
SK1
100
AcDbLine
 10
-35.6825
 20
3.171843436290501
 30
0.0
 11
-35.6825
 21
2.890118006127691
 31
0.0
  0
LINE
  5
5CF
330
18
100
AcDbEntity
  8
SK1
100
AcDbLine
 10
-35.6825
 20
2.890118006127691
 30
0.0
 11
-35.6825
 21
-3.174999999999999
 31
0.0
  0
LINE
  5
5D0
330
18
100
AcDbEntity
  8
SK1
100
AcDbLine
 10
-35.6825
 20
3.174999999999999
 30
0.0
 11
-36.0
 21
2.857499999999999
 31
0.0
  0
LINE
  5
5D1
330
18
100
AcDbEntity
  8
SK1
100
AcDbLine
 10
-36.0
 20
2.857499999999999
 30
0.0
 11
-36.00000000000001
 21
2.854659092661451
 31
0.0
  0
LINE
  5
5D2
330
18
100
AcDbEntity
  8
SK1
100
AcDbLine
 10
-36.00000000000001
 20
2.854659092661451
 30
0.0
 11
-36.0
 21
2.601106205514923
 31
0.0
  0
LINE
  5
5D3
330
18
100
AcDbEntity
  8
SK1
100
AcDbLine
 10
-36.0
 20
2.601106205514923
 30
0.0
 11
-36.0
 21
-2.857499999999999
 31
0.0
  0
LINE
  5
5D4
330
18
100
AcDbEntity
  8
SK1
100
AcDbLine
 10
-35.6825
 20
-3.174999999999999
 30
0.0
 11
0.0
 21
-3.174999999999999
 31
0.0
  0
LINE
  5
5D5
330
18
100
AcDbEntity
  8
SK1
100
AcDbLine
 10
-36.0
 20
-2.857499999999999
 30
0.0
 11
-35.6825
 21
-3.174999999999999
 31
0.0
  0
DIMENSION
  5
5D6
330
18
100
AcDbEntity
  8
2
100
AcDbDimension
  2
*D0
 10
42.5
 20
-3.174999999999946
 30
0.0
 11
40.10225000000004
 21
-13.38924999999996
 31
0.0
 70
    32
  1
%%c<>
 71
     5
 42
6.349999999999999
  3
STANDARD
100
AcDbAlignedDimension
 13
27.5
 23
3.174999999999999
 33
0.0
 14
27.5
 24
-3.174999999999999
 34
0.0
 50
90.00000000000021
100
AcDbRotatedDimension
  0
DIMENSION
  5
5E4
330
18
100
AcDbEntity
  8
2
100
AcDbDimension
  2
*D1
 10
27.5
 20
75.0
 30
0.0
 11
13.75
 21
77.39775
 31
0.0
 70
    32
  1
<>
 71
     5
 42
27.5
  3
STANDARD
100
AcDbAlignedDimension
 13
0.0
 23
0.0
 33
0.0
 14
27.5
 24
0.0
 34
0.0
100
AcDbRotatedDimension
  0
DIMENSION
  5
5FE
330
18
100
AcDbEntity
  8
SK2
100
AcDbDimension
  2
*D3
 10
-50.9999999999838
 20
-3.175000000076551
 30
0.0
 11
-53.39774999993167
 21
-13.38925000008879
 31
0.0
 70
    32
  1
%%c<>
 71
     5
 42
6.349999999999999
  3
STANDARD
100
AcDbAlignedDimension
 13
-36.0
 23
3.174999999999999
 33
0.0
 14
-36.0
 24
-3.174999999999999
 34
0.0
 50
90.00000000029242
100
AcDbRotatedDimension
  0
DIMENSION
  5
60C
330
18
100
AcDbEntity
  8
SK2
100
AcDbDimension
  2
*D4
 10
27.5
 20
90.0
 30
0.0
 11
-4.25
 21
92.39774999999999
 31
0.0
 70
    32
  1
<>
 71
     5
 42
63.5
  3
STANDARD
100
AcDbAlignedDimension
 13
-36.0
 23
0.0
 33
0.0
 14
27.5
 24
0.0
 34
0.0
100
AcDbRotatedDimension
  0
DIMENSION
  5
619
330
18
100
AcDbEntity
  8
2
100
AcDbDimension
  2
*D5
 10
7.145000000000005
 20
-3.009999999999999
 30
0.0
 11
4.770000000000005
 21
-15.55166666666666
 31
0.0
 70
    32
  1
%%c<>
 71
     5
 42
6.019999999999999
  3
STANDARD
100
AcDbAlignedDimension
 13
7.145000000000005
 23
3.009999999999999
 33
0.0
 14
7.145000000000005
 24
-3.009999999999999
 34
0.0
 50
90.0
100
AcDbRotatedDimension
  0
DIMENSION
  5
627
330
18
100
AcDbEntity
  8
2
100
AcDbDimension
  2
*D6
 10
11.6
 20
60.0
 30
0.0
 11
19.55
 21
62.39775
 31
0.0
 70
    32
  1
<>
 71
     5
 42
15.9
  3
STANDARD
100
AcDbAlignedDimension
 13
27.5
 23
3.174999999999999
 33
0.0
 14
11.6
 24
3.174999999999999
 34
0.0
100
AcDbRotatedDimension
  0
DIMENSION
  5
634
330
18
100
AcDbEntity
  8
2
100
AcDbDimension
  2
*D7
 10
26.738
 20
-2.413
 30
0.0
 11
29.83501530587914
 21
-19.97704659931021
 31
0.0
 70
   164
  1
<>
 71
     5
 42
0.7620000000000003
  3
STANDARD
100
AcDbRadialDimension
 15
26.8703199113822
 25
-3.163423507795303
 35
0.0
 40
0.0
  0
ENDSEC
  0
SECTION
  2
OBJECTS
  0
DICTIONARY
  5
C
330
0
100
AcDbDictionary
281
     1
  3
ACAD_COLOR
350
387
  3
ACAD_GROUP
350
D
  3
ACAD_LAYOUT
350
301
  3
ACAD_MATERIAL
350
386
  3
ACAD_MLEADERSTYLE
350
63D
  3
ACAD_MLINESTYLE
350
E
  3
ACAD_PLOTSETTINGS
350
302
  3
ACAD_PLOTSTYLENAME
350
2FF
  3
ACAD_SCALELIST
350
3A0
  3
ACAD_TABLESTYLE
350
388
  3
ACAD_VISUALSTYLE
350
3C5
  3
ACDB_RECOMPOSE_DATA
350
6BD
  3
AcDbVariableDictionary
350
357
  3
DWGPROPS
350
6BE
  0
DICTIONARY
  5
699
330
F
100
AcDbDictionary
280
     1
281
     1
  3
ADSK_XREC_LAYER_RECONCILED
360
69A
  0
DICTIONARY
  5
69B
330
23
100
AcDbDictionary
280
     1
281
     1
  3
ADSK_XREC_LAYER_RECONCILED
360
69C
  0
DICTIONARY
  5
69D
330
24
100
AcDbDictionary
280
     1
281
     1
  3
ADSK_XREC_LAYER_RECONCILED
360
69E
  0
DICTIONARY
  5
69F
330
25
100
AcDbDictionary
280
     1
281
     1
  3
ADSK_XREC_LAYER_RECONCILED
360
6A0
  0
DICTIONARY
  5
6A1
330
26
100
AcDbDictionary
280
     1
281
     1
  3
ADSK_XREC_LAYER_RECONCILED
360
6A2
  0
DICTIONARY
  5
6A3
330
27
100
AcDbDictionary
280
     1
281
     1
  3
ADSK_XREC_LAYER_RECONCILED
360
6A4
  0
DICTIONARY
  5
6A5
330
28
100
AcDbDictionary
280
     1
281
     1
  3
ADSK_XREC_LAYER_RECONCILED
360
6A6
  0
DICTIONARY
  5
6A7
330
29
100
AcDbDictionary
280
     1
281
     1
  3
ADSK_XREC_LAYER_RECONCILED
360
6A8
  0
DICTIONARY
  5
6A9
330
2A
100
AcDbDictionary
280
     1
281
     1
  3
ADSK_XREC_LAYER_RECONCILED
360
6AA
  0
DICTIONARY
  5
6AB
330
2B
100
AcDbDictionary
280
     1
281
     1
  3
ADSK_XREC_LAYER_RECONCILED
360
6AC
  0
DICTIONARY
  5
6AD
330
2C
100
AcDbDictionary
280
     1
281
     1
  3
ADSK_XREC_LAYER_RECONCILED
360
6AE
  0
DICTIONARY
  5
6AF
330
2D
100
AcDbDictionary
280
     1
281
     1
  3
ADSK_XREC_LAYER_RECONCILED
360
6B0
  0
DICTIONARY
  5
6B1
330
2E
100
AcDbDictionary
280
     1
281
     1
  3
ADSK_XREC_LAYER_RECONCILED
360
6B2
  0
DICTIONARY
  5
6B3
330
375
100
AcDbDictionary
280
     1
281
     1
  3
ADSK_XREC_LAYER_RECONCILED
360
6B4
  0
DICTIONARY
  5
6B5
330
376
100
AcDbDictionary
280
     1
281
     1
  3
ADSK_XREC_LAYER_RECONCILED
360
6B6
  0
DICTIONARY
  5
387
102
{ACAD_REACTORS
330
C
102
}
330
C
100
AcDbDictionary
281
     1
  0
DICTIONARY
  5
D
102
{ACAD_REACTORS
330
C
102
}
330
C
100
AcDbDictionary
281
     1
  0
DICTIONARY
  5
301
102
{ACAD_REACTORS
330
C
102
}
330
C
100
AcDbDictionary
281
     1
  3
Layout1
350
33B
  3
Model
350
303
  0
DICTIONARY
  5
386
102
{ACAD_REACTORS
330
C
102
}
330
C
100
AcDbDictionary
281
     1
  3
ByBlock
350
3C3
  3
ByLayer
350
3C2
  3
Global
350
3C4
  0
DICTIONARY
  5
63D
102
{ACAD_REACTORS
330
C
102
}
330
C
100
AcDbDictionary
281
     1
  3
Standard
350
66D
  0
DICTIONARY
  5
E
102
{ACAD_REACTORS
330
C
102
}
330
C
100
AcDbDictionary
281
     1
  3
STANDARD
350
1B
  0
DICTIONARY
  5
302
102
{ACAD_REACTORS
330
C
102
}
330
C
100
AcDbDictionary
281
     1
  0
ACDBDICTIONARYWDFLT
  5
2FF
102
{ACAD_REACTORS
330
C
102
}
330
C
100
AcDbDictionary
281
     1
  3
Normal
350
300
100
AcDbDictionaryWithDefault
340
300
  0
DICTIONARY
  5
3A0
102
{ACAD_REACTORS
330
C
102
}
330
C
100
AcDbDictionary
281
     1
  3
A0
350
3A1
  3
A1
350
3A2
  3
A2
350
3A3
  3
A3
350
3A4
  3
A4
350
3A5
  3
A5
350
3A6
  3
A6
350
3A7
  3
A7
350
3A8
  3
A8
350
3A9
  3
A9
350
3AA
  3
B0
350
3AB
  3
B1
350
3AC
  3
B2
350
3AD
  3
B3
350
3AE
  3
B4
350
3AF
  3
B5
350
3B0
  3
B6
350
3B1
  3
B7
350
3B2
  3
B8
350
3B3
  3
B9
350
3B4
  3
C0
350
3B5
  3
C1
350
3B6
  3
C2
350
3B7
  3
C3
350
3B8
  3
C4
350
3B9
  3
C5
350
3BA
  3
C6
350
3BB
  3
C7
350
3BC
  3
C8
350
3BD
  3
C9
350
3BE
  3
D0
350
3BF
  3
D1
350
3C0
  3
D2
350
3C1
  0
DICTIONARY
  5
388
102
{ACAD_REACTORS
330
C
102
}
330
C
100
AcDbDictionary
281
     1
  3
Standard
350
389
  0
DICTIONARY
  5
3C5
102
{ACAD_REACTORS
330
C
102
}
330
C
100
AcDbDictionary
281
     1
  3
2dWireframe
350
3CA
  3
3D Hidden
350
3CC
  3
3dWireframe
350
3CB
  3
Basic
350
3CD
  3
Brighten
350
3D1
  3
ColorChange
350
3D5
  3
Conceptual
350
3CF
  3
Dim
350
3D0
  3
EdgeColorOff
350
66C
  3
Facepattern
350
3D4
  3
Flat
350
3C6
  3
FlatWithEdges
350
3C7
  3
Gouraud
350
3C8
  3
GouraudWithEdges
350
3C9
  3
JitterOff
350
66A
  3
Linepattern
350
3D3
  3
OverhangOff
350
66B
  3
Realistic
350
3CE
  3
Thicken
350
3D2
  0
XRECORD
  5
6BD
102
{ACAD_REACTORS
330
C
102
}
330
C
100
AcDbXrecord
280
     1
 90
        1
330
389
  0
DICTIONARY
  5
357
102
{ACAD_REACTORS
330
C
102
}
330
C
100
AcDbDictionary
281
     1
  3
CANNOSCALE
350
641
  3
CMLEADERSTYLE
350
6B7
  3
CTABLESTYLE
350
38D
  3
DIMASSOC
350
359
  3
HIDETEXT
350
358
  3
INDEXCTL
350
6B9
  3
PROJECTNAME
350
38E
  3
SORTENTS
350
6B8
  3
XCLIPFRAME
350
6BA
  0
XRECORD
  5
6BE
102
{ACAD_REACTORS
330
C
102
}
330
C
100
AcDbXrecord
280
     1
  1
DWGPROPS COOKIE
  2

  3

  4

  6

  7

  8
TDM012
  9

300
=
301
=
302
=
303
=
304
=
305
=
306
=
307
=
308
=
309
=
 40
0.0024604513888889
 41
2454957.551975972
 42
2456961.57568081
  1

 90
        0
  0
XRECORD
  5
69A
102
{ACAD_REACTORS
330
699
102
}
330
699
100
AcDbXrecord
280
     1
290
     1
  0
XRECORD
  5
69C
102
{ACAD_REACTORS
330
69B
102
}
330
69B
100
AcDbXrecord
280
     1
290
     1
  0
XRECORD
  5
69E
102
{ACAD_REACTORS
330
69D
102
}
330
69D
100
AcDbXrecord
280
     1
290
     1
  0
XRECORD
  5
6A0
102
{ACAD_REACTORS
330
69F
102
}
330
69F
100
AcDbXrecord
280
     1
290
     1
  0
XRECORD
  5
6A2
102
{ACAD_REACTORS
330
6A1
102
}
330
6A1
100
AcDbXrecord
280
     1
290
     1
  0
XRECORD
  5
6A4
102
{ACAD_REACTORS
330
6A3
102
}
330
6A3
100
AcDbXrecord
280
     1
290
     1
  0
XRECORD
  5
6A6
102
{ACAD_REACTORS
330
6A5
102
}
330
6A5
100
AcDbXrecord
280
     1
290
     1
  0
XRECORD
  5
6A8
102
{ACAD_REACTORS
330
6A7
102
}
330
6A7
100
AcDbXrecord
280
     1
290
     1
  0
XRECORD
  5
6AA
102
{ACAD_REACTORS
330
6A9
102
}
330
6A9
100
AcDbXrecord
280
     1
290
     1
  0
XRECORD
  5
6AC
102
{ACAD_REACTORS
330
6AB
102
}
330
6AB
100
AcDbXrecord
280
     1
290
     1
  0
XRECORD
  5
6AE
102
{ACAD_REACTORS
330
6AD
102
}
330
6AD
100
AcDbXrecord
280
     1
290
     1
  0
XRECORD
  5
6B0
102
{ACAD_REACTORS
330
6AF
102
}
330
6AF
100
AcDbXrecord
280
     1
290
     1
  0
XRECORD
  5
6B2
102
{ACAD_REACTORS
330
6B1
102
}
330
6B1
100
AcDbXrecord
280
     1
290
     1
  0
XRECORD
  5
6B4
102
{ACAD_REACTORS
330
6B3
102
}
330
6B3
100
AcDbXrecord
280
     1
290
     1
  0
XRECORD
  5
6B6
102
{ACAD_REACTORS
330
6B5
102
}
330
6B5
100
AcDbXrecord
280
     1
290
     1
  0
LAYOUT
  5
33B
102
{ACAD_XDICTIONARY
360
6C1
102
}
102
{ACAD_REACTORS
330
301
102
}
330
301
100
AcDbPlotSettings
  1

  2
Lexmark Optra PS2
  4

  6

 40
0.0
 41
0.0
 42
0.0
 43
0.0
 44
0.0
 45
0.0
 46
0.0
 47
0.0
 48
0.0
 49
0.0
140
0.0
141
0.0
142
1.0
143
1.0
 70
   688
 72
     0
 73
     0
 74
     5
  7
monochrome.ctb
 75
    16
147
1.0
148
0.0
149
0.0
100
AcDbLayout
  1
Layout1
 70
     1
 71
     1
 10
0.0
 20
0.0
 11
12.0
 21
9.0
 12
0.0
 22
0.0
 32
0.0
 14
0.0
 24
0.0
 34
0.0
 15
0.0
 25
0.0
 35
0.0
146
0.0
 13
0.0
 23
0.0
 33
0.0
 16
1.0
 26
0.0
 36
0.0
 17
0.0
 27
1.0
 37
0.0
 76
     0
330
338
  0
LAYOUT
  5
303
102
{ACAD_XDICTIONARY
360
6BF
102
}
102
{ACAD_REACTORS
330
301
102
}
330
301
100
AcDbPlotSettings
  1

  2
Lexmark Optra Rx
  4
A4
  6

 40
6.805083274841307
 41
5.535083293914794
 42
6.974411010742187
 43
7.14373779296875
 44
209.9733276367186
 45
296.9259948730469
 46
0.0
 47
0.0
 48
0.0
 49
0.0
140
0.0
141
0.0
142
1.0
143
2.976565420630885
 70
 11952
 72
     1
 73
     1
 74
     0
  7
monochrome.ctb
 75
     0
147
0.335957675604539
148
204.1199660668592
149
172.3933209647495
100
AcDbLayout
  1
Model
 70
     1
 71
     0
 10
0.0
 20
0.0
 11
12.0
 21
9.0
 12
0.0
 22
0.0
 32
0.0
 14
0.0
 24
0.0
 34
0.0
 15
0.0
 25
0.0
 35
0.0
146
0.0
 13
0.0
 23
0.0
 33
0.0
 16
1.0
 26
0.0
 36
0.0
 17
0.0
 27
1.0
 37
0.0
 76
     0
330
18
331
39A
  0
MATERIAL
  5
3C3
102
{ACAD_XDICTIONARY
360
644
102
}
102
{ACAD_REACTORS
330
386
102
}
330
386
100
AcDbMaterial
  1
ByBlock
  0
MATERIAL
  5
3C2
102
{ACAD_XDICTIONARY
360
642
102
}
102
{ACAD_REACTORS
330
386
102
}
330
386
100
AcDbMaterial
  1
ByLayer
  0
MATERIAL
  5
3C4
102
{ACAD_XDICTIONARY
360
646
102
}
102
{ACAD_REACTORS
330
386
102
}
330
386
100
AcDbMaterial
  1
Global
  0
MLEADERSTYLE
  5
66D
102
{ACAD_REACTORS
330
63D
102
}
330
63D
100
AcDbMLeaderStyle
170
     2
171
     1
172
     0
 90
        2
 40
0.0
 41
0.0
173
     1
 91
-1056964608
340
12
 92
       -2
290
     1
 42
2.0
291
     1
 43
0.36
  3
Standard
 44
4.0
300

342
10
174
     1
178
     6
175
     1
176
     0
 93
-1056964608
 45
4.0
292
     0
297
     0
 46
4.0
 94
-1056964608
 47
1.0
 49
1.0
140
1.0
293
     1
141
0.0
294
     1
177
     0
142
1.0
295
     0
296
     0
143
0.125
1001
ACAD_MLEADERVER
1070
     2
  0
MLINESTYLE
  5
1B
102
{ACAD_REACTORS
330
E
102
}
330
E
100
AcDbMlineStyle
  2
STANDARD
 70
     0
  3

 62
     0
 51
90.0
 52
90.0
 71
     2
 49
0.5
 62
   256
  6
BYLAYER
 49
-0.5
 62
   256
  6
BYLAYER
  0
ACDBPLACEHOLDER
  5
300
102
{ACAD_REACTORS
330
2FF
102
}
330
2FF
  0
SCALE
  5
3A1
102
{ACAD_REACTORS
330
3A0
102
}
330
3A0
100
AcDbScale
 70
     0
300
1:1
140
1.0
141
1.0
290
     1
  0
SCALE
  5
3A2
102
{ACAD_REACTORS
330
3A0
102
}
330
3A0
100
AcDbScale
 70
     0
300
1:2
140
1.0
141
2.0
290
     0
  0
SCALE
  5
3A3
102
{ACAD_REACTORS
330
3A0
102
}
330
3A0
100
AcDbScale
 70
     0
300
1:4
140
1.0
141
4.0
290
     0
  0
SCALE
  5
3A4
102
{ACAD_REACTORS
330
3A0
102
}
330
3A0
100
AcDbScale
 70
     0
300
1:5
140
1.0
141
5.0
290
     0
  0
SCALE
  5
3A5
102
{ACAD_REACTORS
330
3A0
102
}
330
3A0
100
AcDbScale
 70
     0
300
1:8
140
1.0
141
8.0
290
     0
  0
SCALE
  5
3A6
102
{ACAD_REACTORS
330
3A0
102
}
330
3A0
100
AcDbScale
 70
     0
300
1:10
140
1.0
141
10.0
290
     0
  0
SCALE
  5
3A7
102
{ACAD_REACTORS
330
3A0
102
}
330
3A0
100
AcDbScale
 70
     0
300
1:16
140
1.0
141
16.0
290
     0
  0
SCALE
  5
3A8
102
{ACAD_REACTORS
330
3A0
102
}
330
3A0
100
AcDbScale
 70
     0
300
1:20
140
1.0
141
20.0
290
     0
  0
SCALE
  5
3A9
102
{ACAD_REACTORS
330
3A0
102
}
330
3A0
100
AcDbScale
 70
     0
300
1:30
140
1.0
141
30.0
290
     0
  0
SCALE
  5
3AA
102
{ACAD_REACTORS
330
3A0
102
}
330
3A0
100
AcDbScale
 70
     0
300
1:40
140
1.0
141
40.0
290
     0
  0
SCALE
  5
3AB
102
{ACAD_REACTORS
330
3A0
102
}
330
3A0
100
AcDbScale
 70
     0
300
1:50
140
1.0
141
50.0
290
     0
  0
SCALE
  5
3AC
102
{ACAD_REACTORS
330
3A0
102
}
330
3A0
100
AcDbScale
 70
     0
300
1:100
140
1.0
141
100.0
290
     0
  0
SCALE
  5
3AD
102
{ACAD_REACTORS
330
3A0
102
}
330
3A0
100
AcDbScale
 70
     0
300
2:1
140
2.0
141
1.0
290
     0
  0
SCALE
  5
3AE
102
{ACAD_REACTORS
330
3A0
102
}
330
3A0
100
AcDbScale
 70
     0
300
4:1
140
4.0
141
1.0
290
     0
  0
SCALE
  5
3AF
102
{ACAD_REACTORS
330
3A0
102
}
330
3A0
100
AcDbScale
 70
     0
300
8:1
140
8.0
141
1.0
290
     0
  0
SCALE
  5
3B0
102
{ACAD_REACTORS
330
3A0
102
}
330
3A0
100
AcDbScale
 70
     0
300
10:1
140
10.0
141
1.0
290
     0
  0
SCALE
  5
3B1
102
{ACAD_REACTORS
330
3A0
102
}
330
3A0
100
AcDbScale
 70
     0
300
100:1
140
100.0
141
1.0
290
     0
  0
SCALE
  5
3B2
102
{ACAD_REACTORS
330
3A0
102
}
330
3A0
100
AcDbScale
 70
     0
300
1/128" = 1'-0"
140
0.0078125
141
12.0
290
     0
  0
SCALE
  5
3B3
102
{ACAD_REACTORS
330
3A0
102
}
330
3A0
100
AcDbScale
 70
     0
300
1/64" = 1'-0"
140
0.015625
141
12.0
290
     0
  0
SCALE
  5
3B4
102
{ACAD_REACTORS
330
3A0
102
}
330
3A0
100
AcDbScale
 70
     0
300
1/32" = 1'-0"
140
0.03125
141
12.0
290
     0
  0
SCALE
  5
3B5
102
{ACAD_REACTORS
330
3A0
102
}
330
3A0
100
AcDbScale
 70
     0
300
1/16" = 1'-0"
140
0.0625
141
12.0
290
     0
  0
SCALE
  5
3B6
102
{ACAD_REACTORS
330
3A0
102
}
330
3A0
100
AcDbScale
 70
     0
300
3/32" = 1'-0"
140
0.09375
141
12.0
290
     0
  0
SCALE
  5
3B7
102
{ACAD_REACTORS
330
3A0
102
}
330
3A0
100
AcDbScale
 70
     0
300
1/8" = 1'-0"
140
0.125
141
12.0
290
     0
  0
SCALE
  5
3B8
102
{ACAD_REACTORS
330
3A0
102
}
330
3A0
100
AcDbScale
 70
     0
300
3/16" = 1'-0"
140
0.1875
141
12.0
290
     0
  0
SCALE
  5
3B9
102
{ACAD_REACTORS
330
3A0
102
}
330
3A0
100
AcDbScale
 70
     0
300
1/4" = 1'-0"
140
0.25
141
12.0
290
     0
  0
SCALE
  5
3BA
102
{ACAD_REACTORS
330
3A0
102
}
330
3A0
100
AcDbScale
 70
     0
300
3/8" = 1'-0"
140
0.375
141
12.0
290
     0
  0
SCALE
  5
3BB
102
{ACAD_REACTORS
330
3A0
102
}
330
3A0
100
AcDbScale
 70
     0
300
1/2" = 1'-0"
140
0.5
141
12.0
290
     0
  0
SCALE
  5
3BC
102
{ACAD_REACTORS
330
3A0
102
}
330
3A0
100
AcDbScale
 70
     0
300
3/4" = 1'-0"
140
0.75
141
12.0
290
     0
  0
SCALE
  5
3BD
102
{ACAD_REACTORS
330
3A0
102
}
330
3A0
100
AcDbScale
 70
     0
300
1" = 1'-0"
140
1.0
141
12.0
290
     0
  0
SCALE
  5
3BE
102
{ACAD_REACTORS
330
3A0
102
}
330
3A0
100
AcDbScale
 70
     0
300
1-1/2" = 1'-0"
140
1.5
141
12.0
290
     0
  0
SCALE
  5
3BF
102
{ACAD_REACTORS
330
3A0
102
}
330
3A0
100
AcDbScale
 70
     0
300
3" = 1'-0"
140
3.0
141
12.0
290
     0
  0
SCALE
  5
3C0
102
{ACAD_REACTORS
330
3A0
102
}
330
3A0
100
AcDbScale
 70
     0
300
6" = 1'-0"
140
6.0
141
12.0
290
     0
  0
SCALE
  5
3C1
102
{ACAD_REACTORS
330
3A0
102
}
330
3A0
100
AcDbScale
 70
     0
300
1'-0" = 1'-0"
140
12.0
141
12.0
290
     0
  0
TABLESTYLE
  5
389
102
{ACAD_XDICTIONARY
360
6BB
102
}
102
{ACAD_REACTORS
330
388
102
}
330
388
100
AcDbTableStyle
  3
Standard
 70
     0
 71
     0
 40
1.5
 41
1.5
280
     0
281
     0
  7
STANDARD
140
4.5
170
     2
 62
     0
 63
     7
283
     0
274
    -2
284
     1
 64
     0
275
    -2
285
     1
 65
     0
276
    -2
286
     1
 66
     0
277
    -2
287
     1
 67
     0
278
    -2
288
     1
 68
     0
279
    -2
289
     1
 69
     0
  7
STANDARD
140
6.0
170
     5
 62
     0
 63
     7
283
     0
274
    -2
284
     1
 64
     0
275
    -2
285
     1
 65
     0
276
    -2
286
     1
 66
     0
277
    -2
287
     1
 67
     0
278
    -2
288
     1
 68
     0
279
    -2
289
     1
 69
     0
  7
STANDARD
140
4.5
170
     5
 62
     0
 63
     7
283
     0
274
    -2
284
     1
 64
     0
275
    -2
285
     1
 65
     0
276
    -2
286
     1
 66
     0
277
    -2
287
     1
 67
     0
278
    -2
288
     1
 68
     0
279
    -2
289
     1
 69
     0
  0
VISUALSTYLE
  5
3CA
102
{ACAD_XDICTIONARY
360
650
102
}
102
{ACAD_REACTORS
330
3C5
102
}
330
3C5
100
AcDbVisualStyle
  2

 70
     4
 71
     0
 72
     2
 73
     0
 90
        0
 40
-0.6
 41
-30.0
 62
     5
 63
     7
 74
     1
 91
        4
 64
     7
 65
   257
 75
     1
175
     1
 42
1.0
 92
        0
 66
   257
 43
1.0
 76
     1
 77
     6
 78
     2
 67
     7
 79
     5
170
     0
171
     0
290
     0
174
     0
 93
        1
 44
0.0
173
     0
291
     0
 45
0.0
1001
ACAD
1000
AcDbSavedByObjectVersion
1070
     0
  0
VISUALSTYLE
  5
3CC
102
{ACAD_XDICTIONARY
360
654
102
}
102
{ACAD_REACTORS
330
3C5
102
}
330
3C5
100
AcDbVisualStyle
  2

 70
     6
 71
     1
 72
     2
 73
     2
 90
        0
 40
-0.6
 41
-30.0
 62
     5
 63
     7
 74
     2
 91
        2
 64
     7
 65
   257
 75
     2
175
     1
 42
40.0
 92
        0
 66
   257
 43
1.0
 76
     1
 77
     6
 78
     2
 67
     7
 79
     3
170
     0
171
     0
290
     0
174
     0
 93
        1
 44
0.0
173
     0
291
     0
 45
0.0
1001
ACAD
1000
AcDbSavedByObjectVersion
1070
     0
  0
VISUALSTYLE
  5
3CB
102
{ACAD_XDICTIONARY
360
652
102
}
102
{ACAD_REACTORS
330
3C5
102
}
330
3C5
100
AcDbVisualStyle
  2

 70
     5
 71
     0
 72
     2
 73
     0
 90
        0
 40
-0.6
 41
-30.0
 62
     5
 63
     7
 74
     1
 91
        4
 64
     7
 65
   257
 75
     1
175
     1
 42
1.0
 92
        0
 66
   257
 43
1.0
 76
     1
 77
     6
 78
     2
 67
     7
 79
     5
170
     0
171
     0
290
     0
174
     0
 93
        1
 44
0.0
173
     0
291
     0
 45
0.0
1001
ACAD
1000
AcDbSavedByObjectVersion
1070
     0
  0
VISUALSTYLE
  5
3CD
102
{ACAD_XDICTIONARY
360
656
102
}
102
{ACAD_REACTORS
330
3C5
102
}
330
3C5
100
AcDbVisualStyle
  2

 70
     7
 71
     1
 72
     0
 73
     1
 90
        0
 40
-0.6
 41
-30.0
 62
     5
 63
     7
 74
     0
 91
        4
 64
     7
 65
   257
 75
     1
175
     1
 42
1.0
 92
        8
 66
     7
 43
1.0
 76
     1
 77
     6
 78
     2
 67
     7
 79
     5
170
     0
171
     0
290
     0
174
     0
 93
        1
 44
0.0
173
     0
291
     1
 45
0.0
1001
ACAD
1000
AcDbSavedByObjectVersion
1070
     0
  0
VISUALSTYLE
  5
3D1
102
{ACAD_XDICTIONARY
360
65E
102
}
102
{ACAD_REACTORS
330
3C5
102
}
330
3C5
100
AcDbVisualStyle
  2

 70
    12
 71
     2
 72
     2
 73
     0
 90
        0
 40
-0.6
 41
-30.0
 62
     5
 63
     7
 74
     1
 91
        4
 64
     7
 65
   257
 75
     1
175
     1
 42
1.0
 92
        8
 66
     7
 43
1.0
 76
     1
 77
     6
 78
     2
 67
     7
 79
     5
170
     0
171
     0
290
     0
174
     0
 93
        1
 44
50.0
173
     0
291
     1
 45
0.0
1001
ACAD
1000
AcDbSavedByObjectVersion
1070
     0
  0
VISUALSTYLE
  5
3D5
102
{ACAD_XDICTIONARY
360
666
102
}
102
{ACAD_REACTORS
330
3C5
102
}
330
3C5
100
AcDbVisualStyle
  2

 70
    16
 71
     2
 72
     2
 73
     3
 90
        0
 40
-0.6
 41
-30.0
 62
     5
 63
     8
 74
     1
 91
        4
 64
     7
 65
   257
 75
     1
175
     1
 42
1.0
 92
        8
 66
     8
 43
1.0
 76
     1
 77
     6
 78
     2
 67
     7
 79
     5
170
     0
171
     0
290
     0
174
     0
 93
        1
 44
0.0
173
     0
291
     1
 45
0.0
1001
ACAD
1000
AcDbSavedByObjectVersion
1070
     0
  0
VISUALSTYLE
  5
3CF
102
{ACAD_XDICTIONARY
360
65A
102
}
102
{ACAD_REACTORS
330
3C5
102
}
330
3C5
100
AcDbVisualStyle
  2

 70
     9
 71
     3
 72
     2
 73
     0
 90
        0
 40
-0.6
 41
-30.0
 62
     5
 63
     7
 74
     2
 91
        2
 64
     7
 65
   257
 75
     1
175
     1
 42
40.0
 92
        8
 66
     7
 43
1.0
 76
     1
 77
     6
 78
     2
 67
     7
 79
     3
170
     0
171
     0
290
     0
174
     0
 93
        1
 44
0.0
173
     0
291
     0
 45
0.0
1001
ACAD
1000
AcDbSavedByObjectVersion
1070
     0
  0
VISUALSTYLE
  5
3D0
102
{ACAD_XDICTIONARY
360
65C
102
}
102
{ACAD_REACTORS
330
3C5
102
}
330
3C5
100
AcDbVisualStyle
  2

 70
    11
 71
     2
 72
     2
 73
     0
 90
        0
 40
-0.6
 41
-30.0
 62
     5
 63
     7
 74
     1
 91
        4
 64
     7
 65
   257
 75
     1
175
     1
 42
1.0
 92
        8
 66
     7
 43
1.0
 76
     1
 77
     6
 78
     2
 67
     7
 79
     5
170
     0
171
     0
290
     0
174
     0
 93
        1
 44
-50.0
173
     0
291
     1
 45
0.0
1001
ACAD
1000
AcDbSavedByObjectVersion
1070
     0
  0
VISUALSTYLE
  5
66C
102
{ACAD_XDICTIONARY
360
6C8
102
}
102
{ACAD_REACTORS
330
3C5
102
}
330
3C5
100
AcDbVisualStyle
  2
EdgeColorOff
 70
    22
 71
     2
 72
     2
 73
     0
 90
        0
 40
-0.6
 41
-30.0
 62
     5
 63
     7
 74
     1
 91
        4
 64
     7
 65
   257
 75
     1
175
     1
 42
1.0
 92
        8
 66
     7
 43
1.0
 76
     1
 77
     6
 78
     2
 67
     7
 79
     5
170
     0
171
     0
290
     0
174
     0
 93
        1
 44
0.0
173
     0
291
     1
 45
0.0
1001
ACAD
1000
AcDbSavedByObjectVersion
1070
     0
  0
VISUALSTYLE
  5
3D4
102
{ACAD_XDICTIONARY
360
664
102
}
102
{ACAD_REACTORS
330
3C5
102
}
330
3C5
100
AcDbVisualStyle
  2

 70
    15
 71
     2
 72
     2
 73
     0
 90
        0
 40
-0.6
 41
-30.0
 62
     5
 63
     7
 74
     1
 91
        4
 64
     7
 65
   257
 75
     1
175
     1
 42
1.0
 92
        8
 66
     7
 43
1.0
 76
     1
 77
     6
 78
     2
 67
     7
 79
     5
170
     0
171
     0
290
     0
174
     0
 93
        1
 44
0.0
173
     0
291
     1
 45
0.0
1001
ACAD
1000
AcDbSavedByObjectVersion
1070
     0
  0
VISUALSTYLE
  5
3C6
102
{ACAD_XDICTIONARY
360
648
102
}
102
{ACAD_REACTORS
330
3C5
102
}
330
3C5
100
AcDbVisualStyle
  2

 70
     0
 71
     2
 72
     1
 73
     1
 90
        2
 40
-0.6
 41
30.0
 62
     5
 63
     7
 74
     0
 91
        4
 64
     7
 65
   257
 75
     1
175
     1
 42
1.0
 92
        8
 66
     7
 43
1.0
 76
     1
 77
     6
 78
     2
 67
     7
 79
     5
170
     0
171
     0
290
     0
174
     0
 93
       13
 44
0.0
173
     0
291
     1
 45
0.0
1001
ACAD
1000
AcDbSavedByObjectVersion
1070
     0
  0
VISUALSTYLE
  5
3C7
102
{ACAD_XDICTIONARY
360
64A
102
}
102
{ACAD_REACTORS
330
3C5
102
}
330
3C5
100
AcDbVisualStyle
  2

 70
     1
 71
     2
 72
     1
 73
     1
 90
        2
 40
-0.6
 41
30.0
 62
     5
 63
     7
 74
     1
 91
        4
 64
     7
 65
   257
 75
     1
175
     1
 42
1.0
 92
        0
 66
   257
 43
1.0
 76
     1
 77
     6
 78
     2
 67
     7
 79
     5
170
     0
171
     0
290
     0
174
     0
 93
       13
 44
0.0
173
     0
291
     1
 45
0.0
1001
ACAD
1000
AcDbSavedByObjectVersion
1070
     0
  0
VISUALSTYLE
  5
3C8
102
{ACAD_XDICTIONARY
360
64C
102
}
102
{ACAD_REACTORS
330
3C5
102
}
330
3C5
100
AcDbVisualStyle
  2

 70
     2
 71
     2
 72
     2
 73
     1
 90
        2
 40
-0.6
 41
30.0
 62
     5
 63
     7
 74
     0
 91
        4
 64
     7
 65
   257
 75
     1
175
     1
 42
1.0
 92
        0
 66
     7
 43
1.0
 76
     1
 77
     6
 78
     2
 67
     7
 79
     5
170
     0
171
     0
290
     0
174
     0
 93
       13
 44
0.0
173
     0
291
     1
 45
0.0
1001
ACAD
1000
AcDbSavedByObjectVersion
1070
     0
  0
VISUALSTYLE
  5
3C9
102
{ACAD_XDICTIONARY
360
64E
102
}
102
{ACAD_REACTORS
330
3C5
102
}
330
3C5
100
AcDbVisualStyle
  2

 70
     3
 71
     2
 72
     2
 73
     1
 90
        2
 40
-0.6
 41
30.0
 62
     5
 63
     7
 74
     1
 91
        4
 64
     7
 65
   257
 75
     1
175
     1
 42
1.0
 92
        0
 66
   257
 43
1.0
 76
     1
 77
     6
 78
     2
 67
     7
 79
     5
170
     0
171
     0
290
     0
174
     0
 93
       13
 44
0.0
173
     0
291
     1
 45
0.0
1001
ACAD
1000
AcDbSavedByObjectVersion
1070
     0
  0
VISUALSTYLE
  5
66A
102
{ACAD_XDICTIONARY
360
6C4
102
}
102
{ACAD_REACTORS
330
3C5
102
}
330
3C5
100
AcDbVisualStyle
  2
JitterOff
 70
    20
 71
     2
 72
     2
 73
     0
 90
        0
 40
-0.6
 41
-30.0
 62
     5
 63
     7
 74
     1
 91
        4
 64
     7
 65
   257
 75
     1
175
     1
 42
1.0
 92
       10
 66
     7
 43
1.0
 76
     1
 77
     6
 78
     2
 67
     7
 79
     5
170
     0
171
     0
290
     0
174
     0
 93
        1
 44
0.0
173
     0
291
     1
 45
0.0
1001
ACAD
1000
AcDbSavedByObjectVersion
1070
     0
  0
VISUALSTYLE
  5
3D3
102
{ACAD_XDICTIONARY
360
662
102
}
102
{ACAD_REACTORS
330
3C5
102
}
330
3C5
100
AcDbVisualStyle
  2

 70
    14
 71
     2
 72
     2
 73
     0
 90
        0
 40
-0.6
 41
-30.0
 62
     5
 63
     7
 74
     1
 91
        4
 64
     7
 65
   257
 75
     7
175
     7
 42
1.0
 92
        8
 66
     7
 43
1.0
 76
     1
 77
     6
 78
     2
 67
     7
 79
     5
170
     0
171
     0
290
     0
174
     0
 93
        1
 44
0.0
173
     0
291
     1
 45
0.0
1001
ACAD
1000
AcDbSavedByObjectVersion
1070
     0
  0
VISUALSTYLE
  5
66B
102
{ACAD_XDICTIONARY
360
6C6
102
}
102
{ACAD_REACTORS
330
3C5
102
}
330
3C5
100
AcDbVisualStyle
  2
OverhangOff
 70
    21
 71
     2
 72
     2
 73
     0
 90
        0
 40
-0.6
 41
-30.0
 62
     5
 63
     7
 74
     1
 91
        4
 64
     7
 65
   257
 75
     1
175
     1
 42
1.0
 92
        9
 66
     7
 43
1.0
 76
     1
 77
     6
 78
     2
 67
     7
 79
     5
170
     0
171
     0
290
     0
174
     0
 93
        1
 44
0.0
173
     0
291
     1
 45
0.0
1001
ACAD
1000
AcDbSavedByObjectVersion
1070
     0
  0
VISUALSTYLE
  5
3CE
102
{ACAD_XDICTIONARY
360
658
102
}
102
{ACAD_REACTORS
330
3C5
102
}
330
3C5
100
AcDbVisualStyle
  2

 70
     8
 71
     2
 72
     2
 73
     0
 90
        0
 40
-0.6
 41
-30.0
 62
     5
 63
     7
 74
     1
 91
        0
 64
     7
 65
   257
 75
     1
175
     1
 42
1.0
 92
        8
 66
     8
 43
1.0
 76
     1
 77
     6
 78
     2
 67
     7
 79
     5
170
     0
171
     0
290
     0
174
     0
 93
       13
 44
0.0
173
     0
291
     0
 45
0.0
1001
ACAD
1000
AcDbSavedByObjectVersion
1070
     0
  0
VISUALSTYLE
  5
3D2
102
{ACAD_XDICTIONARY
360
660
102
}
102
{ACAD_REACTORS
330
3C5
102
}
330
3C5
100
AcDbVisualStyle
  2

 70
    13
 71
     2
 72
     2
 73
     0
 90
        0
 40
-0.6
 41
-30.0
 62
     5
 63
     7
 74
     1
 91
        4
 64
     7
 65
   257
 75
     1
175
     1
 42
1.0
 92
       12
 66
     7
 43
1.0
 76
     1
 77
     6
 78
     2
 67
     7
 79
     5
170
     0
171
     0
290
     0
174
     0
 93
        1
 44
0.0
173
     0
291
     1
 45
0.0
1001
ACAD
1000
AcDbSavedByObjectVersion
1070
     0
  0
DICTIONARYVAR
  5
641
102
{ACAD_REACTORS
330
357
102
}
330
357
100
DictionaryVariables
280
     0
  1
1:1
  0
DICTIONARYVAR
  5
6B7
102
{ACAD_REACTORS
330
357
102
}
330
357
100
DictionaryVariables
280
     0
  1
STANDARD
  0
DICTIONARYVAR
  5
38D
102
{ACAD_REACTORS
330
357
102
}
330
357
100
DictionaryVariables
280
     0
  1
STANDARD
  0
DICTIONARYVAR
  5
359
102
{ACAD_REACTORS
330
357
102
}
330
357
100
DictionaryVariables
280
     0
  1
2
  0
DICTIONARYVAR
  5
358
102
{ACAD_REACTORS
330
357
102
}
330
357
100
DictionaryVariables
280
     0
  1
1
  0
DICTIONARYVAR
  5
6B9
102
{ACAD_REACTORS
330
357
102
}
330
357
100
DictionaryVariables
280
     0
  1
0
  0
DICTIONARYVAR
  5
38E
102
{ACAD_REACTORS
330
357
102
}
330
357
100
DictionaryVariables
280
     0
  1

  0
DICTIONARYVAR
  5
6B8
102
{ACAD_REACTORS
330
357
102
}
330
357
100
DictionaryVariables
280
     0
  1
127
  0
DICTIONARYVAR
  5
6BA
102
{ACAD_REACTORS
330
357
102
}
330
357
100
DictionaryVariables
280
     0
  1
2
  0
DICTIONARY
  5
6C1
330
33B
100
AcDbDictionary
280
     1
281
     1
  3
ACAD_XREC_ROUNDTRIP
360
6C2
  0
DICTIONARY
  5
6BF
330
303
100
AcDbDictionary
280
     1
281
     1
  3
ACAD_XREC_ROUNDTRIP
360
6C0
  0
DICTIONARY
  5
644
330
3C3
100
AcDbDictionary
280
     1
281
     1
  3
ACAD_XREC_ROUNDTRIP
360
645
  0
DICTIONARY
  5
642
330
3C2
100
AcDbDictionary
280
     1
281
     1
  3
ACAD_XREC_ROUNDTRIP
360
643
  0
DICTIONARY
  5
646
330
3C4
100
AcDbDictionary
280
     1
281
     1
  3
ACAD_XREC_ROUNDTRIP
360
647
  0
DICTIONARY
  5
6BB
330
389
100
AcDbDictionary
280
     1
281
     1
  3
ACAD_ROUNDTRIP_2008_TABLESTYLE_CELLSTYLEMAP
360
6BC
  3
ACAD_XREC_ROUNDTRIP
360
6C3
  0
DICTIONARY
  5
650
330
3CA
100
AcDbDictionary
280
     1
281
     1
  3
ACAD_XREC_ROUNDTRIP
360
651
  0
DICTIONARY
  5
654
330
3CC
100
AcDbDictionary
280
     1
281
     1
  3
ACAD_XREC_ROUNDTRIP
360
655
  0
DICTIONARY
  5
652
330
3CB
100
AcDbDictionary
280
     1
281
     1
  3
ACAD_XREC_ROUNDTRIP
360
653
  0
DICTIONARY
  5
656
330
3CD
100
AcDbDictionary
280
     1
281
     1
  3
ACAD_XREC_ROUNDTRIP
360
657
  0
DICTIONARY
  5
65E
330
3D1
100
AcDbDictionary
280
     1
281
     1
  3
ACAD_XREC_ROUNDTRIP
360
65F
  0
DICTIONARY
  5
666
330
3D5
100
AcDbDictionary
280
     1
281
     1
  3
ACAD_XREC_ROUNDTRIP
360
667
  0
DICTIONARY
  5
65A
330
3CF
100
AcDbDictionary
280
     1
281
     1
  3
ACAD_XREC_ROUNDTRIP
360
65B
  0
DICTIONARY
  5
65C
330
3D0
100
AcDbDictionary
280
     1
281
     1
  3
ACAD_XREC_ROUNDTRIP
360
65D
  0
DICTIONARY
  5
6C8
330
66C
100
AcDbDictionary
280
     1
281
     1
  3
ACAD_XREC_ROUNDTRIP
360
6C9
  0
DICTIONARY
  5
664
330
3D4
100
AcDbDictionary
280
     1
281
     1
  3
ACAD_XREC_ROUNDTRIP
360
665
  0
DICTIONARY
  5
648
330
3C6
100
AcDbDictionary
280
     1
281
     1
  3
ACAD_XREC_ROUNDTRIP
360
649
  0
DICTIONARY
  5
64A
330
3C7
100
AcDbDictionary
280
     1
281
     1
  3
ACAD_XREC_ROUNDTRIP
360
64B
  0
DICTIONARY
  5
64C
330
3C8
100
AcDbDictionary
280
     1
281
     1
  3
ACAD_XREC_ROUNDTRIP
360
64D
  0
DICTIONARY
  5
64E
330
3C9
100
AcDbDictionary
280
     1
281
     1
  3
ACAD_XREC_ROUNDTRIP
360
64F
  0
DICTIONARY
  5
6C4
330
66A
100
AcDbDictionary
280
     1
281
     1
  3
ACAD_XREC_ROUNDTRIP
360
6C5
  0
DICTIONARY
  5
662
330
3D3
100
AcDbDictionary
280
     1
281
     1
  3
ACAD_XREC_ROUNDTRIP
360
663
  0
DICTIONARY
  5
6C6
330
66B
100
AcDbDictionary
280
     1
281
     1
  3
ACAD_XREC_ROUNDTRIP
360
6C7
  0
DICTIONARY
  5
658
330
3CE
100
AcDbDictionary
280
     1
281
     1
  3
ACAD_XREC_ROUNDTRIP
360
659
  0
DICTIONARY
  5
660
330
3D2
100
AcDbDictionary
280
     1
281
     1
  3
ACAD_XREC_ROUNDTRIP
360
661
  0
XRECORD
  5
6C2
102
{ACAD_REACTORS
330
6C1
102
}
330
6C1
100
AcDbXrecord
280
     1
102
SHADEPLOT
 70
     0
102
SHADEPLOTRESLEVEL
 70
     2
102
SHADEPLOTCUSTOMDPI
 70
   300
  0
XRECORD
  5
6C0
102
{ACAD_REACTORS
330
6BF
102
}
330
6BF
100
AcDbXrecord
280
     1
102
SHADEPLOT
 70
     0
102
SHADEPLOTRESLEVEL
 70
     2
102
SHADEPLOTCUSTOMDPI
 70
   300
  0
XRECORD
  5
645
102
{ACAD_REACTORS
330
644
102
}
330
644
100
AcDbXrecord
280
     1
102
MATERIAL
148
0.0
149
0.0
149
0.0
 93
        0
 94
      127
282
     0
 72
     1
 77
     1
171
     1
175
     1
179
     1
273
     0
  0
XRECORD
  5
643
102
{ACAD_REACTORS
330
642
102
}
330
642
100
AcDbXrecord
280
     1
102
MATERIAL
148
0.0
149
0.0
149
0.0
 93
        0
 94
      127
282
     0
 72
     1
 77
     1
171
     1
175
     1
179
     1
273
     0
  0
XRECORD
  5
647
102
{ACAD_REACTORS
330
646
102
}
330
646
100
AcDbXrecord
280
     1
102
MATERIAL
148
0.0
149
0.0
149
0.0
 93
        0
 94
      127
282
     0
 72
     1
 77
     1
171
     1
175
     1
179
     1
273
     0
  0
CELLSTYLEMAP
  5
6BC
102
{ACAD_REACTORS
330
6BB
102
}
330
6BB
100
AcDbCellStyleMap
 90
        3
300
CELLSTYLE
  1
TABLEFORMAT_BEGIN
 90
        5
170
     1
 91
        0
 92
    32768
 62
   257
 93
        1
300
CONTENTFORMAT
  1
CONTENTFORMAT_BEGIN
 90
        0
 91
        0
 92
        4
 93
        0
300

 40
0.0
140
1.0
 94
        5
 62
     0
340
10
144
6.0
309
CONTENTFORMAT_END
171
     1
301
MARGIN
  1
CELLMARGIN_BEGIN
 40
1.5
 40
1.5
 40
1.5
 40
1.5
 40
0.18
 40
0.18
309
CELLMARGIN_END
 94
        6
 95
        1
302
GRIDFORMAT
  1
GRIDFORMAT_BEGIN
 90
        0
 91
        1
 62
     0
 92
       -2
340
0
 93
        0
 40
0.045
309
GRIDFORMAT_END
 95
        2
302
GRIDFORMAT
  1
GRIDFORMAT_BEGIN
 90
        0
 91
        1
 62
     0
 92
       -2
340
0
 93
        0
 40
0.045
309
GRIDFORMAT_END
 95
        4
302
GRIDFORMAT
  1
GRIDFORMAT_BEGIN
 90
        0
 91
        1
 62
     0
 92
       -2
340
0
 93
        0
 40
0.045
309
GRIDFORMAT_END
 95
        8
302
GRIDFORMAT
  1
GRIDFORMAT_BEGIN
 90
        0
 91
        1
 62
     0
 92
       -2
340
0
 93
        0
 40
0.045
309
GRIDFORMAT_END
 95
       16
302
GRIDFORMAT
  1
GRIDFORMAT_BEGIN
 90
        0
 91
        1
 62
     0
 92
       -2
340
0
 93
        0
 40
0.045
309
GRIDFORMAT_END
 95
       32
302
GRIDFORMAT
  1
GRIDFORMAT_BEGIN
 90
        0
 91
        1
 62
     0
 92
       -2
340
0
 93
        0
 40
0.045
309
GRIDFORMAT_END
309
TABLEFORMAT_END
  1
CELLSTYLE_BEGIN
 90
        1
 91
        1
300
_TITLE
309
CELLSTYLE_END
300
CELLSTYLE
  1
TABLEFORMAT_BEGIN
 90
        5
170
     1
 91
        0
 92
        0
 62
   257
 93
        1
300
CONTENTFORMAT
  1
CONTENTFORMAT_BEGIN
 90
        0
 91
        0
 92
        4
 93
        0
300

 40
0.0
140
1.0
 94
        5
 62
     0
340
10
144
4.5
309
CONTENTFORMAT_END
171
     1
301
MARGIN
  1
CELLMARGIN_BEGIN
 40
1.5
 40
1.5
 40
1.5
 40
1.5
 40
0.18
 40
0.18
309
CELLMARGIN_END
 94
        6
 95
        1
302
GRIDFORMAT
  1
GRIDFORMAT_BEGIN
 90
        0
 91
        1
 62
     0
 92
       -2
340
0
 93
        0
 40
0.045
309
GRIDFORMAT_END
 95
        2
302
GRIDFORMAT
  1
GRIDFORMAT_BEGIN
 90
        0
 91
        1
 62
     0
 92
       -2
340
0
 93
        0
 40
0.045
309
GRIDFORMAT_END
 95
        4
302
GRIDFORMAT
  1
GRIDFORMAT_BEGIN
 90
        0
 91
        1
 62
     0
 92
       -2
340
0
 93
        0
 40
0.045
309
GRIDFORMAT_END
 95
        8
302
GRIDFORMAT
  1
GRIDFORMAT_BEGIN
 90
        0
 91
        1
 62
     0
 92
       -2
340
0
 93
        0
 40
0.045
309
GRIDFORMAT_END
 95
       16
302
GRIDFORMAT
  1
GRIDFORMAT_BEGIN
 90
        0
 91
        1
 62
     0
 92
       -2
340
0
 93
        0
 40
0.045
309
GRIDFORMAT_END
 95
       32
302
GRIDFORMAT
  1
GRIDFORMAT_BEGIN
 90
        0
 91
        1
 62
     0
 92
       -2
340
0
 93
        0
 40
0.045
309
GRIDFORMAT_END
309
TABLEFORMAT_END
  1
CELLSTYLE_BEGIN
 90
        2
 91
        1
300
_HEADER
309
CELLSTYLE_END
300
CELLSTYLE
  1
TABLEFORMAT_BEGIN
 90
        5
170
     1
 91
        0
 92
        0
 62
   257
 93
        1
300
CONTENTFORMAT
  1
CONTENTFORMAT_BEGIN
 90
        0
 91
        0
 92
        4
 93
        0
300

 40
0.0
140
1.0
 94
        2
 62
     0
340
10
144
4.5
309
CONTENTFORMAT_END
171
     1
301
MARGIN
  1
CELLMARGIN_BEGIN
 40
1.5
 40
1.5
 40
1.5
 40
1.5
 40
0.18
 40
0.18
309
CELLMARGIN_END
 94
        6
 95
        1
302
GRIDFORMAT
  1
GRIDFORMAT_BEGIN
 90
        0
 91
        1
 62
     0
 92
       -2
340
0
 93
        0
 40
0.045
309
GRIDFORMAT_END
 95
        2
302
GRIDFORMAT
  1
GRIDFORMAT_BEGIN
 90
        0
 91
        1
 62
     0
 92
       -2
340
0
 93
        0
 40
0.045
309
GRIDFORMAT_END
 95
        4
302
GRIDFORMAT
  1
GRIDFORMAT_BEGIN
 90
        0
 91
        1
 62
     0
 92
       -2
340
0
 93
        0
 40
0.045
309
GRIDFORMAT_END
 95
        8
302
GRIDFORMAT
  1
GRIDFORMAT_BEGIN
 90
        0
 91
        1
 62
     0
 92
       -2
340
0
 93
        0
 40
0.045
309
GRIDFORMAT_END
 95
       16
302
GRIDFORMAT
  1
GRIDFORMAT_BEGIN
 90
        0
 91
        1
 62
     0
 92
       -2
340
0
 93
        0
 40
0.045
309
GRIDFORMAT_END
 95
       32
302
GRIDFORMAT
  1
GRIDFORMAT_BEGIN
 90
        0
 91
        1
 62
     0
 92
       -2
340
0
 93
        0
 40
0.045
309
GRIDFORMAT_END
309
TABLEFORMAT_END
  1
CELLSTYLE_BEGIN
 90
        3
 91
        2
300
_DATA
309
CELLSTYLE_END
  0
XRECORD
  5
6C3
102
{ACAD_REACTORS
330
6BB
102
}
330
6BB
100
AcDbXrecord
280
     1
102
ACAD_ROUNDTRIP_PRE2007_TABLESTYLE
 90
        4
 91
        0
  1

 92
        4
 93
        0
  2

 94
        4
 95
        0
  3

  0
XRECORD
  5
651
102
{ACAD_REACTORS
330
650
102
}
330
650
100
AcDbXrecord
280
     1
102
RTVSPropertyOp28
 70
     1
102
RTVSPropertyOp29
 70
     1
102
RTVSPropertyOp30
 70
     1
102
RTVSPropertyOp31
 70
     1
102
RTVSPropertyOp32
 70
     1
102
RTVSPropertyOp0
 70
     1
102
RTVSPropertyOp1
 70
     1
102
RTVSPropertyOp2
 70
     1
102
RTVSPropertyOp3
 70
     1
102
RTVSPropertyOp4
 70
     1
102
RTVSPropertyOp5
 70
     1
102
RTVSPropertyOp6
 70
     1
102
RTVSPropertyOp7
 70
     1
102
RTVSPropertyOp8
 70
     1
102
RTVSPropertyOp9
 70
     1
102
RTVSPropertyOp10
 70
     1
102
RTVSPropertyOp11
 70
     1
102
RTVSPropertyOp12
 70
     1
102
RTVSPropertyOp13
 70
     1
102
RTVSPropertyOp14
 70
     1
102
RTVSPropertyOp15
 70
     1
102
RTVSPropertyOp16
 70
     1
102
RTVSPropertyOp17
 70
     1
102
RTVSPropertyOp18
 70
     1
102
RTVSPropertyOp19
 70
     1
102
RTVSPropertyOp20
 70
     1
102
RTVSPropertyOp21
 70
     1
102
RTVSPropertyOp22
 70
     1
102
RTVSPropertyOp23
 70
     1
102
RTVSPropertyOp24
 70
     1
102
RTVSPropertyOp25
 70
     1
102
RTVSPropertyOp26
 70
     1
102
RTVSPropertyOp27
 70
     1
  0
XRECORD
  5
655
102
{ACAD_REACTORS
330
654
102
}
330
654
100
AcDbXrecord
280
     1
102
RTVSPropertyOp28
 70
     1
102
RTVSPropertyOp29
 70
     1
102
RTVSPropertyOp30
 70
     1
102
RTVSPropertyOp31
 70
     1
102
RTVSPropertyOp32
 70
     1
102
RTVSPropertyOp0
 70
     1
102
RTVSPropertyOp1
 70
     1
102
RTVSPropertyOp2
 70
     1
102
RTVSPropertyOp3
 70
     1
102
RTVSPropertyOp4
 70
     1
102
RTVSPropertyOp5
 70
     1
102
RTVSPropertyOp6
 70
     1
102
RTVSPropertyOp7
 70
     1
102
RTVSPropertyOp8
 70
     1
102
RTVSPropertyOp9
 70
     1
102
RTVSPropertyOp10
 70
     1
102
RTVSPropertyOp11
 70
     1
102
RTVSPropertyOp12
 70
     1
102
RTVSPropertyOp13
 70
     1
102
RTVSPropertyOp14
 70
     1
102
RTVSPropertyOp15
 70
     1
102
RTVSPropertyOp16
 70
     1
102
RTVSPropertyOp17
 70
     1
102
RTVSPropertyOp18
 70
     1
102
RTVSPropertyOp19
 70
     1
102
RTVSPropertyOp20
 70
     1
102
RTVSPropertyOp21
 70
     1
102
RTVSPropertyOp22
 70
     1
102
RTVSPropertyOp23
 70
     1
102
RTVSPropertyOp24
 70
     1
102
RTVSPropertyOp25
 70
     1
102
RTVSPropertyOp26
 70
     1
102
RTVSPropertyOp27
 70
     1
  0
XRECORD
  5
653
102
{ACAD_REACTORS
330
652
102
}
330
652
100
AcDbXrecord
280
     1
102
RTVSPropertyOp28
 70
     1
102
RTVSPropertyOp29
 70
     1
102
RTVSPropertyOp30
 70
     1
102
RTVSPropertyOp31
 70
     1
102
RTVSPropertyOp32
 70
     1
102
RTVSPropertyOp0
 70
     1
102
RTVSPropertyOp1
 70
     1
102
RTVSPropertyOp2
 70
     1
102
RTVSPropertyOp3
 70
     1
102
RTVSPropertyOp4
 70
     1
102
RTVSPropertyOp5
 70
     1
102
RTVSPropertyOp6
 70
     1
102
RTVSPropertyOp7
 70
     1
102
RTVSPropertyOp8
 70
     1
102
RTVSPropertyOp9
 70
     1
102
RTVSPropertyOp10
 70
     1
102
RTVSPropertyOp11
 70
     1
102
RTVSPropertyOp12
 70
     1
102
RTVSPropertyOp13
 70
     1
102
RTVSPropertyOp14
 70
     1
102
RTVSPropertyOp15
 70
     1
102
RTVSPropertyOp16
 70
     1
102
RTVSPropertyOp17
 70
     1
102
RTVSPropertyOp18
 70
     1
102
RTVSPropertyOp19
 70
     1
102
RTVSPropertyOp20
 70
     1
102
RTVSPropertyOp21
 70
     1
102
RTVSPropertyOp22
 70
     1
102
RTVSPropertyOp23
 70
     1
102
RTVSPropertyOp24
 70
     1
102
RTVSPropertyOp25
 70
     1
102
RTVSPropertyOp26
 70
     1
102
RTVSPropertyOp27
 70
     1
  0
XRECORD
  5
657
102
{ACAD_REACTORS
330
656
102
}
330
656
100
AcDbXrecord
280
     1
102
RTVSPropertyOp28
 70
     1
102
RTVSPropertyOp29
 70
     1
102
RTVSPropertyOp30
 70
     1
102
RTVSPropertyOp31
 70
     1
102
RTVSPropertyOp32
 70
     1
102
RTVSPropertyOp0
 70
     1
102
RTVSPropertyOp1
 70
     1
102
RTVSPropertyOp2
 70
     1
102
RTVSPropertyOp3
 70
     1
102
RTVSPropertyOp4
 70
     1
102
RTVSPropertyOp5
 70
     1
102
RTVSPropertyOp6
 70
     1
102
RTVSPropertyOp7
 70
     1
102
RTVSPropertyOp8
 70
     1
102
RTVSPropertyOp9
 70
     1
102
RTVSPropertyOp10
 70
     1
102
RTVSPropertyOp11
 70
     1
102
RTVSPropertyOp12
 70
     1
102
RTVSPropertyOp13
 70
     1
102
RTVSPropertyOp14
 70
     1
102
RTVSPropertyOp15
 70
     1
102
RTVSPropertyOp16
 70
     1
102
RTVSPropertyOp17
 70
     1
102
RTVSPropertyOp18
 70
     1
102
RTVSPropertyOp19
 70
     1
102
RTVSPropertyOp20
 70
     1
102
RTVSPropertyOp21
 70
     1
102
RTVSPropertyOp22
 70
     1
102
RTVSPropertyOp23
 70
     1
102
RTVSPropertyOp24
 70
     1
102
RTVSPropertyOp25
 70
     1
102
RTVSPropertyOp26
 70
     1
102
RTVSPropertyOp27
 70
     1
  0
XRECORD
  5
65F
102
{ACAD_REACTORS
330
65E
102
}
330
65E
100
AcDbXrecord
280
     1
102
RTVSPropertyOp28
 70
     1
102
RTVSPropertyOp29
 70
     1
102
RTVSPropertyOp30
 70
     1
102
RTVSPropertyOp31
 70
     1
102
RTVSPropertyOp32
 70
     1
102
RTVSPropertyOp0
 70
     1
102
RTVSPropertyOp1
 70
     1
102
RTVSPropertyOp2
 70
     1
102
RTVSPropertyOp3
 70
     1
102
RTVSPropertyOp4
 70
     1
102
RTVSPropertyOp5
 70
     1
102
RTVSPropertyOp6
 70
     1
102
RTVSPropertyOp7
 70
     1
102
RTVSPropertyOp8
 70
     1
102
RTVSPropertyOp9
 70
     1
102
RTVSPropertyOp10
 70
     1
102
RTVSPropertyOp11
 70
     1
102
RTVSPropertyOp12
 70
     1
102
RTVSPropertyOp13
 70
     1
102
RTVSPropertyOp14
 70
     1
102
RTVSPropertyOp15
 70
     1
102
RTVSPropertyOp16
 70
     1
102
RTVSPropertyOp17
 70
     1
102
RTVSPropertyOp18
 70
     1
102
RTVSPropertyOp19
 70
     1
102
RTVSPropertyOp20
 70
     1
102
RTVSPropertyOp21
 70
     1
102
RTVSPropertyOp22
 70
     1
102
RTVSPropertyOp23
 70
     1
102
RTVSPropertyOp24
 70
     1
102
RTVSPropertyOp25
 70
     1
102
RTVSPropertyOp26
 70
     1
102
RTVSPropertyOp27
 70
     1
  0
XRECORD
  5
667
102
{ACAD_REACTORS
330
666
102
}
330
666
100
AcDbXrecord
280
     1
102
RTVSPropertyOp28
 70
     1
102
RTVSPropertyOp29
 70
     1
102
RTVSPropertyOp30
 70
     1
102
RTVSPropertyOp31
 70
     1
102
RTVSPropertyOp32
 70
     1
102
RTVSPropertyOp0
 70
     1
102
RTVSPropertyOp1
 70
     1
102
RTVSPropertyOp2
 70
     1
102
RTVSPropertyOp3
 70
     1
102
RTVSPropertyOp4
 70
     1
102
RTVSPropertyOp5
 70
     1
102
RTVSPropertyOp6
 70
     1
102
RTVSPropertyOp7
 70
     1
102
RTVSPropertyOp8
 70
     1
102
RTVSPropertyOp9
 70
     1
102
RTVSPropertyOp10
 70
     1
102
RTVSPropertyOp11
 70
     1
102
RTVSPropertyOp12
 70
     1
102
RTVSPropertyOp13
 70
     1
102
RTVSPropertyOp14
 70
     1
102
RTVSPropertyOp15
 70
     1
102
RTVSPropertyOp16
 70
     1
102
RTVSPropertyOp17
 70
     1
102
RTVSPropertyOp18
 70
     1
102
RTVSPropertyOp19
 70
     1
102
RTVSPropertyOp20
 70
     1
102
RTVSPropertyOp21
 70
     1
102
RTVSPropertyOp22
 70
     1
102
RTVSPropertyOp23
 70
     1
102
RTVSPropertyOp24
 70
     1
102
RTVSPropertyOp25
 70
     1
102
RTVSPropertyOp26
 70
     1
102
RTVSPropertyOp27
 70
     1
  0
XRECORD
  5
65B
102
{ACAD_REACTORS
330
65A
102
}
330
65A
100
AcDbXrecord
280
     1
102
RTVSPropertyOp28
 70
     1
102
RTVSPropertyOp29
 70
     1
102
RTVSPropertyOp30
 70
     1
102
RTVSPropertyOp31
 70
     1
102
RTVSPropertyOp32
 70
     1
102
RTVSPropertyOp0
 70
     1
102
RTVSPropertyOp1
 70
     1
102
RTVSPropertyOp2
 70
     1
102
RTVSPropertyOp3
 70
     1
102
RTVSPropertyOp4
 70
     1
102
RTVSPropertyOp5
 70
     1
102
RTVSPropertyOp6
 70
     1
102
RTVSPropertyOp7
 70
     1
102
RTVSPropertyOp8
 70
     1
102
RTVSPropertyOp9
 70
     1
102
RTVSPropertyOp10
 70
     1
102
RTVSPropertyOp11
 70
     1
102
RTVSPropertyOp12
 70
     1
102
RTVSPropertyOp13
 70
     1
102
RTVSPropertyOp14
 70
     1
102
RTVSPropertyOp15
 70
     1
102
RTVSPropertyOp16
 70
     1
102
RTVSPropertyOp17
 70
     1
102
RTVSPropertyOp18
 70
     1
102
RTVSPropertyOp19
 70
     1
102
RTVSPropertyOp20
 70
     1
102
RTVSPropertyOp21
 70
     1
102
RTVSPropertyOp22
 70
     1
102
RTVSPropertyOp23
 70
     1
102
RTVSPropertyOp24
 70
     1
102
RTVSPropertyOp25
 70
     1
102
RTVSPropertyOp26
 70
     1
102
RTVSPropertyOp27
 70
     1
  0
XRECORD
  5
65D
102
{ACAD_REACTORS
330
65C
102
}
330
65C
100
AcDbXrecord
280
     1
102
RTVSPropertyOp28
 70
     1
102
RTVSPropertyOp29
 70
     1
102
RTVSPropertyOp30
 70
     1
102
RTVSPropertyOp31
 70
     1
102
RTVSPropertyOp32
 70
     1
102
RTVSPropertyOp0
 70
     1
102
RTVSPropertyOp1
 70
     1
102
RTVSPropertyOp2
 70
     1
102
RTVSPropertyOp3
 70
     1
102
RTVSPropertyOp4
 70
     1
102
RTVSPropertyOp5
 70
     1
102
RTVSPropertyOp6
 70
     1
102
RTVSPropertyOp7
 70
     1
102
RTVSPropertyOp8
 70
     1
102
RTVSPropertyOp9
 70
     1
102
RTVSPropertyOp10
 70
     1
102
RTVSPropertyOp11
 70
     1
102
RTVSPropertyOp12
 70
     1
102
RTVSPropertyOp13
 70
     1
102
RTVSPropertyOp14
 70
     1
102
RTVSPropertyOp15
 70
     1
102
RTVSPropertyOp16
 70
     1
102
RTVSPropertyOp17
 70
     1
102
RTVSPropertyOp18
 70
     1
102
RTVSPropertyOp19
 70
     1
102
RTVSPropertyOp20
 70
     1
102
RTVSPropertyOp21
 70
     1
102
RTVSPropertyOp22
 70
     1
102
RTVSPropertyOp23
 70
     1
102
RTVSPropertyOp24
 70
     1
102
RTVSPropertyOp25
 70
     1
102
RTVSPropertyOp26
 70
     1
102
RTVSPropertyOp27
 70
     1
  0
XRECORD
  5
6C9
102
{ACAD_REACTORS
330
6C8
102
}
330
6C8
100
AcDbXrecord
280
     1
102
RTVSPropertyOp0
 70
     0
102
RTVSPropertyOp1
 70
     0
102
RTVSPropertyOp2
 70
     0
102
RTVSPropertyOp3
 70
     0
102
RTVSPropertyOp4
 70
     0
102
RTVSPropertyOp5
 70
     0
102
RTVSPropertyOp6
 70
     0
102
RTVSPropertyOp7
 70
     0
102
RTVSPropertyOp8
 70
     0
102
RTVSPropertyOp9
 70
     0
102
RTVSPropertyOp10
 70
     0
102
RTVSPropertyOp11
 70
     0
102
RTVSPropertyOp12
 70
     0
102
RTVSPropertyOp13
 70
     0
102
RTVSPropertyOp14
 70
     2
102
RTVSPropertyOp15
 70
     0
102
RTVSPropertyOp16
 70
     0
102
RTVSPropertyOp17
 70
     0
102
RTVSPropertyOp18
 70
     0
102
RTVSPropertyOp19
 70
     0
102
RTVSPropertyOp20
 70
     0
102
RTVSPropertyOp21
 70
     0
102
RTVSPropertyOp22
 70
     0
102
RTVSPropertyOp23
 70
     0
102
RTVSPropertyOp24
 70
     0
102
RTVSPropertyOp25
 70
     0
102
RTVSPropertyOp26
 70
     0
102
RTVSPropertyOp27
 70
     0
  0
XRECORD
  5
665
102
{ACAD_REACTORS
330
664
102
}
330
664
100
AcDbXrecord
280
     1
102
RTVSPropertyOp28
 70
     1
102
RTVSPropertyOp29
 70
     1
102
RTVSPropertyOp30
 70
     1
102
RTVSPropertyOp31
 70
     1
102
RTVSPropertyOp32
 70
     1
102
RTVSPropertyOp0
 70
     1
102
RTVSPropertyOp1
 70
     1
102
RTVSPropertyOp2
 70
     1
102
RTVSPropertyOp3
 70
     1
102
RTVSPropertyOp4
 70
     1
102
RTVSPropertyOp5
 70
     1
102
RTVSPropertyOp6
 70
     1
102
RTVSPropertyOp7
 70
     1
102
RTVSPropertyOp8
 70
     1
102
RTVSPropertyOp9
 70
     1
102
RTVSPropertyOp10
 70
     1
102
RTVSPropertyOp11
 70
     1
102
RTVSPropertyOp12
 70
     1
102
RTVSPropertyOp13
 70
     1
102
RTVSPropertyOp14
 70
     1
102
RTVSPropertyOp15
 70
     1
102
RTVSPropertyOp16
 70
     1
102
RTVSPropertyOp17
 70
     1
102
RTVSPropertyOp18
 70
     1
102
RTVSPropertyOp19
 70
     1
102
RTVSPropertyOp20
 70
     1
102
RTVSPropertyOp21
 70
     1
102
RTVSPropertyOp22
 70
     1
102
RTVSPropertyOp23
 70
     1
102
RTVSPropertyOp24
 70
     1
102
RTVSPropertyOp25
 70
     1
102
RTVSPropertyOp26
 70
     1
102
RTVSPropertyOp27
 70
     1
  0
XRECORD
  5
649
102
{ACAD_REACTORS
330
648
102
}
330
648
100
AcDbXrecord
280
     1
102
RTVSPropertyOp28
 70
     1
102
RTVSPropertyOp29
 70
     1
102
RTVSPropertyOp30
 70
     1
102
RTVSPropertyOp31
 70
     1
102
RTVSPropertyOp32
 70
     1
102
RTVSPropertyOp0
 70
     1
102
RTVSPropertyOp1
 70
     1
102
RTVSPropertyOp2
 70
     1
102
RTVSPropertyOp3
 70
     1
102
RTVSPropertyOp4
 70
     1
102
RTVSPropertyOp5
 70
     1
102
RTVSPropertyOp6
 70
     1
102
RTVSPropertyOp7
 70
     1
102
RTVSPropertyOp8
 70
     1
102
RTVSPropertyOp9
 70
     1
102
RTVSPropertyOp10
 70
     1
102
RTVSPropertyOp11
 70
     1
102
RTVSPropertyOp12
 70
     1
102
RTVSPropertyOp13
 70
     1
102
RTVSPropertyOp14
 70
     1
102
RTVSPropertyOp15
 70
     1
102
RTVSPropertyOp16
 70
     1
102
RTVSPropertyOp17
 70
     1
102
RTVSPropertyOp18
 70
     1
102
RTVSPropertyOp19
 70
     1
102
RTVSPropertyOp20
 70
     1
102
RTVSPropertyOp21
 70
     1
102
RTVSPropertyOp22
 70
     1
102
RTVSPropertyOp23
 70
     1
102
RTVSPropertyOp24
 70
     1
102
RTVSPropertyOp25
 70
     1
102
RTVSPropertyOp26
 70
     1
102
RTVSPropertyOp27
 70
     1
  0
XRECORD
  5
64B
102
{ACAD_REACTORS
330
64A
102
}
330
64A
100
AcDbXrecord
280
     1
102
RTVSPropertyOp28
 70
     1
102
RTVSPropertyOp29
 70
     1
102
RTVSPropertyOp30
 70
     1
102
RTVSPropertyOp31
 70
     1
102
RTVSPropertyOp32
 70
     1
102
RTVSPropertyOp0
 70
     1
102
RTVSPropertyOp1
 70
     1
102
RTVSPropertyOp2
 70
     1
102
RTVSPropertyOp3
 70
     1
102
RTVSPropertyOp4
 70
     1
102
RTVSPropertyOp5
 70
     1
102
RTVSPropertyOp6
 70
     1
102
RTVSPropertyOp7
 70
     1
102
RTVSPropertyOp8
 70
     1
102
RTVSPropertyOp9
 70
     1
102
RTVSPropertyOp10
 70
     1
102
RTVSPropertyOp11
 70
     1
102
RTVSPropertyOp12
 70
     1
102
RTVSPropertyOp13
 70
     1
102
RTVSPropertyOp14
 70
     1
102
RTVSPropertyOp15
 70
     1
102
RTVSPropertyOp16
 70
     1
102
RTVSPropertyOp17
 70
     1
102
RTVSPropertyOp18
 70
     1
102
RTVSPropertyOp19
 70
     1
102
RTVSPropertyOp20
 70
     1
102
RTVSPropertyOp21
 70
     1
102
RTVSPropertyOp22
 70
     1
102
RTVSPropertyOp23
 70
     1
102
RTVSPropertyOp24
 70
     1
102
RTVSPropertyOp25
 70
     1
102
RTVSPropertyOp26
 70
     1
102
RTVSPropertyOp27
 70
     1
  0
XRECORD
  5
64D
102
{ACAD_REACTORS
330
64C
102
}
330
64C
100
AcDbXrecord
280
     1
102
RTVSPropertyOp28
 70
     1
102
RTVSPropertyOp29
 70
     1
102
RTVSPropertyOp30
 70
     1
102
RTVSPropertyOp31
 70
     1
102
RTVSPropertyOp32
 70
     1
102
RTVSPropertyOp0
 70
     1
102
RTVSPropertyOp1
 70
     1
102
RTVSPropertyOp2
 70
     1
102
RTVSPropertyOp3
 70
     1
102
RTVSPropertyOp4
 70
     1
102
RTVSPropertyOp5
 70
     1
102
RTVSPropertyOp6
 70
     1
102
RTVSPropertyOp7
 70
     1
102
RTVSPropertyOp8
 70
     1
102
RTVSPropertyOp9
 70
     1
102
RTVSPropertyOp10
 70
     1
102
RTVSPropertyOp11
 70
     1
102
RTVSPropertyOp12
 70
     1
102
RTVSPropertyOp13
 70
     1
102
RTVSPropertyOp14
 70
     1
102
RTVSPropertyOp15
 70
     1
102
RTVSPropertyOp16
 70
     1
102
RTVSPropertyOp17
 70
     1
102
RTVSPropertyOp18
 70
     1
102
RTVSPropertyOp19
 70
     1
102
RTVSPropertyOp20
 70
     1
102
RTVSPropertyOp21
 70
     1
102
RTVSPropertyOp22
 70
     1
102
RTVSPropertyOp23
 70
     1
102
RTVSPropertyOp24
 70
     1
102
RTVSPropertyOp25
 70
     1
102
RTVSPropertyOp26
 70
     1
102
RTVSPropertyOp27
 70
     1
  0
XRECORD
  5
64F
102
{ACAD_REACTORS
330
64E
102
}
330
64E
100
AcDbXrecord
280
     1
102
RTVSPropertyOp28
 70
     1
102
RTVSPropertyOp29
 70
     1
102
RTVSPropertyOp30
 70
     1
102
RTVSPropertyOp31
 70
     1
102
RTVSPropertyOp32
 70
     1
102
RTVSPropertyOp0
 70
     1
102
RTVSPropertyOp1
 70
     1
102
RTVSPropertyOp2
 70
     1
102
RTVSPropertyOp3
 70
     1
102
RTVSPropertyOp4
 70
     1
102
RTVSPropertyOp5
 70
     1
102
RTVSPropertyOp6
 70
     1
102
RTVSPropertyOp7
 70
     1
102
RTVSPropertyOp8
 70
     1
102
RTVSPropertyOp9
 70
     1
102
RTVSPropertyOp10
 70
     1
102
RTVSPropertyOp11
 70
     1
102
RTVSPropertyOp12
 70
     1
102
RTVSPropertyOp13
 70
     1
102
RTVSPropertyOp14
 70
     1
102
RTVSPropertyOp15
 70
     1
102
RTVSPropertyOp16
 70
     1
102
RTVSPropertyOp17
 70
     1
102
RTVSPropertyOp18
 70
     1
102
RTVSPropertyOp19
 70
     1
102
RTVSPropertyOp20
 70
     1
102
RTVSPropertyOp21
 70
     1
102
RTVSPropertyOp22
 70
     1
102
RTVSPropertyOp23
 70
     1
102
RTVSPropertyOp24
 70
     1
102
RTVSPropertyOp25
 70
     1
102
RTVSPropertyOp26
 70
     1
102
RTVSPropertyOp27
 70
     1
  0
XRECORD
  5
6C5
102
{ACAD_REACTORS
330
6C4
102
}
330
6C4
100
AcDbXrecord
280
     1
102
RTVSPropertyOp0
 70
     0
102
RTVSPropertyOp1
 70
     0
102
RTVSPropertyOp2
 70
     0
102
RTVSPropertyOp3
 70
     0
102
RTVSPropertyOp4
 70
     0
102
RTVSPropertyOp5
 70
     0
102
RTVSPropertyOp6
 70
     0
102
RTVSPropertyOp7
 70
     0
102
RTVSPropertyOp8
 70
     0
102
RTVSPropertyOp9
 70
     0
102
RTVSPropertyOp10
 70
     0
102
RTVSPropertyOp11
 70
     0
102
RTVSPropertyOp12
 70
     0
102
RTVSPropertyOp13
 70
     0
102
RTVSPropertyOp14
 70
     2
102
RTVSPropertyOp15
 70
     0
102
RTVSPropertyOp16
 70
     0
102
RTVSPropertyOp17
 70
     0
102
RTVSPropertyOp18
 70
     0
102
RTVSPropertyOp19
 70
     0
102
RTVSPropertyOp20
 70
     0
102
RTVSPropertyOp21
 70
     0
102
RTVSPropertyOp22
 70
     0
102
RTVSPropertyOp23
 70
     0
102
RTVSPropertyOp24
 70
     0
102
RTVSPropertyOp25
 70
     0
102
RTVSPropertyOp26
 70
     0
102
RTVSPropertyOp27
 70
     0
  0
XRECORD
  5
663
102
{ACAD_REACTORS
330
662
102
}
330
662
100
AcDbXrecord
280
     1
102
RTVSPropertyOp28
 70
     1
102
RTVSPropertyOp29
 70
     1
102
RTVSPropertyOp30
 70
     1
102
RTVSPropertyOp31
 70
     1
102
RTVSPropertyOp32
 70
     1
102
RTVSPropertyOp0
 70
     1
102
RTVSPropertyOp1
 70
     1
102
RTVSPropertyOp2
 70
     1
102
RTVSPropertyOp3
 70
     1
102
RTVSPropertyOp4
 70
     1
102
RTVSPropertyOp5
 70
     1
102
RTVSPropertyOp6
 70
     1
102
RTVSPropertyOp7
 70
     1
102
RTVSPropertyOp8
 70
     1
102
RTVSPropertyOp9
 70
     1
102
RTVSPropertyOp10
 70
     1
102
RTVSPropertyOp11
 70
     1
102
RTVSPropertyOp12
 70
     1
102
RTVSPropertyOp13
 70
     1
102
RTVSPropertyOp14
 70
     1
102
RTVSPropertyOp15
 70
     1
102
RTVSPropertyOp16
 70
     1
102
RTVSPropertyOp17
 70
     1
102
RTVSPropertyOp18
 70
     1
102
RTVSPropertyOp19
 70
     1
102
RTVSPropertyOp20
 70
     1
102
RTVSPropertyOp21
 70
     1
102
RTVSPropertyOp22
 70
     1
102
RTVSPropertyOp23
 70
     1
102
RTVSPropertyOp24
 70
     1
102
RTVSPropertyOp25
 70
     1
102
RTVSPropertyOp26
 70
     1
102
RTVSPropertyOp27
 70
     1
  0
XRECORD
  5
6C7
102
{ACAD_REACTORS
330
6C6
102
}
330
6C6
100
AcDbXrecord
280
     1
102
RTVSPropertyOp0
 70
     0
102
RTVSPropertyOp1
 70
     0
102
RTVSPropertyOp2
 70
     0
102
RTVSPropertyOp3
 70
     0
102
RTVSPropertyOp4
 70
     0
102
RTVSPropertyOp5
 70
     0
102
RTVSPropertyOp6
 70
     0
102
RTVSPropertyOp7
 70
     0
102
RTVSPropertyOp8
 70
     0
102
RTVSPropertyOp9
 70
     0
102
RTVSPropertyOp10
 70
     0
102
RTVSPropertyOp11
 70
     0
102
RTVSPropertyOp12
 70
     0
102
RTVSPropertyOp13
 70
     0
102
RTVSPropertyOp14
 70
     2
102
RTVSPropertyOp15
 70
     0
102
RTVSPropertyOp16
 70
     0
102
RTVSPropertyOp17
 70
     0
102
RTVSPropertyOp18
 70
     0
102
RTVSPropertyOp19
 70
     0
102
RTVSPropertyOp20
 70
     0
102
RTVSPropertyOp21
 70
     0
102
RTVSPropertyOp22
 70
     0
102
RTVSPropertyOp23
 70
     0
102
RTVSPropertyOp24
 70
     0
102
RTVSPropertyOp25
 70
     0
102
RTVSPropertyOp26
 70
     0
102
RTVSPropertyOp27
 70
     0
  0
XRECORD
  5
659
102
{ACAD_REACTORS
330
658
102
}
330
658
100
AcDbXrecord
280
     1
102
RTVSPropertyOp28
 70
     1
102
RTVSPropertyOp29
 70
     1
102
RTVSPropertyOp30
 70
     1
102
RTVSPropertyOp31
 70
     1
102
RTVSPropertyOp32
 70
     1
102
RTVSPropertyOp0
 70
     1
102
RTVSPropertyOp1
 70
     1
102
RTVSPropertyOp2
 70
     1
102
RTVSPropertyOp3
 70
     1
102
RTVSPropertyOp4
 70
     1
102
RTVSPropertyOp5
 70
     1
102
RTVSPropertyOp6
 70
     1
102
RTVSPropertyOp7
 70
     1
102
RTVSPropertyOp8
 70
     1
102
RTVSPropertyOp9
 70
     1
102
RTVSPropertyOp10
 70
     1
102
RTVSPropertyOp11
 70
     1
102
RTVSPropertyOp12
 70
     1
102
RTVSPropertyOp13
 70
     1
102
RTVSPropertyOp14
 70
     1
102
RTVSPropertyOp15
 70
     1
102
RTVSPropertyOp16
 70
     1
102
RTVSPropertyOp17
 70
     1
102
RTVSPropertyOp18
 70
     1
102
RTVSPropertyOp19
 70
     1
102
RTVSPropertyOp20
 70
     1
102
RTVSPropertyOp21
 70
     1
102
RTVSPropertyOp22
 70
     1
102
RTVSPropertyOp23
 70
     1
102
RTVSPropertyOp24
 70
     1
102
RTVSPropertyOp25
 70
     1
102
RTVSPropertyOp26
 70
     1
102
RTVSPropertyOp27
 70
     1
  0
XRECORD
  5
661
102
{ACAD_REACTORS
330
660
102
}
330
660
100
AcDbXrecord
280
     1
102
RTVSPropertyOp28
 70
     1
102
RTVSPropertyOp29
 70
     1
102
RTVSPropertyOp30
 70
     1
102
RTVSPropertyOp31
 70
     1
102
RTVSPropertyOp32
 70
     1
102
RTVSPropertyOp0
 70
     1
102
RTVSPropertyOp1
 70
     1
102
RTVSPropertyOp2
 70
     1
102
RTVSPropertyOp3
 70
     1
102
RTVSPropertyOp4
 70
     1
102
RTVSPropertyOp5
 70
     1
102
RTVSPropertyOp6
 70
     1
102
RTVSPropertyOp7
 70
     1
102
RTVSPropertyOp8
 70
     1
102
RTVSPropertyOp9
 70
     1
102
RTVSPropertyOp10
 70
     1
102
RTVSPropertyOp11
 70
     1
102
RTVSPropertyOp12
 70
     1
102
RTVSPropertyOp13
 70
     1
102
RTVSPropertyOp14
 70
     1
102
RTVSPropertyOp15
 70
     1
102
RTVSPropertyOp16
 70
     1
102
RTVSPropertyOp17
 70
     1
102
RTVSPropertyOp18
 70
     1
102
RTVSPropertyOp19
 70
     1
102
RTVSPropertyOp20
 70
     1
102
RTVSPropertyOp21
 70
     1
102
RTVSPropertyOp22
 70
     1
102
RTVSPropertyOp23
 70
     1
102
RTVSPropertyOp24
 70
     1
102
RTVSPropertyOp25
 70
     1
102
RTVSPropertyOp26
 70
     1
102
RTVSPropertyOp27
 70
     1
  0
ENDSEC
  0
EOF
