0
SECTION
2
HEADER
9
$ACADVER
1
AC1015
9
$DWGCODEPAGE
3
ANSI_1252
9
$HANDSEED
5
378
9
$ANGBASE
50
0
9
$ANGDIR
70
0
9
$ATTMODE
70
1
9
$AUNITS
70
0
9
$AUPREC
70
0
9
$CECOLOR
62
256
9
$CELTSCALE
40
1
9
$CELTYPE
6
ByLayer
9
$CELWEIGHT
370
-1
9
$CLAYER
8
0
9
$CMLJUST
70
0
9
$CMLSCALE
40
1
9
$CMLSTYLE
2
Standard
9
$DIMSTYLE
2
Standard
9
$TEXTSIZE
40
0.2
9
$TEXTSTYLE
7
Standard
9
$LUNITS
70
2
9
$LUPREC
70
4
9
$EXTNAMES
290
1
9
$INSUNITS
70
4
9
$LTSCALE
40
1
9
$LWDISPLAY
290
0
9
$PDMODE
70
0
9
$PDSIZE
40
0
9
$PLINEGEN
70
0
0
ENDSEC
0
SECTION
2
CLASSES
0
CLASS
1
RASTERVARIABLES
2
AcDbRasterVariables
3
ISM
90
0
280
0
281
0
0
ENDSEC
0
SECTION
2
TABLES
0
TABLE
2
VPORT
5
36e
100
AcDbSymbolTable
0
VPORT
5
1
100
AcDbSymbolTableRecord
100
AcDbViewportTableRecord
2
*Active
70
0
10
0
20
0
11
1
21
1
12
-1
22
1
13
0
23
0
14
0.5
24
0.5
15
10
25
10
16
0
26
0
36
1
17
0
27
0
37
0
0
ENDTAB
0
TABLE
2
LTYPE
5
36f
100
AcDbSymbolTable
0
LTYPE
5
14
100
AcDbSymbolTableRecord
100
AcDbLinetypeTableRecord
70
0
2
ByBlock
3

72
65
73
0
40
0
0
LTYPE
5
15
100
AcDbSymbolTableRecord
100
AcDbLinetypeTableRecord
70
0
2
ByLayer
3

72
65
73
0
40
0
0
LTYPE
5
16
100
AcDbSymbolTableRecord
100
AcDbLinetypeTableRecord
70
0
2
CONTINUOUS
3
Solid line
72
65
73
0
40
0
0
LTYPE
5
3B
100
AcDbSymbolTableRecord
100
AcDbLinetypeTableRecord
70
0
2
DASHED
3
__ __ __ __ __ __ __ __ __
72
65
73
2
40
25.72
49
12.86
74
0
49
-12.86
74
0
0
LTYPE
5
3C
100
AcDbSymbolTableRecord
100
AcDbLinetypeTableRecord
70
0
2
HIDDEN
3
_ _ _ _ _ _ _ _ _ _ _ _ _ _ _
72
65
73
2
40
0.5
49
0.25
74
0
49
-0.25
74
0
0
LTYPE
5
3D
100
AcDbSymbolTableRecord
100
AcDbLinetypeTableRecord
70
0
2
PHANTOM
3
____ _ _ ____ _ _ _____ _ _ ____
72
65
73
6
40
50.5
49
18
74
0
49
-6.5
74
0
49
6.5
74
0
49
-6.5
74
0
49
6.5
74
0
49
-6.5
74
0
0
LTYPE
5
3E
100
AcDbSymbolTableRecord
100
AcDbLinetypeTableRecord
70
0
2
CENTER
3
____ _ ____ _ ____ _ ____
72
65
73
4
40
47.5
49
22
74
0
49
-8.5
74
0
49
8.5
74
0
49
-8.5
74
0
0
LTYPE
5
3F
100
AcDbSymbolTableRecord
100
AcDbLinetypeTableRecord
70
0
2
DOT
3
.........................
72
65
73
2
40
10
49
0
74
0
49
-10
74
0
0
LTYPE
5
40
100
AcDbSymbolTableRecord
100
AcDbLinetypeTableRecord
70
0
2
DASHDOT
3
_._._._._._._._._._._._._._._._.
72
65
73
4
40
70
49
31
74
0
49
-13
74
0
49
13
74
0
49
-13
74
0
0
ENDTAB
0
TABLE
2
LAYER
5
370
100
AcDbSymbolTable
0
LAYER
5
10
100
AcDbSymbolTableRecord
100
AcDbLayerTableRecord
2
0
70
0
62
7
6
CONTINUOUS
290
1
370
-3
390
0
0
LAYER
5
42
100
AcDbSymbolTableRecord
100
AcDbLayerTableRecord
2
80
70
0
62
-6
6
CONTINUOUS
290
1
370
-3
390
0
0
LAYER
5
44
100
AcDbSymbolTableRecord
100
AcDbLayerTableRecord
2
81
70
0
62
-3
6
CONTINUOUS
290
1
370
-3
390
0
0
LAYER
5
46
100
AcDbSymbolTableRecord
100
AcDbLayerTableRecord
2
1
70
0
62
4
6
CONTINUOUS
290
1
370
-3
390
0
0
LAYER
5
49
100
AcDbSymbolTableRecord
100
AcDbLayerTableRecord
2
2
70
0
62
7
6
CONTINUOUS
290
1
370
-3
390
0
0
LAYER
5
61
100
AcDbSymbolTableRecord
100
AcDbLayerTableRecord
2
4
70
0
62
-2
6
CENTER
290
1
370
-3
390
0
0
LAYER
5
35a
100
AcDbSymbolTableRecord
100
AcDbLayerTableRecord
2
SK1
70
0
62
4
6
CONTINUOUS
290
1
370
-3
390
0
0
LAYER
5
35b
100
AcDbSymbolTableRecord
100
AcDbLayerTableRecord
2
SK4
70
0
62
2
6
CENTER
290
1
370
-3
390
0
0
LAYER
5
35c
100
AcDbSymbolTableRecord
100
AcDbLayerTableRecord
2
SK2
70
0
62
7
6
CONTINUOUS
290
1
370
-3
390
0
0
LAYER
5
35d
100
AcDbSymbolTableRecord
100
AcDbLayerTableRecord
2
SK6
70
0
62
5
6
CONTINUOUS
290
1
370
-3
390
0
0
ENDTAB
0
TABLE
2
STYLE
5
371
100
AcDbSymbolTable
0
STYLE
5
11
100
AcDbSymbolTableRecord
100
AcDbTextStyleTableRecord
2
Standard
3
txt
70
0
71
0
40
0
41
1
42
0
50
0
0
STYLE
5
2E4
100
AcDbSymbolTableRecord
100
AcDbTextStyleTableRecord
2
DEFAULT
3
simplex.shx
70
0
71
0
40
0
41
1
42
0
50
0
0
STYLE
5
307
100
AcDbSymbolTableRecord
100
AcDbTextStyleTableRecord
2
DWGDirectTextStyle
3
SIMPLEX
70
0
71
0
40
0
41
1
42
0
50
0
0
ENDTAB
0
TABLE
2
DIMSTYLE
5
372
100
AcDbSymbolTable
100
AcDbDimStyleTable
0
DIMSTYLE
105
27
100
AcDbSymbolTableRecord
100
AcDbDimStyleTableRecord
2
Standard
70
0
3
<>
41
0.18
42
0.0625
44
0.18
140
0.18
147
0.09
73
0
74
0
77
1
271
2
275
0
278
52
280
0
340
11
0
ENDTAB
0
TABLE
2
VIEW
5
373
100
AcDbSymbolTable
0
ENDTAB
0
TABLE
2
UCS
5
374
100
AcDbSymbolTable
0
ENDTAB
0
TABLE
2
APPID
5
375
100
AcDbSymbolTable
0
APPID
5
12
100
AcDbSymbolTableRecord
100
AcDbRegAppTableRecord
2
ACAD
70
0
0
ENDTAB
0
TABLE
2
BLOCK_RECORD
5
376
100
AcDbSymbolTable
0
BLOCK_RECORD
5
1F
100
AcDbSymbolTableRecord
100
AcDbBlockTableRecord
2
*Model_Space
340
0
70
0
0
BLOCK_RECORD
5
1B
100
AcDbSymbolTableRecord
100
AcDbBlockTableRecord
2
*Paper_Space
340
0
70
0
0
BLOCK_RECORD
5
23
100
AcDbSymbolTableRecord
100
AcDbBlockTableRecord
2
*Paper_Space0
340
0
70
0
0
BLOCK_RECORD
5
30A
100
AcDbSymbolTableRecord
100
AcDbBlockTableRecord
2
DimnDraft3D1
340
0
70
0
0
BLOCK_RECORD
5
318
100
AcDbSymbolTableRecord
100
AcDbBlockTableRecord
2
_CLOSED
340
0
70
0
0
BLOCK_RECORD
5
31F
100
AcDbSymbolTableRecord
100
AcDbBlockTableRecord
2
DimnDraft3D2
340
0
70
0
0
BLOCK_RECORD
5
32D
100
AcDbSymbolTableRecord
100
AcDbBlockTableRecord
2
DimnDraft3D3
340
0
70
0
0
ENDTAB
0
ENDSEC
0
SECTION
2
BLOCKS
0
BLOCK
5
20
100
AcDbEntity
8
0
100
AcDbBlockBegin
2
*Model_Space
70
0
10
0
20
0
30
0
3
*Model_Space
0
ENDBLK
5
21
100
AcDbEntity
8
0
100
AcDbBlockEnd
0
BLOCK
5
1C
100
AcDbEntity
8
0
100
AcDbBlockBegin
2
*Paper_Space
70
0
10
0
20
0
30
0
3
*Paper_Space
0
ENDBLK
5
1D
100
AcDbEntity
8
0
100
AcDbBlockEnd
0
BLOCK
5
24
100
AcDbEntity
8
0
100
AcDbBlockBegin
2
*Paper_Space0
70
0
10
0
20
0
30
0
3
*Paper_Space0
0
ENDBLK
5
25
100
AcDbEntity
8
0
100
AcDbBlockEnd
0
BLOCK
5
315
100
AcDbEntity
8
0
100
AcDbBlockBegin
2
DimnDraft3D1
70
0
10
0
20
0
30
0
3
DimnDraft3D1
0
MTEXT
5
30B
100
AcDbEntity
8
2
62
256
6
ByLayer
370
-1
48
1
60
0
100
AcDbMText
10
213.039
20
15.933553
30
0
210
0
220
0
230
1
1
\W01.000;\fsimplex.shx,bigfont.shx;35 
40
4.5
41
0
44
1.084337
50
90
71
7
72
5
7
DEFAULT
0
LINE
5
30C
100
AcDbEntity
8
2
62
256
6
ByLayer
370
-1
48
1
60
0
100
AcDbLine
10
206.414
20
0
30
0
11
217.164
21
0
31
0
39
0
210
0
220
0
230
1
0
LINE
5
30D
100
AcDbEntity
8
2
62
256
6
ByLayer
370
-1
48
1
60
0
100
AcDbLine
10
201.414
20
34.875
30
0
11
217.164
21
34.875
31
0
39
0
210
0
220
0
230
1
0
LINE
5
30E
100
AcDbEntity
8
2
62
256
6
ByLayer
370
-1
48
1
60
0
100
AcDbLine
10
214.164
20
0
30
0
11
214.164
21
34.875
31
0
39
0
210
0
220
0
230
1
0
LINE
5
30F
100
AcDbEntity
8
2
62
256
6
ByLayer
370
-1
48
1
60
0
100
AcDbLine
10
214.164
20
0
30
0
11
213.769043
21
2.999999
31
0
39
0
210
0
220
0
230
1
0
LINE
5
310
100
AcDbEntity
8
2
62
256
6
ByLayer
370
-1
48
1
60
0
100
AcDbLine
10
214.164
20
0
30
0
11
214.558957
21
3.000001
31
0
39
0
210
0
220
0
230
1
0
LINE
5
311
100
AcDbEntity
8
2
62
256
6
ByLayer
370
-1
48
1
60
0
100
AcDbLine
10
213.769043
20
2.999999
30
0
11
214.558957
21
3.000001
31
0
39
0
210
0
220
0
230
1
0
LINE
5
312
100
AcDbEntity
8
2
62
256
6
ByLayer
370
-1
48
1
60
0
100
AcDbLine
10
214.164
20
34.875
30
0
11
214.558957
21
31.875001
31
0
39
0
210
0
220
0
230
1
0
LINE
5
313
100
AcDbEntity
8
2
62
256
6
ByLayer
370
-1
48
1
60
0
100
AcDbLine
10
214.164
20
34.875
30
0
11
213.769043
21
31.874999
31
0
39
0
210
0
220
0
230
1
0
LINE
5
314
100
AcDbEntity
8
2
62
256
6
ByLayer
370
-1
48
1
60
0
100
AcDbLine
10
214.558957
20
31.875001
30
0
11
213.769043
21
31.874999
31
0
39
0
210
0
220
0
230
1
0
ENDBLK
5
316
100
AcDbEntity
8
0
100
AcDbBlockEnd
0
BLOCK
5
319
100
AcDbEntity
8
0
100
AcDbBlockBegin
2
_CLOSED
70
0
10
0
20
0
30
0
3
_CLOSED
0
LINE
5
31B
100
AcDbEntity
8
0
62
256
6
ByLayer
370
-2
48
1
60
0
100
AcDbLine
10
-1
20
0.166667
30
0
11
0
21
0
31
0
39
0
210
0
220
0
230
1
0
LINE
5
31C
100
AcDbEntity
8
0
62
256
6
ByLayer
370
-2
48
1
60
0
100
AcDbLine
10
0
20
0
30
0
11
-1
21
-0.166667
31
0
39
0
210
0
220
0
230
1
0
LINE
5
31D
100
AcDbEntity
8
0
62
256
6
ByLayer
370
-2
48
1
60
0
100
AcDbLine
10
-1
20
0.166667
30
0
11
-1
21
-0.166667
31
0
39
0
210
0
220
0
230
1
0
LINE
5
31E
100
AcDbEntity
8
0
62
256
6
ByLayer
370
-2
48
1
60
0
100
AcDbLine
10
0
20
0
30
0
11
-1
21
0
31
0
39
0
210
0
220
0
230
1
0
ENDBLK
5
31A
100
AcDbEntity
8
0
100
AcDbBlockEnd
0
BLOCK
5
32A
100
AcDbEntity
8
0
100
AcDbBlockBegin
2
DimnDraft3D2
70
0
10
0
20
0
30
0
3
DimnDraft3D2
0
MTEXT
5
320
100
AcDbEntity
8
2
62
256
6
ByLayer
370
-1
48
1
60
0
100
AcDbMText
10
175.317835
20
45.75
30
0
210
0
220
0
230
1
1
\W01.000;\fsimplex.shx,bigfont.shx;46 
40
4.5
41
0
44
1.084337
50
0
71
7
72
5
7
DEFAULT
0
LINE
5
321
100
AcDbEntity
8
2
62
256
6
ByLayer
370
-1
48
1
60
0
100
AcDbLine
10
199.914
20
36.375
30
0
11
199.914
21
47.625
31
0
39
0
210
0
220
0
230
1
0
LINE
5
322
100
AcDbEntity
8
2
62
256
6
ByLayer
370
-1
48
1
60
0
100
AcDbLine
10
154.203248
20
36.375
30
0
11
154.203248
21
47.625
31
0
39
0
210
0
220
0
230
1
0
LINE
5
323
100
AcDbEntity
8
2
62
256
6
ByLayer
370
-1
48
1
60
0
100
AcDbLine
10
199.914
20
44.625
30
0
11
154.203248
21
44.625
31
0
39
0
210
0
220
0
230
1
0
LINE
5
324
100
AcDbEntity
8
2
62
256
6
ByLayer
370
-1
48
1
60
0
100
AcDbLine
10
199.914
20
44.625
30
0
11
196.914001
21
44.230043
31
0
39
0
210
0
220
0
230
1
0
LINE
5
325
100
AcDbEntity
8
2
62
256
6
ByLayer
370
-1
48
1
60
0
100
AcDbLine
10
199.914
20
44.625
30
0
11
196.913999
21
45.019957
31
0
39
0
210
0
220
0
230
1
0
LINE
5
326
100
AcDbEntity
8
2
62
256
6
ByLayer
370
-1
48
1
60
0
100
AcDbLine
10
196.914001
20
44.230043
30
0
11
196.913999
21
45.019957
31
0
39
0
210
0
220
0
230
1
0
LINE
5
327
100
AcDbEntity
8
2
62
256
6
ByLayer
370
-1
48
1
60
0
100
AcDbLine
10
154.203248
20
44.625
30
0
11
157.203247
21
45.019957
31
0
39
0
210
0
220
0
230
1
0
LINE
5
328
100
AcDbEntity
8
2
62
256
6
ByLayer
370
-1
48
1
60
0
100
AcDbLine
10
154.203248
20
44.625
30
0
11
157.203249
21
44.230043
31
0
39
0
210
0
220
0
230
1
0
LINE
5
329
100
AcDbEntity
8
2
62
256
6
ByLayer
370
-1
48
1
60
0
100
AcDbLine
10
157.203247
20
45.019957
30
0
11
157.203249
21
44.230043
31
0
39
0
210
0
220
0
230
1
0
ENDBLK
5
32B
100
AcDbEntity
8
0
100
AcDbBlockEnd
0
BLOCK
5
338
100
AcDbEntity
8
0
100
AcDbBlockBegin
2
DimnDraft3D3
70
0
10
0
20
0
30
0
3
DimnDraft3D3
0
MTEXT
5
32E
100
AcDbEntity
8
SK2
62
256
6
ByLayer
370
-1
48
1
60
0
100
AcDbMText
10
21.008079
20
55.75
30
0
210
0
220
0
230
1
1
\W01.000;\fsimplex.shx,bigfont.shx;352 
40
4.5
41
0
44
1.084337
50
0
71
7
72
5
7
DEFAULT
0
LINE
5
32F
100
AcDbEntity
8
SK2
62
256
6
ByLayer
370
-1
48
1
60
0
100
AcDbLine
10
199.914
20
36.375
30
0
11
199.914
21
57.625
31
0
39
0
210
0
220
0
230
1
0
LINE
5
330
100
AcDbEntity
8
SK2
62
256
6
ByLayer
370
-1
48
1
60
0
100
AcDbLine
10
-151.586
20
1.5
30
0
11
-151.586
21
57.625
31
0
39
0
210
0
220
0
230
1
0
LINE
5
331
100
AcDbEntity
8
SK2
62
256
6
ByLayer
370
-1
48
1
60
0
100
AcDbLine
10
199.914
20
54.625
30
0
11
-151.586
21
54.625
31
0
39
0
210
0
220
0
230
1
0
LINE
5
332
100
AcDbEntity
8
SK2
62
256
6
ByLayer
370
-1
48
1
60
0
100
AcDbLine
10
199.914
20
54.625
30
0
11
196.914001
21
54.230043
31
0
39
0
210
0
220
0
230
1
0
LINE
5
333
100
AcDbEntity
8
SK2
62
256
6
ByLayer
370
-1
48
1
60
0
100
AcDbLine
10
199.914
20
54.625
30
0
11
196.913999
21
55.019957
31
0
39
0
210
0
220
0
230
1
0
LINE
5
334
100
AcDbEntity
8
SK2
62
256
6
ByLayer
370
-1
48
1
60
0
100
AcDbLine
10
196.914001
20
54.230043
30
0
11
196.913999
21
55.019957
31
0
39
0
210
0
220
0
230
1
0
LINE
5
335
100
AcDbEntity
8
SK2
62
256
6
ByLayer
370
-1
48
1
60
0
100
AcDbLine
10
-151.586
20
54.625
30
0
11
-148.586001
21
55.019957
31
0
39
0
210
0
220
0
230
1
0
LINE
5
336
100
AcDbEntity
8
SK2
62
256
6
ByLayer
370
-1
48
1
60
0
100
AcDbLine
10
-151.586
20
54.625
30
0
11
-148.585999
21
54.230043
31
0
39
0
210
0
220
0
230
1
0
LINE
5
337
100
AcDbEntity
8
SK2
62
256
6
ByLayer
370
-1
48
1
60
0
100
AcDbLine
10
-148.586001
20
55.019957
30
0
11
-148.585999
21
54.230043
31
0
39
0
210
0
220
0
230
1
0
ENDBLK
5
339
100
AcDbEntity
8
0
100
AcDbBlockEnd
0
ENDSEC
0
SECTION
2
ENTITIES
0
ARC
5
165
100
AcDbEntity
8
1
62
256
6
ByLayer
370
-1
48
1
60
0
100
AcDbCircle
39
0
10
194.179386
20
14.161852
30
0
40
5.97633063734988
210
0
220
0
230
1
100
AcDbArc
50
327.402619
51
339.431766
0
ARC
5
166
100
AcDbEntity
8
1
62
256
6
ByLayer
370
-1
48
1
60
0
100
AcDbCircle
39
0
10
194.179386
20
14.161852
30
0
40
5.97633063734988
210
0
220
0
230
1
100
AcDbArc
50
21.17537
51
21.691445
0
ARC
5
167
100
AcDbEntity
8
1
62
256
6
ByLayer
370
-1
48
1
60
0
100
AcDbCircle
39
0
10
-173.658315
20
-25.475
30
0
40
0.8
210
0
220
0
230
-1
100
AcDbArc
50
90
51
114.249038
0
ARC
5
168
100
AcDbEntity
8
1
62
256
6
ByLayer
370
-1
48
1
60
0
100
AcDbCircle
39
0
10
-173.658315
20
25.475
30
0
40
0.8
210
0
220
0
230
-1
100
AcDbArc
50
220
51
270
0
ARC
5
169
100
AcDbEntity
8
1
62
256
6
ByLayer
370
-1
48
1
60
0
100
AcDbCircle
39
0
10
-154.417607
20
-25.475
30
0
40
0.799999999999999
210
0
220
0
230
-1
100
AcDbArc
50
60
51
90
0
ELLIPSE
5
16A
100
AcDbEntity
8
1
62
256
6
ByLayer
370
-1
48
1
60
0
100
AcDbEllipse
10
197.00812
20
15.362968
30
0
11
-2.86372375000194
21
1.39436802226304
31
0
210
0
220
0
230
1
40
0.135136
41
0.79496849338479
42
1.15902849568276
0
ELLIPSE
5
16B
100
AcDbEntity
8
1
62
256
6
ByLayer
370
-1
48
1
60
0
100
AcDbEllipse
10
182.393791
20
21.241653
30
0
11
-2.09564084296735
21
0.135238519981946
31
0
210
0
220
0
230
1
40
0.965791
41
-1.50855133230205
42
-0.715200790463557
0
ELLIPSE
5
16C
100
AcDbEntity
8
1
62
256
6
ByLayer
370
-1
48
1
60
0
100
AcDbEllipse
10
182.393791
20
21.241653
30
0
11
-2.09564084296735
21
0.135238519981946
31
0
210
0
220
0
230
1
40
0.965791
41
-1.91391484545494
42
-1.50855133230205
0
ELLIPSE
5
16D
100
AcDbEntity
8
1
62
256
6
ByLayer
370
-1
48
1
60
0
100
AcDbEllipse
10
200.896938
20
0
30
0
11
-29.5241159076143
21
21.1690588542409
31
0
210
0
220
0
230
1
40
0.430064
41
1.3416297196256
42
1.40992872764101
0
ELLIPSE
5
16E
100
AcDbEntity
8
1
62
256
6
ByLayer
370
-1
48
1
60
0
100
AcDbEllipse
10
240.736968
20
14.408529
30
0
11
-61.7714714855435
21
0.788848457220365
31
0
210
0
220
0
230
1
40
0.067231
41
-0.829088658448723
42
-0.827175726562885
0
ELLIPSE
5
16F
100
AcDbEntity
8
1
62
256
6
ByLayer
370
-1
48
1
60
0
100
AcDbEllipse
10
182.398801
20
21.319288
30
0
11
2.09564084296735
21
-0.135238519981947
31
0
210
0
220
0
230
1
40
0.965791
41
1.22772364803415
42
1.7772425817255
0
ELLIPSE
5
170
100
AcDbEntity
8
1
62
256
6
ByLayer
370
-1
48
1
60
0
100
AcDbEllipse
10
183.779938
20
22.746242
30
0
11
-2.01743155678861
21
0.131421880007732
31
0
210
0
220
0
230
1
40
0.965789
41
0.478796380718995
42
2.41447814360463
0
ELLIPSE
5
171
100
AcDbEntity
8
1
62
256
6
ByLayer
370
-1
48
1
60
0
100
AcDbEllipse
10
188.089302
20
20.376041
30
0
11
-2.86372375360757
21
1.39436802370284
31
0
210
0
220
0
230
1
40
0.135136
41
1.15902849542734
42
1.52308849732942
0
ELLIPSE
5
172
100
AcDbEntity
8
1
62
256
6
ByLayer
370
-1
48
1
60
0
100
AcDbEllipse
10
200.896939
20
0
30
0
11
-29.5121565680512
21
21.1604836406331
31
0
210
0
220
0
230
1
40
0.430064
41
-0.191634662520904
42
0.720677590151817
0
ELLIPSE
5
173
100
AcDbEntity
8
1
62
256
6
ByLayer
370
-1
48
1
60
0
100
AcDbEllipse
10
182.459422
20
22.25867
30
0
11
2.09564084296735
21
-0.135238519981947
31
0
210
0
220
0
230
1
40
0.965791
41
1.60632901256743
42
1.96197017029482
0
ELLIPSE
5
174
100
AcDbEntity
8
1
62
256
6
ByLayer
370
-1
48
1
60
0
100
AcDbEllipse
10
198.997435
20
14.187379
30
0
11
-0.0188121773771455
21
-4.30015997398134
31
0
210
0
220
0
230
1
40
0.016322
41
2.66261176881078
42
1.00271734016922
0
ELLIPSE
5
175
100
AcDbEntity
8
1
62
256
6
ByLayer
370
-1
48
1
60
0
100
AcDbEllipse
10
183.175752
20
33.35884
30
0
11
-2.01463944162777
21
-9.5999711990688
31
0
210
0
220
0
230
1
40
0.161916
41
0.333598209880006
42
0.719081586151653
0
ELLIPSE
5
176
100
AcDbEntity
8
1
62
256
6
ByLayer
370
-1
48
1
60
0
100
AcDbEllipse
10
182.565095
20
23.896166
30
0
11
-2.09555834388474
21
0.136511306426637
31
0
210
0
220
0
230
1
40
0.965789
41
-1.56451927756827
42
1.32679060812704
0
ELLIPSE
5
177
100
AcDbEntity
8
1
62
256
6
ByLayer
370
-1
48
1
60
0
100
AcDbEllipse
10
183.859227
20
21.962841
30
0
11
-2.74429158007635
21
0.177098061881124
31
0
210
0
220
0
230
1
40
0.965791
41
-1.4413843420998
42
-0.997958148048578
0
ELLIPSE
5
178
100
AcDbEntity
8
1
62
256
6
ByLayer
370
-1
48
1
60
0
100
AcDbEllipse
10
178.852871
20
18.319126
30
0
11
-2.28468227119871
21
2.04879457180573
31
0
210
0
220
0
230
1
40
0.689943
41
-1.06661628167416
42
-2.92388035432103
0
ELLIPSE
5
179
100
AcDbEntity
8
1
62
256
6
ByLayer
370
-1
48
1
60
0
100
AcDbEllipse
10
183.798605
20
21.023459
30
0
11
-2.9182910460632
21
0.188326813380542
31
0
210
0
220
0
230
1
40
0.965791
41
-1.32568592594839
42
-0.887451145561654
0
ELLIPSE
5
17A
100
AcDbEntity
8
1
62
256
6
ByLayer
370
-1
48
1
60
0
100
AcDbEllipse
10
191.063285
20
18.479206
30
0
11
-0.117543477842445
21
0.0792885167270156
31
0
210
0
220
0
230
1
40
0.171608
41
-2.06605425911199
42
-0.56894207079859
0
ELLIPSE
5
17B
100
AcDbEntity
8
1
62
256
6
ByLayer
370
-1
48
1
60
0
100
AcDbEllipse
10
183.86759
20
26.257487
30
0
11
-1.24219702102763
21
1.4412201920187
31
0
210
0
220
0
230
1
40
0.453474
41
-2.99915467292164
42
-2.50422054661676
0
ELLIPSE
5
17C
100
AcDbEntity
8
1
62
256
6
ByLayer
370
-1
48
1
60
0
100
AcDbEllipse
10
190.908854
20
20.762567
30
0
11
0.0572702673836858
21
0.0819763165420424
31
0
210
0
220
0
230
1
40
0.137818
41
0.0381447238929577
42
1.34714166289369
0
ELLIPSE
5
17D
100
AcDbEntity
8
1
62
256
6
ByLayer
370
-1
48
1
60
0
100
AcDbEllipse
10
191.170792
20
27.761087
30
0
11
0.0786977922275772
21
-0.0616981158424234
31
0
210
0
220
0
230
1
40
0.469689
41
-1.78351567259006
42
-0.536821323432662
0
ELLIPSE
5
17E
100
AcDbEntity
8
1
62
256
6
ByLayer
370
-1
48
1
60
0
100
AcDbEllipse
10
199.587608
20
19.690635
30
0
11
-1.41314667306569
21
-1.23575105239985
31
0
210
0
220
0
230
1
40
0.318653
41
-0.60527339975361
42
-0.0516008018656095
0
ELLIPSE
5
17F
100
AcDbEntity
8
1
62
256
6
ByLayer
370
-1
48
1
60
0
100
AcDbEllipse
10
186.245883
20
24.316473
30
0
11
0.399549493414206
21
-0.256827183749018
31
0
210
0
220
0
230
1
40
0.895737
41
1.40190448775781
42
1.58705851477478
0
ELLIPSE
5
180
100
AcDbEntity
8
1
62
256
6
ByLayer
370
-1
48
1
60
0
100
AcDbEllipse
10
197.955601
20
24.368424
30
0
11
-0.0927844659137603
21
-0.0372966873207026
31
0
210
0
220
0
230
1
40
0.808002
41
-1.73817597247458
42
-0.491481623317064
0
ELLIPSE
5
181
100
AcDbEntity
8
1
62
256
6
ByLayer
370
-1
48
1
60
0
100
AcDbEllipse
10
193.862193
20
19.931563
30
0
11
-0.00580564298290411
21
0.0998313303004375
31
0
210
0
220
0
230
1
40
0.032964
41
-1.31049983336774
42
-0.00150289436675778
0
ELLIPSE
5
182
100
AcDbEntity
8
1
62
256
6
ByLayer
370
-1
48
1
60
0
100
AcDbEllipse
10
196.823697
20
18.159169
30
0
11
-0.521075299741961
21
0.853510709949691
31
0
210
0
220
0
230
1
40
0.020494
41
1.51943055314573
42
2.01436467948648
0
ELLIPSE
5
183
100
AcDbEntity
8
1
62
256
6
ByLayer
370
-1
48
1
60
0
100
AcDbEllipse
10
198.280693
20
26.969587
30
0
11
0.0230153731571275
21
-0.0973154283679529
31
0
210
0
220
0
230
1
40
0.078414
41
1.12323355481076
42
1.82136525560433
0
ELLIPSE
5
184
100
AcDbEntity
8
1
62
256
6
ByLayer
370
-1
48
1
60
0
100
AcDbEllipse
10
199.910291
20
25.28816
30
0
11
-0.00127271042598397
21
-0.308574636242433
31
0
210
0
220
0
230
1
40
0.015862
41
-1.31640686121742
42
-0.618275159421019
0
ELLIPSE
5
185
100
AcDbEntity
8
1
62
256
6
ByLayer
370
-1
48
1
60
0
100
AcDbEllipse
10
189.482997
20
26.293512
30
0
11
0.0889869578936351
21
-0.0456215006859313
31
0
210
0
220
0
230
1
40
0.239247
41
0.365041718621605
42
1.6740386576158
0
ELLIPSE
5
186
100
AcDbEntity
8
1
62
256
6
ByLayer
370
-1
48
1
60
0
100
AcDbEllipse
10
194.588857
20
31.172968
30
0
11
0.149682736773628
21
-0.00975081083588045
31
0
210
0
220
0
230
1
40
0.965789
41
0.690079741582032
42
1.63362806019199
0
ELLIPSE
5
187
100
AcDbEntity
8
1
62
256
6
ByLayer
370
-1
48
1
60
0
100
AcDbEllipse
10
193.556136
20
24.144382
30
0
11
4.00027962432942
21
-0.260590972267253
31
0
210
0
220
0
230
1
40
0.965789
41
0
42
6.28318530717959
0
ELLIPSE
5
188
100
AcDbEntity
8
1
62
256
6
ByLayer
370
-1
48
1
60
0
100
AcDbEllipse
10
199.647852
20
29.160185
30
0
11
-0.249471227956045
21
0.0162513513931361
31
0
210
0
220
0
230
1
40
0.965789
41
-3.07876092019251
42
-2.540021800959
0
ELLIPSE
5
189
100
AcDbEntity
8
1
62
256
6
ByLayer
370
-1
48
1
60
0
100
AcDbEllipse
10
199.407935
20
15.129535
30
0
11
-0.179619284128352
21
0.011700973003058
31
0
210
0
220
0
230
1
40
0.965789
41
1.64876840382767
42
2.68082561138879
0
ELLIPSE
5
18A
100
AcDbEntity
8
1
62
256
6
ByLayer
370
-1
48
1
60
0
100
AcDbEllipse
10
191.367224
20
18.372788
30
0
11
-0.265376290435669
21
0.158404081891698
31
0
210
0
220
0
230
1
40
0.225571
41
0.987615620009421
42
1.68574732084202
0
ELLIPSE
5
18B
100
AcDbEntity
8
1
62
256
6
ByLayer
370
-1
48
1
60
0
100
AcDbEllipse
10
198.997187
20
16.931786
30
0
11
0.0228891020462421
21
-0.329205238426603
31
0
210
0
220
0
230
1
40
0.196789
41
0.821693699627361
42
1.17075955002694
0
ELLIPSE
5
18C
100
AcDbEntity
8
1
62
256
6
ByLayer
370
-1
48
1
60
0
100
AcDbEllipse
10
186.044808
20
22.45862
30
0
11
-0.258780387415097
21
0.114436926644332
31
0
210
0
220
0
230
1
40
0.908072
41
-2.23387201349592
42
-1.20181480590949
0
ELLIPSE
5
18D
100
AcDbEntity
8
1
62
256
6
ByLayer
370
-1
48
1
60
0
100
AcDbEllipse
10
197.400431
20
30.050194
30
0
11
-8.72483686034827E-17
21
-0.474973683481517
31
0
210
0
220
0
230
1
40
0.999867
41
-0.527962367847773
42
-0.342808422144824
0
ELLIPSE
5
18E
100
AcDbEntity
8
1
62
256
6
ByLayer
370
-1
48
1
60
0
100
AcDbEllipse
10
186.72673
20
21.509661
30
0
11
0.149682736773628
21
-0.00975081083588045
31
0
210
0
220
0
230
1
40
0.965789
41
2.78447484397505
42
-2.55516214459417
0
ELLIPSE
5
18F
100
AcDbEntity
8
1
62
256
6
ByLayer
370
-1
48
1
60
0
100
AcDbEllipse
10
186.245883
20
24.316473
30
0
11
0.399549493414206
21
-0.256827183749018
31
0
210
0
220
0
230
1
40
0.895737
41
0.539860963578014
42
0.725014990595011
0
ELLIPSE
5
190
100
AcDbEntity
8
1
62
256
6
ByLayer
370
-1
48
1
60
0
100
AcDbEllipse
10
190.908854
20
20.762567
30
0
11
-0.0958560929374886
21
0.0284887600074055
31
0
210
0
220
0
230
1
40
0.253281
41
-2.21133165606049
42
-1.51319995526237
0
ELLIPSE
5
191
100
AcDbEntity
8
1
62
256
6
ByLayer
370
-1
48
1
60
0
100
AcDbEllipse
10
193.556136
20
24.144382
30
0
11
4.10006811551183
21
-0.267091512824506
31
0
210
0
220
0
230
1
40
0.965789
41
2.50823203291144
42
-1.89387637555857
0
ELLIPSE
5
192
100
AcDbEntity
8
1
62
256
6
ByLayer
370
-1
48
1
60
0
100
AcDbEllipse
10
191.088039
20
27.588172
30
0
11
0.0979149386742302
21
-0.0203141523185621
31
0
210
0
220
0
230
1
40
0.345321
41
-1.97479424910671
42
-1.0541884886902
0
ELLIPSE
5
193
100
AcDbEntity
8
1
62
256
6
ByLayer
370
-1
48
1
60
0
100
AcDbEllipse
10
197.879881
20
32.128363
30
0
11
-0.54461703698474
21
0.953034314391087
31
0
210
0
220
0
230
1
40
0.300606
41
-0.171816899534706
42
0.171892603062739
0
ELLIPSE
5
194
100
AcDbEntity
8
1
62
256
6
ByLayer
370
-1
48
1
60
0
100
AcDbEllipse
10
199.571933
20
16.67451
30
0
11
-0.17235187465863
21
-0.059510932085394
31
0
210
0
220
0
230
1
40
0.911082
41
2.31546043568508
42
-2.93566766403247
0
ELLIPSE
5
195
100
AcDbEntity
8
1
62
256
6
ByLayer
370
-1
48
1
60
0
100
AcDbEllipse
10
193.558698
20
24.183702
30
0
11
4.29766409115084
21
-0.279963544843143
31
0
210
0
220
0
230
1
40
0.965789
41
0.50198737602136
42
2.20676338372474
0
ELLIPSE
5
196
100
AcDbEntity
8
1
62
256
6
ByLayer
370
-1
48
1
60
0
100
AcDbEllipse
10
198.280693
20
26.969587
30
0
11
-0.019961588619441
21
-0.0979874225591642
31
0
210
0
220
0
230
1
40
0.263837
41
1.19918326569077
42
2.4455373642148
0
ELLIPSE
5
197
100
AcDbEntity
8
1
62
256
6
ByLayer
370
-1
48
1
60
0
100
AcDbEllipse
10
192.147916
20
17.933945
30
0
11
-0.265376290402265
21
0.158404081858873
31
0
210
0
220
0
230
1
40
0.225571
41
1.68574732068971
42
2.38387902161095
0
ELLIPSE
5
198
100
AcDbEntity
8
1
62
256
6
ByLayer
370
-1
48
1
60
0
100
AcDbEllipse
10
197.006586
20
17.82834
30
0
11
0.41568351999253
21
0.229798196700105
31
0
210
0
220
0
230
1
40
0.903036
41
1.61852256279765
42
1.80367658981459
0
ELLIPSE
5
199
100
AcDbEntity
8
1
62
256
6
ByLayer
370
-1
48
1
60
0
100
AcDbEllipse
10
198.997187
20
16.931786
30
0
11
-0.126989212138555
21
-0.304587819849102
31
0
210
0
220
0
230
1
40
0.517188
41
0.99523692588304
42
1.5966563221938
0
ELLIPSE
5
19A
100
AcDbEntity
8
1
62
256
6
ByLayer
370
-1
48
1
60
0
100
AcDbEllipse
10
183.613876
20
21.758569
30
0
11
-0.179619284128352
21
0.011700973003058
31
0
210
0
220
0
230
1
40
0.965789
41
1.24127543316482E-05
42
0.586430508995792
0
ELLIPSE
5
19B
100
AcDbEntity
8
1
62
256
6
ByLayer
370
-1
48
1
60
0
100
AcDbEllipse
10
190.908854
20
20.762567
30
0
11
0.0547579975359995
21
0.0836753351104582
31
0
210
0
220
0
230
1
40
0.55269
41
-1.19631940404482
42
-0.0453385113553906
0
ELLIPSE
5
19C
100
AcDbEntity
8
1
62
256
6
ByLayer
370
-1
48
1
60
0
100
AcDbEllipse
10
191.548392
20
20.401502
30
0
11
0.0432175552695969
21
0.0901789494090463
31
0
210
0
220
0
230
1
40
0.584145
41
-1.27177429465399
42
-0.0250799454978376
0
ELLIPSE
5
19D
100
AcDbEntity
8
1
62
256
6
ByLayer
370
-1
48
1
60
0
100
AcDbEllipse
10
199.218112
20
19.306098
30
0
11
-0.268102916024756
21
-0.092572561130471
31
0
210
0
220
0
230
1
40
0.911082
41
-1.76968053708559
42
-0.826132218413416
0
ELLIPSE
5
19E
100
AcDbEntity
8
1
62
256
6
ByLayer
370
-1
48
1
60
0
100
AcDbEllipse
10
194.779899
20
31.58676
30
0
11
-1.57184475931342
21
0.930409855107381
31
0
210
0
220
0
230
1
40
0.547448
41
2.65024660303348
42
-3.13800457778481
0
ELLIPSE
5
19F
100
AcDbEntity
8
1
62
256
6
ByLayer
370
-1
48
1
60
0
100
AcDbEllipse
10
199.266778
20
18.429674
30
0
11
-0.149682736773628
21
0.00975081083588177
31
0
210
0
220
0
230
1
40
0.965789
41
1.73727729277868
42
2.68082561138882
0
ELLIPSE
5
1A0
100
AcDbEntity
8
1
62
256
6
ByLayer
370
-1
48
1
60
0
100
AcDbEllipse
10
186.436454
20
21.605725
30
0
11
-0.265039761360433
21
1.44723866134101
31
0
210
0
220
0
230
1
40
0.431256
41
-0.667803726051473
42
-0.114131128120824
0
ELLIPSE
5
1A1
100
AcDbEntity
8
1
62
256
6
ByLayer
370
-1
48
1
60
0
100
AcDbEllipse
10
200.062898
20
31.563706
30
0
11
-1.61585849398587
21
-0.910589831284868
31
0
210
0
220
0
230
1
40
0.539126
41
0.00323700127494479
42
0.498171127617465
0
ELLIPSE
5
1A2
100
AcDbEntity
8
1
62
256
6
ByLayer
370
-1
48
1
60
0
100
AcDbEllipse
10
184.283235
20
23.43717
30
0
11
-0.126714333577773
21
0.304702277093462
31
0
210
0
220
0
230
1
40
0.542683
41
1.53017356373986
42
2.13159296005084
0
ELLIPSE
5
1A3
100
AcDbEntity
8
1
62
256
6
ByLayer
370
-1
48
1
60
0
100
AcDbEllipse
10
190.646082
20
29.63145
30
0
11
-0.864291897221863
21
-0.487203792767923
31
0
210
0
220
0
230
1
40
0.109716
41
1.6090917392796
42
1.76109310496819
0
ELLIPSE
5
1A4
100
AcDbEntity
8
1
62
256
6
ByLayer
370
-1
48
1
60
0
100
AcDbEllipse
10
183.684957
20
21.639321
30
0
11
-0.179619284128352
21
0.011700973003058
31
0
210
0
220
0
230
1
40
0.965789
41
0.586430508995707
42
1.6184877165565
0
ELLIPSE
5
1A5
100
AcDbEntity
8
1
62
256
6
ByLayer
370
-1
48
1
60
0
100
AcDbEllipse
10
198.101891
20
23.868345
30
0
11
-0.0982881971808917
21
-0.0184236341401514
31
0
210
0
220
0
230
1
40
0.813931
41
-1.57830801723386
42
-0.427327124544341
0
ELLIPSE
5
1A6
100
AcDbEntity
8
1
62
256
6
ByLayer
370
-1
48
1
60
0
100
AcDbEllipse
10
196.939101
20
32.132469
30
0
11
-0.552912620545079
21
-0.948244982840438
31
0
210
0
220
0
230
1
40
0.300607
41
2.96969985925966
42
-2.96977594527873
0
ELLIPSE
5
1A7
100
AcDbEntity
8
1
62
256
6
ByLayer
370
-1
48
1
60
0
100
AcDbEllipse
10
188.822863
20
26.956782
30
0
11
0.0999993939957406
21
0.000348138599753369
31
0
210
0
220
0
230
1
40
0.258763
41
1.55303667234244
42
2.21539790335857
0
ELLIPSE
5
1A8
100
AcDbEntity
8
1
62
256
6
ByLayer
370
-1
48
1
60
0
100
AcDbEllipse
10
196.358934
20
30.659432
30
0
11
-0.285075263893947
21
0.166229040530819
31
0
210
0
220
0
230
1
40
0.008173
41
1.20764539343591
42
1.5567112438361
0
ELLIPSE
5
1A9
100
AcDbEntity
8
1
62
256
6
ByLayer
370
-1
48
1
60
0
100
AcDbEllipse
10
184.279687
20
23.88744
30
0
11
-0.516198644229759
21
-0.836897355396443
31
0
210
0
220
0
230
1
40
0.335597
41
-0.173211637434951
42
0.170497865170027
0
ELLIPSE
5
1AA
100
AcDbEntity
8
1
62
256
6
ByLayer
370
-1
48
1
60
0
100
AcDbEllipse
10
197.995272
20
18.537534
30
0
11
0.2799708470016
21
0.174689223563467
31
0
210
0
220
0
230
1
40
0.429075
41
-1.59348664827048
42
-1.24442079787175
0
ELLIPSE
5
1AB
100
AcDbEntity
8
1
62
256
6
ByLayer
370
-1
48
1
60
0
100
AcDbEllipse
10
200.155826
20
31.619724
30
0
11
-1.60927738860538
21
-0.912731624522699
31
0
210
0
220
0
230
1
40
0.36213
41
0.0011766326350526
42
0.554849230576489
0
ELLIPSE
5
1AC
100
AcDbEntity
8
1
62
256
6
ByLayer
370
-1
48
1
60
0
100
AcDbEllipse
10
183.908192
20
23.281203
30
0
11
-0.126714333577773
21
0.304702277093462
31
0
210
0
220
0
230
1
40
0.542683
41
1.53017356373994
42
2.13159296005063
0
ELLIPSE
5
1AD
100
AcDbEntity
8
1
62
256
6
ByLayer
370
-1
48
1
60
0
100
AcDbEllipse
10
189.944632
20
26.622534
30
0
11
-0.0507632715683028
21
0.0861573575481673
31
0
210
0
220
0
230
1
40
0.763003
41
-2.51341054349664
42
-1.26671619433891
0
ELLIPSE
5
1AE
100
AcDbEntity
8
1
62
256
6
ByLayer
370
-1
48
1
60
0
100
AcDbEllipse
10
186.509089
20
21.826017
30
0
11
-0.583057170076357
21
1.27541913783475
31
0
210
0
220
0
230
1
40
0.64451
41
-0.839036356508191
42
-0.344102230176676
0
ELLIPSE
5
1AF
100
AcDbEntity
8
1
62
256
6
ByLayer
370
-1
48
1
60
0
100
AcDbEllipse
10
197.533044
20
25.77469
30
0
11
0.09545464558378
21
-0.029806218084067
31
0
210
0
220
0
230
1
40
0.35045
41
-2.206126403416
42
-1.28552064299846
0
ELLIPSE
5
1B0
100
AcDbEntity
8
1
62
256
6
ByLayer
370
-1
48
1
60
0
100
AcDbEllipse
10
193.335902
20
25.103809
30
0
11
-0.604154172446328
21
5.19685808489754
31
0
210
0
220
0
230
1
40
0.821814
41
-1.50759772610306
42
-1.35309761312304
0
ELLIPSE
5
1B1
100
AcDbEntity
8
1
62
256
6
ByLayer
370
-1
48
1
60
0
100
AcDbEllipse
10
198.520546
20
16.597031
30
0
11
-1.07340655772436
21
-0.0824096342700878
31
0
210
0
220
0
230
1
40
0.282244
41
2.94420850456013
42
-2.99526729997441
0
ELLIPSE
5
1B2
100
AcDbEntity
8
1
62
256
6
ByLayer
370
-1
48
1
60
0
100
AcDbEllipse
10
185.876813
20
26.588605
30
0
11
-0.249471227956045
21
0.0162513513931361
31
0
210
0
220
0
230
1
40
0.965789
41
-0.984365817799801
42
-0.445626698565778
0
ELLIPSE
5
1B3
100
AcDbEntity
8
1
62
256
6
ByLayer
370
-1
48
1
60
0
100
AcDbEllipse
10
195.349137
20
16.232896
30
0
11
-0.582417292715843
21
-0.00825595441198305
31
0
210
0
220
0
230
1
40
0.221947
41
1.55317737605619
42
1.81497676416784
0
ELLIPSE
5
1B4
100
AcDbEntity
8
1
62
256
6
ByLayer
370
-1
48
1
60
0
100
AcDbEllipse
10
193.787305
20
23.352802
30
0
11
-4.33849574445848
21
-0.296375936450891
31
0
210
0
220
0
230
1
40
0.768938
41
-3.05139111252107
42
-2.89689099857388
0
ELLIPSE
5
1B5
100
AcDbEntity
8
1
62
256
6
ByLayer
370
-1
48
1
60
0
100
AcDbEllipse
10
193.600255
20
19.05022
30
0
11
-0.0487095877782352
21
0.0873348501943777
31
0
210
0
220
0
230
1
40
0.144237
41
-2.01360218652141
42
-1.35124095550239
0
ELLIPSE
5
1B6
100
AcDbEntity
8
1
62
256
6
ByLayer
370
-1
48
1
60
0
100
AcDbEllipse
10
193.569623
20
24.351408
30
0
11
-4.54751380776243
21
0.2962395521944
31
0
210
0
220
0
230
1
40
0.965789
41
-0.396142662677306
42
1.01049832003022
0
ELLIPSE
5
1B7
100
AcDbEntity
8
1
62
256
6
ByLayer
370
-1
48
1
60
0
100
AcDbEllipse
10
193.600255
20
19.05022
30
0
11
-0.081226249290641
21
0.0583292073165293
31
0
210
0
220
0
230
1
40
0.07169
41
0.783633597425137
42
2.02998769594957
0
ELLIPSE
5
1B8
100
AcDbEntity
8
1
62
256
6
ByLayer
370
-1
48
1
60
0
100
AcDbEllipse
10
184.750077
20
23.098298
30
0
11
-1.06504162422568
21
0.0931122960237749
31
0
210
0
220
0
230
1
40
0.283884
41
-0.141795648291028
42
0.201913854328424
0
ELLIPSE
5
1B9
100
AcDbEntity
8
1
62
256
6
ByLayer
370
-1
48
1
60
0
100
AcDbEllipse
10
187.203439
20
20.903105
30
0
11
-0.249471227956045
21
0.0162513513931361
31
0
210
0
220
0
230
1
40
0.965789
41
0.586430508995518
42
1.11002928459413
0
ELLIPSE
5
1BA
100
AcDbEntity
8
1
62
256
6
ByLayer
370
-1
48
1
60
0
100
AcDbEllipse
10
198.782232
20
24.029248
30
0
11
-0.0857796381939009
21
0.0513989656639457
31
0
210
0
220
0
230
1
40
0.232285
41
-2.41189662828306
42
-1.45196610424315
0
ELLIPSE
5
1BB
100
AcDbEntity
8
1
62
256
6
ByLayer
370
-1
48
1
60
0
100
AcDbEllipse
10
197.54323
20
25.968024
30
0
11
0.0985972254288736
21
0.016690929804175
31
0
210
0
220
0
230
1
40
0.429396
41
-2.71887550086205
42
-1.47218115170396
0
ELLIPSE
5
1BC
100
AcDbEntity
8
1
62
256
6
ByLayer
370
-1
48
1
60
0
100
AcDbEllipse
10
193.862193
20
19.931563
30
0
11
0.00567656357083232
21
-0.0998387531273618
31
0
210
0
220
0
230
1
40
0.637655
41
-3.13964271937568
42
-1.98866182668777
0
ELLIPSE
5
1BD
100
AcDbEntity
8
1
62
256
6
ByLayer
370
-1
48
1
60
0
100
AcDbEllipse
10
197.358621
20
26.751515
30
0
11
0.0956639397167047
21
0.0291274893850928
31
0
210
0
220
0
230
1
40
0.436783
41
-2.67860132214397
42
-1.52762042945474
0
ELLIPSE
5
1BE
100
AcDbEntity
8
1
62
256
6
ByLayer
370
-1
48
1
60
0
100
AcDbEllipse
10
183.908192
20
23.281203
30
0
11
0.281372755724307
21
-0.172422076127478
31
0
210
0
220
0
230
1
40
0.693246
41
-1.75268259560072
42
-1.4089730929631
0
ELLIPSE
5
1BF
100
AcDbEntity
8
1
62
256
6
ByLayer
370
-1
48
1
60
0
100
AcDbEllipse
10
195.769131
20
31.282299
30
0
11
-0.00126245037341002
21
-0.289874581267253
31
0
210
0
220
0
230
1
40
0.965798
41
-8.31108073739044E-06
42
1.03204889646248
0
ELLIPSE
5
1C0
100
AcDbEntity
8
1
62
256
6
ByLayer
370
-1
48
1
60
0
100
AcDbEllipse
10
191.693066
20
28.345677
30
0
11
0.0708780682604582
21
0.0705428907804736
31
0
210
0
220
0
230
1
40
0.174867
41
1.3750475702574
42
2.07317927105583
0
ELLIPSE
5
1C1
100
AcDbEntity
8
1
62
256
6
ByLayer
370
-1
48
1
60
0
100
AcDbEllipse
10
197.400431
20
30.050194
30
0
11
-8.72483686034827E-17
21
-0.474973683481517
31
0
210
0
220
0
230
1
40
0.999867
41
0.334081072645883
42
0.519235180069196
0
ELLIPSE
5
1C2
100
AcDbEntity
8
1
62
256
6
ByLayer
370
-1
48
1
60
0
100
AcDbEllipse
10
199.570306
20
19.129419
30
0
11
0.249471227956045
21
-0.016251351393134
31
0
210
0
220
0
230
1
40
0.965789
41
-0.460767042201078
42
-1.31917310404127E-06
0
ELLIPSE
5
1C3
100
AcDbEntity
8
1
62
256
6
ByLayer
370
-1
48
1
60
0
100
AcDbEllipse
10
185.959674
20
21.151745
30
0
11
0.27940777531077
21
-0.0182015135603103
31
0
210
0
220
0
230
1
40
0.965789
41
0.586430508995408
42
1.61848771655695
0
ELLIPSE
5
1C4
100
AcDbEntity
8
1
62
256
6
ByLayer
370
-1
48
1
60
0
100
AcDbEllipse
10
193.556136
20
24.144382
30
0
11
4.10006811551183
21
-0.267091512824506
31
0
210
0
220
0
230
1
40
0.965789
41
-1.68055817187498
42
0.200518726834666
0
ELLIPSE
5
1C5
100
AcDbEntity
8
1
62
256
6
ByLayer
370
-1
48
1
60
0
100
AcDbEllipse
10
189.406066
20
29.005103
30
0
11
-0.265718234570566
21
-0.157696200599709
31
0
210
0
220
0
230
1
40
0.209851
41
1.42800592980435
42
2.12613763037687
0
ELLIPSE
5
1C6
100
AcDbEntity
8
1
62
256
6
ByLayer
370
-1
48
1
60
0
100
AcDbEllipse
10
191.205932
20
28.834337
30
0
11
-0.000436584477036726
21
-0.0999990469654307
31
0
210
0
220
0
230
1
40
0.016283
41
1.83263127996299
42
2.79266553852187
0
ELLIPSE
5
1C7
100
AcDbEntity
8
1
62
256
6
ByLayer
370
-1
48
1
60
0
100
AcDbEllipse
10
194.232713
20
24.851466
30
0
11
-2.43799138970085
21
-4.53481697345727
31
0
210
0
220
0
230
1
40
0.8148
41
-1.9348872178606
42
-1.78038710372836
0
ELLIPSE
5
1C8
100
AcDbEntity
8
1
62
256
6
ByLayer
370
-1
48
1
60
0
100
AcDbEllipse
10
198.45401
20
30.65029
30
0
11
-0.286515006649988
21
-0.163735002257786
31
0
210
0
220
0
230
1
40
0.008111
41
-1.90574157045776
42
-1.55667572005957
0
ELLIPSE
5
1C9
100
AcDbEntity
8
1
62
256
6
ByLayer
370
-1
48
1
60
0
100
AcDbEllipse
10
193.556136
20
24.144382
30
0
11
4.10006811551183
21
-0.267091512824506
31
0
210
0
220
0
230
1
40
0.965789
41
0.413836930518236
42
2.29491382922786
0
ELLIPSE
5
1CA
100
AcDbEntity
8
1
62
256
6
ByLayer
370
-1
48
1
60
0
100
AcDbEllipse
10
198.101891
20
23.868345
30
0
11
0.0230153731571275
21
-0.0973154283679529
31
0
210
0
220
0
230
1
40
0.078414
41
1.82136525560786
42
2.51949695640614
0
ELLIPSE
5
1CB
100
AcDbEntity
8
1
62
256
6
ByLayer
370
-1
48
1
60
0
100
AcDbEllipse
10
198.280693
20
26.969587
30
0
11
-0.0487137874010317
21
-0.087332507790897
31
0
210
0
220
0
230
1
40
0.114526
41
-2.46956670010871
42
-1.80720546909374
0
ELLIPSE
5
1CC
100
AcDbEntity
8
1
62
256
6
ByLayer
370
-1
48
1
60
0
100
AcDbEllipse
10
192.664792
20
24.480648
30
0
11
-3.13488377418397
21
3.8038172851094
31
0
210
0
220
0
230
1
40
0.79904
41
1.94259276611393
42
2.0970928801781
0
ELLIPSE
5
1CD
100
AcDbEntity
8
1
62
256
6
ByLayer
370
-1
48
1
60
0
100
AcDbEllipse
10
194.458414
20
23.975963
30
0
11
-4.05844634981841
21
-2.4315603319517
31
0
210
0
220
0
230
1
40
0.787277
41
0.828678261110294
42
0.983178375070886
0
ELLIPSE
5
1CE
100
AcDbEntity
8
1
62
256
6
ByLayer
370
-1
48
1
60
0
100
AcDbEllipse
10
198.997187
20
16.931786
30
0
11
-0.2799708470016
21
-0.174689223563467
31
0
210
0
220
0
230
1
40
0.429075
41
1.54810600531932
42
1.89717185571804
0
ELLIPSE
5
1CF
100
AcDbEntity
8
1
62
256
6
ByLayer
370
-1
48
1
60
0
100
AcDbEllipse
10
185.562008
20
26.655153
30
0
11
-0.279352530661341
21
-0.506301933137585
31
0
210
0
220
0
230
1
40
0.097362
41
1.10461713220125
42
1.36641651649198
0
ELLIPSE
5
1D0
100
AcDbEntity
8
1
62
256
6
ByLayer
370
-1
48
1
60
0
100
AcDbEllipse
10
193.186922
20
19.940455
30
0
11
-0.00853973049229796
21
-0.0996346977870607
31
0
210
0
220
0
230
1
40
0.669438
41
3.14095818968464
42
-1.89553276833752
0
ELLIPSE
5
1D1
100
AcDbEntity
8
1
62
256
6
ByLayer
370
-1
48
1
60
0
100
AcDbEllipse
10
190.715585
20
20.112277
30
0
11
0.0858976949098913
21
0.0512014258509199
31
0
210
0
220
0
230
1
40
0.216002
41
1.42328114305128
42
2.38321166708949
0
ELLIPSE
5
1D2
100
AcDbEntity
8
1
62
256
6
ByLayer
370
-1
48
1
60
0
100
AcDbEllipse
10
197.484623
20
33.058603
30
0
11
-0.000811575262362403
21
-0.186347945091921
31
0
210
0
220
0
230
1
40
0.965798
41
2.10952713505419
42
3.14158434262488
0
ELLIPSE
5
1D3
100
AcDbEntity
8
1
62
256
6
ByLayer
370
-1
48
1
60
0
100
AcDbEllipse
10
196.848377
20
15.119114
30
0
11
-0.227220612844323
21
-1.44656572778668
31
0
210
0
220
0
230
1
40
0.43949
41
-3.04124088534352
42
-2.48756828737466
0
ELLIPSE
5
1D4
100
AcDbEntity
8
1
62
256
6
ByLayer
370
-1
48
1
60
0
100
AcDbEllipse
10
199.906245
20
23.838284
30
0
11
-0.00111918869915038
21
-0.974553186629528
31
0
210
0
220
0
230
1
40
0.008572
41
-1.32782573519773
42
-1.17582431345368
0
ELLIPSE
5
1D5
100
AcDbEntity
8
1
62
256
6
ByLayer
370
-1
48
1
60
0
100
AcDbEllipse
10
199.426848
20
19.748414
30
0
11
-1.29043711936969
21
-1.42217758479112
31
0
210
0
220
0
230
1
40
0.456317
41
-0.623501505571474
42
-0.128567379157247
0
ELLIPSE
5
1D6
100
AcDbEntity
8
1
62
256
6
ByLayer
370
-1
48
1
60
0
100
AcDbEllipse
10
197.417876
20
32.945253
30
0
11
-0.284336360926132
21
0.167489802242658
31
0
210
0
220
0
230
1
40
0.292792
41
-1.7279208871772
42
-1.38421138453952
0
ELLIPSE
5
1D7
100
AcDbEntity
8
1
62
256
6
ByLayer
370
-1
48
1
60
0
100
AcDbEllipse
10
196.823697
20
18.159169
30
0
11
0.999907495776651
21
-0.0136014664528115
31
0
210
0
220
0
230
1
40
0.381837
41
-1.85116519385439
42
-1.35623106751342
0
ELLIPSE
5
1D8
100
AcDbEntity
8
1
62
256
6
ByLayer
370
-1
48
1
60
0
100
AcDbEllipse
10
185.269314
20
25.034243
30
0
11
0.280790684040502
21
-0.173368370114237
31
0
210
0
220
0
230
1
40
0.444526
41
-1.92793313288249
42
-1.5788672824839
0
ELLIPSE
5
1D9
100
AcDbEntity
8
1
62
256
6
ByLayer
370
-1
48
1
60
0
100
AcDbEllipse
10
198.85498
20
18.700065
30
0
11
-0.268102916056034
21
-0.0925725610882102
31
0
210
0
220
0
230
1
40
0.911082
41
-0.826132218273071
42
0.205924989292894
0
ELLIPSE
5
1DA
100
AcDbEntity
8
1
62
256
6
ByLayer
370
-1
48
1
60
0
100
AcDbEllipse
10
198.782232
20
24.029248
30
0
11
-0.0608646153200691
21
0.0793441781225315
31
0
210
0
220
0
230
1
40
0.541944
41
-2.26034275480935
42
-0.763231835582827
0
ELLIPSE
5
1DB
100
AcDbEntity
8
1
62
256
6
ByLayer
370
-1
48
1
60
0
100
AcDbEllipse
10
194.572714
20
29.537953
30
0
11
-0.0292331445442329
21
-0.202904961151905
31
0
210
0
220
0
230
1
40
0.020928
41
0.38548436599105
42
1.30928422556565
0
ELLIPSE
5
1DC
100
AcDbEntity
8
1
62
256
6
ByLayer
370
-1
48
1
60
0
100
AcDbEllipse
10
186.316852
20
23.276857
30
0
11
-0.0259338634078545
21
-0.328979383440274
31
0
210
0
220
0
230
1
40
0.228524
41
-1.16829399898082
42
-0.819228148581576
0
ELLIPSE
5
1DD
100
AcDbEntity
8
1
62
256
6
ByLayer
370
-1
48
1
60
0
100
AcDbEllipse
10
191.205993
20
28.835064
30
0
11
0.0708780682604582
21
0.0705428907804736
31
0
210
0
220
0
230
1
40
0.174867
41
1.37504757025915
42
2.07317927105479
0
ELLIPSE
5
1DE
100
AcDbEntity
8
1
62
256
6
ByLayer
370
-1
48
1
60
0
100
AcDbEllipse
10
199.479016
20
15.248162
30
0
11
-0.179619284128352
21
0.011700973003058
31
0
210
0
220
0
230
1
40
0.965789
41
2.68082561138882
42
-3.14157579533122
0
ELLIPSE
5
1DF
100
AcDbEntity
8
1
62
256
6
ByLayer
370
-1
48
1
60
0
100
AcDbEllipse
10
193.569623
20
24.351408
30
0
11
-4.54751380776243
21
0.2962395521944
31
0
210
0
220
0
230
1
40
0.965789
41
-2.49053776507051
42
-1.08389678236298
0
ELLIPSE
5
1E0
100
AcDbEntity
8
1
62
256
6
ByLayer
370
-1
48
1
60
0
100
AcDbEllipse
10
193.600255
20
19.05022
30
0
11
-0.0958560929374886
21
0.0284887600074055
31
0
210
0
220
0
230
1
40
0.253281
41
-1.51319995526408
42
-0.815068254465935
0
ELLIPSE
5
1E1
100
AcDbEntity
8
1
62
256
6
ByLayer
370
-1
48
1
60
0
100
AcDbEllipse
10
193.558698
20
24.183702
30
0
11
4.29766409115084
21
-0.279963544843143
31
0
210
0
220
0
230
1
40
0.965789
41
2.59638247841456
42
-1.98202682106166
0
ELLIPSE
5
1E2
100
AcDbEntity
8
1
62
256
6
ByLayer
370
-1
48
1
60
0
100
AcDbEllipse
10
189.482997
20
26.293512
30
0
11
-0.0651215289258286
21
0.0758893040577029
31
0
210
0
220
0
230
1
40
0.780226
41
-2.55424845409792
42
-1.40326756140837
0
ELLIPSE
5
1E3
100
AcDbEntity
8
1
62
256
6
ByLayer
370
-1
48
1
60
0
100
AcDbEllipse
10
184.283235
20
23.43717
30
0
11
-0.280790684040502
21
0.173368370114237
31
0
210
0
220
0
230
1
40
0.444526
41
1.21365952070694
42
1.5627253711059
0
ELLIPSE
5
1E4
100
AcDbEntity
8
1
62
256
6
ByLayer
370
-1
48
1
60
0
100
AcDbEllipse
10
197.342461
20
33.059223
30
0
11
-0.000811575337710965
21
-0.186347945086812
31
0
210
0
220
0
230
1
40
0.965798
41
3.14158434301344
42
-2.1095437565809
0
ELLIPSE
5
1E5
100
AcDbEntity
8
1
62
256
6
ByLayer
370
-1
48
1
60
0
100
AcDbEllipse
10
193.551736
20
24.076836
30
0
11
-3.88256335396387
21
0.252922558999459
31
0
210
0
220
0
230
1
40
0.965789
41
0
42
6.28318530717959
0
ELLIPSE
5
1E6
100
AcDbEntity
8
1
62
256
6
ByLayer
370
-1
48
1
60
0
100
AcDbEllipse
10
191.205993
20
28.835064
30
0
11
-0.0179120008964656
21
-0.0983827231981562
31
0
210
0
220
0
230
1
40
0.4212
41
-2.75501963653092
42
-1.25790871730667
0
ELLIPSE
5
1E7
100
AcDbEntity
8
1
62
256
6
ByLayer
370
-1
48
1
60
0
100
AcDbEllipse
10
191.693066
20
28.345677
30
0
11
0.070074740876052
21
-0.0713409468058434
31
0
210
0
220
0
230
1
40
0.488042
41
-1.72145260278029
42
-0.57047171009086
0
ELLIPSE
5
1E8
100
AcDbEntity
8
1
62
256
6
ByLayer
370
-1
48
1
60
0
100
AcDbEllipse
10
196.785348
20
15.339998
30
0
11
-0.527063859940352
21
-1.27928803838614
31
0
210
0
220
0
230
1
40
0.668877
41
-2.82142075036921
42
-2.32648662403284
0
ELLIPSE
5
1E9
100
AcDbEntity
8
1
62
256
6
ByLayer
370
-1
48
1
60
0
100
AcDbEllipse
10
183.777874
20
23.06567
30
0
11
-0.16635882046626
21
0.07356659571404
31
0
210
0
220
0
230
1
40
0.908072
41
0.907720640177951
42
1.93977784781211
0
ELLIPSE
5
1EA
100
AcDbEntity
8
1
62
256
6
ByLayer
370
-1
48
1
60
0
100
AcDbEllipse
10
197.41439
20
32.469491
30
0
11
0.329991143274648
21
-0.00241771799247372
31
0
210
0
220
0
230
1
40
0.178986
41
1.28663813431954
42
1.88805753063046
0
ELLIPSE
5
1EB
100
AcDbEntity
8
1
62
256
6
ByLayer
370
-1
48
1
60
0
100
AcDbEllipse
10
199.379201
20
16.772516
30
0
11
-0.0660768011499822
21
0.32331695957649
31
0
210
0
220
0
230
1
40
0.459163
41
-2.18695112938436
42
-1.84324162674705
0
ELLIPSE
5
1EC
100
AcDbEntity
8
1
62
256
6
ByLayer
370
-1
48
1
60
0
100
AcDbEllipse
10
197.93547
20
20.481203
30
0
11
-0.158650194184105
21
0.129827254016042
31
0
210
0
220
0
230
1
40
0.21339
41
0.798415796494724
42
1.7222156560695
0
ELLIPSE
5
1ED
100
AcDbEntity
8
1
62
256
6
ByLayer
370
-1
48
1
60
0
100
AcDbEllipse
10
199.351202
20
19.725647
30
0
11
0.149682736773628
21
-0.00975081083588045
31
0
210
0
220
0
230
1
40
0.965789
41
-1.40431536081111
42
-0.460767042201087
0
ELLIPSE
5
1EE
100
AcDbEntity
8
1
62
256
6
ByLayer
370
-1
48
1
60
0
100
AcDbEllipse
10
199.379201
20
16.772516
30
0
11
-0.126989212138555
21
-0.304587819849102
31
0
210
0
220
0
230
1
40
0.517188
41
0.995236925882839
42
1.5966563221938
0
ELLIPSE
5
1EF
100
AcDbEntity
8
1
62
256
6
ByLayer
370
-1
48
1
60
0
100
AcDbEllipse
10
193.558698
20
24.183702
30
0
11
4.29766409115084
21
-0.279963544843143
31
0
210
0
220
0
230
1
40
0.965789
41
-1.50573063487912
42
0.11236828133155
0
ELLIPSE
5
1F0
100
AcDbEntity
8
1
62
256
6
ByLayer
370
-1
48
1
60
0
100
AcDbEllipse
10
193.568373
20
24.332228
30
0
11
4.45112552696292
21
-0.28996051218527
31
0
210
0
220
0
230
1
40
0.965789
41
-1.44334021387393
42
-0.0366992311663714
0
ELLIPSE
5
1F1
100
AcDbEntity
8
1
62
256
6
ByLayer
370
-1
48
1
60
0
100
AcDbEllipse
10
188.822863
20
26.956782
30
0
11
0.0708780682604582
21
0.0705428907804736
31
0
210
0
220
0
230
1
40
0.174867
41
0.676915869462206
42
1.37504757025883
0
ELLIPSE
5
1F2
100
AcDbEntity
8
1
62
256
6
ByLayer
370
-1
48
1
60
0
100
AcDbEllipse
10
197.417876
20
32.945253
30
0
11
0.329991143274648
21
-0.00241771799247372
31
0
210
0
220
0
230
1
40
0.178986
41
1.28663813431971
42
1.88805753063066
0
ELLIPSE
5
1F3
100
AcDbEntity
8
1
62
256
6
ByLayer
370
-1
48
1
60
0
100
AcDbEllipse
10
197.41439
20
32.469491
30
0
11
0.286515006649988
21
0.163735002257787
31
0
210
0
220
0
230
1
40
0.008111
41
1.23585108312843
42
1.58491693353007
0
ELLIPSE
5
1F4
100
AcDbEntity
8
1
62
256
6
ByLayer
370
-1
48
1
60
0
100
AcDbEllipse
10
197.869036
20
24.471367
30
0
11
-0.0539255459961699
21
-0.0842142237927476
31
0
210
0
220
0
230
1
40
0.688948
41
-2.21177210580405
42
-1.29116634538655
0
ELLIPSE
5
1F5
100
AcDbEntity
8
1
62
256
6
ByLayer
370
-1
48
1
60
0
100
AcDbEllipse
10
198.990936
20
17.382068
30
0
11
-0.525897331126922
21
0.84057424443341
31
0
210
0
220
0
230
1
40
0.332731
41
2.96609454024149
42
-2.9733812644988
0
ELLIPSE
5
1F6
100
AcDbEntity
8
1
62
256
6
ByLayer
370
-1
48
1
60
0
100
AcDbEllipse
10
193.568373
20
24.332228
30
0
11
4.45112552696292
21
-0.28996051218527
31
0
210
0
220
0
230
1
40
0.965789
41
2.74544999091248
42
-2.13109433355956
0
ELLIPSE
5
1F7
100
AcDbEntity
8
1
62
256
6
ByLayer
370
-1
48
1
60
0
100
AcDbEllipse
10
188.822863
20
26.956782
30
0
11
0.0899600627285797
21
0.0436713534696373
31
0
210
0
220
0
230
1
40
0.500954
41
0.793203073845173
42
2.03955717236893
0
ELLIPSE
5
1F8
100
AcDbEntity
8
1
62
256
6
ByLayer
370
-1
48
1
60
0
100
AcDbEllipse
10
186.457431
20
24.645581
30
0
11
0.999832204393133
21
0.0183183803424032
31
0
210
0
220
0
230
1
40
0.381356
41
-1.82059200983902
42
-1.3256578834982
0
ELLIPSE
5
1F9
100
AcDbEntity
8
1
62
256
6
ByLayer
370
-1
48
1
60
0
100
AcDbEllipse
10
186.457431
20
24.645581
30
0
11
-0.528408112215569
21
-0.848990498736457
31
0
210
0
220
0
230
1
40
0.00723
41
-1.60507211274103
42
-1.11013798639499
0
ELLIPSE
5
1FA
100
AcDbEntity
8
1
62
256
6
ByLayer
370
-1
48
1
60
0
100
AcDbEllipse
10
194.677364
20
31.643631
30
0
11
-1.57859169559935
21
0.92808649623245
31
0
210
0
220
0
230
1
40
0.365866
41
2.58923188493269
42
-3.14028082429829
0
ELLIPSE
5
1FB
100
AcDbEntity
8
1
62
256
6
ByLayer
370
-1
48
1
60
0
100
AcDbEllipse
10
186.40794
20
21.849417
30
0
11
-0.258780387400324
21
0.114436926661713
31
0
210
0
220
0
230
1
40
0.908072
41
3.10576497515598
42
-2.2338720133898
0
ELLIPSE
5
1FC
100
AcDbEntity
8
1
62
256
6
ByLayer
370
-1
48
1
60
0
100
AcDbEllipse
10
197.417876
20
32.945253
30
0
11
-0.28724278594637
21
-0.162454861182323
31
0
210
0
220
0
230
1
40
0.308322
41
-1.72780774762734
42
-1.3840982449898
0
ELLIPSE
5
1FD
100
AcDbEntity
8
1
62
256
6
ByLayer
370
-1
48
1
60
0
100
AcDbEllipse
10
193.569623
20
24.351408
30
0
11
-4.54751380776243
21
0.2962395521944
31
0
210
0
220
0
230
1
40
0.965789
41
1.69825243971588
42
3.10489342242342
0
ELLIPSE
5
1FE
100
AcDbEntity
8
1
62
256
6
ByLayer
370
-1
48
1
60
0
100
AcDbEllipse
10
196.947734
20
16.789291
30
0
11
-0.0228891020462422
21
0.329205238426603
31
0
210
0
220
0
230
1
40
0.196789
41
-2.31989895396186
42
-1.97083310356321
0
ELLIPSE
5
1FF
100
AcDbEntity
8
1
62
256
6
ByLayer
370
-1
48
1
60
0
100
AcDbEllipse
10
188.14834
20
22.231549
30
0
11
0.18949842125649
21
0.0782006927162267
31
0
210
0
220
0
230
1
40
0.234319
41
-1.68534667150383
42
-0.761546811930145
0
ELLIPSE
5
200
100
AcDbEntity
8
1
62
256
6
ByLayer
370
-1
48
1
60
0
100
AcDbEllipse
10
192.890494
20
23.605145
30
0
11
-4.13294894779441
21
1.69160889846441
31
0
210
0
220
0
230
1
40
0.774057
41
-0.531754762116455
42
-0.377254648204408
0
ELLIPSE
5
201
100
AcDbEntity
8
1
62
256
6
ByLayer
370
-1
48
1
60
0
100
AcDbEllipse
10
184.283235
20
23.43717
30
0
11
0.0259338634078546
21
0.328979383440274
31
0
210
0
220
0
230
1
40
0.228524
41
1.97329865460897
42
2.32236450500822
0
ELLIPSE
5
202
100
AcDbEntity
8
1
62
256
6
ByLayer
370
-1
48
1
60
0
100
AcDbEllipse
10
190.119116
20
19.009993
30
0
11
-0.864006670773751
21
0.49333851605817
31
0
210
0
220
0
230
1
40
0.117329
41
1.3661565622081
42
1.51815791507061
0
ELLIPSE
5
203
100
AcDbEntity
8
1
62
256
6
ByLayer
370
-1
48
1
60
0
100
AcDbEllipse
10
190.715585
20
20.112277
30
0
11
0.0978077096975356
21
0.0208243108822981
31
0
210
0
220
0
230
1
40
0.137251
41
-2.39665373048566
42
-0.899542811259397
0
ELLIPSE
5
204
100
AcDbEntity
8
1
62
256
6
ByLayer
370
-1
48
1
60
0
100
AcDbEllipse
10
193.862193
20
19.931563
30
0
11
-0.0958560929374886
21
0.0284887600074055
31
0
210
0
220
0
230
1
40
0.253281
41
-1.51319995526295
42
-0.815068254465935
0
ELLIPSE
5
205
100
AcDbEntity
8
1
62
256
6
ByLayer
370
-1
48
1
60
0
100
AcDbEllipse
10
198.101891
20
23.868345
30
0
11
-0.0994695119347516
21
0.0102866999306049
31
0
210
0
220
0
230
1
40
0.259156
41
-1.56094448520684
42
-0.251947546212174
0
ELLIPSE
5
206
100
AcDbEntity
8
1
62
256
6
ByLayer
370
-1
48
1
60
0
100
AcDbEllipse
10
199.379201
20
16.772516
30
0
11
0.278332210312974
21
0.177288411077246
31
0
210
0
220
0
230
1
40
0.680704
41
-1.77063022710657
42
-1.42692072446857
0
ELLIPSE
5
207
100
AcDbEntity
8
1
62
256
6
ByLayer
370
-1
48
1
60
0
100
AcDbEllipse
10
195.042867
20
31.285468
30
0
11
-0.00126245027706487
21
-0.289874581232997
31
0
210
0
220
0
230
1
40
0.965798
41
-0.943556630058203
42
-8.31140093101318E-06
0
ELLIPSE
5
208
100
AcDbEntity
8
1
62
256
6
ByLayer
370
-1
48
1
60
0
100
AcDbEllipse
10
197.41439
20
32.469491
30
0
11
0.285075263893947
21
-0.166229040530819
31
0
210
0
220
0
230
1
40
0.008173
41
-1.93394726015381
42
-1.58488140975352
0
ELLIPSE
5
209
100
AcDbEntity
8
1
62
256
6
ByLayer
370
-1
48
1
60
0
100
AcDbEllipse
10
183.706793
20
23.184917
30
0
11
-0.166358820492731
21
0.0735665956968117
31
0
210
0
220
0
230
1
40
0.908072
41
-0.124336567490108
42
0.907720640055521
0
ELLIPSE
5
20A
100
AcDbEntity
8
1
62
256
6
ByLayer
370
-1
48
1
60
0
100
AcDbEllipse
10
193.568373
20
24.332228
30
0
11
4.45112552696292
21
-0.28996051218527
31
0
210
0
220
0
230
1
40
0.965789
41
0.651054888519279
42
2.05769587122682
0
ELLIPSE
5
20B
100
AcDbEntity
8
1
62
256
6
ByLayer
370
-1
48
1
60
0
100
AcDbEllipse
10
199.906242
20
24.891472
30
0
11
-0.000230712323179196
21
0.12584765734812
31
0
210
0
220
0
230
1
40
0.01527
41
-2.24867562521339
42
-0.751563438045529
0
ELLIPSE
5
20C
100
AcDbEntity
8
1
62
256
6
ByLayer
370
-1
48
1
60
0
100
AcDbEllipse
10
197.358621
20
26.751515
30
0
11
0.0230153731571275
21
-0.0973154283679529
31
0
210
0
220
0
230
1
40
0.078414
41
1.12323355480761
42
1.82136525560786
0
ELLIPSE
5
20D
100
AcDbEntity
8
1
62
256
6
ByLayer
370
-1
48
1
60
0
100
AcDbEllipse
10
188.625374
20
28.573073
30
0
11
-0.265718234449946
21
-0.15769620053294
31
0
210
0
220
0
230
1
40
0.209851
41
0.729874228813084
42
1.42800592968531
0
ELLIPSE
5
20E
100
AcDbEntity
8
1
62
256
6
ByLayer
370
-1
48
1
60
0
100
AcDbEllipse
10
189.701907
20
29.108904
30
0
11
-0.118987856668603
21
-0.0786309206348177
31
0
210
0
220
0
230
1
40
0.157713
41
-2.59188708544604
42
-1.09477489707746
0
ELLIPSE
5
20F
100
AcDbEntity
8
1
62
256
6
ByLayer
370
-1
48
1
60
0
100
AcDbEllipse
10
199.132978
20
17.999223
30
0
11
0.27940777531077
21
-0.0182015135603103
31
0
210
0
220
0
230
1
40
0.965789
41
1.73727729277865
42
2.68082561138884
0
ELLIPSE
5
210
100
AcDbEntity
8
1
62
256
6
ByLayer
370
-1
48
1
60
0
100
AcDbEllipse
10
183.697223
20
26.201152
30
0
11
-1.38083284564539
21
1.25107401829371
31
0
210
0
220
0
230
1
40
0.317264
41
-3.08294399025195
42
-2.52927139231208
0
ELLIPSE
5
211
100
AcDbEntity
8
1
62
256
6
ByLayer
370
-1
48
1
60
0
100
AcDbEllipse
10
193.808621
20
31.07978
30
0
11
-0.249471227956045
21
0.0162513513931361
31
0
210
0
220
0
230
1
40
0.965789
41
-1.50796459339757
42
-0.984365817799252
0
ELLIPSE
5
212
100
AcDbEntity
8
1
62
256
6
ByLayer
370
-1
48
1
60
0
100
AcDbEllipse
10
199.500852
20
16.555883
30
0
11
-0.172351874615762
21
-0.059510932121796
31
0
210
0
220
0
230
1
40
0.911082
41
1.28340322781937
42
2.31546043535582
0
ELLIPSE
5
213
100
AcDbEntity
8
1
62
256
6
ByLayer
370
-1
48
1
60
0
100
AcDbEllipse
10
191.71101
20
20.368626
30
0
11
-0.0105665165218437
21
0.099440176631951
31
0
210
0
220
0
230
1
40
0.630327
41
-1.61318641020147
42
-0.692580649784832
0
ELLIPSE
5
214
100
AcDbEntity
8
1
62
256
6
ByLayer
370
-1
48
1
60
0
100
AcDbEllipse
10
197.006586
20
17.82834
30
0
11
0.41568351999253
21
0.229798196700105
31
0
210
0
220
0
230
1
40
0.903036
41
2.48056608697736
42
2.66572011399425
0
ELLIPSE
5
215
100
AcDbEntity
8
1
62
256
6
ByLayer
370
-1
48
1
60
0
100
AcDbEllipse
10
197.414743
20
30.049961
30
0
11
-0.496266116573674
21
0.868170456500844
31
0
210
0
220
0
230
1
40
0.01412
41
1.56268445421824
42
2.05761858056115
0
ELLIPSE
5
216
100
AcDbEntity
8
1
62
256
6
ByLayer
370
-1
48
1
60
0
100
AcDbEllipse
10
193.046053
20
19.992974
30
0
11
-0.0639266674587901
21
-0.0768985122587769
31
0
210
0
220
0
230
1
40
0.706584
41
-2.39066793957276
42
-1.47006217915427
0
ELLIPSE
5
217
100
AcDbEntity
8
1
62
256
6
ByLayer
370
-1
48
1
60
0
100
AcDbEllipse
10
191.693066
20
28.345677
30
0
11
0.0396403037948459
21
-0.0918076593485115
31
0
210
0
220
0
230
1
40
0.121338
41
0.494801366205004
42
1.80379830520272
0
ELLIPSE
5
218
100
AcDbEntity
8
1
62
256
6
ByLayer
370
-1
48
1
60
0
100
AcDbEllipse
10
190.715585
20
20.112277
30
0
11
-0.0958560929374886
21
0.0284887600074055
31
0
210
0
220
0
230
1
40
0.253281
41
-2.21133165606199
42
-1.51319995526351
0
ELLIPSE
5
219
100
AcDbEntity
8
1
62
256
6
ByLayer
370
-1
48
1
60
0
100
AcDbEllipse
10
197.358621
20
26.751515
30
0
11
-0.0823717996792956
21
-0.0566999701727787
31
0
210
0
220
0
230
1
40
0.206283
41
-1.73211067073664
42
-0.423113731741136
0
ELLIPSE
5
21A
100
AcDbEntity
8
1
62
256
6
ByLayer
370
-1
48
1
60
0
100
AcDbEllipse
10
197.414743
20
30.049961
30
0
11
-0.503823808310173
21
-0.863806442543603
31
0
210
0
220
0
230
1
40
0.014084
41
-1.5626229170732
42
-1.06768879072996
0
ELLIPSE
5
21B
100
AcDbEntity
8
1
62
256
6
ByLayer
370
-1
48
1
60
0
100
AcDbEllipse
10
199.760298
20
29.591678
30
0
11
-0.292057869086976
21
0.499869028100816
31
0
210
0
220
0
230
1
40
0.127536
41
1.49570946366491
42
1.75750885738805
0
ELLIPSE
5
21C
100
AcDbEntity
8
1
62
256
6
ByLayer
370
-1
48
1
60
0
100
AcDbEllipse
10
189.482997
20
26.293512
30
0
11
0.0708780682604582
21
0.0705428907804736
31
0
210
0
220
0
230
1
40
0.174867
41
0.676915869460722
42
1.37504757025767
0
ELLIPSE
5
21D
100
AcDbEntity
8
1
62
256
6
ByLayer
370
-1
48
1
60
0
100
AcDbEllipse
10
198.782232
20
24.029248
30
0
11
0.0230153731571275
21
-0.0973154283679529
31
0
210
0
220
0
230
1
40
0.078414
41
1.82136525560609
42
2.51949695640614
0
ELLIPSE
5
21E
100
AcDbEntity
8
1
62
256
6
ByLayer
370
-1
48
1
60
0
100
AcDbEllipse
10
199.654729
20
20.425392
30
0
11
-0.249471227956045
21
0.0162513513931361
31
0
210
0
220
0
230
1
40
0.965789
41
2.68082561138873
42
-3.07876092019254
0
ELLIPSE
5
21F
100
AcDbEntity
8
1
62
256
6
ByLayer
370
-1
48
1
60
0
100
AcDbEllipse
10
190.088987
20
26.6605
30
0
11
0.000551485817536755
21
0.0999984793054027
31
0
210
0
220
0
230
1
40
0.607562
41
-1.80967421593279
42
-0.889068455515187
0
ELLIPSE
5
220
100
AcDbEntity
8
1
62
256
6
ByLayer
370
-1
48
1
60
0
100
AcDbEllipse
10
195.121492
20
16.342764
30
0
11
-0.249471227956045
21
0.0162513513931361
31
0
210
0
220
0
230
1
40
0.965789
41
1.11002928459387
42
1.64876840382743
0
ELLIPSE
5
221
100
AcDbEntity
8
1
62
256
6
ByLayer
370
-1
48
1
60
0
100
AcDbEllipse
10
183.908192
20
23.281203
30
0
11
-0.0700603995359117
21
-0.322477193638354
31
0
210
0
220
0
230
1
40
0.487235
41
-1.29072529624606
42
-0.947015793608649
0
ELLIPSE
5
222
100
AcDbEntity
8
1
62
256
6
ByLayer
370
-1
48
1
60
0
100
AcDbEllipse
10
189.214001
20
28.939928
30
0
11
0.599999999999999
21
0
31
0
210
0
220
0
230
1
40
0.258819
41
1.55642255054302
42
2.38545394524038
0
ELLIPSE
5
223
100
AcDbEntity
8
1
62
256
6
ByLayer
370
-1
48
1
60
0
100
AcDbEllipse
10
184.507793
20
25.422819
30
0
11
-0.833221105532158
21
-6.77802384273863
31
0
210
0
220
0
230
1
40
0.134752
41
-0.958757457455865
42
-0.815538972261751
0
ELLIPSE
5
224
100
AcDbEntity
8
1
62
256
6
ByLayer
370
-1
48
1
60
0
100
AcDbEllipse
10
187.670765
20
28.36365
30
0
11
-0.599078489577184
21
0.0332702162815123
31
0
210
0
220
0
230
1
40
0.965823
41
-1.5172100390275
42
0.0535862877672024
0
ELLIPSE
5
225
100
AcDbEntity
8
1
62
256
6
ByLayer
370
-1
48
1
60
0
100
AcDbEllipse
10
188.327897
20
28.961623
30
0
11
0.15
21
0
31
0
210
0
220
0
230
1
40
0.258819
41
-2.5887344229435
42
-0.581605783150183
0
ELLIPSE
5
226
100
AcDbEntity
8
1
62
256
6
ByLayer
370
-1
48
1
60
0
100
AcDbEllipse
10
189.327482
20
28.939506
30
0
11
0.599999999999999
21
0
31
0
210
0
220
0
230
1
40
0.258819
41
1.06489851047465
42
1.55642255054293
0
ELLIPSE
5
227
100
AcDbEntity
8
1
62
256
6
ByLayer
370
-1
48
1
60
0
100
AcDbEllipse
10
190.959979
20
28.513735
30
0
11
3
21
0
31
0
210
0
220
0
230
1
40
0.258819
41
2.38545394524031
42
2.55998687043974
0
ELLIPSE
5
228
100
AcDbEntity
8
1
62
256
6
ByLayer
370
-1
48
1
60
0
100
AcDbEllipse
10
184.20189
20
22.763857
30
0
11
-0.997924210936855
21
0.0643992952294997
31
0
210
0
220
0
230
1
40
0.965791
41
-2.21689888963289E-05
42
0.0622451290076109
0
ELLIPSE
5
229
100
AcDbEntity
8
1
62
256
6
ByLayer
370
-1
48
1
60
0
100
AcDbEllipse
10
184.271107
20
21.755166
30
0
11
-0.99846411905318
21
0.055450410169461
31
0
210
0
220
0
230
1
40
0.965823
41
0.0535863380382518
42
0.197321423156313
0
ELLIPSE
5
22A
100
AcDbEntity
8
1
62
256
6
ByLayer
370
-1
48
1
60
0
100
AcDbEllipse
10
184.271107
20
23.836447
30
0
11
-0.998464149295466
21
0.0554503604814562
31
0
210
0
220
0
230
1
40
0.965823
41
-1.51721003901488
42
0.0535862877785988
0
ELLIPSE
5
22B
100
AcDbEntity
8
1
62
256
6
ByLayer
370
-1
48
1
60
0
100
AcDbEllipse
10
194.955225
20
23.119672
30
0
11
-0.329302020901979
21
0.0214517838389397
31
0
210
0
220
0
230
1
40
0.965789
41
-2.43080906131456
42
-2.27948774064043
0
ELLIPSE
5
22C
100
AcDbEntity
8
1
62
256
6
ByLayer
370
-1
48
1
60
0
100
AcDbEllipse
10
193.541928
20
23.926281
30
0
11
-1.41300503514303
21
0.0920476542907227
31
0
210
0
220
0
230
1
40
0.965789
41
2.63476761154223
42
3.09634595505506
0
ELLIPSE
5
22D
100
AcDbEntity
8
1
62
256
6
ByLayer
370
-1
48
1
60
0
100
AcDbEllipse
10
193.563524
20
24.257785
30
0
11
1.41300503514304
21
-0.0920476542907109
31
0
210
0
220
0
230
1
40
0.965789
41
3.09634595505482
42
-2.97068248826027
0
ELLIPSE
5
22E
100
AcDbEntity
8
1
62
256
6
ByLayer
370
-1
48
1
60
0
100
AcDbEllipse
10
193.568901
20
24.340333
30
0
11
1.96433644892589
21
-0.127963140869538
31
0
210
0
220
0
230
1
40
0.965789
41
-1.50796459339768
42
-0.467424113794005
0
ELLIPSE
5
22F
100
AcDbEntity
8
1
62
256
6
ByLayer
370
-1
48
1
60
0
100
AcDbEllipse
10
193.541928
20
23.926281
30
0
11
1.41300503514304
21
-0.0920476542907109
31
0
210
0
220
0
230
1
40
0.965789
41
-2.97068248826028
42
-2.51487648792409
0
ELLIPSE
5
230
100
AcDbEntity
8
1
62
256
6
ByLayer
370
-1
48
1
60
0
100
AcDbEllipse
10
193.568901
20
24.340333
30
0
11
1.96433644892589
21
-0.127963140869538
31
0
210
0
220
0
230
1
40
0.965789
41
1.63362806019214
42
2.67416853979577
0
ELLIPSE
5
231
100
AcDbEntity
8
1
62
256
6
ByLayer
370
-1
48
1
60
0
100
AcDbEllipse
10
193.541928
20
23.926281
30
0
11
1.41300503514304
21
-0.0920476542907109
31
0
210
0
220
0
230
1
40
0.965789
41
0.0452488351008758
42
0.170910165329215
0
ELLIPSE
5
232
100
AcDbEntity
8
1
62
256
6
ByLayer
370
-1
48
1
60
0
100
AcDbEllipse
10
193.541928
20
23.926281
30
0
11
-1.41300503514303
21
0.0920476542907227
31
0
210
0
220
0
230
1
40
0.965789
41
-0.98769435359587
42
-0.2663241253981
0
ELLIPSE
5
233
100
AcDbEntity
8
1
62
256
6
ByLayer
370
-1
48
1
60
0
100
AcDbEllipse
10
194.656301
20
25.800482
30
0
11
-0.824252937166772
21
0.0536944650029218
31
0
210
0
220
0
230
1
40
0.965789
41
1.11335782039036
42
1.89522288769733
0
ELLIPSE
5
234
100
AcDbEntity
8
1
62
256
6
ByLayer
370
-1
48
1
60
0
100
AcDbEllipse
10
193.568901
20
24.340333
30
0
11
1.96433644892589
21
-0.127963140869538
31
0
210
0
220
0
230
1
40
0.965789
41
0.593087580588509
42
1.63362806019214
0
ELLIPSE
5
235
100
AcDbEntity
8
1
62
256
6
ByLayer
370
-1
48
1
60
0
100
AcDbEllipse
10
195.761106
20
23.916597
30
0
11
-0.824252937166772
21
0.0536944650029218
31
0
210
0
220
0
230
1
40
0.965789
41
0.248818955442386
42
0.862104912949502
0
ELLIPSE
5
236
100
AcDbEntity
8
1
62
256
6
ByLayer
370
-1
48
1
60
0
100
AcDbEllipse
10
193.568901
20
24.340333
30
0
11
1.96433644892589
21
-0.127963140869538
31
0
210
0
220
0
230
1
40
0.965789
41
-2.54850507300129
42
-1.50796459339762
0
ELLIPSE
5
237
100
AcDbEntity
8
1
62
256
6
ByLayer
370
-1
48
1
60
0
100
AcDbEllipse
10
193.541928
20
23.926281
30
0
11
-1.41300503514303
21
0.0920476542907227
31
0
210
0
220
0
230
1
40
0.965789
41
1.43595795446651
42
1.87864266208282
0
ELLIPSE
5
238
100
AcDbEntity
8
1
62
256
6
ByLayer
370
-1
48
1
60
0
100
AcDbEllipse
10
193.563524
20
24.257785
30
0
11
1.41300503514304
21
-0.0920476542907109
31
0
210
0
220
0
230
1
40
0.965789
41
-0.0452466985347396
42
0.170910165329215
0
ELLIPSE
5
239
100
AcDbEntity
8
1
62
256
6
ByLayer
370
-1
48
1
60
0
100
AcDbEllipse
10
193.541928
20
23.926281
30
0
11
-1.41300503514303
21
0.0920476542907227
31
0
210
0
220
0
230
1
40
0.965789
41
-2.02823483319947
42
-0.98769435359587
0
ELLIPSE
5
23A
100
AcDbEntity
8
1
62
256
6
ByLayer
370
-1
48
1
60
0
100
AcDbEllipse
10
193.541928
20
23.926281
30
0
11
-1.41300503514303
21
0.0920476542907227
31
0
210
0
220
0
230
1
40
0.965789
41
-2.97068248826057
42
-2.02823483319947
0
ELLIPSE
5
23B
100
AcDbEntity
8
1
62
256
6
ByLayer
370
-1
48
1
60
0
100
AcDbEllipse
10
193.568901
20
24.340333
30
0
11
1.96433644892589
21
-0.127963140869538
31
0
210
0
220
0
230
1
40
0.965789
41
-0.467424113794005
42
0.593087580588509
0
ELLIPSE
5
23C
100
AcDbEntity
8
1
62
256
6
ByLayer
370
-1
48
1
60
0
100
AcDbEllipse
10
192.427556
20
25.810207
30
0
11
-0.824252937166772
21
0.0536944650029218
31
0
210
0
220
0
230
1
40
0.965789
41
2.15389829999396
42
2.93576336730093
0
ELLIPSE
5
23D
100
AcDbEntity
8
1
62
256
6
ByLayer
370
-1
48
1
60
0
100
AcDbEllipse
10
193.568901
20
24.340333
30
0
11
1.96433644892589
21
-0.127963140869538
31
0
210
0
220
0
230
1
40
0.965789
41
2.67416853979577
42
-2.54850507300129
0
ELLIPSE
5
23E
100
AcDbEntity
8
1
62
256
6
ByLayer
370
-1
48
1
60
0
100
AcDbEllipse
10
191.322751
20
23.935965
30
0
11
-0.824252937166772
21
0.0536944650029218
31
0
210
0
220
0
230
1
40
0.965789
41
2.40515120743483
42
3.01843716494149
0
ELLIPSE
5
23F
100
AcDbEntity
8
1
62
256
6
ByLayer
370
-1
48
1
60
0
100
AcDbEllipse
10
192.128632
20
24.73289
30
0
11
-0.329302020901979
21
0.0214517838389397
31
0
210
0
220
0
230
1
40
0.965789
41
-1.76955942090307
42
-0.668496510570619
0
ELLIPSE
5
240
100
AcDbEntity
8
1
62
256
6
ByLayer
370
-1
48
1
60
0
100
AcDbEllipse
10
192.427556
20
25.810207
30
0
11
-0.824252937166772
21
0.0536944650029218
31
0
210
0
220
0
230
1
40
0.965789
41
1.37203323268703
42
2.15389829999396
0
ELLIPSE
5
241
100
AcDbEntity
8
1
62
256
6
ByLayer
370
-1
48
1
60
0
100
AcDbEllipse
10
193.541928
20
25.508951
30
0
11
-0.329302020901979
21
0.0214517838389397
31
0
210
0
220
0
230
1
40
0.965789
41
-2.81009990050626
42
-0.205829286288972
0
ELLIPSE
5
242
100
AcDbEntity
8
1
62
256
6
ByLayer
370
-1
48
1
60
0
100
AcDbEllipse
10
194.656301
20
25.800482
30
0
11
-0.824252937166772
21
0.0536944650029218
31
0
210
0
220
0
230
1
40
0.965789
41
0.331492753083437
42
1.11335782039036
0
ELLIPSE
5
243
100
AcDbEntity
8
1
62
256
6
ByLayer
370
-1
48
1
60
0
100
AcDbEllipse
10
194.955225
20
24.720555
30
0
11
-0.329302020901979
21
0.0214517838389397
31
0
210
0
220
0
230
1
40
0.965789
41
-2.53169138637083
42
-1.24636976589308
0
ELLIPSE
5
244
100
AcDbEntity
8
1
62
256
6
ByLayer
370
-1
48
1
60
0
100
AcDbEllipse
10
199.747559
20
14.191354
30
0
11
0.010429589454686
21
-1.96847237056127
31
0
210
0
220
0
230
1
40
0.05338
41
0.280004297406643
42
1.32720184860276
0
ELLIPSE
5
245
100
AcDbEntity
8
1
62
256
6
ByLayer
370
-1
48
1
60
0
100
AcDbEllipse
10
199.747559
20
14.191354
30
0
11
0.010429589454686
21
-1.96847237056127
31
0
210
0
220
0
230
1
40
0.05338
41
2.37439939979977
42
-2.93840992361005
0
ELLIPSE
5
246
100
AcDbEntity
8
1
62
256
6
ByLayer
370
-1
48
1
60
0
100
AcDbEllipse
10
199.747559
20
14.191354
30
0
11
0.010429589454686
21
-1.96847237056127
31
0
210
0
220
0
230
1
40
0.05338
41
-1.81439080498678
42
-0.767193253790397
0
ELLIPSE
5
247
100
AcDbEntity
8
1
62
256
6
ByLayer
370
-1
48
1
60
0
100
AcDbEllipse
10
199.747559
20
14.191354
30
0
11
0.010429589454686
21
-1.96847237056127
31
0
210
0
220
0
230
1
40
0.05338
41
-2.1086697775969
42
-1.81439080498678
0
ELLIPSE
5
248
100
AcDbEntity
8
1
62
256
6
ByLayer
370
-1
48
1
60
0
100
AcDbEllipse
10
199.747559
20
14.191354
30
0
11
0.010429589454686
21
-1.96847237056127
31
0
210
0
220
0
230
1
40
0.05338
41
1.32720184860276
42
2.37439939979977
0
ELLIPSE
5
249
100
AcDbEntity
8
1
62
256
6
ByLayer
370
-1
48
1
60
0
100
AcDbEllipse
10
199.747559
20
14.191354
30
0
11
0.010429589454686
21
-1.96847237056127
31
0
210
0
220
0
230
1
40
0.05338
41
-0.767193253790397
42
0.280004297406643
0
ELLIPSE
5
24A
100
AcDbEntity
8
1
62
256
6
ByLayer
370
-1
48
1
60
0
100
AcDbEllipse
10
198.449431
20
14.184476
30
0
11
-0.0221201605147671
21
4.17494140060657
31
0
210
0
220
0
230
1
40
0.05338
41
1.57051350122279
42
1.58111631861784
0
ELLIPSE
5
24B
100
AcDbEntity
8
1
62
256
6
ByLayer
370
-1
48
1
60
0
100
AcDbEllipse
10
198.449431
20
14.184476
30
0
11
-0.0221201605147671
21
4.17494140060657
31
0
210
0
220
0
230
1
40
0.05338
41
1.38771207904237
42
1.57051350122279
0
ELLIPSE
5
24C
100
AcDbEntity
8
1
62
256
6
ByLayer
370
-1
48
1
60
0
100
AcDbEllipse
10
199.747559
20
14.191354
30
0
11
-0.0113912203848501
21
2.14996982306685
31
0
210
0
220
0
230
1
40
0.05338
41
1.57051356806583
42
0
0
ELLIPSE
5
24D
100
AcDbEntity
8
1
62
256
6
ByLayer
370
-1
48
1
60
0
100
AcDbEllipse
10
199.747559
20
14.191354
30
0
11
-0.0113912203848501
21
2.14996982306685
31
0
210
0
220
0
230
1
40
0.05338
41
1.09789998650218
42
1.57051356806583
0
ELLIPSE
5
24E
100
AcDbEntity
8
1
62
256
6
ByLayer
370
-1
48
1
60
0
100
AcDbEllipse
10
193.548672
20
24.029794
30
0
11
3.56743855977144
21
-0.232394324921816
31
0
210
0
220
0
230
1
40
0.965789
41
3.14159265199917
42
-1.50796445840502
0
ELLIPSE
5
24F
100
AcDbEntity
8
1
62
256
6
ByLayer
370
-1
48
1
60
0
100
AcDbEllipse
10
193.548672
20
24.029794
30
0
11
3.56743855977144
21
-0.232394324921816
31
0
210
0
220
0
230
1
40
0.965789
41
-1.50796445840502
42
0
0
ELLIPSE
5
250
100
AcDbEntity
8
1
62
256
6
ByLayer
370
-1
48
1
60
0
100
AcDbEllipse
10
193.568901
20
24.340333
30
0
11
2.39492378837803
21
-0.156012973374086
31
0
210
0
220
0
230
1
40
0.965789
41
0
42
6.28318530717959
0
ELLIPSE
5
251
100
AcDbEntity
8
1
62
256
6
ByLayer
370
-1
48
1
60
0
100
AcDbEllipse
10
193.560898
20
24.217478
30
0
11
3.56743855977144
21
-0.232394324921816
31
0
210
0
220
0
230
1
40
0.965789
41
0
42
6.28318530717959
0
ELLIPSE
5
252
100
AcDbEntity
8
1
62
256
6
ByLayer
370
-1
48
1
60
0
100
AcDbEllipse
10
199.910291
20
26.159032
30
0
11
-0.00127271043079264
21
-0.308574636038572
31
0
210
0
220
0
230
1
40
0.015862
41
-2.01453856234247
42
-1.31640685985682
0
POINT
5
41
100
AcDbEntity
8
80
62
256
6
ByLayer
370
-1
48
1
60
0
100
AcDbPoint
10
0
20
0
30
0
39
0
210
0
220
0
230
1
50
360
0
POINT
5
43
100
AcDbEntity
8
81
62
256
6
ByLayer
370
-1
48
1
60
0
100
AcDbPoint
10
199.914
20
34.875
30
0
39
0
210
0
220
0
230
1
50
360
0
POINT
5
45
100
AcDbEntity
8
1
62
256
6
ByLayer
370
-1
48
1
60
0
100
AcDbPoint
10
199.921672
20
34.992776
30
0
39
0
210
0
220
0
230
1
50
360
0
POINT
5
47
100
AcDbEntity
8
1
62
256
6
ByLayer
370
-1
48
1
60
0
100
AcDbPoint
10
197.414355
20
33.245261
30
0
39
0
210
0
220
0
230
1
50
360
0
POINT
5
48
100
AcDbEntity
8
2
62
256
6
ByLayer
370
-1
48
1
60
0
100
AcDbPoint
10
199.914
20
34.875
30
0
39
0
210
0
220
0
230
1
50
360
0
SPLINE
5
253
100
AcDbEntity
8
1
62
256
6
ByLayer
370
-1
48
1
60
0
100
AcDbSpline
70
4
71
3
72
8
73
4
40
0
40
0
40
0
40
0
40
1
40
1
40
1
40
1
41
1
10
153.658950998716
20
23.51075
30
0
41
1
10
153.781338355186
20
23.51075
30
0
41
1
10
153.900975106076
20
23.51075
30
0
41
1
10
154.01760732286
20
23.51075
30
0
0
SPLINE
5
254
100
AcDbEntity
8
1
62
256
6
ByLayer
370
-1
48
1
60
0
100
AcDbSpline
70
4
71
3
72
8
73
4
40
0
40
0
40
0
40
0
40
1
40
1
40
1
40
1
41
1
10
153.658950998134
20
-8.49780063089858
30
0
41
1
10
153.781332583976
20
-8.29002140193529
30
0
41
1
10
153.900967773252
20
-8.08017178826407
30
0
41
1
10
154.01760732286
20
-7.86806389673211
30
0
0
SPLINE
5
255
100
AcDbEntity
8
1
62
256
6
ByLayer
370
-1
48
1
60
0
100
AcDbSpline
70
4
71
3
72
10
73
6
40
0
40
0
40
0
40
0
40
0.5
40
0.5
40
1
40
1
40
1
40
1
41
1
10
174.13950343
20
-8.03564546471671
30
0
41
1
10
174.09108425111
20
-7.92297278524126
30
0
41
1
10
174.035067215274
20
-7.8135791499451
30
0
41
1
10
173.887234805235
20
-7.6197827497214
30
0
41
1
10
173.78185928446
20
-7.5236709789842
30
0
41
1
10
173.658314612444
20
-7.5236709789842
30
0
0
SPLINE
5
256
100
AcDbEntity
8
1
62
256
6
ByLayer
370
-1
48
1
60
0
100
AcDbSpline
70
4
71
3
72
10
73
6
40
0
40
0
40
0
40
0
40
0.5
40
0.5
40
1
40
1
40
1
40
1
41
1
10
154.017607322859
20
-7.86806389673126
30
0
41
1
10
154.06183083611
20
-7.78764386610379
30
0
41
1
10
154.112361915224
20
-7.71018017041831
30
0
41
1
10
154.241573773439
20
-7.57843221271398
30
0
41
1
10
154.325153386986
20
-7.52367097898397
30
0
41
1
10
154.417607320808
20
-7.52367097898372
30
0
0
SPLINE
5
257
100
AcDbEntity
8
1
62
256
6
ByLayer
370
-1
48
1
60
0
100
AcDbSpline
70
4
71
3
72
18
73
14
40
0
40
0
40
0
40
0
40
0.102862839634486
40
0.102862839634486
40
0.301983904693777
40
0.301983904693777
40
0.519438181132011
40
0.519438181132011
40
0.654597977930703
40
0.654597977930703
40
0.891611137461684
40
0.891611137461684
40
1
40
1
40
1
40
1
41
1
10
175.620189450535
20
26.3370292808089
30
0
41
1
10
175.610254268563
20
26.3342727942983
30
0
41
1
10
175.604262281873
20
26.3361198116431
30
0
41
1
10
175.598127753983
20
26.3542316970893
30
0
41
1
10
175.608736416042
20
26.3827238560889
30
0
41
1
10
175.657681084702
20
26.4703018428364
30
0
41
1
10
175.699052275406
20
26.5330475606036
30
0
41
1
10
175.785790024573
20
26.6545499186637
30
0
41
1
10
175.824229132226
20
26.7065493779497
30
0
41
1
10
175.939965657944
20
26.8591573563835
30
0
41
1
10
176.026878088147
20
26.9697625554024
30
0
41
1
10
176.163001357781
20
27.1389509601397
30
0
41
1
10
176.207534820131
20
27.1937666945833
30
0
41
1
10
176.252966940169
20
27.2492057463946
30
0
0
SPLINE
5
258
100
AcDbEntity
8
1
62
256
6
ByLayer
370
-1
48
1
60
0
100
AcDbSpline
70
4
71
3
72
8
73
4
40
0
40
0
40
0
40
0
40
1
40
1
40
1
40
1
41
1
10
178.639503427318
20
30.1435176680798
30
0
41
1
10
177.841293557548
20
29.1808330918082
30
0
41
1
10
177.045481729422
20
28.2162807678965
30
0
41
1
10
176.252966940169
20
27.2492057463946
30
0
0
SPLINE
5
259
100
AcDbEntity
8
1
62
256
6
ByLayer
370
-1
48
1
60
0
100
AcDbSpline
70
4
71
3
72
14
73
10
40
0
40
0
40
0
40
0
40
0.104682048372579
40
0.104682048372579
40
0.254823165711493
40
0.254823165711493
40
0.523056539292414
40
0.523056539292414
40
1
40
1
40
1
40
1
41
1
10
154.417607320808
20
7.52367097898386
30
0
41
1
10
154.398350783411
20
7.52367097898389
30
0
41
1
10
154.37897706797
20
7.52600791353498
30
0
41
1
10
154.333251713478
20
7.5367817990392
30
0
41
1
10
154.307123221445
20
7.54754100120044
30
0
41
1
10
154.239907947237
20
7.58502532672478
30
0
41
1
10
154.201672255323
20
7.61790880346342
30
0
41
1
10
154.108049968488
20
7.71723607780095
30
0
41
1
10
154.059652004353
20
7.7916060505593
30
0
41
1
10
154.01760732286
20
7.86806389673154
30
0
0
SPLINE
5
25A
100
AcDbEntity
8
1
62
256
6
ByLayer
370
-1
48
1
60
0
100
AcDbSpline
70
4
71
3
72
10
73
6
40
0
40
0
40
0
40
0
40
0.778146459900635
40
0.778146459900635
40
1
40
1
40
1
40
1
41
1
10
173.658314612444
20
23.1905119824991
30
0
41
1
10
173.873159123386
20
23.3149401603029
30
0
41
1
10
174.03481832736
20
23.5115663849581
30
0
41
1
10
174.204174519218
20
23.7928246002725
30
0
41
1
10
174.239191625193
20
23.8582933162418
30
0
41
1
10
174.271150166939
20
23.9263863706551
30
0
0
SPLINE
5
25B
100
AcDbEntity
8
1
62
256
6
ByLayer
370
-1
48
1
60
0
100
AcDbSpline
70
4
71
3
72
10
73
6
40
0
40
0
40
0
40
0
40
0.5
40
0.5
40
1
40
1
40
1
40
1
41
1
10
154.01760732286
20
23.51075
30
0
41
1
10
154.061649117439
20
23.51075
30
0
41
1
10
154.112341951602
20
23.51075
30
0
41
1
10
154.241250948112
20
23.51075
30
0
41
1
10
154.324479827171
20
23.51075
30
0
41
1
10
154.417607320809
20
23.51075
30
0
0
SPLINE
5
25C
100
AcDbEntity
8
1
62
256
6
ByLayer
370
-1
48
1
60
0
100
AcDbSpline
70
4
71
3
72
8
73
4
40
0
40
0
40
0
40
0
40
1
40
1
40
1
40
1
41
1
10
173.998692996297
20
-24.7291098502365
30
0
41
1
10
173.998838478221
20
-24.7289378403198
30
0
41
1
10
174.045834165629
20
-24.6733726948168
30
0
41
1
10
174.13950343
20
-24.562623249689
30
0
0
SPLINE
5
25D
100
AcDbEntity
8
1
62
256
6
ByLayer
370
-1
48
1
60
0
100
AcDbSpline
70
4
71
3
72
8
73
4
40
0
40
0
40
0
40
0
40
1
40
1
40
1
40
1
41
1
10
174.271150166939
20
23.9263863706551
30
0
41
1
10
174.671528628162
20
24.7794600985733
30
0
41
1
10
175.124328597194
20
25.5798733007474
30
0
41
1
10
175.620189450535
20
26.337029280809
30
0
0
SPLINE
5
25E
100
AcDbEntity
8
1
62
256
6
ByLayer
370
-1
48
1
60
0
100
AcDbSpline
70
4
71
3
72
8
73
4
40
0
40
0
40
0
40
0
40
1
40
1
40
1
40
1
41
1
10
182.097068817718
20
23.3279837408785
30
0
41
1
10
182.242474985134
20
23.6579490394936
30
0
41
1
10
182.381734530542
20
23.9762964425543
30
0
41
1
10
182.515503729749
20
24.2861485778835
30
0
0
SPLINE
5
25F
100
AcDbEntity
8
1
62
256
6
ByLayer
370
-1
48
1
60
0
100
AcDbSpline
70
4
71
3
72
22
73
18
40
0
40
0
40
0
40
0
40
0.107011940704491
40
0.107011940704491
40
0.257212109393666
40
0.257212109393666
40
0.415560991818698
40
0.415560991818698
40
0.521795780236951
40
0.521795780236951
40
0.627559659848105
40
0.627559659848105
40
0.818495460640168
40
0.818495460640168
40
0.93813935615651
40
0.93813935615651
40
1
40
1
40
1
40
1
41
1
10
181.388943780598
20
16.6591699963896
30
0
41
1
10
181.325811976471
20
16.7181344229577
30
0
41
1
10
181.281678174401
20
16.8141982539001
30
0
41
1
10
181.200238530937
20
17.0961474523461
30
0
41
1
10
181.171020079413
20
17.3067229209158
30
0
41
1
10
181.104722487531
20
17.7768210152015
30
0
41
1
10
181.069460249929
20
18.0463669017159
30
0
41
1
10
180.933270376747
20
18.4948333055349
30
0
41
1
10
180.851791152697
20
18.6772416055076
30
0
41
1
10
180.626994021867
20
19.0039508285305
30
0
41
1
10
180.4845014104
20
19.1519786838633
30
0
41
1
10
180.070396110495
20
19.5335641241256
30
0
41
1
10
179.779517515667
20
19.757319070832
30
0
41
1
10
179.375261273971
20
20.1347782999423
30
0
41
1
10
179.231807507167
20
20.2857552264347
30
0
41
1
10
179.067636728701
20
20.5220687125274
30
0
41
1
10
179.020539455213
20
20.6050952649832
30
0
41
1
10
178.986829068037
20
20.6890396776217
30
0
0
SPLINE
5
260
100
AcDbEntity
8
1
62
256
6
ByLayer
370
-1
48
1
60
0
100
AcDbSpline
70
4
71
3
72
8
73
4
40
0
40
0
40
0
40
0
40
1
40
1
40
1
40
1
41
1
10
178.353348571922
20
29.8248733497126
30
0
41
1
10
178.442328885103
20
29.9314756699988
30
0
41
1
10
178.537790997385
20
30.03771989767
30
0
41
1
10
178.639503426854
20
30.1435176675126
30
0
0
SPLINE
5
261
100
AcDbEntity
8
1
62
256
6
ByLayer
370
-1
48
1
60
0
100
AcDbSpline
70
4
71
3
72
8
73
4
40
0
40
0
40
0
40
0
40
1
40
1
40
1
40
1
41
1
10
154.01760732286
20
7.86806389673157
30
0
41
1
10
153.901208924027
20
8.07973325791383
30
0
41
1
10
153.781579394849
20
8.28960236689238
30
0
41
1
10
153.658950998133
20
8.4978006308985
30
0
0
SPLINE
5
262
100
AcDbEntity
8
1
62
256
6
ByLayer
370
-1
48
1
60
0
100
AcDbSpline
70
4
71
3
72
10
73
6
40
0
40
0
40
0
40
0
40
0.226375575408428
40
0.226375575408428
40
1
40
1
40
1
40
1
41
1
10
191.223599802781
20
27.6891641366123
30
0
41
1
10
191.259434269583
20
27.7354816113598
30
0
41
1
10
191.295887512307
20
27.7812179388398
30
0
41
1
10
191.459454406075
20
27.9804492185841
30
0
41
1
10
191.593127760809
20
28.1277031044929
30
0
41
1
10
191.733241305074
20
28.2671641846245
30
0
0
SPLINE
5
263
100
AcDbEntity
8
1
62
256
6
ByLayer
370
-1
48
1
60
0
100
AcDbSpline
70
4
71
3
72
8
73
4
40
0
40
0
40
0
40
0
40
1
40
1
40
1
40
1
41
1
10
190.850456962773
20
28.8685073813292
30
0
41
1
10
190.953988738818
20
28.8496580876635
30
0
41
1
10
191.057520512023
20
28.8308087304506
30
0
41
1
10
191.161052280667
20
28.8119592711911
30
0
0
SPLINE
5
264
100
AcDbEntity
8
1
62
256
6
ByLayer
370
-1
48
1
60
0
100
AcDbSpline
70
4
71
3
72
8
73
4
40
0
40
0
40
0
40
0
40
1
40
1
40
1
40
1
41
1
10
190.705113559602
20
28.8949689875931
30
0
41
1
10
190.75356136104
20
28.8861484606972
30
0
41
1
10
190.802009162201
20
28.8773279275938
30
0
41
1
10
190.850456962773
20
28.8685073813292
30
0
0
SPLINE
5
265
100
AcDbEntity
8
1
62
256
6
ByLayer
370
-1
48
1
60
0
100
AcDbSpline
70
4
71
3
72
8
73
4
40
0
40
0
40
0
40
0
40
1
40
1
40
1
40
1
41
1
10
190.850456962773
20
19.7774867805055
30
0
41
1
10
190.826523459932
20
19.8898971067889
30
0
41
1
10
190.802590006647
20
20.0023074494054
30
0
41
1
10
190.778656632944
20
20.1147178182502
30
0
0
SPLINE
5
266
100
AcDbEntity
8
1
62
256
6
ByLayer
370
-1
48
1
60
0
100
AcDbSpline
70
4
71
3
72
14
73
10
40
0
40
0
40
0
40
0
40
0.230106848183424
40
0.230106848183424
40
0.557861158783355
40
0.557861158783355
40
0.896229002650161
40
0.896229002650161
40
1
40
1
40
1
40
1
41
1
10
190.850456962773
20
28.8685073813292
30
0
41
1
10
190.842211271726
20
28.8833083966222
30
0
41
1
10
190.833492860353
20
28.8979006243222
30
0
41
1
10
190.813080700317
20
28.9305349018061
30
0
41
1
10
190.801223329224
20
28.9481865552189
30
0
41
1
10
190.778955539756
20
28.9792745650803
30
0
41
1
10
190.768260492461
20
28.9930339282861
30
0
41
1
10
190.756254533615
20
29.0066220214906
30
0
41
1
10
190.753546778026
20
29.0095254953143
30
0
41
1
10
190.751021085446
20
29.0120407788694
30
0
0
SPLINE
5
267
100
AcDbEntity
8
1
62
256
6
ByLayer
370
-1
48
1
60
0
100
AcDbSpline
70
4
71
3
72
12
73
8
40
0
40
0
40
0
40
0
40
0.327536934741043
40
0.327536934741043
40
0.689545574034052
40
0.689545574034052
40
1
40
1
40
1
40
1
41
1
10
197.93201411512
20
20.4281525114573
30
0
41
1
10
198.221704714928
20
20.7190040405776
30
0
41
1
10
198.397643894838
20
21.1001290261874
30
0
41
1
10
198.83865921577
20
21.8361263460732
30
0
41
1
10
199.070304488563
20
22.2226921721146
30
0
41
1
10
199.500581979061
20
22.9407851053082
30
0
41
1
10
199.699223646704
20
23.272307222353
30
0
41
1
10
199.897867171034
20
23.603828359008
30
0
0
SPLINE
5
268
100
AcDbEntity
8
1
62
256
6
ByLayer
370
-1
48
1
60
0
100
AcDbSpline
70
4
71
3
72
8
73
4
40
0
40
0
40
0
40
0
40
1
40
1
40
1
40
1
41
1
10
199.000084786834
20
24.2874340102148
30
0
41
1
10
198.922715121278
20
24.2280838855348
30
0
41
1
10
198.845345407267
20
24.1687337813986
30
0
41
1
10
198.767975615446
20
24.1093837102525
30
0
0
SPLINE
5
269
100
AcDbEntity
8
1
62
256
6
ByLayer
370
-1
48
1
60
0
100
AcDbSpline
70
4
71
3
72
10
73
6
40
0
40
0
40
0
40
0
40
0.410984291904081
40
0.410984291904081
40
1
40
1
40
1
40
1
41
1
10
192.668890069903
20
17.6422694702079
30
0
41
1
10
192.767071311014
20
17.564410469091
30
0
41
1
10
192.862876556313
20
17.4868796819314
30
0
41
1
10
193.089628924279
20
17.2995873133027
30
0
41
1
10
193.218024225362
20
17.1902368051194
30
0
41
1
10
193.341016913043
20
17.082354522782
30
0
0
SPLINE
5
26A
100
AcDbEntity
8
1
62
256
6
ByLayer
370
-1
48
1
60
0
100
AcDbSpline
70
4
71
3
72
8
73
4
40
0
40
0
40
0
40
0
40
1
40
1
40
1
40
1
41
1
10
199.108700404602
20
24.3707528755108
30
0
41
1
10
199.07249520518
20
24.342979917656
30
0
41
1
10
199.036290001024
20
24.315206961808
30
0
41
1
10
199.000084786834
20
24.2874340102148
30
0
0
SPLINE
5
26B
100
AcDbEntity
8
1
62
256
6
ByLayer
370
-1
48
1
60
0
100
AcDbSpline
70
4
71
3
72
12
73
8
40
0
40
0
40
0
40
0
40
0.133148321068525
40
0.133148321068525
40
0.702614877346734
40
0.702614877346734
40
1
40
1
40
1
40
1
41
1
10
190.404321627052
20
29.3951847077907
30
0
41
1
10
190.58822789707
20
29.3943822916218
30
0
41
1
10
190.772134167731
20
29.3935803664486
30
0
41
1
10
191.742595387459
20
29.3893492944205
30
0
41
1
10
192.529150322399
20
29.3859099116213
30
0
41
1
10
193.72635617197
20
29.3806776883532
30
0
41
1
10
194.140504919993
20
29.4066486305961
30
0
41
1
10
194.547222335791
20
29.3497078261729
30
0
0
SPLINE
5
26C
100
AcDbEntity
8
1
62
256
6
ByLayer
370
-1
48
1
60
0
100
AcDbSpline
70
4
71
3
72
14
73
10
40
0
40
0
40
0
40
0
40
0.25
40
0.25
40
0.5
40
0.5
40
0.75
40
0.75
40
1
40
1
40
1
40
1
41
1
10
191.207678381067
20
28.8609421886308
30
0
41
1
10
191.838675580941
20
28.8581873265509
30
0
41
1
10
192.469672783112
20
28.8554412287569
30
0
41
1
10
193.731667182604
20
28.8499305344501
30
0
41
1
10
194.368650694476
20
28.8965406311284
30
0
41
1
10
195.593996257474
20
28.5598680004992
30
0
41
1
10
196.111605355381
20
28.2040224837489
30
0
41
1
10
197.197324016704
20
27.6003332102672
30
0
41
1
10
197.739930973647
20
27.2980409277184
30
0
41
1
10
198.282378334455
20
26.9954655628389
30
0
0
SPLINE
5
26D
100
AcDbEntity
8
1
62
256
6
ByLayer
370
-1
48
1
60
0
100
AcDbSpline
70
4
71
3
72
10
73
6
40
0
40
0
40
0
40
0
40
0.226375575408414
40
0.226375575408414
40
1
40
1
40
1
40
1
41
1
10
197.859576665291
20
24.3709229686447
30
0
41
1
10
197.874353249733
20
24.3350931689832
30
0
41
1
10
197.888298780141
20
24.2990445982875
30
0
41
1
10
197.946161822212
20
24.139028197151
30
0
41
1
10
197.981205839569
20
24.0127649325069
30
0
41
1
10
198.006226535526
20
23.8847332997528
30
0
0
SPLINE
5
26E
100
AcDbEntity
8
1
62
256
6
ByLayer
370
-1
48
1
60
0
100
AcDbSpline
70
4
71
3
72
12
73
8
40
0
40
0
40
0
40
0
40
0.327536934741046
40
0.327536934741046
40
0.689545574034056
40
0.689545574034056
40
1
40
1
40
1
40
1
41
1
10
188.144884555739
20
22.1784987511556
30
0
41
1
10
188.261905783942
20
21.7895649112904
30
0
41
1
10
188.515661061168
20
21.4515250672793
30
0
41
1
10
188.956661785017
20
20.7116711748801
30
0
41
1
10
189.188281165255
20
20.3230701817406
30
0
41
1
10
189.618558638158
20
19.6012219786235
30
0
41
1
10
189.817207321234
20
19.2679698610479
30
0
41
1
10
190.015854155584
20
18.9347167792424
30
0
0
SPLINE
5
26F
100
AcDbEntity
8
1
62
256
6
ByLayer
370
-1
48
1
60
0
100
AcDbSpline
70
4
71
3
72
12
73
8
40
0
40
0
40
0
40
0
40
0.261466805566834
40
0.261466805566834
40
0.727154521522422
40
0.727154521522422
40
1
40
1
40
1
40
1
41
1
10
186.53981946319
20
24.6261014966895
30
0
41
1
10
186.5607930124
20
24.60759996594
30
0
41
1
10
186.580659717493
20
24.587798026192
30
0
41
1
10
186.630377984175
20
24.5291404461576
30
0
41
1
10
186.656174762636
20
24.486292902936
30
0
41
1
10
186.684019318366
20
24.4155435823983
30
0
41
1
10
186.691786792351
20
24.3885510774974
30
0
41
1
10
186.697498038262
20
24.3615745339523
30
0
0
SPLINE
5
270
100
AcDbEntity
8
1
62
256
6
ByLayer
370
-1
48
1
60
0
100
AcDbSpline
70
4
71
3
72
16
73
12
40
0
40
0
40
0
40
0
40
0.164710736630195
40
0.164710736630195
40
0.331370362656703
40
0.331370362656703
40
0.476446336500429
40
0.476446336500429
40
0.70280104123597
40
0.70280104123597
40
1
40
1
40
1
40
1
41
1
10
198.962099431011
20
30.5369095405454
30
0
41
1
10
198.968439515772
20
30.5258152149443
30
0
41
1
10
198.973384870719
20
30.5136832282777
30
0
41
1
10
198.978541754642
20
30.4885561564061
30
0
41
1
10
198.978693041323
20
30.4752102770637
30
0
41
1
10
198.974319884314
20
30.4514545490656
30
0
41
1
10
198.970400185734
20
30.4406133122536
30
0
41
1
10
198.957184890122
20
30.4150216812387
30
0
41
1
10
198.945993949738
20
30.4009637285482
30
0
41
1
10
198.917071543089
20
30.3725462442712
30
0
41
1
10
198.897997756912
20
30.3589660254515
30
0
41
1
10
198.878006485279
20
30.3475385567275
30
0
0
SPLINE
5
271
100
AcDbEntity
8
1
62
256
6
ByLayer
370
-1
48
1
60
0
100
AcDbSpline
70
4
71
3
72
12
73
8
40
0
40
0
40
0
40
0
40
0.0143412310806363
40
0.0143412310806363
40
0.547790989098493
40
0.547790989098493
40
1
40
1
40
1
40
1
41
1
10
191.033174373743
20
27.2875468612464
30
0
41
1
10
191.033619520339
20
27.2887684259125
30
0
41
1
10
191.034064484243
20
27.2899910808303
30
0
41
1
10
191.051090553718
20
27.3367470957457
30
0
41
1
10
191.068226541035
20
27.3838816964634
30
0
41
1
10
191.100271427403
20
27.4704372825003
30
0
41
1
10
191.115348747988
20
27.5106000067882
30
0
41
1
10
191.130302851053
20
27.5487384414599
30
0
0
SPLINE
5
272
100
AcDbEntity
8
1
62
256
6
ByLayer
370
-1
48
1
60
0
100
AcDbSpline
70
4
71
3
72
12
73
8
40
0
40
0
40
0
40
0
40
0.500000000000001
40
0.500000000000001
40
0.75
40
0.75
40
1
40
1
40
1
40
1
41
1
10
187.267785726503
20
27.6371980818314
30
0
41
1
10
187.395656532075
20
26.7227176337197
30
0
41
1
10
187.522820819027
20
25.8081482729091
30
0
41
1
10
187.71207794881
20
24.4361068088367
30
0
41
1
10
187.777322223071
20
23.979190420144
30
0
41
1
10
187.917801523629
20
23.0679448256708
30
0
41
1
10
187.96794531385
20
22.6072635847101
30
0
41
1
10
188.144884555739
20
22.178498751156
30
0
0
SPLINE
5
273
100
AcDbEntity
8
1
62
256
6
ByLayer
370
-1
48
1
60
0
100
AcDbSpline
70
4
71
3
72
14
73
10
40
0
40
0
40
0
40
0
40
0.25
40
0.25
40
0.5
40
0.5
40
0.75
40
0.75
40
1
40
1
40
1
40
1
41
1
10
190.717271102606
20
20.1381556805176
30
0
41
1
10
190.401773701943
20
20.6674475706672
30
0
41
1
10
190.086268443395
20
21.196735114881
30
0
41
1
10
189.455274511885
20
22.2553193762456
30
0
41
1
10
189.092507415686
20
22.7651303587805
30
0
41
1
10
188.776850745562
20
23.9573377872835
30
0
41
1
10
188.835018391696
20
24.5669273408238
30
0
41
1
10
188.829087930197
20
25.774779387676
30
0
41
1
10
188.826651164784
20
26.3787163338221
30
0
41
1
10
188.824548590367
20
26.9826601872797
30
0
0
SPLINE
5
274
100
AcDbEntity
8
1
62
256
6
ByLayer
370
-1
48
1
60
0
100
AcDbSpline
70
4
71
3
72
10
73
6
40
0
40
0
40
0
40
0
40
0.732128243131924
40
0.732128243131924
40
1
40
1
40
1
40
1
41
1
10
190.136510587446
20
26.7232526826833
30
0
41
1
10
190.095459962413
20
26.7234790745011
30
0
41
1
10
190.058135177464
20
26.715351782102
30
0
41
1
10
190.014096036127
20
26.6972047269117
30
0
41
1
10
190.002808358635
20
26.6915627168273
30
0
41
1
10
189.992155475511
20
26.6852861176558
30
0
0
SPLINE
5
275
100
AcDbEntity
8
1
62
256
6
ByLayer
370
-1
48
1
60
0
100
AcDbSpline
70
4
71
3
72
12
73
8
40
0
40
0
40
0
40
0
40
0.249999999999993
40
0.249999999999993
40
0.499999999999987
40
0.499999999999987
40
1
40
1
40
1
40
1
41
1
10
194.547222335791
20
29.3497078261729
30
0
41
1
10
195.025954050561
20
29.2826849550511
30
0
41
1
10
195.461244510782
20
29.0831100619854
30
0
41
1
10
196.349302487626
20
28.7364781771164
30
0
41
1
10
196.793152307915
20
28.5609056414739
30
0
41
1
10
198.123793910883
20
28.0312511311553
30
0
41
1
10
199.011272399186
20
27.6793659199664
30
0
41
1
10
199.898921666481
20
27.3281036512145
30
0
0
SPLINE
5
276
100
AcDbEntity
8
1
62
256
6
ByLayer
370
-1
48
1
60
0
100
AcDbSpline
70
4
71
3
72
12
73
8
40
0
40
0
40
0
40
0
40
0.261466805566842
40
0.261466805566842
40
0.727154521522405
40
0.727154521522405
40
1
40
1
40
1
40
1
41
1
10
196.551061038754
20
17.8774003496842
30
0
41
1
10
196.556457669848
20
17.9032272021397
30
0
41
1
10
196.563766391842
20
17.9290465230631
30
0
41
1
10
196.590539127464
20
17.998645181394
30
0
41
1
10
196.615940147523
20
18.0414693775985
30
0
41
1
10
196.666062864681
20
18.1009229510872
30
0
41
1
10
196.68678787804
20
18.1214526922491
30
0
41
1
10
196.708739613826
20
18.1405511675385
30
0
0
SPLINE
5
277
100
AcDbEntity
8
1
62
256
6
ByLayer
370
-1
48
1
60
0
100
AcDbSpline
70
4
71
3
72
12
73
8
40
0
40
0
40
0
40
0
40
0.133148321068527
40
0.133148321068527
40
0.702614877346733
40
0.702614877346733
40
1
40
1
40
1
40
1
41
1
10
190.347025511477
20
18.7716776771562
30
0
41
1
10
190.255072257759
20
18.9259413114506
30
0
41
1
10
190.163118573369
20
19.0802047169155
30
0
41
1
10
189.677884528692
20
19.8942422290097
30
0
41
1
10
189.2846131356
20
20.5540210887367
30
0
41
1
10
188.686017828376
20
21.5582624975873
30
0
41
1
10
188.452938307287
20
21.8902774735965
30
0
41
1
10
188.298137854086
20
22.2575084451852
30
0
0
SPLINE
5
278
100
AcDbEntity
8
1
62
256
6
ByLayer
370
-1
48
1
60
0
100
AcDbSpline
70
4
71
3
72
12
73
8
40
0
40
0
40
0
40
0
40
0.467747243448086
40
0.467747243448086
40
0.914074073580861
40
0.914074073580861
40
1
40
1
40
1
40
1
41
1
10
193.48055419275
20
16.9863299551206
30
0
41
1
10
193.456448316403
20
16.9998803638758
30
0
41
1
10
193.432049912171
20
17.014932065828
30
0
41
1
10
193.388176952574
20
17.0446558092414
30
0
41
1
10
193.36788000679
20
17.0597589282191
30
0
41
1
10
193.347387498738
20
17.0768404389074
30
0
41
1
10
193.344141621139
20
17.0796137042237
30
0
41
1
10
193.341016913046
20
17.0823545227795
30
0
0
SPLINE
5
279
100
AcDbEntity
8
1
62
256
6
ByLayer
370
-1
48
1
60
0
100
AcDbSpline
70
4
71
3
72
8
73
4
40
0
40
0
40
0
40
0
40
1
40
1
40
1
40
1
41
1
10
190.705113559602
20
28.8949689875931
30
0
41
1
10
190.707253062531
20
28.9428407770361
30
0
41
1
10
190.728497517004
20
28.9970177053974
30
0
41
1
10
190.751021085446
20
29.0120407788693
30
0
0
SPLINE
5
27A
100
AcDbEntity
8
1
62
256
6
ByLayer
370
-1
48
1
60
0
100
AcDbSpline
70
4
71
3
72
10
73
6
40
0
40
0
40
0
40
0
40
0.274190864391886
40
0.274190864391886
40
1
40
1
40
1
40
1
41
1
10
197.456251564769
20
25.9354336420447
30
0
41
1
10
197.4600282556
20
25.9202327415404
30
0
41
1
10
197.463196563887
20
25.9048579433052
30
0
41
1
10
197.472140734518
20
25.8487069003079
30
0
41
1
10
197.474062366783
20
25.8065444245875
30
0
41
1
10
197.467989390457
20
25.7654534812845
30
0
0
SPLINE
5
27B
100
AcDbEntity
8
1
62
256
6
ByLayer
370
-1
48
1
60
0
100
AcDbSpline
70
4
71
3
72
16
73
12
40
0
40
0
40
0
40
0
40
0.343443954228585
40
0.343443954228585
40
0.535083245610793
40
0.535083245610793
40
0.693553557835225
40
0.693553557835225
40
0.853171508912884
40
0.853171508912884
40
1
40
1
40
1
40
1
41
1
10
186.731084667876
20
22.9578113940129
30
0
41
1
10
186.731533785435
20
22.9332981897314
30
0
41
1
10
186.729017368955
20
22.908578739093
30
0
41
1
10
186.717441211525
20
22.8730968003149
30
0
41
1
10
186.711615785063
20
22.8607789861655
30
0
41
1
10
186.697217753187
20
22.8411420664117
30
0
41
1
10
186.689107383105
20
22.8331768990497
30
0
41
1
10
186.670256562901
20
22.8209738727961
30
0
41
1
10
186.659231094969
20
22.8166453346351
30
0
41
1
10
186.63714950085
20
22.8123580570768
30
0
41
1
10
186.625942441183
20
22.8119802931785
30
0
41
1
10
186.614850244449
20
22.8128547051614
30
0
0
SPLINE
5
27C
100
AcDbEntity
8
1
62
256
6
ByLayer
370
-1
48
1
60
0
100
AcDbSpline
70
4
71
3
72
10
73
6
40
0
40
0
40
0
40
0
40
0.732128243132123
40
0.732128243132123
40
1
40
1
40
1
40
1
41
1
10
192.985564454536
20
20.030181191204
30
0
41
1
10
193.013688682224
20
20.0068011790534
30
0
41
1
10
193.048282859148
20
19.9919275471791
30
0
41
1
10
193.098365935976
20
19.9809347402724
30
0
41
1
10
193.112275438198
20
19.9788762168022
30
0
41
1
10
193.126433336042
20
19.9776627376166
30
0
0
SPLINE
5
27D
100
AcDbEntity
8
1
62
256
6
ByLayer
370
-1
48
1
60
0
100
AcDbSpline
70
4
71
3
72
12
73
8
40
0
40
0
40
0
40
0
40
0.330584430932559
40
0.330584430932559
40
0.914285519682716
40
0.914285519682716
40
1
40
1
40
1
40
1
41
1
10
190.404321627054
20
29.3951847077907
30
0
41
1
10
190.434670589227
20
29.4056484009696
30
0
41
1
10
190.469990284895
20
29.4207602127479
30
0
41
1
10
190.568932024974
20
29.4665409005607
30
0
41
1
10
190.636472733891
20
29.5016155362144
30
0
41
1
10
190.712845358095
20
29.5441680626191
30
0
41
1
10
190.722721098898
20
29.5497298049648
30
0
41
1
10
190.732587277726
20
29.5553461809053
30
0
0
SPLINE
5
27E
100
AcDbEntity
8
1
62
256
6
ByLayer
370
-1
48
1
60
0
100
AcDbSpline
70
4
71
3
72
8
73
4
40
0
40
0
40
0
40
0
40
1
40
1
40
1
40
1
41
1
10
199.899320023638
20
23.9939362789315
30
0
41
1
10
199.899452778803
20
24.006626611086
30
0
41
1
10
199.899585534009
20
24.0193169421751
30
0
41
1
10
199.899718289257
20
24.032007272206
30
0
0
SPLINE
5
27F
100
AcDbEntity
8
1
62
256
6
ByLayer
370
-1
48
1
60
0
100
AcDbSpline
70
4
71
3
72
14
73
10
40
0
40
0
40
0
40
0
40
0.327529474127665
40
0.327529474127665
40
0.665666599581705
40
0.665666599581705
40
0.915673055310665
40
0.915673055310665
40
1
40
1
40
1
40
1
41
1
10
199.194854527024
20
24.2655883807446
30
0
41
1
10
199.180043408231
20
24.2704965597883
30
0
41
1
10
199.161530497337
20
24.2747291027349
30
0
41
1
10
199.120681538179
20
24.2816920357682
30
0
41
1
10
199.097604626166
20
24.2844756673131
30
0
41
1
10
199.055890407417
20
24.2874506874267
30
0
41
1
10
199.037225189226
20
24.2881547207393
30
0
41
1
10
199.012542870085
20
24.2879009426233
30
0
41
1
10
199.006262067239
20
24.2877305894184
30
0
41
1
10
199.000084786834
20
24.2874340102148
30
0
0
SPLINE
5
280
100
AcDbEntity
8
1
62
256
6
ByLayer
370
-1
48
1
60
0
100
AcDbSpline
70
4
71
3
72
16
73
12
40
0
40
0
40
0
40
0
40
0.164710736630276
40
0.164710736630276
40
0.331370362656734
40
0.331370362656734
40
0.476446336500438
40
0.476446336500438
40
0.702801041235938
40
0.702801041235938
40
1
40
1
40
1
40
1
41
1
10
196.641926880999
20
16.3279233479504
30
0
41
1
10
196.629428374138
20
16.3270543472008
30
0
41
1
10
196.616747421932
20
16.32776619567
30
0
41
1
10
196.593007482543
20
16.3334931396659
30
0
41
1
10
196.581682698566
20
16.3386987637097
30
0
41
1
10
196.563828677198
20
16.3518467990807
30
0
41
1
10
196.556635659931
20
16.3594558786289
30
0
41
1
10
196.541622637928
20
16.380731187101
30
0
41
1
10
196.535327015679
20
16.3957056422688
30
0
41
1
10
196.525727764521
20
16.4312442102534
30
0
41
1
10
196.523747267347
20
16.4526194048934
30
0
41
1
10
196.52403676457
20
16.47390170156
30
0
0
SPLINE
5
281
100
AcDbEntity
8
1
62
256
6
ByLayer
370
-1
48
1
60
0
100
AcDbSpline
70
4
71
3
72
12
73
8
40
0
40
0
40
0
40
0
40
0.454187976028952
40
0.454187976028952
40
0.987490284578521
40
0.987490284578521
40
1
40
1
40
1
40
1
41
1
10
191.04309853484
20
27.5650672177517
30
0
41
1
10
191.039672068281
20
27.5246810068657
30
0
41
1
10
191.037430757005
20
27.4816840523569
30
0
41
1
10
191.034162642938
20
27.3894306182546
30
0
41
1
10
191.033391653336
20
27.3391778663649
30
0
41
1
10
191.033182999584
20
27.2898060753277
30
0
41
1
10
191.033178786109
20
27.2886760351738
30
0
41
1
10
191.033174373743
20
27.2875468612464
30
0
0
SPLINE
5
282
100
AcDbEntity
8
1
62
256
6
ByLayer
370
-1
48
1
60
0
100
AcDbSpline
70
4
71
3
72
16
73
12
40
0
40
0
40
0
40
0
40
0.34344395422863
40
0.34344395422863
40
0.535083245610724
40
0.535083245610724
40
0.693553557835134
40
0.693553557835134
40
0.853171508912901
40
0.853171508912901
40
1
40
1
40
1
40
1
41
1
10
195.925473639866
20
30.3604227198574
30
0
41
1
10
195.902566378903
20
30.3737836105474
30
0
41
1
10
195.88079064162
20
30.3900313960388
30
0
41
1
10
195.853085919506
20
30.4207947915938
30
0
41
1
10
195.844273768009
20
30.4331626621461
30
0
41
1
10
195.832505037186
20
30.4576552112518
30
0
41
1
10
195.828743852453
20
30.4697111794277
30
0
41
1
10
195.825847113533
20
30.4941852487967
30
0
41
1
10
195.826754674358
20
30.5069206432623
30
0
41
1
10
195.83263128167
20
30.5299635177224
30
0
41
1
10
195.837279492754
20
30.5406475898238
30
0
41
1
10
195.843036387132
20
30.5505204025327
30
0
0
SPLINE
5
283
100
AcDbEntity
8
1
62
256
6
ByLayer
370
-1
48
1
60
0
100
AcDbSpline
70
4
71
3
72
8
73
4
40
0
40
0
40
0
40
0
40
1
40
1
40
1
40
1
41
1
10
190.376071834889
20
18.7616877102747
30
0
41
1
10
190.501054918408
20
19.038735077884
30
0
41
1
10
190.626038001927
20
19.3157824454934
30
0
41
1
10
190.751021085446
20
19.5928298131028
30
0
0
SPLINE
5
284
100
AcDbEntity
8
1
62
256
6
ByLayer
370
-1
48
1
60
0
100
AcDbSpline
70
4
71
3
72
12
73
8
40
0
40
0
40
0
40
0
40
0.454187976028978
40
0.454187976028978
40
0.987490284578578
40
0.987490284578578
40
1
40
1
40
1
40
1
41
1
10
191.774080997874
20
20.3710658680233
30
0
41
1
10
191.806176461722
20
20.3797748969494
30
0
41
1
10
191.841609002078
20
20.3930812818329
30
0
41
1
10
191.91967018549
20
20.4270000573227
30
0
41
1
10
191.963484352913
20
20.4489314996795
30
0
41
1
10
192.007774054479
20
20.473141413872
30
0
41
1
10
192.00878834522
20
20.4736972489749
30
0
41
1
10
192.009802814445
20
20.4742537271186
30
0
0
SPLINE
5
285
100
AcDbEntity
8
1
62
256
6
ByLayer
370
-1
48
1
60
0
100
AcDbSpline
70
4
71
3
72
12
73
8
40
0
40
0
40
0
40
0
40
0.500000000000011
40
0.500000000000011
40
0.750000000000006
40
0.750000000000006
40
1
40
1
40
1
40
1
41
1
10
193.48055419275
20
16.9863299551206
30
0
41
1
10
194.235902801411
20
17.546976231421
30
0
41
1
10
194.99168713882
20
18.1070755058513
30
0
41
1
10
196.126282136096
20
18.9460713689907
30
0
41
1
10
196.503006582945
20
19.2273289265515
30
0
41
1
10
197.249101742787
20
19.7969193562987
30
0
41
1
10
197.636810497613
20
20.0674107581467
30
0
41
1
10
197.93201411512
20
20.4281525114573
30
0
0
SPLINE
5
286
100
AcDbEntity
8
1
62
256
6
ByLayer
370
-1
48
1
60
0
100
AcDbSpline
70
4
71
3
72
10
73
6
40
0
40
0
40
0
40
0
40
0.274190864391849
40
0.274190864391849
40
1
40
1
40
1
40
1
41
1
10
193.195503923194
20
20.0400864092104
30
0
41
1
10
193.181703338104
20
20.0412711047681
30
0
41
1
10
193.168055916457
20
20.0430383079375
30
0
41
1
10
193.119465547665
20
20.0517900461593
30
0
41
1
10
193.085264745917
20
20.0625557906146
30
0
41
1
10
193.05571333495
20
20.0800109835515
30
0
0
SPLINE
5
287
100
AcDbEntity
8
1
62
256
6
ByLayer
370
-1
48
1
60
0
100
AcDbSpline
70
4
71
3
72
12
73
8
40
0
40
0
40
0
40
0
40
0.0125097154214447
40
0.0125097154214447
40
0.545812023970992
40
0.545812023970992
40
1
40
1
40
1
40
1
41
1
10
197.413825446022
20
25.4921726308271
30
0
41
1
10
197.414441105915
20
25.4931298132059
30
0
41
1
10
197.415057040994
20
25.4940877284166
30
0
41
1
10
197.441930570399
20
25.5359566126089
30
0
41
1
10
197.468144786143
20
25.5790502028338
30
0
41
1
10
197.513277856085
20
25.6595237633645
30
0
41
1
10
197.533140997803
20
25.6975623241435
30
0
41
1
10
197.549883321906
20
25.734201746932
30
0
0
SPLINE
5
288
100
AcDbEntity
8
1
62
256
6
ByLayer
370
-1
48
1
60
0
100
AcDbSpline
70
4
71
3
72
10
73
6
40
0
40
0
40
0
40
0
40
0.266814892217353
40
0.266814892217353
40
1
40
1
40
1
40
1
41
1
10
191.130302851053
20
27.5487384414599
30
0
41
1
10
191.135903658237
20
27.563022549172
30
0
41
1
10
191.142523667827
20
27.5768503409316
30
0
41
1
10
191.169892705034
20
27.6265166266057
30
0
41
1
10
191.195403780484
20
27.6595638477541
30
0
41
1
10
191.223599802781
20
27.6891641366123
30
0
0
SPLINE
5
289
100
AcDbEntity
8
1
62
256
6
ByLayer
370
-1
48
1
60
0
100
AcDbSpline
70
4
71
3
72
10
73
6
40
0
40
0
40
0
40
0
40
0.266814892217342
40
0.266814892217342
40
1
40
1
40
1
40
1
41
1
10
191.742900350362
20
20.44940755064
30
0
41
1
10
191.729243221298
20
20.4498633794366
30
0
41
1
10
191.715529974751
20
20.4514684739899
30
0
41
1
10
191.664799092009
20
20.4607222707261
30
0
41
1
10
191.628043607242
20
20.473971197613
30
0
41
1
10
191.592916570852
20
20.491019080782
30
0
0
SPLINE
5
28A
100
AcDbEntity
8
1
62
256
6
ByLayer
370
-1
48
1
60
0
100
AcDbSpline
70
4
71
3
72
12
73
8
40
0
40
0
40
0
40
0
40
0.454187976028931
40
0.454187976028931
40
0.987490284578427
40
0.987490284578427
40
1
40
1
40
1
40
1
41
1
10
197.854778831175
20
24.5515025350444
30
0
41
1
10
197.824963039225
20
24.5655755027264
30
0
41
1
10
197.790938258174
20
24.5824703836329
30
0
41
1
10
197.714909808485
20
24.6218409669675
30
0
41
1
10
197.671547603939
20
24.6452649613776
30
0
41
1
10
197.62745187793
20
24.670201516197
30
0
41
1
10
197.626441632676
20
24.6707731424869
30
0
41
1
10
197.625431575816
20
24.6713458382705
30
0
0
SPLINE
5
28B
100
AcDbEntity
8
1
62
256
6
ByLayer
370
-1
48
1
60
0
100
AcDbSpline
70
4
71
3
72
10
73
6
40
0
40
0
40
0
40
0
40
0.726371168591109
40
0.726371168591109
40
1
40
1
40
1
40
1
41
1
10
191.125851455787
20
27.7379823919545
30
0
41
1
10
191.097888194271
20
27.702314415473
30
0
41
1
10
191.074180109414
20
27.6616764901937
30
0
41
1
10
191.051896670187
20
27.6005021797253
30
0
41
1
10
191.046821433491
20
27.5830117220271
30
0
41
1
10
191.04309853484
20
27.5650672177517
30
0
0
SPLINE
5
28C
100
AcDbEntity
8
1
62
256
6
ByLayer
370
-1
48
1
60
0
100
AcDbSpline
70
4
71
3
72
10
73
6
40
0
40
0
40
0
40
0
40
0.226375763220932
40
0.226375763220932
40
1
40
1
40
1
40
1
41
1
10
193.856392486075
20
20.0313943810154
30
0
41
1
10
193.805570754383
20
20.0285061799128
30
0
41
1
10
193.754931311165
20
20.0264248559809
30
0
41
1
10
193.532305259917
20
20.0207852703056
30
0
41
1
10
193.362310657961
20
20.0257909349701
30
0
41
1
10
193.195503923194
20
20.0400864092104
30
0
0
SPLINE
5
28D
100
AcDbEntity
8
1
62
256
6
ByLayer
370
-1
48
1
60
0
100
AcDbSpline
70
4
71
3
72
12
73
8
40
0
40
0
40
0
40
0
40
0.500000000000014
40
0.500000000000014
40
0.750000000000007
40
0.750000000000007
40
1
40
1
40
1
40
1
41
1
10
199.897816413994
20
27.4680257989012
30
0
41
1
10
199.014596999761
20
27.8218599707125
30
0
41
1
10
198.131648375399
20
28.176330057093
30
0
41
1
10
196.80779624834
20
28.7093756580244
30
0
41
1
10
196.365827527231
20
28.8850344891578
30
0
41
1
10
195.479253066831
20
29.2266896538837
30
0
41
1
10
195.041400521783
20
29.4168794929969
30
0
41
1
10
194.569257662388
20
29.4849025732403
30
0
0
SPLINE
5
28E
100
AcDbEntity
8
1
62
256
6
ByLayer
370
-1
48
1
60
0
100
AcDbSpline
70
4
71
3
72
10
73
6
40
0
40
0
40
0
40
0
40
0.226375763220904
40
0.226375763220904
40
1
40
1
40
1
40
1
41
1
10
189.570016576425
20
26.2584963830815
30
0
41
1
10
189.601569507638
20
26.2850540770193
30
0
41
1
10
189.633767041702
20
26.3110298227104
30
0
41
1
10
189.77865698807
20
26.4230814800152
30
0
41
1
10
189.898152933552
20
26.5029517298599
30
0
41
1
10
190.024337550962
20
26.5755861347839
30
0
0
SPLINE
5
28F
100
AcDbEntity
8
1
62
256
6
ByLayer
370
-1
48
1
60
0
100
AcDbSpline
70
4
71
3
72
12
73
8
40
0
40
0
40
0
40
0
40
0.249999999999994
40
0.249999999999994
40
0.499999999999988
40
0.499999999999988
40
1
40
1
40
1
40
1
41
1
10
197.804914234533
20
20.5475535540112
30
0
41
1
10
197.508185210854
20
20.1791439006614
30
0
41
1
10
197.111463427863
20
19.9191743472732
30
0
41
1
10
196.358319610908
20
19.3544615515627
30
0
41
1
10
195.981434948415
20
19.0702298946929
30
0
41
1
10
194.849212750589
20
18.2185764509523
30
0
41
1
10
194.094989001289
20
17.6504773266672
30
0
41
1
10
193.341016913032
20
17.0823545227689
30
0
0
SPLINE
5
290
100
AcDbEntity
8
1
62
256
6
ByLayer
370
-1
48
1
60
0
100
AcDbSpline
70
4
71
3
72
12
73
8
40
0
40
0
40
0
40
0
40
0.452209010901494
40
0.452209010901494
40
0.985658768919492
40
0.985658768919492
40
1
40
1
40
1
40
1
41
1
10
190.147887100789
20
26.6365138079533
30
0
41
1
10
190.182100187747
20
26.6440296921251
30
0
41
1
10
190.220054071171
20
26.6531092266552
30
0
41
1
10
190.304620526328
20
26.6748333971841
30
0
41
1
10
190.352458290783
20
26.6880303382612
30
0
41
1
10
190.401414106152
20
26.702541969661
30
0
41
1
10
190.402695377106
20
26.7029222144928
30
0
41
1
10
190.403976628831
20
26.7033037013606
30
0
0
SPLINE
5
291
100
AcDbEntity
8
1
62
256
6
ByLayer
370
-1
48
1
60
0
100
AcDbSpline
70
4
71
3
72
12
73
8
40
0
40
0
40
0
40
0
40
0.0125097154214662
40
0.0125097154214662
40
0.545812023971046
40
0.545812023971046
40
1
40
1
40
1
40
1
41
1
10
190.403976628831
20
26.7033037013606
30
0
41
1
10
190.4028083262
20
26.7033439478066
30
0
41
1
10
190.401640082742
20
26.7033853001062
30
0
41
1
10
190.350639599616
20
26.705206717374
30
0
41
1
10
190.300422104645
20
26.7081139827528
30
0
41
1
10
190.211824717068
20
26.7150654725951
30
0
41
1
10
190.171957269294
20
26.7189622322215
30
0
41
1
10
190.136510587446
20
26.7232526826833
30
0
0
SPLINE
5
292
100
AcDbEntity
8
1
62
256
6
ByLayer
370
-1
48
1
60
0
100
AcDbSpline
70
4
71
3
72
12
73
8
40
0
40
0
40
0
40
0
40
0.330584430932574
40
0.330584430932574
40
0.914285519682912
40
0.914285519682912
40
1
40
1
40
1
40
1
41
1
10
190.347025511476
20
18.7716776771584
30
0
41
1
10
190.315820830271
20
18.7824099760477
30
0
41
1
10
190.279901859089
20
18.7978326567314
30
0
41
1
10
190.179747341377
20
18.844482154071
30
0
41
1
10
190.111895507407
20
18.8801476111312
30
0
41
1
10
190.035561869568
20
18.9233665119657
30
0
41
1
10
190.025699181894
20
18.9290143881991
30
0
41
1
10
190.015854155605
20
18.9347167792308
30
0
0
SPLINE
5
293
100
AcDbEntity
8
1
62
256
6
ByLayer
370
-1
48
1
60
0
100
AcDbSpline
70
4
71
3
72
14
73
10
40
0
40
0
40
0
40
0
40
0.25
40
0.25
40
0.5
40
0.5
40
0.75
40
0.75
40
1
40
1
40
1
40
1
41
1
10
198.783918245346
20
24.0551259952733
30
0
41
1
10
198.468418446135
20
23.5285889672038
30
0
41
1
10
198.152926502512
20
23.002047520784
30
0
41
1
10
197.521926034529
20
21.9489739537266
30
0
41
1
10
197.247709618857
20
21.392552874513
30
0
41
1
10
196.338020725983
20
20.5370180766397
30
0
41
1
10
195.762243981942
20
20.2832740398492
30
0
41
1
10
194.682455782117
20
19.6791112664789
30
0
41
1
10
194.142285590588
20
19.3774666028813
30
0
41
1
10
193.601940804196
20
19.0760981143031
30
0
0
SPLINE
5
294
100
AcDbEntity
8
1
62
256
6
ByLayer
370
-1
48
1
60
0
100
AcDbSpline
70
4
71
3
72
14
73
10
40
0
40
0
40
0
40
0
40
0.25
40
0.25
40
0.5
40
0.5
40
0.75
40
0.75
40
1
40
1
40
1
40
1
41
1
10
193.632507911842
20
19.0191470852006
30
0
41
1
10
194.177825285609
20
19.3193432847574
30
0
41
1
10
194.723118285068
20
19.6194273119711
30
0
41
1
10
195.813380194263
20
20.2196329501633
30
0
41
1
10
196.396174077623
20
20.4667854426663
30
0
41
1
10
197.314227189312
20
21.3218170089327
30
0
41
1
10
197.585519787114
20
21.8870243682355
30
0
41
1
10
198.21983083406
20
22.9456178952953
30
0
41
1
10
198.536975608168
20
23.4749215228164
30
0
41
1
10
198.854129834548
20
24.0042192572399
30
0
0
SPLINE
5
295
100
AcDbEntity
8
1
62
256
6
ByLayer
370
-1
48
1
60
0
100
AcDbSpline
70
4
71
3
72
14
73
10
40
0
40
0
40
0
40
0
40
0.25
40
0.25
40
0.5
40
0.5
40
0.75
40
0.75
40
1
40
1
40
1
40
1
41
1
10
198.31258724283
20
27.0414037570557
30
0
41
1
10
197.768081474021
20
27.3478460415515
30
0
41
1
10
197.223558805472
20
27.6541355008688
30
0
41
1
10
196.13422948529
20
28.2658250316325
30
0
41
1
10
195.616098126462
20
28.6266143052432
30
0
41
1
10
194.38438460265
20
28.9667591968846
30
0
41
1
10
193.744182792628
20
28.9179610469194
30
0
41
1
10
192.475571213372
20
28.9235023140833
30
0
41
1
10
191.841265475361
20
28.9262616915241
30
0
41
1
10
191.206959700926
20
28.9290310944623
30
0
0
SPLINE
5
296
100
AcDbEntity
8
1
62
256
6
ByLayer
370
-1
48
1
60
0
100
AcDbSpline
70
4
71
3
72
8
73
4
40
0
40
0
40
0
40
0
40
1
40
1
40
1
40
1
41
1
10
190.884056109599
20
19.6196792071327
30
0
41
1
10
190.84672318869
20
19.6073751312306
30
0
41
1
10
190.785159015855
20
19.5949501053658
30
0
41
1
10
190.751021085446
20
19.5928298131028
30
0
0
SPLINE
5
297
100
AcDbEntity
8
1
62
256
6
ByLayer
370
-1
48
1
60
0
100
AcDbSpline
70
4
71
3
72
10
73
6
40
0
40
0
40
0
40
0
40
0.5178668659736
40
0.5178668659736
40
1
40
1
40
1
40
1
41
1
10
198.297532164381
20
26.929099138041
30
0
41
1
10
198.574789968621
20
26.8726173357318
30
0
41
1
10
198.852748403371
20
26.8183518268987
30
0
41
1
10
199.390484990012
20
26.7170318989789
30
0
41
1
10
199.650206946773
20
26.6697396739166
30
0
41
1
10
199.910292475235
20
26.6237516812845
30
0
0
SPLINE
5
298
100
AcDbEntity
8
1
62
256
6
ByLayer
370
-1
48
1
60
0
100
AcDbSpline
70
4
71
3
72
12
73
8
40
0
40
0
40
0
40
0
40
0.467747243448126
40
0.467747243448126
40
0.914074073580848
40
0.914074073580848
40
1
40
1
40
1
40
1
41
1
10
187.267785726503
20
27.6371980818314
30
0
41
1
10
187.291891602849
20
27.6505381057681
30
0
41
1
10
187.316458028702
20
27.6653761366483
30
0
41
1
10
187.360967182142
20
27.6947142011813
30
0
41
1
10
187.381728378173
20
27.7096381520261
30
0
41
1
10
187.402919972341
20
27.7265377630368
30
0
41
1
10
187.40628508523
20
27.729282179536
30
0
41
1
10
187.409533511146
20
27.7319951872249
30
0
0
SPLINE
5
299
100
AcDbEntity
8
1
62
256
6
ByLayer
370
-1
48
1
60
0
100
AcDbSpline
70
4
71
3
72
8
73
4
40
0
40
0
40
0
40
0
40
1
40
1
40
1
40
1
41
1
10
190.884056109599
20
19.6196792071327
30
0
41
1
10
190.872856387342
20
19.6722817293991
30
0
41
1
10
190.861656669925
20
19.7248842532609
30
0
41
1
10
190.850456962773
20
19.7774867805055
30
0
0
SPLINE
5
29A
100
AcDbEntity
8
1
62
256
6
ByLayer
370
-1
48
1
60
0
100
AcDbSpline
70
4
71
3
72
10
73
6
40
0
40
0
40
0
40
0
40
0.726371168591023
40
0.726371168591023
40
1
40
1
40
1
40
1
41
1
10
197.941343895644
20
24.448560134588
30
0
41
1
10
197.930062692179
20
24.4766248372082
30
0
41
1
10
197.912289543786
20
24.5034889346481
30
0
41
1
10
197.877443560717
20
24.5355233874017
30
0
41
1
10
197.866698540133
20
24.5438698955121
30
0
41
1
10
197.854778831175
20
24.5515025350444
30
0
0
SPLINE
5
29B
100
AcDbEntity
8
1
62
256
6
ByLayer
370
-1
48
1
60
0
100
AcDbSpline
70
4
71
3
72
12
73
8
40
0
40
0
40
0
40
0
40
0.467747243448232
40
0.467747243448232
40
0.914074073580957
40
0.914074073580957
40
1
40
1
40
1
40
1
41
1
10
199.897816413995
20
27.4680257989012
30
0
41
1
10
199.897816413995
20
27.4411353662093
30
0
41
1
10
199.897900424805
20
27.4151145325385
30
0
41
1
10
199.898218521726
20
27.3707018502789
30
0
41
1
10
199.89845064685
20
27.3513646987726
30
0
41
1
10
199.898800189908
20
27.3334808727003
30
0
41
1
10
199.898859807552
20
27.3307087263024
30
0
41
1
10
199.898921666464
20
27.3281036512211
30
0
0
SPLINE
5
29C
100
AcDbEntity
8
1
62
256
6
ByLayer
370
-1
48
1
60
0
100
AcDbSpline
70
4
71
3
72
10
73
6
40
0
40
0
40
0
40
0
40
0.274190864391789
40
0.274190864391789
40
1
40
1
40
1
40
1
41
1
10
190.024337550962
20
26.5755861347839
30
0
41
1
10
190.033945679346
20
26.5832200013577
30
0
41
1
10
190.044007255369
20
26.5904180647244
30
0
41
1
10
190.08214106013
20
26.6146009224723
30
0
41
1
10
190.113307568954
20
26.6289174236722
30
0
41
1
10
190.147887100789
20
26.6365138079533
30
0
0
SPLINE
5
29D
100
AcDbEntity
8
1
62
256
6
ByLayer
370
-1
48
1
60
0
100
AcDbSpline
70
4
71
3
72
14
73
10
40
0
40
0
40
0
40
0
40
0.327529474127719
40
0.327529474127719
40
0.665666599581797
40
0.665666599581797
40
0.915673055310693
40
0.915673055310693
40
1
40
1
40
1
40
1
41
1
10
190.751021085446
20
19.5928298131028
30
0
41
1
10
190.758899796467
20
19.6102943858029
30
0
41
1
10
190.768561824652
20
19.6301187436389
30
0
41
1
10
190.789649079141
20
19.6713567455693
30
0
41
1
10
190.8014496225
20
19.6934413177987
30
0
41
1
10
190.822579570632
20
19.7311938618
30
0
41
1
10
190.83197299797
20
19.7474253539618
30
0
41
1
10
190.844278845053
20
19.7676405692033
30
0
41
1
10
190.847399927779
20
19.7726731539362
30
0
41
1
10
190.850456962773
20
19.7774867805055
30
0
0
SPLINE
5
29E
100
AcDbEntity
8
1
62
256
6
ByLayer
370
-1
48
1
60
0
100
AcDbSpline
70
4
71
3
72
10
73
6
40
0
40
0
40
0
40
0
40
0.478255409340393
40
0.478255409340393
40
1
40
1
40
1
40
1
41
1
10
199.910365112061
20
26.7412377362833
30
0
41
1
10
199.654773405335
20
26.7861196740021
30
0
41
1
10
199.3995347615
20
26.8322485117527
30
0
41
1
10
198.866780255228
20
26.9318059205488
30
0
41
1
10
198.589334777536
20
26.9855149939111
30
0
41
1
10
198.31258724283
20
27.0414037570557
30
0
0
SPLINE
5
29F
100
AcDbEntity
8
1
62
256
6
ByLayer
370
-1
48
1
60
0
100
AcDbSpline
70
4
71
3
72
10
73
6
40
0
40
0
40
0
40
0
40
0.517866865973618
40
0.517866865973618
40
1
40
1
40
1
40
1
41
1
10
188.870385890794
20
27.0195343949008
30
0
41
1
10
188.759511394486
20
27.2479284301305
30
0
41
1
10
188.646663204292
20
27.4763399784207
30
0
41
1
10
188.42571908378
20
27.9173547850768
30
0
41
1
10
188.317824562004
20
28.1299708834063
30
0
41
1
10
188.208795185842
20
28.3425594996965
30
0
0
SPLINE
5
2A0
100
AcDbEntity
8
1
62
256
6
ByLayer
370
-1
48
1
60
0
100
AcDbSpline
70
4
71
3
72
8
73
4
40
0
40
0
40
0
40
0
40
1
40
1
40
1
40
1
41
1
10
199.899718289257
20
24.032007272206
30
0
41
1
10
199.664763701846
20
24.1098676417189
30
0
41
1
10
199.429809114435
20
24.1877280112317
30
0
41
1
10
199.194854527024
20
24.2655883807446
30
0
0
SPLINE
5
2A1
100
AcDbEntity
8
1
62
256
6
ByLayer
370
-1
48
1
60
0
100
AcDbSpline
70
4
71
3
72
8
73
4
40
0
40
0
40
0
40
0
40
1
40
1
40
1
40
1
41
1
10
190.347025511477
20
18.771677677171
30
0
41
1
10
190.356707620764
20
18.7683476867098
30
0
41
1
10
190.366389728565
20
18.7650176977479
30
0
41
1
10
190.376071834889
20
18.7616877102747
30
0
0
SPLINE
5
2A2
100
AcDbEntity
8
1
62
256
6
ByLayer
370
-1
48
1
60
0
100
AcDbSpline
70
4
71
3
72
12
73
8
40
0
40
0
40
0
40
0
40
0.452209010901451
40
0.452209010901451
40
0.985658768919446
40
0.985658768919446
40
1
40
1
40
1
40
1
41
1
10
193.05571333495
20
20.0800109835515
30
0
41
1
10
193.026475085051
20
20.0972812009938
30
0
41
1
10
192.995431324626
20
20.1190527959762
30
0
41
1
10
192.927714581192
20
20.170869458648
30
0
41
1
10
192.890336194804
20
20.2022557567304
30
0
41
1
10
192.852581821423
20
20.235905480658
30
0
41
1
10
192.851594310294
20
20.2367873833911
30
0
41
1
10
192.850606689152
20
20.2376700944479
30
0
0
SPLINE
5
2A3
100
AcDbEntity
8
1
62
256
6
ByLayer
370
-1
48
1
60
0
100
AcDbSpline
70
4
71
3
72
8
73
4
40
0
40
0
40
0
40
0
40
1
40
1
40
1
40
1
41
1
10
199.108700404602
20
24.3707528755108
30
0
41
1
10
199.145202645416
20
24.3552766381599
30
0
41
1
10
199.185071917433
20
24.3066100243912
30
0
41
1
10
199.194854527024
20
24.2655883807446
30
0
0
SPLINE
5
2A4
100
AcDbEntity
8
1
62
256
6
ByLayer
370
-1
48
1
60
0
100
AcDbSpline
70
4
71
3
72
14
73
10
40
0
40
0
40
0
40
0
40
0.264919990892509
40
0.264919990892509
40
0.530416812891276
40
0.530416812891276
40
0.78765458487427
40
0.78765458487427
40
1
40
1
40
1
40
1
41
1
10
199.910292475234
20
26.6237516812845
30
0
41
1
10
199.910413865148
20
26.6341580111497
30
0
41
1
10
199.910512053848
20
26.6454907074862
30
0
41
1
10
199.910643889199
20
26.6682268133075
30
0
41
1
10
199.910679142779
20
26.6799516737148
30
0
41
1
10
199.910679600676
20
26.701680823215
30
0
41
1
10
199.910646874215
20
26.7120303910284
30
0
41
1
10
199.910531152395
20
26.7286554852433
30
0
41
1
10
199.910456742992
20
26.7354975161495
30
0
41
1
10
199.910365112061
20
26.7412377362833
30
0
0
SPLINE
5
2A5
100
AcDbEntity
8
1
62
256
6
ByLayer
370
-1
48
1
60
0
100
AcDbSpline
70
4
71
3
72
10
73
6
40
0
40
0
40
0
40
0
40
0.410984291904104
40
0.410984291904104
40
1
40
1
40
1
40
1
41
1
10
199.910365112062
20
26.741237736283
30
0
41
1
10
199.908940527046
20
26.830480870915
30
0
41
1
10
199.9074526361
20
26.9161723719675
30
0
41
1
10
199.903692785489
20
27.1155951739084
30
0
41
1
10
199.901356515934
20
27.2255644135041
30
0
41
1
10
199.898921666464
20
27.3281036512186
30
0
0
SPLINE
5
2A6
100
AcDbEntity
8
1
62
256
6
ByLayer
370
-1
48
1
60
0
100
AcDbSpline
70
4
71
3
72
10
73
6
40
0
40
0
40
0
40
0
40
0.517866865973611
40
0.517866865973611
40
1
40
1
40
1
40
1
41
1
10
193.539766473883
20
19.0874272667519
30
0
41
1
10
193.369100065383
20
18.8497660181237
30
0
41
1
10
193.199778679306
20
18.6109755918164
30
0
41
1
10
192.874967864437
20
18.1481926536361
30
0
41
1
10
192.719325343567
20
17.9243041639498
30
0
41
1
10
192.564496855891
20
17.6997951783618
30
0
0
SPLINE
5
2A7
100
AcDbEntity
8
1
62
256
6
ByLayer
370
-1
48
1
60
0
100
AcDbSpline
70
4
71
3
72
10
73
6
40
0
40
0
40
0
40
0
40
0.266814892217268
40
0.266814892217268
40
1
40
1
40
1
40
1
41
1
10
197.798386624781
20
24.4838322806895
30
0
41
1
10
197.806830132638
20
24.4750359582795
30
0
41
1
10
197.814320068872
20
24.4656927228112
30
0
41
1
10
197.839172361884
20
24.4296521999723
30
0
41
1
10
197.851541879723
20
24.4006273666701
30
0
41
1
10
197.859576665291
20
24.3709229686447
30
0
0
SPLINE
5
2A8
100
AcDbEntity
8
1
62
256
6
ByLayer
370
-1
48
1
60
0
100
AcDbSpline
70
4
71
3
72
10
73
6
40
0
40
0
40
0
40
0
40
0.22637576322092
40
0.22637576322092
40
1
40
1
40
1
40
1
41
1
10
197.278710239728
20
26.7067917542744
30
0
41
1
10
197.295794795715
20
26.649592363383
30
0
41
1
10
197.312049596029
20
26.5921240735159
30
0
41
1
10
197.380123312675
20
26.3373866227116
30
0
41
1
10
197.423118652058
20
26.1373287960504
30
0
41
1
10
197.456251564769
20
25.9354336420447
30
0
0
SPLINE
5
2A9
100
AcDbEntity
8
1
62
256
6
ByLayer
370
-1
48
1
60
0
100
AcDbSpline
70
4
71
3
72
16
73
12
40
0
40
0
40
0
40
0
40
0.343443954228552
40
0.343443954228552
40
0.535083245610815
40
0.535083245610815
40
0.693553557835082
40
0.693553557835082
40
0.85317150891296
40
0.85317150891296
40
1
40
1
40
1
40
1
41
1
10
198.000303187277
20
18.9376525080999
30
0
41
1
10
198.022934907138
20
18.951469358987
30
0
41
1
10
198.047438489461
20
18.9631866214524
30
0
41
1
10
198.087120458283
20
18.9740622055512
30
0
41
1
10
198.101919419841
20
18.9764895163364
30
0
41
1
10
198.128406100985
20
18.9765448907153
30
0
41
1
10
198.140435245317
20
18.974873214878
30
0
41
1
10
198.162502987754
20
18.9675172414538
30
0
41
1
10
198.172787644274
20
18.9616701218566
30
0
41
1
10
198.189294582159
20
18.9475497152411
30
0
41
1
10
198.195993543414
20
18.9393942484907
30
0
41
1
10
198.20145840294
20
18.9306358298602
30
0
0
SPLINE
5
2AA
100
AcDbEntity
8
1
62
256
6
ByLayer
370
-1
48
1
60
0
100
AcDbSpline
70
4
71
3
72
12
73
8
40
0
40
0
40
0
40
0
40
0.133148321068523
40
0.133148321068523
40
0.702614877346732
40
0.702614877346732
40
1
40
1
40
1
40
1
41
1
10
199.899320023649
20
23.9939362789354
30
0
41
1
10
199.807367003011
20
23.8404749942293
30
0
41
1
10
199.715414414331
20
23.6870134769304
30
0
41
1
10
199.230187232636
20
22.8772069348862
30
0
41
1
10
198.836903644122
20
22.220866741596
30
0
41
1
10
198.2382932076
20
21.2218591805323
30
0
41
1
10
198.057007124935
20
20.8605443535387
30
0
41
1
10
197.804914234533
20
20.5475535540112
30
0
0
SPLINE
5
2AB
100
AcDbEntity
8
1
62
256
6
ByLayer
370
-1
48
1
60
0
100
AcDbSpline
70
4
71
3
72
16
73
12
40
0
40
0
40
0
40
0
40
0.164710736630211
40
0.164710736630211
40
0.331370362656699
40
0.331370362656699
40
0.476446336500474
40
0.476446336500474
40
0.702801041235903
40
0.702801041235903
40
1
40
1
40
1
40
1
41
1
10
185.05531872251
20
25.4291780490584
30
0
41
1
10
185.06133228964
20
25.4389177358694
30
0
41
1
10
185.068909369991
20
25.4479045128881
30
0
41
1
10
185.087163823883
20
25.4622603440854
30
0
41
1
10
185.09816264142
20
25.4677191254973
30
0
41
1
10
185.12007862383
20
25.4735497114139
30
0
41
1
10
185.131049211439
20
25.4746000866685
30
0
41
1
10
185.158941797326
20
25.4737626589494
30
0
41
1
10
185.176243711794
20
25.4700116596077
30
0
41
1
10
185.214391752223
20
25.4571552506451
30
0
41
1
10
185.235267190359
20
25.4466148578879
30
0
41
1
10
185.254818245169
20
25.4344463636827
30
0
0
SPLINE
5
2AC
100
AcDbEntity
8
1
62
256
6
ByLayer
370
-1
48
1
60
0
100
AcDbSpline
70
4
71
3
72
8
73
4
40
0
40
0
40
0
40
0
40
1
40
1
40
1
40
1
41
1
10
190.404321627063
20
29.3951847077868
30
0
41
1
10
190.394905028105
20
29.3919380596238
30
0
41
1
10
190.385488430717
20
29.3886914129465
30
0
41
1
10
190.376071834889
20
29.3854447677448
30
0
0
SPLINE
5
2AD
100
AcDbEntity
8
1
62
256
6
ByLayer
370
-1
48
1
60
0
100
AcDbSpline
70
4
71
1
72
4
73
2
40
0
40
0
40
1
40
1
41
1
10
190.751021085446
20
29.0120407788694
30
0
41
1
10
190.376071834889
20
29.3854447677448
30
0
0
SPLINE
5
2AE
100
AcDbEntity
8
1
62
256
6
ByLayer
370
-1
48
1
60
0
100
AcDbSpline
70
4
71
3
72
10
73
6
40
0
40
0
40
0
40
0
40
0.391412264300151
40
0.391412264300151
40
1
40
1
40
1
40
1
41
1
10
191.206959700926
20
28.9290310944623
30
0
41
1
10
191.147473052769
20
28.9398615028192
30
0
41
1
10
191.087986400995
20
28.9506918770083
30
0
41
1
10
190.936006864531
20
28.9783617960167
30
0
41
1
10
190.843513975967
20
28.9952012996959
30
0
41
1
10
190.751021085446
20
29.0120407788694
30
0
0
SPLINE
5
2AF
100
AcDbEntity
8
1
62
256
6
ByLayer
370
-1
48
1
60
0
100
AcDbSpline
70
4
71
3
72
12
73
8
40
0
40
0
40
0
40
0
40
0.261466805566818
40
0.261466805566818
40
0.727154521522211
40
0.727154521522211
40
1
40
1
40
1
40
1
41
1
10
197.556137459929
20
29.601278677294
30
0
41
1
10
197.52964539193
20
29.5920822820906
30
0
41
1
10
197.50238514008
20
29.5847627730306
30
0
41
1
10
197.425745344948
20
29.5715376059395
30
0
41
1
10
197.374545527361
20
29.5715299586712
30
0
41
1
10
197.29672188172
20
29.5850304987146
30
0
41
1
10
197.268316211411
20
29.5928259732876
30
0
41
1
10
197.240780309786
20
29.6026548221768
30
0
0
SPLINE
5
2B0
100
AcDbEntity
8
1
62
256
6
ByLayer
370
-1
48
1
60
0
100
AcDbSpline
70
4
71
3
72
10
73
6
40
0
40
0
40
0
40
0
40
0.391412264300147
40
0.391412264300147
40
1
40
1
40
1
40
1
41
1
10
198.854129834548
20
24.0042192572399
30
0
41
1
10
198.898584497081
20
24.0383202542571
30
0
41
1
10
198.943039133721
20
24.0724212657801
30
0
41
1
10
199.056614049597
20
24.1595442975534
30
0
41
1
10
199.125734297621
20
24.2125663344745
30
0
41
1
10
199.194854527024
20
24.2655883807446
30
0
0
SPLINE
5
2B1
100
AcDbEntity
8
1
62
256
6
ByLayer
370
-1
48
1
60
0
100
AcDbSpline
70
4
71
3
72
10
73
6
40
0
40
0
40
0
40
0
40
0.726371168591183
40
0.726371168591183
40
1
40
1
40
1
40
1
41
1
10
191.611462914322
20
20.403941940819
30
0
41
1
10
191.649038977046
20
20.3859339070352
30
0
41
1
10
191.68883363487
20
20.3738174546133
30
0
41
1
10
191.743776595841
20
20.3693933840925
30
0
41
1
10
191.75900578563
20
20.3694639754619
30
0
41
1
10
191.774080997874
20
20.3710658680233
30
0
0
SPLINE
5
2B2
100
AcDbEntity
8
1
62
256
6
ByLayer
370
-1
48
1
60
0
100
AcDbSpline
70
4
71
3
72
14
73
10
40
0
40
0
40
0
40
0
40
0.264919990892692
40
0.264919990892692
40
0.530416812891523
40
0.530416812891523
40
0.787654584874305
40
0.787654584874305
40
1
40
1
40
1
40
1
41
1
10
192.564496855892
20
17.6997951783623
30
0
41
1
10
192.572276509917
20
17.6973537428015
30
0
41
1
10
192.581182678569
20
17.6939098711495
30
0
41
1
10
192.599882040151
20
17.6854964608285
30
0
41
1
10
192.609942890799
20
17.6804020371899
30
0
41
1
10
192.6294161015
20
17.6694630315324
30
0
41
1
10
192.639111580261
20
17.6634922300178
30
0
41
1
10
192.655491862385
20
17.6524430646293
30
0
41
1
10
192.662574940575
20
17.6472774499003
30
0
41
1
10
192.668890069904
20
17.6422694702092
30
0
0
SPLINE
5
2B3
100
AcDbEntity
8
1
62
256
6
ByLayer
370
-1
48
1
60
0
100
AcDbSpline
70
4
71
3
72
10
73
6
40
0
40
0
40
0
40
0
40
0.226375575408396
40
0.226375575408396
40
1
40
1
40
1
40
1
41
1
10
191.592916570852
20
20.491019080782
30
0
41
1
10
191.544498955192
20
20.51420239436
30
0
41
1
10
191.496294380373
20
20.5381973347265
30
0
41
1
10
191.284548958189
20
20.647647478198
30
0
41
1
10
191.123327896851
20
20.7417312161896
30
0
41
1
10
190.965651461627
20
20.844785033994
30
0
0
SPLINE
5
2B4
100
AcDbEntity
8
1
62
256
6
ByLayer
370
-1
48
1
60
0
100
AcDbSpline
70
4
71
3
72
10
73
6
40
0
40
0
40
0
40
0
40
0.39141226430015
40
0.39141226430015
40
1
40
1
40
1
40
1
41
1
10
190.645621613878
20
20.087868291832
30
0
41
1
10
190.659373102189
20
20.0232802296331
30
0
41
1
10
190.673124619289
20
19.9586921760495
30
0
41
1
10
190.708257756629
20
19.7936793436604
30
0
41
1
10
190.72963941104
20
19.6932545752667
30
0
41
1
10
190.751021085446
20
19.5928298131028
30
0
0
SPLINE
5
2B5
100
AcDbEntity
8
1
62
256
6
ByLayer
370
-1
48
1
60
0
100
AcDbSpline
70
4
71
3
72
12
73
8
40
0
40
0
40
0
40
0
40
0.327536934741048
40
0.327536934741048
40
0.689545574034055
40
0.689545574034055
40
1
40
1
40
1
40
1
41
1
10
194.569257662388
20
29.4849025732403
30
0
41
1
10
194.162545834379
20
29.5829848839855
30
0
41
1
10
193.733003551207
20
29.5422357343496
30
0
41
1
10
192.850987553408
20
29.5460930280695
30
0
41
1
10
192.387722983734
20
29.548129474754
30
0
41
1
10
191.527168020389
20
29.551884745547
30
0
41
1
10
191.129877647083
20
29.5536143993472
30
0
41
1
10
190.732587277747
20
29.555346180917
30
0
0
SPLINE
5
2B6
100
AcDbEntity
8
1
62
256
6
ByLayer
370
-1
48
1
60
0
100
AcDbSpline
70
4
71
3
72
12
73
8
40
0
40
0
40
0
40
0
40
0.0143412310806504
40
0.0143412310806504
40
0.54779098909851
40
0.54779098909851
40
1
40
1
40
1
40
1
41
1
10
197.625431575816
20
24.6713458382705
30
0
41
1
10
197.626305813163
20
24.6703578444038
30
0
41
1
10
197.62718032007
20
24.669371011314
30
0
41
1
10
197.660587138792
20
24.631684354494
30
0
41
1
10
197.693181295609
20
24.5958556479249
30
0
41
1
10
197.75035475918
20
24.5342489960281
30
0
41
1
10
197.775842537373
20
24.5073183796708
30
0
41
1
10
197.798386624781
20
24.4838322806895
30
0
0
SPLINE
5
2B7
100
AcDbEntity
8
1
62
256
6
ByLayer
370
-1
48
1
60
0
100
AcDbSpline
70
4
71
3
72
14
73
10
40
0
40
0
40
0
40
0
40
0.25
40
0.25
40
0.5
40
0.5
40
0.75
40
0.75
40
1
40
1
40
1
40
1
41
1
10
188.762703154487
20
26.9772565729075
30
0
41
1
10
188.761772934239
20
26.3687972493776
30
0
41
1
10
188.760858490883
20
25.7602115216723
30
0
41
1
10
188.759556392802
20
24.5426440933072
30
0
41
1
10
188.69432488078
20
23.9259679146008
30
0
41
1
10
189.007473487903
20
22.7229348410498
30
0
41
1
10
189.377008597983
20
22.2161336639412
30
0
41
1
10
190.011309015875
20
21.1519971133136
30
0
41
1
10
190.328470077452
20
20.6199356077055
30
0
41
1
10
190.645621613878
20
20.087868291832
30
0
0
SPLINE
5
2B8
100
AcDbEntity
8
1
62
256
6
ByLayer
370
-1
48
1
60
0
100
AcDbSpline
70
4
71
3
72
14
73
10
40
0
40
0
40
0
40
0
40
0.264919990892474
40
0.264919990892474
40
0.530416812891454
40
0.530416812891454
40
0.787654584874526
40
0.787654584874526
40
1
40
1
40
1
40
1
41
1
10
188.208795185842
20
28.342559499696
30
0
41
1
10
188.201258311645
20
28.3401849018838
30
0
41
1
10
188.192548520391
20
28.336817902164
30
0
41
1
10
188.17411282951
20
28.3285665405309
30
0
41
1
10
188.164122486022
20
28.3235596156162
30
0
41
1
10
188.144650191115
20
28.312790559041
30
0
41
1
10
188.134889259432
20
28.3069046607533
30
0
41
1
10
188.118277533669
20
28.2959994647747
30
0
41
1
10
188.111045636673
20
28.2908963172511
30
0
41
1
10
188.10454724548
20
28.2859442527682
30
0
0
SPLINE
5
2B9
100
AcDbEntity
8
1
62
256
6
ByLayer
370
-1
48
1
60
0
100
AcDbSpline
70
4
71
3
72
10
73
6
40
0
40
0
40
0
40
0
40
0.732128243131977
40
0.732128243131977
40
1
40
1
40
1
40
1
41
1
10
197.549883321906
20
25.734201746932
30
0
41
1
10
197.564311433987
20
25.7804078882535
30
0
41
1
10
197.568712533887
20
25.8290521974523
30
0
41
1
10
197.56495289386
20
25.8932578199519
30
0
41
1
10
197.562952827994
20
25.9105028488323
30
0
41
1
10
197.560069454201
20
25.9275356120891
30
0
0
SPLINE
5
2BA
100
AcDbEntity
8
1
62
256
6
ByLayer
370
-1
48
1
60
0
100
AcDbSpline
70
4
71
3
72
12
73
8
40
0
40
0
40
0
40
0
40
0.330584430932528
40
0.330584430932528
40
0.914285519682802
40
0.914285519682802
40
1
40
1
40
1
40
1
41
1
10
199.899320023648
20
23.9939362789333
30
0
41
1
10
199.898892164132
20
23.9530363306371
30
0
41
1
10
199.89859252636
20
23.9087028010515
30
0
41
1
10
199.897986137544
20
23.7883469574876
30
0
41
1
10
199.897830575017
20
23.7104428375437
30
0
41
1
10
199.8978500682
20
23.6255691180863
30
0
41
1
10
199.897856594764
20
23.6146600634499
30
0
41
1
10
199.897867171034
20
23.603828359031
30
0
0
SPLINE
5
2BB
100
AcDbEntity
8
1
62
256
6
ByLayer
370
-1
48
1
60
0
100
AcDbSpline
70
4
71
3
72
10
73
6
40
0
40
0
40
0
40
0
40
0.478255409340375
40
0.478255409340375
40
1
40
1
40
1
40
1
41
1
10
192.668890069904
20
17.6422694702093
30
0
41
1
10
192.820688264546
20
17.8632043609205
30
0
41
1
10
192.973257526478
20
18.0835501650481
30
0
41
1
10
193.294165214943
20
18.5427634757945
30
0
41
1
10
193.462681282366
20
18.7815066160352
30
0
41
1
10
193.632507911842
20
19.0191470852006
30
0
0
SPLINE
5
2BC
100
AcDbEntity
8
1
62
256
6
ByLayer
370
-1
48
1
60
0
100
AcDbSpline
70
4
71
3
72
12
73
8
40
0
40
0
40
0
40
0
40
0.0143412310806181
40
0.0143412310806181
40
0.547790989098403
40
0.547790989098403
40
1
40
1
40
1
40
1
41
1
10
192.009802814445
20
20.4742537271186
30
0
41
1
10
192.008483430502
20
20.4740201563193
30
0
41
1
10
192.007164154984
20
20.4737873323801
30
0
41
1
10
191.956746209111
20
20.4649473509121
30
0
41
1
10
191.907299455571
20
20.457991728792
30
0
41
1
10
191.819187179303
20
20.4500219092018
30
0
41
1
10
191.779364757877
20
20.4481904919947
30
0
41
1
10
191.742900350362
20
20.44940755064
30
0
0
SPLINE
5
2BD
100
AcDbEntity
8
1
62
256
6
ByLayer
370
-1
48
1
60
0
100
AcDbSpline
70
4
71
3
72
10
73
6
40
0
40
0
40
0
40
0
40
0.478255409340391
40
0.478255409340391
40
1
40
1
40
1
40
1
41
1
10
188.10454724548
20
28.2859442527682
30
0
41
1
10
188.212066482836
20
28.0773202839404
30
0
41
1
10
188.318503553821
20
27.8686826796861
30
0
41
1
10
188.538332414618
20
27.4324426973221
30
0
41
1
10
188.651485693063
20
27.2048302348863
30
0
41
1
10
188.762703154487
20
26.9772565729075
30
0
0
SPLINE
5
2BE
100
AcDbEntity
8
1
62
256
6
ByLayer
370
-1
48
1
60
0
100
AcDbSpline
70
4
71
3
72
12
73
8
40
0
40
0
40
0
40
0
40
0.250000000000001
40
0.250000000000001
40
0.500000000000002
40
0.500000000000002
40
1
40
1
40
1
40
1
41
1
10
188.298137854086
20
22.2575084451853
30
0
41
1
10
188.115928085019
20
22.689762157263
30
0
41
1
10
188.077817007066
20
23.1563311182169
30
0
41
1
10
187.943355675984
20
24.0746270828127
30
0
41
1
10
187.876220373095
20
24.5318194121936
30
0
41
1
10
187.67714030319
20
25.9029856342656
30
0
41
1
10
187.543520970499
20
26.8173731653668
30
0
41
1
10
187.409533511143
20
27.7319951872419
30
0
0
SPLINE
5
2BF
100
AcDbEntity
8
1
62
256
6
ByLayer
370
-1
48
1
60
0
100
AcDbSpline
70
4
71
3
72
10
73
6
40
0
40
0
40
0
40
0
40
0.410984291904104
40
0.410984291904104
40
1
40
1
40
1
40
1
41
1
10
188.104547245479
20
28.2859442527696
30
0
41
1
10
188.003516834336
20
28.2089545647339
30
0
41
1
10
187.90473580715
20
28.1322729065765
30
0
41
1
10
187.670463737963
20
27.9469923408189
30
0
41
1
10
187.537395897769
20
27.8387827966624
30
0
41
1
10
187.409533511149
20
27.7319951872274
30
0
0
SPLINE
5
2C0
100
AcDbEntity
8
1
62
256
6
ByLayer
370
-1
48
1
60
0
100
AcDbSpline
70
4
71
3
72
18
73
14
40
0
40
0
40
0
40
0
40
0.19692177500377
40
0.19692177500377
40
0.373930047834637
40
0.373930047834637
40
0.552838497307345
40
0.552838497307345
40
0.70618734668069
40
0.70618734668069
40
0.906901818514466
40
0.906901818514466
40
1
40
1
40
1
40
1
41
1
10
192.238861206894
20
25.4226074922784
30
0
41
1
10
192.314447350423
20
25.3919257064905
30
0
41
1
10
192.395295774821
20
25.3718897619624
30
0
41
1
10
192.551773673962
20
25.3603550456882
30
0
41
1
10
192.628920311163
20
25.3662984014572
30
0
41
1
10
192.778756723067
20
25.4050674758261
30
0
41
1
10
192.853607775099
20
25.4391238860799
30
0
41
1
10
192.976797399599
20
25.5239900639449
30
0
41
1
10
193.028919792461
20
25.5726021383485
30
0
41
1
10
193.130750767708
20
25.6958929758521
30
0
41
1
10
193.176711542592
20
25.77581114329
30
0
41
1
10
193.225429989202
20
25.8972572885053
30
0
41
1
10
193.23836616705
20
25.9369702263132
30
0
41
1
10
193.248708051121
20
25.977128333254
30
0
0
SPLINE
5
2C1
100
AcDbEntity
8
1
62
256
6
ByLayer
370
-1
48
1
60
0
100
AcDbSpline
70
4
71
3
72
16
73
12
40
0
40
0
40
0
40
0
40
0.0911679433713422
40
0.0911679433713422
40
0.313820406051414
40
0.313820406051414
40
0.540930752401933
40
0.540930752401933
40
0.78404192482831
40
0.78404192482831
40
1
40
1
40
1
40
1
41
1
10
195.266840840257
20
25.294576751621
30
0
41
1
10
195.259902323167
20
25.3060405862802
30
0
41
1
10
195.252198094489
20
25.3170073949826
30
0
41
1
10
195.223516574673
20
25.352415523674
30
0
41
1
10
195.198861427051
20
25.3740267190278
30
0
41
1
10
195.144600624475
20
25.4075996748451
30
0
41
1
10
195.114234620164
20
25.4198097349737
30
0
41
1
10
195.050182973344
20
25.434298478332
30
0
41
1
10
195.015624798643
20
25.4360344077604
30
0
41
1
10
194.952294295888
20
25.429290976685
30
0
41
1
10
194.922769488049
20
25.4219294845904
30
0
41
1
10
194.894788409926
20
25.4110176468355
30
0
0
SPLINE
5
2C2
100
AcDbEntity
8
1
62
256
6
ByLayer
370
-1
48
1
60
0
100
AcDbSpline
70
4
71
3
72
18
73
14
40
0
40
0
40
0
40
0
40
0.0040520837744865
40
0.0040520837744865
40
0.228770169169979
40
0.228770169169979
40
0.452833280150135
40
0.452833280150135
40
0.688771690735086
40
0.688771690735086
40
0.946553144987382
40
0.946553144987382
40
1
40
1
40
1
40
1
41
1
10
193.568901101136
20
22.4389077449521
30
0
41
1
10
193.569516123674
20
22.4389050611375
30
0
41
1
10
193.570131135239
20
22.4389038246658
30
0
41
1
10
193.604381069732
20
22.4389155696548
30
0
41
1
10
193.63838694262
20
22.4434020742349
30
0
41
1
10
193.701499426427
20
22.460271717146
30
0
41
1
10
193.731435994055
20
22.4728279044226
30
0
41
1
10
193.785443143674
20
22.5045014237891
30
0
41
1
10
193.809816032622
20
22.5243030905117
30
0
41
1
10
193.851116877952
20
22.5695160010296
30
0
41
1
10
193.867696439924
20
22.5958215050574
30
0
41
1
10
193.881023060475
20
22.628394089825
30
0
41
1
10
193.88309903839
20
22.6340794298592
30
0
41
1
10
193.884941565701
20
22.639791630377
30
0
0
SPLINE
5
2C3
100
AcDbEntity
8
1
62
256
6
ByLayer
370
-1
48
1
60
0
100
AcDbSpline
70
4
71
3
72
12
73
8
40
0
40
0
40
0
40
0
40
0.488382226294861
40
0.488382226294861
40
0.938326634807236
40
0.938326634807236
40
1
40
1
40
1
40
1
41
1
10
191.92339607671
20
23.7424664820165
30
0
41
1
10
191.978586318881
20
23.7841210505435
30
0
41
1
10
192.027578000402
20
23.8354890115492
30
0
41
1
10
192.103054523117
20
23.9512891547185
30
0
41
1
10
192.131712520942
20
24.0158828734349
30
0
41
1
10
192.151734984422
20
24.0964245899072
30
0
41
1
10
192.153966104378
20
24.1063494517195
30
0
41
1
10
192.155985775615
20
24.1163902143442
30
0
0
SPLINE
5
2C4
100
AcDbEntity
8
1
62
256
6
ByLayer
370
-1
48
1
60
0
100
AcDbSpline
70
4
71
3
72
16
73
12
40
0
40
0
40
0
40
0
40
0.0516479771280894
40
0.0516479771280894
40
0.275008977543253
40
0.275008977543253
40
0.500552414413513
40
0.500552414413513
40
0.740268823694675
40
0.740268823694675
40
1
40
1
40
1
40
1
41
1
10
193.568901101136
20
26.2417577230521
30
0
41
1
10
193.561105040584
20
26.2417917432379
30
0
41
1
10
193.553300732896
20
26.2415239481715
30
0
41
1
10
193.512156496098
20
26.2385193410289
30
0
41
1
10
193.478772107295
20
26.2303537482089
30
0
41
1
10
193.4169395182
20
26.2041776956268
30
0
41
1
10
193.387745866052
20
26.185764330622
30
0
41
1
10
193.335349474394
20
26.1404786685476
30
0
41
1
10
193.311960187548
20
26.1126102783096
30
0
41
1
10
193.273211950303
20
26.0498844418975
30
0
41
1
10
193.258175962168
20
26.0138927546853
30
0
41
1
10
193.248708051121
20
25.9771283332539
30
0
0
SPLINE
5
2C5
100
AcDbEntity
8
1
62
256
6
ByLayer
370
-1
48
1
60
0
100
AcDbSpline
70
4
71
3
72
14
73
10
40
0
40
0
40
0
40
0
40
0.22774739096434
40
0.22774739096434
40
0.522297410109936
40
0.522297410109936
40
0.788141840541956
40
0.788141840541956
40
1
40
1
40
1
40
1
41
1
10
194.894788409926
20
23.1943124713516
30
0
41
1
10
194.92433300387
20
23.1906883390705
30
0
41
1
10
194.955617508976
20
23.1906808052174
30
0
41
1
10
195.027694931252
20
23.1998295254922
30
0
41
1
10
195.069810862396
20
23.2119373773162
30
0
41
1
10
195.144331303176
20
23.2477377639439
30
0
41
1
10
195.178393268617
20
23.2707986425577
30
0
41
1
10
195.230373858221
20
23.3198490936027
30
0
41
1
10
195.250763929768
20
23.3448478936897
30
0
41
1
10
195.266840840257
20
23.371269892188
30
0
0
SPLINE
5
2C6
100
AcDbEntity
8
1
62
256
6
ByLayer
370
-1
48
1
60
0
100
AcDbSpline
70
4
71
3
72
18
73
14
40
0
40
0
40
0
40
0
40
0.0612573774477174
40
0.0612573774477174
40
0.279483952469414
40
0.279483952469414
40
0.500470610100276
40
0.500470610100276
40
0.735822942069356
40
0.735822942069356
40
0.994575323591839
40
0.994575323591839
40
1
40
1
40
1
40
1
41
1
10
191.870961362014
20
25.3093955758163
30
0
41
1
10
191.866184601144
20
25.3015450893305
30
0
41
1
10
191.861749941832
20
25.2934349776223
30
0
41
1
10
191.843307415507
20
25.2556991981571
30
0
41
1
10
191.833468073699
20
25.22315164262
30
0
41
1
10
191.823943885377
20
25.1567383662649
30
0
41
1
10
191.824241161493
20
25.122022415771
30
0
41
1
10
191.834413736777
20
25.0528946583055
30
0
41
1
10
191.845001782886
20
25.0177810738915
30
0
41
1
10
191.875761782662
20
24.9499041499595
30
0
41
1
10
191.897132371725
20
24.9168514308161
30
0
41
1
10
191.92234497179
20
24.8875603338022
30
0
41
1
10
191.922869734736
20
24.8869543019646
30
0
41
1
10
191.923396076709
20
24.8863500473334
30
0
0
SPLINE
5
2C7
100
AcDbEntity
8
1
62
256
6
ByLayer
370
-1
48
1
60
0
100
AcDbSpline
70
4
71
3
72
16
73
12
40
0
40
0
40
0
40
0
40
0.0113197000004396
40
0.0113197000004396
40
0.325952031184521
40
0.325952031184521
40
0.611565060295875
40
0.611565060295875
40
0.862469040564463
40
0.862469040564463
40
1
40
1
40
1
40
1
41
1
10
195.210094211818
20
24.8720076649965
30
0
41
1
10
195.211222566727
20
24.8732616702287
30
0
41
1
10
195.21234396347
20
24.8745235229993
30
0
41
1
10
195.243946469424
20
24.9105307583576
30
0
41
1
10
195.269523295146
20
24.9519151240468
30
0
41
1
10
195.302205016272
20
25.0367339714763
30
0
41
1
10
195.311226469945
20
25.0810087913523
30
0
41
1
10
195.312224431097
20
25.1630836200925
30
0
41
1
10
195.306085619716
20
25.2022444354166
30
0
41
1
10
195.286515403318
20
25.2578427106946
30
0
41
1
10
195.277547315933
20
25.276887486706
30
0
41
1
10
195.266840840257
20
25.294576751621
30
0
0
SPLINE
5
2C8
100
AcDbEntity
8
1
62
256
6
ByLayer
370
-1
48
1
60
0
100
AcDbSpline
70
4
71
3
72
12
73
8
40
0
40
0
40
0
40
0
40
0.21074461134556
40
0.21074461134556
40
0.708714990415528
40
0.708714990415528
40
1
40
1
40
1
40
1
41
1
10
192.155985775615
20
24.4114637343709
30
0
41
1
10
192.149132303445
20
24.4488566003003
30
0
41
1
10
192.13981252938
20
24.4861321762161
30
0
41
1
10
192.101475228465
20
24.6080702670453
30
0
41
1
10
192.062226883081
20
24.6903135813826
30
0
41
1
10
191.987322901454
20
24.807330236757
30
0
41
1
10
191.956517408629
20
24.8483258743443
30
0
41
1
10
191.923396076709
20
24.8863500473335
30
0
0
SPLINE
5
2C9
100
AcDbEntity
8
1
62
256
6
ByLayer
370
-1
48
1
60
0
100
AcDbSpline
70
4
71
3
72
18
73
14
40
0
40
0
40
0
40
0
40
0.194707229508564
40
0.194707229508564
40
0.372132674476761
40
0.372132674476761
40
0.551484410835808
40
0.551484410835808
40
0.704942958574549
40
0.704942958574549
40
0.905288500750535
40
0.905288500750535
40
1
40
1
40
1
40
1
41
1
10
193.884941565701
20
25.9743519589271
30
0
41
1
10
193.904981910564
20
25.8910410151039
30
0
41
1
10
193.936463323317
20
25.8089800102685
30
0
41
1
10
194.018635879048
20
25.6644683018786
30
0
41
1
10
194.068514079964
20
25.59939859286
30
0
41
1
10
194.185908372677
20
25.4891602482538
30
0
41
1
10
194.255596949839
20
25.4428236709247
30
0
41
1
10
194.391647541859
20
25.3839382393481
30
0
41
1
10
194.458620988046
20
25.3666445416907
30
0
41
1
10
194.610679521201
20
25.3496034880407
30
0
41
1
10
194.69759801485
20
25.3561494773312
30
0
41
1
10
194.818884461749
20
25.3843958387521
30
0
41
1
10
194.857381573955
20
25.3964300271852
30
0
41
1
10
194.894788409926
20
25.4110176468348
30
0
0
SPLINE
5
2CA
100
AcDbEntity
8
1
62
256
6
ByLayer
370
-1
48
1
60
0
100
AcDbSpline
70
4
71
3
72
14
73
10
40
0
40
0
40
0
40
0
40
0.197061049816519
40
0.197061049816519
40
0.495409650609797
40
0.495409650609797
40
0.764632117277029
40
0.764632117277029
40
1
40
1
40
1
40
1
41
1
10
193.248708051117
20
22.6425680047064
30
0
41
1
10
193.255903802251
20
22.6216245293373
30
0
41
1
10
193.266269286343
20
22.6009107390202
30
0
41
1
10
193.299813519872
20
22.5517468442017
30
0
41
1
10
193.327566709604
20
22.5239465903044
30
0
41
1
10
193.390999195565
20
22.481017354389
30
0
41
1
10
193.426668372701
20
22.4643103933464
30
0
41
1
10
193.497739029112
20
22.4441618598323
30
0
41
1
10
193.533602715011
20
22.4390617788575
30
0
41
1
10
193.568901101136
20
22.4389077449521
30
0
0
SPLINE
5
2CB
100
AcDbEntity
8
1
62
256
6
ByLayer
370
-1
48
1
60
0
100
AcDbSpline
70
4
71
3
72
16
73
12
40
0
40
0
40
0
40
0
40
0.161214365129791
40
0.161214365129791
40
0.384054669027298
40
0.384054669027298
40
0.615221100576595
40
0.615221100576595
40
0.865480028758187
40
0.865480028758187
40
1
40
1
40
1
40
1
41
1
10
191.870961362014
20
23.3860887163833
30
0
41
1
10
191.883173805844
20
23.3659112872556
30
0
41
1
10
191.897778223549
20
23.3465620545554
30
0
41
1
10
191.936672128039
20
23.3043932223677
30
0
41
1
10
191.963068625174
20
23.2825661645146
30
0
41
1
10
192.020129593105
20
23.2463842043607
30
0
41
1
10
192.051619556295
20
23.2318586469208
30
0
41
1
10
192.117266482922
20
23.2109253160822
30
0
41
1
10
192.152241627132
20
23.2049905064373
30
0
41
1
10
192.203774413232
20
23.2031720177569
30
0
41
1
10
192.22160592881
20
23.2038988998733
30
0
41
1
10
192.238861206894
20
23.2059023167955
30
0
0
SPLINE
5
2CC
100
AcDbEntity
8
1
62
256
6
ByLayer
370
-1
48
1
60
0
100
AcDbSpline
70
4
71
3
72
18
73
14
40
0
40
0
40
0
40
0
40
0.211689539235255
40
0.211689539235255
40
0.385932342887382
40
0.385932342887382
40
0.561898489866939
40
0.561898489866939
40
0.714573453315024
40
0.714573453315024
40
0.917791207619213
40
0.917791207619213
40
1
40
1
40
1
40
1
41
1
10
194.894788409926
20
23.1943124713522
30
0
41
1
10
194.812013631563
20
23.2044661646774
30
0
41
1
10
194.723111737417
20
23.203570421514
30
0
41
1
10
194.558868979952
20
23.1796218797146
30
0
41
1
10
194.482070947388
20
23.1601196642196
30
0
41
1
10
194.334195049957
20
23.1047680657578
30
0
41
1
10
194.261065468544
20
23.0678213892485
30
0
41
1
10
194.141031055811
20
22.9886367246191
30
0
41
1
10
194.090442114486
20
22.946837637178
30
0
41
1
10
193.991492014061
20
22.845153652627
30
0
41
1
10
193.947451411017
20
22.7821697479387
30
0
41
1
10
193.903990267781
20
22.6924651089993
30
0
41
1
10
193.893456622694
20
22.6661899978093
30
0
41
1
10
193.884941565701
20
22.639791630377
30
0
0
SPLINE
5
2CD
100
AcDbEntity
8
1
62
256
6
ByLayer
370
-1
48
1
60
0
100
AcDbSpline
70
4
71
3
72
18
73
14
40
0
40
0
40
0
40
0
40
0.207993339910765
40
0.207993339910765
40
0.382966373997656
40
0.382966373997656
40
0.559708257177195
40
0.559708257177195
40
0.712573028514939
40
0.712573028514939
40
0.915188960742844
40
0.915188960742844
40
1
40
1
40
1
40
1
41
1
10
193.248708051119
20
22.6425680047076
30
0
41
1
10
193.2258372557
20
22.7091342229617
30
0
41
1
10
193.189934281418
20
22.7755882938673
30
0
41
1
10
193.100105020917
20
22.8909860765839
30
0
41
1
10
193.048759731567
20
22.9423044889923
30
0
41
1
10
192.929919697268
20
23.0347277000029
30
0
41
1
10
192.860336675229
20
23.0770345752815
30
0
41
1
10
192.725256082065
20
23.1398421957956
30
0
41
1
10
192.658906679886
20
23.1633072449661
30
0
41
1
10
192.507670660088
20
23.2016823180119
30
0
41
1
10
192.421195973378
20
23.2121653972128
30
0
41
1
10
192.305497072499
20
23.2117352706435
30
0
41
1
10
192.271738719621
20
23.2097195468068
30
0
41
1
10
192.238861206894
20
23.2059023167954
30
0
0
SPLINE
5
2CE
100
AcDbEntity
8
1
62
256
6
ByLayer
370
-1
48
1
60
0
100
AcDbSpline
70
4
71
3
72
12
73
8
40
0
40
0
40
0
40
0
40
0.238644736246809
40
0.238644736246809
40
0.744856633731374
40
0.744856633731374
40
1
40
1
40
1
40
1
41
1
10
194.971061556344
20
24.1041058817119
30
0
41
1
10
194.979056329697
20
24.0654859209301
30
0
41
1
10
194.99031207162
20
24.0284615364557
30
0
41
1
10
195.033830267233
20
23.9204620010117
30
0
41
1
10
195.076220711557
20
23.8559811170068
30
0
41
1
10
195.15231933442
20
23.7751073982201
30
0
41
1
10
195.180299126439
20
23.7503192361438
30
0
41
1
10
195.210094211818
20
23.7281240996802
30
0
0
SPLINE
5
2CF
100
AcDbEntity
8
1
62
256
6
ByLayer
370
-1
48
1
60
0
100
AcDbSpline
70
4
71
3
72
14
73
10
40
0
40
0
40
0
40
0
40
0.280234602389397
40
0.280234602389397
40
0.568175490274699
40
0.568175490274699
40
0.828479444262372
40
0.828479444262372
40
1
40
1
40
1
40
1
41
1
10
192.238861206894
20
25.4226074922789
30
0
41
1
10
192.203188266439
20
25.4370877854431
30
0
41
1
10
192.164723263312
20
25.4455964534986
30
0
41
1
10
192.087096342687
20
25.4479777569395
30
0
41
1
10
192.046737485985
20
25.4414014236762
30
0
41
1
10
191.976079277516
20
25.4135541298282
30
0
41
1
10
191.944147581522
20
25.3932672410401
30
0
41
1
10
191.89975101311
20
25.3504942039968
30
0
41
1
10
191.883989093048
20
25.3308063244829
30
0
41
1
10
191.870961362014
20
25.3093955758163
30
0
0
SPLINE
5
2D0
100
AcDbEntity
8
1
62
256
6
ByLayer
370
-1
48
1
60
0
100
AcDbSpline
70
4
71
3
72
16
73
12
40
0
40
0
40
0
40
0
40
0.115967195728566
40
0.115967195728566
40
0.418874678249232
40
0.418874678249232
40
0.69320564151255
40
0.69320564151255
40
0.935091184694052
40
0.935091184694052
40
1
40
1
40
1
40
1
41
1
10
191.923396076706
20
23.7424664820214
30
0
41
1
10
191.912210983144
20
23.7340245867165
30
0
41
1
10
191.901717283672
20
23.7246513914843
30
0
41
1
10
191.867142683547
20
23.6879770609246
30
0
41
1
10
191.847586652689
20
23.6550618144275
30
0
41
1
10
191.826288899246
20
23.5854920364975
30
0
41
1
10
191.822793205156
20
23.5483629142297
30
0
41
1
10
191.831017629386
20
23.4779740208553
30
0
41
1
10
191.841159682874
20
23.4437455452967
30
0
41
1
10
191.861190944095
20
23.4030463200929
30
0
41
1
10
191.865882937117
20
23.3944793022378
30
0
41
1
10
191.870961362014
20
23.3860887163833
30
0
0
SPLINE
5
2D1
100
AcDbEntity
8
1
62
256
6
ByLayer
370
-1
48
1
60
0
100
AcDbSpline
70
4
71
3
72
18
73
14
40
0
40
0
40
0
40
0
40
0.0249234866862051
40
0.0249234866862051
40
0.2440168490227
40
0.2440168490227
40
0.463732500095477
40
0.463732500095477
40
0.696086204296054
40
0.696086204296054
40
0.950572766561325
40
0.950572766561325
40
1
40
1
40
1
40
1
41
1
10
195.266840840257
20
23.371269892188
30
0
41
1
10
195.268791891044
20
23.3744763951417
30
0
41
1
10
195.270684372075
20
23.3777084113459
30
0
41
1
10
195.288443155489
20
23.4092537539744
30
0
41
1
10
195.299871540676
20
23.4396712890793
30
0
41
1
10
195.312238514999
20
23.4997846448443
30
0
41
1
10
195.313329844886
20
23.5302432234919
30
0
41
1
10
195.305758440809
20
23.5890121069794
30
0
41
1
10
195.296471496398
20
23.6178400940924
30
0
41
1
10
195.2681908083
20
23.6714884855527
30
0
41
1
10
195.248039055058
20
23.6963561240529
30
0
41
1
10
195.219768651877
20
23.7206540489883
30
0
41
1
10
195.214996385345
20
23.7244723427208
30
0
41
1
10
195.210094211818
20
23.7281240996803
30
0
0
SPLINE
5
2D2
100
AcDbEntity
8
1
62
256
6
ByLayer
370
-1
48
1
60
0
100
AcDbSpline
70
4
71
3
72
14
73
10
40
0
40
0
40
0
40
0
40
0.26481155088867
40
0.26481155088867
40
0.554702973213968
40
0.554702973213968
40
0.816600830646735
40
0.816600830646735
40
1
40
1
40
1
40
1
41
1
10
193.884941565701
20
25.9743519589274
30
0
41
1
10
193.875900598998
20
26.0119367147898
30
0
41
1
10
193.861029781057
20
26.0487778926836
30
0
41
1
10
193.818687614526
20
26.118473076027
30
0
41
1
10
193.789402275412
20
26.1516794492212
30
0
41
1
10
193.724243688798
20
26.2011718403478
30
0
41
1
10
193.688248931317
20
26.2194717260162
30
0
41
1
10
193.624196864343
20
26.2376741608378
30
0
41
1
10
193.596436522346
20
26.2416375649109
30
0
41
1
10
193.568901101136
20
26.2417577230521
30
0
0
SPLINE
5
2D3
100
AcDbEntity
8
1
62
256
6
ByLayer
370
-1
48
1
60
0
100
AcDbSpline
70
4
71
3
72
12
73
8
40
0
40
0
40
0
40
0
40
0.53749918967738
40
0.53749918967738
40
0.978204604845596
40
0.978204604845596
40
1
40
1
40
1
40
1
41
1
10
195.210094211818
20
24.8720076649964
30
0
41
1
10
195.147840711862
20
24.8028217962109
30
0
41
1
10
195.093091056481
20
24.7229263928145
30
0
41
1
10
195.016145194438
20
24.5656335469016
30
0
41
1
10
194.989169666878
20
24.48857253859
30
0
41
1
10
194.972564751568
20
24.4069747103931
30
0
41
1
10
194.971799513206
20
24.4030783650872
30
0
41
1
10
194.971061556344
20
24.3991794017379
30
0
0
SPLINE
5
2D4
100
AcDbEntity
8
1
62
256
6
ByLayer
370
-1
48
1
60
0
100
AcDbSpline
70
4
71
3
72
8
73
4
40
0
40
0
40
0
40
0
40
1
40
1
40
1
40
1
41
1
10
199.745158939755
20
14.2231234819438
30
0
41
1
10
199.740868905132
20
14.2233262499535
30
0
41
1
10
199.73657891235
20
14.2235290190096
30
0
41
1
10
199.732288962867
20
14.2237317891485
30
0
0
SPLINE
5
2D5
100
AcDbEntity
8
1
62
256
6
ByLayer
370
-1
48
1
60
0
100
AcDbSpline
70
4
71
3
72
12
73
8
40
0
40
0
40
0
40
0
40
0.271738474609325
40
0.271738474609325
40
0.72317544478699
40
0.72317544478699
40
1
40
1
40
1
40
1
41
1
10
199.732288962867
20
14.2237317891484
30
0
41
1
10
199.722863639538
20
14.2241772895274
30
0
41
1
10
199.713425992112
20
14.2275987312849
30
0
41
1
10
199.689751140732
20
14.2419116810335
30
0
41
1
10
199.675962715167
20
14.2563020544683
30
0
41
1
10
199.656082631569
20
14.2835471827179
30
0
41
1
10
199.648965747138
20
14.295013476907
30
0
41
1
10
199.642335599411
20
14.3072179742407
30
0
0
SPLINE
5
2D6
100
AcDbEntity
8
1
62
256
6
ByLayer
370
-1
48
1
60
0
100
AcDbSpline
70
4
71
3
72
12
73
8
40
0
40
0
40
0
40
0
40
0.127109530517417
40
0.127109530517417
40
0.796270839457367
40
0.796270839457367
40
1
40
1
40
1
40
1
41
1
10
199.649803940372
20
15.0096490725577
30
0
41
1
10
199.652117411861
20
15.0146625436743
30
0
41
1
10
199.654484992046
20
15.0196127249852
30
0
41
1
10
199.66951103598
20
15.0498645785462
30
0
41
1
10
199.683964043453
20
15.0739319872014
30
0
41
1
10
199.704181595067
20
15.0981332209972
30
0
41
1
10
199.70909042963
20
15.1033525015361
30
0
41
1
10
199.714031939774
20
15.1078547189778
30
0
0
SPLINE
5
2D7
100
AcDbEntity
8
1
62
256
6
ByLayer
370
-1
48
1
60
0
100
AcDbSpline
70
4
71
3
72
8
73
4
40
0
40
0
40
0
40
0
40
1
40
1
40
1
40
1
41
1
10
199.725171563137
20
13.3304416315035
30
0
41
1
10
199.729439481542
20
13.3274737862753
30
0
41
1
10
199.733707443331
20
13.3245059525943
30
0
41
1
10
199.73797544704
20
13.3215381300716
30
0
0
SPLINE
5
2D8
100
AcDbEntity
8
1
62
256
6
ByLayer
370
-1
48
1
60
0
100
AcDbSpline
70
4
71
3
72
24
73
20
40
0
40
0
40
0
40
0
40
0.0429952269406068
40
0.0429952269406068
40
0.228745926415981
40
0.228745926415981
40
0.414699745350463
40
0.414699745350463
40
0.538335079626814
40
0.538335079626814
40
0.63224200533345
40
0.63224200533345
40
0.783656353730092
40
0.783656353730092
40
0.875145603220528
40
0.875145603220528
40
0.967942630451852
40
0.967942630451852
40
1
40
1
40
1
40
1
41
1
10
199.786621688098
20
12.2996987308127
30
0
41
1
10
199.787038397072
20
12.3020117801284
30
0
41
1
10
199.787422797274
20
12.3044264949161
30
0
41
1
10
199.789292210446
20
12.3177981566333
30
0
41
1
10
199.790215404969
20
12.3305416802739
30
0
41
1
10
199.790614557517
20
12.3598957366128
30
0
41
1
10
199.790099102509
20
12.3765684001158
30
0
41
1
10
199.787455145149
20
12.4080598501661
30
0
41
1
10
199.785917375985
20
12.4216831815166
30
0
41
1
10
199.781990334487
20
12.4477047684653
30
0
41
1
10
199.779887477125
20
12.4596524131787
30
0
41
1
10
199.772965091866
20
12.4926998404539
30
0
41
1
10
199.76720888017
20
12.5154112666992
30
0
41
1
10
199.754041615907
20
12.554897509633
30
0
41
1
10
199.748040081988
20
12.5707899388665
30
0
41
1
10
199.733916808045
20
12.6027886415313
30
0
41
1
10
199.725518070336
20
12.6193542190732
30
0
41
1
10
199.713459506124
20
12.6398036871255
30
0
41
1
10
199.71023664194
20
12.6449975554829
30
0
41
1
10
199.706977011335
20
12.6499948826101
30
0
0
SPLINE
5
2D9
100
AcDbEntity
8
1
62
256
6
ByLayer
370
-1
48
1
60
0
100
AcDbSpline
70
4
71
3
72
12
73
8
40
0
40
0
40
0
40
0
40
0.223567502632423
40
0.223567502632423
40
0.662745604984899
40
0.662745604984899
40
1
40
1
40
1
40
1
41
1
10
199.764015962041
20
12.2633106697637
30
0
41
1
10
199.766630934245
20
12.2633108563783
30
0
41
1
10
199.768971921335
20
12.2640446343772
30
0
41
1
10
199.775283850162
20
12.2680305831068
30
0
41
1
10
199.778654955547
20
12.2730673566393
30
0
41
1
10
199.78350357079
20
12.2854584786467
30
0
41
1
10
199.785239498627
20
12.2920265360561
30
0
41
1
10
199.786621688098
20
12.2996987308127
30
0
0
SPLINE
5
2DA
100
AcDbEntity
8
1
62
256
6
ByLayer
370
-1
48
1
60
0
100
AcDbSpline
70
4
71
3
72
22
73
18
40
0
40
0
40
0
40
0
40
0.0904884159770571
40
0.0904884159770571
40
0.167615335033437
40
0.167615335033437
40
0.286482716018981
40
0.286482716018981
40
0.385988194072651
40
0.385988194072651
40
0.48517089299248
40
0.48517089299248
40
0.671495106330786
40
0.671495106330786
40
0.857309270864314
40
0.857309270864314
40
1
40
1
40
1
40
1
41
1
10
199.726651924498
20
15.1193526463786
30
0
41
1
10
199.735867637278
20
15.1288808466375
30
0
41
1
10
199.744920198403
20
15.1413925789549
30
0
41
1
10
199.759632154264
20
15.1676208630598
30
0
41
1
10
199.765783345462
20
15.1811550790618
30
0
41
1
10
199.779248474298
20
15.2163070811908
30
0
41
1
10
199.785698386948
20
15.2389032229952
30
0
41
1
10
199.795127335546
20
15.2795148260119
30
0
41
1
10
199.798581921303
20
15.2980202286524
30
0
41
1
10
199.804261293775
20
15.3341743204449
30
0
41
1
10
199.806504717681
20
15.351939955133
30
0
41
1
10
199.811718120568
20
15.4018226326141
30
0
41
1
10
199.813654117508
20
15.4331390068831
30
0
41
1
10
199.815738894755
20
15.4928282706013
30
0
41
1
10
199.815881000342
20
15.5213866307104
30
0
41
1
10
199.814955879838
20
15.5694216707759
30
0
41
1
10
199.814154827449
20
15.5895226984357
30
0
41
1
10
199.812987106007
20
15.6087679434465
30
0
0
SPLINE
5
2DB
100
AcDbEntity
8
1
62
256
6
ByLayer
370
-1
48
1
60
0
100
AcDbSpline
70
4
71
3
72
10
73
6
40
0
40
0
40
0
40
0
40
0.642808717281265
40
0.642808717281265
40
1
40
1
40
1
40
1
41
1
10
199.684741488957
20
13.3439612445985
30
0
41
1
10
199.692924813553
20
13.3439571659073
30
0
41
1
10
199.70146964204
20
13.3423805482821
30
0
41
1
10
199.715132362388
20
13.3366722767065
30
0
41
1
10
199.720158044001
20
13.333927956084
30
0
41
1
10
199.725171563136
20
13.3304416315042
30
0
0
SPLINE
5
2DC
100
AcDbEntity
8
1
62
256
6
ByLayer
370
-1
48
1
60
0
100
AcDbSpline
70
4
71
3
72
24
73
20
40
0
40
0
40
0
40
0
40
0.0429952269415748
40
0.0429952269415748
40
0.228745926416772
40
0.228745926416772
40
0.414699745351068
40
0.414699745351068
40
0.538335079627276
40
0.538335079627276
40
0.632242005333787
40
0.632242005333787
40
0.783656353730287
40
0.783656353730287
40
0.875145603220635
40
0.875145603220635
40
0.967942630451866
40
0.967942630451866
40
1
40
1
40
1
40
1
41
1
10
199.852049532377
20
13.717113062296
30
0
41
1
10
199.852114191206
20
13.7252282584834
30
0
41
1
10
199.85214299565
20
13.7333694787733
30
0
41
1
10
199.85210421018
20
13.7767627592728
30
0
41
1
10
199.851412279923
20
13.8124781362542
30
0
41
1
10
199.848471327543
20
13.8842044953361
30
0
41
1
10
199.846223227665
20
13.9203838364827
30
0
41
1
10
199.840612320743
20
13.9802422903615
30
0
41
1
10
199.837862969419
20
14.0041424284626
30
0
41
1
10
199.831773407502
20
14.0455852182296
30
0
41
1
10
199.828723577659
20
14.0633390783188
30
0
41
1
10
199.81932856754
20
14.1083749458087
30
0
41
1
10
199.81200830753
20
14.1355726074559
30
0
41
1
10
199.796461193792
20
14.1734340019191
30
0
41
1
10
199.789576503989
20
14.1865985661738
30
0
41
1
10
199.773870274343
20
14.2076815560151
30
0
41
1
10
199.764755417398
20
14.2157247026959
30
0
41
1
10
199.751964249354
20
14.2214467271268
30
0
41
1
10
199.748569674752
20
14.2225010516519
30
0
41
1
10
199.745158939755
20
14.2231234819438
30
0
0
SPLINE
5
2DD
100
AcDbEntity
8
1
62
256
6
ByLayer
370
-1
48
1
60
0
100
AcDbSpline
70
4
71
3
72
22
73
18
40
0
40
0
40
0
40
0
40
0.0904884159771591
40
0.0904884159771591
40
0.167615335033587
40
0.167615335033587
40
0.286482716019236
40
0.286482716019236
40
0.385988194073069
40
0.385988194073069
40
0.485170892993074
40
0.485170892993074
40
0.671495106331622
40
0.671495106331622
40
0.857309270865387
40
0.857309270865387
40
1
40
1
40
1
40
1
41
1
10
199.73797544704
20
13.3215381300715
30
0
41
1
10
199.747394139716
20
13.3161264424518
30
0
41
1
10
199.756837287654
20
13.3138427141792
30
0
41
1
10
199.772545030299
20
13.3159375380813
30
0
41
1
10
199.779270029699
20
13.3193501713285
30
0
41
1
10
199.794334758896
20
13.3324637469583
30
0
41
1
10
199.801909324463
20
13.3446434422471
30
0
41
1
10
199.813465175322
20
13.3706440330984
30
0
41
1
10
199.81792985841
20
13.3840852057583
30
0
41
1
10
199.825640908962
20
13.4126142912785
30
0
41
1
10
199.828912380301
20
13.4277903712223
30
0
41
1
10
199.837078712277
20
13.4729887747148
30
0
41
1
10
199.840950766335
20
13.5045689592937
30
0
41
1
10
199.846847720727
20
13.5695231725068
30
0
41
1
10
199.84887808745
20
13.6031104495703
30
0
41
1
10
199.851229525194
20
13.6635282823877
30
0
41
1
10
199.851835064349
20
13.6901956225289
30
0
41
1
10
199.852049532377
20
13.717113062296
30
0
0
SPLINE
5
2DE
100
AcDbEntity
8
1
62
256
6
ByLayer
370
-1
48
1
60
0
100
AcDbSpline
70
4
71
3
72
24
73
20
40
0
40
0
40
0
40
0
40
0.0429952269403458
40
0.0429952269403458
40
0.228745926415623
40
0.228745926415623
40
0.414699745350006
40
0.414699745350006
40
0.538335079626426
40
0.538335079626426
40
0.632242005333097
40
0.632242005333097
40
0.783656353729871
40
0.783656353729871
40
0.875145603220342
40
0.875145603220342
40
0.967942630451718
40
0.967942630451718
40
1
40
1
40
1
40
1
41
1
10
199.812987106007
20
15.6087679434465
30
0
41
1
10
199.812635055861
20
15.614570090318
30
0
41
1
10
199.812249213552
20
15.6202964355641
30
0
41
1
10
199.810018399493
20
15.6503163450276
30
0
41
1
10
199.807584958366
20
15.6732838626696
30
0
41
1
10
199.801282194458
20
15.7156404683079
30
0
41
1
10
199.797405659516
20
15.7351357869435
30
0
41
1
10
199.789241337242
20
15.763475253447
30
0
41
1
10
199.785510294475
20
15.7737387112981
30
0
41
1
10
199.777804925138
20
15.789130546349
30
0
41
1
10
199.774091726924
20
15.7949221053857
30
0
41
1
10
199.763112686591
20
15.8068654759198
30
0
41
1
10
199.754935030752
20
15.8113166703364
30
0
41
1
10
199.738477824767
20
15.809617235577
30
0
41
1
10
199.731354597182
20
15.8068563087239
30
0
41
1
10
199.715502139867
20
15.7958649915659
30
0
41
1
10
199.706488451255
20
15.787298597557
30
0
41
1
10
199.694081287604
20
15.7725092984236
30
0
41
1
10
199.690808819562
20
15.7683533257965
30
0
41
1
10
199.687539714828
20
15.7639619088086
30
0
0
SPLINE
5
2DF
100
AcDbEntity
8
1
62
256
6
ByLayer
370
-1
48
1
60
0
100
AcDbSpline
70
4
71
3
72
8
73
4
40
0
40
0
40
0
40
0
40
1
40
1
40
1
40
1
41
1
10
199.706977011335
20
12.6499948826101
30
0
41
1
10
199.702848582399
20
12.6559864221118
30
0
41
1
10
199.698720195894
20
12.6619779838294
30
0
41
1
10
199.6945918533
20
12.6679695685375
30
0
0
SPLINE
5
2E0
100
AcDbEntity
8
1
62
256
6
ByLayer
370
-1
48
1
60
0
100
AcDbSpline
70
4
71
3
72
8
73
4
40
0
40
0
40
0
40
0
40
1
40
1
40
1
40
1
41
1
10
199.714031939774
20
15.1078547189788
30
0
41
1
10
199.718238558224
20
15.1116873754753
30
0
41
1
10
199.722445220288
20
15.1155200177826
30
0
41
1
10
199.726651924498
20
15.1193526463786
30
0
0
SPLINE
5
2E1
100
AcDbEntity
8
1
62
256
6
ByLayer
370
-1
48
1
60
0
100
AcDbSpline
70
4
71
3
72
12
73
8
40
0
40
0
40
0
40
0
40
0.45220901090153
40
0.45220901090153
40
0.985658768919409
40
0.985658768919409
40
1
40
1
40
1
40
1
41
1
10
197.467989390457
20
25.7654534812845
30
0
41
1
10
197.461980770441
20
25.7247979853347
30
0
41
1
10
197.454327970089
20
25.6825461650989
30
0
41
1
10
197.436372184696
20
25.5920262173481
30
0
41
1
10
197.425629416034
20
25.5430927061599
30
0
41
1
10
197.414413031722
20
25.4947019742053
30
0
41
1
10
197.414119076605
20
25.4934368287516
30
0
41
1
10
197.413825446022
20
25.4921726308271
30
0
0
SPLINE
5
2E2
100
AcDbEntity
8
1
62
256
6
ByLayer
370
-1
48
1
60
0
100
AcDbSpline
70
4
71
3
72
12
73
8
40
0
40
0
40
0
40
0
40
0.0125097154214497
40
0.0125097154214497
40
0.545812023971058
40
0.545812023971058
40
1
40
1
40
1
40
1
41
1
10
192.850606689152
20
20.2376700944479
30
0
41
1
10
192.85115933189
20
20.2366726656231
30
0
41
1
10
192.851711808258
20
20.2356759768738
30
0
41
1
10
192.875853440174
20
20.1922109974386
30
0
41
1
10
192.900175746127
20
20.1511074569582
30
0
41
1
10
192.944875444105
20
20.082646481863
30
0
41
1
10
192.96571330213
20
20.0535068501766
30
0
41
1
10
192.985564454536
20
20.030181191204
30
0
0
LINE
5
4A
100
AcDbEntity
8
1
62
256
6
ByLayer
370
-1
48
1
60
0
100
AcDbLine
10
199.897816
20
29.159094
30
0
11
199.897816
21
27.468026
31
0
39
0
210
0
220
0
230
1
0
LINE
5
4B
100
AcDbEntity
8
1
62
256
6
ByLayer
370
-1
48
1
60
0
100
AcDbLine
10
197.343274
20
33.245571
30
0
11
197.485436
21
33.244951
31
0
39
0
210
0
220
0
230
1
0
LINE
5
4C
100
AcDbEntity
8
1
62
256
6
ByLayer
370
-1
48
1
60
0
100
AcDbLine
10
199.685491
20
13.343967
30
0
11
199.657184
21
13.343817
31
0
39
0
210
0
220
0
230
1
0
LINE
5
4D
100
AcDbEntity
8
1
62
256
6
ByLayer
370
-1
48
1
60
0
100
AcDbLine
10
187.071988
20
28.401929
30
0
11
187.013558
21
27.496515
31
0
39
0
210
0
220
0
230
1
0
LINE
5
4E
100
AcDbEntity
8
1
62
256
6
ByLayer
370
-1
48
1
60
0
100
AcDbLine
10
186.577048
20
21.519412
30
0
11
186.524812
21
20.717549
31
0
39
0
210
0
220
0
230
1
0
LINE
5
4F
100
AcDbEntity
8
SK1
62
256
6
ByLayer
370
-1
48
1
60
0
100
AcDbLine
10
-149.086
20
-24.98925
30
0
11
0
21
-24.98925
31
0
39
0
210
0
220
0
230
1
0
LINE
5
51
100
AcDbEntity
8
1
62
256
6
ByLayer
370
-1
48
1
60
0
100
AcDbLine
10
199.658635
20
15.236461
30
0
11
199.75228
21
16.673989
31
0
39
0
210
0
220
0
230
1
0
LINE
5
52
100
AcDbEntity
8
1
62
256
6
ByLayer
370
-1
48
1
60
0
100
AcDbLine
10
183.527851
20
23.207014
30
0
11
183.434257
21
21.77027
31
0
39
0
210
0
220
0
230
1
0
LINE
5
53
100
AcDbEntity
8
1
62
256
6
ByLayer
370
-1
48
1
60
0
100
AcDbLine
10
199.819777
20
19.113168
30
0
11
199.904201
21
20.40914
31
0
39
0
210
0
220
0
230
1
0
LINE
5
54
100
AcDbEntity
8
1
62
256
6
ByLayer
370
-1
48
1
60
0
100
AcDbLine
10
197.11611
20
23.7974
30
0
11
197.128337
21
23.985084
31
0
39
0
210
0
220
0
230
1
0
LINE
5
55
100
AcDbEntity
8
1
62
256
6
ByLayer
370
-1
48
1
60
0
100
AcDbLine
10
189.993459
20
24.449872
30
0
11
189.981233
21
24.262188
31
0
39
0
210
0
220
0
230
1
0
LINE
5
56
100
AcDbEntity
8
1
62
256
6
ByLayer
370
-1
48
1
60
0
100
AcDbLine
10
183.273144
20
23.900245
30
0
11
183.203965
21
22.828257
31
0
39
0
210
0
220
0
230
1
0
LINE
5
57
100
AcDbEntity
8
1
62
256
6
ByLayer
370
-1
48
1
60
0
100
AcDbLine
10
154.417607
20
-24.675
30
0
11
173.658315
21
-24.675
31
0
39
0
210
0
220
0
230
1
0
LINE
5
58
100
AcDbEntity
8
1
62
256
6
ByLayer
370
-1
48
1
60
0
100
AcDbLine
10
173.658315
20
24.675
30
0
11
162.367498
21
24.675
31
0
39
0
210
0
220
0
230
1
0
LINE
5
59
100
AcDbEntity
8
1
62
256
6
ByLayer
370
-1
48
1
60
0
100
AcDbLine
10
153.658951
20
-24.98925
30
0
11
154.017607
21
-24.78218
31
0
39
0
210
0
220
0
230
1
0
LINE
5
5A
100
AcDbEntity
8
1
62
256
6
ByLayer
370
-1
48
1
60
0
100
AcDbLine
10
0
20
-24.98925
30
0
11
153.658951
21
-24.98925
31
0
39
0
210
0
220
0
230
1
0
LINE
5
5B
100
AcDbEntity
8
1
62
256
6
ByLayer
370
-1
48
1
60
0
100
AcDbLine
10
178.363596
20
29.837957
30
0
11
174.27115
21
24.96077
31
0
39
0
210
0
220
0
230
1
0
LINE
5
5C
100
AcDbEntity
8
SK4
62
256
6
ByLayer
370
-1
48
0.05
60
0
100
AcDbLine
10
-156.586
20
0
30
0
11
204.914
21
0
31
0
39
0
210
0
220
0
230
1
0
LINE
5
5E
100
AcDbEntity
8
80
62
256
6
ByLayer
370
-1
48
1
60
0
100
AcDbLine
10
0
20
0
30
0
11
-5
21
0
31
0
39
0
210
0
220
0
230
1
0
LINE
5
5F
100
AcDbEntity
8
81
62
256
6
ByLayer
370
-1
48
1
60
0
100
AcDbLine
10
199.914
20
34.875
30
0
11
204.914
21
34.875
31
0
39
0
210
0
220
0
230
1
0
LINE
5
60
100
AcDbEntity
8
4
62
256
6
ByLayer
370
-1
48
0.05
60
0
100
AcDbLine
10
0
20
0
30
0
11
351.5
21
0
31
0
39
0
210
0
220
0
230
1
0
LINE
5
62
100
AcDbEntity
8
1
62
256
6
ByLayer
370
-1
48
1
60
0
100
AcDbLine
10
185.324035
20
-7.556403
30
0
11
174.139503
21
-7.556403
31
0
39
0
210
0
220
0
230
1
0
LINE
5
63
100
AcDbEntity
8
1
62
256
6
ByLayer
370
-1
48
1
60
0
100
AcDbLine
10
153.658951
20
-24.98925
30
0
11
153.658951
21
-8.497801
31
0
39
0
210
0
220
0
230
1
0
LINE
5
64
100
AcDbEntity
8
1
62
256
6
ByLayer
370
-1
48
1
60
0
100
AcDbLine
10
153.658951
20
8.497801
30
0
11
153.658951
21
23.51075
31
0
39
0
210
0
220
0
230
1
0
LINE
5
65
100
AcDbEntity
8
1
62
256
6
ByLayer
370
-1
48
1
60
0
100
AcDbLine
10
195.689292
20
15.566389
30
0
11
199.200433
21
13.592853
31
0
39
0
210
0
220
0
230
1
0
LINE
5
66
100
AcDbEntity
8
1
62
256
6
ByLayer
370
-1
48
1
60
0
100
AcDbLine
10
186.415917
20
27.165795
30
0
11
186.686897
21
28.13618
31
0
39
0
210
0
220
0
230
1
0
LINE
5
67
100
AcDbEntity
8
1
62
256
6
ByLayer
370
-1
48
1
60
0
100
AcDbLine
10
199.2143
20
13.542571
30
0
11
185.245512
21
21.394008
31
0
39
0
210
0
220
0
230
1
0
LINE
5
68
100
AcDbEntity
8
1
62
256
6
ByLayer
370
-1
48
1
60
0
100
AcDbLine
10
154.017607
20
7.868064
30
0
11
154.017607
21
23.51075
31
0
39
0
210
0
220
0
230
1
0
LINE
5
69
100
AcDbEntity
8
1
62
256
6
ByLayer
370
-1
48
1
60
0
100
AcDbLine
10
186.858808
20
28.469874
30
0
11
186.858808
21
27.410833
31
0
39
0
210
0
220
0
230
1
0
LINE
5
6A
100
AcDbEntity
8
1
62
256
6
ByLayer
370
-1
48
1
60
0
100
AcDbLine
10
186.686893
20
28.470617
30
0
11
186.858808
21
28.469874
31
0
39
0
210
0
220
0
230
1
0
LINE
5
6B
100
AcDbEntity
8
1
62
256
6
ByLayer
370
-1
48
1
60
0
100
AcDbLine
10
186.686897
20
30.108401
30
0
11
178.639503
21
30.143518
31
0
39
0
210
0
220
0
230
1
0
LINE
5
6C
100
AcDbEntity
8
1
62
256
6
ByLayer
370
-1
48
1
60
0
100
AcDbLine
10
153.658951
20
8.497801
30
0
11
0
21
8.497801
31
0
39
0
210
0
220
0
230
1
0
LINE
5
6D
100
AcDbEntity
8
1
62
256
6
ByLayer
370
-1
48
1
60
0
100
AcDbLine
10
174.139503
20
-8.035645
30
0
11
174.139503
21
-7.556403
31
0
39
0
210
0
220
0
230
1
0
LINE
5
6E
100
AcDbEntity
8
1
62
256
6
ByLayer
370
-1
48
1
60
0
100
AcDbLine
10
193.495391
20
-1.677274
30
0
11
199.2143
21
5.084453
31
0
39
0
210
0
220
0
230
1
0
LINE
5
6F
100
AcDbEntity
8
1
62
256
6
ByLayer
370
-1
48
1
60
0
100
AcDbLine
10
0
20
-24.98925
30
0
11
0
21
-8.497801
31
0
39
0
210
0
220
0
230
1
0
LINE
5
70
100
AcDbEntity
8
1
62
256
6
ByLayer
370
-1
48
1
60
0
100
AcDbLine
10
193.495391
20
-1.677274
30
0
11
176.252967
21
27.249206
31
0
39
0
210
0
220
0
230
1
0
LINE
5
71
100
AcDbEntity
8
1
62
256
6
ByLayer
370
-1
48
1
60
0
100
AcDbLine
10
185.245512
20
21.394008
30
0
11
185.202782
21
21.352915
31
0
39
0
210
0
220
0
230
1
0
LINE
5
72
100
AcDbEntity
8
1
62
256
6
ByLayer
370
-1
48
1
60
0
100
AcDbLine
10
173.658315
20
-7.523671
30
0
11
154.417607
21
-7.523671
31
0
39
0
210
0
220
0
230
1
0
LINE
5
73
100
AcDbEntity
8
1
62
256
6
ByLayer
370
-1
48
1
60
0
100
AcDbLine
10
172.717452
20
7.523671
30
0
11
185.324035
21
-7.556403
31
0
39
0
210
0
220
0
230
1
0
LINE
5
74
100
AcDbEntity
8
1
62
256
6
ByLayer
370
-1
48
1
60
0
100
AcDbLine
10
154.417607
20
7.523671
30
0
11
154.417607
21
23.51075
31
0
39
0
210
0
220
0
230
1
0
LINE
5
75
100
AcDbEntity
8
1
62
256
6
ByLayer
370
-1
48
1
60
0
100
AcDbLine
10
154.417607
20
-7.523671
30
0
11
154.417607
21
-24.675
31
0
39
0
210
0
220
0
230
1
0
LINE
5
76
100
AcDbEntity
8
1
62
256
6
ByLayer
370
-1
48
1
60
0
100
AcDbLine
10
178.986829
20
20.68904
30
0
11
175.620189
21
26.337029
31
0
39
0
210
0
220
0
230
1
0
LINE
5
77
100
AcDbEntity
8
1
62
256
6
ByLayer
370
-1
48
1
60
0
100
AcDbLine
10
154.417607
20
7.523671
30
0
11
172.717452
21
7.523671
31
0
39
0
210
0
220
0
230
1
0
LINE
5
78
100
AcDbEntity
8
1
62
256
6
ByLayer
370
-1
48
1
60
0
100
AcDbLine
10
192.805265
20
-2.493241
30
0
11
181.388944
21
16.65917
31
0
39
0
210
0
220
0
230
1
0
LINE
5
79
100
AcDbEntity
8
1
62
256
6
ByLayer
370
-1
48
1
60
0
100
AcDbLine
10
0
20
23.51075
30
0
11
0
21
8.497801
31
0
39
0
210
0
220
0
230
1
0
LINE
5
7A
100
AcDbEntity
8
1
62
256
6
ByLayer
370
-1
48
1
60
0
100
AcDbLine
10
174.139503
20
-8.035645
30
0
11
174.139503
21
-24.562623
31
0
39
0
210
0
220
0
230
1
0
LINE
5
7B
100
AcDbEntity
8
1
62
256
6
ByLayer
370
-1
48
1
60
0
100
AcDbLine
10
174.27115
20
24.96077
30
0
11
174.27115
21
23.926386
31
0
39
0
210
0
220
0
230
1
0
LINE
5
7C
100
AcDbEntity
8
1
62
256
6
ByLayer
370
-1
48
1
60
0
100
AcDbLine
10
161.203248
20
23.51075
30
0
11
154.417607
21
23.51075
31
0
39
0
210
0
220
0
230
1
0
LINE
5
7D
100
AcDbEntity
8
1
62
256
6
ByLayer
370
-1
48
1
60
0
100
AcDbLine
10
162.367498
20
24.675
30
0
11
161.203248
21
23.51075
31
0
39
0
210
0
220
0
230
1
0
LINE
5
7E
100
AcDbEntity
8
1
62
256
6
ByLayer
370
-1
48
1
60
0
100
AcDbLine
10
186.686897
20
28.13618
30
0
11
182.68378
21
25.920849
31
0
39
0
210
0
220
0
230
1
0
LINE
5
7F
100
AcDbEntity
8
1
62
256
6
ByLayer
370
-1
48
1
60
0
100
AcDbLine
10
154.017607
20
-24.78218
30
0
11
154.017607
21
-7.868064
31
0
39
0
210
0
220
0
230
1
0
LINE
5
80
100
AcDbEntity
8
1
62
256
6
ByLayer
370
-1
48
1
60
0
100
AcDbLine
10
187.764517
20
20.055985
30
0
11
194.868124
21
16.063202
31
0
39
0
210
0
220
0
230
1
0
LINE
5
81
100
AcDbEntity
8
1
62
256
6
ByLayer
370
-1
48
1
60
0
100
AcDbLine
10
185.316654
20
26.137959
30
0
11
181.781155
21
24.1813
31
0
39
0
210
0
220
0
230
1
0
LINE
5
82
100
AcDbEntity
8
1
62
256
6
ByLayer
370
-1
48
1
60
0
100
AcDbLine
10
0
20
-8.497801
30
0
11
153.658951
21
-8.497801
31
0
39
0
210
0
220
0
230
1
0
LINE
5
83
100
AcDbEntity
8
1
62
256
6
ByLayer
370
-1
48
1
60
0
100
AcDbLine
10
186.686897
20
30.108401
30
0
11
186.686897
21
28.13618
31
0
39
0
210
0
220
0
230
1
0
LINE
5
84
100
AcDbEntity
8
1
62
256
6
ByLayer
370
-1
48
1
60
0
100
AcDbLine
10
199.2143
20
13.542571
30
0
11
199.200433
21
13.592853
31
0
39
0
210
0
220
0
230
1
0
LINE
5
85
100
AcDbEntity
8
1
62
256
6
ByLayer
370
-1
48
1
60
0
100
AcDbLine
10
193.495391
20
-1.677274
30
0
11
192.805266
21
-2.49324
31
0
39
0
210
0
220
0
230
1
0
LINE
5
86
100
AcDbEntity
8
1
62
256
6
ByLayer
370
-1
48
1
60
0
100
AcDbLine
10
0
20
23.51075
30
0
11
153.658951
21
23.51075
31
0
39
0
210
0
220
0
230
1
0
LINE
5
87
100
AcDbEntity
8
1
62
256
6
ByLayer
370
-1
48
1
60
0
100
AcDbLine
10
0
20
-8.497801
30
0
11
0
21
8.497801
31
0
39
0
210
0
220
0
230
1
0
LINE
5
88
100
AcDbEntity
8
1
62
256
6
ByLayer
370
-1
48
1
60
0
100
AcDbLine
10
185.44036
20
21.327091
30
0
11
186.770474
21
20.579463
31
0
39
0
210
0
220
0
230
1
0
LINE
5
89
100
AcDbEntity
8
1
62
256
6
ByLayer
370
-1
48
1
60
0
100
AcDbLine
10
187.181425
20
-9.142564
30
0
11
174.139503
21
-24.562623
31
0
39
0
210
0
220
0
230
1
0
LINE
5
8A
100
AcDbEntity
8
1
62
256
6
ByLayer
370
-1
48
1
60
0
100
AcDbLine
10
199.046479
20
18.003479
30
0
11
199.046479
21
18.256834
31
0
39
0
210
0
220
0
230
1
0
LINE
5
8B
100
AcDbEntity
8
1
62
256
6
ByLayer
370
-1
48
1
60
0
100
AcDbLine
10
192.805265
20
-2.493241
30
0
11
187.181425
21
-9.142564
31
0
39
0
210
0
220
0
230
1
0
LINE
5
8C
100
AcDbEntity
8
1
62
256
6
ByLayer
370
-1
48
1
60
0
100
AcDbLine
10
185.44036
20
21.327091
30
0
11
185.245512
21
21.394008
31
0
39
0
210
0
220
0
230
1
0
LINE
5
8D
100
AcDbEntity
8
1
62
256
6
ByLayer
370
-1
48
1
60
0
100
AcDbLine
10
186.858826
20
27.53023
30
0
11
187.015847
21
27.529551
31
0
39
0
210
0
220
0
230
1
0
LINE
5
8E
100
AcDbEntity
8
1
62
256
6
ByLayer
370
-1
48
1
60
0
100
AcDbLine
10
199.2143
20
13.542571
30
0
11
199.2143
21
5.084453
31
0
39
0
210
0
220
0
230
1
0
LINE
5
8F
100
AcDbEntity
8
1
62
256
6
ByLayer
370
-1
48
1
60
0
100
AcDbLine
10
173.658315
20
24.675
30
0
11
173.658315
21
23.190512
31
0
39
0
210
0
220
0
230
1
0
LINE
5
90
100
AcDbEntity
8
1
62
256
6
ByLayer
370
-1
48
1
60
0
100
AcDbLine
10
173.658315
20
-7.523671
30
0
11
173.658315
21
-24.675
31
0
39
0
210
0
220
0
230
1
0
LINE
5
91
100
AcDbEntity
8
SK1
62
256
6
ByLayer
370
-1
48
1
60
0
100
AcDbLine
10
-149.086
20
-8.497801
30
0
11
0
21
-8.497801
31
0
39
0
210
0
220
0
230
1
0
LINE
5
92
100
AcDbEntity
8
1
62
256
6
ByLayer
370
-1
48
1
60
0
100
AcDbLine
10
194.810337
20
31.123705
30
0
11
194.815456
21
31.116324
31
0
39
0
210
0
220
0
230
1
0
LINE
5
93
100
AcDbEntity
8
1
62
256
6
ByLayer
370
-1
48
1
60
0
100
AcDbLine
10
199.898104
20
23.463302
30
0
11
199.904694
21
20.745967
31
0
39
0
210
0
220
0
230
1
0
LINE
5
94
100
AcDbEntity
8
1
62
256
6
ByLayer
370
-1
48
1
60
0
100
AcDbLine
10
197.315341
20
33.002124
30
0
11
197.311855
21
32.526361
31
0
39
0
210
0
220
0
230
1
0
LINE
5
95
100
AcDbEntity
8
1
62
256
6
ByLayer
370
-1
48
1
60
0
100
AcDbLine
10
192.850607
20
20.23767
30
0
11
192.142858
21
17.85631
31
0
39
0
210
0
220
0
230
1
0
LINE
5
96
100
AcDbEntity
8
1
62
256
6
ByLayer
370
-1
48
1
60
0
100
AcDbLine
10
199.906417
20
25.036721
30
0
11
199.907386
21
24.983422
31
0
39
0
210
0
220
0
230
1
0
LINE
5
97
100
AcDbEntity
8
1
62
256
6
ByLayer
370
-1
48
1
60
0
100
AcDbLine
10
198.282378
20
26.995466
30
0
11
197.360306
21
26.777393
31
0
39
0
210
0
220
0
230
1
0
LINE
5
98
100
AcDbEntity
8
1
62
256
6
ByLayer
370
-1
48
1
60
0
100
AcDbLine
10
193.801705
20
19.96877
30
0
11
193.539766
21
19.087427
31
0
39
0
210
0
220
0
230
1
0
LINE
5
99
100
AcDbEntity
8
1
62
256
6
ByLayer
370
-1
48
1
60
0
100
AcDbLine
10
183.835557
20
23.060911
30
0
11
184.2106
21
23.216877
31
0
39
0
210
0
220
0
230
1
0
LINE
5
9A
100
AcDbEntity
8
1
62
256
6
ByLayer
370
-1
48
1
60
0
100
AcDbLine
10
199.396663
20
18.356663
30
0
11
199.786781
21
19.007734
31
0
39
0
210
0
220
0
230
1
0
LINE
5
9B
100
AcDbEntity
8
1
62
256
6
ByLayer
370
-1
48
1
60
0
100
AcDbLine
10
185.48048
20
26.403286
30
0
11
186.539819
21
24.626101
31
0
39
0
210
0
220
0
230
1
0
LINE
5
9C
100
AcDbEntity
8
1
62
256
6
ByLayer
370
-1
48
1
60
0
100
AcDbLine
10
193.808621
20
31.321261
30
0
11
194.588857
21
31.317857
31
0
39
0
210
0
220
0
230
1
0
LINE
5
9D
100
AcDbEntity
8
1
62
256
6
ByLayer
370
-1
48
1
60
0
100
AcDbLine
10
197.294287
20
33.03935
30
0
11
197.315341
21
33.002124
31
0
39
0
210
0
220
0
230
1
0
LINE
5
9E
100
AcDbEntity
8
1
62
256
6
ByLayer
370
-1
48
1
60
0
100
AcDbLine
10
189.53052
20
26.356264
30
0
11
188.870386
21
27.019534
31
0
39
0
210
0
220
0
230
1
0
LINE
5
9F
100
AcDbEntity
8
1
62
256
6
ByLayer
370
-1
48
1
60
0
100
AcDbLine
10
197.37546
20
26.711027
30
0
11
198.297532
21
26.929099
31
0
39
0
210
0
220
0
230
1
0
LINE
5
A0
100
AcDbEntity
8
1
62
256
6
ByLayer
370
-1
48
1
60
0
100
AcDbLine
10
198.063855
20
18.413473
30
0
11
199.06577
21
16.807725
31
0
39
0
210
0
220
0
230
1
0
LINE
5
A1
100
AcDbEntity
8
1
62
256
6
ByLayer
370
-1
48
1
60
0
100
AcDbLine
10
196.70874
20
18.140551
30
0
11
199.898104
21
23.463302
31
0
39
0
210
0
220
0
230
1
0
LINE
5
A2
100
AcDbEntity
8
1
62
256
6
ByLayer
370
-1
48
1
60
0
100
AcDbLine
10
191.043099
20
27.565067
30
0
11
189.574281
21
29.040864
31
0
39
0
210
0
220
0
230
1
0
LINE
5
A3
100
AcDbEntity
8
1
62
256
6
ByLayer
370
-1
48
1
60
0
100
AcDbLine
10
193.601941
20
19.076098
30
0
11
193.863879
21
19.957441
31
0
39
0
210
0
220
0
230
1
0
LINE
5
A4
100
AcDbEntity
8
1
62
256
6
ByLayer
370
-1
48
1
60
0
100
AcDbLine
10
196.524037
20
16.473902
30
0
11
196.542021
21
17.79604
31
0
39
0
210
0
220
0
230
1
0
LINE
5
A5
100
AcDbEntity
8
1
62
256
6
ByLayer
370
-1
48
1
60
0
100
AcDbLine
10
197.294287
20
33.03935
30
0
11
195.843036
21
30.55052
31
0
39
0
210
0
220
0
230
1
0
LINE
5
A6
100
AcDbEntity
8
1
62
256
6
ByLayer
370
-1
48
1
60
0
100
AcDbLine
10
198.103577
20
23.894223
30
0
11
198.783918
21
24.055126
31
0
39
0
210
0
220
0
230
1
0
LINE
5
A7
100
AcDbEntity
8
1
62
256
6
ByLayer
370
-1
48
1
60
0
100
AcDbLine
10
197.510804
20
33.001271
30
0
11
197.532622
21
33.03831
31
0
39
0
210
0
220
0
230
1
0
LINE
5
A8
100
AcDbEntity
8
1
62
256
6
ByLayer
370
-1
48
1
60
0
100
AcDbLine
10
197.010763
20
16.568407
30
0
11
199.060215
21
16.710902
31
0
39
0
210
0
220
0
230
1
0
LINE
5
A9
100
AcDbEntity
8
1
62
256
6
ByLayer
370
-1
48
1
60
0
100
AcDbLine
10
198.448637
20
30.650302
30
0
11
197.39846
21
30.049996
31
0
39
0
210
0
220
0
230
1
0
LINE
5
AA
100
AcDbEntity
8
1
62
256
6
ByLayer
370
-1
48
1
60
0
100
AcDbLine
10
197.016317
20
16.66523
30
0
11
197.031525
21
17.783227
31
0
39
0
210
0
220
0
230
1
0
LINE
5
AB
100
AcDbEntity
8
1
62
256
6
ByLayer
370
-1
48
1
60
0
100
AcDbLine
10
199.910292
20
26.623752
30
0
11
199.906417
21
26.291529
31
0
39
0
210
0
220
0
230
1
0
LINE
5
AC
100
AcDbEntity
8
1
62
256
6
ByLayer
370
-1
48
1
60
0
100
AcDbLine
10
196.823101
20
14.929118
30
0
11
199.41066
21
14.955676
31
0
39
0
210
0
220
0
230
1
0
LINE
5
AD
100
AcDbEntity
8
1
62
256
6
ByLayer
370
-1
48
1
60
0
100
AcDbLine
10
199.904694
20
20.745967
30
0
11
199.904694
21
20.424301
31
0
39
0
210
0
220
0
230
1
0
LINE
5
AE
100
AcDbEntity
8
1
62
256
6
ByLayer
370
-1
48
1
60
0
100
AcDbLine
10
187.078456
20
20.694521
30
0
11
187.060555
21
20.419714
31
0
39
0
210
0
220
0
230
1
0
LINE
5
AF
100
AcDbEntity
8
1
62
256
6
ByLayer
370
-1
48
1
60
0
100
AcDbLine
10
184.112868
20
23.380835
30
0
11
183.737825
21
23.224869
31
0
39
0
210
0
220
0
230
1
0
LINE
5
B0
100
AcDbEntity
8
1
62
256
6
ByLayer
370
-1
48
1
60
0
100
AcDbLine
10
199.157946
20
16.874006
30
0
11
198.156032
21
18.479754
31
0
39
0
210
0
220
0
230
1
0
LINE
5
B1
100
AcDbEntity
8
1
62
256
6
ByLayer
370
-1
48
1
60
0
100
AcDbLine
10
186.237522
20
23.153442
30
0
11
184.203904
21
23.313754
31
0
39
0
210
0
220
0
230
1
0
LINE
5
B2
100
AcDbEntity
8
1
62
256
6
ByLayer
370
-1
48
1
60
0
100
AcDbLine
10
190.910539
20
20.788446
30
0
11
190.717271
21
20.138156
31
0
39
0
210
0
220
0
230
1
0
LINE
5
B3
100
AcDbEntity
8
1
62
256
6
ByLayer
370
-1
48
1
60
0
100
AcDbLine
10
190.751021
20
29.012041
30
0
11
189.796887
21
29.185755
31
0
39
0
210
0
220
0
230
1
0
LINE
5
B4
100
AcDbEntity
8
1
62
256
6
ByLayer
370
-1
48
1
60
0
100
AcDbLine
10
199.751869
20
29.462287
30
0
11
199.862411
21
29.283142
31
0
39
0
210
0
220
0
230
1
0
LINE
5
B5
100
AcDbEntity
8
1
62
256
6
ByLayer
370
-1
48
1
60
0
100
AcDbLine
10
194.986848
20
15.985864
30
0
11
194.996509
21
16.13418
31
0
39
0
210
0
220
0
230
1
0
LINE
5
B6
100
AcDbEntity
8
1
62
256
6
ByLayer
370
-1
48
1
60
0
100
AcDbLine
10
191.774081
20
20.371066
30
0
11
191.191261
21
18.410051
31
0
39
0
210
0
220
0
230
1
0
LINE
5
B7
100
AcDbEntity
8
1
62
256
6
ByLayer
370
-1
48
1
60
0
100
AcDbLine
10
198.882593
20
18.122273
30
0
11
198.890526
21
18.135511
31
0
39
0
210
0
220
0
230
1
0
LINE
5
B8
100
AcDbEntity
8
1
62
256
6
ByLayer
370
-1
48
1
60
0
100
AcDbLine
10
199.197166
20
19.565169
30
0
11
199.904694
21
20.745967
31
0
39
0
210
0
220
0
230
1
0
LINE
5
B9
100
AcDbEntity
8
1
62
256
6
ByLayer
370
-1
48
1
60
0
100
AcDbLine
10
197.854779
20
24.551503
30
0
11
199.906417
21
25.036721
31
0
39
0
210
0
220
0
230
1
0
LINE
5
BA
100
AcDbEntity
8
1
62
256
6
ByLayer
370
-1
48
1
60
0
100
AcDbLine
10
190.403977
20
26.703304
30
0
11
188.620317
21
28.495439
31
0
39
0
210
0
220
0
230
1
0
LINE
5
BB
100
AcDbEntity
8
1
62
256
6
ByLayer
370
-1
48
1
60
0
100
AcDbLine
10
188.208795
20
28.342559
30
0
11
188.449411
21
28.418369
31
0
39
0
210
0
220
0
230
1
0
LINE
5
BC
100
AcDbEntity
8
1
62
256
6
ByLayer
370
-1
48
1
60
0
100
AcDbLine
10
198.974395
20
19.422971
30
0
11
198.890526
21
18.135511
31
0
39
0
210
0
220
0
230
1
0
LINE
5
BD
100
AcDbEntity
8
1
62
256
6
ByLayer
370
-1
48
1
60
0
100
AcDbLine
10
197.161166
20
29.639693
30
0
11
195.925474
21
30.360423
31
0
39
0
210
0
220
0
230
1
0
LINE
5
BE
100
AcDbEntity
8
1
62
256
6
ByLayer
370
-1
48
1
60
0
100
AcDbLine
10
199.786781
20
19.007734
30
0
11
199.871205
21
20.303706
31
0
39
0
210
0
220
0
230
1
0
LINE
5
BF
100
AcDbEntity
8
1
62
256
6
ByLayer
370
-1
48
1
60
0
100
AcDbLine
10
199.728608
20
16.599378
30
0
11
199.657527
21
16.48075
31
0
39
0
210
0
220
0
230
1
0
LINE
5
C0
100
AcDbEntity
8
1
62
256
6
ByLayer
370
-1
48
1
60
0
100
AcDbLine
10
198.767976
20
24.109384
30
0
11
198.087634
21
23.948481
31
0
39
0
210
0
220
0
230
1
0
LINE
5
C1
100
AcDbEntity
8
1
62
256
6
ByLayer
370
-1
48
1
60
0
100
AcDbLine
10
186.659285
20
21.719402
30
0
11
187.366813
21
20.53243
31
0
39
0
210
0
220
0
230
1
0
LINE
5
C2
100
AcDbEntity
8
1
62
256
6
ByLayer
370
-1
48
1
60
0
100
AcDbLine
10
195.491721
20
16.109461
30
0
11
196.551061
21
17.8774
31
0
39
0
210
0
220
0
230
1
0
LINE
5
C3
100
AcDbEntity
8
1
62
256
6
ByLayer
370
-1
48
1
60
0
100
AcDbLine
10
199.871205
20
20.303706
30
0
11
199.481087
21
19.652636
31
0
39
0
210
0
220
0
230
1
0
LINE
5
C4
100
AcDbEntity
8
1
62
256
6
ByLayer
370
-1
48
1
60
0
100
AcDbLine
10
199.905234
20
25.210526
30
0
11
197.625432
21
24.671346
31
0
39
0
210
0
220
0
230
1
0
LINE
5
C5
100
AcDbEntity
8
1
62
256
6
ByLayer
370
-1
48
1
60
0
100
AcDbLine
10
185.553579
20
26.525762
30
0
11
185.65847
21
26.707118
31
0
39
0
210
0
220
0
230
1
0
LINE
5
C6
100
AcDbEntity
8
1
62
256
6
ByLayer
370
-1
48
1
60
0
100
AcDbLine
10
194.810337
20
31.123705
30
0
11
193.395282
21
31.12988
31
0
39
0
210
0
220
0
230
1
0
LINE
5
C7
100
AcDbEntity
8
1
62
256
6
ByLayer
370
-1
48
1
60
0
100
AcDbLine
10
183.775566
20
22.898238
30
0
11
183.682232
21
21.465487
31
0
39
0
210
0
220
0
230
1
0
LINE
5
C8
100
AcDbEntity
8
1
62
256
6
ByLayer
370
-1
48
1
60
0
100
AcDbLine
10
192.564497
20
17.699795
30
0
11
192.316131
21
17.777738
31
0
39
0
210
0
220
0
230
1
0
LINE
5
C9
100
AcDbEntity
8
1
62
256
6
ByLayer
370
-1
48
1
60
0
100
AcDbLine
10
198.611263
20
18.816937
30
0
11
198.59613
21
18.584631
31
0
39
0
210
0
220
0
230
1
0
LINE
5
CA
100
AcDbEntity
8
1
62
256
6
ByLayer
370
-1
48
1
60
0
100
AcDbLine
10
183.622825
20
22.991898
30
0
11
183.551744
21
23.111145
31
0
39
0
210
0
220
0
230
1
0
LINE
5
CB
100
AcDbEntity
8
1
62
256
6
ByLayer
370
-1
48
1
60
0
100
AcDbLine
10
188.144885
20
22.178499
30
0
11
185.553579
21
26.525762
31
0
39
0
210
0
220
0
230
1
0
LINE
5
CC
100
AcDbEntity
8
1
62
256
6
ByLayer
370
-1
48
1
60
0
100
AcDbLine
10
194.996509
20
16.13418
30
0
11
193.480554
21
16.98633
31
0
39
0
210
0
220
0
230
1
0
LINE
5
CD
100
AcDbEntity
8
1
62
256
6
ByLayer
370
-1
48
1
60
0
100
AcDbLine
10
186.589783
20
21.569332
30
0
11
186.659285
21
21.719402
31
0
39
0
210
0
220
0
230
1
0
LINE
5
CE
100
AcDbEntity
8
1
62
256
6
ByLayer
370
-1
48
1
60
0
100
AcDbLine
10
186.649128
20
21.964173
30
0
11
186.62891
21
21.653815
31
0
39
0
210
0
220
0
230
1
0
LINE
5
CF
100
AcDbEntity
8
1
62
256
6
ByLayer
370
-1
48
1
60
0
100
AcDbLine
10
196.779475
20
18.192327
30
0
11
198.000303
21
18.937653
31
0
39
0
210
0
220
0
230
1
0
LINE
5
D0
100
AcDbEntity
8
1
62
256
6
ByLayer
370
-1
48
1
60
0
100
AcDbLine
10
197.435137
20
33.095169
30
0
11
197.392265
21
33.095356
31
0
39
0
210
0
220
0
230
1
0
LINE
5
D1
100
AcDbEntity
8
1
62
256
6
ByLayer
370
-1
48
1
60
0
100
AcDbLine
10
199.503994
20
16.388428
30
0
11
195.491721
21
16.109461
31
0
39
0
210
0
220
0
230
1
0
LINE
5
D2
100
AcDbEntity
8
1
62
256
6
ByLayer
370
-1
48
1
60
0
100
AcDbLine
10
183.818627
20
23.033285
30
0
11
186.61485
21
22.812855
31
0
39
0
210
0
220
0
230
1
0
LINE
5
D3
100
AcDbEntity
8
1
62
256
6
ByLayer
370
-1
48
1
60
0
100
AcDbLine
10
186.966602
20
20.470756
30
0
11
186.986963
21
20.783308
31
0
39
0
210
0
220
0
230
1
0
LINE
5
D4
100
AcDbEntity
8
1
62
256
6
ByLayer
370
-1
48
1
60
0
100
AcDbLine
10
199.194855
20
24.265588
30
0
11
199.907884
21
24.81255
31
0
39
0
210
0
220
0
230
1
0
LINE
5
D5
100
AcDbEntity
8
1
62
256
6
ByLayer
370
-1
48
1
60
0
100
AcDbLine
10
185.751831
20
26.798279
30
0
11
187.267786
21
27.637198
31
0
39
0
210
0
220
0
230
1
0
LINE
5
D6
100
AcDbEntity
8
1
62
256
6
ByLayer
370
-1
48
1
60
0
100
AcDbLine
10
194.710286
20
31.257476
30
0
11
194.810337
21
31.123705
31
0
39
0
210
0
220
0
230
1
0
LINE
5
D7
100
AcDbEntity
8
1
62
256
6
ByLayer
370
-1
48
1
60
0
100
AcDbLine
10
198.546939
20
30.706307
30
0
11
197.507318
21
32.525508
31
0
39
0
210
0
220
0
230
1
0
LINE
5
D8
100
AcDbEntity
8
1
62
256
6
ByLayer
370
-1
48
1
60
0
100
AcDbLine
10
199.459923
20
16.523854
30
0
11
196.641927
21
16.327923
31
0
39
0
210
0
220
0
230
1
0
LINE
5
D9
100
AcDbEntity
8
1
62
256
6
ByLayer
370
-1
48
1
60
0
100
AcDbLine
10
188.449411
20
28.418369
30
0
11
190.136511
21
26.723253
31
0
39
0
210
0
220
0
230
1
0
LINE
5
DA
100
AcDbEntity
8
1
62
256
6
ByLayer
370
-1
48
1
60
0
100
AcDbLine
10
195.340708
20
16.103505
30
0
11
195.125276
21
16.101294
31
0
39
0
210
0
220
0
230
1
0
LINE
5
DB
100
AcDbEntity
8
1
62
256
6
ByLayer
370
-1
48
1
60
0
100
AcDbLine
10
197.932014
20
20.428153
30
0
11
195.340708
21
16.103505
31
0
39
0
210
0
220
0
230
1
0
LINE
5
DC
100
AcDbEntity
8
1
62
256
6
ByLayer
370
-1
48
1
60
0
100
AcDbLine
10
197.532622
20
33.03831
30
0
11
198.962099
21
30.53691
31
0
39
0
210
0
220
0
230
1
0
LINE
5
DD
100
AcDbEntity
8
1
62
256
6
ByLayer
370
-1
48
1
60
0
100
AcDbLine
10
186.706858
20
24.280133
30
0
11
186.731085
21
22.957811
31
0
39
0
210
0
220
0
230
1
0
LINE
5
DE
100
AcDbEntity
8
1
62
256
6
ByLayer
370
-1
48
1
60
0
100
AcDbLine
10
186.659285
20
21.719402
30
0
11
186.662832
21
21.726636
31
0
39
0
210
0
220
0
230
1
0
LINE
5
DF
100
AcDbEntity
8
1
62
256
6
ByLayer
370
-1
48
1
60
0
100
AcDbLine
10
196.008788
20
31.132529
30
0
11
197.188396
21
33.155504
31
0
39
0
210
0
220
0
230
1
0
LINE
5
E0
100
AcDbEntity
8
1
62
256
6
ByLayer
370
-1
48
1
60
0
100
AcDbLine
10
185.098948
20
24.977908
30
0
11
184.112868
21
23.380835
31
0
39
0
210
0
220
0
230
1
0
LINE
5
E1
100
AcDbEntity
8
1
62
256
6
ByLayer
370
-1
48
1
60
0
100
AcDbLine
10
199.57909
20
16.722733
30
0
11
199.539961
21
16.714736
31
0
39
0
210
0
220
0
230
1
0
LINE
5
E2
100
AcDbEntity
8
1
62
256
6
ByLayer
370
-1
48
1
60
0
100
AcDbLine
10
186.048398
20
22.719068
30
0
11
183.775566
21
22.898238
31
0
39
0
210
0
220
0
230
1
0
LINE
5
E3
100
AcDbEntity
8
1
62
256
6
ByLayer
370
-1
48
1
60
0
100
AcDbLine
10
199.538542
20
16.610431
30
0
11
199.577672
21
16.618428
31
0
39
0
210
0
220
0
230
1
0
LINE
5
E4
100
AcDbEntity
8
1
62
256
6
ByLayer
370
-1
48
1
60
0
100
AcDbLine
10
186.649128
20
21.964173
30
0
11
186.285996
21
22.573376
31
0
39
0
210
0
220
0
230
1
0
LINE
5
E5
100
AcDbEntity
8
1
62
256
6
ByLayer
370
-1
48
1
60
0
100
AcDbLine
10
198.878006
20
30.347539
30
0
11
197.636072
21
29.63762
31
0
39
0
210
0
220
0
230
1
0
LINE
5
E6
100
AcDbEntity
8
1
62
256
6
ByLayer
370
-1
48
1
60
0
100
AcDbLine
10
192.316131
20
17.777738
30
0
11
192.985564
21
20.030181
31
0
39
0
210
0
220
0
230
1
0
LINE
5
E7
100
AcDbEntity
8
1
62
256
6
ByLayer
370
-1
48
1
60
0
100
AcDbLine
10
191.13112
20
18.459271
30
0
11
190.884056
21
19.619679
31
0
39
0
210
0
220
0
230
1
0
LINE
5
E8
100
AcDbEntity
8
1
62
256
6
ByLayer
370
-1
48
1
60
0
100
AcDbLine
10
195.125276
20
16.101294
30
0
11
195.112584
21
15.906459
31
0
39
0
210
0
220
0
230
1
0
LINE
5
E9
100
AcDbEntity
8
1
62
256
6
ByLayer
370
-1
48
1
60
0
100
AcDbLine
10
191.191261
20
18.410051
30
0
11
191.13112
21
18.459271
31
0
39
0
210
0
220
0
230
1
0
LINE
5
EA
100
AcDbEntity
8
1
62
256
6
ByLayer
370
-1
48
1
60
0
100
AcDbLine
10
199.57909
20
16.722733
30
0
11
198.201458
21
18.930636
31
0
39
0
210
0
220
0
230
1
0
LINE
5
EB
100
AcDbEntity
8
1
62
256
6
ByLayer
370
-1
48
1
60
0
100
AcDbLine
10
199.366719
20
19.581468
30
0
11
199.197166
21
19.565169
31
0
39
0
210
0
220
0
230
1
0
LINE
5
EC
100
AcDbEntity
8
1
62
256
6
ByLayer
370
-1
48
1
60
0
100
AcDbLine
10
183.622825
20
22.991898
30
0
11
183.529095
21
21.553068
31
0
39
0
210
0
220
0
230
1
0
LINE
5
ED
100
AcDbEntity
8
1
62
256
6
ByLayer
370
-1
48
1
60
0
100
AcDbLine
10
183.551744
20
23.111145
30
0
11
183.458014
21
21.672316
31
0
39
0
210
0
220
0
230
1
0
LINE
5
EE
100
AcDbEntity
8
1
62
256
6
ByLayer
370
-1
48
1
60
0
100
AcDbLine
10
185.189984
20
24.910827
30
0
11
186.217035
21
24.271594
31
0
39
0
210
0
220
0
230
1
0
LINE
5
EF
100
AcDbEntity
8
1
62
256
6
ByLayer
370
-1
48
1
60
0
100
AcDbLine
10
199.539961
20
16.714736
30
0
11
199.157946
21
16.874006
31
0
39
0
210
0
220
0
230
1
0
LINE
5
F0
100
AcDbEntity
8
1
62
256
6
ByLayer
370
-1
48
1
60
0
100
AcDbLine
10
190.971588
20
18.556871
30
0
11
190.376072
21
18.761688
31
0
39
0
210
0
220
0
230
1
0
LINE
5
F1
100
AcDbEntity
8
1
62
256
6
ByLayer
370
-1
48
1
60
0
100
AcDbLine
10
199.06577
20
16.807725
30
0
11
197.016317
21
16.66523
31
0
39
0
210
0
220
0
230
1
0
LINE
5
F2
100
AcDbEntity
8
1
62
256
6
ByLayer
370
-1
48
1
60
0
100
AcDbLine
10
189.574281
20
29.040864
30
0
11
189.636359
21
29.089551
31
0
39
0
210
0
220
0
230
1
0
LINE
5
F3
100
AcDbEntity
8
1
62
256
6
ByLayer
370
-1
48
1
60
0
100
AcDbLine
10
187.366813
20
20.53243
30
0
11
187.078456
21
20.694521
31
0
39
0
210
0
220
0
230
1
0
LINE
5
F4
100
AcDbEntity
8
1
62
256
6
ByLayer
370
-1
48
1
60
0
100
AcDbLine
10
193.395282
20
31.12988
30
0
11
193.683638
21
31.289454
31
0
39
0
210
0
220
0
230
1
0
LINE
5
F5
100
AcDbEntity
8
1
62
256
6
ByLayer
370
-1
48
1
60
0
100
AcDbLine
10
189.796887
20
29.185755
30
0
11
190.376072
21
29.385445
31
0
39
0
210
0
220
0
230
1
0
LINE
5
F6
100
AcDbEntity
8
1
62
256
6
ByLayer
370
-1
48
1
60
0
100
AcDbLine
10
199.503994
20
16.388428
30
0
11
199.41066
21
14.955676
31
0
39
0
210
0
220
0
230
1
0
LINE
5
F7
100
AcDbEntity
8
1
62
256
6
ByLayer
370
-1
48
1
60
0
100
AcDbLine
10
186.596845
20
21.437784
30
0
11
186.54904
21
20.703939
31
0
39
0
210
0
220
0
230
1
0
LINE
5
F8
100
AcDbEntity
8
1
62
256
6
ByLayer
370
-1
48
1
60
0
100
AcDbLine
10
192.142858
20
17.85631
30
0
11
191.362167
21
18.295153
31
0
39
0
210
0
220
0
230
1
0
LINE
5
F9
100
AcDbEntity
8
1
62
256
6
ByLayer
370
-1
48
1
60
0
100
AcDbLine
10
194.569258
20
29.484903
30
0
11
199.751869
21
29.462287
31
0
39
0
210
0
220
0
230
1
0
LINE
5
FA
100
AcDbEntity
8
1
62
256
6
ByLayer
370
-1
48
1
60
0
100
AcDbLine
10
197.413825
20
25.492173
30
0
11
199.905234
21
26.081398
31
0
39
0
210
0
220
0
230
1
0
LINE
5
FB
100
AcDbEntity
8
1
62
256
6
ByLayer
370
-1
48
1
60
0
100
AcDbLine
10
186.048398
20
22.719068
30
0
11
185.963912
21
21.422154
31
0
39
0
210
0
220
0
230
1
0
LINE
5
FC
100
AcDbEntity
8
1
62
256
6
ByLayer
370
-1
48
1
60
0
100
AcDbLine
10
195.041602
20
30.995594
30
0
11
195.767866
21
30.992424
31
0
39
0
210
0
220
0
230
1
0
LINE
5
FD
100
AcDbEntity
8
1
62
256
6
ByLayer
370
-1
48
1
60
0
100
AcDbLine
10
199.906417
20
26.291529
30
0
11
197.549883
21
25.734202
31
0
39
0
210
0
220
0
230
1
0
LINE
5
FE
100
AcDbEntity
8
1
62
256
6
ByLayer
370
-1
48
1
60
0
100
AcDbLine
10
199.905234
20
26.081398
30
0
11
199.905234
21
25.210526
31
0
39
0
210
0
220
0
230
1
0
LINE
5
FF
100
AcDbEntity
8
1
62
256
6
ByLayer
370
-1
48
1
60
0
100
AcDbLine
10
199.907884
20
24.81255
30
0
11
199.899718
21
24.032007
31
0
39
0
210
0
220
0
230
1
0
LINE
5
100
100
AcDbEntity
8
1
62
256
6
ByLayer
370
-1
48
1
60
0
100
AcDbLine
10
197.031525
20
17.783227
30
0
11
198.063855
21
18.413473
31
0
39
0
210
0
220
0
230
1
0
LINE
5
101
100
AcDbEntity
8
1
62
256
6
ByLayer
370
-1
48
1
60
0
100
AcDbLine
10
199.556236
20
16.582654
30
0
11
199.577672
21
16.618428
31
0
39
0
210
0
220
0
230
1
0
LINE
5
102
100
AcDbEntity
8
1
62
256
6
ByLayer
370
-1
48
1
60
0
100
AcDbLine
10
197.507318
20
32.525508
30
0
11
197.510804
21
33.001271
31
0
39
0
210
0
220
0
230
1
0
LINE
5
103
100
AcDbEntity
8
1
62
256
6
ByLayer
370
-1
48
1
60
0
100
AcDbLine
10
186.217035
20
24.271594
30
0
11
186.237522
21
23.153442
31
0
39
0
210
0
220
0
230
1
0
LINE
5
104
100
AcDbEntity
8
1
62
256
6
ByLayer
370
-1
48
1
60
0
100
AcDbLine
10
186.285996
20
22.573376
30
0
11
186.202127
21
21.285916
31
0
39
0
210
0
220
0
230
1
0
LINE
5
105
100
AcDbEntity
8
1
62
256
6
ByLayer
370
-1
48
1
60
0
100
AcDbLine
10
199.104013
20
18.268358
30
0
11
199.282295
21
18.285495
31
0
39
0
210
0
220
0
230
1
0
LINE
5
106
100
AcDbEntity
8
1
62
256
6
ByLayer
370
-1
48
1
60
0
100
AcDbLine
10
197.413319
20
33.05813
30
0
11
197.392265
21
33.095356
31
0
39
0
210
0
220
0
230
1
0
LINE
5
107
100
AcDbEntity
8
1
62
256
6
ByLayer
370
-1
48
1
60
0
100
AcDbLine
10
199.728608
20
16.599378
30
0
11
199.634878
21
15.160548
31
0
39
0
210
0
220
0
230
1
0
LINE
5
108
100
AcDbEntity
8
1
62
256
6
ByLayer
370
-1
48
1
60
0
100
AcDbLine
10
191.161052
20
28.811959
30
0
11
191.648125
21
28.322572
31
0
39
0
210
0
220
0
230
1
0
LINE
5
109
100
AcDbEntity
8
1
62
256
6
ByLayer
370
-1
48
1
60
0
100
AcDbLine
10
188.620317
20
28.495439
30
0
11
189.401008
21
28.927468
31
0
39
0
210
0
220
0
230
1
0
LINE
5
10A
100
AcDbEntity
8
1
62
256
6
ByLayer
370
-1
48
1
60
0
100
AcDbLine
10
197.311855
20
32.526361
30
0
11
196.2564
21
30.716302
31
0
39
0
210
0
220
0
230
1
0
LINE
5
10B
100
AcDbEntity
8
1
62
256
6
ByLayer
370
-1
48
1
60
0
100
AcDbLine
10
190.751021
20
19.59283
30
0
11
190.971588
21
18.556871
31
0
39
0
210
0
220
0
230
1
0
LINE
5
10C
100
AcDbEntity
8
1
62
256
6
ByLayer
370
-1
48
1
60
0
100
AcDbLine
10
183.682232
20
21.465487
30
0
11
185.963912
21
21.422154
31
0
39
0
210
0
220
0
230
1
0
LINE
5
10D
100
AcDbEntity
8
1
62
256
6
ByLayer
370
-1
48
1
60
0
100
AcDbLine
10
183.739736
20
23.120549
30
0
11
183.722807
21
23.092923
31
0
39
0
210
0
220
0
230
1
0
LINE
5
10E
100
AcDbEntity
8
1
62
256
6
ByLayer
370
-1
48
1
60
0
100
AcDbLine
10
198.974395
20
19.422971
30
0
11
198.611263
21
18.816937
31
0
39
0
210
0
220
0
230
1
0
LINE
5
10F
100
AcDbEntity
8
1
62
256
6
ByLayer
370
-1
48
1
60
0
100
AcDbLine
10
199.197166
20
19.565169
30
0
11
199.188404
21
19.563837
31
0
39
0
210
0
220
0
230
1
0
LINE
5
110
100
AcDbEntity
8
1
62
256
6
ByLayer
370
-1
48
1
60
0
100
AcDbLine
10
190.862052
20
29.63049
30
0
11
193.395282
21
31.12988
31
0
39
0
210
0
220
0
230
1
0
LINE
5
111
100
AcDbEntity
8
1
62
256
6
ByLayer
370
-1
48
1
60
0
100
AcDbLine
10
183.701371
20
23.128884
30
0
11
183.739736
21
23.120549
31
0
39
0
210
0
220
0
230
1
0
LINE
5
112
100
AcDbEntity
8
1
62
256
6
ByLayer
370
-1
48
1
60
0
100
AcDbLine
10
183.458014
20
21.672316
30
0
11
183.529095
21
21.553068
31
0
39
0
210
0
220
0
230
1
0
LINE
5
113
100
AcDbEntity
8
1
62
256
6
ByLayer
370
-1
48
1
60
0
100
AcDbLine
10
184.2106
20
23.216877
30
0
11
186.244217
21
23.056565
31
0
39
0
210
0
220
0
230
1
0
LINE
5
114
100
AcDbEntity
8
1
62
256
6
ByLayer
370
-1
48
1
60
0
100
AcDbLine
10
199.44223
20
16.551632
30
0
11
199.459923
21
16.523854
31
0
39
0
210
0
220
0
230
1
0
LINE
5
115
100
AcDbEntity
8
1
62
256
6
ByLayer
370
-1
48
1
60
0
100
AcDbLine
10
186.986963
20
20.783308
30
0
11
186.596845
21
21.437784
31
0
39
0
210
0
220
0
230
1
0
LINE
5
116
100
AcDbEntity
8
1
62
256
6
ByLayer
370
-1
48
1
60
0
100
AcDbLine
10
199.060215
20
16.710902
30
0
11
199.44223
21
16.551632
31
0
39
0
210
0
220
0
230
1
0
LINE
5
117
100
AcDbEntity
8
1
62
256
6
ByLayer
370
-1
48
1
60
0
100
AcDbLine
10
196.353561
20
30.659444
30
0
11
197.409016
21
32.469502
31
0
39
0
210
0
220
0
230
1
0
LINE
5
118
100
AcDbEntity
8
1
62
256
6
ByLayer
370
-1
48
1
60
0
100
AcDbLine
10
197.409016
20
32.469502
30
0
11
198.448637
21
30.650302
31
0
39
0
210
0
220
0
230
1
0
LINE
5
119
100
AcDbEntity
8
1
62
256
6
ByLayer
370
-1
48
1
60
0
100
AcDbLine
10
199.481087
20
19.652636
30
0
11
199.396663
21
18.356663
31
0
39
0
210
0
220
0
230
1
0
LINE
5
11A
100
AcDbEntity
8
1
62
256
6
ByLayer
370
-1
48
1
60
0
100
AcDbLine
10
199.563797
20
15.041921
30
0
11
199.634878
21
15.160548
31
0
39
0
210
0
220
0
230
1
0
LINE
5
11B
100
AcDbEntity
8
1
62
256
6
ByLayer
370
-1
48
1
60
0
100
AcDbLine
10
183.818627
20
23.033285
30
0
11
183.835557
21
23.060911
31
0
39
0
210
0
220
0
230
1
0
LINE
5
11C
100
AcDbEntity
8
1
62
256
6
ByLayer
370
-1
48
1
60
0
100
AcDbLine
10
183.69946
20
23.233204
30
0
11
185.055319
21
25.429178
31
0
39
0
210
0
220
0
230
1
0
LINE
5
11D
100
AcDbEntity
8
1
62
256
6
ByLayer
370
-1
48
1
60
0
100
AcDbLine
10
191.694751
20
28.371555
30
0
11
191.207678
21
28.860942
31
0
39
0
210
0
220
0
230
1
0
LINE
5
11E
100
AcDbEntity
8
1
62
256
6
ByLayer
370
-1
48
1
60
0
100
AcDbLine
10
197.435137
20
33.095169
30
0
11
197.413319
21
33.05813
31
0
39
0
210
0
220
0
230
1
0
LINE
5
11F
100
AcDbEntity
8
1
62
256
6
ByLayer
370
-1
48
1
60
0
100
AcDbLine
10
199.188404
20
19.563837
30
0
11
199.104013
21
18.268358
31
0
39
0
210
0
220
0
230
1
0
LINE
5
120
100
AcDbEntity
8
1
62
256
6
ByLayer
370
-1
48
1
60
0
100
AcDbLine
10
197.39846
20
30.049996
30
0
11
196.353561
21
30.659444
31
0
39
0
210
0
220
0
230
1
0
LINE
5
121
100
AcDbEntity
8
1
62
256
6
ByLayer
370
-1
48
1
60
0
100
AcDbLine
10
190.778657
20
20.114718
30
0
11
190.971925
21
20.765008
31
0
39
0
210
0
220
0
230
1
0
LINE
5
122
100
AcDbEntity
8
1
62
256
6
ByLayer
370
-1
48
1
60
0
100
AcDbLine
10
186.202127
20
21.285916
30
0
11
186.526398
21
20.741908
31
0
39
0
210
0
220
0
230
1
0
LINE
5
123
100
AcDbEntity
8
1
62
256
6
ByLayer
370
-1
48
1
60
0
100
AcDbLine
10
199.907386
20
24.983422
30
0
11
199.1087
21
24.370753
31
0
39
0
210
0
220
0
230
1
0
LINE
5
124
100
AcDbEntity
8
1
62
256
6
ByLayer
370
-1
48
1
60
0
100
AcDbLine
10
199.657527
20
16.48075
30
0
11
199.563797
21
15.041921
31
0
39
0
210
0
220
0
230
1
0
LINE
5
125
100
AcDbEntity
8
1
62
256
6
ByLayer
370
-1
48
1
60
0
100
AcDbLine
10
189.886862
20
19.010989
30
0
11
187.366813
21
20.53243
31
0
39
0
210
0
220
0
230
1
0
LINE
5
126
100
AcDbEntity
8
1
62
256
6
ByLayer
370
-1
48
1
60
0
100
AcDbLine
10
184.203904
20
23.313754
30
0
11
185.189984
21
24.910827
31
0
39
0
210
0
220
0
230
1
0
LINE
5
127
100
AcDbEntity
8
1
62
256
6
ByLayer
370
-1
48
1
60
0
100
AcDbLine
10
198.609787
20
18.559503
30
0
11
199.729557
21
16.764871
31
0
39
0
210
0
220
0
230
1
0
LINE
5
128
100
AcDbEntity
8
1
62
256
6
ByLayer
370
-1
48
1
60
0
100
AcDbLine
10
185.254818
20
25.434446
30
0
11
186.469405
21
24.678493
31
0
39
0
210
0
220
0
230
1
0
LINE
5
129
100
AcDbEntity
8
1
62
256
6
ByLayer
370
-1
48
1
60
0
100
AcDbLine
10
183.550003
20
23.276651
30
0
11
185.48048
21
26.403286
31
0
39
0
210
0
220
0
230
1
0
LINE
5
12A
100
AcDbEntity
8
1
62
256
6
ByLayer
370
-1
48
1
60
0
100
AcDbLine
10
189.401008
20
28.927468
30
0
11
191.033174
21
27.287547
31
0
39
0
210
0
220
0
230
1
0
LINE
5
12B
100
AcDbEntity
8
1
62
256
6
ByLayer
370
-1
48
1
60
0
100
AcDbLine
10
189.636359
20
29.089551
30
0
11
190.705114
21
28.894969
31
0
39
0
210
0
220
0
230
1
0
LINE
5
12C
100
AcDbEntity
8
1
62
256
6
ByLayer
370
-1
48
1
60
0
100
AcDbLine
10
191.362167
20
18.295153
30
0
11
192.009803
21
20.474254
31
0
39
0
210
0
220
0
230
1
0
LINE
5
12D
100
AcDbEntity
8
1
62
256
6
ByLayer
370
-1
48
1
60
0
100
AcDbLine
10
188.824549
20
26.98266
30
0
11
189.484682
21
26.31939
31
0
39
0
210
0
220
0
230
1
0
LINE
5
12E
100
AcDbEntity
8
1
62
256
6
ByLayer
370
-1
48
1
60
0
100
AcDbLine
10
183.737825
20
23.224869
30
0
11
183.69946
21
23.233204
31
0
39
0
210
0
220
0
230
1
0
LINE
5
12F
100
AcDbEntity
8
1
62
256
6
ByLayer
370
-1
48
1
60
0
100
AcDbLine
10
197.24078
20
29.602655
30
0
11
190.862052
21
29.63049
31
0
39
0
210
0
220
0
230
1
0
LINE
5
130
100
AcDbEntity
8
1
62
256
6
ByLayer
370
-1
48
1
60
0
100
AcDbLine
10
186.697498
20
24.361575
30
0
11
189.886862
21
19.010989
31
0
39
0
210
0
220
0
230
1
0
LINE
5
131
100
AcDbEntity
8
1
62
256
6
ByLayer
370
-1
48
1
60
0
100
AcDbLine
10
199.556236
20
16.582654
30
0
11
199.538542
21
16.610431
31
0
39
0
210
0
220
0
230
1
0
LINE
5
132
100
AcDbEntity
8
1
62
256
6
ByLayer
370
-1
48
1
60
0
100
AcDbLine
10
199.674817
20
29.592033
30
0
11
197.556137
21
29.601279
31
0
39
0
210
0
220
0
230
1
0
LINE
5
133
100
AcDbEntity
8
1
62
256
6
ByLayer
370
-1
48
1
60
0
100
AcDbLine
10
199.366719
20
19.581468
30
0
11
199.282295
21
18.285495
31
0
39
0
210
0
220
0
230
1
0
LINE
5
134
100
AcDbEntity
8
1
62
256
6
ByLayer
370
-1
48
1
60
0
100
AcDbLine
10
183.701371
20
23.128884
30
0
11
183.722807
21
23.092923
31
0
39
0
210
0
220
0
230
1
0
LINE
5
135
100
AcDbEntity
8
1
62
256
6
ByLayer
370
-1
48
1
60
0
100
AcDbLine
10
197.639522
20
33.153535
30
0
11
199.674817
21
29.592033
31
0
39
0
210
0
220
0
230
1
0
LINE
5
136
100
AcDbEntity
8
1
62
256
6
ByLayer
370
-1
48
1
60
0
100
AcDbLine
10
188.200243
20
28.339162
30
0
11
188.200243
21
28.941236
31
0
39
0
210
0
220
0
230
1
0
LINE
5
137
100
AcDbEntity
8
1
62
256
6
ByLayer
370
-1
48
1
60
0
100
AcDbLine
10
187.014766
20
27.497179
30
0
11
187.070826
21
28.365882
31
0
39
0
210
0
220
0
230
1
0
LINE
5
138
100
AcDbEntity
8
1
62
256
6
ByLayer
370
-1
48
1
60
0
100
AcDbLine
10
183.202029
20
22.76818
30
0
11
183.202029
21
20.877466
31
0
39
0
210
0
220
0
230
1
0
LINE
5
139
100
AcDbEntity
8
1
62
256
6
ByLayer
370
-1
48
1
60
0
100
AcDbLine
10
188.200243
20
28.941236
30
0
11
187.670765
21
28.943206
31
0
39
0
210
0
220
0
230
1
0
LINE
5
13A
100
AcDbEntity
8
1
62
256
6
ByLayer
370
-1
48
1
60
0
100
AcDbLine
10
184.5195
20
20.925559
30
0
11
183.281519
21
21.620488
31
0
39
0
210
0
220
0
230
1
0
LINE
5
13B
100
AcDbEntity
8
1
62
256
6
ByLayer
370
-1
48
1
60
0
100
AcDbLine
10
188.777506
20
28.582311
30
0
11
188.777506
21
29.046476
31
0
39
0
210
0
220
0
230
1
0
LINE
5
13C
100
AcDbEntity
8
1
62
256
6
ByLayer
370
-1
48
1
60
0
100
AcDbLine
10
187.070826
20
28.365882
30
0
11
187.070826
21
27.528198
31
0
39
0
210
0
220
0
230
1
0
LINE
5
13D
100
AcDbEntity
8
1
62
256
6
ByLayer
370
-1
48
1
60
0
100
AcDbLine
10
189.222625
20
29.095203
30
0
11
189.336106
21
29.094781
31
0
39
0
210
0
220
0
230
1
0
LINE
5
13E
100
AcDbEntity
8
1
62
256
6
ByLayer
370
-1
48
1
60
0
100
AcDbLine
10
188.453234
20
28.419566
30
0
11
188.453234
21
28.940295
31
0
39
0
210
0
220
0
230
1
0
LINE
5
13F
100
AcDbEntity
8
1
62
256
6
ByLayer
370
-1
48
1
60
0
100
AcDbLine
10
183.202029
20
22.76818
30
0
11
183.271208
21
23.840167
31
0
39
0
210
0
220
0
230
1
0
LINE
5
140
100
AcDbEntity
8
1
62
256
6
ByLayer
370
-1
48
1
60
0
100
AcDbLine
10
197.2698
20
14.678086
30
0
11
197.2698
21
14.933765
31
0
39
0
210
0
220
0
230
1
0
LINE
5
141
100
AcDbEntity
8
1
62
256
6
ByLayer
370
-1
48
1
60
0
100
AcDbLine
10
183.271208
20
23.840167
30
0
11
183.271208
21
21.758886
31
0
39
0
210
0
220
0
230
1
0
LINE
5
142
100
AcDbEntity
8
1
62
256
6
ByLayer
370
-1
48
1
60
0
100
AcDbLine
10
189.222625
20
28.828628
30
0
11
189.222625
21
29.095203
31
0
39
0
210
0
220
0
230
1
0
LINE
5
143
100
AcDbEntity
8
1
62
256
6
ByLayer
370
-1
48
1
60
0
100
AcDbLine
10
184.491552
20
24.801553
30
0
11
184.271107
21
24.802373
31
0
39
0
210
0
220
0
230
1
0
LINE
5
144
100
AcDbEntity
8
1
62
256
6
ByLayer
370
-1
48
1
60
0
100
AcDbLine
10
189.336106
20
28.891511
30
0
11
189.336106
21
29.094781
31
0
39
0
210
0
220
0
230
1
0
LINE
5
145
100
AcDbEntity
8
1
62
256
6
ByLayer
370
-1
48
1
60
0
100
AcDbLine
10
183.214101
20
20.87396
30
0
11
183.271208
21
21.758886
31
0
39
0
210
0
220
0
230
1
0
LINE
5
146
100
AcDbEntity
8
1
62
256
6
ByLayer
370
-1
48
1
60
0
100
AcDbLine
10
195.185278
20
23.347168
30
0
11
195.210094
21
23.728124
31
0
39
0
210
0
220
0
230
1
0
LINE
5
147
100
AcDbEntity
8
1
62
256
6
ByLayer
370
-1
48
1
60
0
100
AcDbLine
10
192.155986
20
24.11639
30
0
11
192.134391
21
23.784887
31
0
39
0
210
0
220
0
230
1
0
LINE
5
148
100
AcDbEntity
8
1
62
256
6
ByLayer
370
-1
48
1
60
0
100
AcDbLine
10
192.147944
20
24.28801
30
0
11
192.155986
21
24.411464
31
0
39
0
210
0
220
0
230
1
0
LINE
5
149
100
AcDbEntity
8
1
62
256
6
ByLayer
370
-1
48
1
60
0
100
AcDbLine
10
194.971062
20
24.399179
30
0
11
194.949466
21
24.067676
31
0
39
0
210
0
220
0
230
1
0
LINE
5
14A
100
AcDbEntity
8
1
62
256
6
ByLayer
370
-1
48
1
60
0
100
AcDbLine
10
194.949466
20
23.772602
30
0
11
194.971062
21
24.104106
31
0
39
0
210
0
220
0
230
1
0
LINE
5
14B
100
AcDbEntity
8
1
62
256
6
ByLayer
370
-1
48
1
60
0
100
AcDbLine
10
194.869892
20
25.028839
30
0
11
194.894788
21
25.411018
31
0
39
0
210
0
220
0
230
1
0
LINE
5
14C
100
AcDbEntity
8
1
62
256
6
ByLayer
370
-1
48
1
60
0
100
AcDbLine
10
193.860045
20
25.592173
30
0
11
193.884942
21
25.974352
31
0
39
0
210
0
220
0
230
1
0
LINE
5
14D
100
AcDbEntity
8
1
62
256
6
ByLayer
370
-1
48
1
60
0
100
AcDbLine
10
193.223812
20
25.594949
30
0
11
193.248708
21
25.977128
31
0
39
0
210
0
220
0
230
1
0
LINE
5
14E
100
AcDbEntity
8
1
62
256
6
ByLayer
370
-1
48
1
60
0
100
AcDbLine
10
192.213965
20
25.040429
30
0
11
192.238861
21
25.422607
31
0
39
0
210
0
220
0
230
1
0
LINE
5
14F
100
AcDbEntity
8
1
62
256
6
ByLayer
370
-1
48
1
60
0
100
AcDbLine
10
191.898579
20
23.361511
30
0
11
191.923396
21
23.742466
31
0
39
0
210
0
220
0
230
1
0
LINE
5
150
100
AcDbEntity
8
1
62
256
6
ByLayer
370
-1
48
1
60
0
100
AcDbLine
10
199.642305
20
14.223255
30
0
11
199.732289
21
14.223732
31
0
39
0
210
0
220
0
230
1
0
LINE
5
151
100
AcDbEntity
8
1
62
256
6
ByLayer
370
-1
48
1
60
0
100
AcDbLine
10
199.649711
20
15.107514
30
0
11
199.714032
21
15.107855
31
0
39
0
210
0
220
0
230
1
0
LINE
5
152
100
AcDbEntity
8
1
62
256
6
ByLayer
370
-1
48
1
60
0
100
AcDbLine
10
199.649967
20
15.118946
30
0
11
199.726652
21
15.119353
31
0
39
0
210
0
220
0
230
1
0
LINE
5
153
100
AcDbEntity
8
1
62
256
6
ByLayer
370
-1
48
1
60
0
100
AcDbLine
10
199.642326
20
14.222579
30
0
11
199.745159
21
14.223123
31
0
39
0
210
0
220
0
230
1
0
LINE
5
154
100
AcDbEntity
8
1
62
256
6
ByLayer
370
-1
48
1
60
0
100
AcDbLine
10
199.690342
20
12.649907
30
0
11
199.706977
21
12.649995
31
0
39
0
210
0
220
0
230
1
0
LINE
5
155
100
AcDbEntity
8
1
62
256
6
ByLayer
370
-1
48
1
60
0
100
AcDbLine
10
199.736168
20
16.341323
30
0
11
199.730426
21
16.338587
31
0
39
0
210
0
220
0
230
1
0
LINE
5
156
100
AcDbEntity
8
SK1
62
256
6
ByLayer
370
-1
48
1
60
0
100
AcDbLine
10
0
20
-8.497801
30
0
11
0
21
-24.98925
31
0
39
0
210
0
220
0
230
1
0
LINE
5
157
100
AcDbEntity
8
SK1
62
256
6
ByLayer
370
-1
48
1
60
0
100
AcDbLine
10
0
20
8.497801
30
0
11
-149.086
21
8.497801
31
0
39
0
210
0
220
0
230
1
0
LINE
5
158
100
AcDbEntity
8
SK1
62
256
6
ByLayer
370
-1
48
1
60
0
100
AcDbLine
10
0
20
23.51075
30
0
11
0
21
8.497801
31
0
39
0
210
0
220
0
230
1
0
LINE
5
159
100
AcDbEntity
8
SK1
62
256
6
ByLayer
370
-1
48
1
60
0
100
AcDbLine
10
-149.086
20
23.51075
30
0
11
0
21
23.51075
31
0
39
0
210
0
220
0
230
1
0
LINE
5
15A
100
AcDbEntity
8
SK1
62
256
6
ByLayer
370
-1
48
1
60
0
100
AcDbLine
10
0
20
-8.497801
30
0
11
0
21
8.497801
31
0
39
0
210
0
220
0
230
1
0
LINE
5
15B
100
AcDbEntity
8
SK2
62
256
6
ByLayer
370
-1
48
1
60
0
100
AcDbLine
10
-161.336
20
24.98925
30
0
11
-161.336
21
-24.98925
31
0
39
0
210
0
220
0
230
1
0
LINE
5
15D
100
AcDbEntity
8
SK2
62
256
6
ByLayer
370
-1
48
1
60
0
100
AcDbLine
10
-153.086
20
-24.98925
30
0
11
-164.336
21
-24.98925
31
0
39
0
210
0
220
0
230
1
0
LINE
5
15E
100
AcDbEntity
8
SK2
62
256
6
ByLayer
370
-1
48
1
60
0
100
AcDbLine
10
-153.086
20
24.98925
30
0
11
-164.336
21
24.98925
31
0
39
0
210
0
220
0
230
1
0
LINE
5
15F
100
AcDbEntity
8
SK2
62
256
6
ByLayer
370
-1
48
1
60
0
100
AcDbLine
10
-161.336
20
-24.98925
30
0
11
-161.730957
21
-21.989251
31
0
39
0
210
0
220
0
230
1
0
LINE
5
160
100
AcDbEntity
8
SK2
62
256
6
ByLayer
370
-1
48
1
60
0
100
AcDbLine
10
-161.336
20
-24.98925
30
0
11
-160.941043
21
-21.989249
31
0
39
0
210
0
220
0
230
1
0
LINE
5
161
100
AcDbEntity
8
SK2
62
256
6
ByLayer
370
-1
48
1
60
0
100
AcDbLine
10
-161.730957
20
-21.989251
30
0
11
-160.941043
21
-21.989249
31
0
39
0
210
0
220
0
230
1
0
LINE
5
162
100
AcDbEntity
8
SK2
62
256
6
ByLayer
370
-1
48
1
60
0
100
AcDbLine
10
-161.336
20
24.98925
30
0
11
-160.941043
21
21.989251
31
0
39
0
210
0
220
0
230
1
0
LINE
5
163
100
AcDbEntity
8
SK2
62
256
6
ByLayer
370
-1
48
1
60
0
100
AcDbLine
10
-161.336
20
24.98925
30
0
11
-161.730957
21
21.989249
31
0
39
0
210
0
220
0
230
1
0
LINE
5
164
100
AcDbEntity
8
SK2
62
256
6
ByLayer
370
-1
48
1
60
0
100
AcDbLine
10
-160.941043
20
21.989251
30
0
11
-161.730957
21
21.989249
31
0
39
0
210
0
220
0
230
1
0
MTEXT
5
2E3
100
AcDbEntity
8
SK6
62
256
6
ByLayer
370
-1
48
1
60
0
100
AcDbMText
10
98.332
20
-40.752674
30
0
210
0
220
0
230
1
1
\W00.735;\fsimplex.shx,bigfont.shx;266RKF-50-22 
40
3.5
41
0
44
1.084337
50
0
71
7
72
5
7
DEFAULT
0
MTEXT
5
309
100
AcDbEntity
8
SK2
62
256
6
ByLayer
370
-1
48
1
60
0
100
AcDbMText
10
-162.461
20
-3.659211
30
0
210
0
220
0
230
1
1
\W00.875;\fsimplex.shx,bigfont.shx;%%c50 
40
4.5
41
0
44
1.084337
50
89.9999999999999
71
7
72
5
7
DEFAULT
0
DIMENSION
5
317
100
AcDbEntity
8
2
62
256
6
ByLayer
370
-3
48
1
60
0
100
AcDbDimension
2
DimnDraft3D1
10
214.164
20
34.875
30
0
11
214.164
21
14.808553
31
0
70
32
71
5
72
1
41
1
210
0
220
0
230
1
3
Standard
100
AcDbAlignedDimension
13
206.414
23
0
33
0
14
201.414
24
34.875
34
0
50
90
100
AcDbRotatedDimension
1001
ACAD
1000
DSTYLE
1002
{
1070
    74
1070
     0
1070
   279
1070
     0
1070
   172
1070
     1
1070
   173
1070
     1
1070
   340
1005
2E4
1070
   271
1070
     3
1070
   272
1070
     3
1070
    77
1070
     1
1070
    73
1070
     0
1070
   171
1070
     4
1070
   274
1070
     4
1070
   177
1070
     2
1070
   176
1070
     2
1070
   178
1070
     7
1070
    78
1070
     8
1070
    41
1041
3.0
1070
   147
1041
2.25
1070
    42
1041
1.5
1070
    44
1041
3.0
1070
   140
1041
4.5
1070
   343
1005
318
1070
   344
1005
318
1002
}
0
DIMENSION
5
32C
100
AcDbEntity
8
2
62
256
6
ByLayer
370
-3
48
1
60
0
100
AcDbDimension
2
DimnDraft3D2
10
154.203248
20
44.625
30
0
11
174.192835
21
44.625
31
0
70
32
71
5
72
1
41
1
210
0
220
0
230
1
3
Standard
100
AcDbAlignedDimension
13
199.914
23
36.375
33
0
14
154.203248
24
36.375
34
0
50
0
100
AcDbRotatedDimension
1001
ACAD
1000
DSTYLE
1002
{
1070
   279
1070
     0
1070
   172
1070
     1
1070
   173
1070
     1
1070
   340
1005
2E4
1070
   271
1070
     3
1070
   272
1070
     3
1070
    77
1070
     1
1070
    73
1070
     0
1070
   171
1070
     4
1070
   274
1070
     4
1070
   177
1070
     2
1070
   176
1070
     2
1070
   178
1070
     7
1070
    78
1070
     8
1070
    41
1041
3.0
1070
   147
1041
2.25
1070
    42
1041
1.5
1070
    44
1041
3.0
1070
   140
1041
4.5
1070
   343
1005
318
1070
   344
1005
318
1002
}
0
DIMENSION
5
33A
100
AcDbEntity
8
SK2
62
256
6
ByLayer
370
-3
48
1
60
0
100
AcDbDimension
2
DimnDraft3D3
10
-151.586
20
54.625
30
0
11
19.883079
21
54.625
31
0
70
32
71
5
72
1
41
1
210
0
220
0
230
1
3
Standard
100
AcDbAlignedDimension
13
199.914
23
36.375
33
0
14
-151.586
24
1.5
34
0
50
0
100
AcDbRotatedDimension
1001
ACAD
1000
DSTYLE
1002
{
1070
   279
1070
     0
1070
   172
1070
     1
1070
   173
1070
     1
1070
   340
1005
2E4
1070
   271
1070
     3
1070
   272
1070
     3
1070
    77
1070
     1
1070
    73
1070
     0
1070
   171
1070
     4
1070
   274
1070
     4
1070
   177
1070
     2
1070
   176
1070
     2
1070
   178
1070
     7
1070
    78
1070
     8
1070
    41
1041
3.0
1070
   147
1041
2.25
1070
    42
1041
1.5
1070
    44
1041
3.0
1070
   140
1041
4.5
1070
   343
1005
318
1070
   344
1005
318
1002
}
0
ENDSEC
0
SECTION
2
OBJECTS
0
DICTIONARY
5
36b
330
0
100
AcDbDictionary
280
0
281
1
3
ACAD_GROUP
350
36c
3
ACAD_MLINESTYLE
350
36d
0
DICTIONARY
5
36c
330
0
100
AcDbDictionary
280
0
281
1
0
DICTIONARY
5
36d
330
0
100
AcDbDictionary
280
0
281
1
3
Standard
350
18
0
MLINESTYLE
5
18
330
36d
100
AcDbMlineStyle
2
Standard
70
0
3

62
256
51
90
52
90
71
2
49
-0.5
62
256
6
ByLayer
49
0.5
62
256
6
ByLayer
0
RASTERVARIABLES
5
359
330

100
AcDbRasterVariables
90
0
70
1
71
1
72
1
0
ENDSEC
0
EOF
