0
SECTION
2
HEADER
9
$ACADVER
1
AC1015
9
$DWGCODEPAGE
3
ANSI_1252
9
$HANDSEED
5
323
9
$ANGBASE
50
0
9
$ANGDIR
70
0
9
$ATTMODE
70
1
9
$AUNITS
70
0
9
$AUPREC
70
0
9
$CECOLOR
62
256
9
$CELTSCALE
40
1
9
$CELTYPE
6
ByLayer
9
$CELWEIGHT
370
-1
9
$CLAYER
8
0
9
$CMLJUST
70
0
9
$CMLSCALE
40
1
9
$CMLSTYLE
2
Standard
9
$DIMSTYLE
2
Standard
9
$TEXTSIZE
40
0.2
9
$TEXTSTYLE
7
Standard
9
$LUNITS
70
2
9
$LUPREC
70
4
9
$EXTNAMES
290
1
9
$INSUNITS
70
4
9
$LTSCALE
40
1
9
$LWDISPLAY
290
0
9
$PDMODE
70
0
9
$PDSIZE
40
0
9
$PLINEGEN
70
0
0
ENDSEC
0
SECTION
2
CLASSES
0
CLASS
1
RASTERVARIABLES
2
AcDbRasterVariables
3
ISM
90
0
280
0
281
0
0
ENDSEC
0
SECTION
2
TABLES
0
TABLE
2
VPORT
5
319
100
AcDbSymbolTable
0
VPORT
5
1
100
AcDbSymbolTableRecord
100
AcDbViewportTableRecord
2
*Active
70
0
10
0
20
0
11
1
21
1
12
-1
22
1
13
0
23
0
14
0.5
24
0.5
15
10
25
10
16
0
26
0
36
1
17
0
27
0
37
0
0
ENDTAB
0
TABLE
2
LTYPE
5
31a
100
AcDbSymbolTable
0
LTYPE
5
14
100
AcDbSymbolTableRecord
100
AcDbLinetypeTableRecord
70
0
2
ByBlock
3

72
65
73
0
40
0
0
LTYPE
5
15
100
AcDbSymbolTableRecord
100
AcDbLinetypeTableRecord
70
0
2
ByLayer
3

72
65
73
0
40
0
0
LTYPE
5
16
100
AcDbSymbolTableRecord
100
AcDbLinetypeTableRecord
70
0
2
CONTINUOUS
3
Solid line
72
65
73
0
40
0
0
LTYPE
5
3B
100
AcDbSymbolTableRecord
100
AcDbLinetypeTableRecord
70
0
2
DASHED
3
__ __ __ __ __ __ __ __ __
72
65
73
2
40
25.72
49
12.86
74
0
49
-12.86
74
0
0
LTYPE
5
3C
100
AcDbSymbolTableRecord
100
AcDbLinetypeTableRecord
70
0
2
HIDDEN
3
_ _ _ _ _ _ _ _ _ _ _ _ _ _ _
72
65
73
2
40
0.5
49
0.25
74
0
49
-0.25
74
0
0
LTYPE
5
3D
100
AcDbSymbolTableRecord
100
AcDbLinetypeTableRecord
70
0
2
PHANTOM
3
____ _ _ ____ _ _ _____ _ _ ____
72
65
73
6
40
50.5
49
18
74
0
49
-6.5
74
0
49
6.5
74
0
49
-6.5
74
0
49
6.5
74
0
49
-6.5
74
0
0
LTYPE
5
3E
100
AcDbSymbolTableRecord
100
AcDbLinetypeTableRecord
70
0
2
CENTER
3
____ _ ____ _ ____ _ ____
72
65
73
4
40
47.5
49
22
74
0
49
-8.5
74
0
49
8.5
74
0
49
-8.5
74
0
0
LTYPE
5
3F
100
AcDbSymbolTableRecord
100
AcDbLinetypeTableRecord
70
0
2
DOT
3
.........................
72
65
73
2
40
10
49
0
74
0
49
-10
74
0
0
LTYPE
5
40
100
AcDbSymbolTableRecord
100
AcDbLinetypeTableRecord
70
0
2
DASHDOT
3
_._._._._._._._._._._._._._._._.
72
65
73
4
40
70
49
31
74
0
49
-13
74
0
49
13
74
0
49
-13
74
0
0
ENDTAB
0
TABLE
2
LAYER
5
31b
100
AcDbSymbolTable
0
LAYER
5
10
100
AcDbSymbolTableRecord
100
AcDbLayerTableRecord
2
0
70
0
62
7
6
CONTINUOUS
290
1
370
-3
390
0
0
LAYER
5
42
100
AcDbSymbolTableRecord
100
AcDbLayerTableRecord
2
1
70
0
62
4
6
CONTINUOUS
290
1
370
-3
390
0
0
LAYER
5
46
100
AcDbSymbolTableRecord
100
AcDbLayerTableRecord
2
80
70
0
62
-6
6
CONTINUOUS
290
1
370
-3
390
0
0
LAYER
5
48
100
AcDbSymbolTableRecord
100
AcDbLayerTableRecord
2
81
70
0
62
-3
6
CONTINUOUS
290
1
370
-3
390
0
0
LAYER
5
4A
100
AcDbSymbolTableRecord
100
AcDbLayerTableRecord
2
2
70
0
62
7
6
CONTINUOUS
290
1
370
-3
390
0
0
LAYER
5
63
100
AcDbSymbolTableRecord
100
AcDbLayerTableRecord
2
4
70
0
62
-2
6
CENTER
290
1
370
-3
390
0
0
LAYER
5
305
100
AcDbSymbolTableRecord
100
AcDbLayerTableRecord
2
SK1
70
0
62
4
6
CONTINUOUS
290
1
370
-3
390
0
0
LAYER
5
306
100
AcDbSymbolTableRecord
100
AcDbLayerTableRecord
2
SK4
70
0
62
2
6
CENTER
290
1
370
-3
390
0
0
LAYER
5
307
100
AcDbSymbolTableRecord
100
AcDbLayerTableRecord
2
SK2
70
0
62
7
6
CONTINUOUS
290
1
370
-3
390
0
0
LAYER
5
308
100
AcDbSymbolTableRecord
100
AcDbLayerTableRecord
2
SK6
70
0
62
5
6
CONTINUOUS
290
1
370
-3
390
0
0
ENDTAB
0
TABLE
2
STYLE
5
31c
100
AcDbSymbolTable
0
STYLE
5
11
100
AcDbSymbolTableRecord
100
AcDbTextStyleTableRecord
2
Standard
3
txt
70
0
71
0
40
0
41
1
42
0
50
0
0
STYLE
5
28F
100
AcDbSymbolTableRecord
100
AcDbTextStyleTableRecord
2
DEFAULT
3
simplex.shx
70
0
71
0
40
0
41
1
42
0
50
0
0
STYLE
5
2B2
100
AcDbSymbolTableRecord
100
AcDbTextStyleTableRecord
2
DWGDirectTextStyle
3
SIMPLEX
70
0
71
0
40
0
41
1
42
0
50
0
0
ENDTAB
0
TABLE
2
DIMSTYLE
5
31d
100
AcDbSymbolTable
100
AcDbDimStyleTable
0
DIMSTYLE
105
27
100
AcDbSymbolTableRecord
100
AcDbDimStyleTableRecord
2
Standard
70
0
3
<>
41
0.18
42
0.0625
44
0.18
140
0.18
147
0.09
73
0
74
0
77
1
271
2
275
0
278
52
280
0
340
11
0
ENDTAB
0
TABLE
2
VIEW
5
31e
100
AcDbSymbolTable
0
ENDTAB
0
TABLE
2
UCS
5
31f
100
AcDbSymbolTable
0
ENDTAB
0
TABLE
2
APPID
5
320
100
AcDbSymbolTable
0
APPID
5
12
100
AcDbSymbolTableRecord
100
AcDbRegAppTableRecord
2
ACAD
70
0
0
ENDTAB
0
TABLE
2
BLOCK_RECORD
5
321
100
AcDbSymbolTable
0
BLOCK_RECORD
5
1F
100
AcDbSymbolTableRecord
100
AcDbBlockTableRecord
2
*Model_Space
340
0
70
0
0
BLOCK_RECORD
5
1B
100
AcDbSymbolTableRecord
100
AcDbBlockTableRecord
2
*Paper_Space
340
0
70
0
0
BLOCK_RECORD
5
23
100
AcDbSymbolTableRecord
100
AcDbBlockTableRecord
2
*Paper_Space0
340
0
70
0
0
BLOCK_RECORD
5
2B5
100
AcDbSymbolTableRecord
100
AcDbBlockTableRecord
2
DimnDraft3D1
340
0
70
0
0
BLOCK_RECORD
5
2C3
100
AcDbSymbolTableRecord
100
AcDbBlockTableRecord
2
_CLOSED
340
0
70
0
0
BLOCK_RECORD
5
2CA
100
AcDbSymbolTableRecord
100
AcDbBlockTableRecord
2
DimnDraft3D2
340
0
70
0
0
BLOCK_RECORD
5
2D8
100
AcDbSymbolTableRecord
100
AcDbBlockTableRecord
2
DimnDraft3D3
340
0
70
0
0
ENDTAB
0
ENDSEC
0
SECTION
2
BLOCKS
0
BLOCK
5
20
100
AcDbEntity
8
0
100
AcDbBlockBegin
2
*Model_Space
70
0
10
0
20
0
30
0
3
*Model_Space
0
ENDBLK
5
21
100
AcDbEntity
8
0
100
AcDbBlockEnd
0
BLOCK
5
1C
100
AcDbEntity
8
0
100
AcDbBlockBegin
2
*Paper_Space
70
0
10
0
20
0
30
0
3
*Paper_Space
0
ENDBLK
5
1D
100
AcDbEntity
8
0
100
AcDbBlockEnd
0
BLOCK
5
24
100
AcDbEntity
8
0
100
AcDbBlockBegin
2
*Paper_Space0
70
0
10
0
20
0
30
0
3
*Paper_Space0
0
ENDBLK
5
25
100
AcDbEntity
8
0
100
AcDbBlockEnd
0
BLOCK
5
2C0
100
AcDbEntity
8
0
100
AcDbBlockBegin
2
DimnDraft3D1
70
0
10
0
20
0
30
0
3
DimnDraft3D1
0
MTEXT
5
2B6
100
AcDbEntity
8
2
62
256
6
ByLayer
370
-1
48
1
60
0
100
AcDbMText
10
173.039
20
11.933553
30
0
210
0
220
0
230
1
1
\W01.000;\fsimplex.shx,bigfont.shx;27 
40
4.5
41
0
44
1.084337
50
90
71
7
72
5
7
DEFAULT
0
LINE
5
2B7
100
AcDbEntity
8
2
62
256
6
ByLayer
370
-1
48
1
60
0
100
AcDbLine
10
166.414
20
0
30
0
11
177.164
21
0
31
0
39
0
210
0
220
0
230
1
0
LINE
5
2B8
100
AcDbEntity
8
2
62
256
6
ByLayer
370
-1
48
1
60
0
100
AcDbLine
10
161.414
20
26.875
30
0
11
177.164
21
26.875
31
0
39
0
210
0
220
0
230
1
0
LINE
5
2B9
100
AcDbEntity
8
2
62
256
6
ByLayer
370
-1
48
1
60
0
100
AcDbLine
10
174.164
20
0
30
0
11
174.164
21
26.875
31
0
39
0
210
0
220
0
230
1
0
LINE
5
2BA
100
AcDbEntity
8
2
62
256
6
ByLayer
370
-1
48
1
60
0
100
AcDbLine
10
174.164
20
0
30
0
11
173.769043
21
2.999999
31
0
39
0
210
0
220
0
230
1
0
LINE
5
2BB
100
AcDbEntity
8
2
62
256
6
ByLayer
370
-1
48
1
60
0
100
AcDbLine
10
174.164
20
0
30
0
11
174.558957
21
3.000001
31
0
39
0
210
0
220
0
230
1
0
LINE
5
2BC
100
AcDbEntity
8
2
62
256
6
ByLayer
370
-1
48
1
60
0
100
AcDbLine
10
173.769043
20
2.999999
30
0
11
174.558957
21
3.000001
31
0
39
0
210
0
220
0
230
1
0
LINE
5
2BD
100
AcDbEntity
8
2
62
256
6
ByLayer
370
-1
48
1
60
0
100
AcDbLine
10
174.164
20
26.875
30
0
11
174.558957
21
23.875001
31
0
39
0
210
0
220
0
230
1
0
LINE
5
2BE
100
AcDbEntity
8
2
62
256
6
ByLayer
370
-1
48
1
60
0
100
AcDbLine
10
174.164
20
26.875
30
0
11
173.769043
21
23.874999
31
0
39
0
210
0
220
0
230
1
0
LINE
5
2BF
100
AcDbEntity
8
2
62
256
6
ByLayer
370
-1
48
1
60
0
100
AcDbLine
10
174.558957
20
23.875001
30
0
11
173.769043
21
23.874999
31
0
39
0
210
0
220
0
230
1
0
ENDBLK
5
2C1
100
AcDbEntity
8
0
100
AcDbBlockEnd
0
BLOCK
5
2C4
100
AcDbEntity
8
0
100
AcDbBlockBegin
2
_CLOSED
70
0
10
0
20
0
30
0
3
_CLOSED
0
LINE
5
2C6
100
AcDbEntity
8
0
62
256
6
ByLayer
370
-2
48
1
60
0
100
AcDbLine
10
-1
20
0.166667
30
0
11
0
21
0
31
0
39
0
210
0
220
0
230
1
0
LINE
5
2C7
100
AcDbEntity
8
0
62
256
6
ByLayer
370
-2
48
1
60
0
100
AcDbLine
10
0
20
0
30
0
11
-1
21
-0.166667
31
0
39
0
210
0
220
0
230
1
0
LINE
5
2C8
100
AcDbEntity
8
0
62
256
6
ByLayer
370
-2
48
1
60
0
100
AcDbLine
10
-1
20
0.166667
30
0
11
-1
21
-0.166667
31
0
39
0
210
0
220
0
230
1
0
LINE
5
2C9
100
AcDbEntity
8
0
62
256
6
ByLayer
370
-2
48
1
60
0
100
AcDbLine
10
0
20
0
30
0
11
-1
21
0
31
0
39
0
210
0
220
0
230
1
0
ENDBLK
5
2C5
100
AcDbEntity
8
0
100
AcDbBlockEnd
0
BLOCK
5
2D5
100
AcDbEntity
8
0
100
AcDbBlockBegin
2
DimnDraft3D2
70
0
10
0
20
0
30
0
3
DimnDraft3D2
0
MTEXT
5
2CB
100
AcDbEntity
8
2
62
256
6
ByLayer
370
-1
48
1
60
0
100
AcDbMText
10
142.416323
20
37.75
30
0
210
0
220
0
230
1
1
\W01.000;\fsimplex.shx,bigfont.shx;32 
40
4.5
41
0
44
1.084337
50
0
71
7
72
5
7
DEFAULT
0
LINE
5
2CC
100
AcDbEntity
8
2
62
256
6
ByLayer
370
-1
48
1
60
0
100
AcDbLine
10
159.914
20
28.375
30
0
11
159.914
21
39.625
31
0
39
0
210
0
220
0
230
1
0
LINE
5
2CD
100
AcDbEntity
8
2
62
256
6
ByLayer
370
-1
48
1
60
0
100
AcDbLine
10
127.92654
20
28.375
30
0
11
127.92654
21
39.625
31
0
39
0
210
0
220
0
230
1
0
LINE
5
2CE
100
AcDbEntity
8
2
62
256
6
ByLayer
370
-1
48
1
60
0
100
AcDbLine
10
159.914
20
36.625
30
0
11
127.92654
21
36.625
31
0
39
0
210
0
220
0
230
1
0
LINE
5
2CF
100
AcDbEntity
8
2
62
256
6
ByLayer
370
-1
48
1
60
0
100
AcDbLine
10
159.914
20
36.625
30
0
11
156.914001
21
36.230043
31
0
39
0
210
0
220
0
230
1
0
LINE
5
2D0
100
AcDbEntity
8
2
62
256
6
ByLayer
370
-1
48
1
60
0
100
AcDbLine
10
159.914
20
36.625
30
0
11
156.913999
21
37.019957
31
0
39
0
210
0
220
0
230
1
0
LINE
5
2D1
100
AcDbEntity
8
2
62
256
6
ByLayer
370
-1
48
1
60
0
100
AcDbLine
10
156.914001
20
36.230043
30
0
11
156.913999
21
37.019957
31
0
39
0
210
0
220
0
230
1
0
LINE
5
2D2
100
AcDbEntity
8
2
62
256
6
ByLayer
370
-1
48
1
60
0
100
AcDbLine
10
127.92654
20
36.625
30
0
11
130.926539
21
37.019957
31
0
39
0
210
0
220
0
230
1
0
LINE
5
2D3
100
AcDbEntity
8
2
62
256
6
ByLayer
370
-1
48
1
60
0
100
AcDbLine
10
127.92654
20
36.625
30
0
11
130.926542
21
36.230043
31
0
39
0
210
0
220
0
230
1
0
LINE
5
2D4
100
AcDbEntity
8
2
62
256
6
ByLayer
370
-1
48
1
60
0
100
AcDbLine
10
130.926539
20
37.019957
30
0
11
130.926542
21
36.230043
31
0
39
0
210
0
220
0
230
1
0
ENDBLK
5
2D6
100
AcDbEntity
8
0
100
AcDbBlockEnd
0
BLOCK
5
2E3
100
AcDbEntity
8
0
100
AcDbBlockBegin
2
DimnDraft3D3
70
0
10
0
20
0
30
0
3
DimnDraft3D3
0
MTEXT
5
2D9
100
AcDbEntity
8
SK2
62
256
6
ByLayer
370
-1
48
1
60
0
100
AcDbMText
10
6.695579
20
47.75
30
0
210
0
220
0
230
1
1
\W01.000;\fsimplex.shx,bigfont.shx;301 
40
4.5
41
0
44
1.084337
50
0
71
7
72
5
7
DEFAULT
0
LINE
5
2DA
100
AcDbEntity
8
SK2
62
256
6
ByLayer
370
-1
48
1
60
0
100
AcDbLine
10
159.914
20
28.375
30
0
11
159.914
21
49.625
31
0
39
0
210
0
220
0
230
1
0
LINE
5
2DB
100
AcDbEntity
8
SK2
62
256
6
ByLayer
370
-1
48
1
60
0
100
AcDbLine
10
-141.336
20
1.5
30
0
11
-141.336
21
49.625
31
0
39
0
210
0
220
0
230
1
0
LINE
5
2DC
100
AcDbEntity
8
SK2
62
256
6
ByLayer
370
-1
48
1
60
0
100
AcDbLine
10
159.914
20
46.625
30
0
11
-141.336
21
46.625
31
0
39
0
210
0
220
0
230
1
0
LINE
5
2DD
100
AcDbEntity
8
SK2
62
256
6
ByLayer
370
-1
48
1
60
0
100
AcDbLine
10
159.914
20
46.625
30
0
11
156.914001
21
46.230043
31
0
39
0
210
0
220
0
230
1
0
LINE
5
2DE
100
AcDbEntity
8
SK2
62
256
6
ByLayer
370
-1
48
1
60
0
100
AcDbLine
10
159.914
20
46.625
30
0
11
156.913999
21
47.019957
31
0
39
0
210
0
220
0
230
1
0
LINE
5
2DF
100
AcDbEntity
8
SK2
62
256
6
ByLayer
370
-1
48
1
60
0
100
AcDbLine
10
156.914001
20
46.230043
30
0
11
156.913999
21
47.019957
31
0
39
0
210
0
220
0
230
1
0
LINE
5
2E0
100
AcDbEntity
8
SK2
62
256
6
ByLayer
370
-1
48
1
60
0
100
AcDbLine
10
-141.336
20
46.625
30
0
11
-138.336001
21
47.019957
31
0
39
0
210
0
220
0
230
1
0
LINE
5
2E1
100
AcDbEntity
8
SK2
62
256
6
ByLayer
370
-1
48
1
60
0
100
AcDbLine
10
-141.336
20
46.625
30
0
11
-138.335999
21
46.230043
31
0
39
0
210
0
220
0
230
1
0
LINE
5
2E2
100
AcDbEntity
8
SK2
62
256
6
ByLayer
370
-1
48
1
60
0
100
AcDbLine
10
-138.336001
20
47.019957
30
0
11
-138.335999
21
46.230043
31
0
39
0
210
0
220
0
230
1
0
ENDBLK
5
2E4
100
AcDbEntity
8
0
100
AcDbBlockEnd
0
ENDSEC
0
SECTION
2
ENTITIES
0
ARC
5
175
100
AcDbEntity
8
1
62
256
6
ByLayer
370
-1
48
1
60
0
100
AcDbCircle
39
0
10
-140.827784
20
-20.475
30
0
40
0.8
210
0
220
0
230
-1
100
AcDbArc
50
90
51
114.668452
0
ARC
5
176
100
AcDbEntity
8
1
62
256
6
ByLayer
370
-1
48
1
60
0
100
AcDbCircle
39
0
10
-140.827784
20
20.475
30
0
40
0.8
210
0
220
0
230
-1
100
AcDbArc
50
220
51
270
0
ARC
5
177
100
AcDbEntity
8
1
62
256
6
ByLayer
370
-1
48
1
60
0
100
AcDbCircle
39
0
10
-128.140899
20
-20.475
30
0
40
0.799999999999999
210
0
220
0
230
-1
100
AcDbArc
50
60
51
90
0
ELLIPSE
5
178
100
AcDbEntity
8
1
62
256
6
ByLayer
370
-1
48
1
60
0
100
AcDbEllipse
10
146.958877
20
18.530904
30
0
11
-1.64651197074806
21
0.107256010922702
31
0
210
0
220
0
230
1
40
0.965788
41
-1.49804507945689
42
1.50863681175303
0
ELLIPSE
5
179
100
AcDbEntity
8
1
62
256
6
ByLayer
370
-1
48
1
60
0
100
AcDbEllipse
10
148.077952
20
16.916499
30
0
11
-2.11145701959822
21
0.149191788242336
31
0
210
0
220
0
230
1
40
0.965764
41
-1.11762307732646
42
-0.627728021228494
0
ELLIPSE
5
17A
100
AcDbEntity
8
1
62
256
6
ByLayer
370
-1
48
1
60
0
100
AcDbEllipse
10
148.122384
20
17.545324
30
0
11
-1.99502603335154
21
0.140964982352502
31
0
210
0
220
0
230
1
40
0.965764
41
-1.26020625214124
42
-0.699701739960476
0
ELLIPSE
5
17B
100
AcDbEntity
8
1
62
256
6
ByLayer
370
-1
48
1
60
0
100
AcDbEllipse
10
161.684592
20
0
30
0
11
-23.531982998035
21
16.8726450103143
31
0
210
0
220
0
230
1
40
0.430064
41
-0.261438220700254
42
0.683176489415072
0
ELLIPSE
5
17C
100
AcDbEntity
8
1
62
256
6
ByLayer
370
-1
48
1
60
0
100
AcDbEllipse
10
158.008833
20
12.17362
30
0
11
-2.65443259510357
21
1.2985555209237
31
0
210
0
220
0
230
1
40
0.133258
41
0.880930523944787
42
1.16354352584661
0
ELLIPSE
5
17D
100
AcDbEntity
8
1
62
256
6
ByLayer
370
-1
48
1
60
0
100
AcDbEllipse
10
147.658664
20
18.286369
30
0
11
-1.6530621775235
21
0.107682693204243
31
0
210
0
220
0
230
1
40
0.965788
41
1.05525226571682
42
2.1911554479347
0
ELLIPSE
5
17E
100
AcDbEntity
8
1
62
256
6
ByLayer
370
-1
48
1
60
0
100
AcDbEllipse
10
146.828161
20
16.680933
30
0
11
1.64589647751498
21
-0.116296110440813
31
0
210
0
220
0
230
1
40
0.965764
41
1.38386088998144
42
1.86794914054521
0
ELLIPSE
5
17F
100
AcDbEntity
8
1
62
256
6
ByLayer
370
-1
48
1
60
0
100
AcDbEllipse
10
144.187966
20
15.301166
30
0
11
-1.54305676589195
21
1.35040345545434
31
0
210
0
220
0
230
1
40
0.694577
41
-0.864762688453757
42
3.13074481302532
0
ELLIPSE
5
180
100
AcDbEntity
8
1
62
256
6
ByLayer
370
-1
48
1
60
0
100
AcDbEllipse
10
151.947669
20
15.583049
30
0
11
-2.65443259363944
21
1.29855552044526
31
0
210
0
220
0
230
1
40
0.133258
41
1.16354352637901
42
1.44615652835977
0
ELLIPSE
5
181
100
AcDbEntity
8
1
62
256
6
ByLayer
370
-1
48
1
60
0
100
AcDbEllipse
10
146.872593
20
17.309758
30
0
11
1.64589647751498
21
-0.116296110440813
31
0
210
0
220
0
230
1
40
0.965764
41
1.75362471590316
42
2.07470006325495
0
ELLIPSE
5
182
100
AcDbEntity
8
1
62
256
6
ByLayer
370
-1
48
1
60
0
100
AcDbEllipse
10
147.138372
20
21.063528
30
0
11
-2.24698408154998
21
-9.02610142629499
31
0
210
0
220
0
230
1
40
0.042003
41
-1.31698767066444
42
-1.30205024629803
0
ELLIPSE
5
183
100
AcDbEntity
8
1
62
256
6
ByLayer
370
-1
48
1
60
0
100
AcDbEllipse
10
147.505913
20
26.272908
30
0
11
-1.63784993025207
21
-7.54195098133725
31
0
210
0
220
0
230
1
40
0.160744
41
0.242557715297965
42
0.653463958126337
0
ELLIPSE
5
184
100
AcDbEntity
8
1
62
256
6
ByLayer
370
-1
48
1
60
0
100
AcDbEllipse
10
161.684587
20
-3E-06
30
0
11
-23.5439372768872
21
16.8812177869553
31
0
210
0
220
0
230
1
40
0.430064
41
1.37926854153258
42
1.41115355916177
0
ELLIPSE
5
185
100
AcDbEntity
8
1
62
256
6
ByLayer
370
-1
48
1
60
0
100
AcDbEllipse
10
146.826332
20
16.655055
30
0
11
-1.64589647751501
21
0.116296110440814
31
0
210
0
220
0
230
1
40
0.965764
41
-1.50266254663832
42
-0.630870483031658
0
ELLIPSE
5
186
100
AcDbEntity
8
1
62
256
6
ByLayer
370
-1
48
1
60
0
100
AcDbEllipse
10
146.826332
20
16.655055
30
0
11
-1.64589647751501
21
0.116296110440814
31
0
210
0
220
0
230
1
40
0.965764
41
-1.75781897900742
42
-1.50266254663832
0
ELLIPSE
5
187
100
AcDbEntity
8
1
62
256
6
ByLayer
370
-1
48
1
60
0
100
AcDbEllipse
10
156.656971
20
12.932986
30
0
11
0.176329317764095
21
-0.267035525158824
31
0
210
0
220
0
230
1
40
0.03732
41
-2.29821777815279
42
-1.12825396992068
0
ELLIPSE
5
188
100
AcDbEntity
8
1
62
256
6
ByLayer
370
-1
48
1
60
0
100
AcDbEllipse
10
152.26828
20
22.641417
30
0
11
-0.143517613738027
21
-0.0843322544681277
31
0
210
0
220
0
230
1
40
0.195042
41
-2.40799874316454
42
-1.70241255362427
0
ELLIPSE
5
189
100
AcDbEntity
8
1
62
256
6
ByLayer
370
-1
48
1
60
0
100
AcDbEllipse
10
158.456053
20
12.867053
30
0
11
0.12698921213856
21
0.3045878198491
31
0
210
0
220
0
230
1
40
0.517188
41
-2.14635572770716
42
-1.54493633139608
0
ELLIPSE
5
18A
100
AcDbEntity
8
1
62
256
6
ByLayer
370
-1
48
1
60
0
100
AcDbEllipse
10
158.722867
20
23.854076
30
0
11
-0.8229024782813
21
-0.504346294686833
31
0
210
0
220
0
230
1
40
0.3419
41
2.31465636022272
42
3.13110594625844
0
ELLIPSE
5
18B
100
AcDbEntity
8
1
62
256
6
ByLayer
370
-1
48
1
60
0
100
AcDbEllipse
10
157.855358
20
12.825287
30
0
11
0.329092877421674
21
-0.024451544538597
31
0
210
0
220
0
230
1
40
0.673036
41
-2.14481203860299
42
-1.32836245256558
0
ELLIPSE
5
18C
100
AcDbEntity
8
1
62
256
6
ByLayer
370
-1
48
1
60
0
100
AcDbEllipse
10
148.085429
20
19.207093
30
0
11
0.126714333577775
21
-0.304702277093461
31
0
210
0
220
0
230
1
40
0.542683
41
-1.61141908984985
42
-1.00999969353895
0
ELLIPSE
5
18D
100
AcDbEntity
8
1
62
256
6
ByLayer
370
-1
48
1
60
0
100
AcDbEllipse
10
148.374449
20
19.675195
30
0
11
0.16664678834278
21
0.284831262215082
31
0
210
0
220
0
230
1
40
0.020796
41
1.15004999605497
42
2.03107132205939
0
ELLIPSE
5
18E
100
AcDbEntity
8
1
62
256
6
ByLayer
370
-1
48
1
60
0
100
AcDbEllipse
10
158.915783
20
25.485321
30
0
11
-0.000396770178202648
21
-0.0911034398296565
31
0
210
0
220
0
230
1
40
0.965798
41
2.10952713562796
42
3.14158434315208
0
ELLIPSE
5
18F
100
AcDbEntity
8
1
62
256
6
ByLayer
370
-1
48
1
60
0
100
AcDbEllipse
10
148.085429
20
19.207093
30
0
11
-0.0259338634078545
21
-0.328979383440274
31
0
210
0
220
0
230
1
40
0.228524
41
-1.16829399898082
42
-0.819228148581576
0
ELLIPSE
5
190
100
AcDbEntity
8
1
62
256
6
ByLayer
370
-1
48
1
60
0
100
AcDbEllipse
10
153.609307
20
23.383532
30
0
11
-0.128945792977385
21
-0.0768529686868546
31
0
210
0
220
0
230
1
40
0.215846
41
-1.71819106643066
42
-1.00566648804001
0
ELLIPSE
5
191
100
AcDbEntity
8
1
62
256
6
ByLayer
370
-1
48
1
60
0
100
AcDbEllipse
10
159.950153
20
15.5999
30
0
11
-0.140714192131958
21
-0.239169975422039
31
0
210
0
220
0
230
1
40
0.063581
41
-1.18041021552636
42
-0.75383509812275
0
ELLIPSE
5
192
100
AcDbEntity
8
1
62
256
6
ByLayer
370
-1
48
1
60
0
100
AcDbEllipse
10
159.678296
20
23.030832
30
0
11
0.150248298123996
21
0.282533978329763
31
0
210
0
220
0
230
1
40
0.014394
41
1.57841055121128
42
2.74837435945028
0
ELLIPSE
5
193
100
AcDbEntity
8
1
62
256
6
ByLayer
370
-1
48
1
60
0
100
AcDbEllipse
10
148.822088
20
19.305221
30
0
11
-0.832437249546385
21
0.488229794595225
31
0
210
0
220
0
230
1
40
0.306363
41
-0.823404481090269
42
-0.00695489505229823
0
ELLIPSE
5
194
100
AcDbEntity
8
1
62
256
6
ByLayer
370
-1
48
1
60
0
100
AcDbEllipse
10
153.224641
20
16.194153
30
0
11
0.0357259918071717
21
0.145683401626245
31
0
210
0
220
0
230
1
40
0.046814
41
1.31258632272045
42
1.48711924791868
0
ELLIPSE
5
195
100
AcDbEntity
8
1
62
256
6
ByLayer
370
-1
48
1
60
0
100
AcDbEllipse
10
158.744764
20
18.083706
30
0
11
-0.143814300897888
21
-0.0426315242191954
31
0
210
0
220
0
230
1
40
0.244304
41
-1.83516128982934
42
-1.66062836463021
0
ELLIPSE
5
196
100
AcDbEntity
8
1
62
256
6
ByLayer
370
-1
48
1
60
0
100
AcDbEllipse
10
158.907134
20
23.967173
30
0
11
-4.67600826818841E-17
21
-0.254558441227155
31
0
210
0
220
0
230
1
40
0.999867
41
-0.558493593836802
42
0.549766437173582
0
ELLIPSE
5
197
100
AcDbEntity
8
1
62
256
6
ByLayer
370
-1
48
1
60
0
100
AcDbEllipse
10
156.607385
20
12.709883
30
0
11
-0.289207305694784
21
0.169862172402503
31
0
210
0
220
0
230
1
40
0.223196
41
1.65552978435568
42
1.93117354619575
0
ELLIPSE
5
198
100
AcDbEntity
8
1
62
256
6
ByLayer
370
-1
48
1
60
0
100
AcDbEllipse
10
159.035918
20
12.780744
30
0
11
-0.179619284128352
21
0.0117009730030582
31
0
210
0
220
0
230
1
40
0.965789
41
2.39034587768778
42
2.68082561138887
0
ELLIPSE
5
199
100
AcDbEntity
8
1
62
256
6
ByLayer
370
-1
48
1
60
0
100
AcDbEllipse
10
159.678296
20
23.030832
30
0
11
-0.175677408214786
21
-0.267464854220018
31
0
210
0
220
0
230
1
40
0.203761
41
0.402079994214829
42
1.39268532020151
0
ELLIPSE
5
19A
100
AcDbEntity
8
1
62
256
6
ByLayer
370
-1
48
1
60
0
100
AcDbEllipse
10
159.401527
20
17.952518
30
0
11
0.00498680642490331
21
-0.149917082954814
31
0
210
0
220
0
230
1
40
0.026344
41
1.8318294026782
42
2.54435398120155
0
ELLIPSE
5
19B
100
AcDbEntity
8
1
62
256
6
ByLayer
370
-1
48
1
60
0
100
AcDbEllipse
10
158.600929
20
24.158532
30
0
11
-4.67600826818841E-17
21
-0.254558441227155
31
0
210
0
220
0
230
1
40
0.999867
41
-0.863312072454284
42
-0.558493593836802
0
ELLIPSE
5
19C
100
AcDbEntity
8
1
62
256
6
ByLayer
370
-1
48
1
60
0
100
AcDbEllipse
10
159.103814
20
11.44743
30
0
11
-0.0878138722405277
21
0.005720475690384
31
0
210
0
220
0
230
1
40
0.965789
41
2.68082561138826
42
-3.14157919444877
0
ELLIPSE
5
19D
100
AcDbEntity
8
1
62
256
6
ByLayer
370
-1
48
1
60
0
100
AcDbEllipse
10
159.170343
20
12.468693
30
0
11
-0.08426091645534
21
-0.0290942335015396
31
0
210
0
220
0
230
1
40
0.911082
41
2.31546043502725
42
-2.93566766450786
0
ELLIPSE
5
19E
100
AcDbEntity
8
1
62
256
6
ByLayer
370
-1
48
1
60
0
100
AcDbEllipse
10
155.154537
20
18.964191
30
0
11
3.07390048262849
21
-0.200243680604029
31
0
210
0
220
0
230
1
40
0.965789
41
0
42
6.28318530717959
0
ELLIPSE
5
19F
100
AcDbEntity
8
1
62
256
6
ByLayer
370
-1
48
1
60
0
100
AcDbEllipse
10
159.678296
20
23.030832
30
0
11
-0.10116185539045
21
0.303588996859178
31
0
210
0
220
0
230
1
40
0.015437
41
1.56561488893612
42
1.84125864988463
0
ELLIPSE
5
1A0
100
AcDbEntity
8
1
62
256
6
ByLayer
370
-1
48
1
60
0
100
AcDbEllipse
10
157.855358
20
12.825287
30
0
11
-0.329941928492634
21
-0.0061906237619339
31
0
210
0
220
0
230
1
40
0.387666
41
0.891887709618339
42
1.77290903562744
0
ELLIPSE
5
1A1
100
AcDbEntity
8
1
62
256
6
ByLayer
370
-1
48
1
60
0
100
AcDbEllipse
10
159.090381
20
23.852472
30
0
11
-0.818470076664434
21
0.511508916894336
31
0
210
0
220
0
230
1
40
0.341899
41
0.0104869071733885
42
0.826936493205313
0
ELLIPSE
5
1A2
100
AcDbEntity
8
1
62
256
6
ByLayer
370
-1
48
1
60
0
100
AcDbEllipse
10
149.287711
20
17.448863
30
0
11
-0.352030382653683
21
0.578101923384251
31
0
210
0
220
0
230
1
40
0.071322
41
1.74625735212407
42
2.60919099822909
0
ELLIPSE
5
1A3
100
AcDbEntity
8
1
62
256
6
ByLayer
370
-1
48
1
60
0
100
AcDbEllipse
10
156.724296
20
24.601735
30
0
11
-0.704940313652861
21
0.0225354790922073
31
0
210
0
220
0
230
1
40
0.11846
41
0.629741133710181
42
1.4926747796714
0
ELLIPSE
5
1A4
100
AcDbEntity
8
1
62
256
6
ByLayer
370
-1
48
1
60
0
100
AcDbEllipse
10
158.571629
20
18.667764
30
0
11
-0.143814300897888
21
-0.0426315242191954
31
0
210
0
220
0
230
1
40
0.244304
41
-1.83516128983012
42
-1.66062836463059
0
ELLIPSE
5
1A5
100
AcDbEntity
8
1
62
256
6
ByLayer
370
-1
48
1
60
0
100
AcDbEllipse
10
159.218402
20
24.155669
30
0
11
-0.171567193481945
21
0.281894835214711
31
0
210
0
220
0
230
1
40
0.328804
41
-2.38864574650029
42
-1.57219616046253
0
ELLIPSE
5
1A6
100
AcDbEntity
8
1
62
256
6
ByLayer
370
-1
48
1
60
0
100
AcDbEllipse
10
159.908457
20
22.879656
30
0
11
-0.000910734193135995
21
-0.382239909112703
31
0
210
0
220
0
230
1
40
0.013965
41
-1.40181009900301
42
-0.411204772644786
0
ELLIPSE
5
1A7
100
AcDbEntity
8
1
62
256
6
ByLayer
370
-1
48
1
60
0
100
AcDbEllipse
10
148.344314
20
18.336951
30
0
11
-0.12014803704464
21
0.0531314302026685
31
0
210
0
220
0
230
1
40
0.908072
41
3.10576497484689
42
-2.23387201378087
0
ELLIPSE
5
1A8
100
AcDbEntity
8
1
62
256
6
ByLayer
370
-1
48
1
60
0
100
AcDbEllipse
10
148.681483
20
19.160105
30
0
11
-0.0259338634078545
21
-0.328979383440274
31
0
210
0
220
0
230
1
40
0.228524
41
-1.1682939989811
42
-0.819228148582149
0
ELLIPSE
5
1A9
100
AcDbEntity
8
1
62
256
6
ByLayer
370
-1
48
1
60
0
100
AcDbEllipse
10
149.939785
20
16.862471
30
0
11
0.249471227956045
21
-0.0162513513931358
31
0
210
0
220
0
230
1
40
0.965789
41
-2.12769914672014
42
-2.03156336899605
0
ELLIPSE
5
1AA
100
AcDbEntity
8
1
62
256
6
ByLayer
370
-1
48
1
60
0
100
AcDbEllipse
10
159.072013
20
19.073601
30
0
11
0.0633059060388946
21
-0.135986625300412
31
0
210
0
220
0
230
1
40
0.127852
41
1.09471097891094
42
1.80029716860936
0
ELLIPSE
5
1AB
100
AcDbEntity
8
1
62
256
6
ByLayer
370
-1
48
1
60
0
100
AcDbEllipse
10
158.913689
20
24.688877
30
0
11
-0.285075263893947
21
0.166229040530819
31
0
210
0
220
0
230
1
40
0.008173
41
1.20764539343952
42
1.55671124383627
0
ELLIPSE
5
1AC
100
AcDbEntity
8
1
62
256
6
ByLayer
370
-1
48
1
60
0
100
AcDbEllipse
10
159.666396
20
15.643896
30
0
11
0.249471227956045
21
-0.0162513513931358
31
0
210
0
220
0
230
1
40
0.965789
41
-0.0333040443269662
42
0.0628317333973113
0
ELLIPSE
5
1AD
100
AcDbEntity
8
1
62
256
6
ByLayer
370
-1
48
1
60
0
100
AcDbEllipse
10
159.214996
20
24.155852
30
0
11
-4.67600826818841E-17
21
-0.254558441227155
31
0
210
0
220
0
230
1
40
0.999867
41
0.549766437173582
42
0.854585258752993
0
ELLIPSE
5
1AE
100
AcDbEntity
8
1
62
256
6
ByLayer
370
-1
48
1
60
0
100
AcDbEllipse
10
159.423494
20
14.291528
30
0
11
-0.17235187462704
21
-0.0595109321144802
31
0
210
0
220
0
230
1
40
0.911082
41
2.31546043544735
42
-3.02417655315637
0
ELLIPSE
5
1AF
100
AcDbEntity
8
1
62
256
6
ByLayer
370
-1
48
1
60
0
100
AcDbEllipse
10
159.099064
20
13.750084
30
0
11
-0.172351874622575
21
-0.0595109321127064
31
0
210
0
220
0
230
1
40
0.911082
41
1.37191211683727
42
2.3154604354072
0
ELLIPSE
5
1B0
100
AcDbEntity
8
1
62
256
6
ByLayer
370
-1
48
1
60
0
100
AcDbEllipse
10
159.218402
20
24.155669
30
0
11
0.172437766515794
21
-0.281363140228148
31
0
210
0
220
0
230
1
40
0.013865
41
-1.57933547052236
42
-0.698314144520176
0
ELLIPSE
5
1B1
100
AcDbEntity
8
1
62
256
6
ByLayer
370
-1
48
1
60
0
100
AcDbEllipse
10
159.063569
20
13.454334
30
0
11
-0.124476353902661
21
-0.0429801176263616
31
0
210
0
220
0
230
1
40
0.911082
41
-1.76968053663889
42
-0.826132218102404
0
ELLIPSE
5
1B2
100
AcDbEntity
8
1
62
256
6
ByLayer
370
-1
48
1
60
0
100
AcDbEllipse
10
158.910539
20
23.966991
30
0
11
-0.174886668864502
21
-0.279847553238327
31
0
210
0
220
0
230
1
40
0.013828
41
-1.56219675959266
42
-0.681175433576268
0
ELLIPSE
5
1B3
100
AcDbEntity
8
1
62
256
6
ByLayer
370
-1
48
1
60
0
100
AcDbEllipse
10
159.218402
20
24.155669
30
0
11
0.28651500664999
21
0.163735002257783
31
0
210
0
220
0
230
1
40
0.008111
41
1.23585108313654
42
1.58491693353005
0
ELLIPSE
5
1B4
100
AcDbEntity
8
1
62
256
6
ByLayer
370
-1
48
1
60
0
100
AcDbEllipse
10
159.59711
20
14.580301
30
0
11
0.249471227956045
21
-0.0162513513931358
31
0
210
0
220
0
230
1
40
0.965789
41
-0.460767042201012
42
-1.31917300104157E-06
0
ELLIPSE
5
1B5
100
AcDbEntity
8
1
62
256
6
ByLayer
370
-1
48
1
60
0
100
AcDbEllipse
10
158.604335
20
24.158349
30
0
11
0.174886668864502
21
0.279847553238327
31
0
210
0
220
0
230
1
40
0.013828
41
1.57939589399713
42
2.46041722001353
0
ELLIPSE
5
1B6
100
AcDbEntity
8
1
62
256
6
ByLayer
370
-1
48
1
60
0
100
AcDbEllipse
10
158.913689
20
24.688877
30
0
11
0.28651500664999
21
0.163735002257783
31
0
210
0
220
0
230
1
40
0.008111
41
1.23585108313646
42
1.58491693353013
0
ELLIPSE
5
1B7
100
AcDbEntity
8
1
62
256
6
ByLayer
370
-1
48
1
60
0
100
AcDbEllipse
10
154.096088
20
22.348803
30
0
11
0.105854520827005
21
-0.10627709264223
31
0
210
0
220
0
230
1
40
0.19749
41
1.7431019433023
42
1.9176348685019
0
ELLIPSE
5
1B8
100
AcDbEntity
8
1
62
256
6
ByLayer
370
-1
48
1
60
0
100
AcDbEllipse
10
157.430326
20
12.495358
30
0
11
-0.239377603603428
21
-0.0826540726479939
31
0
210
0
220
0
230
1
40
0.911082
41
0.74466410762185
42
1.28340322675227
0
ELLIPSE
5
1B9
100
AcDbEntity
8
1
62
256
6
ByLayer
370
-1
48
1
60
0
100
AcDbEllipse
10
153.659755
20
21.914205
30
0
11
0.105854520827005
21
-0.10627709264223
31
0
210
0
220
0
230
1
40
0.19749
41
1.74310194330135
42
1.9176348685015
0
ELLIPSE
5
1BA
100
AcDbEntity
8
1
62
256
6
ByLayer
370
-1
48
1
60
0
100
AcDbEllipse
10
148.222316
20
18.541619
30
0
11
-0.120148037017202
21
0.0531314302298142
31
0
210
0
220
0
230
1
40
0.908072
41
-2.23387201346865
42
-1.20181480591511
0
ELLIPSE
5
1BB
100
AcDbEntity
8
1
62
256
6
ByLayer
370
-1
48
1
60
0
100
AcDbEllipse
10
158.913689
20
24.688877
30
0
11
-0.329991143274647
21
0.0024177179924788
31
0
210
0
220
0
230
1
40
0.178986
41
-1.85495451927009
42
-1.25353512295914
0
ELLIPSE
5
1BC
100
AcDbEntity
8
1
62
256
6
ByLayer
370
-1
48
1
60
0
100
AcDbEllipse
10
147.304722
20
17.793703
30
0
11
-0.0878138722405248
21
0.00572047569038381
31
0
210
0
220
0
230
1
40
0.965789
41
1.16283421268237E-05
42
0.586430508995357
0
ELLIPSE
5
1BD
100
AcDbEntity
8
1
62
256
6
ByLayer
370
-1
48
1
60
0
100
AcDbEllipse
10
153.340218
20
15.570999
30
0
11
-0.149596176921153
21
0.0109992659107379
31
0
210
0
220
0
230
1
40
0.259322
41
-1.56863274343734
42
-0.863046553738152
0
ELLIPSE
5
1BE
100
AcDbEntity
8
1
62
256
6
ByLayer
370
-1
48
1
60
0
100
AcDbEllipse
10
158.604335
20
24.158349
30
0
11
-0.285075263893947
21
0.166229040530819
31
0
210
0
220
0
230
1
40
0.008173
41
1.20764539343583
42
1.55671124383584
0
ELLIPSE
5
1BF
100
AcDbEntity
8
1
62
256
6
ByLayer
370
-1
48
1
60
0
100
AcDbEllipse
10
159.656559
20
23.859672
30
0
11
-0.00112718678647908
21
-0.258816590249838
31
0
210
0
220
0
230
1
40
0.965798
41
1.57078801150686
42
2.10952713106957
0
ELLIPSE
5
1C0
100
AcDbEntity
8
1
62
256
6
ByLayer
370
-1
48
1
60
0
100
AcDbEllipse
10
153.273913
20
14.669211
30
0
11
-0.143360189641825
21
0.0848352939969604
31
0
210
0
220
0
230
1
40
0.209444
41
-1.46498982501852
42
-0.759403634702148
0
ELLIPSE
5
1C1
100
AcDbEntity
8
1
62
256
6
ByLayer
370
-1
48
1
60
0
100
AcDbEllipse
10
159.360349
20
13.322189
30
0
11
-0.179619284128352
21
0.0117009730030582
31
0
210
0
220
0
230
1
40
0.965789
41
2.68082561138863
42
-3.1415815476831
0
ELLIPSE
5
1C2
100
AcDbEntity
8
1
62
256
6
ByLayer
370
-1
48
1
60
0
100
AcDbEllipse
10
158.604335
20
24.158349
30
0
11
-0.175765810909976
21
-0.279296222164136
31
0
210
0
220
0
230
1
40
0.354829
41
-1.55115824838676
42
-0.734708662349524
0
ELLIPSE
5
1C3
100
AcDbEntity
8
1
62
256
6
ByLayer
370
-1
48
1
60
0
100
AcDbEllipse
10
148.635586
20
19.414338
30
0
11
0.2141354348121
21
-0.137644526072896
31
0
210
0
220
0
230
1
40
0.895737
41
0.509329721976623
42
1.61758975637636
0
ELLIPSE
5
1C4
100
AcDbEntity
8
1
62
256
6
ByLayer
370
-1
48
1
60
0
100
AcDbEllipse
10
158.941571
20
13.250731
30
0
11
-0.124476353878329
21
-0.0429801176529763
31
0
210
0
220
0
230
1
40
0.911082
41
-0.826132218325707
42
0.205924989252308
0
ELLIPSE
5
1C5
100
AcDbEntity
8
1
62
256
6
ByLayer
370
-1
48
1
60
0
100
AcDbEllipse
10
157.74729
20
24.715167
30
0
11
-0.000811575233845776
21
-0.186347945087665
31
0
210
0
220
0
230
1
40
0.965798
41
2.19803602384633
42
3.14158434247691
0
ELLIPSE
5
1C6
100
AcDbEntity
8
1
62
256
6
ByLayer
370
-1
48
1
60
0
100
AcDbEllipse
10
152.171758
20
15.860238
30
0
11
-0.131634364356025
21
0.0719193584550442
31
0
210
0
220
0
230
1
40
0.236597
41
-2.17381970518059
42
-1.46129512665421
0
ELLIPSE
5
1C7
100
AcDbEntity
8
1
62
256
6
ByLayer
370
-1
48
1
60
0
100
AcDbEllipse
10
159.913831
20
22.036648
30
0
11
-0.000560354035409233
21
-0.175204025192909
31
0
210
0
220
0
230
1
40
0.014074
41
1.79425022000101
42
2.7367280174435
0
ELLIPSE
5
1C8
100
AcDbEntity
8
1
62
256
6
ByLayer
370
-1
48
1
60
0
100
AcDbEllipse
10
149.790591
20
16.586741
30
0
11
-0.140264069326465
21
0.240302573749539
31
0
210
0
220
0
230
1
40
0.078706
41
-0.938728403461351
42
-0.512153287233925
0
ELLIPSE
5
1C9
100
AcDbEntity
8
1
62
256
6
ByLayer
370
-1
48
1
60
0
100
AcDbEllipse
10
158.910539
20
23.966991
30
0
11
-0.172437766515794
21
0.281363140228148
31
0
210
0
220
0
230
1
40
0.013865
41
1.56225718306726
42
2.44327850906962
0
ELLIPSE
5
1CA
100
AcDbEntity
8
1
62
256
6
ByLayer
370
-1
48
1
60
0
100
AcDbEllipse
10
148.923267
20
17.600279
30
0
11
-0.166358820478138
21
0.0735665957060671
31
0
210
0
220
0
230
1
40
0.908072
41
0.907720640135218
42
1.85126895876843
0
ELLIPSE
5
1CB
100
AcDbEntity
8
1
62
256
6
ByLayer
370
-1
48
1
60
0
100
AcDbEllipse
10
148.158599
20
17.56351
30
0
11
0.129725038537143
21
-0.00845070272443057
31
0
210
0
220
0
230
1
40
0.965789
41
0.586430508995304
42
1.61848771655623
0
ELLIPSE
5
1CC
100
AcDbEntity
8
1
62
256
6
ByLayer
370
-1
48
1
60
0
100
AcDbEllipse
10
148.638331
20
19.613498
30
0
11
-0.000207326157391355
21
0.8901575247017
31
0
210
0
220
0
230
1
40
0.360082
41
3.11313022187878
42
-2.35360549926775
0
ELLIPSE
5
1CD
100
AcDbEntity
8
1
62
256
6
ByLayer
370
-1
48
1
60
0
100
AcDbEllipse
10
157.855358
20
12.825287
30
0
11
0.0228891020462328
21
-0.329205238426604
31
0
210
0
220
0
230
1
40
0.196789
41
0.82169369962865
42
1.17075955002695
0
ELLIPSE
5
1CE
100
AcDbEntity
8
1
62
256
6
ByLayer
370
-1
48
1
60
0
100
AcDbEllipse
10
152.615173
20
16.343613
30
0
11
0.0357259918071717
21
0.145683401626245
31
0
210
0
220
0
230
1
40
0.046814
41
1.31258632271671
42
1.48711924791712
0
ELLIPSE
5
1CF
100
AcDbEntity
8
1
62
256
6
ByLayer
370
-1
48
1
60
0
100
AcDbEllipse
10
155.133312
20
18.638373
30
0
11
-2.91486949082829
21
0.189883894622627
31
0
210
0
220
0
230
1
40
0.965789
41
-0.591306881925011
42
0
0
ELLIPSE
5
1D0
100
AcDbEntity
8
1
62
256
6
ByLayer
370
-1
48
1
60
0
100
AcDbEllipse
10
155.133312
20
18.638373
30
0
11
-2.91486949082829
21
0.189883894622627
31
0
210
0
220
0
230
1
40
0.965789
41
0
42
0.440412056915359
0
ELLIPSE
5
1D1
100
AcDbEntity
8
1
62
256
6
ByLayer
370
-1
48
1
60
0
100
AcDbEllipse
10
155.133312
20
18.638373
30
0
11
-2.91486949082829
21
0.189883894622627
31
0
210
0
220
0
230
1
40
0.965789
41
2.70108248924325
42
-2.57767685223082
0
ELLIPSE
5
1D2
100
AcDbEntity
8
1
62
256
6
ByLayer
370
-1
48
1
60
0
100
AcDbEllipse
10
158.162392
20
13.337698
30
0
11
-0.20626044989231
21
0.257597800476288
31
0
210
0
220
0
230
1
40
0.301789
41
-2.0276870397458
42
-1.21123745370827
0
ELLIPSE
5
1D3
100
AcDbEntity
8
1
62
256
6
ByLayer
370
-1
48
1
60
0
100
AcDbEllipse
10
147.373289
20
18.811547
30
0
11
-0.0813309789055104
21
0.035965891228492
31
0
210
0
220
0
230
1
40
0.908072
41
0.907720640064981
42
1.93977784762318
0
ELLIPSE
5
1D4
100
AcDbEntity
8
1
62
256
6
ByLayer
370
-1
48
1
60
0
100
AcDbEllipse
10
151.932886
20
15.42303
30
0
11
-0.128769199299408
21
0.0771501605996712
31
0
210
0
220
0
230
1
40
0.232115
41
-2.16459055349969
42
-1.45206597468193
0
ELLIPSE
5
1D5
100
AcDbEntity
8
1
62
256
6
ByLayer
370
-1
48
1
60
0
100
AcDbEllipse
10
148.598837
20
18.144555
30
0
11
-0.1663588205311
21
0.0735665956623863
31
0
210
0
220
0
230
1
40
0.908072
41
-0.0358276787725879
42
0.907720639764142
0
ELLIPSE
5
1D6
100
AcDbEntity
8
1
62
256
6
ByLayer
370
-1
48
1
60
0
100
AcDbEllipse
10
148.374449
20
19.675195
30
0
11
-0.210233595088777
21
-0.254365554853734
31
0
210
0
220
0
230
1
40
0.325777
41
-1.90870933697246
42
-1.09225975093544
0
ELLIPSE
5
1D7
100
AcDbEntity
8
1
62
256
6
ByLayer
370
-1
48
1
60
0
100
AcDbEllipse
10
155.85743
20
24.386207
30
0
11
0.249471227956045
21
-0.0162513513931358
31
0
210
0
220
0
230
1
40
0.965789
41
2.06109105806599
42
2.15722683579054
0
ELLIPSE
5
1D8
100
AcDbEntity
8
1
62
256
6
ByLayer
370
-1
48
1
60
0
100
AcDbEllipse
10
148.995064
20
19.585376
30
0
11
-1.5363068915711
21
-0.724448865175818
31
0
210
0
220
0
230
1
40
0.188839
41
-0.282355984107973
42
0.319063412231321
0
ELLIPSE
5
1D9
100
AcDbEntity
8
1
62
256
6
ByLayer
370
-1
48
1
60
0
100
AcDbEllipse
10
158.206036
20
13.25875
30
0
11
0.222782340523572
21
0.123158551269647
31
0
210
0
220
0
230
1
40
0.903036
41
1.28317267091914
42
1.58799132119631
0
ELLIPSE
5
1DA
100
AcDbEntity
8
1
62
256
6
ByLayer
370
-1
48
1
60
0
100
AcDbEllipse
10
148.681483
20
19.160105
30
0
11
0.328515456278558
21
0.031266515413313
31
0
210
0
220
0
230
1
40
0.671
41
-1.85705436438116
42
-1.04060477834353
0
ELLIPSE
5
1DB
100
AcDbEntity
8
1
62
256
6
ByLayer
370
-1
48
1
60
0
100
AcDbEllipse
10
153.88274
20
22.963365
30
0
11
0.125722164389598
21
0.0818164859988192
31
0
210
0
220
0
230
1
40
0.210253
41
1.41488498587113
42
2.12740956439685
0
ELLIPSE
5
1DC
100
AcDbEntity
8
1
62
256
6
ByLayer
370
-1
48
1
60
0
100
AcDbEllipse
10
148.686069
20
19.492875
30
0
11
-0.16664678834278
21
-0.284831262215082
31
0
210
0
220
0
230
1
40
0.020796
41
-1.99154265753785
42
-1.11052133152832
0
ELLIPSE
5
1DD
100
AcDbEntity
8
1
62
256
6
ByLayer
370
-1
48
1
60
0
100
AcDbEllipse
10
149.128334
20
20.824273
30
0
11
-0.336670865992501
21
-0.199900719034329
31
0
210
0
220
0
230
1
40
0.176549
41
1.4003805393458
42
2.39098586531819
0
ELLIPSE
5
1DE
100
AcDbEntity
8
1
62
256
6
ByLayer
370
-1
48
1
60
0
100
AcDbEllipse
10
157.899002
20
12.746339
30
0
11
0.222782340523572
21
0.123158551269647
31
0
210
0
220
0
230
1
40
0.903036
41
2.69625135559553
42
3.00107000587255
0
ELLIPSE
5
1DF
100
AcDbEntity
8
1
62
256
6
ByLayer
370
-1
48
1
60
0
100
AcDbEllipse
10
158.162392
20
13.337698
30
0
11
0.164123276904412
21
-0.286292769692422
31
0
210
0
220
0
230
1
40
0.007386
41
-2.00786484603624
42
-1.12684352003117
0
ELLIPSE
5
1E0
100
AcDbEntity
8
1
62
256
6
ByLayer
370
-1
48
1
60
0
100
AcDbEllipse
10
149.103619
20
20.549209
30
0
11
-0.319437373112233
21
-0.0189674631713405
31
0
210
0
220
0
230
1
40
0.372092
41
1.30555697618047
42
2.47552078441305
0
ELLIPSE
5
1E1
100
AcDbEntity
8
1
62
256
6
ByLayer
370
-1
48
1
60
0
100
AcDbEllipse
10
158.456053
20
12.867053
30
0
11
0.0228891020462328
21
-0.329205238426604
31
0
210
0
220
0
230
1
40
0.196789
41
0.821693699629227
42
1.17075955002704
0
ELLIPSE
5
1E2
100
AcDbEntity
8
1
62
256
6
ByLayer
370
-1
48
1
60
0
100
AcDbEllipse
10
149.103619
20
20.549209
30
0
11
-0.214373568568215
21
-0.237579403777619
31
0
210
0
220
0
230
1
40
0.080191
41
1.11663809063085
42
1.39228185157732
0
ELLIPSE
5
1E3
100
AcDbEntity
8
1
62
256
6
ByLayer
370
-1
48
1
60
0
100
AcDbEllipse
10
159.913831
20
19.465493
30
0
11
-0.000592402744611112
21
-0.165729210838743
31
0
210
0
220
0
230
1
40
0.014833
41
1.1016808474185
42
1.80726703658702
0
ELLIPSE
5
1E4
100
AcDbEntity
8
1
62
256
6
ByLayer
370
-1
48
1
60
0
100
AcDbEllipse
10
148.92406
20
20.711229
30
0
11
-0.289259156982101
21
-0.169069490045218
31
0
210
0
220
0
230
1
40
0.207991
41
1.18265416892583
42
1.45829792681171
0
ELLIPSE
5
1E5
100
AcDbEntity
8
1
62
256
6
ByLayer
370
-1
48
1
60
0
100
AcDbEllipse
10
148.535691
20
17.175216
30
0
11
-0.179619284128352
21
0.0117009730030582
31
0
210
0
220
0
230
1
40
0.965789
41
9.08050271499947E-07
42
0.586430508995398
0
ELLIPSE
5
1E6
100
AcDbEntity
8
1
62
256
6
ByLayer
370
-1
48
1
60
0
100
AcDbEllipse
10
157.849114
20
13.158105
30
0
11
0.329941928492634
21
0.0061906237619341
31
0
210
0
220
0
230
1
40
0.387666
41
-2.24970494397168
42
-1.36868361796235
0
ELLIPSE
5
1E7
100
AcDbEntity
8
1
62
256
6
ByLayer
370
-1
48
1
60
0
100
AcDbEllipse
10
157.88902
20
13.278345
30
0
11
-0.00595811942068671
21
0.890176669417658
31
0
210
0
220
0
230
1
40
0.362985
41
2.3479367177387
42
-3.1187990034137
0
ELLIPSE
5
1E8
100
AcDbEntity
8
1
62
256
6
ByLayer
370
-1
48
1
60
0
100
AcDbEllipse
10
148.323966
20
19.596658
30
0
11
0.2141354348121
21
-0.137644526072896
31
0
210
0
220
0
230
1
40
0.895737
41
1.61758975637636
42
1.92240840665308
0
ELLIPSE
5
1E9
100
AcDbEntity
8
1
62
256
6
ByLayer
370
-1
48
1
60
0
100
AcDbEllipse
10
155.57882
20
13.373575
30
0
11
-0.152152475751747
21
0.0895179785156544
31
0
210
0
220
0
230
1
40
0.197758
41
-2.41395421085953
42
-1.47147641485987
0
ELLIPSE
5
1EA
100
AcDbEntity
8
1
62
256
6
ByLayer
370
-1
48
1
60
0
100
AcDbEllipse
10
156.403111
20
12.82471
30
0
11
-0.335804858940857
21
0.201414936976688
31
0
210
0
220
0
230
1
40
0.189826
41
0.727550146207392
42
1.71815547219326
0
ELLIPSE
5
1EB
100
AcDbEntity
8
1
62
256
6
ByLayer
370
-1
48
1
60
0
100
AcDbEllipse
10
156.656971
20
12.932986
30
0
11
0.312377620717914
21
-0.0694278191693715
31
0
210
0
220
0
230
1
40
0.335766
41
-1.55801442581516
42
-1.28237066486803
0
ELLIPSE
5
1EC
100
AcDbEntity
8
1
62
256
6
ByLayer
370
-1
48
1
60
0
100
AcDbEllipse
10
148.681483
20
19.160105
30
0
11
-0.329968661514939
21
0.00454779265573546
31
0
210
0
220
0
230
1
40
0.388155
41
1.33335276074551
42
2.21437408675461
0
ELLIPSE
5
1ED
100
AcDbEntity
8
1
62
256
6
ByLayer
370
-1
48
1
60
0
100
AcDbEllipse
10
148.085429
20
19.207093
30
0
11
-0.280790684040507
21
0.173368370114229
31
0
210
0
220
0
230
1
40
0.444526
41
1.21365952070703
42
1.56272537110607
0
ELLIPSE
5
1EE
100
AcDbEntity
8
1
62
256
6
ByLayer
370
-1
48
1
60
0
100
AcDbEllipse
10
155.715281
20
24.58948
30
0
11
-0.283033031868878
21
0.000905222928340167
31
0
210
0
220
0
230
1
40
0.13718
41
-2.52176974041686
42
-2.09519462533801
0
ELLIPSE
5
1EF
100
AcDbEntity
8
1
62
256
6
ByLayer
370
-1
48
1
60
0
100
AcDbEllipse
10
149.963373
20
21.365898
30
0
11
-0.152300321217899
21
-0.0888973533339144
31
0
210
0
220
0
230
1
40
0.184283
41
-1.69445883691996
42
-0.751981040681273
0
ELLIPSE
5
1F0
100
AcDbEntity
8
1
62
256
6
ByLayer
370
-1
48
1
60
0
100
AcDbEllipse
10
149.103619
20
20.549209
30
0
11
0.3187160302586
21
-0.0286372494524004
31
0
210
0
220
0
230
1
40
0.189541
41
-1.61440428860225
42
-0.623798962615098
0
ELLIPSE
5
1F1
100
AcDbEntity
8
1
62
256
6
ByLayer
370
-1
48
1
60
0
100
AcDbEllipse
10
147.306761
20
17.790283
30
0
11
-0.0878138722405277
21
0.005720475690384
31
0
210
0
220
0
230
1
40
0.965789
41
0.586430508995532
42
1.61848771655699
0
ELLIPSE
5
1F2
100
AcDbEntity
8
1
62
256
6
ByLayer
370
-1
48
1
60
0
100
AcDbEllipse
10
147.37125
20
18.814967
30
0
11
-0.0813309789376918
21
0.03596589120137
31
0
210
0
220
0
230
1
40
0.908072
41
-0.124336567862032
42
0.907720639578323
0
ELLIPSE
5
1F3
100
AcDbEntity
8
1
62
256
6
ByLayer
370
-1
48
1
60
0
100
AcDbEllipse
10
153.043793
20
22.131521
30
0
11
0.0824075344049287
21
0.125335542737487
31
0
210
0
220
0
230
1
40
0.131471
41
0.637761892176478
42
1.34334808187579
0
ELLIPSE
5
1F4
100
AcDbEntity
8
1
62
256
6
ByLayer
370
-1
48
1
60
0
100
AcDbEllipse
10
159.913831
20
17.969559
30
0
11
-0.000654095755881761
21
-0.150104694819092
31
0
210
0
220
0
230
1
40
0.016273
41
1.83244170638902
42
2.54496627637575
0
ELLIPSE
5
1F5
100
AcDbEntity
8
1
62
256
6
ByLayer
370
-1
48
1
60
0
100
AcDbEllipse
10
157.529509
20
13.253349
30
0
11
-1.55232594729484
21
0.73805764303481
31
0
210
0
220
0
230
1
40
0.185907
41
2.82298096076316
42
-2.85878495007037
0
ELLIPSE
5
1F6
100
AcDbEntity
8
1
62
256
6
ByLayer
370
-1
48
1
60
0
100
AcDbEllipse
10
148.374449
20
19.675195
30
0
11
-0.280790684040507
21
0.173368370114229
31
0
210
0
220
0
230
1
40
0.444526
41
1.21365952070703
42
1.56272537110607
0
ELLIPSE
5
1F7
100
AcDbEntity
8
1
62
256
6
ByLayer
370
-1
48
1
60
0
100
AcDbEllipse
10
159.908457
20
23.107527
30
0
11
-0.00147399359106505
21
-0.337784728037207
31
0
210
0
220
0
230
1
40
0.015426
41
-1.57076265884914
42
-1.29511891774578
0
ELLIPSE
5
1F8
100
AcDbEntity
8
1
62
256
6
ByLayer
370
-1
48
1
60
0
100
AcDbEllipse
10
159.168304
20
12.465291
30
0
11
-0.0842609164666476
21
-0.0290942334949148
31
0
210
0
220
0
230
1
40
0.911082
41
1.28340322759416
42
2.31546043521789
0
ELLIPSE
5
1F9
100
AcDbEntity
8
1
62
256
6
ByLayer
370
-1
48
1
60
0
100
AcDbEllipse
10
157.892758
20
13.079157
30
0
11
0.222782340523572
21
0.123158551269647
31
0
210
0
220
0
230
1
40
0.903036
41
1.58799132119631
42
2.69625135559553
0
ELLIPSE
5
1FA
100
AcDbEntity
8
1
62
256
6
ByLayer
370
-1
48
1
60
0
100
AcDbEllipse
10
159.447273
20
14.775482
30
0
11
-0.352978025495709
21
-0.614491679808059
31
0
210
0
220
0
230
1
40
0.052277
41
1.53890582502437
42
2.40183947120338
0
ELLIPSE
5
1FB
100
AcDbEntity
8
1
62
256
6
ByLayer
370
-1
48
1
60
0
100
AcDbEllipse
10
157.849114
20
13.158105
30
0
11
-0.164123276904411
21
0.286292769692422
31
0
210
0
220
0
230
1
40
0.007386
41
1.1337278075636
42
2.0147491335485
0
ELLIPSE
5
1FC
100
AcDbEntity
8
1
62
256
6
ByLayer
370
-1
48
1
60
0
100
AcDbEllipse
10
158.283017
20
24.843767
30
0
11
-0.000586137728800535
21
-0.134584627009734
31
0
210
0
220
0
230
1
40
0.965798
41
-8.31068513862536E-06
42
1.03204889688988
0
ELLIPSE
5
1FD
100
AcDbEntity
8
1
62
256
6
ByLayer
370
-1
48
1
60
0
100
AcDbEllipse
10
157.098428
20
24.717999
30
0
11
-0.000811575239376618
21
-0.186347945098431
31
0
210
0
220
0
230
1
40
0.965798
41
3.14158434250644
42
-2.19805264607494
0
ELLIPSE
5
1FE
100
AcDbEntity
8
1
62
256
6
ByLayer
370
-1
48
1
60
0
100
AcDbEllipse
10
158.039021
20
24.844831
30
0
11
-0.000586137673399135
21
-0.134584627008063
31
0
210
0
220
0
230
1
40
0.965798
41
-0.943556629709751
42
-8.31108028012408E-06
0
ELLIPSE
5
1FF
100
AcDbEntity
8
1
62
256
6
ByLayer
370
-1
48
1
60
0
100
AcDbEllipse
10
159.101776
20
11.444027
30
0
11
-0.0878138722405248
21
0.00572047569038381
31
0
210
0
220
0
230
1
40
0.965789
41
1.64876840382731
42
2.68082561138896
0
ELLIPSE
5
200
100
AcDbEntity
8
1
62
256
6
ByLayer
370
-1
48
1
60
0
100
AcDbEllipse
10
158.162392
20
13.337698
30
0
11
0.279970847001605
21
0.174689223563459
31
0
210
0
220
0
230
1
40
0.429075
41
-1.5934866482703
42
-1.24442079787166
0
ELLIPSE
5
201
100
AcDbEntity
8
1
62
256
6
ByLayer
370
-1
48
1
60
0
100
AcDbEllipse
10
148.631
20
19.081568
30
0
11
0.2141354348121
21
-0.137644526072896
31
0
210
0
220
0
230
1
40
0.895737
41
0.204511071699635
42
0.509329721976813
0
ELLIPSE
5
202
100
AcDbEntity
8
1
62
256
6
ByLayer
370
-1
48
1
60
0
100
AcDbEllipse
10
148.347217
20
20.084554
30
0
11
-0.231053917364546
21
0.102175828109231
31
0
210
0
220
0
230
1
40
0.908072
41
-0.663075683833065
42
-0.1243365649768
0
ELLIPSE
5
203
100
AcDbEntity
8
1
62
256
6
ByLayer
370
-1
48
1
60
0
100
AcDbEllipse
10
155.137552
20
18.703454
30
0
11
-3.00359442768433
21
0.195663719967598
31
0
210
0
220
0
230
1
40
0.965789
41
-0.372671608531903
42
0
0
ELLIPSE
5
204
100
AcDbEntity
8
1
62
256
6
ByLayer
370
-1
48
1
60
0
100
AcDbEllipse
10
155.137552
20
18.703454
30
0
11
-3.00359442768433
21
0.195663719967598
31
0
210
0
220
0
230
1
40
0.965789
41
0
42
0.220206031232929
0
ELLIPSE
5
205
100
AcDbEntity
8
1
62
256
6
ByLayer
370
-1
48
1
60
0
100
AcDbEllipse
10
155.137552
20
18.703454
30
0
11
-3.00359442768433
21
0.195663719967598
31
0
210
0
220
0
230
1
40
0.965789
41
2.92128823926724
42
-2.07953834765509
0
ELLIPSE
5
206
100
AcDbEntity
8
1
62
256
6
ByLayer
370
-1
48
1
60
0
100
AcDbEllipse
10
157.705263
20
12.971672
30
0
11
-0.837564038362685
21
-0.479739159391172
31
0
210
0
220
0
230
1
40
0.308746
41
-3.12995290557992
42
-2.31350331954683
0
ELLIPSE
5
207
100
AcDbEntity
8
1
62
256
6
ByLayer
370
-1
48
1
60
0
100
AcDbEllipse
10
158.911706
20
25.485339
30
0
11
-0.000396770220767793
21
-0.0911034398114196
31
0
210
0
220
0
230
1
40
0.965798
41
3.14158434360256
42
-2.10954375593715
0
ELLIPSE
5
208
100
AcDbEntity
8
1
62
256
6
ByLayer
370
-1
48
1
60
0
100
AcDbEllipse
10
158.905235
20
23.534955
30
0
11
-0.0080417580950271
21
-1.84310051246235
31
0
210
0
220
0
230
1
40
0.179021
41
2.84088284842456
42
-2.84088306243386
0
ELLIPSE
5
209
100
AcDbEntity
8
1
62
256
6
ByLayer
370
-1
48
1
60
0
100
AcDbEllipse
10
158.456053
20
12.867053
30
0
11
0.279970847001605
21
0.174689223563459
31
0
210
0
220
0
230
1
40
0.429075
41
-1.59348664827048
42
-1.24442079787184
0
ELLIPSE
5
20A
100
AcDbEntity
8
1
62
256
6
ByLayer
370
-1
48
1
60
0
100
AcDbEllipse
10
156.656971
20
12.932986
30
0
11
-0.125543597399462
21
0.294344704644065
31
0
210
0
220
0
230
1
40
0.19293
41
0.864332537322873
42
1.85493786330985
0
ELLIPSE
5
20B
100
AcDbEntity
8
1
62
256
6
ByLayer
370
-1
48
1
60
0
100
AcDbEllipse
10
148.686069
20
19.492875
30
0
11
0.329968661514939
21
-0.0045477926557355
31
0
210
0
220
0
230
1
40
0.388155
41
-1.80823989284446
42
-0.927218566834975
0
ELLIPSE
5
20C
100
AcDbEntity
8
1
62
256
6
ByLayer
370
-1
48
1
60
0
100
AcDbEllipse
10
152.766767
20
22.310047
30
0
11
-1.8
21
2.20429143688028E-16
31
0
210
0
220
0
230
1
40
0.258819
41
-0.75539637470625
42
-0.528503571946999
0
ELLIPSE
5
20D
100
AcDbEntity
8
1
62
256
6
ByLayer
370
-1
48
1
60
0
100
AcDbEllipse
10
151.638367
20
22.58508
30
0
11
-0.25
21
3.06151588455594E-17
31
0
210
0
220
0
230
1
40
0.258819
41
-1.58442776940366
42
-0.755396374706295
0
ELLIPSE
5
20E
100
AcDbEntity
8
1
62
256
6
ByLayer
370
-1
48
1
60
0
100
AcDbEllipse
10
150.778868
20
22.317061
30
0
11
-1.8
21
2.20429143688028E-16
31
0
210
0
220
0
230
1
40
0.258819
41
-2.44231040400179
42
-2.41345916410087
0
ELLIPSE
5
20F
100
AcDbEntity
8
1
62
256
6
ByLayer
370
-1
48
1
60
0
100
AcDbEllipse
10
151.935815
20
22.58403
30
0
11
-0.25
21
3.06151588455594E-17
31
0
210
0
220
0
230
1
40
0.258819
41
-2.413459164101
42
-1.58442776940366
0
ELLIPSE
5
210
100
AcDbEntity
8
1
62
256
6
ByLayer
370
-1
48
1
60
0
100
AcDbEllipse
10
150.996464
20
22.577587
30
0
11
-0.25
21
3.06151588455594E-17
31
0
210
0
220
0
230
1
40
0.258819
41
2.02965358241131
42
2.6130890816428
0
ELLIPSE
5
211
100
AcDbEntity
8
1
62
256
6
ByLayer
370
-1
48
1
60
0
100
AcDbEllipse
10
153.852043
20
19.350571
30
0
11
-0.200051044280411
21
-0.326957883009271
31
0
210
0
220
0
230
1
40
0.499975
41
0.178877565652859
42
1.58915102711491
0
ELLIPSE
5
212
100
AcDbEntity
8
1
62
256
6
ByLayer
370
-1
48
1
60
0
100
AcDbEllipse
10
156.420764
20
19.338412
30
0
11
-0.200517583761607
21
0.328568772578523
31
0
210
0
220
0
230
1
40
0.495781
41
0.608513246085504
42
1.54958265946786
0
ELLIPSE
5
213
100
AcDbEntity
8
1
62
256
6
ByLayer
370
-1
48
1
60
0
100
AcDbEllipse
10
155.136404
20
18.628113
30
0
11
-1.28709104541674
21
0.0909435583647166
31
0
210
0
220
0
230
1
40
0.965764
41
-2.54986031696417
42
-1.50266276576753
0
ELLIPSE
5
214
100
AcDbEntity
8
1
62
256
6
ByLayer
370
-1
48
1
60
0
100
AcDbEllipse
10
153.653252
20
18.635133
30
0
11
-0.000623103068511159
21
0.380672332819588
31
0
210
0
220
0
230
1
40
0.50691
41
-0.0603741684583602
42
0.903672283967112
0
ELLIPSE
5
215
100
AcDbEntity
8
1
62
256
6
ByLayer
370
-1
48
1
60
0
100
AcDbEllipse
10
155.136404
20
18.628113
30
0
11
-1.28709104541674
21
0.0909435583647166
31
0
210
0
220
0
230
1
40
0.965764
41
-0.455465214570928
42
0.124927586583926
0
ELLIPSE
5
216
100
AcDbEntity
8
1
62
256
6
ByLayer
370
-1
48
1
60
0
100
AcDbEllipse
10
155.136404
20
18.628113
30
0
11
-1.28709104541674
21
0.0909435583647166
31
0
210
0
220
0
230
1
40
0.965764
41
3.12691571093337
42
-2.54986031696417
0
ELLIPSE
5
217
100
AcDbEntity
8
1
62
256
6
ByLayer
370
-1
48
1
60
0
100
AcDbEllipse
10
156.420764
20
19.338412
30
0
11
-0.200517583762893
21
0.328568772575077
31
0
210
0
220
0
230
1
40
0.495781
41
1.54958265945009
42
2.9598561209214
0
ELLIPSE
5
218
100
AcDbEntity
8
1
62
256
6
ByLayer
370
-1
48
1
60
0
100
AcDbEllipse
10
155.87798
20
19.865491
30
0
11
-0.342845330156844
21
0.189166589712692
31
0
210
0
220
0
230
1
40
0.479089
41
-2.35411703748972
42
0.0400244433158338
0
ELLIPSE
5
219
100
AcDbEntity
8
1
62
256
6
ByLayer
370
-1
48
1
60
0
100
AcDbEllipse
10
155.136404
20
18.628113
30
0
11
-1.28709104541674
21
0.0909435583647166
31
0
210
0
220
0
230
1
40
0.965764
41
0.732793256386972
42
0.963569540893419
0
ELLIPSE
5
21A
100
AcDbEntity
8
1
62
256
6
ByLayer
370
-1
48
1
60
0
100
AcDbEllipse
10
155.136404
20
20.06087
30
0
11
-0.394032475316724
21
0.00240287602988706
31
0
210
0
220
0
230
1
40
0.473102
41
0.163407912190342
42
1.57368137364691
0
ELLIPSE
5
21B
100
AcDbEntity
8
1
62
256
6
ByLayer
370
-1
48
1
60
0
100
AcDbEllipse
10
153.852043
20
19.350571
30
0
11
-0.200051044278173
21
-0.326957883008917
31
0
210
0
220
0
230
1
40
0.499975
41
1.58915102710512
42
2.37462779238487
0
ELLIPSE
5
21C
100
AcDbEntity
8
1
62
256
6
ByLayer
370
-1
48
1
60
0
100
AcDbEllipse
10
155.136404
20
18.628113
30
0
11
-1.28709104541674
21
0.0909435583647166
31
0
210
0
220
0
230
1
40
0.965764
41
2.12648254357449
42
2.57250707433227
0
ELLIPSE
5
21D
100
AcDbEntity
8
1
62
256
6
ByLayer
370
-1
48
1
60
0
100
AcDbEllipse
10
155.165202
20
19.035684
30
0
11
1.67223082115525
21
-0.118156848207868
31
0
210
0
220
0
230
1
40
0.965764
41
-3.07345909256237
42
-2.02626154136581
0
ELLIPSE
5
21E
100
AcDbEntity
8
1
62
256
6
ByLayer
370
-1
48
1
60
0
100
AcDbEllipse
10
155.165202
20
19.035684
30
0
11
1.67223082115525
21
-0.118156848207868
31
0
210
0
220
0
230
1
40
0.965764
41
2.16252866342064
42
-3.07345909256237
0
ELLIPSE
5
21F
100
AcDbEntity
8
1
62
256
6
ByLayer
370
-1
48
1
60
0
100
AcDbEllipse
10
155.165202
20
19.035684
30
0
11
1.67223082115525
21
-0.118156848207868
31
0
210
0
220
0
230
1
40
0.965764
41
0.068133561027429
42
1.11533111222406
0
ELLIPSE
5
220
100
AcDbEntity
8
1
62
256
6
ByLayer
370
-1
48
1
60
0
100
AcDbEllipse
10
155.165202
20
19.035684
30
0
11
1.67223082115525
21
-0.118156848207868
31
0
210
0
220
0
230
1
40
0.965764
41
-0.979063990169218
42
0.068133561027429
0
ELLIPSE
5
221
100
AcDbEntity
8
1
62
256
6
ByLayer
370
-1
48
1
60
0
100
AcDbEllipse
10
155.165202
20
19.035684
30
0
11
1.67223082115525
21
-0.118156848207868
31
0
210
0
220
0
230
1
40
0.965764
41
1.11533111222406
42
2.16252866342064
0
ELLIPSE
5
222
100
AcDbEntity
8
1
62
256
6
ByLayer
370
-1
48
1
60
0
100
AcDbEllipse
10
155.165202
20
19.035684
30
0
11
1.67223082115525
21
-0.118156848207868
31
0
210
0
220
0
230
1
40
0.965764
41
-2.02626154136581
42
-0.979063990169218
0
ELLIPSE
5
223
100
AcDbEntity
8
1
62
256
6
ByLayer
370
-1
48
1
60
0
100
AcDbEllipse
10
155.136404
20
20.06087
30
0
11
-0.394032475317245
21
0.00240287603140445
31
0
210
0
220
0
230
1
40
0.473102
41
1.57368137365599
42
2.98395483511053
0
ELLIPSE
5
224
100
AcDbEntity
8
1
62
256
6
ByLayer
370
-1
48
1
60
0
100
AcDbEllipse
10
155.136404
20
18.628113
30
0
11
1.28709104541674
21
-0.0909435583647173
31
0
210
0
220
0
230
1
40
0.965764
41
1.6389298878223
42
2.68612743901882
0
ELLIPSE
5
225
100
AcDbEntity
8
1
62
256
6
ByLayer
370
-1
48
1
60
0
100
AcDbEllipse
10
156.619556
20
18.621093
30
0
11
-0.000623103068506448
21
0.380672332819602
31
0
210
0
220
0
230
1
40
0.50691
41
-1.20422847250854
42
0.0539160509666338
0
ELLIPSE
5
226
100
AcDbEntity
8
1
62
256
6
ByLayer
370
-1
48
1
60
0
100
AcDbEllipse
10
154.394828
20
19.872511
30
0
11
-0.34313384905696
21
-0.185391276329967
31
0
210
0
220
0
230
1
40
0.48292
41
3.10477118287736
42
-0.966396763246935
0
ELLIPSE
5
227
100
AcDbEntity
8
1
62
256
6
ByLayer
370
-1
48
1
60
0
100
AcDbEllipse
10
160.03937
20
11.267706
30
0
11
0.00693407685582242
21
-1.40968294611847
31
0
210
0
220
0
230
1
40
0.052006
41
-1.83287963693166
42
-0.785682085735699
0
ELLIPSE
5
228
100
AcDbEntity
8
1
62
256
6
ByLayer
370
-1
48
1
60
0
100
AcDbEllipse
10
160.03937
20
11.267706
30
0
11
0.00693407685582242
21
-1.40968294611847
31
0
210
0
220
0
230
1
40
0.052006
41
-2.88007718812756
42
-1.83287963693166
0
ELLIPSE
5
229
100
AcDbEntity
8
1
62
256
6
ByLayer
370
-1
48
1
60
0
100
AcDbEllipse
10
160.03937
20
11.267706
30
0
11
0.00693407685582242
21
-1.40968294611847
31
0
210
0
220
0
230
1
40
0.052006
41
0.261515465461478
42
1.30871301665792
0
ELLIPSE
5
22A
100
AcDbEntity
8
1
62
256
6
ByLayer
370
-1
48
1
60
0
100
AcDbEllipse
10
160.03937
20
11.267706
30
0
11
0.00693407685582242
21
-1.40968294611847
31
0
210
0
220
0
230
1
40
0.052006
41
2.3559105678552
42
-2.88007718812756
0
ELLIPSE
5
22B
100
AcDbEntity
8
1
62
256
6
ByLayer
370
-1
48
1
60
0
100
AcDbEllipse
10
160.03937
20
11.267706
30
0
11
0.00693407685582242
21
-1.40968294611847
31
0
210
0
220
0
230
1
40
0.052006
41
1.30871301665792
42
2.3559105678552
0
ELLIPSE
5
22C
100
AcDbEntity
8
1
62
256
6
ByLayer
370
-1
48
1
60
0
100
AcDbEllipse
10
160.03937
20
11.267706
30
0
11
0.00693407685582242
21
-1.40968294611847
31
0
210
0
220
0
230
1
40
0.052006
41
-0.785682085735699
42
0.261515465461478
0
ELLIPSE
5
22D
100
AcDbEntity
8
1
62
256
6
ByLayer
370
-1
48
1
60
0
100
AcDbEllipse
10
158.940871
20
11.262303
30
0
11
-0.0152483778485126
21
3.09996249767203
31
0
210
0
220
0
230
1
40
0.052006
41
1.57054039011299
42
1.57486007868972
0
ELLIPSE
5
22E
100
AcDbEntity
8
1
62
256
6
ByLayer
370
-1
48
1
60
0
100
AcDbEllipse
10
158.940871
20
11.262303
30
0
11
-0.0152483778485126
21
3.09996249767203
31
0
210
0
220
0
230
1
40
0.052006
41
1.54049899354174
42
1.57054039011299
0
ELLIPSE
5
22F
100
AcDbEntity
8
1
62
256
6
ByLayer
370
-1
48
1
60
0
100
AcDbEllipse
10
160.03937
20
11.267706
30
0
11
-0.00836201365886168
21
1.69997943420723
31
0
210
0
220
0
230
1
40
0.052006
41
0
42
6.28318530717959
0
ELLIPSE
5
230
100
AcDbEntity
8
1
62
256
6
ByLayer
370
-1
48
1
60
0
100
AcDbEllipse
10
155.141432
20
18.699276
30
0
11
-2.71822297044147
21
0.192064788455285
31
0
210
0
220
0
230
1
40
0.965764
41
0
42
3.14149459685376
0
ELLIPSE
5
231
100
AcDbEntity
8
1
62
256
6
ByLayer
370
-1
48
1
60
0
100
AcDbEllipse
10
155.164079
20
19.019799
30
0
11
-2.71822297044147
21
0.192064788455285
31
0
210
0
220
0
230
1
40
0.965764
41
0
42
6.28318530717959
0
ELLIPSE
5
232
100
AcDbEntity
8
1
62
256
6
ByLayer
370
-1
48
1
60
0
100
AcDbEllipse
10
155.165202
20
19.035684
30
0
11
-1.79552343001638
21
0.126868484117252
31
0
210
0
220
0
230
1
40
0.965764
41
0
42
6.28318530717959
0
POINT
5
41
100
AcDbEntity
8
1
62
256
6
ByLayer
370
-1
48
1
60
0
100
AcDbPoint
10
158.914142
20
25.576468
30
0
39
0
210
0
220
0
230
1
50
360
0
POINT
5
43
100
AcDbEntity
8
1
62
256
6
ByLayer
370
-1
48
1
60
0
100
AcDbPoint
10
159.919843
20
26.911222
30
0
39
0
210
0
220
0
230
1
50
360
0
POINT
5
44
100
AcDbEntity
8
1
62
256
6
ByLayer
370
-1
48
1
60
0
100
AcDbPoint
10
159.919843
20
26.911222
30
0
39
0
210
0
220
0
230
1
50
360
0
POINT
5
45
100
AcDbEntity
8
80
62
256
6
ByLayer
370
-1
48
1
60
0
100
AcDbPoint
10
0
20
0
30
0
39
0
210
0
220
0
230
1
50
360
0
POINT
5
47
100
AcDbEntity
8
81
62
256
6
ByLayer
370
-1
48
1
60
0
100
AcDbPoint
10
159.914
20
26.875
30
0
39
0
210
0
220
0
230
1
50
360
0
POINT
5
49
100
AcDbEntity
8
2
62
256
6
ByLayer
370
-1
48
1
60
0
100
AcDbPoint
10
159.914
20
26.875
30
0
39
0
210
0
220
0
230
1
50
360
0
SPLINE
5
233
100
AcDbEntity
8
1
62
256
6
ByLayer
370
-1
48
1
60
0
100
AcDbSpline
70
4
71
3
72
11
73
7
40
0
40
0
40
0
40
0
40
0.154208537469331
40
0.563389186462532
40
0.949225610741893
40
1
40
1
40
1
40
1
41
1
10
159.571349875827
20
13.7326844721428
30
0
41
1
10
159.601446686172
20
13.694857256637
30
0
41
1
10
159.708536784215
20
13.5544821341962
30
0
41
1
10
159.869039315909
20
13.3035950032578
30
0
41
1
10
159.996136921961
20
13.0697016287401
30
0
41
1
10
160.046177731505
20
12.9423746820728
30
0
41
1
10
160.05185668068
20
12.927501663213
30
0
0
SPLINE
5
234
100
AcDbEntity
8
1
62
256
6
ByLayer
370
-1
48
1
60
0
100
AcDbSpline
70
4
71
3
72
11
73
7
40
0
40
0
40
0
40
0
40
0.123470791854646
40
0.463910733871624
40
0.799075261182976
40
1
40
1
40
1
40
1
41
1
10
160.054654834259
20
9.58897537063098
30
0
41
1
10
160.036325300557
20
9.53902206452941
30
0
41
1
10
159.962044409052
20
9.35407442082467
30
0
41
1
10
159.787061620405
20
9.0561145618191
30
0
41
1
10
159.565304870234
20
8.75132862292611
30
0
41
1
10
159.412578181396
20
8.57781253256329
30
0
41
1
10
159.352781026839
20
8.51533279798846
30
0
0
SPLINE
5
235
100
AcDbEntity
8
1
62
256
6
ByLayer
370
-1
48
1
60
0
100
AcDbSpline
70
4
71
1
72
4
73
2
40
0
40
0
40
1
40
1
41
1
10
150.633334847275
20
22.202101014846
30
0
41
1
10
150.524655837937
20
21.7139269797371
30
0
0
SPLINE
5
236
100
AcDbEntity
8
1
62
256
6
ByLayer
370
-1
48
1
60
0
100
AcDbSpline
70
4
71
3
72
24
73
20
40
0
40
0
40
0
40
0
40
0.0950870626452653
40
0.0950870626452653
40
0.214159240347806
40
0.214159240347806
40
0.375522869977667
40
0.375522869977667
40
0.467010128926779
40
0.467010128926779
40
0.560100647633819
40
0.560100647633819
40
0.676903299805069
40
0.676903299805069
40
0.835007363257258
40
0.835007363257258
40
0.935138764130646
40
0.935138764130646
40
1
40
1
40
1
40
1
41
1
10
145.720757064085
20
13.9392156345818
30
0
41
1
10
145.687700727284
20
13.9554346806236
30
0
41
1
10
145.666549390504
20
13.9998169934597
30
0
41
1
10
145.635017840327
20
14.1446647832909
30
0
41
1
10
145.627820621181
20
14.2580219433949
30
0
41
1
10
145.61267625576
20
14.5637802724421
30
0
41
1
10
145.607349037253
20
14.7758750623379
30
0
41
1
10
145.5497194108
20
15.1241927456585
30
0
41
1
10
145.516937580963
20
15.2566881729025
30
0
41
1
10
145.405161106584
20
15.5112891794722
30
0
41
1
10
145.321940394655
20
15.6349201602536
30
0
41
1
10
145.100415927817
20
15.8784930533048
30
0
41
1
10
144.953866551857
20
15.9966529941796
30
0
41
1
10
144.617081046228
20
16.2562062471258
30
0
41
1
10
144.420975881777
20
16.3972777498582
30
0
41
1
10
144.155425644504
20
16.6291137937193
30
0
41
1
10
144.063673684861
20
16.7211166678139
30
0
41
1
10
143.953505706905
20
16.8725834165349
30
0
41
1
10
143.920123940197
20
16.9330874399267
30
0
41
1
10
143.900530090294
20
16.9928905720378
30
0
0
SPLINE
5
237
100
AcDbEntity
8
1
62
256
6
ByLayer
370
-1
48
1
60
0
100
AcDbSpline
70
4
71
3
72
8
73
4
40
0
40
0
40
0
40
0
40
1
40
1
40
1
40
1
41
1
10
144.396866646227
20
23.4683055735558
30
0
41
1
10
143.779382594852
20
22.7242688908949
30
0
41
1
10
143.163706026929
20
21.9788233281848
30
0
41
1
10
142.550508410488
20
21.2314786428286
30
0
0
SPLINE
5
238
100
AcDbEntity
8
1
62
256
6
ByLayer
370
-1
48
1
60
0
100
AcDbSpline
70
4
71
3
72
10
73
6
40
0
40
0
40
0
40
0
40
0.0001212552925512
40
0.0001212552925512
40
1
40
1
40
1
40
1
41
1
10
141.158224435663
20
-19.7464334825258
30
0
41
1
10
141.158225047508
20
-19.7464326914217
30
0
41
1
10
141.158225659353
20
-19.7464319003174
30
0
41
1
10
141.158542305024
20
-19.7460224831744
30
0
41
1
10
141.261289350238
20
-19.6131724063487
30
0
41
1
10
141.3985434
20
-19.435705394841
30
0
0
SPLINE
5
239
100
AcDbEntity
8
1
62
256
6
ByLayer
370
-1
48
1
60
0
100
AcDbSpline
70
4
71
3
72
8
73
4
40
0
40
0
40
0
40
0
40
1
40
1
40
1
40
1
41
1
10
141.440619124976
20
19.5085592364004
30
0
41
1
10
141.59365706711
20
19.7843510970637
30
0
41
1
10
141.753852194021
20
20.0527868378366
30
0
41
1
10
141.920601762465
20
20.3144859553094
30
0
0
SPLINE
5
23A
100
AcDbEntity
8
1
62
256
6
ByLayer
370
-1
48
1
60
0
100
AcDbSpline
70
4
71
3
72
14
73
10
40
0
40
0
40
0
40
0
40
0.159016419641541
40
0.159016419641541
40
0.387137756815965
40
0.387137756815965
40
0.768502935581264
40
0.768502935581264
40
1
40
1
40
1
40
1
41
1
10
128.140899449627
20
6.69743421020326
30
0
41
1
10
128.112987716359
20
6.69743421020326
30
0
41
1
10
128.084815194031
20
6.70189396764104
30
0
41
1
10
128.019844212154
20
6.72171754508628
30
0
41
1
10
127.98363360882
20
6.7410929751008
30
0
41
1
10
127.89666770191
20
6.80296666037978
30
0
41
1
10
127.850101549895
20
6.85286176106899
30
0
41
1
10
127.784789644223
20
6.93787540802944
30
0
41
1
10
127.76207143613
20
6.97152802944598
30
0
41
1
10
127.740899451675
20
7.00604258659215
30
0
0
SPLINE
5
23B
100
AcDbEntity
8
1
62
256
6
ByLayer
370
-1
48
1
60
0
100
AcDbSpline
70
4
71
3
72
10
73
6
40
0
40
0
40
0
40
0
40
0.5
40
0.5
40
1
40
1
40
1
40
1
41
1
10
127.740899451679
20
-7.00604258659405
30
0
41
1
10
127.786705065887
20
-6.93137030008356
30
0
41
1
10
127.839281003865
20
-6.86001159917717
30
0
41
1
10
127.970606779761
20
-6.74253200928086
30
0
41
1
10
128.053493705497
20
-6.69743421020377
30
0
41
1
10
128.140899449627
20
-6.6974342102036
30
0
0
SPLINE
5
23C
100
AcDbEntity
8
1
62
256
6
ByLayer
370
-1
48
1
60
0
100
AcDbSpline
70
4
71
3
72
8
73
4
40
0
40
0
40
0
40
0
40
1
40
1
40
1
40
1
41
1
10
144.191176000807
20
23.2381660949997
30
0
41
1
10
144.255443611516
20
23.3151392216525
30
0
41
1
10
144.324054522683
20
23.391870870551
30
0
41
1
10
144.396866646227
20
23.4683055735558
30
0
0
SPLINE
5
23D
100
AcDbEntity
8
1
62
256
6
ByLayer
370
-1
48
1
60
0
100
AcDbSpline
70
4
71
3
72
8
73
4
40
0
40
0
40
0
40
0
40
1
40
1
40
1
40
1
41
1
10
127.382243128233
20
17.51075
30
0
41
1
10
127.503035580904
20
17.51075
30
0
41
1
10
127.622619559609
20
17.51075
30
0
41
1
10
127.740899451679
20
17.51075
30
0
0
SPLINE
5
23E
100
AcDbEntity
8
1
62
256
6
ByLayer
370
-1
48
1
60
0
100
AcDbSpline
70
4
71
3
72
10
73
6
40
0
40
0
40
0
40
0
40
0.741875563528064
40
0.741875563528064
40
1
40
1
40
1
40
1
41
1
10
140.827783570481
20
18.9150826221941
30
0
41
1
10
141.028616299954
20
18.9981533103621
30
0
41
1
10
141.186550284564
20
19.1461189566784
30
0
41
1
10
141.361366838312
20
19.3770457716684
30
0
41
1
10
141.403085106804
20
19.4409186463243
30
0
41
1
10
141.440619124976
20
19.5085592364003
30
0
0
SPLINE
5
23F
100
AcDbEntity
8
1
62
256
6
ByLayer
370
-1
48
1
60
0
100
AcDbSpline
70
4
71
3
72
8
73
4
40
0
40
0
40
0
40
0
40
1
40
1
40
1
40
1
41
1
10
146.453636460843
20
18.2348687916759
30
0
41
1
10
146.531372581754
20
18.4583146833962
30
0
41
1
10
146.608131286512
20
18.6778338688838
30
0
41
1
10
146.683792364345
20
18.8939576553307
30
0
0
SPLINE
5
240
100
AcDbEntity
8
1
62
256
6
ByLayer
370
-1
48
1
60
0
100
AcDbSpline
70
4
71
3
72
8
73
4
40
0
40
0
40
0
40
0
40
1
40
1
40
1
40
1
41
1
10
127.382243126952
20
-7.57100492421583
30
0
41
1
10
127.504458425754
20
-7.38470704347387
30
0
41
1
10
127.624097810011
20
-7.19645255712564
30
0
41
1
10
127.740899451679
20
-7.00604258659402
30
0
0
SPLINE
5
241
100
AcDbEntity
8
1
62
256
6
ByLayer
370
-1
48
1
60
0
100
AcDbSpline
70
4
71
3
72
12
73
8
40
0
40
0
40
0
40
0
40
0.349744209823305
40
0.349744209823305
40
0.744004709887771
40
0.744004709887771
40
1
40
1
40
1
40
1
41
1
10
127.740899451679
20
17.51075
30
0
41
1
10
127.775914692889
20
17.51075
30
0
41
1
10
127.814746077291
20
17.51075
30
0
41
1
10
127.90613342445
20
17.51075
30
0
41
1
10
127.961302618761
20
17.51075
30
0
41
1
10
128.05913806141
20
17.51075
30
0
41
1
10
128.100239839265
20
17.51075
30
0
41
1
10
128.140899449627
20
17.51075
30
0
0
SPLINE
5
242
100
AcDbEntity
8
1
62
256
6
ByLayer
370
-1
48
1
60
0
100
AcDbSpline
70
4
71
3
72
18
73
14
40
0
40
0
40
0
40
0
40
0.0035429733482797
40
0.0035429733482797
40
0.19504508456951
40
0.19504508456951
40
0.404152420096935
40
0.404152420096935
40
0.631112513382465
40
0.631112513382465
40
0.77984893648954
40
0.77984893648954
40
1
40
1
40
1
40
1
41
1
10
141.920601762464
20
20.3144859553093
30
0
41
1
10
141.920245255052
20
20.3144099990841
30
0
41
1
10
141.919893528454
20
20.3143395188131
30
0
41
1
10
141.901014122033
20
20.3108017488922
30
0
41
1
10
141.896231604202
20
20.3232002777493
30
0
41
1
10
141.913450337773
20
20.3777027579635
30
0
41
1
10
141.938098789203
20
20.4230571552029
30
0
41
1
10
142.016275673568
20
20.5443582813492
30
0
41
1
10
142.073088067799
20
20.6241859228539
30
0
41
1
10
142.18595877794
20
20.7744763781654
30
0
41
1
10
142.236271082414
20
20.8396796427229
30
0
41
1
10
142.369473528138
20
21.0089491850755
30
0
41
1
10
142.458386564436
20
21.1192036270654
30
0
41
1
10
142.550508410488
20
21.2314786428286
30
0
0
SPLINE
5
243
100
AcDbEntity
8
1
62
256
6
ByLayer
370
-1
48
1
60
0
100
AcDbSpline
70
4
71
3
72
8
73
4
40
0
40
0
40
0
40
0
40
1
40
1
40
1
40
1
41
1
10
127.740899451679
20
7.00604258659399
30
0
41
1
10
127.624364871065
20
7.19601719434471
30
0
41
1
10
127.504730221055
20
7.38429273455222
30
0
41
1
10
127.382243126952
20
7.5710049242158
30
0
0
SPLINE
5
244
100
AcDbEntity
8
1
62
256
6
ByLayer
370
-1
48
1
60
0
100
AcDbSpline
70
4
71
3
72
16
73
12
40
0
40
0
40
0
40
0
40
0.36376227347155
40
0.36376227347155
40
0.756970395461772
40
0.756970395461772
40
0.887468089085082
40
0.887468089085082
40
0.990256737687838
40
0.990256737687838
40
1
40
1
40
1
40
1
41
1
10
141.3985434
20
-7.3712087133286
30
0
41
1
10
141.360225501402
20
-7.26580441615312
30
0
41
1
10
141.315744690866
20
-7.16208347451939
30
0
41
1
10
141.203013449237
20
-6.95820172532419
30
0
41
1
10
141.132212021313
20
-6.85390551393476
30
0
41
1
10
141.005293517838
20
-6.75377314373901
30
0
41
1
10
140.969696336217
20
-6.73188403114813
30
0
41
1
10
140.901510063001
20
-6.70574695904727
30
0
41
1
10
140.869204714681
20
-6.69868519558773
30
0
41
1
10
140.833957636677
20
-6.69748672335601
30
0
41
1
10
140.830870381127
20
-6.69743421020323
30
0
41
1
10
140.827783570481
20
-6.69743421020323
30
0
0
SPLINE
5
245
100
AcDbEntity
8
1
62
256
6
ByLayer
370
-1
48
1
60
0
100
AcDbSpline
70
4
71
3
72
12
73
8
40
0
40
0
40
0
40
0
40
0.347623173836814
40
0.347623173836814
40
0.696503371294509
40
0.696503371294509
40
1
40
1
40
1
40
1
41
1
10
149.308563489464
20
17.3232266796433
30
0
41
1
10
149.301488640584
20
17.3345209735852
30
0
41
1
10
149.292273482935
20
17.3449089850808
30
0
41
1
10
149.270891521577
20
17.3624764381258
30
0
41
1
10
149.258390679593
20
17.3698942984611
30
0
41
1
10
149.233753341629
20
17.3801381947361
30
0
41
1
10
149.22149095268
20
17.3835547340939
30
0
41
1
10
149.209426072038
20
17.3854866600009
30
0
0
SPLINE
5
246
100
AcDbEntity
8
1
62
256
6
ByLayer
370
-1
48
1
60
0
100
AcDbSpline
70
4
71
3
72
20
73
16
40
0
40
0
40
0
40
0
40
0.511365204367434
40
0.511365204367434
40
0.617167309555412
40
0.617167309555412
40
0.785488434327107
40
0.785488434327107
40
0.873398812153863
40
0.873398812153863
40
0.935684402254219
40
0.935684402254219
40
0.97872276537413
40
0.97872276537413
40
1
40
1
40
1
40
1
41
1
10
159.074542151504
20
19.1124185356866
30
0
41
1
10
158.969769331575
20
19.0636436044815
30
0
41
1
10
158.866244119368
20
19.0111138962035
30
0
41
1
10
158.749758672693
20
18.935402585191
30
0
41
1
10
158.730065454872
20
18.9218949495322
30
0
41
1
10
158.680534074647
20
18.8852039064035
30
0
41
1
10
158.651143608656
20
18.8609917979272
30
0
41
1
10
158.612117332708
20
18.8191453834223
30
0
41
1
10
158.599639172422
20
18.8037335101678
30
0
41
1
10
158.582654606745
20
18.7750704352785
30
0
41
1
10
158.576799947358
20
18.7622769148393
30
0
41
1
10
158.57141490098
20
18.7396947793619
30
0
41
1
10
158.570513095296
20
18.7300067148854
30
0
41
1
10
158.571895313485
20
18.7158399531815
30
0
41
1
10
158.572806051969
20
18.7111401744184
30
0
41
1
10
158.574157588681
20
18.706580865059
30
0
0
SPLINE
5
247
100
AcDbEntity
8
1
62
256
6
ByLayer
370
-1
48
1
60
0
100
AcDbSpline
70
4
71
3
72
14
73
10
40
0
40
0
40
0
40
0
40
0.249606055014929
40
0.249606055014929
40
0.499158243446788
40
0.499158243446788
40
0.746144217743593
40
0.746144217743593
40
1
40
1
40
1
40
1
41
1
10
153.257299656253
20
23.1737464755703
30
0
41
1
10
153.272984387161
20
23.1826456997341
30
0
41
1
10
153.288684051586
20
23.1919405087065
30
0
41
1
10
153.319454245296
20
23.2109148462967
30
0
41
1
10
153.334631907035
20
23.220660149995
30
0
41
1
10
153.363815319899
20
23.2401667884659
30
0
41
1
10
153.377928445308
20
23.2499916661694
30
0
41
1
10
153.405167183036
20
23.2697673352095
30
0
41
1
10
153.418349288129
20
23.2797828986409
30
0
41
1
10
153.430629930938
20
23.2895825839836
30
0
0
SPLINE
5
248
100
AcDbEntity
8
1
62
256
6
ByLayer
370
-1
48
1
60
0
100
AcDbSpline
70
4
71
3
72
12
73
8
40
0
40
0
40
0
40
0
40
0.474376698370957
40
0.474376698370957
40
0.70621978341358
40
0.70621978341358
40
1
40
1
40
1
40
1
41
1
10
153.015626764055
20
14.8060843307661
30
0
41
1
10
152.992439371235
20
14.8136962503396
30
0
41
1
10
152.965879368428
20
14.8244016552596
30
0
41
1
10
152.924690696352
20
14.843469582862
30
0
41
1
10
152.910686950011
20
14.8503315808993
30
0
41
1
10
152.878739758064
20
14.8667986141566
30
0
41
1
10
152.860575447904
20
14.8767326998128
30
0
41
1
10
152.842621958918
20
14.8870953086338
30
0
0
SPLINE
5
249
100
AcDbEntity
8
1
62
256
6
ByLayer
370
-1
48
1
60
0
100
AcDbSpline
70
4
71
3
72
18
73
14
40
0
40
0
40
0
40
0
40
0.439677344605742
40
0.439677344605742
40
0.819840138515331
40
0.819840138515331
40
0.920758376963107
40
0.920758376963107
40
0.968467673881661
40
0.968467673881661
40
0.990240013274133
40
0.990240013274133
40
1
40
1
40
1
40
1
41
1
10
152.260427074926
20
15.8451012531877
30
0
41
1
10
152.299039888289
20
15.9299115288796
30
0
41
1
10
152.33953002862
20
16.0140127776306
30
0
41
1
10
152.422740625386
20
16.1665902141964
30
0
41
1
10
152.463135812562
20
16.2375311720448
30
0
41
1
10
152.530110596876
20
16.3149709989136
30
0
41
1
10
152.545326951724
20
16.3307966184966
30
0
41
1
10
152.571557319884
20
16.3489630054744
30
0
41
1
10
152.580819430522
20
16.3541305344956
30
0
41
1
10
152.59538032535
20
16.3579453634003
30
0
41
1
10
152.600212079635
20
16.3585813792005
30
0
41
1
10
152.607113645342
20
16.3582242758911
30
0
41
1
10
152.609264226543
20
16.35793335293
30
0
41
1
10
152.611362800279
20
16.3574561232627
30
0
0
SPLINE
5
24A
100
AcDbEntity
8
1
62
256
6
ByLayer
370
-1
48
1
60
0
100
AcDbSpline
70
4
71
3
72
20
73
16
40
0
40
0
40
0
40
0
40
0.511365204366882
40
0.511365204366882
40
0.617167309555284
40
0.617167309555284
40
0.78548843432703
40
0.78548843432703
40
0.873398812153788
40
0.873398812153788
40
0.935684402254179
40
0.935684402254179
40
0.978722765374143
40
0.978722765374143
40
1
40
1
40
1
40
1
41
1
10
153.342746973017
20
15.6098164085547
30
0
41
1
10
153.35099933057
20
15.7220530933078
30
0
41
1
10
153.355266802128
20
15.8351380410471
30
0
41
1
10
153.345182589
20
15.9707476835372
30
0
41
1
10
153.342843266365
20
15.9940307170226
30
0
41
1
10
153.334523580571
20
16.0539603113067
30
0
41
1
10
153.327398943516
20
16.0907506805546
30
0
41
1
10
153.309246277701
20
16.1444890084953
30
0
41
1
10
153.301620600703
20
16.1626951157251
30
0
41
1
10
153.284351483778
20
16.191348955286
30
0
41
1
10
153.275787184051
20
16.2026940763782
30
0
41
1
10
153.258214929886
20
16.2185788941866
30
0
41
1
10
153.249977458312
20
16.2242153228326
30
0
41
1
10
153.23659199019
20
16.2301976865181
30
0
41
1
10
153.23192707608
20
16.231803989501
30
0
41
1
10
153.227169410734
20
16.2329707134465
30
0
0
SPLINE
5
24B
100
AcDbEntity
8
1
62
256
6
ByLayer
370
-1
48
1
60
0
100
AcDbSpline
70
4
71
3
72
12
73
8
40
0
40
0
40
0
40
0
40
0.347623173836914
40
0.347623173836914
40
0.696503371294882
40
0.696503371294882
40
1
40
1
40
1
40
1
41
1
10
159.468125246771
20
14.7374459637947
30
0
41
1
10
159.461050397891
20
14.7251769341372
30
0
41
1
10
159.45590072057
20
14.7116163988473
30
0
41
1
10
159.450330427421
20
14.6841472374995
30
0
41
1
10
159.449863542846
20
14.6698396075234
30
0
41
1
10
159.453455112344
20
14.6446662144478
30
0
41
1
10
159.456980293425
20
14.6333045359943
30
0
41
1
10
159.461986693223
20
14.6232068286943
30
0
0
SPLINE
5
24C
100
AcDbEntity
8
1
62
256
6
ByLayer
370
-1
48
1
60
0
100
AcDbSpline
70
4
71
3
72
12
73
8
40
0
40
0
40
0
40
0
40
0.474376698371039
40
0.474376698371039
40
0.706219783413748
40
0.706219783413748
40
1
40
1
40
1
40
1
41
1
10
159.913308893502
20
19.1699328000277
30
0
41
1
10
159.912968152087
20
19.1392163969228
30
0
41
1
10
159.912702674795
20
19.1058092078006
30
0
41
1
10
159.912445960628
20
19.0562082848664
30
0
41
1
10
159.912382503025
20
19.0396835784134
30
0
41
1
10
159.912288796761
20
19.0027121161955
30
0
41
1
10
159.9122714243
20
18.9822022793959
30
0
41
1
10
159.912288428314
20
18.962416975414
30
0
0
SPLINE
5
24D
100
AcDbEntity
8
1
62
256
6
ByLayer
370
-1
48
1
60
0
100
AcDbSpline
70
4
71
3
72
16
73
12
40
0
40
0
40
0
40
0
40
0.0426292751499119
40
0.0426292751499119
40
0.0996436166287613
40
0.0996436166287613
40
0.207156078099362
40
0.207156078099362
40
0.580806890299267
40
0.580806890299267
40
1
40
1
40
1
40
1
41
1
10
154.098616422264
20
22.3876199113404
30
0
41
1
10
154.105543664921
20
22.3945196103615
30
0
41
1
10
154.111120404761
20
22.4028380248573
30
0
41
1
10
154.120554318958
20
22.4233808439934
30
0
41
1
10
154.123489946984
20
22.4362644955191
30
0
41
1
10
154.127387513213
20
22.4731442676573
30
0
41
1
10
154.124789482993
20
22.4977525804541
30
0
41
1
10
154.10474211927
20
22.6037487750255
30
0
41
1
10
154.068364510726
20
22.6817325547145
30
0
41
1
10
153.986593502479
20
22.8409825910018
30
0
41
1
10
153.937158367111
20
22.9224470015774
30
0
41
1
10
153.885268522278
20
23.0021828093749
30
0
0
SPLINE
5
24E
100
AcDbEntity
8
1
62
256
6
ByLayer
370
-1
48
1
60
0
100
AcDbSpline
70
4
71
3
72
24
73
20
40
0
40
0
40
0
40
0
40
0.0154450745970737
40
0.0154450745970737
40
0.0417985895668004
40
0.0417985895668004
40
0.0483972597876417
40
0.0483972597876417
40
0.102103855500433
40
0.102103855500433
40
0.185330321121814
40
0.185330321121814
40
0.354377449491151
40
0.354377449491151
40
0.535348727398703
40
0.535348727398703
40
0.666091501001303
40
0.666091501001303
40
1
40
1
40
1
40
1
41
1
10
153.220830495333
20
16.2079961460988
30
0
41
1
10
153.224036236956
20
16.2072671390681
30
0
41
1
10
153.227162783436
20
16.2060838951529
30
0
41
1
10
153.234929401877
20
16.2019258464519
30
0
41
1
10
153.239247732925
20
16.1982196234134
30
0
41
1
10
153.243797611313
20
16.1930486173486
30
0
41
1
10
153.24468131304
20
16.1919699469062
30
0
41
1
10
153.252328725774
20
16.1820257518444
30
0
41
1
10
153.257038288966
20
16.1716532046979
30
0
41
1
10
153.266515742541
20
16.1449596696619
30
0
41
1
10
153.270018883457
20
16.1279480994575
30
0
41
1
10
153.277881828472
20
16.0764117669997
30
0
41
1
10
153.279378533389
20
16.041339226503
30
0
41
1
10
153.279869402108
20
15.9690113478091
30
0
41
1
10
153.278444113177
20
15.9315780567789
30
0
41
1
10
153.274482540138
20
15.8672378407317
30
0
41
1
10
153.27233782059
20
15.8402726480246
30
0
41
1
10
153.263482460892
20
15.7445806869792
30
0
41
1
10
153.254912263989
20
15.6760051185943
30
0
41
1
10
153.245129274038
20
15.607626412579
30
0
0
SPLINE
5
24F
100
AcDbEntity
8
1
62
256
6
ByLayer
370
-1
48
1
60
0
100
AcDbSpline
70
4
71
3
72
14
73
10
40
0
40
0
40
0
40
0
40
0.249606055014982
40
0.249606055014982
40
0.499158243446787
40
0.499158243446787
40
0.746144217743589
40
0.746144217743589
40
1
40
1
40
1
40
1
41
1
10
152.282867821605
20
15.2101808752032
30
0
41
1
10
152.267212745005
20
15.2192168589608
30
0
41
1
10
152.251595084699
20
15.2286483294173
30
0
41
1
10
152.221087954243
20
15.2478900669254
30
0
41
1
10
152.206092228648
20
15.2577670402324
30
0
41
1
10
152.177362508983
20
15.2775263980755
30
0
41
1
10
152.163521697856
20
15.2874732602233
30
0
41
1
10
152.136918469011
20
15.307483883019
30
0
41
1
10
152.124104087609
20
15.3176128890404
30
0
41
1
10
152.112229416391
20
15.3275179825268
30
0
0
SPLINE
5
250
100
AcDbEntity
8
1
62
256
6
ByLayer
370
-1
48
1
60
0
100
AcDbSpline
70
4
71
3
72
10
73
6
40
0
40
0
40
0
40
0
40
0.709495622816753
40
0.709495622816753
40
1
40
1
40
1
40
1
41
1
10
159.915205898842
20
15.6196308294666
30
0
41
1
10
159.91275343313
20
15.5950728089115
30
0
41
1
10
159.906130941094
20
15.5694576979035
30
0
41
1
10
159.892304309376
20
15.5360319567915
30
0
41
1
10
159.887677828051
20
15.5264343014396
30
0
41
1
10
159.882542102796
20
15.5171583036373
30
0
0
SPLINE
5
251
100
AcDbEntity
8
1
62
256
6
ByLayer
370
-1
48
1
60
0
100
AcDbSpline
70
4
71
3
72
24
73
20
40
0
40
0
40
0
40
0
40
0.0154450745970802
40
0.0154450745970802
40
0.0417985895668913
40
0.0417985895668913
40
0.0483972597877342
40
0.0483972597877342
40
0.10210385550062
40
0.10210385550062
40
0.185330321122068
40
0.185330321122068
40
0.354377449491662
40
0.354377449491662
40
0.535348727399474
40
0.535348727399474
40
0.666091500997367
40
0.666091500997367
40
1
40
1
40
1
40
1
41
1
10
158.599153815492
20
18.712816847242
30
0
41
1
10
158.598194409631
20
18.7158641974976
30
0
41
1
10
158.597675257617
20
18.7190606953896
30
0
41
1
10
158.597460655687
20
18.727580263305
30
0
41
1
10
158.598571180002
20
18.7329798414602
30
0
41
1
10
158.600857952385
20
18.7392705592942
30
0
41
1
10
158.60136766302
20
18.7405276970659
30
0
41
1
10
158.606316260756
20
18.7516964152692
30
0
41
1
10
158.613111106865
20
18.7605933429262
30
0
41
1
10
158.631918098235
20
18.7812625990753
30
0
41
1
10
158.645171411149
20
18.7922972891917
30
0
41
1
10
158.686695919703
20
18.8234089180132
30
0
41
1
10
158.716880667983
20
18.8413328259435
30
0
41
1
10
158.78042450035
20
18.8761066997542
30
0
41
1
10
158.814150078952
20
18.8926876339006
30
0
41
1
10
158.872871721814
20
18.9199110577942
30
0
41
1
10
158.89772384824
20
18.9309117127503
30
0
41
1
10
158.986537683406
20
18.9688994895449
30
0
41
1
10
159.051293338723
20
18.9942448362109
30
0
41
1
10
159.116479471179
20
19.0184717662534
30
0
0
SPLINE
5
252
100
AcDbEntity
8
1
62
256
6
ByLayer
370
-1
48
1
60
0
100
AcDbSpline
70
4
71
2
72
6
73
3
40
0
40
0
40
0
40
1
40
1
40
1
41
0.500001283997235
10
159.461986693223
20
14.6232068286943
30
0
41
0.499998716002765
10
159.462402802599
20
14.6223675527958
30
0
41
0.500001283997235
10
159.462818403514
20
14.6215312923707
30
0
0
SPLINE
5
253
100
AcDbEntity
8
1
62
256
6
ByLayer
370
-1
48
1
60
0
100
AcDbSpline
70
4
71
3
72
20
73
16
40
0
40
0
40
0
40
0
40
0.51136520436744
40
0.51136520436744
40
0.617167309555447
40
0.617167309555447
40
0.785488434327092
40
0.785488434327092
40
0.873398812153863
40
0.873398812153863
40
0.935684402254232
40
0.935684402254232
40
0.978722765374142
40
0.978722765374142
40
1
40
1
40
1
40
1
41
1
10
153.046321512804
20
22.1703386782686
30
0
41
1
10
153.142841975179
20
22.1068769247207
30
0
41
1
10
153.242099715831
20
22.0463216852593
30
0
41
1
10
153.368669375634
20
21.9864233537817
30
0
41
1
10
153.390701916088
20
21.976647955955
30
0
41
1
10
153.448552982107
20
21.9534094047997
30
0
41
1
10
153.485068085153
20
21.9408311440281
30
0
41
1
10
153.542247026916
20
21.9289392305923
30
0
41
1
10
153.5623508642
20
21.926144996617
30
0
41
1
10
153.596604546802
20
21.9261542319456
30
0
41
1
10
153.611023505916
20
21.9276026312924
30
0
41
1
10
153.63398080646
20
21.9342999489615
30
0
41
1
10
153.643120083717
20
21.938351584792
30
0
41
1
10
153.65512333365
20
21.9465359828104
30
0
41
1
10
153.658877509276
20
21.9496294585905
30
0
41
1
10
153.662283637909
20
21.9530220440044
30
0
0
SPLINE
5
254
100
AcDbEntity
8
1
62
256
6
ByLayer
370
-1
48
1
60
0
100
AcDbSpline
70
4
71
3
72
16
73
12
40
0
40
0
40
0
40
0
40
0.0426292751498942
40
0.0426292751498942
40
0.0996436166287151
40
0.0996436166287151
40
0.207156078099338
40
0.207156078099338
40
0.580806890299264
40
0.580806890299264
40
1
40
1
40
1
40
1
41
1
10
158.74729249938
20
18.1225230205593
30
0
41
1
10
158.750041198497
20
18.1132504869348
30
0
41
1
10
158.754731670745
20
18.1043929469535
30
0
41
1
10
158.768467188537
20
18.0861482704697
30
0
41
1
10
158.778560382855
20
18.0771999454481
30
0
41
1
10
158.809687646951
20
18.0553548821653
30
0
41
1
10
158.833036573236
20
18.0451281086247
30
0
41
1
10
158.938001915513
20
18.0084880381522
30
0
41
1
10
159.025956822972
20
17.999626492902
30
0
41
1
10
159.209281834761
20
17.9877924053425
30
0
41
1
10
159.306834630849
20
17.9881015381835
30
0
41
1
10
159.404055576501
20
17.9913354727482
30
0
0
SPLINE
5
255
100
AcDbEntity
8
1
62
256
6
ByLayer
370
-1
48
1
60
0
100
AcDbSpline
70
4
71
3
72
10
73
6
40
0
40
0
40
0
40
0
40
0.709495622816666
40
0.709495622816666
40
1
40
1
40
1
40
1
41
1
10
155.753803834968
20
24.6064123582382
30
0
41
1
10
155.777054651599
20
24.616543439256
30
0
41
1
10
155.802166127392
20
24.6219874249781
30
0
41
1
10
155.836803111354
20
24.6236746442517
30
0
41
1
10
155.846983969744
20
24.6234717072203
30
0
41
1
10
155.857100846915
20
24.6226363932797
30
0
0
SPLINE
5
256
100
AcDbEntity
8
1
62
256
6
ByLayer
370
-1
48
1
60
0
100
AcDbSpline
70
4
71
3
72
14
73
10
40
0
40
0
40
0
40
0
40
0.249606055014978
40
0.249606055014978
40
0.49915824344687
40
0.49915824344687
40
0.746144217743598
40
0.746144217743598
40
1
40
1
40
1
40
1
41
1
10
159.912818579705
20
18.3455504838604
30
0
41
1
10
159.912833406859
20
18.3282981019064
30
0
41
1
10
159.912874408918
20
18.3114600655875
30
0
41
1
10
159.913005940546
20
18.2793013371836
30
0
41
1
10
159.913096908618
20
18.2638683579388
30
0
41
1
10
159.913323755218
20
18.2350491912625
30
0
41
1
10
159.913459912358
20
18.2215478140881
30
0
41
1
10
159.9137776668
20
18.1963948758895
30
0
41
1
10
159.913961528645
20
18.1847175851101
30
0
41
1
10
159.914164514441
20
18.1743607887025
30
0
0
SPLINE
5
257
100
AcDbEntity
8
1
62
256
6
ByLayer
370
-1
48
1
60
0
100
AcDbSpline
70
4
71
3
72
24
73
20
40
0
40
0
40
0
40
0
40
0.0154450745970033
40
0.0154450745970033
40
0.0417985895668443
40
0.0417985895668443
40
0.0483972597876688
40
0.0483972597876688
40
0.102103855500575
40
0.102103855500575
40
0.185330321121998
40
0.185330321121998
40
0.354377449491629
40
0.354377449491629
40
0.535348727399445
40
0.535348727399445
40
0.666091500997343
40
0.666091500997343
40
1
40
1
40
1
40
1
41
1
10
153.643511077265
20
21.9699914613254
30
0
41
1
10
153.641265230563
20
21.9676806255588
30
0
41
1
10
153.6386569783
20
21.9656542037167
30
0
41
1
10
153.631099383328
20
21.9612070506699
30
0
41
1
10
153.625663481738
20
21.9594055303532
30
0
41
1
10
153.618815819938
20
21.9581167904758
30
0
41
1
10
153.617420058377
20
21.957902261072
30
0
41
1
10
153.604801990842
20
21.9563391443537
30
0
41
1
10
153.593271954699
20
21.9574213713445
30
0
41
1
10
153.56491939855
20
21.962400088838
30
0
41
1
10
153.548117468079
20
21.9676788661506
30
0
41
1
10
153.498589909594
20
21.9859528473912
30
0
41
1
10
153.466809848098
20
22.0015877638019
30
0
41
1
10
153.402569383633
20
22.0359831363986
30
0
41
1
10
153.370161074521
20
22.0551773085543
30
0
41
1
10
153.315213851776
20
22.0894211538426
30
0
41
1
10
153.292427535879
20
22.104174375464
30
0
41
1
10
153.212187760204
20
22.1575603767459
30
0
41
1
10
153.155798424211
20
22.1976609144382
30
0
41
1
10
153.100190581291
20
22.2386703754825
30
0
0
SPLINE
5
258
100
AcDbEntity
8
1
62
256
6
ByLayer
370
-1
48
1
60
0
100
AcDbSpline
70
4
71
2
72
6
73
3
40
0
40
0
40
0
40
1
40
1
40
1
41
0.500001284340826
10
156.771839904404
20
24.571369065168
30
0
41
0.499998715659174
10
156.772437331905
20
24.57221291814
30
0
41
0.500001284340826
10
156.773033979457
20
24.5730572664469
30
0
0
SPLINE
5
259
100
AcDbEntity
8
1
62
256
6
ByLayer
370
-1
48
1
60
0
100
AcDbSpline
70
4
71
3
72
12
73
8
40
0
40
0
40
0
40
0
40
0.34762317383675
40
0.34762317383675
40
0.69650337129467
40
0.69650337129467
40
1
40
1
40
1
40
1
41
1
10
156.666619400719
20
24.5202413776192
30
0
41
1
10
156.680667847678
20
24.5196618326363
30
0
41
1
10
156.694938154901
20
24.5213832799837
30
0
41
1
10
156.721773159958
20
24.5294851155641
30
0
41
1
10
156.734717994909
20
24.5360234807311
30
0
41
1
10
156.755834442797
20
24.5520379631345
30
0
41
1
10
156.764651984386
20
24.5612162890355
30
0
41
1
10
156.771839904404
20
24.571369065168
30
0
0
SPLINE
5
25A
100
AcDbEntity
8
1
62
256
6
ByLayer
370
-1
48
1
60
0
100
AcDbSpline
70
4
71
2
72
6
73
3
40
0
40
0
40
0
40
1
40
1
40
1
41
0.50000128501194
10
149.209426072038
20
17.3854866600009
30
0
41
0.49999871498806
10
149.208423293561
20
17.3856472329709
30
0
41
0.50000128501194
10
149.207422131115
20
17.3858093243473
30
0
0
SPLINE
5
25B
100
AcDbEntity
8
1
62
256
6
ByLayer
370
-1
48
1
60
0
100
AcDbSpline
70
4
71
3
72
12
73
8
40
0
40
0
40
0
40
0
40
0.474376698371055
40
0.474376698371055
40
0.706219783413809
40
0.706219783413809
40
1
40
1
40
1
40
1
41
1
10
152.525521341396
20
22.7760408293622
30
0
41
1
10
152.548027251386
20
22.7834533540439
30
0
41
1
10
152.57405629961
20
22.7939292726391
30
0
41
1
10
152.614731543351
20
22.8126399652501
30
0
41
1
10
152.628608374487
20
22.8193802989646
30
0
41
1
10
152.660368153907
20
22.8355693298914
30
0
41
1
10
152.678497719144
20
22.8453450375598
30
0
41
1
10
152.696485216158
20
22.8555508083198
30
0
0
SPLINE
5
25C
100
AcDbEntity
8
1
62
256
6
ByLayer
370
-1
48
1
60
0
100
AcDbSpline
70
4
71
3
72
18
73
14
40
0
40
0
40
0
40
0
40
0.439677344605688
40
0.439677344605688
40
0.819840138515278
40
0.819840138515278
40
0.920758376963006
40
0.920758376963006
40
0.968467673881551
40
0.968467673881551
40
0.990240013274129
40
0.990240013274129
40
1
40
1
40
1
40
1
41
1
10
159.399624369984
20
18.0765571935859
30
0
41
1
10
159.305523417937
20
18.0687964180291
30
0
41
1
10
159.211106226363
20
18.0629495889779
30
0
41
1
10
159.034933227056
20
18.060551814113
30
0
41
1
10
158.952166252144
20
18.0608713033027
30
0
41
1
10
158.850379454369
20
18.0804943802451
30
0
41
1
10
158.828813740596
20
18.0857929932834
30
0
41
1
10
158.799677766156
20
18.0992586550722
30
0
41
1
10
158.790489760285
20
18.1046062049177
30
0
41
1
10
158.779846279341
20
18.115060981173
30
0
41
1
10
158.776870036082
20
18.1188295511778
30
0
41
1
10
158.773735168959
20
18.1248139536507
30
0
41
1
10
158.77291678178
20
18.1267641167021
30
0
41
1
10
158.772288726191
20
18.1287590027423
30
0
0
SPLINE
5
25D
100
AcDbEntity
8
1
62
256
6
ByLayer
370
-1
48
1
60
0
100
AcDbSpline
70
4
71
3
72
16
73
12
40
0
40
0
40
0
40
0
40
0.0426292751498861
40
0.0426292751498861
40
0.0996436166287199
40
0.0996436166287199
40
0.207156078099336
40
0.207156078099336
40
0.580806890299227
40
0.580806890299227
40
1
40
1
40
1
40
1
41
1
10
152.617701715681
20
16.3824306906103
30
0
41
1
10
152.608025773908
20
16.3848035252137
30
0
41
1
10
152.59775856182
20
16.3853426506991
30
0
41
1
10
152.57458912983
20
16.3830445080469
30
0
41
1
10
152.561560307487
20
16.3791091815428
30
0
41
1
10
152.526535477161
20
16.3640744726873
30
0
41
1
10
152.505784581096
20
16.3496929334312
30
0
41
1
10
152.420866602542
20
16.2803368093323
30
0
41
1
10
152.369289303628
20
16.2112145748934
30
0
41
1
10
152.267735300085
20
16.0637986261657
30
0
41
1
10
152.219617639365
20
15.9820250827491
30
0
41
1
10
152.174286538546
20
15.8990553403869
30
0
0
SPLINE
5
25E
100
AcDbEntity
8
1
62
256
6
ByLayer
370
-1
48
1
60
0
100
AcDbSpline
70
4
71
3
72
18
73
14
40
0
40
0
40
0
40
0
40
0.439677344605718
40
0.439677344605718
40
0.819840138515262
40
0.819840138515262
40
0.92075837696303
40
0.92075837696303
40
0.968467673881583
40
0.968467673881583
40
0.990240013274124
40
0.990240013274124
40
1
40
1
40
1
40
1
41
1
10
153.801713610113
20
22.9425840128711
30
0
41
1
10
153.857473842138
20
22.8697113628992
30
0
41
1
10
153.911671839404
20
22.7956161811196
30
0
41
1
10
154.005132546544
20
22.6530858931328
30
0
41
1
10
154.047736928388
20
22.5853959515042
30
0
41
1
10
154.082820811949
20
22.4925064709321
30
0
41
1
10
154.08922693453
20
22.4722536057685
30
0
41
1
10
154.092204674419
20
22.4417288655492
30
0
41
1
10
154.092152522305
20
22.4315507774569
30
0
41
1
10
154.088257458036
20
22.4176242567272
30
0
41
1
10
154.08640758542
20
22.4133062250155
30
0
41
1
10
154.082645365545
20
22.4077476776193
30
0
41
1
10
154.081314059614
20
22.4061020704288
30
0
41
1
10
154.07984386162
20
22.4045893286613
30
0
0
SPLINE
5
25F
100
AcDbEntity
8
1
62
256
6
ByLayer
370
-1
48
1
60
0
100
AcDbSpline
70
4
71
3
72
8
73
4
40
0
40
0
40
0
40
0
40
1
40
1
40
1
40
1
41
1
10
151.10719474597
20
22.5195752736869
30
0
41
1
10
151.106867448619
20
22.5195334243281
30
0
41
1
10
151.106539796201
20
22.5194914679192
30
0
41
1
10
151.106211794115
20
22.5194494029735
30
0
0
SPLINE
5
260
100
AcDbEntity
8
1
62
256
6
ByLayer
370
-1
48
1
60
0
100
AcDbSpline
70
4
71
1
72
4
73
2
40
0
40
0
40
1
40
1
41
1.08358774580744
10
147.483664080381
20
16.7364322602659
30
0
41
1.08358774580744
10
147.512561196097
20
16.8772335187806
30
0
0
SPLINE
5
261
100
AcDbEntity
8
1
62
256
6
ByLayer
370
-1
48
1
60
0
100
AcDbSpline
70
4
71
3
72
10
73
6
40
0
40
0
40
0
40
0
40
0.722254617258851
40
0.722254617258851
40
1
40
1
40
1
40
1
41
1
10
150.880633446743
20
22.4678449382479
30
0
41
1
10
150.930538123638
20
22.4921615696966
30
0
41
1
10
150.985508725554
20
22.5084741975072
30
0
41
1
10
151.062590163713
20
22.5181415458612
30
0
41
1
10
151.084422801947
20
22.5194861163459
30
0
41
1
10
151.106211794113
20
22.5194494029736
30
0
0
SPLINE
5
262
100
AcDbEntity
8
1
62
256
6
ByLayer
370
-1
48
1
60
0
100
AcDbSpline
70
4
71
3
72
10
73
6
40
0
40
0
40
0
40
0
40
0.638091248905345
40
0.638091248905345
40
1
40
1
40
1
40
1
41
1
10
150.880633446743
20
22.4678449382479
30
0
41
1
10
150.852597831287
20
22.4574756514364
30
0
41
1
10
150.827831232653
20
22.446361552474
30
0
41
1
10
150.796095010705
20
22.4309769815107
30
0
41
1
10
150.785862334452
20
22.4257459290081
30
0
41
1
10
150.777217013951
20
22.4214773545037
30
0
0
SPLINE
5
263
100
AcDbEntity
8
1
62
256
6
ByLayer
370
-1
48
1
60
0
100
AcDbSpline
70
4
71
3
72
12
73
8
40
0
40
0
40
0
40
0
40
0.404644073901328
40
0.404644073901328
40
0.80928594775573
40
0.80928594775573
40
1
40
1
40
1
40
1
41
1
10
150.612873699267
20
22.0641123213662
30
0
41
1
10
150.612873699267
20
22.1181595628661
30
0
41
1
10
150.622533894695
20
22.1729180566476
30
0
41
1
10
150.659573456429
20
22.274787942225
30
0
41
1
10
150.687463376176
20
22.3233040845859
30
0
41
1
10
150.739068874512
20
22.3854398474738
30
0
41
1
10
150.757454001514
20
22.4042569846191
30
0
41
1
10
150.777217013953
20
22.4214773545059
30
0
0
SPLINE
5
264
100
AcDbEntity
8
1
62
256
6
ByLayer
370
-1
48
1
60
0
100
AcDbSpline
70
4
71
3
72
8
73
4
40
0
40
0
40
0
40
0
40
1
40
1
40
1
40
1
41
1
10
153.711243977836
20
18.6407004692562
30
0
41
1
10
153.70465014195
20
18.6404134008719
30
0
41
1
10
153.698056344762
20
18.6401263570012
30
0
41
1
10
153.691462584739
20
18.6398393366724
30
0
0
SPLINE
5
265
100
AcDbEntity
8
1
62
256
6
ByLayer
370
-1
48
1
60
0
100
AcDbSpline
70
4
71
3
72
30
73
26
40
0
40
0
40
0
40
0
40
0.0511772287529005
40
0.0511772287529005
40
0.135075241067725
40
0.135075241067725
40
0.271834780652246
40
0.271834780652246
40
0.46906126691061
40
0.46906126691061
40
0.500636061959855
40
0.500636061959855
40
0.599800502489267
40
0.599800502489267
40
0.697557955314495
40
0.697557955314495
40
0.781333785463057
40
0.781333785463057
40
0.847844869822012
40
0.847844869822012
40
0.899113486931112
40
0.899113486931112
40
0.939077913069115
40
0.939077913069115
40
1
40
1
40
1
40
1
41
1
10
154.100212329938
20
17.9879938563827
30
0
41
1
10
154.109253688576
20
17.9958501941635
30
0
41
1
10
154.116341123745
20
18.0055747152502
30
0
41
1
10
154.130245780887
20
18.0334028017239
30
0
41
1
10
154.134445718365
20
18.0533351344653
30
0
41
1
10
154.1378416384
20
18.1071509512141
30
0
41
1
10
154.13252366761
20
18.1431211488405
30
0
41
1
10
154.109391556542
20
18.2305980434013
30
0
41
1
10
154.086560224758
20
18.2839044854097
30
0
41
1
10
154.053561719086
20
18.3435751558253
30
0
41
1
10
154.048796644923
20
18.3518704485052
30
0
41
1
10
154.028482686687
20
18.3859581957555
30
0
41
1
10
154.01153752545
20
18.4114649933948
30
0
41
1
10
153.975313237368
20
18.4604182907427
30
0
41
1
10
153.955952350185
20
18.484055083575
30
0
41
1
10
153.917778078973
20
18.5255065729163
30
0
41
1
10
153.899167266999
20
18.5437979602679
30
0
41
1
10
153.864213957017
20
18.5739583222142
30
0
41
1
10
153.848097604959
20
18.5864558607433
30
0
41
1
10
153.818624861515
20
18.6061077088769
30
0
41
1
10
153.805404898461
20
18.6138778740665
30
0
41
1
10
153.78144325643
20
18.6255570772116
30
0
41
1
10
153.770735350651
20
18.6299658826717
30
0
41
1
10
153.743733581023
20
18.6385017624285
30
0
41
1
10
153.727010997266
20
18.64138690017
30
0
41
1
10
153.711243977836
20
18.6407004692562
30
0
0
SPLINE
5
266
100
AcDbEntity
8
1
62
256
6
ByLayer
370
-1
48
1
60
0
100
AcDbSpline
70
4
71
3
72
30
73
26
40
0
40
0
40
0
40
0
40
0.0515194889309848
40
0.0515194889309848
40
0.0928771460763469
40
0.0928771460763469
40
0.14818515044218
40
0.14818515044218
40
0.203338923043216
40
0.203338923043216
40
0.287955708682464
40
0.287955708682464
40
0.372427214532293
40
0.372427214532293
40
0.435367147735054
40
0.435367147735054
40
0.498971020782961
40
0.498971020782961
40
0.701334348039026
40
0.701334348039026
40
0.838887327921394
40
0.838887327921394
40
0.925006664597124
40
0.925006664597124
40
1
40
1
40
1
40
1
41
1
10
153.711243977836
20
19.392795788221
30
0
41
1
10
153.724620138342
20
19.3879653957399
30
0
41
1
10
153.73868316247
20
19.3856976514543
30
0
41
1
10
153.763650165788
20
19.3852086153362
30
0
41
1
10
153.774796231038
20
19.3862616319622
30
0
41
1
10
153.800326605546
20
19.3909691281299
30
0
41
1
10
153.814674414718
20
19.3953938213819
30
0
41
1
10
153.842431558419
20
19.4066580816877
30
0
41
1
10
153.855936898361
20
19.4135319036117
30
0
41
1
10
153.889016840603
20
19.4332698675802
30
0
41
1
10
153.9081492436
20
19.4474568442822
30
0
41
1
10
153.944363196083
20
19.4789154513646
30
0
41
1
10
153.961564908327
20
19.4962945696615
30
0
41
1
10
153.989832918079
20
19.5287759161051
30
0
41
1
10
154.001388255128
20
19.5433847897706
30
0
41
1
10
154.023455340246
20
19.5739411914082
30
0
41
1
10
154.033983934217
20
19.5899420610939
30
0
41
1
10
154.074989907438
20
19.658363772843
30
0
41
1
10
154.100503211373
20
19.7163306502157
30
0
41
1
10
154.128212999931
20
19.8172578556832
30
0
41
1
10
154.135523141992
20
19.8600513562989
30
0
41
1
10
154.136535718056
20
19.9288829504614
30
0
41
1
10
154.134260249148
20
19.9557149173565
30
0
41
1
10
154.122307899452
20
20.0029073918021
30
0
41
1
10
154.113336756466
20
20.0243091191639
30
0
41
1
10
154.100212329938
20
20.0418202687174
30
0
0
SPLINE
5
267
100
AcDbEntity
8
1
62
256
6
ByLayer
370
-1
48
1
60
0
100
AcDbSpline
70
4
71
3
72
22
73
18
40
0
40
0
40
0
40
0
40
0.142057608738685
40
0.142057608738685
40
0.351004812992164
40
0.351004812992164
40
0.487763342941398
40
0.487763342941398
40
0.591529353509008
40
0.591529353509008
40
0.758694969226897
40
0.758694969226897
40
0.858776631808657
40
0.858776631808657
40
0.96035991951715
40
0.96035991951715
40
1
40
1
40
1
40
1
41
1
10
153.489082083105
20
19.0436178660679
30
0
41
1
10
153.489082083105
20
19.0664642613772
30
0
41
1
10
153.490114866162
20
19.089251356899
30
0
41
1
10
153.495293100101
20
19.1450001583181
30
0
41
1
10
153.500670935244
20
19.1778865888968
30
0
41
1
10
153.514007833576
20
19.2305937984329
30
0
41
1
10
153.520464520037
20
19.2510949627359
30
0
41
1
10
153.534281449613
20
19.2857835135515
30
0
41
1
10
153.541072783583
20
19.300356847209
30
0
41
1
10
153.561239869506
20
19.3363187478409
30
0
41
1
10
153.576375965494
20
19.3570491378515
30
0
41
1
10
153.605709685683
20
19.3829026705658
30
0
41
1
10
153.618116168042
20
19.3910628329012
30
0
41
1
10
153.644878529121
20
19.401711860269
30
0
41
1
10
153.659687730386
20
19.4041574274973
30
0
41
1
10
153.679994217938
20
19.4024925891908
30
0
41
1
10
153.685778326265
20
19.4014700195087
30
0
41
1
10
153.691462584739
20
19.3999393046539
30
0
0
SPLINE
5
268
100
AcDbEntity
8
1
62
256
6
ByLayer
370
-1
48
1
60
0
100
AcDbSpline
70
4
71
3
72
8
73
4
40
0
40
0
40
0
40
0
40
1
40
1
40
1
40
1
41
1
10
153.691462584739
20
19.3999393046539
30
0
41
1
10
153.698056344762
20
19.3975581232522
30
0
41
1
10
153.70465014195
20
19.395176950982
30
0
41
1
10
153.711243977836
20
19.3927957882209
30
0
0
SPLINE
5
269
100
AcDbEntity
8
1
62
256
6
ByLayer
370
-1
48
1
60
0
100
AcDbSpline
70
4
71
3
72
24
73
20
40
0
40
0
40
0
40
0
40
0.0974021566270959
40
0.0974021566270959
40
0.18035403107545
40
0.18035403107545
40
0.307542616517139
40
0.307542616517139
40
0.412109117009484
40
0.412109117009484
40
0.516348967690656
40
0.516348967690656
40
0.620446917153129
40
0.620446917153129
40
0.724476829459639
40
0.724476829459639
40
0.933310901385704
40
0.933310901385704
40
1
40
1
40
1
40
1
41
1
10
153.691462584739
20
18.6398393366724
30
0
41
1
10
153.677758694095
20
18.6404036948949
30
0
41
1
10
153.66330456732
20
18.6440282386462
30
0
41
1
10
153.638075779561
20
18.6557317754141
30
0
41
1
10
153.626774947826
20
18.6631605136573
30
0
41
1
10
153.600634639502
20
18.6849677153374
30
0
41
1
10
153.586603540166
20
18.7012153828163
30
0
41
1
10
153.564623556625
20
18.7327284575192
30
0
41
1
10
153.555847613893
20
18.7479104131607
30
0
41
1
10
153.540364429099
20
18.7789904202937
30
0
41
1
10
153.533603436222
20
18.7949863362015
30
0
41
1
10
153.521749044838
20
18.8273661601161
30
0
41
1
10
153.516634663505
20
18.8438071122756
30
0
41
1
10
153.507823797025
20
18.8768949031107
30
0
41
1
10
153.504117782348
20
18.893579028798
30
0
41
1
10
153.494879931272
20
18.9438334504054
30
0
41
1
10
153.491206012379
20
18.9776877335299
30
0
41
1
10
153.489310906217
20
19.0221219031157
30
0
41
1
10
153.489082083105
20
19.0328806292178
30
0
41
1
10
153.489082083105
20
19.0436178660679
30
0
0
SPLINE
5
26A
100
AcDbEntity
8
1
62
256
6
ByLayer
370
-1
48
1
60
0
100
AcDbSpline
70
4
71
3
72
22
73
18
40
0
40
0
40
0
40
0
40
0.0973712659846706
40
0.0973712659846706
40
0.180296832630677
40
0.180296832630677
40
0.307445080803014
40
0.307445080803014
40
0.411978418514872
40
0.411978418514872
40
0.516185210011168
40
0.516185210011168
40
0.620250145292165
40
0.620250145292165
40
0.829289859626446
40
0.829289859626446
40
1
40
1
40
1
40
1
41
1
10
155.558972325562
20
17.5893576638929
30
0
41
1
10
155.564641696911
20
17.5790244850258
30
0
41
1
10
155.573438012576
20
17.5695705622325
30
0
41
1
10
155.593771983599
20
17.5556448655803
30
0
41
1
10
155.604904378754
20
17.5504548242828
30
0
41
1
10
155.634911128914
20
17.5406790817737
30
0
41
1
10
155.655196863115
20
17.5376233936075
30
0
41
1
10
155.692498562865
20
17.5357902851723
30
0
41
1
10
155.709761992788
20
17.5363249899073
30
0
41
1
10
155.744109646162
20
17.5393749519539
30
0
41
1
10
155.761304324161
20
17.541895707512
30
0
41
1
10
155.79535987605
20
17.5484510053466
30
0
41
1
10
155.812280979214
20
17.5524969096457
30
0
41
1
10
155.862511866679
20
17.5665070310337
30
0
41
1
10
155.895401430262
20
17.5783659712756
30
0
41
1
10
155.953233459778
20
17.6032739381634
30
0
41
1
10
155.978646621647
20
17.6157687498854
30
0
41
1
10
156.003261697528
20
17.6293818118755
30
0
0
SPLINE
5
26B
100
AcDbEntity
8
1
62
256
6
ByLayer
370
-1
48
1
60
0
100
AcDbSpline
70
4
71
3
72
8
73
4
40
0
40
0
40
0
40
0
40
1
40
1
40
1
40
1
41
1
10
154.086841478975
20
20.059660282065
30
0
41
1
10
154.091298403319
20
20.0537136212128
30
0
41
1
10
154.095755353288
20
20.0477669502357
30
0
41
1
10
154.100212329938
20
20.0418202687174
30
0
0
SPLINE
5
26C
100
AcDbEntity
8
1
62
256
6
ByLayer
370
-1
48
1
60
0
100
AcDbSpline
70
4
71
3
72
34
73
30
40
0
40
0
40
0
40
0
40
0.0514465755209197
40
0.0514465755209197
40
0.135786144735393
40
0.135786144735393
40
0.203131635218825
40
0.203131635218825
40
0.270315608875063
40
0.270315608875063
40
0.33743127853586
40
0.33743127853586
40
0.40451589762539
40
0.40451589762539
40
0.499929883690825
40
0.499929883690825
40
0.599210771747928
40
0.599210771747928
40
0.697083019894033
40
0.697083019894033
40
0.780957226922548
40
0.780957226922548
40
0.847546414393069
40
0.847546414393069
40
0.898875235580167
40
0.898875235580167
40
0.980803570703375
40
0.980803570703375
40
1
40
1
40
1
40
1
41
1
10
154.77440981588
20
17.608755083307
30
0
41
1
10
154.778599060139
20
17.6193407547658
30
0
41
1
10
154.785429302425
20
17.6292099478745
30
0
41
1
10
154.807516186233
20
17.6524354992357
30
0
41
1
10
154.825629516334
20
17.6645414931707
30
0
41
1
10
154.86134494539
20
17.6827577294195
30
0
41
1
10
154.878617399044
20
17.6897184662248
30
0
41
1
10
154.914556158232
20
17.7017225738261
30
0
41
1
10
154.933340828386
20
17.7068057417001
30
0
41
1
10
154.971810931565
20
17.7154158253306
30
0
41
1
10
154.991581368037
20
17.7189608637751
30
0
41
1
10
155.031689941891
20
17.724704259735
30
0
41
1
10
155.052097809397
20
17.7269120104047
30
0
41
1
10
155.101861162852
20
17.7307685374184
30
0
41
1
10
155.131523318976
20
17.7318054860338
30
0
41
1
10
155.191920813023
20
17.7315196124311
30
0
41
1
10
155.222845263576
20
17.7300995626384
30
0
41
1
10
155.283343050827
20
17.7246463070942
30
0
41
1
10
155.313133034007
20
17.7206355394389
30
0
41
1
10
155.366776911803
20
17.7104389539916
30
0
41
1
10
155.391034793377
20
17.7046165303578
30
0
41
1
10
155.432539127496
20
17.6917691627506
30
0
41
1
10
155.450313744343
20
17.6852028961875
30
0
41
1
10
155.47977499013
20
17.6717041404775
30
0
41
1
10
155.491997113955
20
17.6651630303901
30
0
41
1
10
155.520813559362
20
17.6463472775706
30
0
41
1
10
155.536316752333
20
17.6325718096957
30
0
41
1
10
155.548598716456
20
17.6129856180026
30
0
41
1
10
155.550657224368
20
17.6090796940881
30
0
41
1
10
155.552346520083
20
17.60507295093
30
0
0
SPLINE
5
26D
100
AcDbEntity
8
1
62
256
6
ByLayer
370
-1
48
1
60
0
100
AcDbSpline
70
4
71
3
72
24
73
20
40
0
40
0
40
0
40
0
40
0.0380198325523699
40
0.0380198325523699
40
0.246834654675481
40
0.246834654675481
40
0.404726505663718
40
0.404726505663718
40
0.526150637963111
40
0.526150637963111
40
0.621531995503881
40
0.621531995503881
40
0.776890538332441
40
0.776890538332441
40
0.873684213898172
40
0.873684213898172
40
0.971746172254975
40
0.971746172254975
40
1
40
1
40
1
40
1
41
1
10
154.32714195458
20
17.6373152269464
30
0
41
1
10
154.332630273778
20
17.6342280255217
30
0
41
1
10
154.338156027819
20
17.6311972233874
30
0
41
1
10
154.374207330691
20
17.611923512296
30
0
41
1
10
154.405838840025
20
17.5972983562509
30
0
41
1
10
154.462749825227
20
17.5752603103231
30
0
41
1
10
154.487804133614
20
17.5669203661138
30
0
41
1
10
154.532688480523
20
17.5548199690644
30
0
41
1
10
154.552462365371
20
17.5504284784916
30
0
41
1
10
154.587872153097
20
17.5446406091115
30
0
41
1
10
154.603545070267
20
17.5427957604269
30
0
41
1
10
154.644250602477
20
17.5403751132208
30
0
41
1
10
154.669641194657
20
17.5412556059658
30
0
41
1
10
154.707420706245
20
17.5489124647765
30
0
41
1
10
154.721357286891
20
17.5534663547994
30
0
41
1
10
154.745329177016
20
17.5661654702458
30
0
41
1
10
154.755582450884
20
17.5745935460776
30
0
41
1
10
154.764779740646
20
17.5871024215958
30
0
41
1
10
154.76662332601
20
17.5900586357258
30
0
41
1
10
154.768214537091
20
17.593100481065
30
0
0
SPLINE
5
26E
100
AcDbEntity
8
1
62
256
6
ByLayer
370
-1
48
1
60
0
100
AcDbSpline
70
4
71
3
72
8
73
4
40
0
40
0
40
0
40
0
40
1
40
1
40
1
40
1
41
1
10
156.240345383679
20
17.9661825708503
30
0
41
1
10
156.235744948073
20
17.9700981691076
30
0
41
1
10
156.231144489175
20
17.974013810504
30
0
41
1
10
156.226544006026
20
17.9779294968191
30
0
0
SPLINE
5
26F
100
AcDbEntity
8
1
62
256
6
ByLayer
370
-1
48
1
60
0
100
AcDbSpline
70
4
71
3
72
22
73
18
40
0
40
0
40
0
40
0
40
0.0973712659846458
40
0.0973712659846458
40
0.180296832630699
40
0.180296832630699
40
0.307445080803038
40
0.307445080803038
40
0.411978418514926
40
0.411978418514926
40
0.516185210011179
40
0.516185210011179
40
0.620250145292037
40
0.620250145292037
40
0.829289859626307
40
0.829289859626307
40
1
40
1
40
1
40
1
41
1
10
154.086841478975
20
17.976375542089
30
0
41
1
10
154.078661277436
20
17.9676708983804
30
0
41
1
10
154.072858836791
20
17.9567775187093
30
0
41
1
10
154.067725907177
20
17.9347592901161
30
0
41
1
10
154.067456552008
20
17.9236767081811
30
0
41
1
10
154.071099508996
20
17.8955062340002
30
0
41
1
10
154.077243778051
20
17.8778987143035
30
0
41
1
10
154.092400705271
20
17.8470943611125
30
0
41
1
10
154.100825928394
20
17.833411976912
30
0
41
1
10
154.119584137029
20
17.8070333661285
30
0
41
1
10
154.129973475907
20
17.794250244132
30
0
41
1
10
154.152098910693
20
17.7696103719062
30
0
41
1
10
154.163874136082
20
17.7577097946362
30
0
41
1
10
154.200787604609
20
17.7232655127039
30
0
41
1
10
154.227585279897
20
17.7018996754393
30
0
41
1
10
154.278611071584
20
17.6661645801776
30
0
41
1
10
154.302526878699
20
17.6511613052408
30
0
41
1
10
154.32714195458
20
17.6373152269464
30
0
0
SPLINE
5
270
100
AcDbEntity
8
1
62
256
6
ByLayer
370
-1
48
1
60
0
100
AcDbSpline
70
4
71
3
72
8
73
4
40
0
40
0
40
0
40
0
40
1
40
1
40
1
40
1
41
1
10
155.552346520083
20
17.6050729509299
30
0
41
1
10
155.554555132569
20
17.5998344702517
30
0
41
1
10
155.556763734253
20
17.5945960419307
30
0
41
1
10
155.558972325562
20
17.5893576638929
30
0
0
SPLINE
5
271
100
AcDbEntity
8
1
62
256
6
ByLayer
370
-1
48
1
60
0
100
AcDbSpline
70
4
71
3
72
24
73
20
40
0
40
0
40
0
40
0
40
0.0380198325523467
40
0.0380198325523467
40
0.246834654675795
40
0.246834654675795
40
0.404726505664238
40
0.404726505664238
40
0.526150637963652
40
0.526150637963652
40
0.621531995504294
40
0.621531995504294
40
0.776890538332549
40
0.776890538332549
40
0.873684213898394
40
0.873684213898394
40
0.971746172255383
40
0.971746172255383
40
1
40
1
40
1
40
1
41
1
10
154.32714195458
20
20.4419870901185
30
0
41
1
10
154.321653635381
20
20.438951843352
30
0
41
1
10
154.316201912099
20
20.4358477486317
30
0
41
1
10
154.281111522985
20
20.4152849900932
30
0
41
1
10
154.252505858152
20
20.3958260708974
30
0
41
1
10
154.205153005313
20
20.3581033836469
30
0
41
1
10
154.185617255621
20
20.3406321938872
30
0
41
1
10
154.153389275236
20
20.307458305353
30
0
41
1
10
154.140107206089
20
20.2922235914463
30
0
41
1
10
154.118375585767
20
20.2635158755178
30
0
41
1
10
154.109465814875
20
20.2503168288718
30
0
41
1
10
154.088699301375
20
20.2143494056197
30
0
41
1
10
154.078135586545
20
20.1902208929198
30
0
41
1
10
154.068894574297
20
20.1495615990175
30
0
41
1
10
154.067251987341
20
20.133263363367
30
0
41
1
10
154.069442228079
20
20.10148352923
30
0
41
1
10
154.073469157879
20
20.0855808429971
30
0
41
1
10
154.082205341452
20
20.0674608281542
30
0
41
1
10
154.084421172035
20
20.0634791350577
30
0
41
1
10
154.086841478975
20
20.0596602820651
30
0
0
SPLINE
5
272
100
AcDbEntity
8
1
62
256
6
ByLayer
370
-1
48
1
60
0
100
AcDbSpline
70
4
71
3
72
22
73
18
40
0
40
0
40
0
40
0
40
0.0973712659846393
40
0.0973712659846393
40
0.180296832630644
40
0.180296832630644
40
0.307445080802881
40
0.307445080802881
40
0.411978418514746
40
0.411978418514746
40
0.516185210011054
40
0.516185210011054
40
0.62025014529195
40
0.62025014529195
40
0.829289859626193
40
0.829289859626193
40
1
40
1
40
1
40
1
41
1
10
154.768214537091
20
20.4364851890225
30
0
41
1
10
154.762836530228
20
20.4509419432893
30
0
41
1
10
154.754329473634
20
20.4644896443183
30
0
41
1
10
154.734471728367
20
20.4851551905776
30
0
41
1
10
154.723541170388
20
20.4932017598892
30
0
41
1
10
154.693981389926
20
20.5093033016705
30
0
41
1
10
154.673916387345
20
20.5154829240304
30
0
41
1
10
154.636944265575
20
20.5219804295406
30
0
41
1
10
154.619805363786
20
20.5232081261084
30
0
41
1
10
154.585670230303
20
20.5231658806385
30
0
41
1
10
154.568564244794
20
20.5219003575809
30
0
41
1
10
154.534660144344
20
20.5174884967882
30
0
41
1
10
154.517802034058
20
20.5143341077318
30
0
41
1
10
154.467730958276
20
20.5025857428674
30
0
41
1
10
154.43490985704
20
20.491695725286
30
0
41
1
10
154.377153906605
20
20.4678644779021
30
0
41
1
10
154.35175703046
20
20.4556001521086
30
0
41
1
10
154.32714195458
20
20.4419870901185
30
0
0
SPLINE
5
273
100
AcDbEntity
8
1
62
256
6
ByLayer
370
-1
48
1
60
0
100
AcDbSpline
70
4
71
3
72
24
73
20
40
0
40
0
40
0
40
0
40
0.0380198325524614
40
0.0380198325524614
40
0.246834654675712
40
0.246834654675712
40
0.404726505663994
40
0.404726505663994
40
0.526150637963383
40
0.526150637963383
40
0.621531995504118
40
0.621531995504118
40
0.776890538332452
40
0.776890538332452
40
0.873684213898192
40
0.873684213898192
40
0.97174617225512
40
0.97174617225512
40
1
40
1
40
1
40
1
41
1
10
156.841321569002
20
19.0277510359262
30
0
41
1
10
156.841321569002
20
19.0338734841174
30
0
41
1
10
156.841246305988
20
19.0399909413054
30
0
41
1
10
156.840269376096
20
19.0796007404391
30
0
41
1
10
156.837193605209
20
19.1129782257168
30
0
41
1
10
156.827470169881
20
19.1703994862509
30
0
41
1
10
156.821854773073
20
19.1948401057072
30
0
41
1
10
156.80896495456
20
19.2368104303549
30
0
41
1
10
156.802350464363
20
19.2547004673848
30
0
41
1
10
156.78840116227
20
19.2853587822259
30
0
41
1
10
156.781500238396
20
19.2984527614514
30
0
41
1
10
156.761136735728
20
19.3308332651096
30
0
41
1
10
156.745978909237
20
19.3493974824605
30
0
41
1
10
156.716736817063
20
19.3724422245103
30
0
41
1
10
156.704125333111
20
19.3796932461578
30
0
41
1
10
156.6772419114
20
19.3885657982875
30
0
41
1
10
156.662544877472
20
19.390141161892
30
0
41
1
10
156.644053136737
20
19.3878513461183
30
0
41
1
10
156.639865106592
20
19.3870565951915
30
0
41
1
10
156.635724277914
20
19.386003516243
30
0
0
SPLINE
5
274
100
AcDbEntity
8
1
62
256
6
ByLayer
370
-1
48
1
60
0
100
AcDbSpline
70
4
71
3
72
22
73
18
40
0
40
0
40
0
40
0
40
0.0973712659845867
40
0.0973712659845867
40
0.180296832630652
40
0.180296832630652
40
0.307445080803059
40
0.307445080803059
40
0.411978418514967
40
0.411978418514967
40
0.516185210011193
40
0.516185210011193
40
0.620250145292087
40
0.620250145292087
40
0.829289859626373
40
0.829289859626373
40
1
40
1
40
1
40
1
41
1
10
156.635724277914
20
18.6259035482615
30
0
41
1
10
156.649719533044
20
18.6263368008029
30
0
41
1
10
156.66446291889
20
18.6298231467986
30
0
41
1
10
156.690167932405
20
18.6412856035432
30
0
41
1
10
156.701670601316
20
18.6486064081876
30
0
41
1
10
156.728257879337
20
18.6701640394956
30
0
41
1
10
156.742509710293
20
18.6862778381229
30
0
41
1
10
156.764819271815
20
18.7175812814163
30
0
41
1
10
156.773719742681
20
18.7326795710033
30
0
41
1
10
156.789415447366
20
18.7636120021217
30
0
41
1
10
156.796265132732
20
18.7795434959265
30
0
41
1
10
156.808270975555
20
18.811810384508
30
0
41
1
10
156.813448349767
20
18.8282026236984
30
0
41
1
10
156.826845674548
20
18.8777879052804
30
0
41
1
10
156.832971794016
20
18.9114971441171
30
0
41
1
10
156.839816071386
20
18.9726785660186
30
0
41
1
10
156.841321569002
20
19.0002918956416
30
0
41
1
10
156.841321569002
20
19.0277510359262
30
0
0
SPLINE
5
275
100
AcDbEntity
8
1
62
256
6
ByLayer
370
-1
48
1
60
0
100
AcDbSpline
70
4
71
3
72
8
73
4
40
0
40
0
40
0
40
0
40
1
40
1
40
1
40
1
41
1
10
156.226544006026
20
20.0317559091539
30
0
41
1
10
156.231144489176
20
20.0376597198759
30
0
41
1
10
156.235744948073
20
20.0435635202977
30
0
41
1
10
156.240345383679
20
20.0494673108262
30
0
0
SPLINE
5
276
100
AcDbEntity
8
1
62
256
6
ByLayer
370
-1
48
1
60
0
100
AcDbSpline
70
4
71
3
72
8
73
4
40
0
40
0
40
0
40
0
40
1
40
1
40
1
40
1
41
1
10
156.635724277914
20
19.3860035162429
30
0
41
1
10
156.62898700663
20
19.3836854333192
30
0
41
1
10
156.622249700513
20
19.3813673598678
30
0
41
1
10
156.615512358127
20
19.3790492962802
30
0
0
SPLINE
5
277
100
AcDbEntity
8
1
62
256
6
ByLayer
370
-1
48
1
60
0
100
AcDbSpline
70
4
71
3
72
8
73
4
40
0
40
0
40
0
40
0
40
1
40
1
40
1
40
1
41
1
10
154.768214537091
20
17.593100481065
30
0
41
1
10
154.770279617139
20
17.5983186309486
30
0
41
1
10
154.772344709894
20
17.6035368310061
30
0
41
1
10
154.77440981588
20
17.6087550833071
30
0
0
SPLINE
5
278
100
AcDbEntity
8
1
62
256
6
ByLayer
370
-1
48
1
60
0
100
AcDbSpline
70
4
71
3
72
8
73
4
40
0
40
0
40
0
40
0
40
1
40
1
40
1
40
1
41
1
10
154.100212329938
20
17.9879938563826
30
0
41
1
10
154.095755353288
20
17.9841210408638
30
0
41
1
10
154.091298403319
20
17.9802482700227
30
0
41
1
10
154.086841478975
20
17.9763755420891
30
0
0
SPLINE
5
279
100
AcDbEntity
8
1
62
256
6
ByLayer
370
-1
48
1
60
0
100
AcDbSpline
70
4
71
3
72
8
73
4
40
0
40
0
40
0
40
0
40
1
40
1
40
1
40
1
41
1
10
154.77440981588
20
20.4146768146066
30
0
41
1
10
154.772344709894
20
20.421946290488
30
0
41
1
10
154.770279617139
20
20.4292157483897
30
0
41
1
10
154.768214537091
20
20.4364851890224
30
0
0
SPLINE
5
27A
100
AcDbEntity
8
1
62
256
6
ByLayer
370
-1
48
1
60
0
100
AcDbSpline
70
4
71
3
72
22
73
18
40
0
40
0
40
0
40
0
40
0.0973712659845413
40
0.0973712659845413
40
0.180296832630583
40
0.180296832630583
40
0.307445080802875
40
0.307445080802875
40
0.411978418514765
40
0.411978418514765
40
0.516185210010961
40
0.516185210010961
40
0.620250145291854
40
0.620250145291854
40
0.829289859626022
40
0.829289859626022
40
1
40
1
40
1
40
1
41
1
10
156.240345383679
20
20.0494673108263
30
0
41
1
10
156.248816949703
20
20.0622955299347
30
0
41
1
10
156.254908649418
20
20.0772826878415
30
0
41
1
10
156.260517804789
20
20.1060407660418
30
0
41
1
10
156.260988997133
20
20.1199798759908
30
0
41
1
10
156.257793009843
20
20.154476149444
30
0
41
1
10
156.251869472409
20
20.1752076033343
30
0
41
1
10
156.23704212317
20
20.2106763536005
30
0
41
1
10
156.228741428181
20
20.2261211391038
30
0
41
1
10
156.210195739436
20
20.2555074664639
30
0
41
1
10
156.199895093048
20
20.2695458209608
30
0
41
1
10
156.177921109702
20
20.2963291302287
30
0
41
1
10
156.166208877189
20
20.3091212227413
30
0
41
1
10
156.129455220347
20
20.3458272611972
30
0
41
1
10
156.102726007405
20
20.3681620211223
30
0
41
1
10
156.051776294799
20
20.4049738358879
30
0
41
1
10
156.027876773409
20
20.4202075967533
30
0
41
1
10
156.003261697528
20
20.4340536750477
30
0
0
SPLINE
5
27B
100
AcDbEntity
8
1
62
256
6
ByLayer
370
-1
48
1
60
0
100
AcDbSpline
70
4
71
3
72
8
73
4
40
0
40
0
40
0
40
0
40
1
40
1
40
1
40
1
41
1
10
155.558972325562
20
20.4327423718503
30
0
41
1
10
155.556763734253
20
20.4254931593718
30
0
41
1
10
155.554555132569
20
20.4182439297336
30
0
41
1
10
155.552346520083
20
20.4109946822294
30
0
0
SPLINE
5
27C
100
AcDbEntity
8
1
62
256
6
ByLayer
370
-1
48
1
60
0
100
AcDbSpline
70
4
71
3
72
34
73
30
40
0
40
0
40
0
40
0
40
0.0514465755209102
40
0.0514465755209102
40
0.135786144735371
40
0.135786144735371
40
0.203131635218823
40
0.203131635218823
40
0.270315608875026
40
0.270315608875026
40
0.337431278535883
40
0.337431278535883
40
0.404515897625424
40
0.404515897625424
40
0.499929883690816
40
0.499929883690816
40
0.599210771748038
40
0.599210771748038
40
0.697083019894133
40
0.697083019894133
40
0.780957226922626
40
0.780957226922626
40
0.847546414393152
40
0.847546414393152
40
0.898875235580217
40
0.898875235580217
40
0.980803570703421
40
0.980803570703421
40
1
40
1
40
1
40
1
41
1
10
155.552346520083
20
20.4109946822294
30
0
41
1
10
155.547866160606
20
20.396288963154
30
0
41
1
10
155.540745224974
20
20.3823056930333
30
0
41
1
10
155.517937333791
20
20.3488759870027
30
0
41
1
10
155.499408023014
20
20.3308827701157
30
0
41
1
10
155.463029376132
20
20.3032802536405
30
0
41
1
10
155.445487450869
20
20.2925057833317
30
0
41
1
10
155.409066036941
20
20.2736708390449
30
0
41
1
10
155.390066535114
20
20.2655472367999
30
0
41
1
10
155.351221611595
20
20.251632457456
30
0
41
1
10
155.331290354282
20
20.2458113802423
30
0
41
1
10
155.290915036613
20
20.2362928562731
30
0
41
1
10
155.270400786823
20
20.2325795158958
30
0
41
1
10
155.22044697152
20
20.2260274517386
30
0
41
1
10
155.190728496565
20
20.2241934432283
30
0
41
1
10
155.130331002519
20
20.224479316831
30
0
41
1
10
155.099467525514
20
20.2267623030425
30
0
41
1
10
155.039209867528
20
20.2356140205777
30
0
41
1
10
155.009598051844
20
20.242146327894
30
0
41
1
10
154.956390141392
20
20.2585130003227
30
0
41
1
10
154.932376281555
20
20.2677889746873
30
0
41
1
10
154.891383166854
20
20.2878714444373
30
0
41
1
10
154.873862019376
20
20.2980249706247
30
0
41
1
10
154.844895186376
20
20.3185209703752
30
0
41
1
10
154.832904880538
20
20.3283429159507
30
0
41
1
10
154.804724051817
20
20.3561543201389
30
0
41
1
10
154.789658554567
20
20.3761243360765
30
0
41
1
10
154.777938265797
20
20.4036597143999
30
0
41
1
10
154.775989348151
20
20.4091166294039
30
0
41
1
10
154.77440981588
20
20.4146768146065
30
0
0
SPLINE
5
27D
100
AcDbEntity
8
1
62
256
6
ByLayer
370
-1
48
1
60
0
100
AcDbSpline
70
4
71
3
72
24
73
20
40
0
40
0
40
0
40
0
40
0.0380198325520678
40
0.0380198325520678
40
0.246834654675218
40
0.246834654675218
40
0.404726505663588
40
0.404726505663588
40
0.526150637963196
40
0.526150637963196
40
0.621531995504057
40
0.621531995504057
40
0.776890538332484
40
0.776890538332484
40
0.873684213898235
40
0.873684213898235
40
0.971746172255188
40
0.971746172255188
40
1
40
1
40
1
40
1
41
1
10
156.003261697528
20
20.4340536750477
30
0
41
1
10
155.99777337833
20
20.4371408764724
30
0
41
1
10
155.992246802785
20
20.4401600521623
30
0
41
1
10
155.956184822491
20
20.4592826495895
30
0
41
1
10
155.924520028899
20
20.4734367456591
30
0
41
1
10
155.86749884172
20
20.4939151431575
30
0
41
1
10
155.842379974592
20
20.501341411025
30
0
41
1
10
155.797339993024
20
20.5112391674505
30
0
41
1
10
155.777484325178
20
20.5144732130569
30
0
41
1
10
155.741893780992
20
20.5177029021254
30
0
41
1
10
155.726129012092
20
20.5182478067399
30
0
41
1
10
155.685140490576
20
20.5166634094126
30
0
41
1
10
155.659529265636
20
20.5126603815983
30
0
41
1
10
155.621280692158
20
20.4983650607597
30
0
41
1
10
155.607132451337
20
20.4908156214167
30
0
41
1
10
155.582679700648
20
20.4713110615964
30
0
41
1
10
155.572148539939
20
20.4589501545669
30
0
41
1
10
155.562579071911
20
20.4411739756497
30
0
41
1
10
155.560649743748
20
20.4370042749242
30
0
41
1
10
155.558972325562
20
20.4327423718503
30
0
0
SPLINE
5
27E
100
AcDbEntity
8
1
62
256
6
ByLayer
370
-1
48
1
60
0
100
AcDbSpline
70
4
71
3
72
8
73
4
40
0
40
0
40
0
40
0
40
1
40
1
40
1
40
1
41
1
10
156.615512358127
20
18.6269539773156
30
0
41
1
10
156.622249700513
20
18.6266038097577
30
0
41
1
10
156.62898700663
20
18.6262536670682
30
0
41
1
10
156.635724277914
20
18.6259035482615
30
0
0
SPLINE
5
27F
100
AcDbEntity
8
1
62
256
6
ByLayer
370
-1
48
1
60
0
100
AcDbSpline
70
4
71
3
72
24
73
20
40
0
40
0
40
0
40
0
40
0.0380198325525026
40
0.0380198325525026
40
0.246834654675814
40
0.246834654675814
40
0.40472650566405
40
0.40472650566405
40
0.526150637963417
40
0.526150637963417
40
0.621531995504154
40
0.621531995504154
40
0.776890538332404
40
0.776890538332404
40
0.873684213898282
40
0.873684213898282
40
0.971746172255279
40
0.971746172255279
40
1
40
1
40
1
40
1
41
1
10
156.003261697528
20
17.6293818118755
30
0
41
1
10
156.008750016727
20
17.632417058642
30
0
41
1
10
156.014200918505
20
17.6355095269178
30
0
41
1
10
156.049280630197
20
17.6559211717922
30
0
41
1
10
156.077853010772
20
17.6749090310127
30
0
41
1
10
156.125095661634
20
17.7110720698336
30
0
41
1
10
156.144566852584
20
17.7276295832515
30
0
41
1
10
156.17663919831
20
17.7586008311618
30
0
41
1
10
156.189839484459
20
17.7726781001021
30
0
41
1
10
156.211390348322
20
17.798827635719
30
0
41
1
10
156.220208267484
20
17.8107267382949
30
0
41
1
10
156.240691791679
20
17.8426891170136
30
0
41
1
10
156.251034873748
20
17.8636950946442
30
0
41
1
10
156.259806824106
20
17.8977159265187
30
0
41
1
10
156.261237750887
20
17.9110186128491
30
0
41
1
10
156.258566649584
20
17.9359930026122
30
0
41
1
10
156.254261832945
20
17.9479628576474
30
0
41
1
10
156.245153471105
20
17.9608155690913
30
0
41
1
10
156.242851897723
20
17.9635837755923
30
0
41
1
10
156.240345383679
20
17.9661825708502
30
0
0
SPLINE
5
280
100
AcDbEntity
8
1
62
256
6
ByLayer
370
-1
48
1
60
0
100
AcDbSpline
70
4
71
3
72
34
73
30
40
0
40
0
40
0
40
0
40
0.0514465755209376
40
0.0514465755209376
40
0.135786144735381
40
0.135786144735381
40
0.203131635218823
40
0.203131635218823
40
0.270315608875049
40
0.270315608875049
40
0.337431278535862
40
0.337431278535862
40
0.404515897625447
40
0.404515897625447
40
0.499929883690794
40
0.499929883690794
40
0.59921077174805
40
0.59921077174805
40
0.697083019894149
40
0.697083019894149
40
0.780957226922667
40
0.780957226922667
40
0.847546414393151
40
0.847546414393151
40
0.898875235580275
40
0.898875235580275
40
0.980803570703395
40
0.980803570703395
40
1
40
1
40
1
40
1
41
1
10
156.226544006026
20
17.9779294968191
30
0
41
1
10
156.217211532169
20
17.9858728016798
30
0
41
1
10
156.209833403654
20
17.9956657912168
30
0
41
1
10
156.195207739137
20
18.0236289174958
30
0
41
1
10
156.190591820982
20
18.0436029774719
30
0
41
1
10
156.187594233662
20
18.080621430009
30
0
41
1
10
156.1881400878
20
18.0977501720821
30
0
41
1
10
156.192012835335
20
18.132380960608
30
0
41
1
10
156.195351860736
20
18.1499970136726
30
0
41
1
10
156.204233253062
20
18.1853674912275
30
0
41
1
10
156.2097960268
20
18.2031996030802
30
0
41
1
10
156.222772294888
20
18.2388293775021
30
0
41
1
10
156.230208908777
20
18.2566886988626
30
0
41
1
10
156.250166158136
20
18.2996806534804
30
0
41
1
10
156.263570381831
20
18.3248471355733
30
0
41
1
10
156.293769128854
20
18.37523613507
30
0
41
1
10
156.31077526364
20
18.4005822343315
30
0
41
1
10
156.347239680987
20
18.4491914812778
30
0
41
1
10
156.366778735667
20
18.4726441527856
30
0
41
1
10
156.405388974225
20
18.5137322054514
30
0
41
1
10
156.424243807933
20
18.531846260296
30
0
41
1
10
156.459708337333
20
18.5616733203105
30
0
41
1
10
156.476078158759
20
18.5740170951843
30
0
41
1
10
156.506045314991
20
18.5933876022037
30
0
41
1
10
156.519497096031
20
18.601031524613
30
0
41
1
10
156.554842192445
20
18.6176177753515
30
0
41
1
10
156.577763519457
20
18.6249951366459
30
0
41
1
10
156.605114490479
20
18.6271304274419
30
0
41
1
10
156.610359184494
20
18.6272218090692
30
0
41
1
10
156.615512358127
20
18.6269539773156
30
0
0
SPLINE
5
281
100
AcDbEntity
8
1
62
256
6
ByLayer
370
-1
48
1
60
0
100
AcDbSpline
70
4
71
3
72
34
73
30
40
0
40
0
40
0
40
0
40
0.0514465755209091
40
0.0514465755209091
40
0.135786144735333
40
0.135786144735333
40
0.203131635218785
40
0.203131635218785
40
0.270315608874965
40
0.270315608874965
40
0.337431278535715
40
0.337431278535715
40
0.404515897625238
40
0.404515897625238
40
0.499929883690816
40
0.499929883690816
40
0.599210771747969
40
0.599210771747969
40
0.697083019894103
40
0.697083019894103
40
0.780957226922634
40
0.780957226922634
40
0.847546414393163
40
0.847546414393163
40
0.898875235580273
40
0.898875235580273
40
0.980803570703464
40
0.980803570703464
40
1
40
1
40
1
40
1
41
1
10
156.615512358127
20
19.3790492962802
30
0
41
1
10
156.601845082402
20
19.3743469058739
30
0
41
1
10
156.587491364928
20
19.3722136637962
30
0
41
1
10
156.550418312916
20
19.3718491613793
30
0
41
1
10
156.527481074322
20
19.3767736159444
30
0
41
1
10
156.488436449033
20
19.3908826921195
30
0
41
1
10
156.471575113713
20
19.3991438306355
30
0
41
1
10
156.43926777469
20
19.4183550932174
30
0
41
1
10
156.4237147141
20
19.4293677612225
30
0
41
1
10
156.393938593077
20
19.4534758072902
30
0
41
1
10
156.379650519923
20
19.4666248613138
30
0
41
1
10
156.352384842249
20
19.494623675771
30
0
41
1
10
156.33936039749
20
19.509522451608
30
0
41
1
10
156.30945906247
20
19.5473101106404
30
0
41
1
10
156.293172970625
20
19.5710411141705
30
0
41
1
10
156.262974223602
20
19.62171598727
30
0
41
1
10
156.249086394609
20
19.6489136045336
30
0
41
1
10
156.225173089337
20
19.7046753380195
30
0
41
1
10
156.215011244586
20
19.7333995470131
30
0
41
1
10
156.200195589019
20
19.787769228617
30
0
41
1
10
156.194914552023
20
19.8134324824607
30
0
41
1
10
156.189130357012
20
19.8597244611539
30
0
41
1
10
156.187852296276
20
19.880428132403
30
0
41
1
10
156.188605413114
20
19.9167960171526
30
0
41
1
10
156.189950979323
20
19.9326214673934
30
0
41
1
10
156.196797438673
20
19.9725212966356
30
0
41
1
10
156.204434420573
20
19.9967713998364
30
0
41
1
10
156.219784265149
20
20.0224674756406
30
0
41
1
10
156.223025246386
20
20.0272402767271
30
0
41
1
10
156.226544006026
20
20.0317559091538
30
0
0
SPLINE
5
282
100
AcDbEntity
8
1
62
256
6
ByLayer
370
-1
48
1
60
0
100
AcDbSpline
70
4
71
3
72
10
73
6
40
0
40
0
40
0
40
0
40
0.709495622817006
40
0.709495622817006
40
1
40
1
40
1
40
1
41
1
10
149.794600903516
20
16.6665304348051
30
0
41
1
10
149.773802552595
20
16.6809573743424
30
0
41
1
10
149.755080037533
20
16.6975436074917
30
0
41
1
10
149.733818683946
20
16.7223588983822
30
0
41
1
10
149.728116070741
20
16.7298839475896
30
0
41
1
10
149.722980345486
20
16.7376224350938
30
0
0
SPLINE
5
283
100
AcDbEntity
8
1
62
256
6
ByLayer
370
-1
48
1
60
0
100
AcDbSpline
70
4
71
3
72
22
73
18
40
0
40
0
40
0
40
0
40
0.208266363443879
40
0.208266363443879
40
0.317899168106451
40
0.317899168106451
40
0.427584739862647
40
0.427584739862647
40
0.537377253733617
40
0.537377253733617
40
0.647402228731475
40
0.647402228731475
40
0.811583680502521
40
0.811583680502521
40
0.906636022131583
40
0.906636022131583
40
1
40
1
40
1
40
1
41
1
10
160.086321579535
20
12.2644745843715
30
0
41
1
10
160.085144384049
20
12.2851599734248
30
0
41
1
10
160.08329620538
20
12.3045143950194
30
0
41
1
10
160.07933845802
20
12.3313939265777
30
0
41
1
10
160.077759271355
20
12.3402064460075
30
0
41
1
10
160.074107334977
20
12.3566820637707
30
0
41
1
10
160.072031005517
20
12.3643640230532
30
0
41
1
10
160.067262086833
20
12.3782975273538
30
0
41
1
10
160.064562398905
20
12.3845723506521
30
0
41
1
10
160.058350465491
20
12.3952319174525
30
0
41
1
10
160.054821075532
20
12.399644822433
30
0
41
1
10
160.044718867914
20
12.4072626620762
30
0
41
1
10
160.037308517068
20
12.4089609673824
30
0
41
1
10
160.022940320875
20
12.4037466006723
30
0
41
1
10
160.016948283056
20
12.4000297604174
30
0
41
1
10
160.004269851277
20
12.3888915474251
30
0
41
1
10
159.997433276899
20
12.3813726572781
30
0
41
1
10
159.990639479046
20
12.3725588585346
30
0
0
SPLINE
5
284
100
AcDbEntity
8
1
62
256
6
ByLayer
370
-1
48
1
60
0
100
AcDbSpline
70
4
71
3
72
8
73
4
40
0
40
0
40
0
40
0
40
1
40
1
40
1
40
1
41
1
10
160.004580085623
20
11.8953858689304
30
0
41
1
10
160.008769799718
20
11.8991677136628
30
0
41
1
10
160.012959605679
20
11.9029495288294
30
0
41
1
10
160.017149499176
20
11.9067313158218
30
0
0
SPLINE
5
285
100
AcDbEntity
8
1
62
256
6
ByLayer
370
-1
48
1
60
0
100
AcDbSpline
70
4
71
3
72
8
73
4
40
0
40
0
40
0
40
0
40
1
40
1
40
1
40
1
41
1
10
160.029217505229
20
11.266152269447
30
0
41
1
10
160.024948699691
20
11.266559194342
30
0
41
1
10
160.020679981088
20
11.2669661229191
30
0
41
1
10
160.016411353721
20
11.2673730553602
30
0
0
SPLINE
5
286
100
AcDbEntity
8
1
62
256
6
ByLayer
370
-1
48
1
60
0
100
AcDbSpline
70
4
71
3
72
8
73
4
40
0
40
0
40
0
40
0
40
1
40
1
40
1
40
1
41
1
10
160.010735144036
20
10.6388601268549
30
0
41
1
10
160.014980300259
20
10.6358542916382
30
0
41
1
10
160.019225547907
20
10.632848481027
30
0
41
1
10
160.023470882667
20
10.6298426938629
30
0
0
SPLINE
5
287
100
AcDbEntity
8
1
62
256
6
ByLayer
370
-1
48
1
60
0
100
AcDbSpline
70
4
71
3
72
22
73
18
40
0
40
0
40
0
40
0
40
0.208266363442294
40
0.208266363442294
40
0.317899168105103
40
0.317899168105103
40
0.427584739861551
40
0.427584739861551
40
0.5373772537328
40
0.5373772537328
40
0.647402228730865
40
0.647402228730865
40
0.81158368050219
40
0.81158368050219
40
0.906636022131423
40
0.906636022131423
40
1
40
1
40
1
40
1
41
1
10
160.065022207045
20
9.90604673857302
30
0
41
1
10
160.066454585216
20
9.91361710926429
30
0
41
1
10
160.067253099998
20
9.92310131383329
30
0
41
1
10
160.067332732673
20
9.94050712527303
30
0
41
1
10
160.067150063395
20
9.94706661552982
30
0
41
1
10
160.06627995319
20
9.9613309871589
30
0
41
1
10
160.065592068356
20
9.9690516317705
30
0
41
1
10
160.063571821067
20
9.98575066265818
30
0
41
1
10
160.062236915806
20
9.99475653100166
30
0
41
1
10
160.05869609691
20
10.01418155335
30
0
41
1
10
160.05648050497
20
10.0246568278519
30
0
41
1
10
160.049480554815
20
10.0524996244939
30
0
41
1
10
160.043837796686
20
10.0712939678136
30
0
41
1
10
160.03166882571
20
10.1027980498561
30
0
41
1
10
160.026369865483
20
10.1150243078083
30
0
41
1
10
160.014655377692
20
10.1386418919599
30
0
41
1
10
160.008105508881
20
10.1503265194982
30
0
41
1
10
160.001382800331
20
10.1609230008502
30
0
0
SPLINE
5
288
100
AcDbEntity
8
1
62
256
6
ByLayer
370
-1
48
1
60
0
100
AcDbSpline
70
4
71
3
72
16
73
12
40
0
40
0
40
0
40
0
40
0.0023448809015334
40
0.0023448809015334
40
0.244769775796604
40
0.244769775796604
40
0.487038716336992
40
0.487038716336992
40
0.973677497831697
40
0.973677497831697
40
1
40
1
40
1
40
1
41
1
10
160.045481054748
20
9.8861812246939
30
0
41
1
10
160.045506005083
20
9.88617006859749
30
0
41
1
10
160.045530925494
20
9.88615898835937
30
0
41
1
10
160.048130383555
20
9.88500972316044
30
0
41
1
10
160.050393917598
20
9.8846781716465
30
0
41
1
10
160.054419821861
20
9.88537664417566
30
0
41
1
10
160.056186520023
20
9.88640776218151
30
0
41
1
10
160.060866147013
20
9.89130849850955
30
0
41
1
10
160.063175694685
20
9.89698938276831
30
0
41
1
10
160.064855773944
20
9.90518470559769
30
0
41
1
10
160.064940061935
20
9.90561258721479
30
0
41
1
10
160.065022207045
20
9.90604673857302
30
0
0
SPLINE
5
289
100
AcDbEntity
8
1
62
256
6
ByLayer
370
-1
48
1
60
0
100
AcDbSpline
70
4
71
3
72
24
73
20
40
0
40
0
40
0
40
0
40
0.1040004482019
40
0.1040004482019
40
0.192499055461122
40
0.192499055461122
40
0.32850051874698
40
0.32850051874698
40
0.438682575665767
40
0.438682575665767
40
0.548533158172333
40
0.548533158172333
40
0.658237202770523
40
0.658237202770523
40
0.767870673661781
40
0.767870673661781
40
0.988088331635413
40
0.988088331635413
40
1
40
1
40
1
40
1
41
1
10
160.017149499176
20
11.9067313158218
30
0
41
1
10
160.024772101805
20
11.9147411878167
30
0
41
1
10
160.032223272875
20
11.9252449641296
30
0
41
1
10
160.044280557453
20
11.9471649693166
30
0
41
1
10
160.049301404029
20
11.9584390464497
30
0
41
1
10
160.060252312047
20
11.9876401453399
30
0
41
1
10
160.06547298741
20
12.0063651983436
30
0
41
1
10
160.072942815842
20
12.0394879897381
30
0
41
1
10
160.075629639354
20
12.0543040878438
30
0
41
1
10
160.080017504113
20
12.0832232842377
30
0
41
1
10
160.081733456574
20
12.0974209723125
30
0
41
1
10
160.084453908746
20
12.1250885738591
30
0
41
1
10
160.085462711731
20
12.1386094110535
30
0
41
1
10
160.086931590985
20
12.1649263060401
30
0
41
1
10
160.087392887976
20
12.1777541182575
30
0
41
1
10
160.088100173391
20
12.2152022533983
30
0
41
1
10
160.08767954188
20
12.2388586678012
30
0
41
1
10
160.086454361002
20
12.2620974023636
30
0
41
1
10
160.086389090234
20
12.2632883029967
30
0
41
1
10
160.086321579535
20
12.2644745843715
30
0
0
SPLINE
5
28A
100
AcDbEntity
8
1
62
256
6
ByLayer
370
-1
48
1
60
0
100
AcDbSpline
70
4
71
3
72
22
73
18
40
0
40
0
40
0
40
0
40
0.20826636344415
40
0.20826636344415
40
0.317899168106755
40
0.317899168106755
40
0.427584739862997
40
0.427584739862997
40
0.537377253734052
40
0.537377253734052
40
0.647402228731908
40
0.647402228731908
40
0.811583680502754
40
0.811583680502754
40
0.906636022131811
40
0.906636022131811
40
1
40
1
40
1
40
1
41
1
10
160.111974174268
20
10.9028151189076
30
0
41
1
10
160.112229356954
20
10.9310708786522
30
0
41
1
10
160.111781957691
20
10.95991246729
30
0
41
1
10
160.109876459711
20
11.004207513375
30
0
41
1
10
160.108991631129
20
11.0195838370635
30
0
41
1
10
160.106688353076
20
11.0503347403365
30
0
41
1
10
160.105267853311
20
11.065743953816
30
0
41
1
10
160.101756536857
20
11.096392612389
30
0
41
1
10
160.099660711685
20
11.1116828406195
30
0
41
1
10
160.094578835001
20
11.1417904052967
30
0
41
1
10
160.091578745315
20
11.1566920866049
30
0
41
1
10
160.082636852894
20
11.1921928623463
30
0
41
1
10
160.075803219816
20
11.2127161038967
30
0
41
1
10
160.061918590476
20
11.2390680556845
30
0
41
1
10
160.05601273457
20
11.2476039623093
30
0
41
1
10
160.043263592751
20
11.260140607943
30
0
41
1
10
160.036271695112
20
11.2643377994073
30
0
41
1
10
160.029217505231
20
11.2661522694469
30
0
0
SPLINE
5
28B
100
AcDbEntity
8
1
62
256
6
ByLayer
370
-1
48
1
60
0
100
AcDbSpline
70
4
71
3
72
24
73
20
40
0
40
0
40
0
40
0
40
0.104000448201807
40
0.104000448201807
40
0.192499055461049
40
0.192499055461049
40
0.328500518746928
40
0.328500518746928
40
0.438682575665773
40
0.438682575665773
40
0.54853315817236
40
0.54853315817236
40
0.658237202770587
40
0.658237202770587
40
0.767870673661898
40
0.767870673661898
40
0.98808833163561
40
0.98808833163561
40
1
40
1
40
1
40
1
41
1
10
160.023470882667
20
10.6298426938629
30
0
41
1
10
160.031260649093
20
10.6254430624114
30
0
41
1
10
160.039032127921
20
10.6236709562482
30
0
41
1
10
160.05190007728
20
10.6255973847795
30
0
41
1
10
160.057386122574
20
10.6284964423162
30
0
41
1
10
160.069630363555
20
10.6395033547458
30
0
41
1
10
160.075758340907
20
10.6496458664165
30
0
41
1
10
160.084919602754
20
10.6710122267126
30
0
41
1
10
160.088394954758
20
10.6818340964191
30
0
41
1
10
160.094368991849
20
10.704821740469
30
0
41
1
10
160.096887677135
20
10.7170587617221
30
0
41
1
10
160.10121093519
20
10.7424314256911
30
0
41
1
10
160.103022755444
20
10.7556135272488
30
0
41
1
10
160.106088554256
20
10.7826169468533
30
0
41
1
10
160.107345686941
20
10.7964711015099
30
0
41
1
10
160.110423962685
20
10.8388086170464
30
0
41
1
10
160.111566348608
20
10.8681422436072
30
0
41
1
10
160.111942546467
20
10.8995759138795
30
0
41
1
10
160.111959539858
20
10.9011946861746
30
0
41
1
10
160.111974174268
20
10.9028151189076
30
0
0
SPLINE
5
28C
100
AcDbEntity
8
1
62
256
6
ByLayer
370
-1
48
1
60
0
100
AcDbSpline
70
4
71
3
72
10
73
6
40
0
40
0
40
0
40
0
40
0.425586067180728
40
0.425586067180728
40
1
40
1
40
1
40
1
41
1
10
160.016411353721
20
11.2673730553602
30
0
41
1
10
160.00859906551
20
11.2681178084714
30
0
41
1
10
160.000791080648
20
11.2713312544595
30
0
41
1
10
159.983542317044
20
11.2827108267429
30
0
41
1
10
159.974214207995
20
11.292268985528
30
0
41
1
10
159.965728316024
20
11.3035068819364
30
0
0
SPLINE
5
28D
100
AcDbEntity
8
1
62
256
6
ByLayer
370
-1
48
1
60
0
100
AcDbSpline
70
4
71
3
72
10
73
6
40
0
40
0
40
0
40
0
40
0.747052175317044
40
0.747052175317044
40
1
40
1
40
1
40
1
41
1
10
159.970893256466
20
11.8515261030577
30
0
41
1
10
159.978578580998
20
11.8645861054049
30
0
41
1
10
159.986891685741
20
11.8765483598683
30
0
41
1
10
159.998504104739
20
11.8895571163554
30
0
41
1
10
160.001533385105
20
11.8926357652132
30
0
41
1
10
160.004580085623
20
11.8953858689304
30
0
0
LINE
5
4B
100
AcDbEntity
8
1
62
256
6
ByLayer
370
-1
48
1
60
0
100
AcDbLine
10
159.977281
20
10.650463
30
0
11
159.976475
21
10.650459
31
0
39
0
210
0
220
0
230
1
0
LINE
5
4C
100
AcDbEntity
8
1
62
256
6
ByLayer
370
-1
48
1
60
0
100
AcDbLine
10
154.117211
20
17.811522
30
0
11
154.135635
21
18.072275
31
0
39
0
210
0
220
0
230
1
0
LINE
5
4D
100
AcDbEntity
8
1
62
256
6
ByLayer
370
-1
48
1
60
0
100
AcDbLine
10
156.188911
20
18.102362
30
0
11
156.163282
21
17.739644
31
0
39
0
210
0
220
0
230
1
0
LINE
5
4E
100
AcDbEntity
8
1
62
256
6
ByLayer
370
-1
48
1
60
0
100
AcDbLine
10
154.109525
20
19.516581
30
0
11
154.135173
21
19.879573
31
0
39
0
210
0
220
0
230
1
0
LINE
5
4F
100
AcDbEntity
8
1
62
256
6
ByLayer
370
-1
48
1
60
0
100
AcDbLine
10
156.189072
20
19.918468
30
0
11
156.16312
21
19.551176
31
0
39
0
210
0
220
0
230
1
0
LINE
5
50
100
AcDbEntity
8
1
62
256
6
ByLayer
370
-1
48
1
60
0
100
AcDbLine
10
159.191628
20
11.441709
30
0
11
159.258513
21
12.468439
31
0
39
0
210
0
220
0
230
1
0
LINE
5
51
100
AcDbEntity
8
1
62
256
6
ByLayer
370
-1
48
1
60
0
100
AcDbLine
10
159.539968
20
13.310488
30
0
11
159.603842
21
14.291007
31
0
39
0
210
0
220
0
230
1
0
LINE
5
52
100
AcDbEntity
8
1
62
256
6
ByLayer
370
-1
48
1
60
0
100
AcDbLine
10
159.846581
20
14.564049
30
0
11
159.915887
21
15.62795
31
0
39
0
210
0
220
0
230
1
0
LINE
5
53
100
AcDbEntity
8
1
62
256
6
ByLayer
370
-1
48
1
60
0
100
AcDbLine
10
147.283768
20
18.82577
30
0
11
147.216908
21
17.799424
31
0
39
0
210
0
220
0
230
1
0
LINE
5
54
100
AcDbEntity
8
1
62
256
6
ByLayer
370
-1
48
1
60
0
100
AcDbLine
10
148.419895
20
18.166652
30
0
11
148.356072
21
17.186917
31
0
39
0
210
0
220
0
230
1
0
LINE
5
55
100
AcDbEntity
8
1
62
256
6
ByLayer
370
-1
48
1
60
0
100
AcDbLine
10
127.382243
20
-19.98925
30
0
11
127.740899
21
-19.78218
31
0
39
0
210
0
220
0
230
1
0
LINE
5
56
100
AcDbEntity
8
1
62
256
6
ByLayer
370
-1
48
1
60
0
100
AcDbLine
10
128.140899
20
-19.675
30
0
11
140.827784
21
-19.675
31
0
39
0
210
0
220
0
230
1
0
LINE
5
57
100
AcDbEntity
8
1
62
256
6
ByLayer
370
-1
48
1
60
0
100
AcDbLine
10
140.827784
20
19.675
30
0
11
137.09079
21
19.675
31
0
39
0
210
0
220
0
230
1
0
LINE
5
58
100
AcDbEntity
8
1
62
256
6
ByLayer
370
-1
48
1
60
0
100
AcDbLine
10
0
20
-19.98925
30
0
11
127.382243
21
-19.98925
31
0
39
0
210
0
220
0
230
1
0
LINE
5
59
100
AcDbEntity
8
1
62
256
6
ByLayer
370
-1
48
1
60
0
100
AcDbLine
10
144.198687
20
23.247707
30
0
11
141.440619
21
19.96077
31
0
39
0
210
0
220
0
230
1
0
LINE
5
5A
100
AcDbEntity
8
SK1
62
256
6
ByLayer
370
-1
48
1
60
0
100
AcDbLine
10
-138.836
20
-19.98925
30
0
11
0
21
-19.98925
31
0
39
0
210
0
220
0
230
1
0
LINE
5
5C
100
AcDbEntity
8
1
62
256
6
ByLayer
370
-1
48
1
60
0
100
AcDbLine
10
155.732448
20
24.595882
30
0
11
153.611836
21
23.42235
31
0
39
0
210
0
220
0
230
1
0
LINE
5
5D
100
AcDbEntity
8
1
62
256
6
ByLayer
370
-1
48
1
60
0
100
AcDbLine
10
159.906524
20
23.858581
30
0
11
159.903247
21
23.107538
31
0
39
0
210
0
220
0
230
1
0
LINE
5
5E
100
AcDbEntity
8
SK4
62
256
6
ByLayer
370
-1
48
0.05
60
0
100
AcDbLine
10
-146.336
20
0
30
0
11
164.914
21
0
31
0
39
0
210
0
220
0
230
1
0
LINE
5
60
100
AcDbEntity
8
80
62
256
6
ByLayer
370
-1
48
1
60
0
100
AcDbLine
10
0
20
0
30
0
11
-5
21
0
31
0
39
0
210
0
220
0
230
1
0
LINE
5
61
100
AcDbEntity
8
81
62
256
6
ByLayer
370
-1
48
1
60
0
100
AcDbLine
10
159.914
20
26.875
30
0
11
164.914
21
26.875
31
0
39
0
210
0
220
0
230
1
0
LINE
5
62
100
AcDbEntity
8
4
62
256
6
ByLayer
370
-1
48
0.05
60
0
100
AcDbLine
10
0
20
0
30
0
11
301.25
21
0
31
0
39
0
210
0
220
0
230
1
0
LINE
5
64
100
AcDbEntity
8
1
62
256
6
ByLayer
370
-1
48
1
60
0
100
AcDbLine
10
152.445856
20
19.211864
30
0
11
152.423209
21
18.891341
31
0
39
0
210
0
220
0
230
1
0
LINE
5
65
100
AcDbEntity
8
1
62
256
6
ByLayer
370
-1
48
1
60
0
100
AcDbLine
10
157.859655
20
18.507211
30
0
11
157.882302
21
18.827735
31
0
39
0
210
0
220
0
230
1
0
LINE
5
66
100
AcDbEntity
8
1
62
256
6
ByLayer
370
-1
48
1
60
0
100
AcDbLine
10
147.799958
20
19.678267
30
0
11
146.182384
21
18.783688
31
0
39
0
210
0
220
0
230
1
0
LINE
5
67
100
AcDbEntity
8
1
62
256
6
ByLayer
370
-1
48
1
60
0
100
AcDbLine
10
151.445977
20
15.393502
30
0
11
156.18599
21
12.727226
31
0
39
0
210
0
220
0
230
1
0
LINE
5
68
100
AcDbEntity
8
1
62
256
6
ByLayer
370
-1
48
1
60
0
100
AcDbLine
10
127.382243
20
7.571005
30
0
11
127.382243
21
17.51075
31
0
39
0
210
0
220
0
230
1
0
LINE
5
69
100
AcDbEntity
8
1
62
256
6
ByLayer
370
-1
48
1
60
0
100
AcDbLine
10
128.140899
20
6.697434
30
0
11
128.140899
21
17.51075
31
0
39
0
210
0
220
0
230
1
0
LINE
5
6A
100
AcDbEntity
8
1
62
256
6
ByLayer
370
-1
48
1
60
0
100
AcDbLine
10
155.738922
20
-0.893854
30
0
11
159.346902
21
3.771199
31
0
39
0
210
0
220
0
230
1
0
LINE
5
6B
100
AcDbEntity
8
1
62
256
6
ByLayer
370
-1
48
1
60
0
100
AcDbLine
10
127.382243
20
-19.98925
30
0
11
127.382243
21
-7.571005
31
0
39
0
210
0
220
0
230
1
0
LINE
5
6C
100
AcDbEntity
8
1
62
256
6
ByLayer
370
-1
48
1
60
0
100
AcDbLine
10
148.755327
20
16.887517
30
0
11
150.73739
21
15.772598
31
0
39
0
210
0
220
0
230
1
0
LINE
5
6D
100
AcDbEntity
8
1
62
256
6
ByLayer
370
-1
48
1
60
0
100
AcDbLine
10
148.567741
20
16.954083
30
0
11
148.535014
21
16.92474
31
0
39
0
210
0
220
0
230
1
0
LINE
5
6E
100
AcDbEntity
8
1
62
256
6
ByLayer
370
-1
48
1
60
0
100
AcDbLine
10
141.398543
20
-7.371209
30
0
11
141.398543
21
-6.726754
31
0
39
0
210
0
220
0
230
1
0
LINE
5
6F
100
AcDbEntity
8
1
62
256
6
ByLayer
370
-1
48
1
60
0
100
AcDbLine
10
150.351318
20
23.442322
30
0
11
150.351318
21
22.010823
31
0
39
0
210
0
220
0
230
1
0
LINE
5
70
100
AcDbEntity
8
1
62
256
6
ByLayer
370
-1
48
1
60
0
100
AcDbLine
10
141.398543
20
-7.371209
30
0
11
141.398543
21
-19.435705
31
0
39
0
210
0
220
0
230
1
0
LINE
5
71
100
AcDbEntity
8
1
62
256
6
ByLayer
370
-1
48
1
60
0
100
AcDbLine
10
138.85324
20
6.697434
30
0
11
150.075543
21
-6.726754
31
0
39
0
210
0
220
0
230
1
0
LINE
5
72
100
AcDbEntity
8
1
62
256
6
ByLayer
370
-1
48
1
60
0
100
AcDbLine
10
127.382243
20
7.571005
30
0
11
0
21
7.571005
31
0
39
0
210
0
220
0
230
1
0
LINE
5
73
100
AcDbEntity
8
1
62
256
6
ByLayer
370
-1
48
1
60
0
100
AcDbLine
10
155.738922
20
-0.893854
30
0
11
142.550508
21
21.231479
31
0
39
0
210
0
220
0
230
1
0
LINE
5
74
100
AcDbEntity
8
1
62
256
6
ByLayer
370
-1
48
1
60
0
100
AcDbLine
10
150.351318
20
23.442322
30
0
11
144.396867
21
23.468306
31
0
39
0
210
0
220
0
230
1
0
LINE
5
75
100
AcDbEntity
8
1
62
256
6
ByLayer
370
-1
48
1
60
0
100
AcDbLine
10
148.755327
20
16.887517
30
0
11
148.567741
21
16.954083
31
0
39
0
210
0
220
0
230
1
0
LINE
5
76
100
AcDbEntity
8
1
62
256
6
ByLayer
370
-1
48
1
60
0
100
AcDbLine
10
140.827784
20
-6.697434
30
0
11
128.140899
21
-6.697434
31
0
39
0
210
0
220
0
230
1
0
LINE
5
77
100
AcDbEntity
8
1
62
256
6
ByLayer
370
-1
48
1
60
0
100
AcDbLine
10
155.074499
20
-1.752941
30
0
11
150.774233
21
-7.313108
31
0
39
0
210
0
220
0
230
1
0
LINE
5
78
100
AcDbEntity
8
1
62
256
6
ByLayer
370
-1
48
1
60
0
100
AcDbLine
10
134.92654
20
17.51075
30
0
11
128.140899
21
17.51075
31
0
39
0
210
0
220
0
230
1
0
LINE
5
79
100
AcDbEntity
8
1
62
256
6
ByLayer
370
-1
48
1
60
0
100
AcDbLine
10
0
20
-7.571005
30
0
11
127.382243
21
-7.571005
31
0
39
0
210
0
220
0
230
1
0
LINE
5
7A
100
AcDbEntity
8
1
62
256
6
ByLayer
370
-1
48
1
60
0
100
AcDbLine
10
159.346902
20
10.889981
30
0
11
148.567741
21
16.954083
31
0
39
0
210
0
220
0
230
1
0
LINE
5
7B
100
AcDbEntity
8
1
62
256
6
ByLayer
370
-1
48
1
60
0
100
AcDbLine
10
143.90053
20
16.992891
30
0
11
141.920602
21
20.314486
31
0
39
0
210
0
220
0
230
1
0
LINE
5
7C
100
AcDbEntity
8
1
62
256
6
ByLayer
370
-1
48
1
60
0
100
AcDbLine
10
156.798554
20
12.363169
30
0
11
159.333707
21
10.937135
31
0
39
0
210
0
220
0
230
1
0
LINE
5
7D
100
AcDbEntity
8
1
62
256
6
ByLayer
370
-1
48
1
60
0
100
AcDbLine
10
128.140899
20
6.697434
30
0
11
138.85324
21
6.697434
31
0
39
0
210
0
220
0
230
1
0
LINE
5
7E
100
AcDbEntity
8
1
62
256
6
ByLayer
370
-1
48
1
60
0
100
AcDbLine
10
150.774233
20
-7.313108
30
0
11
141.398543
21
-19.435705
31
0
39
0
210
0
220
0
230
1
0
LINE
5
7F
100
AcDbEntity
8
1
62
256
6
ByLayer
370
-1
48
1
60
0
100
AcDbLine
10
150.322016
20
21.908401
30
0
11
150.322016
21
21.601765
31
0
39
0
210
0
220
0
230
1
0
LINE
5
80
100
AcDbEntity
8
1
62
256
6
ByLayer
370
-1
48
1
60
0
100
AcDbLine
10
128.140899
20
-6.697434
30
0
11
128.140899
21
-19.675
31
0
39
0
210
0
220
0
230
1
0
LINE
5
81
100
AcDbEntity
8
1
62
256
6
ByLayer
370
-1
48
1
60
0
100
AcDbLine
10
0
20
17.51075
30
0
11
127.382243
21
17.51075
31
0
39
0
210
0
220
0
230
1
0
LINE
5
82
100
AcDbEntity
8
1
62
256
6
ByLayer
370
-1
48
1
60
0
100
AcDbLine
10
150.217782
20
21.544101
30
0
11
150.351318
21
22.010823
31
0
39
0
210
0
220
0
230
1
0
LINE
5
83
100
AcDbEntity
8
1
62
256
6
ByLayer
370
-1
48
1
60
0
100
AcDbLine
10
127.740899
20
-19.78218
30
0
11
127.740899
21
-7.006043
31
0
39
0
210
0
220
0
230
1
0
LINE
5
84
100
AcDbEntity
8
1
62
256
6
ByLayer
370
-1
48
1
60
0
100
AcDbLine
10
0
20
17.51075
30
0
11
0
21
7.571005
31
0
39
0
210
0
220
0
230
1
0
LINE
5
85
100
AcDbEntity
8
1
62
256
6
ByLayer
370
-1
48
1
60
0
100
AcDbLine
10
159.346902
20
10.889981
30
0
11
159.346902
21
3.771199
31
0
39
0
210
0
220
0
230
1
0
LINE
5
86
100
AcDbEntity
8
1
62
256
6
ByLayer
370
-1
48
1
60
0
100
AcDbLine
10
137.09079
20
19.675
30
0
11
134.92654
21
17.51075
31
0
39
0
210
0
220
0
230
1
0
LINE
5
87
100
AcDbEntity
8
1
62
256
6
ByLayer
370
-1
48
1
60
0
100
AcDbLine
10
141.440619
20
19.96077
30
0
11
141.440619
21
19.508559
31
0
39
0
210
0
220
0
230
1
0
LINE
5
88
100
AcDbEntity
8
1
62
256
6
ByLayer
370
-1
48
1
60
0
100
AcDbLine
10
159.346902
20
10.889981
30
0
11
159.333707
21
10.937135
31
0
39
0
210
0
220
0
230
1
0
LINE
5
89
100
AcDbEntity
8
1
62
256
6
ByLayer
370
-1
48
1
60
0
100
AcDbLine
10
0
20
-19.98925
30
0
11
0
21
-7.571005
31
0
39
0
210
0
220
0
230
1
0
LINE
5
8A
100
AcDbEntity
8
1
62
256
6
ByLayer
370
-1
48
1
60
0
100
AcDbLine
10
155.738922
20
-0.893854
30
0
11
155.0745
21
-1.75294
31
0
39
0
210
0
220
0
230
1
0
LINE
5
8B
100
AcDbEntity
8
1
62
256
6
ByLayer
370
-1
48
1
60
0
100
AcDbLine
10
0
20
-7.571005
30
0
11
0
21
7.571005
31
0
39
0
210
0
220
0
230
1
0
LINE
5
8C
100
AcDbEntity
8
1
62
256
6
ByLayer
370
-1
48
1
60
0
100
AcDbLine
10
150.351318
20
22.010823
30
0
11
146.942509
21
20.124674
31
0
39
0
210
0
220
0
230
1
0
LINE
5
8D
100
AcDbEntity
8
1
62
256
6
ByLayer
370
-1
48
1
60
0
100
AcDbLine
10
140.827784
20
19.675
30
0
11
140.827784
21
18.915083
31
0
39
0
210
0
220
0
230
1
0
LINE
5
8E
100
AcDbEntity
8
1
62
256
6
ByLayer
370
-1
48
1
60
0
100
AcDbLine
10
140.827784
20
-6.697434
30
0
11
140.827784
21
-19.675
31
0
39
0
210
0
220
0
230
1
0
LINE
5
8F
100
AcDbEntity
8
1
62
256
6
ByLayer
370
-1
48
1
60
0
100
AcDbLine
10
155.074499
20
-1.752941
30
0
11
145.720757
21
13.939216
31
0
39
0
210
0
220
0
230
1
0
LINE
5
90
100
AcDbEntity
8
1
62
256
6
ByLayer
370
-1
48
1
60
0
100
AcDbLine
10
127.740899
20
7.006043
30
0
11
127.740899
21
17.51075
31
0
39
0
210
0
220
0
230
1
0
LINE
5
91
100
AcDbEntity
8
1
62
256
6
ByLayer
370
-1
48
1
60
0
100
AcDbLine
10
150.075543
20
-6.726754
30
0
11
141.398543
21
-6.726754
31
0
39
0
210
0
220
0
230
1
0
LINE
5
92
100
AcDbEntity
8
SK1
62
256
6
ByLayer
370
-1
48
1
60
0
100
AcDbLine
10
0
20
-7.571005
30
0
11
0
21
-19.98925
31
0
39
0
210
0
220
0
230
1
0
LINE
5
93
100
AcDbEntity
8
1
62
256
6
ByLayer
370
-1
48
1
60
0
100
AcDbLine
10
159.24694
20
12.431962
30
0
11
159.180014
21
11.404597
31
0
39
0
210
0
220
0
230
1
0
LINE
5
94
100
AcDbEntity
8
1
62
256
6
ByLayer
370
-1
48
1
60
0
100
AcDbLine
10
159.915206
20
15.619631
30
0
11
155.581349
21
13.412393
31
0
39
0
210
0
220
0
230
1
0
LINE
5
95
100
AcDbEntity
8
1
62
256
6
ByLayer
370
-1
48
1
60
0
100
AcDbLine
10
153.276442
20
14.708029
30
0
11
155.581349
21
13.412393
31
0
39
0
210
0
220
0
230
1
0
LINE
5
96
100
AcDbEntity
8
1
62
256
6
ByLayer
370
-1
48
1
60
0
100
AcDbLine
10
159.404056
20
17.991335
30
0
11
159.91636
21
18.008377
31
0
39
0
210
0
220
0
230
1
0
LINE
5
97
100
AcDbEntity
8
1
62
256
6
ByLayer
370
-1
48
1
60
0
100
AcDbLine
10
148.602152
20
19.03669
30
0
11
148.606739
21
19.36946
31
0
39
0
210
0
220
0
230
1
0
LINE
5
98
100
AcDbEntity
8
1
62
256
6
ByLayer
370
-1
48
1
60
0
100
AcDbLine
10
148.847134
20
20.591554
30
0
11
149.026693
21
20.429533
31
0
39
0
210
0
220
0
230
1
0
LINE
5
99
100
AcDbEntity
8
1
62
256
6
ByLayer
370
-1
48
1
60
0
100
AcDbLine
10
159.91636
20
15.642805
30
0
11
159.91636
21
18.008377
31
0
39
0
210
0
220
0
230
1
0
LINE
5
9A
100
AcDbEntity
8
1
62
256
6
ByLayer
370
-1
48
1
60
0
100
AcDbLine
10
149.359139
20
20.490678
30
0
11
149.398606
21
20.929913
31
0
39
0
210
0
220
0
230
1
0
LINE
5
9B
100
AcDbEntity
8
1
62
256
6
ByLayer
370
-1
48
1
60
0
100
AcDbLine
10
148.629416
20
18.723699
30
0
11
148.608848
21
18.939813
31
0
39
0
210
0
220
0
230
1
0
LINE
5
9C
100
AcDbEntity
8
1
62
256
6
ByLayer
370
-1
48
1
60
0
100
AcDbLine
10
158.574158
20
18.706581
30
0
11
158.747292
21
18.122523
31
0
39
0
210
0
220
0
230
1
0
LINE
5
9D
100
AcDbEntity
8
1
62
256
6
ByLayer
370
-1
48
1
60
0
100
AcDbLine
10
149.570088
20
16.938032
30
0
11
149.359139
21
20.490678
31
0
39
0
210
0
220
0
230
1
0
LINE
5
9E
100
AcDbEntity
8
1
62
256
6
ByLayer
370
-1
48
1
60
0
100
AcDbLine
10
153.43063
20
23.289583
30
0
11
153.801714
21
22.942584
31
0
39
0
210
0
220
0
230
1
0
LINE
5
9F
100
AcDbEntity
8
1
62
256
6
ByLayer
370
-1
48
1
60
0
100
AcDbLine
10
149.308563
20
17.323227
30
0
11
149.261628
21
16.602725
31
0
39
0
210
0
220
0
230
1
0
LINE
5
A0
100
AcDbEntity
8
1
62
256
6
ByLayer
370
-1
48
1
60
0
100
AcDbLine
10
147.305429
20
17.705297
30
0
11
148.160566
21
17.689057
31
0
39
0
210
0
220
0
230
1
0
LINE
5
A1
100
AcDbEntity
8
1
62
256
6
ByLayer
370
-1
48
1
60
0
100
AcDbLine
10
149.106019
20
20.731794
30
0
11
149.084302
21
20.490105
31
0
39
0
210
0
220
0
230
1
0
LINE
5
A2
100
AcDbEntity
8
1
62
256
6
ByLayer
370
-1
48
1
60
0
100
AcDbLine
10
153.2573
20
23.173746
30
0
11
154.079844
21
22.404589
31
0
39
0
210
0
220
0
230
1
0
LINE
5
A3
100
AcDbEntity
8
1
62
256
6
ByLayer
370
-1
48
1
60
0
100
AcDbLine
10
149.398606
20
20.929913
30
0
11
149.840952
21
21.320144
31
0
39
0
210
0
220
0
230
1
0
LINE
5
A4
100
AcDbEntity
8
1
62
256
6
ByLayer
370
-1
48
1
60
0
100
AcDbLine
10
158.991512
20
25.531733
30
0
11
159.871697
21
23.991523
31
0
39
0
210
0
220
0
230
1
0
LINE
5
A5
100
AcDbEntity
8
1
62
256
6
ByLayer
370
-1
48
1
60
0
100
AcDbLine
10
153.662284
20
21.953022
30
0
11
154.098616
21
22.38762
31
0
39
0
210
0
220
0
230
1
0
LINE
5
A6
100
AcDbEntity
8
1
62
256
6
ByLayer
370
-1
48
1
60
0
100
AcDbLine
10
159.903042
20
22.815383
30
0
11
159.700807
21
22.948216
31
0
39
0
210
0
220
0
230
1
0
LINE
5
A7
100
AcDbEntity
8
1
62
256
6
ByLayer
370
-1
48
1
60
0
100
AcDbLine
10
158.772289
20
18.128759
30
0
11
158.599154
21
18.712817
31
0
39
0
210
0
220
0
230
1
0
LINE
5
A8
100
AcDbEntity
8
1
62
256
6
ByLayer
370
-1
48
1
60
0
100
AcDbLine
10
159.177975
20
11.401194
30
0
11
159.180014
21
11.404597
31
0
39
0
210
0
220
0
230
1
0
LINE
5
A9
100
AcDbEntity
8
1
62
256
6
ByLayer
370
-1
48
1
60
0
100
AcDbLine
10
153.227169
20
16.232971
30
0
11
152.617702
21
16.382431
31
0
39
0
210
0
220
0
230
1
0
LINE
5
AA
100
AcDbEntity
8
1
62
256
6
ByLayer
370
-1
48
1
60
0
100
AcDbLine
10
158.524636
20
12.742992
30
0
11
157.923942
21
12.701226
31
0
39
0
210
0
220
0
230
1
0
LINE
5
AB
100
AcDbEntity
8
1
62
256
6
ByLayer
370
-1
48
1
60
0
100
AcDbLine
10
156.414596
20
12.732083
30
0
11
156.594085
21
12.631189
31
0
39
0
210
0
220
0
230
1
0
LINE
5
AC
100
AcDbEntity
8
1
62
256
6
ByLayer
370
-1
48
1
60
0
100
AcDbLine
10
159.700807
20
22.948216
30
0
11
159.903042
21
23.015604
31
0
39
0
210
0
220
0
230
1
0
LINE
5
AD
100
AcDbEntity
8
1
62
256
6
ByLayer
370
-1
48
1
60
0
100
AcDbLine
10
157.305343
20
12.286775
30
0
11
156.67389
21
12.589582
31
0
39
0
210
0
220
0
230
1
0
LINE
5
AE
100
AcDbEntity
8
1
62
256
6
ByLayer
370
-1
48
1
60
0
100
AcDbLine
10
149.209426
20
17.385487
30
0
11
149.162082
21
16.658722
31
0
39
0
210
0
220
0
230
1
0
LINE
5
AF
100
AcDbEntity
8
1
62
256
6
ByLayer
370
-1
48
1
60
0
100
AcDbLine
10
148.443787
20
18.070784
30
0
11
148.379828
21
17.088963
31
0
39
0
210
0
220
0
230
1
0
LINE
5
B0
100
AcDbEntity
8
1
62
256
6
ByLayer
370
-1
48
1
60
0
100
AcDbLine
10
148.905124
20
17.434752
30
0
11
148.865441
21
16.825588
31
0
39
0
210
0
220
0
230
1
0
LINE
5
B1
100
AcDbEntity
8
1
62
256
6
ByLayer
370
-1
48
1
60
0
100
AcDbLine
10
152.525521
20
22.776041
30
0
11
153.100191
21
22.23867
31
0
39
0
210
0
220
0
230
1
0
LINE
5
B2
100
AcDbEntity
8
1
62
256
6
ByLayer
370
-1
48
1
60
0
100
AcDbLine
10
159.813585
20
14.458615
30
0
11
159.882542
21
15.517158
31
0
39
0
210
0
220
0
230
1
0
LINE
5
B3
100
AcDbEntity
8
1
62
256
6
ByLayer
370
-1
48
1
60
0
100
AcDbLine
10
148.204083
20
19.618861
30
0
11
147.915063
21
19.150758
31
0
39
0
210
0
220
0
230
1
0
LINE
5
B4
100
AcDbEntity
8
1
62
256
6
ByLayer
370
-1
48
1
60
0
100
AcDbLine
10
147.990711
20
19.795213
30
0
11
148.204083
21
19.618861
31
0
39
0
210
0
220
0
230
1
0
LINE
5
B5
100
AcDbEntity
8
1
62
256
6
ByLayer
370
-1
48
1
60
0
100
AcDbLine
10
159.58017
20
14.216396
30
0
11
159.516211
21
13.234576
31
0
39
0
210
0
220
0
230
1
0
LINE
5
B6
100
AcDbEntity
8
1
62
256
6
ByLayer
370
-1
48
1
60
0
100
AcDbLine
10
158.519082
20
12.646168
30
0
11
158.960728
21
12.462037
31
0
39
0
210
0
220
0
230
1
0
LINE
5
B7
100
AcDbEntity
8
1
62
256
6
ByLayer
370
-1
48
1
60
0
100
AcDbLine
10
147.295449
20
18.778901
30
0
11
147.228523
21
17.751535
31
0
39
0
210
0
220
0
230
1
0
LINE
5
B8
100
AcDbEntity
8
1
62
256
6
ByLayer
370
-1
48
1
60
0
100
AcDbLine
10
147.481476
20
18.970446
30
0
11
147.990711
21
19.795213
31
0
39
0
210
0
220
0
230
1
0
LINE
5
B9
100
AcDbEntity
8
1
62
256
6
ByLayer
370
-1
48
1
60
0
100
AcDbLine
10
153.182175
20
14.75141
30
0
11
153.015627
21
14.806084
31
0
39
0
210
0
220
0
230
1
0
LINE
5
BA
100
AcDbEntity
8
1
62
256
6
ByLayer
370
-1
48
1
60
0
100
AcDbLine
10
159.118162
20
13.584394
30
0
11
159.049776
21
13.573998
31
0
39
0
210
0
220
0
230
1
0
LINE
5
BB
100
AcDbEntity
8
1
62
256
6
ByLayer
370
-1
48
1
60
0
100
AcDbLine
10
158.828417
20
13.304993
30
0
11
158.82139
21
13.197135
31
0
39
0
210
0
220
0
230
1
0
LINE
5
BC
100
AcDbEntity
8
1
62
256
6
ByLayer
370
-1
48
1
60
0
100
AcDbLine
10
159.58017
20
14.216396
30
0
11
159.255739
21
13.674951
31
0
39
0
210
0
220
0
230
1
0
LINE
5
BD
100
AcDbEntity
8
1
62
256
6
ByLayer
370
-1
48
1
60
0
100
AcDbLine
10
149.026693
20
20.429533
30
0
11
149.207422
21
17.385809
31
0
39
0
210
0
220
0
230
1
0
LINE
5
BE
100
AcDbEntity
8
1
62
256
6
ByLayer
370
-1
48
1
60
0
100
AcDbLine
10
152.270809
20
22.680235
30
0
11
149.965901
21
21.404715
31
0
39
0
210
0
220
0
230
1
0
LINE
5
BF
100
AcDbEntity
8
1
62
256
6
ByLayer
370
-1
48
1
60
0
100
AcDbLine
10
159.537956
20
22.77069
30
0
11
159.905489
21
22.529285
31
0
39
0
210
0
220
0
230
1
0
LINE
5
C0
100
AcDbEntity
8
1
62
256
6
ByLayer
370
-1
48
1
60
0
100
AcDbLine
10
159.347969
20
23.938628
30
0
11
159.040106
21
23.74995
31
0
39
0
210
0
220
0
230
1
0
LINE
5
C1
100
AcDbEntity
8
1
62
256
6
ByLayer
370
-1
48
1
60
0
100
AcDbLine
10
159.255739
20
13.674951
30
0
11
159.19178
21
12.693131
31
0
39
0
210
0
220
0
230
1
0
LINE
5
C2
100
AcDbEntity
8
1
62
256
6
ByLayer
370
-1
48
1
60
0
100
AcDbLine
10
147.297487
20
18.77548
30
0
11
147.230562
21
17.748115
31
0
39
0
210
0
220
0
230
1
0
LINE
5
C3
100
AcDbEntity
8
1
62
256
6
ByLayer
370
-1
48
1
60
0
100
AcDbLine
10
159.010647
20
25.294923
30
0
11
159.547532
21
24.355444
31
0
39
0
210
0
220
0
230
1
0
LINE
5
C4
100
AcDbEntity
8
1
62
256
6
ByLayer
370
-1
48
1
60
0
100
AcDbLine
10
148.456294
20
18.39023
30
0
11
148.447033
21
18.248076
31
0
39
0
210
0
220
0
230
1
0
LINE
5
C5
100
AcDbEntity
8
1
62
256
6
ByLayer
370
-1
48
1
60
0
100
AcDbLine
10
147.372161
20
18.729691
30
0
11
147.305429
21
17.705297
31
0
39
0
210
0
220
0
230
1
0
LINE
5
C6
100
AcDbEntity
8
1
62
256
6
ByLayer
370
-1
48
1
60
0
100
AcDbLine
10
148.768218
20
17.526507
30
0
11
148.727242
21
16.897498
31
0
39
0
210
0
220
0
230
1
0
LINE
5
C7
100
AcDbEntity
8
1
62
256
6
ByLayer
370
-1
48
1
60
0
100
AcDbLine
10
158.230975
20
13.213637
30
0
11
158.524636
21
12.742992
31
0
39
0
210
0
220
0
230
1
0
LINE
5
C8
100
AcDbEntity
8
1
62
256
6
ByLayer
370
-1
48
1
60
0
100
AcDbLine
10
148.379828
20
17.088963
30
0
11
148.492401
21
16.900107
31
0
39
0
210
0
220
0
230
1
0
LINE
5
C9
100
AcDbEntity
8
1
62
256
6
ByLayer
370
-1
48
1
60
0
100
AcDbLine
10
148.271166
20
17.625804
30
0
11
148.37348
21
17.454157
31
0
39
0
210
0
220
0
230
1
0
LINE
5
CA
100
AcDbEntity
8
1
62
256
6
ByLayer
370
-1
48
1
60
0
100
AcDbLine
10
149.814803
20
16.653887
30
0
11
151.935415
21
15.461847
31
0
39
0
210
0
220
0
230
1
0
LINE
5
CB
100
AcDbEntity
8
1
62
256
6
ByLayer
370
-1
48
1
60
0
100
AcDbLine
10
156.414596
20
12.732083
30
0
11
156.637654
21
12.827221
31
0
39
0
210
0
220
0
230
1
0
LINE
5
CC
100
AcDbEntity
8
1
62
256
6
ByLayer
370
-1
48
1
60
0
100
AcDbLine
10
159.16984
20
12.383424
30
0
11
159.103108
21
11.35903
31
0
39
0
210
0
220
0
230
1
0
LINE
5
CD
100
AcDbEntity
8
1
62
256
6
ByLayer
370
-1
48
1
60
0
100
AcDbLine
10
157.902341
20
12.388449
30
0
11
157.918387
21
12.604403
31
0
39
0
210
0
220
0
230
1
0
LINE
5
CE
100
AcDbEntity
8
1
62
256
6
ByLayer
370
-1
48
1
60
0
100
AcDbLine
10
152.174287
20
15.899055
30
0
11
151.935415
21
15.461847
31
0
39
0
210
0
220
0
230
1
0
LINE
5
CF
100
AcDbEntity
8
1
62
256
6
ByLayer
370
-1
48
1
60
0
100
AcDbLine
10
152.112229
20
15.327518
30
0
11
152.019776
21
15.404637
31
0
39
0
210
0
220
0
230
1
0
LINE
5
D0
100
AcDbEntity
8
1
62
256
6
ByLayer
370
-1
48
1
60
0
100
AcDbLine
10
158.950415
20
13.508596
30
0
11
158.828417
21
13.304993
31
0
39
0
210
0
220
0
230
1
0
LINE
5
D1
100
AcDbEntity
8
1
62
256
6
ByLayer
370
-1
48
1
60
0
100
AcDbLine
10
155.704214
20
13.326741
30
0
11
159.837154
21
15.431652
31
0
39
0
210
0
220
0
230
1
0
LINE
5
D2
100
AcDbEntity
8
1
62
256
6
ByLayer
370
-1
48
1
60
0
100
AcDbLine
10
157.777727
20
13.27819
30
0
11
158.091005
21
13.457783
31
0
39
0
210
0
220
0
230
1
0
LINE
5
D3
100
AcDbEntity
8
1
62
256
6
ByLayer
370
-1
48
1
60
0
100
AcDbLine
10
158.772245
20
23.751119
30
0
11
158.46604
21
23.942477
31
0
39
0
210
0
220
0
230
1
0
LINE
5
D4
100
AcDbEntity
8
1
62
256
6
ByLayer
370
-1
48
1
60
0
100
AcDbLine
10
159.903247
20
23.107538
30
0
11
159.673085
21
23.030844
31
0
39
0
210
0
220
0
230
1
0
LINE
5
D5
100
AcDbEntity
8
1
62
256
6
ByLayer
370
-1
48
1
60
0
100
AcDbLine
10
148.006099
20
19.083677
30
0
11
148.295119
21
19.55178
31
0
39
0
210
0
220
0
230
1
0
LINE
5
D6
100
AcDbEntity
8
1
62
256
6
ByLayer
370
-1
48
1
60
0
100
AcDbLine
10
147.579208
20
18.806488
30
0
11
148.012794
21
18.986801
31
0
39
0
210
0
220
0
230
1
0
LINE
5
D7
100
AcDbEntity
8
1
62
256
6
ByLayer
370
-1
48
1
60
0
100
AcDbLine
10
148.602152
20
19.03669
30
0
11
148.006099
21
19.083677
31
0
39
0
210
0
220
0
230
1
0
LINE
5
D8
100
AcDbEntity
8
1
62
256
6
ByLayer
370
-1
48
1
60
0
100
AcDbLine
10
149.207422
20
17.385809
30
0
11
148.905124
21
17.434752
31
0
39
0
210
0
220
0
230
1
0
LINE
5
D9
100
AcDbEntity
8
1
62
256
6
ByLayer
370
-1
48
1
60
0
100
AcDbLine
10
158.815184
20
25.295776
30
0
11
158.811154
21
24.745747
31
0
39
0
210
0
220
0
230
1
0
LINE
5
DA
100
AcDbEntity
8
1
62
256
6
ByLayer
370
-1
48
1
60
0
100
AcDbLine
10
158.908316
20
24.688889
30
0
11
159.213028
21
24.155681
31
0
39
0
210
0
220
0
230
1
0
LINE
5
DB
100
AcDbEntity
8
1
62
256
6
ByLayer
370
-1
48
1
60
0
100
AcDbLine
10
158.270122
20
24.361018
30
0
11
158.815184
21
25.295776
31
0
39
0
210
0
220
0
230
1
0
LINE
5
DC
100
AcDbEntity
8
1
62
256
6
ByLayer
370
-1
48
1
60
0
100
AcDbLine
10
156.153005
20
24.570768
30
0
11
159.537956
21
22.77069
31
0
39
0
210
0
220
0
230
1
0
LINE
5
DD
100
AcDbEntity
8
1
62
256
6
ByLayer
370
-1
48
1
60
0
100
AcDbLine
10
148.334296
20
18.594898
30
0
11
148.271166
21
17.625804
31
0
39
0
210
0
220
0
230
1
0
LINE
5
DE
100
AcDbEntity
8
1
62
256
6
ByLayer
370
-1
48
1
60
0
100
AcDbLine
10
159.913309
20
19.169933
30
0
11
159.116479
21
19.018472
31
0
39
0
210
0
220
0
230
1
0
LINE
5
DF
100
AcDbEntity
8
1
62
256
6
ByLayer
370
-1
48
1
60
0
100
AcDbLine
10
158.827731
20
13.18547
30
0
11
159.247403
21
12.51287
31
0
39
0
210
0
220
0
230
1
0
LINE
5
E0
100
AcDbEntity
8
1
62
256
6
ByLayer
370
-1
48
1
60
0
100
AcDbLine
10
159.24694
20
12.431962
30
0
11
159.244901
21
12.42856
31
0
39
0
210
0
220
0
230
1
0
LINE
5
E1
100
AcDbEntity
8
1
62
256
6
ByLayer
370
-1
48
1
60
0
100
AcDbLine
10
159.213028
20
24.155681
30
0
11
158.905166
21
23.967002
31
0
39
0
210
0
220
0
230
1
0
LINE
5
E2
100
AcDbEntity
8
1
62
256
6
ByLayer
370
-1
48
1
60
0
100
AcDbLine
10
159.912819
20
18.34555
30
0
11
158.772289
21
18.128759
31
0
39
0
210
0
220
0
230
1
0
LINE
5
E3
100
AcDbEntity
8
1
62
256
6
ByLayer
370
-1
48
1
60
0
100
AcDbLine
10
149.840952
20
21.320144
30
0
11
149.677593
21
16.801621
31
0
39
0
210
0
220
0
230
1
0
LINE
5
E4
100
AcDbEntity
8
1
62
256
6
ByLayer
370
-1
48
1
60
0
100
AcDbLine
10
159.91636
20
19.50431
30
0
11
159.074542
21
19.112419
31
0
39
0
210
0
220
0
230
1
0
LINE
5
E5
100
AcDbEntity
8
1
62
256
6
ByLayer
370
-1
48
1
60
0
100
AcDbLine
10
158.598961
20
24.158361
30
0
11
158.908316
21
24.688889
31
0
39
0
210
0
220
0
230
1
0
LINE
5
E6
100
AcDbEntity
8
1
62
256
6
ByLayer
370
-1
48
1
60
0
100
AcDbLine
10
159.006617
20
24.744895
30
0
11
159.010647
21
25.294923
31
0
39
0
210
0
220
0
230
1
0
LINE
5
E7
100
AcDbEntity
8
1
62
256
6
ByLayer
370
-1
48
1
60
0
100
AcDbLine
10
154.079844
20
22.404589
30
0
11
153.643511
21
21.969991
31
0
39
0
210
0
220
0
230
1
0
LINE
5
E8
100
AcDbEntity
8
1
62
256
6
ByLayer
370
-1
48
1
60
0
100
AcDbLine
10
158.811154
20
24.745747
30
0
11
158.5018
21
24.215219
31
0
39
0
210
0
220
0
230
1
0
LINE
5
E9
100
AcDbEntity
8
1
62
256
6
ByLayer
370
-1
48
1
60
0
100
AcDbLine
10
153.276442
20
14.708029
30
0
11
153.342747
21
15.609816
31
0
39
0
210
0
220
0
230
1
0
LINE
5
EA
100
AcDbEntity
8
1
62
256
6
ByLayer
370
-1
48
1
60
0
100
AcDbLine
10
158.592973
20
11.353794
30
0
11
159.103108
21
11.35903
31
0
39
0
210
0
220
0
230
1
0
LINE
5
EB
100
AcDbEntity
8
1
62
256
6
ByLayer
370
-1
48
1
60
0
100
AcDbLine
10
159.59051
20
14.086324
30
0
11
159.813585
21
14.458615
31
0
39
0
210
0
220
0
230
1
0
LINE
5
EC
100
AcDbEntity
8
1
62
256
6
ByLayer
370
-1
48
1
60
0
100
AcDbLine
10
152.112229
20
15.327518
30
0
11
152.260427
21
15.845101
31
0
39
0
210
0
220
0
230
1
0
LINE
5
ED
100
AcDbEntity
8
1
62
256
6
ByLayer
370
-1
48
1
60
0
100
AcDbLine
10
159.547532
20
24.355444
30
0
11
159.31133
21
24.211686
31
0
39
0
210
0
220
0
230
1
0
LINE
5
EE
100
AcDbEntity
8
1
62
256
6
ByLayer
370
-1
48
1
60
0
100
AcDbLine
10
159.915756
20
19.390559
30
0
11
159.913309
21
19.169933
31
0
39
0
210
0
220
0
230
1
0
LINE
5
EF
100
AcDbEntity
8
1
62
256
6
ByLayer
370
-1
48
1
60
0
100
AcDbLine
10
159.244901
20
12.42856
30
0
11
159.177975
21
11.401194
31
0
39
0
210
0
220
0
230
1
0
LINE
5
F0
100
AcDbEntity
8
1
62
256
6
ByLayer
370
-1
48
1
60
0
100
AcDbLine
10
159.914165
20
18.174361
30
0
11
159.399624
21
18.076557
31
0
39
0
210
0
220
0
230
1
0
LINE
5
F1
100
AcDbEntity
8
1
62
256
6
ByLayer
370
-1
48
1
60
0
100
AcDbLine
10
157.434689
20
12.262782
30
0
11
157.418512
21
12.01444
31
0
39
0
210
0
220
0
230
1
0
LINE
5
F2
100
AcDbEntity
8
1
62
256
6
ByLayer
370
-1
48
1
60
0
100
AcDbLine
10
158.270122
20
24.361018
30
0
11
158.5018
21
24.215219
31
0
39
0
210
0
220
0
230
1
0
LINE
5
F3
100
AcDbEntity
8
1
62
256
6
ByLayer
370
-1
48
1
60
0
100
AcDbLine
10
159.462818
20
14.621531
30
0
11
159.588308
21
14.369025
31
0
39
0
210
0
220
0
230
1
0
LINE
5
F4
100
AcDbEntity
8
1
62
256
6
ByLayer
370
-1
48
1
60
0
100
AcDbLine
10
152.363868
20
22.722799
30
0
11
152.525521
21
22.776041
31
0
39
0
210
0
220
0
230
1
0
LINE
5
F5
100
AcDbEntity
8
1
62
256
6
ByLayer
370
-1
48
1
60
0
100
AcDbLine
10
152.611363
20
16.357456
30
0
11
153.22083
21
16.207996
31
0
39
0
210
0
220
0
230
1
0
LINE
5
F6
100
AcDbEntity
8
1
62
256
6
ByLayer
370
-1
48
1
60
0
100
AcDbLine
10
158.598961
20
24.158361
30
0
11
158.905166
21
23.967002
31
0
39
0
210
0
220
0
230
1
0
LINE
5
F7
100
AcDbEntity
8
1
62
256
6
ByLayer
370
-1
48
1
60
0
100
AcDbLine
10
153.100191
20
22.23867
30
0
11
152.363868
21
22.722799
31
0
39
0
210
0
220
0
230
1
0
LINE
5
F8
100
AcDbEntity
8
1
62
256
6
ByLayer
370
-1
48
1
60
0
100
AcDbLine
10
159.31133
20
24.211686
30
0
11
159.006617
21
24.744895
31
0
39
0
210
0
220
0
230
1
0
LINE
5
F9
100
AcDbEntity
8
1
62
256
6
ByLayer
370
-1
48
1
60
0
100
AcDbLine
10
153.885269
20
23.002183
30
0
11
153.611836
21
23.42235
31
0
39
0
210
0
220
0
230
1
0
LINE
5
FA
100
AcDbEntity
8
1
62
256
6
ByLayer
370
-1
48
1
60
0
100
AcDbLine
10
152.842622
20
14.887095
30
0
11
153.22083
21
16.207996
31
0
39
0
210
0
220
0
230
1
0
LINE
5
FB
100
AcDbEntity
8
1
62
256
6
ByLayer
370
-1
48
1
60
0
100
AcDbLine
10
159.905489
20
22.529285
30
0
11
159.915318
21
22.197685
31
0
39
0
210
0
220
0
230
1
0
LINE
5
FC
100
AcDbEntity
8
1
62
256
6
ByLayer
370
-1
48
1
60
0
100
AcDbLine
10
158.038434
20
24.710247
30
0
11
158.28243
21
24.709182
31
0
39
0
210
0
220
0
230
1
0
LINE
5
FD
100
AcDbEntity
8
1
62
256
6
ByLayer
370
-1
48
1
60
0
100
AcDbLine
10
158.616813
20
12.809273
30
0
11
158.323152
21
13.279918
31
0
39
0
210
0
220
0
230
1
0
LINE
5
FE
100
AcDbEntity
8
1
62
256
6
ByLayer
370
-1
48
1
60
0
100
AcDbLine
10
149.084302
20
20.490105
30
0
11
148.92653
21
20.632466
31
0
39
0
210
0
220
0
230
1
0
LINE
5
FF
100
AcDbEntity
8
1
62
256
6
ByLayer
370
-1
48
1
60
0
100
AcDbLine
10
159.16984
20
12.383424
30
0
11
157.434689
21
12.262782
31
0
39
0
210
0
220
0
230
1
0
LINE
5
100
100
AcDbEntity
8
1
62
256
6
ByLayer
370
-1
48
1
60
0
100
AcDbLine
10
159.837154
20
15.431652
30
0
11
159.729649
21
15.216928
31
0
39
0
210
0
220
0
230
1
0
LINE
5
101
100
AcDbEntity
8
1
62
256
6
ByLayer
370
-1
48
1
60
0
100
AcDbLine
10
159.049776
20
13.573998
30
0
11
159.005869
21
12.899987
31
0
39
0
210
0
220
0
230
1
0
LINE
5
102
100
AcDbEntity
8
1
62
256
6
ByLayer
370
-1
48
1
60
0
100
AcDbLine
10
152.842622
20
14.887095
30
0
11
152.282868
21
15.210181
31
0
39
0
210
0
220
0
230
1
0
LINE
5
103
100
AcDbEntity
8
1
62
256
6
ByLayer
370
-1
48
1
60
0
100
AcDbLine
10
157.918387
20
12.604403
30
0
11
158.519082
21
12.646168
31
0
39
0
210
0
220
0
230
1
0
LINE
5
104
100
AcDbEntity
8
1
62
256
6
ByLayer
370
-1
48
1
60
0
100
AcDbLine
10
157.923942
20
12.701226
30
0
11
157.917697
21
13.034044
31
0
39
0
210
0
220
0
230
1
0
LINE
5
105
100
AcDbEntity
8
1
62
256
6
ByLayer
370
-1
48
1
60
0
100
AcDbLine
10
159.19178
20
12.693131
30
0
11
159.516211
21
13.234576
31
0
39
0
210
0
220
0
230
1
0
LINE
5
106
100
AcDbEntity
8
1
62
256
6
ByLayer
370
-1
48
1
60
0
100
AcDbLine
10
159.116479
20
19.018472
30
0
11
159.915756
21
19.390559
31
0
39
0
210
0
220
0
230
1
0
LINE
5
107
100
AcDbEntity
8
1
62
256
6
ByLayer
370
-1
48
1
60
0
100
AcDbLine
10
148.456294
20
18.39023
30
0
11
148.334296
21
18.594898
31
0
39
0
210
0
220
0
230
1
0
LINE
5
108
100
AcDbEntity
8
1
62
256
6
ByLayer
370
-1
48
1
60
0
100
AcDbLine
10
158.230975
20
13.213637
30
0
11
157.917697
21
13.034044
31
0
39
0
210
0
220
0
230
1
0
LINE
5
109
100
AcDbEntity
8
1
62
256
6
ByLayer
370
-1
48
1
60
0
100
AcDbLine
10
148.222234
20
20.294229
30
0
11
148.847134
21
20.591554
31
0
39
0
210
0
220
0
230
1
0
LINE
5
10A
100
AcDbEntity
8
1
62
256
6
ByLayer
370
-1
48
1
60
0
100
AcDbLine
10
147.228523
20
17.751535
30
0
11
147.230562
21
17.748115
31
0
39
0
210
0
220
0
230
1
0
LINE
5
10B
100
AcDbEntity
8
1
62
256
6
ByLayer
370
-1
48
1
60
0
100
AcDbLine
10
148.295119
20
19.55178
30
0
11
148.606739
21
19.36946
31
0
39
0
210
0
220
0
230
1
0
LINE
5
10C
100
AcDbEntity
8
1
62
256
6
ByLayer
370
-1
48
1
60
0
100
AcDbLine
10
148.012794
20
18.986801
30
0
11
148.608848
21
18.939813
31
0
39
0
210
0
220
0
230
1
0
LINE
5
10D
100
AcDbEntity
8
1
62
256
6
ByLayer
370
-1
48
1
60
0
100
AcDbLine
10
158.541047
20
13.454388
30
0
11
159.058459
21
12.625141
31
0
39
0
210
0
220
0
230
1
0
LINE
5
10E
100
AcDbEntity
8
1
62
256
6
ByLayer
370
-1
48
1
60
0
100
AcDbLine
10
157.650041
20
12.721855
30
0
11
157.643796
21
13.054672
31
0
39
0
210
0
220
0
230
1
0
LINE
5
10F
100
AcDbEntity
8
1
62
256
6
ByLayer
370
-1
48
1
60
0
100
AcDbLine
10
148.768218
20
17.526507
30
0
11
148.443787
21
18.070784
31
0
39
0
210
0
220
0
230
1
0
LINE
5
110
100
AcDbEntity
8
1
62
256
6
ByLayer
370
-1
48
1
60
0
100
AcDbLine
10
149.698195
20
16.357142
30
0
11
149.72298
21
16.737622
31
0
39
0
210
0
220
0
230
1
0
LINE
5
111
100
AcDbEntity
8
1
62
256
6
ByLayer
370
-1
48
1
60
0
100
AcDbLine
10
156.723476
20
12.812684
30
0
11
159.462818
21
14.621531
31
0
39
0
210
0
220
0
230
1
0
LINE
5
112
100
AcDbEntity
8
1
62
256
6
ByLayer
370
-1
48
1
60
0
100
AcDbLine
10
153.245129
20
15.607626
30
0
11
153.182175
21
14.75141
31
0
39
0
210
0
220
0
230
1
0
LINE
5
113
100
AcDbEntity
8
1
62
256
6
ByLayer
370
-1
48
1
60
0
100
AcDbLine
10
147.297487
20
18.77548
30
0
11
147.295449
21
18.778901
31
0
39
0
210
0
220
0
230
1
0
LINE
5
114
100
AcDbEntity
8
1
62
256
6
ByLayer
370
-1
48
1
60
0
100
AcDbLine
10
153.526244
20
23.365881
30
0
11
153.801714
21
22.942584
31
0
39
0
210
0
220
0
230
1
0
LINE
5
115
100
AcDbEntity
8
1
62
256
6
ByLayer
370
-1
48
1
60
0
100
AcDbLine
10
149.106019
20
20.731794
30
0
11
148.92653
21
20.632466
31
0
39
0
210
0
220
0
230
1
0
LINE
5
116
100
AcDbEntity
8
1
62
256
6
ByLayer
370
-1
48
1
60
0
100
AcDbLine
10
159.118162
20
13.584394
30
0
11
159.067176
21
12.80172
31
0
39
0
210
0
220
0
230
1
0
LINE
5
117
100
AcDbEntity
8
1
62
256
6
ByLayer
370
-1
48
1
60
0
100
AcDbLine
10
156.126903
20
12.932735
30
0
11
155.704214
21
13.326741
31
0
39
0
210
0
220
0
230
1
0
LINE
5
118
100
AcDbEntity
8
1
62
256
6
ByLayer
370
-1
48
1
60
0
100
AcDbLine
10
149.794601
20
16.66653
30
0
11
149.965901
21
21.404715
31
0
39
0
210
0
220
0
230
1
0
LINE
5
119
100
AcDbEntity
8
1
62
256
6
ByLayer
370
-1
48
1
60
0
100
AcDbLine
10
147.915063
20
19.150758
30
0
11
147.481476
21
18.970446
31
0
39
0
210
0
220
0
230
1
0
LINE
5
11A
100
AcDbEntity
8
1
62
256
6
ByLayer
370
-1
48
1
60
0
100
AcDbLine
10
159.915318
20
22.197685
30
0
11
155.945737
21
24.611298
31
0
39
0
210
0
220
0
230
1
0
LINE
5
11B
100
AcDbEntity
8
1
62
256
6
ByLayer
370
-1
48
1
60
0
100
AcDbLine
10
158.950415
20
13.508596
30
0
11
158.919757
21
13.037979
31
0
39
0
210
0
220
0
230
1
0
LINE
5
11C
100
AcDbEntity
8
1
62
256
6
ByLayer
370
-1
48
1
60
0
100
AcDbLine
10
148.223982
20
18.662541
30
0
11
147.372161
21
18.729691
31
0
39
0
210
0
220
0
230
1
0
LINE
5
11D
100
AcDbEntity
8
1
62
256
6
ByLayer
370
-1
48
1
60
0
100
AcDbLine
10
148.223982
20
18.662541
30
0
11
148.160566
21
17.689057
31
0
39
0
210
0
220
0
230
1
0
LINE
5
11E
100
AcDbEntity
8
1
62
256
6
ByLayer
370
-1
48
1
60
0
100
AcDbLine
10
152.696485
20
22.855551
30
0
11
153.2573
21
23.173746
31
0
39
0
210
0
220
0
230
1
0
LINE
5
11F
100
AcDbEntity
8
1
62
256
6
ByLayer
370
-1
48
1
60
0
100
AcDbLine
10
156.773034
20
24.573057
30
0
11
156.95319
21
24.828006
31
0
39
0
210
0
220
0
230
1
0
LINE
5
120
100
AcDbEntity
8
1
62
256
6
ByLayer
370
-1
48
1
60
0
100
AcDbLine
10
155.753804
20
24.606412
30
0
11
159.91636
21
22.075466
31
0
39
0
210
0
220
0
230
1
0
LINE
5
121
100
AcDbEntity
8
1
62
256
6
ByLayer
370
-1
48
1
60
0
100
AcDbLine
10
153.015627
20
14.806084
30
0
11
153.245129
21
15.607626
31
0
39
0
210
0
220
0
230
1
0
LINE
5
122
100
AcDbEntity
8
1
62
256
6
ByLayer
370
-1
48
1
60
0
100
AcDbLine
10
159.058459
20
12.625141
30
0
11
158.616813
21
12.809273
31
0
39
0
210
0
220
0
230
1
0
LINE
5
123
100
AcDbEntity
8
1
62
256
6
ByLayer
370
-1
48
1
60
0
100
AcDbLine
10
157.292229
20
12.085461
30
0
11
157.305343
21
12.286775
31
0
39
0
210
0
220
0
230
1
0
LINE
5
124
100
AcDbEntity
8
1
62
256
6
ByLayer
370
-1
48
1
60
0
100
AcDbLine
10
152.696485
20
22.855551
30
0
11
153.643511
21
21.969991
31
0
39
0
210
0
220
0
230
1
0
LINE
5
125
100
AcDbEntity
8
1
62
256
6
ByLayer
370
-1
48
1
60
0
100
AcDbLine
10
159.468125
20
14.737446
30
0
11
159.460911
21
14.626705
31
0
39
0
210
0
220
0
230
1
0
LINE
5
126
100
AcDbEntity
8
1
62
256
6
ByLayer
370
-1
48
1
60
0
100
AcDbLine
10
159.903042
20
22.815383
30
0
11
159.903042
21
23.015604
31
0
39
0
210
0
220
0
230
1
0
LINE
5
127
100
AcDbEntity
8
1
62
256
6
ByLayer
370
-1
48
1
60
0
100
AcDbLine
10
155.945737
20
24.611298
30
0
11
156.153005
21
24.570768
31
0
39
0
210
0
220
0
230
1
0
LINE
5
128
100
AcDbEntity
8
1
62
256
6
ByLayer
370
-1
48
1
60
0
100
AcDbLine
10
148.437108
20
19.794696
30
0
11
148.748728
21
19.612375
31
0
39
0
210
0
220
0
230
1
0
LINE
5
129
100
AcDbEntity
8
1
62
256
6
ByLayer
370
-1
48
1
60
0
100
AcDbLine
10
152.270809
20
22.680235
30
0
11
153.046322
21
22.170339
31
0
39
0
210
0
220
0
230
1
0
LINE
5
12A
100
AcDbEntity
8
1
62
256
6
ByLayer
370
-1
48
1
60
0
100
AcDbLine
10
148.629416
20
18.723699
30
0
11
147.579208
21
18.806488
31
0
39
0
210
0
220
0
230
1
0
LINE
5
12B
100
AcDbEntity
8
1
62
256
6
ByLayer
370
-1
48
1
60
0
100
AcDbLine
10
159.912288
20
18.962417
30
0
11
159.912819
21
18.34555
31
0
39
0
210
0
220
0
230
1
0
LINE
5
12C
100
AcDbEntity
8
1
62
256
6
ByLayer
370
-1
48
1
60
0
100
AcDbLine
10
158.960728
20
12.462037
30
0
11
157.902341
21
12.388449
31
0
39
0
210
0
220
0
230
1
0
LINE
5
12D
100
AcDbEntity
8
1
62
256
6
ByLayer
370
-1
48
1
60
0
100
AcDbLine
10
152.019776
20
15.404637
30
0
11
152.260427
21
15.845101
31
0
39
0
210
0
220
0
230
1
0
LINE
5
12E
100
AcDbEntity
8
1
62
256
6
ByLayer
370
-1
48
1
60
0
100
AcDbLine
10
159.915745
20
18.093725
30
0
11
159.399624
21
18.076557
31
0
39
0
210
0
220
0
230
1
0
LINE
5
12F
100
AcDbEntity
8
1
62
256
6
ByLayer
370
-1
48
1
60
0
100
AcDbLine
10
148.434978
20
18.223486
30
0
11
148.462656
21
18.279945
31
0
39
0
210
0
220
0
230
1
0
LINE
5
130
100
AcDbEntity
8
1
62
256
6
ByLayer
370
-1
48
1
60
0
100
AcDbLine
10
159.912288
20
18.962417
30
0
11
158.599154
21
18.712817
31
0
39
0
210
0
220
0
230
1
0
LINE
5
131
100
AcDbEntity
8
1
62
256
6
ByLayer
370
-1
48
1
60
0
100
AcDbLine
10
158.394286
20
24.77423
30
0
11
158.836385
21
25.53241
31
0
39
0
210
0
220
0
230
1
0
LINE
5
132
100
AcDbEntity
8
1
62
256
6
ByLayer
370
-1
48
1
60
0
100
AcDbLine
10
157.099241
20
24.904347
30
0
11
157.748103
21
24.901515
31
0
39
0
210
0
220
0
230
1
0
LINE
5
133
100
AcDbEntity
8
1
62
256
6
ByLayer
370
-1
48
1
60
0
100
AcDbLine
10
157.893483
20
24.823903
30
0
11
157.933438
21
24.7663
31
0
39
0
210
0
220
0
230
1
0
LINE
5
134
100
AcDbEntity
8
1
62
256
6
ByLayer
370
-1
48
1
60
0
100
AcDbLine
10
159.729649
20
15.216928
30
0
11
156.532278
21
13.105635
31
0
39
0
210
0
220
0
230
1
0
LINE
5
135
100
AcDbEntity
8
1
62
256
6
ByLayer
370
-1
48
1
60
0
100
AcDbLine
10
156.67389
20
12.589582
30
0
11
156.723476
21
12.812684
31
0
39
0
210
0
220
0
230
1
0
LINE
5
136
100
AcDbEntity
8
1
62
256
6
ByLayer
370
-1
48
1
60
0
100
AcDbLine
10
147.294598
20
18.859814
30
0
11
148.129453
21
20.211962
31
0
39
0
210
0
220
0
230
1
0
LINE
5
137
100
AcDbEntity
8
1
62
256
6
ByLayer
370
-1
48
1
60
0
100
AcDbLine
10
158.541047
20
13.454388
30
0
11
158.323152
21
13.279918
31
0
39
0
210
0
220
0
230
1
0
LINE
5
138
100
AcDbEntity
8
1
62
256
6
ByLayer
370
-1
48
1
60
0
100
AcDbLine
10
156.532278
20
13.105635
30
0
11
156.126903
21
12.932735
31
0
39
0
210
0
220
0
230
1
0
LINE
5
139
100
AcDbEntity
8
1
62
256
6
ByLayer
370
-1
48
1
60
0
100
AcDbLine
10
149.677593
20
16.801621
30
0
11
149.570088
21
16.938032
31
0
39
0
210
0
220
0
230
1
0
LINE
5
13A
100
AcDbEntity
8
1
62
256
6
ByLayer
370
-1
48
1
60
0
100
AcDbLine
10
149.814803
20
16.653887
30
0
11
149.792034
21
16.304363
31
0
39
0
210
0
220
0
230
1
0
LINE
5
13B
100
AcDbEntity
8
1
62
256
6
ByLayer
370
-1
48
1
60
0
100
AcDbLine
10
156.637654
20
12.827221
30
0
11
156.594085
21
12.631189
31
0
39
0
210
0
220
0
230
1
0
LINE
5
13C
100
AcDbEntity
8
1
62
256
6
ByLayer
370
-1
48
1
60
0
100
AcDbLine
10
159.91636
20
19.50431
30
0
11
159.91636
21
22.075466
31
0
39
0
210
0
220
0
230
1
0
LINE
5
13D
100
AcDbEntity
8
1
62
256
6
ByLayer
370
-1
48
1
60
0
100
AcDbLine
10
159.914165
20
18.174361
30
0
11
159.915745
21
18.093725
31
0
39
0
210
0
220
0
230
1
0
LINE
5
13E
100
AcDbEntity
8
1
62
256
6
ByLayer
370
-1
48
1
60
0
100
AcDbLine
10
148.882658
20
19.387689
30
0
11
148.878072
21
19.054919
31
0
39
0
210
0
220
0
230
1
0
LINE
5
13F
100
AcDbEntity
8
1
62
256
6
ByLayer
370
-1
48
1
60
0
100
AcDbLine
10
152.282868
20
15.210181
30
0
11
152.611363
21
16.357456
31
0
39
0
210
0
220
0
230
1
0
LINE
5
140
100
AcDbEntity
8
1
62
256
6
ByLayer
370
-1
48
1
60
0
100
AcDbLine
10
158.912103
20
25.576442
30
0
11
158.916181
21
25.576425
31
0
39
0
210
0
220
0
230
1
0
LINE
5
141
100
AcDbEntity
8
1
62
256
6
ByLayer
370
-1
48
1
60
0
100
AcDbLine
10
159.673085
20
23.030844
30
0
11
156.773034
21
24.573057
31
0
39
0
210
0
220
0
230
1
0
LINE
5
142
100
AcDbEntity
8
1
62
256
6
ByLayer
370
-1
48
1
60
0
100
AcDbLine
10
153.43063
20
23.289583
30
0
11
153.526244
21
23.365881
31
0
39
0
210
0
220
0
230
1
0
LINE
5
143
100
AcDbEntity
8
1
62
256
6
ByLayer
370
-1
48
1
60
0
100
AcDbLine
10
151.939223
20
22.648729
30
0
11
151.939223
21
22.496736
31
0
39
0
210
0
220
0
230
1
0
LINE
5
144
100
AcDbEntity
8
1
62
256
6
ByLayer
370
-1
48
1
60
0
100
AcDbLine
10
150.612874
20
21.76273
30
0
11
150.612874
21
22.064112
31
0
39
0
210
0
220
0
230
1
0
LINE
5
145
100
AcDbEntity
8
1
62
256
6
ByLayer
370
-1
48
1
60
0
100
AcDbLine
10
147.345842
20
17.704519
30
0
11
147.345842
21
16.71643
31
0
39
0
210
0
220
0
230
1
0
LINE
5
146
100
AcDbEntity
8
1
62
256
6
ByLayer
370
-1
48
1
60
0
100
AcDbLine
10
150.880633
20
22.467845
30
0
11
150.880633
21
21.910817
31
0
39
0
210
0
220
0
230
1
0
LINE
5
147
100
AcDbEntity
8
1
62
256
6
ByLayer
370
-1
48
1
60
0
100
AcDbLine
10
147.512561
20
16.877234
30
0
11
147.512561
21
17.701386
31
0
39
0
210
0
220
0
230
1
0
LINE
5
148
100
AcDbEntity
8
1
62
256
6
ByLayer
370
-1
48
1
60
0
100
AcDbLine
10
150.536353
20
21.720391
30
0
11
150.612874
21
22.064112
31
0
39
0
210
0
220
0
230
1
0
LINE
5
149
100
AcDbEntity
8
1
62
256
6
ByLayer
370
-1
48
1
60
0
100
AcDbLine
10
152.12242
20
22.62709
30
0
11
152.12242
21
22.598079
31
0
39
0
210
0
220
0
230
1
0
LINE
5
14A
100
AcDbEntity
8
1
62
256
6
ByLayer
370
-1
48
1
60
0
100
AcDbLine
10
151.212354
20
22.54496
30
0
11
151.212354
21
22.094386
31
0
39
0
210
0
220
0
230
1
0
LINE
5
14B
100
AcDbEntity
8
1
62
256
6
ByLayer
370
-1
48
1
60
0
100
AcDbLine
10
151.106212
20
22.51945
30
0
11
151.106212
21
22.035719
31
0
39
0
210
0
220
0
230
1
0
LINE
5
14C
100
AcDbEntity
8
1
62
256
6
ByLayer
370
-1
48
1
60
0
100
AcDbLine
10
151.939223
20
22.648729
30
0
11
151.641775
21
22.649778
31
0
39
0
210
0
220
0
230
1
0
LINE
5
14D
100
AcDbEntity
8
1
62
256
6
ByLayer
370
-1
48
1
60
0
100
AcDbLine
10
150.777217
20
22.421477
30
0
11
150.777217
21
21.853651
31
0
39
0
210
0
220
0
230
1
0
LINE
5
14E
100
AcDbEntity
8
1
62
256
6
ByLayer
370
-1
48
1
60
0
100
AcDbLine
10
151.641775
20
22.649778
30
0
11
151.641775
21
22.332096
31
0
39
0
210
0
220
0
230
1
0
LINE
5
14F
100
AcDbEntity
8
1
62
256
6
ByLayer
370
-1
48
1
60
0
100
AcDbLine
10
151.456367
20
22.62944
30
0
11
151.456367
21
22.229475
31
0
39
0
210
0
220
0
230
1
0
LINE
5
150
100
AcDbEntity
8
1
62
256
6
ByLayer
370
-1
48
1
60
0
100
AcDbLine
10
147.837701
20
16.694815
30
0
11
147.512561
21
16.877234
31
0
39
0
210
0
220
0
230
1
0
LINE
5
151
100
AcDbEntity
8
1
62
256
6
ByLayer
370
-1
48
1
60
0
100
AcDbLine
10
153.684269
20
19.011034
30
0
11
153.711244
21
19.392796
31
0
39
0
210
0
220
0
230
1
0
LINE
5
152
100
AcDbEntity
8
1
62
256
6
ByLayer
370
-1
48
1
60
0
100
AcDbLine
10
153.664273
20
19.01513
30
0
11
153.691463
21
19.399939
31
0
39
0
210
0
220
0
230
1
0
LINE
5
153
100
AcDbEntity
8
1
62
256
6
ByLayer
370
-1
48
1
60
0
100
AcDbLine
10
154.07992
20
17.878418
30
0
11
154.086841
21
17.976376
31
0
39
0
210
0
220
0
230
1
0
LINE
5
154
100
AcDbEntity
8
1
62
256
6
ByLayer
370
-1
48
1
60
0
100
AcDbLine
10
156.214266
20
17.804168
30
0
11
156.226544
21
17.977929
31
0
39
0
210
0
220
0
230
1
0
LINE
5
155
100
AcDbEntity
8
1
62
256
6
ByLayer
370
-1
48
1
60
0
100
AcDbLine
10
155.525372
20
20.029232
30
0
11
155.552347
21
20.410995
31
0
39
0
210
0
220
0
230
1
0
LINE
5
156
100
AcDbEntity
8
1
62
256
6
ByLayer
370
-1
48
1
60
0
100
AcDbLine
10
154.741025
20
20.051676
30
0
11
154.768215
21
20.436485
31
0
39
0
210
0
220
0
230
1
0
LINE
5
157
100
AcDbEntity
8
1
62
256
6
ByLayer
370
-1
48
1
60
0
100
AcDbLine
10
156.588538
20
18.997287
30
0
11
156.608534
21
19.001195
31
0
39
0
210
0
220
0
230
1
0
LINE
5
158
100
AcDbEntity
8
1
62
256
6
ByLayer
370
-1
48
1
60
0
100
AcDbLine
10
156.608534
20
19.001195
30
0
11
156.635724
21
19.386004
31
0
39
0
210
0
220
0
230
1
0
LINE
5
159
100
AcDbEntity
8
1
62
256
6
ByLayer
370
-1
48
1
60
0
100
AcDbLine
10
155.531782
20
20.047934
30
0
11
155.558972
21
20.432742
31
0
39
0
210
0
220
0
230
1
0
LINE
5
15A
100
AcDbEntity
8
1
62
256
6
ByLayer
370
-1
48
1
60
0
100
AcDbLine
10
156.230621
20
17.828553
30
0
11
156.240345
21
17.966183
31
0
39
0
210
0
220
0
230
1
0
LINE
5
15B
100
AcDbEntity
8
1
62
256
6
ByLayer
370
-1
48
1
60
0
100
AcDbLine
10
156.588538
20
18.997287
30
0
11
156.615512
21
19.379049
31
0
39
0
210
0
220
0
230
1
0
LINE
5
15C
100
AcDbEntity
8
1
62
256
6
ByLayer
370
-1
48
1
60
0
100
AcDbLine
10
154.090645
20
17.852588
30
0
11
154.100212
21
17.987994
31
0
39
0
210
0
220
0
230
1
0
LINE
5
15D
100
AcDbEntity
8
1
62
256
6
ByLayer
370
-1
48
1
60
0
100
AcDbLine
10
153.664273
20
19.01513
30
0
11
153.684269
21
19.011034
31
0
39
0
210
0
220
0
230
1
0
LINE
5
15E
100
AcDbEntity
8
1
62
256
6
ByLayer
370
-1
48
1
60
0
100
AcDbLine
10
155.525372
20
20.029232
30
0
11
155.531782
21
20.047934
31
0
39
0
210
0
220
0
230
1
0
LINE
5
15F
100
AcDbEntity
8
1
62
256
6
ByLayer
370
-1
48
1
60
0
100
AcDbLine
10
154.741025
20
20.051676
30
0
11
154.747435
21
20.032915
31
0
39
0
210
0
220
0
230
1
0
LINE
5
160
100
AcDbEntity
8
1
62
256
6
ByLayer
370
-1
48
1
60
0
100
AcDbLine
10
154.747435
20
20.032915
30
0
11
154.77441
21
20.414677
31
0
39
0
210
0
220
0
230
1
0
LINE
5
161
100
AcDbEntity
8
1
62
256
6
ByLayer
370
-1
48
1
60
0
100
AcDbLine
10
159.970875
20
11.906504
30
0
11
160.017149
21
11.906731
31
0
39
0
210
0
220
0
230
1
0
LINE
5
162
100
AcDbEntity
8
1
62
256
6
ByLayer
370
-1
48
1
60
0
100
AcDbLine
10
159.999376
20
10.160913
30
0
11
160.001383
21
10.160923
31
0
39
0
210
0
220
0
230
1
0
LINE
5
163
100
AcDbEntity
8
1
62
256
6
ByLayer
370
-1
48
1
60
0
100
AcDbLine
10
159.970623
20
11.895219
30
0
11
160.00458
21
11.895386
31
0
39
0
210
0
220
0
230
1
0
LINE
5
164
100
AcDbEntity
8
1
62
256
6
ByLayer
370
-1
48
1
60
0
100
AcDbLine
10
159.966055
20
11.265842
30
0
11
160.029218
21
11.266152
31
0
39
0
210
0
220
0
230
1
0
LINE
5
165
100
AcDbEntity
8
1
62
256
6
ByLayer
370
-1
48
1
60
0
100
AcDbLine
10
159.966057
20
11.267125
30
0
11
160.016411
21
11.267373
31
0
39
0
210
0
220
0
230
1
0
LINE
5
166
100
AcDbEntity
8
SK1
62
256
6
ByLayer
370
-1
48
1
60
0
100
AcDbLine
10
0
20
7.571005
30
0
11
-138.836
21
7.571005
31
0
39
0
210
0
220
0
230
1
0
LINE
5
167
100
AcDbEntity
8
SK1
62
256
6
ByLayer
370
-1
48
1
60
0
100
AcDbLine
10
0
20
17.51075
30
0
11
0
21
7.571005
31
0
39
0
210
0
220
0
230
1
0
LINE
5
168
100
AcDbEntity
8
SK1
62
256
6
ByLayer
370
-1
48
1
60
0
100
AcDbLine
10
-138.836
20
17.51075
30
0
11
0
21
17.51075
31
0
39
0
210
0
220
0
230
1
0
LINE
5
169
100
AcDbEntity
8
SK1
62
256
6
ByLayer
370
-1
48
1
60
0
100
AcDbLine
10
0
20
-7.571005
30
0
11
0
21
7.571005
31
0
39
0
210
0
220
0
230
1
0
LINE
5
16A
100
AcDbEntity
8
SK1
62
256
6
ByLayer
370
-1
48
1
60
0
100
AcDbLine
10
-138.836
20
-7.571005
30
0
11
0
21
-7.571005
31
0
39
0
210
0
220
0
230
1
0
LINE
5
16B
100
AcDbEntity
8
SK2
62
256
6
ByLayer
370
-1
48
1
60
0
100
AcDbLine
10
-151.086
20
19.98925
30
0
11
-151.086
21
-19.98925
31
0
39
0
210
0
220
0
230
1
0
LINE
5
16D
100
AcDbEntity
8
SK2
62
256
6
ByLayer
370
-1
48
1
60
0
100
AcDbLine
10
-142.836
20
-19.98925
30
0
11
-154.086
21
-19.98925
31
0
39
0
210
0
220
0
230
1
0
LINE
5
16E
100
AcDbEntity
8
SK2
62
256
6
ByLayer
370
-1
48
1
60
0
100
AcDbLine
10
-142.836
20
19.98925
30
0
11
-154.086
21
19.98925
31
0
39
0
210
0
220
0
230
1
0
LINE
5
16F
100
AcDbEntity
8
SK2
62
256
6
ByLayer
370
-1
48
1
60
0
100
AcDbLine
10
-151.086
20
-19.98925
30
0
11
-151.480957
21
-16.989251
31
0
39
0
210
0
220
0
230
1
0
LINE
5
170
100
AcDbEntity
8
SK2
62
256
6
ByLayer
370
-1
48
1
60
0
100
AcDbLine
10
-151.086
20
-19.98925
30
0
11
-150.691043
21
-16.989249
31
0
39
0
210
0
220
0
230
1
0
LINE
5
171
100
AcDbEntity
8
SK2
62
256
6
ByLayer
370
-1
48
1
60
0
100
AcDbLine
10
-151.480957
20
-16.989251
30
0
11
-150.691043
21
-16.989249
31
0
39
0
210
0
220
0
230
1
0
LINE
5
172
100
AcDbEntity
8
SK2
62
256
6
ByLayer
370
-1
48
1
60
0
100
AcDbLine
10
-151.086
20
19.98925
30
0
11
-150.691043
21
16.989251
31
0
39
0
210
0
220
0
230
1
0
LINE
5
173
100
AcDbEntity
8
SK2
62
256
6
ByLayer
370
-1
48
1
60
0
100
AcDbLine
10
-151.086
20
19.98925
30
0
11
-151.480957
21
16.989249
31
0
39
0
210
0
220
0
230
1
0
LINE
5
174
100
AcDbEntity
8
SK2
62
256
6
ByLayer
370
-1
48
1
60
0
100
AcDbLine
10
-150.691043
20
16.989251
30
0
11
-151.480957
21
16.989249
31
0
39
0
210
0
220
0
230
1
0
MTEXT
5
28E
100
AcDbEntity
8
SK6
62
256
6
ByLayer
370
-1
48
1
60
0
100
AcDbMText
10
78.332
20
-34.400919
30
0
210
0
220
0
230
1
1
\W00.722;\fsimplex.shx,bigfont.shx;266RKF-40-16 
40
3.5
41
0
44
1.084337
50
0
71
7
72
5
7
DEFAULT
0
MTEXT
5
2B4
100
AcDbEntity
8
SK2
62
256
6
ByLayer
370
-1
48
1
60
0
100
AcDbMText
10
-152.211
20
-3.896053
30
0
210
0
220
0
230
1
1
\W00.914;\fsimplex.shx,bigfont.shx;%%c40 
40
4.5
41
0
44
1.084337
50
89.9999999999999
71
7
72
5
7
DEFAULT
0
DIMENSION
5
2C2
100
AcDbEntity
8
2
62
256
6
ByLayer
370
-3
48
1
60
0
100
AcDbDimension
2
DimnDraft3D1
10
174.164
20
26.875
30
0
11
174.164
21
10.808553
31
0
70
32
71
5
72
1
41
1
210
0
220
0
230
1
3
Standard
100
AcDbAlignedDimension
13
166.414
23
0
33
0
14
161.414
24
26.875
34
0
50
90
100
AcDbRotatedDimension
1001
ACAD
1000
DSTYLE
1002
{
1070
    74
1070
     0
1070
   279
1070
     0
1070
   172
1070
     1
1070
   173
1070
     1
1070
   340
1005
28F
1070
   271
1070
     3
1070
   272
1070
     3
1070
    77
1070
     1
1070
    73
1070
     0
1070
   171
1070
     4
1070
   274
1070
     4
1070
   177
1070
     2
1070
   176
1070
     2
1070
   178
1070
     7
1070
    78
1070
     8
1070
    41
1041
3.0
1070
   147
1041
2.25
1070
    42
1041
1.5
1070
    44
1041
3.0
1070
   140
1041
4.5
1070
   343
1005
2C3
1070
   344
1005
2C3
1002
}
0
DIMENSION
5
2D7
100
AcDbEntity
8
2
62
256
6
ByLayer
370
-3
48
1
60
0
100
AcDbDimension
2
DimnDraft3D2
10
127.92654
20
36.625
30
0
11
141.291323
21
36.625
31
0
70
32
71
5
72
1
41
1
210
0
220
0
230
1
3
Standard
100
AcDbAlignedDimension
13
159.914
23
28.375
33
0
14
127.92654
24
28.375
34
0
50
0
100
AcDbRotatedDimension
1001
ACAD
1000
DSTYLE
1002
{
1070
   279
1070
     0
1070
   172
1070
     1
1070
   173
1070
     1
1070
   340
1005
28F
1070
   271
1070
     3
1070
   272
1070
     3
1070
    77
1070
     1
1070
    73
1070
     0
1070
   171
1070
     4
1070
   274
1070
     4
1070
   177
1070
     2
1070
   176
1070
     2
1070
   178
1070
     7
1070
    78
1070
     8
1070
    41
1041
3.0
1070
   147
1041
2.25
1070
    42
1041
1.5
1070
    44
1041
3.0
1070
   140
1041
4.5
1070
   343
1005
2C3
1070
   344
1005
2C3
1002
}
0
DIMENSION
5
2E5
100
AcDbEntity
8
SK2
62
256
6
ByLayer
370
-3
48
1
60
0
100
AcDbDimension
2
DimnDraft3D3
10
-141.336
20
46.625
30
0
11
5.570579
21
46.625
31
0
70
32
71
5
72
1
41
1
210
0
220
0
230
1
3
Standard
100
AcDbAlignedDimension
13
159.914
23
28.375
33
0
14
-141.336
24
1.5
34
0
50
0
100
AcDbRotatedDimension
1001
ACAD
1000
DSTYLE
1002
{
1070
   279
1070
     0
1070
   172
1070
     1
1070
   173
1070
     1
1070
   340
1005
28F
1070
   271
1070
     3
1070
   272
1070
     3
1070
    77
1070
     1
1070
    73
1070
     0
1070
   171
1070
     4
1070
   274
1070
     4
1070
   177
1070
     2
1070
   176
1070
     2
1070
   178
1070
     7
1070
    78
1070
     8
1070
    41
1041
3.0
1070
   147
1041
2.25
1070
    42
1041
1.5
1070
    44
1041
3.0
1070
   140
1041
4.5
1070
   343
1005
2C3
1070
   344
1005
2C3
1002
}
0
ENDSEC
0
SECTION
2
OBJECTS
0
DICTIONARY
5
316
330
0
100
AcDbDictionary
280
0
281
1
3
ACAD_GROUP
350
317
3
ACAD_MLINESTYLE
350
318
0
DICTIONARY
5
317
330
0
100
AcDbDictionary
280
0
281
1
0
DICTIONARY
5
318
330
0
100
AcDbDictionary
280
0
281
1
3
Standard
350
18
0
MLINESTYLE
5
18
330
318
100
AcDbMlineStyle
2
Standard
70
0
3

62
256
51
90
52
90
71
2
49
-0.5
62
256
6
ByLayer
49
0.5
62
256
6
ByLayer
0
RASTERVARIABLES
5
304
330

100
AcDbRasterVariables
90
0
70
1
71
1
72
1
0
ENDSEC
0
EOF
