0
SECTION
2
HEADER
9
$ACADVER
1
AC1015
9
$DWGCODEPAGE
3
ANSI_1252
9
$HANDSEED
5
322
9
$ANGBASE
50
0
9
$ANGDIR
70
0
9
$ATTMODE
70
1
9
$AUNITS
70
0
9
$AUPREC
70
0
9
$CECOLOR
62
256
9
$CELTSCALE
40
1
9
$CELTYPE
6
ByLayer
9
$CELWEIGHT
370
-1
9
$CLAYER
8
0
9
$CMLJUST
70
0
9
$CMLSCALE
40
1
9
$CMLSTYLE
2
Standard
9
$DIMSTYLE
2
Standard
9
$TEXTSIZE
40
0.2
9
$TEXTSTYLE
7
Standard
9
$LUNITS
70
2
9
$LUPREC
70
4
9
$EXTNAMES
290
1
9
$INSUNITS
70
4
9
$LTSCALE
40
1
9
$LWDISPLAY
290
0
9
$PDMODE
70
0
9
$PDSIZE
40
0
9
$PLINEGEN
70
0
0
ENDSEC
0
SECTION
2
CLASSES
0
CLASS
1
RASTERVARIABLES
2
AcDbRasterVariables
3
ISM
90
0
280
0
281
0
0
ENDSEC
0
SECTION
2
TABLES
0
TABLE
2
VPORT
5
318
100
AcDbSymbolTable
0
VPORT
5
1
100
AcDbSymbolTableRecord
100
AcDbViewportTableRecord
2
*Active
70
0
10
0
20
0
11
1
21
1
12
-1
22
1
13
0
23
0
14
0.5
24
0.5
15
10
25
10
16
0
26
0
36
1
17
0
27
0
37
0
0
ENDTAB
0
TABLE
2
LTYPE
5
319
100
AcDbSymbolTable
0
LTYPE
5
14
100
AcDbSymbolTableRecord
100
AcDbLinetypeTableRecord
70
0
2
ByBlock
3

72
65
73
0
40
0
0
LTYPE
5
15
100
AcDbSymbolTableRecord
100
AcDbLinetypeTableRecord
70
0
2
ByLayer
3

72
65
73
0
40
0
0
LTYPE
5
16
100
AcDbSymbolTableRecord
100
AcDbLinetypeTableRecord
70
0
2
CONTINUOUS
3
Solid line
72
65
73
0
40
0
0
LTYPE
5
3B
100
AcDbSymbolTableRecord
100
AcDbLinetypeTableRecord
70
0
2
DASHED
3
__ __ __ __ __ __ __ __ __
72
65
73
2
40
25.72
49
12.86
74
0
49
-12.86
74
0
0
LTYPE
5
3C
100
AcDbSymbolTableRecord
100
AcDbLinetypeTableRecord
70
0
2
HIDDEN
3
_ _ _ _ _ _ _ _ _ _ _ _ _ _ _
72
65
73
2
40
0.5
49
0.25
74
0
49
-0.25
74
0
0
LTYPE
5
3D
100
AcDbSymbolTableRecord
100
AcDbLinetypeTableRecord
70
0
2
PHANTOM
3
____ _ _ ____ _ _ _____ _ _ ____
72
65
73
6
40
50.5
49
18
74
0
49
-6.5
74
0
49
6.5
74
0
49
-6.5
74
0
49
6.5
74
0
49
-6.5
74
0
0
LTYPE
5
3E
100
AcDbSymbolTableRecord
100
AcDbLinetypeTableRecord
70
0
2
CENTER
3
____ _ ____ _ ____ _ ____
72
65
73
4
40
47.5
49
22
74
0
49
-8.5
74
0
49
8.5
74
0
49
-8.5
74
0
0
LTYPE
5
3F
100
AcDbSymbolTableRecord
100
AcDbLinetypeTableRecord
70
0
2
DOT
3
.........................
72
65
73
2
40
10
49
0
74
0
49
-10
74
0
0
LTYPE
5
40
100
AcDbSymbolTableRecord
100
AcDbLinetypeTableRecord
70
0
2
DASHDOT
3
_._._._._._._._._._._._._._._._.
72
65
73
4
40
70
49
31
74
0
49
-13
74
0
49
13
74
0
49
-13
74
0
0
ENDTAB
0
TABLE
2
LAYER
5
31a
100
AcDbSymbolTable
0
LAYER
5
10
100
AcDbSymbolTableRecord
100
AcDbLayerTableRecord
2
0
70
0
62
7
6
CONTINUOUS
290
1
370
-3
390
0
0
LAYER
5
42
100
AcDbSymbolTableRecord
100
AcDbLayerTableRecord
2
1
70
0
62
4
6
CONTINUOUS
290
1
370
-3
390
0
0
LAYER
5
46
100
AcDbSymbolTableRecord
100
AcDbLayerTableRecord
2
80
70
0
62
-6
6
CONTINUOUS
290
1
370
-3
390
0
0
LAYER
5
48
100
AcDbSymbolTableRecord
100
AcDbLayerTableRecord
2
81
70
0
62
-3
6
CONTINUOUS
290
1
370
-3
390
0
0
LAYER
5
4A
100
AcDbSymbolTableRecord
100
AcDbLayerTableRecord
2
2
70
0
62
7
6
CONTINUOUS
290
1
370
-3
390
0
0
LAYER
5
66
100
AcDbSymbolTableRecord
100
AcDbLayerTableRecord
2
4
70
0
62
-2
6
CENTER
290
1
370
-3
390
0
0
LAYER
5
304
100
AcDbSymbolTableRecord
100
AcDbLayerTableRecord
2
SK1
70
0
62
4
6
CONTINUOUS
290
1
370
-3
390
0
0
LAYER
5
305
100
AcDbSymbolTableRecord
100
AcDbLayerTableRecord
2
SK4
70
0
62
2
6
CENTER
290
1
370
-3
390
0
0
LAYER
5
306
100
AcDbSymbolTableRecord
100
AcDbLayerTableRecord
2
SK2
70
0
62
7
6
CONTINUOUS
290
1
370
-3
390
0
0
LAYER
5
307
100
AcDbSymbolTableRecord
100
AcDbLayerTableRecord
2
SK6
70
0
62
5
6
CONTINUOUS
290
1
370
-3
390
0
0
ENDTAB
0
TABLE
2
STYLE
5
31b
100
AcDbSymbolTable
0
STYLE
5
11
100
AcDbSymbolTableRecord
100
AcDbTextStyleTableRecord
2
Standard
3
txt
70
0
71
0
40
0
41
1
42
0
50
0
0
STYLE
5
28E
100
AcDbSymbolTableRecord
100
AcDbTextStyleTableRecord
2
DEFAULT
3
simplex.shx
70
0
71
0
40
0
41
1
42
0
50
0
0
STYLE
5
2B1
100
AcDbSymbolTableRecord
100
AcDbTextStyleTableRecord
2
DWGDirectTextStyle
3
SIMPLEX
70
0
71
0
40
0
41
1
42
0
50
0
0
ENDTAB
0
TABLE
2
DIMSTYLE
5
31c
100
AcDbSymbolTable
100
AcDbDimStyleTable
0
DIMSTYLE
105
27
100
AcDbSymbolTableRecord
100
AcDbDimStyleTableRecord
2
Standard
70
0
3
<>
41
0.18
42
0.0625
44
0.18
140
0.18
147
0.09
73
0
74
0
77
1
271
2
275
0
278
52
280
0
340
11
0
ENDTAB
0
TABLE
2
VIEW
5
31d
100
AcDbSymbolTable
0
ENDTAB
0
TABLE
2
UCS
5
31e
100
AcDbSymbolTable
0
ENDTAB
0
TABLE
2
APPID
5
31f
100
AcDbSymbolTable
0
APPID
5
12
100
AcDbSymbolTableRecord
100
AcDbRegAppTableRecord
2
ACAD
70
0
0
ENDTAB
0
TABLE
2
BLOCK_RECORD
5
320
100
AcDbSymbolTable
0
BLOCK_RECORD
5
1F
100
AcDbSymbolTableRecord
100
AcDbBlockTableRecord
2
*Model_Space
340
0
70
0
0
BLOCK_RECORD
5
1B
100
AcDbSymbolTableRecord
100
AcDbBlockTableRecord
2
*Paper_Space
340
0
70
0
0
BLOCK_RECORD
5
23
100
AcDbSymbolTableRecord
100
AcDbBlockTableRecord
2
*Paper_Space0
340
0
70
0
0
BLOCK_RECORD
5
2B4
100
AcDbSymbolTableRecord
100
AcDbBlockTableRecord
2
DimnDraft3D1
340
0
70
0
0
BLOCK_RECORD
5
2C2
100
AcDbSymbolTableRecord
100
AcDbBlockTableRecord
2
_CLOSED
340
0
70
0
0
BLOCK_RECORD
5
2C9
100
AcDbSymbolTableRecord
100
AcDbBlockTableRecord
2
DimnDraft3D2
340
0
70
0
0
BLOCK_RECORD
5
2D7
100
AcDbSymbolTableRecord
100
AcDbBlockTableRecord
2
DimnDraft3D3
340
0
70
0
0
ENDTAB
0
ENDSEC
0
SECTION
2
BLOCKS
0
BLOCK
5
20
100
AcDbEntity
8
0
100
AcDbBlockBegin
2
*Model_Space
70
0
10
0
20
0
30
0
3
*Model_Space
0
ENDBLK
5
21
100
AcDbEntity
8
0
100
AcDbBlockEnd
0
BLOCK
5
1C
100
AcDbEntity
8
0
100
AcDbBlockBegin
2
*Paper_Space
70
0
10
0
20
0
30
0
3
*Paper_Space
0
ENDBLK
5
1D
100
AcDbEntity
8
0
100
AcDbBlockEnd
0
BLOCK
5
24
100
AcDbEntity
8
0
100
AcDbBlockBegin
2
*Paper_Space0
70
0
10
0
20
0
30
0
3
*Paper_Space0
0
ENDBLK
5
25
100
AcDbEntity
8
0
100
AcDbBlockEnd
0
BLOCK
5
2BF
100
AcDbEntity
8
0
100
AcDbBlockBegin
2
DimnDraft3D1
70
0
10
0
20
0
30
0
3
DimnDraft3D1
0
MTEXT
5
2B5
100
AcDbEntity
8
2
62
256
6
ByLayer
370
-1
48
1
60
0
100
AcDbMText
10
113.055
20
7.496053
30
0
210
0
220
0
230
1
1
\W01.000;\fsimplex.shx,bigfont.shx;17 
40
4.5
41
0
44
1.084337
50
90
71
7
72
5
7
DEFAULT
0
LINE
5
2B6
100
AcDbEntity
8
2
62
256
6
ByLayer
370
-1
48
1
60
0
100
AcDbLine
10
106.43
20
0
30
0
11
117.18
21
0
31
0
39
0
210
0
220
0
230
1
0
LINE
5
2B7
100
AcDbEntity
8
2
62
256
6
ByLayer
370
-1
48
1
60
0
100
AcDbLine
10
101.43
20
16.875
30
0
11
117.18
21
16.875
31
0
39
0
210
0
220
0
230
1
0
LINE
5
2B8
100
AcDbEntity
8
2
62
256
6
ByLayer
370
-1
48
1
60
0
100
AcDbLine
10
114.18
20
0
30
0
11
114.18
21
16.875
31
0
39
0
210
0
220
0
230
1
0
LINE
5
2B9
100
AcDbEntity
8
2
62
256
6
ByLayer
370
-1
48
1
60
0
100
AcDbLine
10
114.18
20
0
30
0
11
113.785043
21
2.999999
31
0
39
0
210
0
220
0
230
1
0
LINE
5
2BA
100
AcDbEntity
8
2
62
256
6
ByLayer
370
-1
48
1
60
0
100
AcDbLine
10
114.18
20
0
30
0
11
114.574957
21
3.000001
31
0
39
0
210
0
220
0
230
1
0
LINE
5
2BB
100
AcDbEntity
8
2
62
256
6
ByLayer
370
-1
48
1
60
0
100
AcDbLine
10
113.785043
20
2.999999
30
0
11
114.574957
21
3.000001
31
0
39
0
210
0
220
0
230
1
0
LINE
5
2BC
100
AcDbEntity
8
2
62
256
6
ByLayer
370
-1
48
1
60
0
100
AcDbLine
10
114.18
20
16.875
30
0
11
114.574957
21
13.875001
31
0
39
0
210
0
220
0
230
1
0
LINE
5
2BD
100
AcDbEntity
8
2
62
256
6
ByLayer
370
-1
48
1
60
0
100
AcDbLine
10
114.18
20
16.875
30
0
11
113.785043
21
13.874999
31
0
39
0
210
0
220
0
230
1
0
LINE
5
2BE
100
AcDbEntity
8
2
62
256
6
ByLayer
370
-1
48
1
60
0
100
AcDbLine
10
114.574957
20
13.875001
30
0
11
113.785043
21
13.874999
31
0
39
0
210
0
220
0
230
1
0
ENDBLK
5
2C0
100
AcDbEntity
8
0
100
AcDbBlockEnd
0
BLOCK
5
2C3
100
AcDbEntity
8
0
100
AcDbBlockBegin
2
_CLOSED
70
0
10
0
20
0
30
0
3
_CLOSED
0
LINE
5
2C5
100
AcDbEntity
8
0
62
256
6
ByLayer
370
-2
48
1
60
0
100
AcDbLine
10
-1
20
0.166667
30
0
11
0
21
0
31
0
39
0
210
0
220
0
230
1
0
LINE
5
2C6
100
AcDbEntity
8
0
62
256
6
ByLayer
370
-2
48
1
60
0
100
AcDbLine
10
0
20
0
30
0
11
-1
21
-0.166667
31
0
39
0
210
0
220
0
230
1
0
LINE
5
2C7
100
AcDbEntity
8
0
62
256
6
ByLayer
370
-2
48
1
60
0
100
AcDbLine
10
-1
20
0.166667
30
0
11
-1
21
-0.166667
31
0
39
0
210
0
220
0
230
1
0
LINE
5
2C8
100
AcDbEntity
8
0
62
256
6
ByLayer
370
-2
48
1
60
0
100
AcDbLine
10
0
20
0
30
0
11
-1
21
0
31
0
39
0
210
0
220
0
230
1
0
ENDBLK
5
2C4
100
AcDbEntity
8
0
100
AcDbBlockEnd
0
BLOCK
5
2D4
100
AcDbEntity
8
0
100
AcDbBlockBegin
2
DimnDraft3D2
70
0
10
0
20
0
30
0
3
DimnDraft3D2
0
MTEXT
5
2CA
100
AcDbEntity
8
2
62
256
6
ByLayer
370
-1
48
1
60
0
100
AcDbMText
10
84.012334
20
27.75
30
0
210
0
220
0
230
1
1
\W01.000;\fsimplex.shx,bigfont.shx;29 
40
4.5
41
0
44
1.084337
50
0
71
7
72
5
7
DEFAULT
0
LINE
5
2CB
100
AcDbEntity
8
2
62
256
6
ByLayer
370
-1
48
1
60
0
100
AcDbLine
10
99.93
20
18.375
30
0
11
99.93
21
29.625
31
0
39
0
210
0
220
0
230
1
0
LINE
5
2CC
100
AcDbEntity
8
2
62
256
6
ByLayer
370
-1
48
1
60
0
100
AcDbLine
10
71.102562
20
18.375
30
0
11
71.102562
21
29.625
31
0
39
0
210
0
220
0
230
1
0
LINE
5
2CD
100
AcDbEntity
8
2
62
256
6
ByLayer
370
-1
48
1
60
0
100
AcDbLine
10
99.93
20
26.625
30
0
11
71.102562
21
26.625
31
0
39
0
210
0
220
0
230
1
0
LINE
5
2CE
100
AcDbEntity
8
2
62
256
6
ByLayer
370
-1
48
1
60
0
100
AcDbLine
10
99.93
20
26.625
30
0
11
96.930001
21
26.230043
31
0
39
0
210
0
220
0
230
1
0
LINE
5
2CF
100
AcDbEntity
8
2
62
256
6
ByLayer
370
-1
48
1
60
0
100
AcDbLine
10
99.93
20
26.625
30
0
11
96.929999
21
27.019957
31
0
39
0
210
0
220
0
230
1
0
LINE
5
2D0
100
AcDbEntity
8
2
62
256
6
ByLayer
370
-1
48
1
60
0
100
AcDbLine
10
96.930001
20
26.230043
30
0
11
96.929999
21
27.019957
31
0
39
0
210
0
220
0
230
1
0
LINE
5
2D1
100
AcDbEntity
8
2
62
256
6
ByLayer
370
-1
48
1
60
0
100
AcDbLine
10
71.102562
20
26.625
30
0
11
74.102561
21
27.019957
31
0
39
0
210
0
220
0
230
1
0
LINE
5
2D2
100
AcDbEntity
8
2
62
256
6
ByLayer
370
-1
48
1
60
0
100
AcDbLine
10
71.102562
20
26.625
30
0
11
74.102564
21
26.230043
31
0
39
0
210
0
220
0
230
1
0
LINE
5
2D3
100
AcDbEntity
8
2
62
256
6
ByLayer
370
-1
48
1
60
0
100
AcDbLine
10
74.102561
20
27.019957
30
0
11
74.102564
21
26.230043
31
0
39
0
210
0
220
0
230
1
0
ENDBLK
5
2D5
100
AcDbEntity
8
0
100
AcDbBlockEnd
0
BLOCK
5
2E2
100
AcDbEntity
8
0
100
AcDbBlockBegin
2
DimnDraft3D3
70
0
10
0
20
0
30
0
3
DimnDraft3D3
0
MTEXT
5
2D8
100
AcDbEntity
8
SK2
62
256
6
ByLayer
370
-1
48
1
60
0
100
AcDbMText
10
-53.288421
20
37.75
30
0
210
0
220
0
230
1
1
\W01.000;\fsimplex.shx,bigfont.shx;301 
40
4.5
41
0
44
1.084337
50
0
71
7
72
5
7
DEFAULT
0
LINE
5
2D9
100
AcDbEntity
8
SK2
62
256
6
ByLayer
370
-1
48
1
60
0
100
AcDbLine
10
99.93
20
18.375
30
0
11
99.93
21
39.625
31
0
39
0
210
0
220
0
230
1
0
LINE
5
2DA
100
AcDbEntity
8
SK2
62
256
6
ByLayer
370
-1
48
1
60
0
100
AcDbLine
10
-201.32
20
1.5
30
0
11
-201.32
21
39.625
31
0
39
0
210
0
220
0
230
1
0
LINE
5
2DB
100
AcDbEntity
8
SK2
62
256
6
ByLayer
370
-1
48
1
60
0
100
AcDbLine
10
99.93
20
36.625
30
0
11
-201.32
21
36.625
31
0
39
0
210
0
220
0
230
1
0
LINE
5
2DC
100
AcDbEntity
8
SK2
62
256
6
ByLayer
370
-1
48
1
60
0
100
AcDbLine
10
99.93
20
36.625
30
0
11
96.930001
21
36.230043
31
0
39
0
210
0
220
0
230
1
0
LINE
5
2DD
100
AcDbEntity
8
SK2
62
256
6
ByLayer
370
-1
48
1
60
0
100
AcDbLine
10
99.93
20
36.625
30
0
11
96.929999
21
37.019957
31
0
39
0
210
0
220
0
230
1
0
LINE
5
2DE
100
AcDbEntity
8
SK2
62
256
6
ByLayer
370
-1
48
1
60
0
100
AcDbLine
10
96.930001
20
36.230043
30
0
11
96.929999
21
37.019957
31
0
39
0
210
0
220
0
230
1
0
LINE
5
2DF
100
AcDbEntity
8
SK2
62
256
6
ByLayer
370
-1
48
1
60
0
100
AcDbLine
10
-201.32
20
36.625
30
0
11
-198.320001
21
37.019957
31
0
39
0
210
0
220
0
230
1
0
LINE
5
2E0
100
AcDbEntity
8
SK2
62
256
6
ByLayer
370
-1
48
1
60
0
100
AcDbLine
10
-201.32
20
36.625
30
0
11
-198.319999
21
36.230043
31
0
39
0
210
0
220
0
230
1
0
LINE
5
2E1
100
AcDbEntity
8
SK2
62
256
6
ByLayer
370
-1
48
1
60
0
100
AcDbLine
10
-198.320001
20
37.019957
30
0
11
-198.319999
21
36.230043
31
0
39
0
210
0
220
0
230
1
0
ENDBLK
5
2E3
100
AcDbEntity
8
0
100
AcDbBlockEnd
0
ENDSEC
0
SECTION
2
ENTITIES
0
ARC
5
175
100
AcDbEntity
8
1
62
256
6
ByLayer
370
-1
48
1
60
0
100
AcDbCircle
39
0
10
-82.174171
20
-12.975
30
0
40
0.8
210
0
220
0
230
-1
100
AcDbArc
50
90
51
99.068722
0
ARC
5
176
100
AcDbEntity
8
1
62
256
6
ByLayer
370
-1
48
1
60
0
100
AcDbCircle
39
0
10
-82.174171
20
12.975
30
0
40
0.8
210
0
220
0
230
-1
100
AcDbArc
50
220
51
270
0
ARC
5
177
100
AcDbEntity
8
1
62
256
6
ByLayer
370
-1
48
1
60
0
100
AcDbCircle
39
0
10
-71.316922
20
-12.975
30
0
40
0.799999999999974
210
0
220
0
230
-1
100
AcDbArc
50
60
51
90
0
ELLIPSE
5
178
100
AcDbEntity
8
1
62
256
6
ByLayer
370
-1
48
1
60
0
100
AcDbEllipse
10
93.340829
20
0
30
0
11
-14.5736829899778
21
10.4494627419808
31
0
210
0
220
0
230
1
40
0.430064
41
1.36742405632673
42
1.69693156332811
0
ELLIPSE
5
179
100
AcDbEntity
8
1
62
256
6
ByLayer
370
-1
48
1
60
0
100
AcDbEllipse
10
87.674664
20
8.286369
30
0
11
-1.65306217752336
21
0.107682693204858
31
0
210
0
220
0
230
1
40
0.965788
41
1.05525226571715
42
2.1911554479351
0
ELLIPSE
5
17A
100
AcDbEntity
8
1
62
256
6
ByLayer
370
-1
48
1
60
0
100
AcDbEllipse
10
86.842332
20
6.655055
30
0
11
-1.64589647751501
21
0.116296110440841
31
0
210
0
220
0
230
1
40
0.965764
41
-1.50266254663832
42
-0.630870483031659
0
ELLIPSE
5
17B
100
AcDbEntity
8
1
62
256
6
ByLayer
370
-1
48
1
60
0
100
AcDbEllipse
10
86.842332
20
6.655055
30
0
11
-1.64589647751501
21
0.116296110440841
31
0
210
0
220
0
230
1
40
0.965764
41
-1.75781897900743
42
-1.50266254663833
0
ELLIPSE
5
17C
100
AcDbEntity
8
1
62
256
6
ByLayer
370
-1
48
1
60
0
100
AcDbEllipse
10
88.138384
20
7.545324
30
0
11
-1.99502603335153
21
0.140964982352535
31
0
210
0
220
0
230
1
40
0.965764
41
-1.26020625214119
42
-0.69970173996042
0
ELLIPSE
5
17D
100
AcDbEntity
8
1
62
256
6
ByLayer
370
-1
48
1
60
0
100
AcDbEllipse
10
86.974877
20
8.530904
30
0
11
-1.64651197074774
21
0.107256010922114
31
0
210
0
220
0
230
1
40
0.965788
41
-1.49804507945736
42
1.50863681175284
0
ELLIPSE
5
17E
100
AcDbEntity
8
1
62
256
6
ByLayer
370
-1
48
1
60
0
100
AcDbEllipse
10
98.024833
20
2.17362
30
0
11
-2.65443259145638
21
1.29855551955522
31
0
210
0
220
0
230
1
40
0.133258
41
0.880930524301498
42
1.16354352649256
0
ELLIPSE
5
17F
100
AcDbEntity
8
1
62
256
6
ByLayer
370
-1
48
1
60
0
100
AcDbEllipse
10
87.154369
20
11.06352
30
0
11
-2.24697958193692
21
-9.02608477286234
31
0
210
0
220
0
230
1
40
0.042003
41
-1.31698813026596
42
-1.30205067997948
0
ELLIPSE
5
180
100
AcDbEntity
8
1
62
256
6
ByLayer
370
-1
48
1
60
0
100
AcDbEllipse
10
91.963669
20
5.583049
30
0
11
-2.65443258870138
21
1.29855551841973
31
0
210
0
220
0
230
1
40
0.133258
41
1.16354352660181
42
1.44615652906077
0
ELLIPSE
5
181
100
AcDbEntity
8
1
62
256
6
ByLayer
370
-1
48
1
60
0
100
AcDbEllipse
10
87.521913
20
16.272908
30
0
11
-1.63784993060102
21
-7.54195098380438
31
0
210
0
220
0
230
1
40
0.160744
41
0.242557715261097
42
0.65346395801586
0
ELLIPSE
5
182
100
AcDbEntity
8
1
62
256
6
ByLayer
370
-1
48
1
60
0
100
AcDbEllipse
10
86.844161
20
6.680933
30
0
11
1.64589647751498
21
-0.116296110440813
31
0
210
0
220
0
230
1
40
0.965764
41
1.38386088998155
42
1.86794914054532
0
ELLIPSE
5
183
100
AcDbEntity
8
1
62
256
6
ByLayer
370
-1
48
1
60
0
100
AcDbEllipse
10
86.888593
20
7.309758
30
0
11
1.64589647751498
21
-0.116296110440813
31
0
210
0
220
0
230
1
40
0.965764
41
1.7536247159033
42
2.07470006325499
0
ELLIPSE
5
184
100
AcDbEntity
8
1
62
256
6
ByLayer
370
-1
48
1
60
0
100
AcDbEllipse
10
88.093952
20
6.916499
30
0
11
-2.11145701959822
21
0.149191788242371
31
0
210
0
220
0
230
1
40
0.965764
41
-1.11762307732644
42
-0.627728021228473
0
ELLIPSE
5
185
100
AcDbEntity
8
1
62
256
6
ByLayer
370
-1
48
1
60
0
100
AcDbEllipse
10
93.340829
20
0
30
0
11
-14.5617226429762
21
10.4408870648168
31
0
210
0
220
0
230
1
40
0.430064
41
-0.326904969291334
42
0.69597333065554
0
ELLIPSE
5
186
100
AcDbEntity
8
1
62
256
6
ByLayer
370
-1
48
1
60
0
100
AcDbEllipse
10
84.127059
20
5.472676
30
0
11
-1.52312151413247
21
1.36586304787055
31
0
210
0
220
0
230
1
40
0.689943
41
-0.840426372305962
42
3.13311504349037
0
ELLIPSE
5
187
100
AcDbEntity
8
1
62
256
6
ByLayer
370
-1
48
1
60
0
100
AcDbEllipse
10
98.956871
20
1.262303
30
0
11
-0.0152483778485126
21
3.09996249767203
31
0
210
0
220
0
230
1
40
0.052006
41
1.57054039011299
42
1.57486007868972
0
ELLIPSE
5
188
100
AcDbEntity
8
1
62
256
6
ByLayer
370
-1
48
1
60
0
100
AcDbEllipse
10
98.956871
20
1.262303
30
0
11
-0.0152483778485126
21
3.09996249767203
31
0
210
0
220
0
230
1
40
0.052006
41
1.54049899354175
42
1.57054039011299
0
ELLIPSE
5
189
100
AcDbEntity
8
1
62
256
6
ByLayer
370
-1
48
1
60
0
100
AcDbEllipse
10
99.119814
20
1.44743
30
0
11
-0.0878138722405278
21
0.00572047569038334
31
0
210
0
220
0
230
1
40
0.965789
41
2.68082561138809
42
-3.14157919444885
0
ELLIPSE
5
18A
100
AcDbEntity
8
1
62
256
6
ByLayer
370
-1
48
1
60
0
100
AcDbEllipse
10
99.051918
20
2.780744
30
0
11
-0.179619284128353
21
0.0117009730030567
31
0
210
0
220
0
230
1
40
0.965789
41
2.39034587768769
42
2.68082561138885
0
ELLIPSE
5
18B
100
AcDbEntity
8
1
62
256
6
ByLayer
370
-1
48
1
60
0
100
AcDbEllipse
10
99.376349
20
3.322189
30
0
11
-0.179619284128352
21
0.0117009730030568
31
0
210
0
220
0
230
1
40
0.965789
41
2.68082561138886
42
-3.14158154768294
0
ELLIPSE
5
18C
100
AcDbEntity
8
1
62
256
6
ByLayer
370
-1
48
1
60
0
100
AcDbEllipse
10
99.61311
20
4.580301
30
0
11
0.249471227956045
21
-0.0162513513931358
31
0
210
0
220
0
230
1
40
0.965789
41
-0.460767042201088
42
-1.31917312611256E-06
0
ELLIPSE
5
18D
100
AcDbEntity
8
1
62
256
6
ByLayer
370
-1
48
1
60
0
100
AcDbEllipse
10
95.153552
20
8.703454
30
0
11
-3.00359442768433
21
0.195663719967575
31
0
210
0
220
0
230
1
40
0.965789
41
-0.3726716085319
42
0
0
ELLIPSE
5
18E
100
AcDbEntity
8
1
62
256
6
ByLayer
370
-1
48
1
60
0
100
AcDbEllipse
10
95.153552
20
8.703454
30
0
11
-3.00359442768433
21
0.195663719967575
31
0
210
0
220
0
230
1
40
0.965789
41
0
42
0.220206031232929
0
ELLIPSE
5
18F
100
AcDbEntity
8
1
62
256
6
ByLayer
370
-1
48
1
60
0
100
AcDbEllipse
10
95.153552
20
8.703454
30
0
11
-3.00359442768433
21
0.195663719967575
31
0
210
0
220
0
230
1
40
0.965789
41
2.92128823926724
42
-2.07953834765509
0
ELLIPSE
5
190
100
AcDbEntity
8
1
62
256
6
ByLayer
370
-1
48
1
60
0
100
AcDbEllipse
10
87.320722
20
7.793703
30
0
11
-0.0878138722405248
21
0.00572047569038315
31
0
210
0
220
0
230
1
40
0.965789
41
1.16283419700668E-05
42
0.58643050899512
0
ELLIPSE
5
191
100
AcDbEntity
8
1
62
256
6
ByLayer
370
-1
48
1
60
0
100
AcDbEllipse
10
88.551691
20
7.175216
30
0
11
-0.179619284128353
21
0.0117009730030567
31
0
210
0
220
0
230
1
40
0.965789
41
9.08050424773319E-07
42
0.586430508995475
0
ELLIPSE
5
192
100
AcDbEntity
8
1
62
256
6
ByLayer
370
-1
48
1
60
0
100
AcDbEllipse
10
95.149312
20
8.638373
30
0
11
-2.91486949082829
21
0.189883894622605
31
0
210
0
220
0
230
1
40
0.965789
41
-0.591306881925007
42
0
0
ELLIPSE
5
193
100
AcDbEntity
8
1
62
256
6
ByLayer
370
-1
48
1
60
0
100
AcDbEllipse
10
95.149312
20
8.638373
30
0
11
-2.91486949082829
21
0.189883894622605
31
0
210
0
220
0
230
1
40
0.965789
41
0
42
0.440412056915359
0
ELLIPSE
5
194
100
AcDbEntity
8
1
62
256
6
ByLayer
370
-1
48
1
60
0
100
AcDbEllipse
10
95.149312
20
8.638373
30
0
11
-2.91486949082829
21
0.189883894622605
31
0
210
0
220
0
230
1
40
0.965789
41
2.70108248924325
42
-2.57767685223083
0
ELLIPSE
5
195
100
AcDbEntity
8
1
62
256
6
ByLayer
370
-1
48
1
60
0
100
AcDbEllipse
10
90.794868
20
12.317061
30
0
11
-1.8
21
2.20429143688028E-16
31
0
210
0
220
0
230
1
40
0.258819
41
-2.4423104040018
42
-2.41345916410089
0
ELLIPSE
5
196
100
AcDbEntity
8
1
62
256
6
ByLayer
370
-1
48
1
60
0
100
AcDbEllipse
10
95.157432
20
8.699276
30
0
11
-2.71822297044147
21
0.192064788455329
31
0
210
0
220
0
230
1
40
0.965764
41
0
42
3.14149459685376
0
ELLIPSE
5
197
100
AcDbEntity
8
1
62
256
6
ByLayer
370
-1
48
1
60
0
100
AcDbEllipse
10
93.669252
20
8.635133
30
0
11
-0.000623103068492927
21
0.380672332819604
31
0
210
0
220
0
230
1
40
0.50691
41
-0.0603741684594996
42
0.903672283966798
0
ELLIPSE
5
198
100
AcDbEntity
8
1
62
256
6
ByLayer
370
-1
48
1
60
0
100
AcDbEllipse
10
96.635556
20
8.621093
30
0
11
-0.000623103068494114
21
0.380672332819606
31
0
210
0
220
0
230
1
40
0.50691
41
-1.20422847250819
42
0.053916050967314
0
ELLIPSE
5
199
100
AcDbEntity
8
1
62
256
6
ByLayer
370
-1
48
1
60
0
100
AcDbEllipse
10
93.868043
20
9.350571
30
0
11
-0.200051044281945
21
-0.326957883011053
31
0
210
0
220
0
230
1
40
0.499975
41
1.58915102711721
42
2.37462779239119
0
ELLIPSE
5
19A
100
AcDbEntity
8
1
62
256
6
ByLayer
370
-1
48
1
60
0
100
AcDbEllipse
10
96.436764
20
9.338412
30
0
11
-0.200517583767811
21
0.328568772582204
31
0
210
0
220
0
230
1
40
0.495781
41
0.608513246075951
42
1.54958265944731
0
ELLIPSE
5
19B
100
AcDbEntity
8
1
62
256
6
ByLayer
370
-1
48
1
60
0
100
AcDbEllipse
10
94.410828
20
9.872511
30
0
11
-0.343133849056972
21
-0.185391276329942
31
0
210
0
220
0
230
1
40
0.48292
41
3.10477118287704
42
-0.966396763247119
0
ELLIPSE
5
19C
100
AcDbEntity
8
1
62
256
6
ByLayer
370
-1
48
1
60
0
100
AcDbEllipse
10
95.89398
20
9.865491
30
0
11
-0.342845330156791
21
0.189166589712715
31
0
210
0
220
0
230
1
40
0.479089
41
-2.35411703748976
42
0.040024443315999
0
ELLIPSE
5
19D
100
AcDbEntity
8
1
62
256
6
ByLayer
370
-1
48
1
60
0
100
AcDbEllipse
10
95.152404
20
8.628113
30
0
11
-1.28709104541674
21
0.0909435583647379
31
0
210
0
220
0
230
1
40
0.965764
41
0.73279325638702
42
0.96356954089346
0
ELLIPSE
5
19E
100
AcDbEntity
8
1
62
256
6
ByLayer
370
-1
48
1
60
0
100
AcDbEllipse
10
95.152404
20
8.628113
30
0
11
-1.28709104541674
21
0.0909435583647379
31
0
210
0
220
0
230
1
40
0.965764
41
2.12648254357451
42
2.5725070743323
0
ELLIPSE
5
19F
100
AcDbEntity
8
1
62
256
6
ByLayer
370
-1
48
1
60
0
100
AcDbEllipse
10
95.152404
20
8.628113
30
0
11
-1.28709104541674
21
0.0909435583647379
31
0
210
0
220
0
230
1
40
0.965764
41
3.12691571093353
42
-2.54986031696401
0
ELLIPSE
5
1A0
100
AcDbEntity
8
1
62
256
6
ByLayer
370
-1
48
1
60
0
100
AcDbEllipse
10
95.152404
20
8.628113
30
0
11
-1.28709104541674
21
0.0909435583647379
31
0
210
0
220
0
230
1
40
0.965764
41
-0.455465214570918
42
0.124927586583928
0
ELLIPSE
5
1A1
100
AcDbEntity
8
1
62
256
6
ByLayer
370
-1
48
1
60
0
100
AcDbEllipse
10
95.152404
20
8.628113
30
0
11
1.28709104541674
21
-0.0909435583647173
31
0
210
0
220
0
230
1
40
0.965764
41
1.6389298878223
42
2.68612743901893
0
ELLIPSE
5
1A2
100
AcDbEntity
8
1
62
256
6
ByLayer
370
-1
48
1
60
0
100
AcDbEllipse
10
95.152404
20
8.628113
30
0
11
-1.28709104541674
21
0.0909435583647379
31
0
210
0
220
0
230
1
40
0.965764
41
-2.54986031696415
42
-1.50266276576745
0
ELLIPSE
5
1A3
100
AcDbEntity
8
1
62
256
6
ByLayer
370
-1
48
1
60
0
100
AcDbEllipse
10
95.152404
20
10.06087
30
0
11
-0.39403247531671
21
0.00240287602991428
31
0
210
0
220
0
230
1
40
0.473102
41
0.163407912190338
42
1.57368137364684
0
ELLIPSE
5
1A4
100
AcDbEntity
8
1
62
256
6
ByLayer
370
-1
48
1
60
0
100
AcDbEllipse
10
95.152404
20
10.06087
30
0
11
-0.394032475315453
21
0.00240287603048566
31
0
210
0
220
0
230
1
40
0.473102
41
1.57368137365034
42
2.98395483510993
0
ELLIPSE
5
1A5
100
AcDbEntity
8
1
62
256
6
ByLayer
370
-1
48
1
60
0
100
AcDbEllipse
10
96.436764
20
9.338412
30
0
11
-0.20051758376317
21
0.328568772582358
31
0
210
0
220
0
230
1
40
0.495781
41
1.54958265947053
42
2.95985612092411
0
ELLIPSE
5
1A6
100
AcDbEntity
8
1
62
256
6
ByLayer
370
-1
48
1
60
0
100
AcDbEllipse
10
95.181202
20
9.035684
30
0
11
1.67223082115526
21
-0.118156848207869
31
0
210
0
220
0
230
1
40
0.965764
41
-3.07345909256236
42
-2.02626154136578
0
ELLIPSE
5
1A7
100
AcDbEntity
8
1
62
256
6
ByLayer
370
-1
48
1
60
0
100
AcDbEllipse
10
95.181202
20
9.035684
30
0
11
1.67223082115526
21
-0.118156848207869
31
0
210
0
220
0
230
1
40
0.965764
41
2.16252866342068
42
-3.07345909256236
0
ELLIPSE
5
1A8
100
AcDbEntity
8
1
62
256
6
ByLayer
370
-1
48
1
60
0
100
AcDbEllipse
10
95.181202
20
9.035684
30
0
11
1.67223082115526
21
-0.118156848207869
31
0
210
0
220
0
230
1
40
0.965764
41
0.0681335610274285
42
1.11533111222401
0
ELLIPSE
5
1A9
100
AcDbEntity
8
1
62
256
6
ByLayer
370
-1
48
1
60
0
100
AcDbEllipse
10
95.181202
20
9.035684
30
0
11
1.67223082115526
21
-0.118156848207869
31
0
210
0
220
0
230
1
40
0.965764
41
-0.979063990169199
42
0.0681335610274285
0
ELLIPSE
5
1AA
100
AcDbEntity
8
1
62
256
6
ByLayer
370
-1
48
1
60
0
100
AcDbEllipse
10
95.181202
20
9.035684
30
0
11
1.67223082115526
21
-0.118156848207869
31
0
210
0
220
0
230
1
40
0.965764
41
1.11533111222401
42
2.16252866342068
0
ELLIPSE
5
1AB
100
AcDbEntity
8
1
62
256
6
ByLayer
370
-1
48
1
60
0
100
AcDbEllipse
10
95.181202
20
9.035684
30
0
11
1.67223082115526
21
-0.118156848207869
31
0
210
0
220
0
230
1
40
0.965764
41
-2.02626154136578
42
-0.979063990169199
0
ELLIPSE
5
1AC
100
AcDbEntity
8
1
62
256
6
ByLayer
370
-1
48
1
60
0
100
AcDbEllipse
10
95.180079
20
9.019799
30
0
11
-2.71822297044146
21
0.192064788455329
31
0
210
0
220
0
230
1
40
0.965764
41
0
42
6.28318530717959
0
ELLIPSE
5
1AD
100
AcDbEntity
8
1
62
256
6
ByLayer
370
-1
48
1
60
0
100
AcDbEllipse
10
95.181202
20
9.035684
30
0
11
-1.79552343001638
21
0.126868484117281
31
0
210
0
220
0
230
1
40
0.965764
41
0
42
6.28318530717959
0
ELLIPSE
5
1AE
100
AcDbEntity
8
1
62
256
6
ByLayer
370
-1
48
1
60
0
100
AcDbEllipse
10
93.868043
20
9.350571
30
0
11
-0.200051044280357
21
-0.326957883009654
31
0
210
0
220
0
230
1
40
0.499975
41
0.17887756565262
42
1.5891510271136
0
ELLIPSE
5
1AF
100
AcDbEntity
8
1
62
256
6
ByLayer
370
-1
48
1
60
0
100
AcDbEllipse
10
91.654367
20
12.58508
30
0
11
-0.25
21
3.06151588455594E-17
31
0
210
0
220
0
230
1
40
0.258819
41
-1.58442776940366
42
-0.755396374706196
0
ELLIPSE
5
1B0
100
AcDbEntity
8
1
62
256
6
ByLayer
370
-1
48
1
60
0
100
AcDbEllipse
10
91.951815
20
12.58403
30
0
11
-0.25
21
3.06151588455594E-17
31
0
210
0
220
0
230
1
40
0.258819
41
-2.4134591641009
42
-1.58442776940366
0
ELLIPSE
5
1B1
100
AcDbEntity
8
1
62
256
6
ByLayer
370
-1
48
1
60
0
100
AcDbEllipse
10
92.782767
20
12.310047
30
0
11
-1.8
21
2.20429143688028E-16
31
0
210
0
220
0
230
1
40
0.258819
41
-0.755396374706272
42
-0.528503571946999
0
ELLIPSE
5
1B2
100
AcDbEntity
8
1
62
256
6
ByLayer
370
-1
48
1
60
0
100
AcDbEllipse
10
91.012464
20
12.577587
30
0
11
-0.25
21
3.06151588455594E-17
31
0
210
0
220
0
230
1
40
0.258819
41
2.02965358241132
42
2.61308908164297
0
ELLIPSE
5
1B3
100
AcDbEntity
8
1
62
256
6
ByLayer
370
-1
48
1
60
0
100
AcDbEllipse
10
89.303711
20
7.448863
30
0
11
-0.35203038269754
21
0.578101923465435
31
0
210
0
220
0
230
1
40
0.071322
41
1.74625735222749
42
2.609190998245
0
ELLIPSE
5
1B4
100
AcDbEntity
8
1
62
256
6
ByLayer
370
-1
48
1
60
0
100
AcDbEllipse
10
97.865114
20
3.158105
30
0
11
-0.164123276904411
21
0.286292769692421
31
0
210
0
220
0
230
1
40
0.007386
41
1.13372780755371
42
2.0147491335687
0
ELLIPSE
5
1B5
100
AcDbEntity
8
1
62
256
6
ByLayer
370
-1
48
1
60
0
100
AcDbEllipse
10
88.390449
20
9.675195
30
0
11
-0.210233595088777
21
-0.254365554853735
31
0
210
0
220
0
230
1
40
0.325777
41
-1.90870933697269
42
-1.09225975093549
0
ELLIPSE
5
1B6
100
AcDbEntity
8
1
62
256
6
ByLayer
370
-1
48
1
60
0
100
AcDbEllipse
10
97.721263
20
2.971672
30
0
11
-0.837564038380977
21
-0.479739159405283
31
0
210
0
220
0
230
1
40
0.308746
41
-3.12995290558065
42
-2.31350331955818
0
ELLIPSE
5
1B7
100
AcDbEntity
8
1
62
256
6
ByLayer
370
-1
48
1
60
0
100
AcDbEllipse
10
97.90502
20
3.278345
30
0
11
-0.00595811942126285
21
0.89017666942205
31
0
210
0
220
0
230
1
40
0.362985
41
2.34793671774056
42
-3.11879900341365
0
ELLIPSE
5
1B8
100
AcDbEntity
8
1
62
256
6
ByLayer
370
-1
48
1
60
0
100
AcDbEllipse
10
88.174599
20
7.56351
30
0
11
0.129725038537143
21
-0.00845070272443057
31
0
210
0
220
0
230
1
40
0.965789
41
0.586430508995292
42
1.61848771655667
0
ELLIPSE
5
1B9
100
AcDbEntity
8
1
62
256
6
ByLayer
370
-1
48
1
60
0
100
AcDbEllipse
10
99.117776
20
1.444027
30
0
11
-0.0878138722405248
21
0.00572047569038315
31
0
210
0
220
0
230
1
40
0.965789
41
1.64876840382667
42
2.68082561138809
0
ELLIPSE
5
1BA
100
AcDbEntity
8
1
62
256
6
ByLayer
370
-1
48
1
60
0
100
AcDbEllipse
10
98.178392
20
3.337698
30
0
11
0.279970847001604
21
0.17468922356346
31
0
210
0
220
0
230
1
40
0.429075
41
-1.59348664827048
42
-1.24442079787171
0
ELLIPSE
5
1BB
100
AcDbEntity
8
1
62
256
6
ByLayer
370
-1
48
1
60
0
100
AcDbEllipse
10
88.339966
20
9.596658
30
0
11
0.2141354348121
21
-0.137644526072895
31
0
210
0
220
0
230
1
40
0.895737
41
1.61758975637614
42
1.92240840665302
0
ELLIPSE
5
1BC
100
AcDbEntity
8
1
62
256
6
ByLayer
370
-1
48
1
60
0
100
AcDbEllipse
10
97.446326
20
2.495358
30
0
11
-0.239377603616561
21
-0.0826540724875216
31
0
210
0
220
0
230
1
40
0.911082
41
0.744664108211581
42
1.28340322740799
0
ELLIPSE
5
1BD
100
AcDbEntity
8
1
62
256
6
ByLayer
370
-1
48
1
60
0
100
AcDbEllipse
10
93.675755
20
11.914205
30
0
11
0.105854520827005
21
-0.10627709264223
31
0
210
0
220
0
230
1
40
0.19749
41
1.74310194330193
42
1.9176348685013
0
ELLIPSE
5
1BE
100
AcDbEntity
8
1
62
256
6
ByLayer
370
-1
48
1
60
0
100
AcDbEllipse
10
98.929689
20
14.688877
30
0
11
-0.285075263893947
21
0.166229040530819
31
0
210
0
220
0
230
1
40
0.008173
41
1.20764539343912
42
1.55671124383627
0
ELLIPSE
5
1BF
100
AcDbEntity
8
1
62
256
6
ByLayer
370
-1
48
1
60
0
100
AcDbEllipse
10
99.682396
20
5.643896
30
0
11
0.249471227956045
21
-0.0162513513931358
31
0
210
0
220
0
230
1
40
0.965789
41
-0.0333040443271317
42
0.0628317333971717
0
ELLIPSE
5
1C0
100
AcDbEntity
8
1
62
256
6
ByLayer
370
-1
48
1
60
0
100
AcDbEllipse
10
88.702069
20
9.492875
30
0
11
-0.16664678834278
21
-0.284831262215082
31
0
210
0
220
0
230
1
40
0.020796
41
-1.99154265753966
42
-1.11052133152836
0
ELLIPSE
5
1C1
100
AcDbEntity
8
1
62
256
6
ByLayer
370
-1
48
1
60
0
100
AcDbEllipse
10
88.939267
20
7.600279
30
0
11
-0.16635882045846
21
0.0735665957212291
31
0
210
0
220
0
230
1
40
0.908072
41
0.907720640221765
42
1.85126895891925
0
ELLIPSE
5
1C2
100
AcDbEntity
8
1
62
256
6
ByLayer
370
-1
48
1
60
0
100
AcDbEllipse
10
99.079569
20
3.454334
30
0
11
-0.124476353878437
21
-0.0429801176559558
31
0
210
0
220
0
230
1
40
0.911082
41
-1.76968053695847
42
-0.826132218326033
0
ELLIPSE
5
1C3
100
AcDbEntity
8
1
62
256
6
ByLayer
370
-1
48
1
60
0
100
AcDbEllipse
10
97.76329
20
14.715167
30
0
11
-0.000811575218116067
21
-0.186347945085617
31
0
210
0
220
0
230
1
40
0.965798
41
2.19803602375905
42
3.14158434239584
0
ELLIPSE
5
1C4
100
AcDbEntity
8
1
62
256
6
ByLayer
370
-1
48
1
60
0
100
AcDbEllipse
10
98.921235
20
13.534955
30
0
11
-0.00804175809511767
21
-1.84310051247598
31
0
210
0
220
0
230
1
40
0.179021
41
2.84088284842567
42
-2.84088306243495
0
ELLIPSE
5
1C5
100
AcDbEntity
8
1
62
256
6
ByLayer
370
-1
48
1
60
0
100
AcDbEllipse
10
95.59482
20
3.373575
30
0
11
-0.152152475741228
21
0.0895179785101803
31
0
210
0
220
0
230
1
40
0.197758
41
-2.41395421091651
42
-1.47147641484049
0
ELLIPSE
5
1C6
100
AcDbEntity
8
1
62
256
6
ByLayer
370
-1
48
1
60
0
100
AcDbEllipse
10
96.419111
20
2.82471
30
0
11
-0.335804858972059
21
0.201414936990604
31
0
210
0
220
0
230
1
40
0.189826
41
0.727550146225535
42
1.7181554721265
0
ELLIPSE
5
1C7
100
AcDbEntity
8
1
62
256
6
ByLayer
370
-1
48
1
60
0
100
AcDbEllipse
10
96.672971
20
2.932986
30
0
11
0.312377620717914
21
-0.0694278191693718
31
0
210
0
220
0
230
1
40
0.335766
41
-1.55801442581534
42
-1.28237066486825
0
ELLIPSE
5
1C8
100
AcDbEntity
8
1
62
256
6
ByLayer
370
-1
48
1
60
0
100
AcDbEllipse
10
99.694296
20
13.030832
30
0
11
-0.175677408214786
21
-0.267464854220018
31
0
210
0
220
0
230
1
40
0.203761
41
0.402079994214469
42
1.39268532020152
0
ELLIPSE
5
1C9
100
AcDbEntity
8
1
62
256
6
ByLayer
370
-1
48
1
60
0
100
AcDbEllipse
10
95.731281
20
14.58948
30
0
11
-0.283033031538182
21
0.000905222959382787
31
0
210
0
220
0
230
1
40
0.13718
41
-2.52176974015539
42
-2.09519462473473
0
ELLIPSE
5
1CA
100
AcDbEntity
8
1
62
256
6
ByLayer
370
-1
48
1
60
0
100
AcDbEllipse
10
89.119619
20
10.549209
30
0
11
-0.319437373112233
21
-0.0189674631713405
31
0
210
0
220
0
230
1
40
0.372092
41
1.30555697618051
42
2.47552078441307
0
ELLIPSE
5
1CB
100
AcDbEntity
8
1
62
256
6
ByLayer
370
-1
48
1
60
0
100
AcDbEllipse
10
98.472053
20
2.867053
30
0
11
0.0228891020462331
21
-0.329205238426604
31
0
210
0
220
0
230
1
40
0.196789
41
0.821693699628056
42
1.17075955002699
0
ELLIPSE
5
1CC
100
AcDbEntity
8
1
62
256
6
ByLayer
370
-1
48
1
60
0
100
AcDbEllipse
10
93.356218
20
5.570999
30
0
11
-0.149596176921153
21
0.0109992659107379
31
0
210
0
220
0
230
1
40
0.259322
41
-1.56863274343696
42
-0.863046553738152
0
ELLIPSE
5
1CD
100
AcDbEntity
8
1
62
256
6
ByLayer
370
-1
48
1
60
0
100
AcDbEllipse
10
98.929689
20
14.688877
30
0
11
-0.329991143274647
21
0.0024177179924788
31
0
210
0
220
0
230
1
40
0.178986
41
-1.85495451927026
42
-1.25353512295932
0
ELLIPSE
5
1CE
100
AcDbEntity
8
1
62
256
6
ByLayer
370
-1
48
1
60
0
100
AcDbEllipse
10
95.170537
20
8.964191
30
0
11
3.07390048262849
21
-0.200243680604029
31
0
210
0
220
0
230
1
40
0.965789
41
0
42
6.28318530717959
0
ELLIPSE
5
1CF
100
AcDbEntity
8
1
62
256
6
ByLayer
370
-1
48
1
60
0
100
AcDbEllipse
10
99.088013
20
9.073601
30
0
11
0.063305906038894
21
-0.135986625300412
31
0
210
0
220
0
230
1
40
0.127852
41
1.09471097891237
42
1.80029716860936
0
ELLIPSE
5
1D0
100
AcDbEntity
8
1
62
256
6
ByLayer
370
-1
48
1
60
0
100
AcDbEllipse
10
87.38725
20
8.814967
30
0
11
-0.0813309788894313
21
0.035965891242208
31
0
210
0
220
0
230
1
40
0.908072
41
-0.124336567304104
42
0.907720640312014
0
ELLIPSE
5
1D1
100
AcDbEntity
8
1
62
256
6
ByLayer
370
-1
48
1
60
0
100
AcDbEllipse
10
98.178392
20
3.337698
30
0
11
0.164123276904412
21
-0.286292769692421
31
0
210
0
220
0
230
1
40
0.007386
41
-2.00786484603608
42
-1.12684352002117
0
ELLIPSE
5
1D2
100
AcDbEntity
8
1
62
256
6
ByLayer
370
-1
48
1
60
0
100
AcDbEllipse
10
99.924457
20
12.879656
30
0
11
-0.000910734195911834
21
-0.382239909292564
31
0
210
0
220
0
230
1
40
0.013965
41
-1.40181009868574
42
-0.411204772743457
0
ELLIPSE
5
1D3
100
AcDbEntity
8
1
62
256
6
ByLayer
370
-1
48
1
60
0
100
AcDbEllipse
10
99.463273
20
4.775482
30
0
11
-0.352978025705539
21
-0.614491680143906
31
0
210
0
220
0
230
1
40
0.052277
41
1.53890582545868
42
2.40183947120855
0
ELLIPSE
5
1D4
100
AcDbEntity
8
1
62
256
6
ByLayer
370
-1
48
1
60
0
100
AcDbEllipse
10
97.545509
20
3.253349
30
0
11
-1.55232594730526
21
0.738057643039601
31
0
210
0
220
0
230
1
40
0.185907
41
2.82298096076419
42
-2.85878495007133
0
ELLIPSE
5
1D5
100
AcDbEntity
8
1
62
256
6
ByLayer
370
-1
48
1
60
0
100
AcDbEllipse
10
98.616924
20
14.158532
30
0
11
-4.67600826818841E-17
21
-0.254558441227155
31
0
210
0
220
0
230
1
40
0.999867
41
-0.863312072454428
42
-0.55849359383705
0
ELLIPSE
5
1D6
100
AcDbEntity
8
1
62
256
6
ByLayer
370
-1
48
1
60
0
100
AcDbEllipse
10
98.472053
20
2.867053
30
0
11
0.279970847001604
21
0.17468922356346
31
0
210
0
220
0
230
1
40
0.429075
41
-1.59348664827039
42
-1.24442079787171
0
ELLIPSE
5
1D7
100
AcDbEntity
8
1
62
256
6
ByLayer
370
-1
48
1
60
0
100
AcDbEllipse
10
89.119619
20
10.549209
30
0
11
-0.214373568568214
21
-0.23757940377762
31
0
210
0
220
0
230
1
40
0.080191
41
1.11663809063096
42
1.39228185157732
0
ELLIPSE
5
1D8
100
AcDbEntity
8
1
62
256
6
ByLayer
370
-1
48
1
60
0
100
AcDbEllipse
10
99.929831
20
7.969559
30
0
11
-0.000654095689505076
21
-0.150104690801571
31
0
210
0
220
0
230
1
40
0.016273
41
1.83244168923436
42
2.5449662739729
0
ELLIPSE
5
1D9
100
AcDbEntity
8
1
62
256
6
ByLayer
370
-1
48
1
60
0
100
AcDbEllipse
10
99.184304
20
2.465291
30
0
11
-0.0842609164747268
21
-0.0290942334852181
31
0
210
0
220
0
230
1
40
0.911082
41
1.28340322775378
42
2.31546043532472
0
ELLIPSE
5
1DA
100
AcDbEntity
8
1
62
256
6
ByLayer
370
-1
48
1
60
0
100
AcDbEllipse
10
97.908758
20
3.079157
30
0
11
0.222782340523572
21
0.123158551269647
31
0
210
0
220
0
230
1
40
0.903036
41
1.58799132119631
42
2.69625135559547
0
ELLIPSE
5
1DB
100
AcDbEntity
8
1
62
256
6
ByLayer
370
-1
48
1
60
0
100
AcDbEllipse
10
87.322761
20
7.790283
30
0
11
-0.0878138722405278
21
0.00572047569038334
31
0
210
0
220
0
230
1
40
0.965789
41
0.586430508996093
42
1.61848771655699
0
ELLIPSE
5
1DC
100
AcDbEntity
8
1
62
256
6
ByLayer
370
-1
48
1
60
0
100
AcDbEllipse
10
88.647
20
9.081568
30
0
11
0.2141354348121
21
-0.137644526072895
31
0
210
0
220
0
230
1
40
0.895737
41
0.204511071699833
42
0.509329721976881
0
ELLIPSE
5
1DD
100
AcDbEntity
8
1
62
256
6
ByLayer
370
-1
48
1
60
0
100
AcDbEllipse
10
88.363217
20
10.084554
30
0
11
-0.231053917319296
21
0.102175827240499
31
0
210
0
220
0
230
1
40
0.908072
41
-0.663075687154717
42
-0.124336567846177
0
ELLIPSE
5
1DE
100
AcDbEntity
8
1
62
256
6
ByLayer
370
-1
48
1
60
0
100
AcDbEllipse
10
98.931783
20
15.485321
30
0
11
-0.000396770117925395
21
-0.0911034398208124
31
0
210
0
220
0
230
1
40
0.965798
41
2.10952713493264
42
3.14158434251483
0
ELLIPSE
5
1DF
100
AcDbEntity
8
1
62
256
6
ByLayer
370
-1
48
1
60
0
100
AcDbEllipse
10
99.417527
20
7.952518
30
0
11
0.00498680642490317
21
-0.149917082954814
31
0
210
0
220
0
230
1
40
0.026344
41
1.83182940267444
42
2.5443539812016
0
ELLIPSE
5
1E0
100
AcDbEntity
8
1
62
256
6
ByLayer
370
-1
48
1
60
0
100
AcDbEllipse
10
98.926539
20
13.966991
30
0
11
-0.172437766515793
21
0.281363140228149
31
0
210
0
220
0
230
1
40
0.013865
41
1.56225718306721
42
2.44327850907879
0
ELLIPSE
5
1E1
100
AcDbEntity
8
1
62
256
6
ByLayer
370
-1
48
1
60
0
100
AcDbEllipse
10
98.472053
20
2.867053
30
0
11
0.12698921213856
21
0.3045878198491
31
0
210
0
220
0
230
1
40
0.517188
41
-2.14635572770686
42
-1.54493633139595
0
ELLIPSE
5
1E2
100
AcDbEntity
8
1
62
256
6
ByLayer
370
-1
48
1
60
0
100
AcDbEllipse
10
99.115064
20
3.750084
30
0
11
-0.172351874624572
21
-0.0595109321098496
31
0
210
0
220
0
230
1
40
0.911082
41
1.37191211685876
42
2.31546043542407
0
ELLIPSE
5
1E3
100
AcDbEntity
8
1
62
256
6
ByLayer
370
-1
48
1
60
0
100
AcDbEllipse
10
98.927706
20
15.485339
30
0
11
-0.000396770137183826
21
-0.0911034398239039
31
0
210
0
220
0
230
1
40
0.965798
41
3.14158434271808
42
-2.10954375689911
0
ELLIPSE
5
1E4
100
AcDbEntity
8
1
62
256
6
ByLayer
370
-1
48
1
60
0
100
AcDbEllipse
10
99.230991
20
14.155852
30
0
11
-4.67600826818841E-17
21
-0.254558441227155
31
0
210
0
220
0
230
1
40
0.999867
41
0.549766437173629
42
0.85458525875284
0
ELLIPSE
5
1E5
100
AcDbEntity
8
1
62
256
6
ByLayer
370
-1
48
1
60
0
100
AcDbEllipse
10
96.672971
20
2.932986
30
0
11
0.176329317764095
21
-0.267035525158824
31
0
210
0
220
0
230
1
40
0.03732
41
-2.29821777815587
42
-1.1282539699198
0
ELLIPSE
5
1E6
100
AcDbEntity
8
1
62
256
6
ByLayer
370
-1
48
1
60
0
100
AcDbEllipse
10
88.238316
20
8.541619
30
0
11
-0.120148037020702
21
0.0531314302289915
31
0
210
0
220
0
230
1
40
0.908072
41
-2.23387201347109
42
-1.20181480594188
0
ELLIPSE
5
1E7
100
AcDbEntity
8
1
62
256
6
ByLayer
370
-1
48
1
60
0
100
AcDbEllipse
10
97.871358
20
2.825287
30
0
11
-0.329941928492634
21
-0.00619062376193448
31
0
210
0
220
0
230
1
40
0.387666
41
0.891887709618175
42
1.77290903562745
0
ELLIPSE
5
1E8
100
AcDbEntity
8
1
62
256
6
ByLayer
370
-1
48
1
60
0
100
AcDbEllipse
10
93.89874
20
12.963365
30
0
11
0.125722164389598
21
0.0818164859988192
31
0
210
0
220
0
230
1
40
0.210253
41
1.41488498587065
42
2.12740956439751
0
ELLIPSE
5
1E9
100
AcDbEntity
8
1
62
256
6
ByLayer
370
-1
48
1
60
0
100
AcDbEllipse
10
89.011064
20
9.585376
30
0
11
-1.53630689182613
21
-0.724448865297042
31
0
210
0
220
0
230
1
40
0.188839
41
-0.282355984084582
42
0.319063412204589
0
ELLIPSE
5
1EA
100
AcDbEntity
8
1
62
256
6
ByLayer
370
-1
48
1
60
0
100
AcDbEllipse
10
93.059793
20
12.131521
30
0
11
0.0824075344049287
21
0.125335542737487
31
0
210
0
220
0
230
1
40
0.131471
41
0.637761892179962
42
1.34334808187608
0
ELLIPSE
5
1EB
100
AcDbEntity
8
1
62
256
6
ByLayer
370
-1
48
1
60
0
100
AcDbEllipse
10
92.28428
20
12.641417
30
0
11
-0.143517613682585
21
-0.084332254423594
31
0
210
0
220
0
230
1
40
0.195042
41
-2.40799874312588
42
-1.70241255333344
0
ELLIPSE
5
1EC
100
AcDbEntity
8
1
62
256
6
ByLayer
370
-1
48
1
60
0
100
AcDbEllipse
10
88.654331
20
9.613498
30
0
11
-0.000207326151481334
21
0.890157524662888
31
0
210
0
220
0
230
1
40
0.360082
41
3.1131302218802
42
-2.35360549924724
0
ELLIPSE
5
1ED
100
AcDbEntity
8
1
62
256
6
ByLayer
370
-1
48
1
60
0
100
AcDbEllipse
10
99.234402
20
14.155669
30
0
11
0.172437766515793
21
-0.281363140228149
31
0
210
0
220
0
230
1
40
0.013865
41
-1.57933547052241
42
-0.698314144520176
0
ELLIPSE
5
1EE
100
AcDbEntity
8
1
62
256
6
ByLayer
370
-1
48
1
60
0
100
AcDbEllipse
10
88.697483
20
9.160105
30
0
11
0.328515456278558
21
0.031266515413313
31
0
210
0
220
0
230
1
40
0.671
41
-1.85705436438116
42
-1.04060477834383
0
ELLIPSE
5
1EF
100
AcDbEntity
8
1
62
256
6
ByLayer
370
-1
48
1
60
0
100
AcDbEllipse
10
88.390449
20
9.675195
30
0
11
-0.280790684040511
21
0.173368370114222
31
0
210
0
220
0
230
1
40
0.444526
41
1.21365952070708
42
1.5627253711059
0
ELLIPSE
5
1F0
100
AcDbEntity
8
1
62
256
6
ByLayer
370
-1
48
1
60
0
100
AcDbEllipse
10
91.948886
20
5.42303
30
0
11
-0.128769199341204
21
0.0771501606177555
31
0
210
0
220
0
230
1
40
0.232115
41
-2.16459055350315
42
-1.45206597489161
0
ELLIPSE
5
1F1
100
AcDbEntity
8
1
62
256
6
ByLayer
370
-1
48
1
60
0
100
AcDbEllipse
10
88.614837
20
8.144555
30
0
11
-0.166358820472719
21
0.0735665957174117
31
0
210
0
220
0
230
1
40
0.908072
41
-0.0358276784096696
42
0.907720640216797
0
ELLIPSE
5
1F2
100
AcDbEntity
8
1
62
256
6
ByLayer
370
-1
48
1
60
0
100
AcDbEllipse
10
98.620335
20
14.158349
30
0
11
-0.175765810909976
21
-0.279296222164136
31
0
210
0
220
0
230
1
40
0.354829
41
-1.55115824838676
42
-0.734708662349325
0
ELLIPSE
5
1F3
100
AcDbEntity
8
1
62
256
6
ByLayer
370
-1
48
1
60
0
100
AcDbEllipse
10
99.234402
20
14.155669
30
0
11
0.28651500664999
21
0.163735002257783
31
0
210
0
220
0
230
1
40
0.008111
41
1.23585108313339
42
1.58491693353019
0
ELLIPSE
5
1F4
100
AcDbEntity
8
1
62
256
6
ByLayer
370
-1
48
1
60
0
100
AcDbEllipse
10
98.620335
20
14.158349
30
0
11
0.174886668864502
21
0.279847553238327
31
0
210
0
220
0
230
1
40
0.013828
41
1.57939589399722
42
2.46041722000398
0
ELLIPSE
5
1F5
100
AcDbEntity
8
1
62
256
6
ByLayer
370
-1
48
1
60
0
100
AcDbEllipse
10
98.929689
20
14.688877
30
0
11
0.28651500664999
21
0.163735002257783
31
0
210
0
220
0
230
1
40
0.008111
41
1.23585108312962
42
1.58491693353036
0
ELLIPSE
5
1F6
100
AcDbEntity
8
1
62
256
6
ByLayer
370
-1
48
1
60
0
100
AcDbEllipse
10
94.112088
20
12.348803
30
0
11
0.105854520827005
21
-0.10627709264223
31
0
210
0
220
0
230
1
40
0.19749
41
1.74310194330193
42
1.9176348685021
0
ELLIPSE
5
1F7
100
AcDbEntity
8
1
62
256
6
ByLayer
370
-1
48
1
60
0
100
AcDbEllipse
10
88.702069
20
9.492875
30
0
11
0.329968661514939
21
-0.00454779265573726
31
0
210
0
220
0
230
1
40
0.388155
41
-1.80823989284482
42
-0.92721856683529
0
ELLIPSE
5
1F8
100
AcDbEntity
8
1
62
256
6
ByLayer
370
-1
48
1
60
0
100
AcDbEllipse
10
88.651586
20
9.414338
30
0
11
0.2141354348121
21
-0.137644526072895
31
0
210
0
220
0
230
1
40
0.895737
41
0.509329721976731
42
1.61758975637647
0
ELLIPSE
5
1F9
100
AcDbEntity
8
1
62
256
6
ByLayer
370
-1
48
1
60
0
100
AcDbEllipse
10
92.631173
20
6.343613
30
0
11
0.0357259918071211
21
0.145683401626258
31
0
210
0
220
0
230
1
40
0.046814
41
1.31258632271874
42
1.487119247918
0
ELLIPSE
5
1FA
100
AcDbEntity
8
1
62
256
6
ByLayer
370
-1
48
1
60
0
100
AcDbEllipse
10
97.865114
20
3.158105
30
0
11
0.329941928492634
21
0.00619062376193453
31
0
210
0
220
0
230
1
40
0.387666
41
-2.24970494397183
42
-1.36868361796235
0
ELLIPSE
5
1FB
100
AcDbEntity
8
1
62
256
6
ByLayer
370
-1
48
1
60
0
100
AcDbEllipse
10
88.360314
20
8.336951
30
0
11
-0.120148037042885
21
0.0531314302038718
31
0
210
0
220
0
230
1
40
0.908072
41
3.10576497485938
42
-2.23387201376404
0
ELLIPSE
5
1FC
100
AcDbEntity
8
1
62
256
6
ByLayer
370
-1
48
1
60
0
100
AcDbEllipse
10
98.055021
20
14.844831
30
0
11
-0.000586137772537755
21
-0.134584627023629
31
0
210
0
220
0
230
1
40
0.965798
41
-0.943556628938185
42
-8.31037122762488E-06
0
ELLIPSE
5
1FD
100
AcDbEntity
8
1
62
256
6
ByLayer
370
-1
48
1
60
0
100
AcDbEllipse
10
98.923128
20
13.967173
30
0
11
-4.67600826818841E-17
21
-0.254558441227155
31
0
210
0
220
0
230
1
40
0.999867
41
-0.558493593836648
42
0.549766437173629
0
ELLIPSE
5
1FE
100
AcDbEntity
8
1
62
256
6
ByLayer
370
-1
48
1
60
0
100
AcDbEllipse
10
96.623385
20
2.709883
30
0
11
-0.289207309623935
21
0.169862175250343
31
0
210
0
220
0
230
1
40
0.223196
41
1.65552978948853
42
1.93117354751656
0
ELLIPSE
5
1FF
100
AcDbEntity
8
1
62
256
6
ByLayer
370
-1
48
1
60
0
100
AcDbEllipse
10
99.966153
20
5.5999
30
0
11
-0.140714192386908
21
-0.239169975812936
31
0
210
0
220
0
230
1
40
0.063581
41
-1.18041021462303
42
-0.753835097759549
0
ELLIPSE
5
200
100
AcDbEntity
8
1
62
256
6
ByLayer
370
-1
48
1
60
0
100
AcDbEllipse
10
99.694296
20
13.030832
30
0
11
-0.101161855390449
21
0.303588996859178
31
0
210
0
220
0
230
1
40
0.015437
41
1.56561488893599
42
1.8412586498813
0
ELLIPSE
5
201
100
AcDbEntity
8
1
62
256
6
ByLayer
370
-1
48
1
60
0
100
AcDbEllipse
10
93.625307
20
13.383532
30
0
11
-0.128945793074694
21
-0.0768529687330144
31
0
210
0
220
0
230
1
40
0.215846
41
-1.71819106600907
42
-1.00566648812593
0
ELLIPSE
5
202
100
AcDbEntity
8
1
62
256
6
ByLayer
370
-1
48
1
60
0
100
AcDbEllipse
10
92.187758
20
5.860238
30
0
11
-0.131634364356025
21
0.0719193584550449
31
0
210
0
220
0
230
1
40
0.236597
41
-2.17381970517955
42
-1.46129512665383
0
ELLIPSE
5
203
100
AcDbEntity
8
1
62
256
6
ByLayer
370
-1
48
1
60
0
100
AcDbEllipse
10
99.929831
20
12.036648
30
0
11
-0.000560354048745547
21
-0.175204026173471
31
0
210
0
220
0
230
1
40
0.014074
41
1.79425022424659
42
2.73672801804171
0
ELLIPSE
5
204
100
AcDbEntity
8
1
62
256
6
ByLayer
370
-1
48
1
60
0
100
AcDbEllipse
10
87.389289
20
8.811547
30
0
11
-0.0813309788965972
21
0.035965891234753
31
0
210
0
220
0
230
1
40
0.908072
41
0.90772064013467
42
1.93977784776309
0
ELLIPSE
5
205
100
AcDbEntity
8
1
62
256
6
ByLayer
370
-1
48
1
60
0
100
AcDbEllipse
10
96.740296
20
14.601735
30
0
11
-0.704940313637437
21
0.0225354790931335
31
0
210
0
220
0
230
1
40
0.11846
41
0.62974113371021
42
1.4926747796875
0
ELLIPSE
5
206
100
AcDbEntity
8
1
62
256
6
ByLayer
370
-1
48
1
60
0
100
AcDbEllipse
10
98.587629
20
8.667764
30
0
11
-0.143814300897888
21
-0.0426315242191954
31
0
210
0
220
0
230
1
40
0.244304
41
-1.83516128982982
42
-1.66062836462983
0
ELLIPSE
5
207
100
AcDbEntity
8
1
62
256
6
ByLayer
370
-1
48
1
60
0
100
AcDbEllipse
10
98.222036
20
3.25875
30
0
11
0.222782340523572
21
0.123158551269647
31
0
210
0
220
0
230
1
40
0.903036
41
1.28317267091914
42
1.58799132119631
0
ELLIPSE
5
208
100
AcDbEntity
8
1
62
256
6
ByLayer
370
-1
48
1
60
0
100
AcDbEllipse
10
88.94006
20
10.711229
30
0
11
-0.28925916025099
21
-0.169069492468918
31
0
210
0
220
0
230
1
40
0.207991
41
1.18265416679132
42
1.45829792157
0
ELLIPSE
5
209
100
AcDbEntity
8
1
62
256
6
ByLayer
370
-1
48
1
60
0
100
AcDbEllipse
10
98.926539
20
13.966991
30
0
11
-0.174886668864502
21
-0.279847553238327
31
0
210
0
220
0
230
1
40
0.013828
41
-1.56219675959257
42
-0.681175433580806
0
ELLIPSE
5
20A
100
AcDbEntity
8
1
62
256
6
ByLayer
370
-1
48
1
60
0
100
AcDbEllipse
10
98.620335
20
14.158349
30
0
11
-0.285075263893947
21
0.166229040530819
31
0
210
0
220
0
230
1
40
0.008173
41
1.20764539343551
42
1.55671124383589
0
ELLIPSE
5
20B
100
AcDbEntity
8
1
62
256
6
ByLayer
370
-1
48
1
60
0
100
AcDbEllipse
10
88.101429
20
9.207093
30
0
11
0.126714333577775
21
-0.304702277093461
31
0
210
0
220
0
230
1
40
0.542683
41
-1.61141908984981
42
-1.0099996935388
0
ELLIPSE
5
20C
100
AcDbEntity
8
1
62
256
6
ByLayer
370
-1
48
1
60
0
100
AcDbEllipse
10
88.390449
20
9.675195
30
0
11
0.16664678834278
21
0.284831262215082
31
0
210
0
220
0
230
1
40
0.020796
41
1.1500499960501
42
2.03107132206328
0
ELLIPSE
5
20D
100
AcDbEntity
8
1
62
256
6
ByLayer
370
-1
48
1
60
0
100
AcDbEllipse
10
93.240641
20
6.194153
30
0
11
0.0357259918071211
21
0.145683401626258
31
0
210
0
220
0
230
1
40
0.046814
41
1.31258632271629
42
1.48711924791715
0
ELLIPSE
5
20E
100
AcDbEntity
8
1
62
256
6
ByLayer
370
-1
48
1
60
0
100
AcDbEllipse
10
89.955785
20
6.862471
30
0
11
0.249471227956045
21
-0.0162513513931358
31
0
210
0
220
0
230
1
40
0.965789
41
-2.12769914672014
42
-2.03156336899573
0
ELLIPSE
5
20F
100
AcDbEntity
8
1
62
256
6
ByLayer
370
-1
48
1
60
0
100
AcDbEllipse
10
89.979373
20
11.365898
30
0
11
-0.152300321246852
21
-0.0888973533468091
31
0
210
0
220
0
230
1
40
0.184283
41
-1.69445883679138
42
-0.751981040719301
0
ELLIPSE
5
210
100
AcDbEntity
8
1
62
256
6
ByLayer
370
-1
48
1
60
0
100
AcDbEllipse
10
96.672971
20
2.932986
30
0
11
-0.125543597399462
21
0.294344704644065
31
0
210
0
220
0
230
1
40
0.19293
41
0.864332537322226
42
1.85493786330953
0
ELLIPSE
5
211
100
AcDbEntity
8
1
62
256
6
ByLayer
370
-1
48
1
60
0
100
AcDbEllipse
10
99.694296
20
13.030832
30
0
11
0.150248298123996
21
0.282533978329763
31
0
210
0
220
0
230
1
40
0.014394
41
1.57841055121124
42
2.74837435943316
0
ELLIPSE
5
212
100
AcDbEntity
8
1
62
256
6
ByLayer
370
-1
48
1
60
0
100
AcDbEllipse
10
99.186343
20
2.468693
30
0
11
-0.0842609164900682
21
-0.0290942334703374
31
0
210
0
220
0
230
1
40
0.911082
41
2.3154604355561
42
-2.93566766411766
0
ELLIPSE
5
213
100
AcDbEntity
8
1
62
256
6
ByLayer
370
-1
48
1
60
0
100
AcDbEllipse
10
97.114428
20
14.717999
30
0
11
-0.00081157515756996
21
-0.186347945112411
31
0
210
0
220
0
230
1
40
0.965798
41
3.14158434208306
42
-2.1980526465365
0
ELLIPSE
5
214
100
AcDbEntity
8
1
62
256
6
ByLayer
370
-1
48
1
60
0
100
AcDbEllipse
10
95.87343
20
14.386207
30
0
11
0.249471227956045
21
-0.0162513513931358
31
0
210
0
220
0
230
1
40
0.965789
41
2.06109105806624
42
2.15722683579061
0
ELLIPSE
5
215
100
AcDbEntity
8
1
62
256
6
ByLayer
370
-1
48
1
60
0
100
AcDbEllipse
10
97.915002
20
2.746339
30
0
11
0.222782340523572
21
0.123158551269647
31
0
210
0
220
0
230
1
40
0.903036
41
2.69625135559547
42
3.00107000587256
0
ELLIPSE
5
216
100
AcDbEntity
8
1
62
256
6
ByLayer
370
-1
48
1
60
0
100
AcDbEllipse
10
89.119619
20
10.549209
30
0
11
0.3187160302586
21
-0.0286372494524004
31
0
210
0
220
0
230
1
40
0.189541
41
-1.61440428860225
42
-0.623798962615245
0
ELLIPSE
5
217
100
AcDbEntity
8
1
62
256
6
ByLayer
370
-1
48
1
60
0
100
AcDbEllipse
10
99.672559
20
13.859672
30
0
11
-0.00112718778644535
21
-0.258816590391835
31
0
210
0
220
0
230
1
40
0.965798
41
1.57078801551027
42
2.10952713478024
0
ELLIPSE
5
218
100
AcDbEntity
8
1
62
256
6
ByLayer
370
-1
48
1
60
0
100
AcDbEllipse
10
93.289913
20
4.669211
30
0
11
-0.143360189764976
21
0.084835294098961
31
0
210
0
220
0
230
1
40
0.209444
41
-1.46498982432498
42
-0.759403634567861
0
ELLIPSE
5
219
100
AcDbEntity
8
1
62
256
6
ByLayer
370
-1
48
1
60
0
100
AcDbEllipse
10
88.101429
20
9.207093
30
0
11
-0.0259338634078545
21
-0.328979383440274
31
0
210
0
220
0
230
1
40
0.228524
41
-1.16829399898081
42
-0.819228148581593
0
ELLIPSE
5
21A
100
AcDbEntity
8
1
62
256
6
ByLayer
370
-1
48
1
60
0
100
AcDbEllipse
10
98.178392
20
3.337698
30
0
11
-0.20626044989231
21
0.257597800476288
31
0
210
0
220
0
230
1
40
0.301789
41
-2.0276870397459
42
-1.21123745370827
0
ELLIPSE
5
21B
100
AcDbEntity
8
1
62
256
6
ByLayer
370
-1
48
1
60
0
100
AcDbEllipse
10
99.929831
20
9.465493
30
0
11
-0.000592402743017676
21
-0.165729210250237
31
0
210
0
220
0
230
1
40
0.014833
41
1.1016808458473
42
1.80726703765192
0
ELLIPSE
5
21C
100
AcDbEntity
8
1
62
256
6
ByLayer
370
-1
48
1
60
0
100
AcDbEllipse
10
98.957571
20
3.250731
30
0
11
-0.12447635390006
21
-0.0429801176365637
31
0
210
0
220
0
230
1
40
0.911082
41
-0.826132218118656
42
0.20592498939626
0
ELLIPSE
5
21D
100
AcDbEntity
8
1
62
256
6
ByLayer
370
-1
48
1
60
0
100
AcDbEllipse
10
89.806591
20
6.586741
30
0
11
-0.140264069093558
21
0.240302573301166
31
0
210
0
220
0
230
1
40
0.078706
41
-0.938728404327132
42
-0.512153287615236
0
ELLIPSE
5
21E
100
AcDbEntity
8
1
62
256
6
ByLayer
370
-1
48
1
60
0
100
AcDbEllipse
10
99.234402
20
14.155669
30
0
11
-0.171567193481945
21
0.28189483521471
31
0
210
0
220
0
230
1
40
0.328804
41
-2.38864574649992
42
-1.57219616046271
0
ELLIPSE
5
21F
100
AcDbEntity
8
1
62
256
6
ByLayer
370
-1
48
1
60
0
100
AcDbEllipse
10
88.697483
20
9.160105
30
0
11
-0.329968661514939
21
0.00454779265573722
31
0
210
0
220
0
230
1
40
0.388155
41
1.33335276074533
42
2.21437408675461
0
ELLIPSE
5
220
100
AcDbEntity
8
1
62
256
6
ByLayer
370
-1
48
1
60
0
100
AcDbEllipse
10
88.101429
20
9.207093
30
0
11
-0.280790684040511
21
0.173368370114222
31
0
210
0
220
0
230
1
40
0.444526
41
1.21365952070699
42
1.5627253711059
0
ELLIPSE
5
221
100
AcDbEntity
8
1
62
256
6
ByLayer
370
-1
48
1
60
0
100
AcDbEllipse
10
99.439494
20
4.291528
30
0
11
-0.172351874628956
21
-0.0595109321135421
31
0
210
0
220
0
230
1
40
0.911082
41
2.3154604354585
42
-3.02417655314922
0
ELLIPSE
5
222
100
AcDbEntity
8
1
62
256
6
ByLayer
370
-1
48
1
60
0
100
AcDbEllipse
10
98.299017
20
14.843767
30
0
11
-0.000586137691510707
21
-0.134584627014508
31
0
210
0
220
0
230
1
40
0.965798
41
-8.31095109415458E-06
42
1.03204889660271
0
ELLIPSE
5
223
100
AcDbEntity
8
1
62
256
6
ByLayer
370
-1
48
1
60
0
100
AcDbEllipse
10
99.106381
20
13.852472
30
0
11
-0.818470076649168
21
0.511508916887656
31
0
210
0
220
0
230
1
40
0.341899
41
0.010486907173686
42
0.826936493213667
0
ELLIPSE
5
224
100
AcDbEntity
8
1
62
256
6
ByLayer
370
-1
48
1
60
0
100
AcDbEllipse
10
98.738867
20
13.854076
30
0
11
-0.822902478308237
21
-0.50434629469822
31
0
210
0
220
0
230
1
40
0.3419
41
2.31465636023744
42
3.1311059462603
0
ELLIPSE
5
225
100
AcDbEntity
8
1
62
256
6
ByLayer
370
-1
48
1
60
0
100
AcDbEllipse
10
97.871358
20
2.825287
30
0
11
0.329092877421674
21
-0.024451544538597
31
0
210
0
220
0
230
1
40
0.673036
41
-2.14481203860283
42
-1.32836245256558
0
ELLIPSE
5
226
100
AcDbEntity
8
1
62
256
6
ByLayer
370
-1
48
1
60
0
100
AcDbEllipse
10
100.05537
20
1.267706
30
0
11
0.0069340768558208
21
-1.40968294611865
31
0
210
0
220
0
230
1
40
0.052006
41
-1.83287963693157
42
-0.78568208573509
0
ELLIPSE
5
227
100
AcDbEntity
8
1
62
256
6
ByLayer
370
-1
48
1
60
0
100
AcDbEllipse
10
100.05537
20
1.267706
30
0
11
0.0069340768558208
21
-1.40968294611865
31
0
210
0
220
0
230
1
40
0.052006
41
-2.88007718812759
42
-1.83287963693157
0
ELLIPSE
5
228
100
AcDbEntity
8
1
62
256
6
ByLayer
370
-1
48
1
60
0
100
AcDbEllipse
10
100.05537
20
1.267706
30
0
11
0.0069340768558208
21
-1.40968294611865
31
0
210
0
220
0
230
1
40
0.052006
41
0.261515465461461
42
1.30871301665803
0
ELLIPSE
5
229
100
AcDbEntity
8
1
62
256
6
ByLayer
370
-1
48
1
60
0
100
AcDbEllipse
10
100.05537
20
1.267706
30
0
11
0.0069340768558208
21
-1.40968294611865
31
0
210
0
220
0
230
1
40
0.052006
41
2.35591056785415
42
-2.88007718812759
0
ELLIPSE
5
22A
100
AcDbEntity
8
1
62
256
6
ByLayer
370
-1
48
1
60
0
100
AcDbEllipse
10
100.05537
20
1.267706
30
0
11
0.0069340768558208
21
-1.40968294611865
31
0
210
0
220
0
230
1
40
0.052006
41
1.30871301665803
42
2.35591056785415
0
ELLIPSE
5
22B
100
AcDbEntity
8
1
62
256
6
ByLayer
370
-1
48
1
60
0
100
AcDbEllipse
10
100.05537
20
1.267706
30
0
11
0.0069340768558208
21
-1.40968294611865
31
0
210
0
220
0
230
1
40
0.052006
41
-0.78568208573509
42
0.261515465461461
0
ELLIPSE
5
22C
100
AcDbEntity
8
1
62
256
6
ByLayer
370
-1
48
1
60
0
100
AcDbEllipse
10
99.924457
20
13.107527
30
0
11
-0.00147399365762478
21
-0.337784729422094
31
0
210
0
220
0
230
1
40
0.015426
41
-1.57076264734043
42
-1.29511890694524
0
ELLIPSE
5
22D
100
AcDbEntity
8
1
62
256
6
ByLayer
370
-1
48
1
60
0
100
AcDbEllipse
10
89.144334
20
10.824273
30
0
11
-0.336670865987192
21
-0.199900719032018
31
0
210
0
220
0
230
1
40
0.176549
41
1.40038053933263
42
2.39098586531877
0
ELLIPSE
5
22E
100
AcDbEntity
8
1
62
256
6
ByLayer
370
-1
48
1
60
0
100
AcDbEllipse
10
97.871358
20
2.825287
30
0
11
0.0228891020462331
21
-0.329205238426604
31
0
210
0
220
0
230
1
40
0.196789
41
0.82169369962747
42
1.17075955002634
0
ELLIPSE
5
22F
100
AcDbEntity
8
1
62
256
6
ByLayer
370
-1
48
1
60
0
100
AcDbEllipse
10
88.697483
20
9.160105
30
0
11
-0.0259338634078545
21
-0.328979383440274
31
0
210
0
220
0
230
1
40
0.228524
41
-1.16829399898137
42
-0.819228148582594
0
ELLIPSE
5
230
100
AcDbEntity
8
1
62
256
6
ByLayer
370
-1
48
1
60
0
100
AcDbEllipse
10
98.760764
20
8.083706
30
0
11
-0.143814300897888
21
-0.0426315242191954
31
0
210
0
220
0
230
1
40
0.244304
41
-1.83516128982982
42
-1.66062836463011
0
ELLIPSE
5
231
100
AcDbEntity
8
1
62
256
6
ByLayer
370
-1
48
1
60
0
100
AcDbEllipse
10
100.05537
20
1.267706
30
0
11
-0.00836201365886168
21
1.69997943420723
31
0
210
0
220
0
230
1
40
0.052006
41
0
42
6.28318530717959
0
ELLIPSE
5
232
100
AcDbEntity
8
1
62
256
6
ByLayer
370
-1
48
1
60
0
100
AcDbEllipse
10
88.838088
20
9.305221
30
0
11
-0.832437249528127
21
0.488229794580665
31
0
210
0
220
0
230
1
40
0.306363
41
-0.823404481101798
42
-0.00695489505308369
0
POINT
5
41
100
AcDbEntity
8
1
62
256
6
ByLayer
370
-1
48
1
60
0
100
AcDbPoint
10
98.930142
20
15.576468
30
0
39
0
210
0
220
0
230
1
50
360
0
POINT
5
43
100
AcDbEntity
8
1
62
256
6
ByLayer
370
-1
48
1
60
0
100
AcDbPoint
10
99.935843
20
16.911222
30
0
39
0
210
0
220
0
230
1
50
360
0
POINT
5
44
100
AcDbEntity
8
1
62
256
6
ByLayer
370
-1
48
1
60
0
100
AcDbPoint
10
99.935843
20
16.911222
30
0
39
0
210
0
220
0
230
1
50
360
0
POINT
5
45
100
AcDbEntity
8
80
62
256
6
ByLayer
370
-1
48
1
60
0
100
AcDbPoint
10
0
20
0
30
0
39
0
210
0
220
0
230
1
50
360
0
POINT
5
47
100
AcDbEntity
8
81
62
256
6
ByLayer
370
-1
48
1
60
0
100
AcDbPoint
10
99.93
20
16.875
30
0
39
0
210
0
220
0
230
1
50
360
0
POINT
5
49
100
AcDbEntity
8
2
62
256
6
ByLayer
370
-1
48
1
60
0
100
AcDbPoint
10
99.93
20
16.875
30
0
39
0
210
0
220
0
230
1
50
360
0
SPLINE
5
233
100
AcDbEntity
8
1
62
256
6
ByLayer
370
-1
48
1
60
0
100
AcDbSpline
70
4
71
1
72
4
73
2
40
0
40
0
40
1
40
1
41
1
10
90.6493348472745
20
12.202101014846
30
0
41
1
10
90.5406558379372
20
11.7139269797372
30
0
0
SPLINE
5
234
100
AcDbEntity
8
1
62
256
6
ByLayer
370
-1
48
1
60
0
100
AcDbSpline
70
4
71
3
72
11
73
7
40
0
40
0
40
0
40
0
40
0.154208537458318
40
0.563389186454711
40
0.94922561073719
40
1
40
1
40
1
40
1
41
1
10
99.5873498758313
20
3.73268447213735
30
0
41
1
10
99.6174466861744
20
3.69485725663443
30
0
41
1
10
99.7245367842143
20
3.5544821341966
30
0
41
1
10
99.8850393159069
20
3.30359500326151
30
0
41
1
10
100.01213692196
20
3.06970162874251
30
0
41
1
10
100.062177731504
20
2.94237468207396
30
0
41
1
10
100.06785668068
20
2.92750166321295
30
0
0
SPLINE
5
235
100
AcDbEntity
8
1
62
256
6
ByLayer
370
-1
48
1
60
0
100
AcDbSpline
70
4
71
3
72
11
73
7
40
0
40
0
40
0
40
0
40
0.123470791854397
40
0.463910733870754
40
0.799075261181941
40
1
40
1
40
1
40
1
41
1
10
100.070654834259
20
-0.411024629369052
30
0
41
1
10
100.052325300557
20
-0.460977935470538
30
0
41
1
10
99.9780444090517
20
-0.645925579175014
30
0
41
1
10
99.8030616204058
20
-0.943885438180473
30
0
41
1
10
99.5813048702345
20
-1.24867137707375
30
0
41
1
10
99.4285781813961
20
-1.42218746743697
30
0
41
1
10
99.3687810268387
20
-1.48466720201211
30
0
0
SPLINE
5
236
100
AcDbEntity
8
1
62
256
6
ByLayer
370
-1
48
1
60
0
100
AcDbSpline
70
4
71
3
72
14
73
10
40
0
40
0
40
0
40
0
40
0.429884978061041
40
0.429884978061041
40
0.702476432803764
40
0.702476432803764
40
0.894418017317994
40
0.894418017317994
40
1
40
1
40
1
40
1
41
1
10
70.9169217789401
20
-4.31299635995617
30
0
41
1
10
70.9563331117234
20
-4.24819906926254
30
0
41
1
10
71.0009247222975
20
-4.18563250676948
30
0
41
1
10
71.0872404556894
20
-4.09669214165621
30
0
41
1
10
71.1246723781109
20
-4.0650123660501
30
0
41
1
10
71.1956451765342
20
-4.0239735629365
30
0
41
1
10
71.227712923323
20
-4.01064685857432
30
0
41
1
10
71.2792326549133
20
-3.99963704709569
30
0
41
1
10
71.2981253286811
20
-3.9975773913614
30
0
41
1
10
71.3169217777854
20
-3.99757739136132
30
0
0
SPLINE
5
237
100
AcDbEntity
8
1
62
256
6
ByLayer
370
-1
48
1
60
0
100
AcDbSpline
70
4
71
3
72
24
73
20
40
0
40
0
40
0
40
0
40
0.0930387984289043
40
0.0930387984289043
40
0.208795884179379
40
0.208795884179379
40
0.367511746263739
40
0.367511746263739
40
0.460500139973143
40
0.460500139973143
40
0.539739222752008
40
0.539739222752008
40
0.642471866930379
40
0.642471866930379
40
0.802983891546956
40
0.802983891546956
40
0.911167552797186
40
0.911167552797186
40
1
40
1
40
1
40
1
41
1
10
85.642137070774
20
4.09795336691667
30
0
41
1
10
85.6102756509262
20
4.11243541824214
30
0
41
1
10
85.5901668354502
20
4.15464852845008
30
0
41
1
10
85.5610000728733
20
4.29409069024149
30
0
41
1
10
85.5549943224181
20
4.40371366863613
30
0
41
1
10
85.5432721524351
20
4.70253032837419
30
0
41
1
10
85.5402655552207
20
4.9117434130504
30
0
41
1
10
85.490349088668
20
5.26092767630502
30
0
41
1
10
85.4606514487701
20
5.39702228122795
30
0
41
1
10
85.3621233275784
20
5.63921774263849
30
0
41
1
10
85.297392162045
20
5.7481879667742
30
0
41
1
10
85.116448194759
20
5.97154575641179
30
0
41
1
10
84.9906665627342
20
6.082483083689
30
0
41
1
10
84.6659596701719
20
6.34173433121634
30
0
41
1
10
84.4576410759015
20
6.48520262377545
30
0
41
1
10
84.1571033584833
20
6.72538874252768
30
0
41
1
10
84.0460211054867
20
6.8237897649185
30
0
41
1
10
83.8919006838045
20
7.00294804613921
30
0
41
1
10
83.8390816079734
20
7.08562549196267
30
0
41
1
10
83.8129114113075
20
7.16672480679367
30
0
0
SPLINE
5
238
100
AcDbEntity
8
1
62
256
6
ByLayer
370
-1
48
1
60
0
100
AcDbSpline
70
4
71
3
72
8
73
4
40
0
40
0
40
0
40
0
40
1
40
1
40
1
40
1
41
1
10
82.787006642333
20
12.4058682596844
30
0
41
1
10
83.076523182476
20
12.7618881639745
30
0
41
1
10
83.3671422480562
20
13.1170709601626
30
0
41
1
10
83.658612221158
20
13.4715969635463
30
0
0
SPLINE
5
239
100
AcDbEntity
8
1
62
256
6
ByLayer
370
-1
48
1
60
0
100
AcDbSpline
70
4
71
3
72
10
73
6
40
0
40
0
40
0
40
0
40
0.47336540759364
40
0.47336540759364
40
1
40
1
40
1
40
1
41
1
10
82.3002662899678
20
-4.02793061012534
30
0
41
1
10
82.2817530604789
20
-4.01899143987316
30
0
41
1
10
82.2623444714931
20
-4.01163887359013
30
0
41
1
10
82.2202387288097
20
-4.00067576030003
30
0
41
1
10
82.1971222512195
20
-3.99757739134836
30
0
41
1
10
82.1741710878219
20
-3.99757739134975
30
0
0
SPLINE
5
23A
100
AcDbEntity
8
1
62
256
6
ByLayer
370
-1
48
1
60
0
100
AcDbSpline
70
4
71
3
72
8
73
4
40
0
40
0
40
0
40
0
40
1
40
1
40
1
40
1
41
1
10
83.4400784897518
20
13.2381273867171
30
0
41
1
10
83.5052968723324
20
13.3164063449196
30
0
41
1
10
83.5783085704494
20
13.3942807283286
30
0
41
1
10
83.658612221158
20
13.4715969635464
30
0
0
SPLINE
5
23B
100
AcDbEntity
8
1
62
256
6
ByLayer
370
-1
48
1
60
0
100
AcDbSpline
70
4
71
3
72
8
73
4
40
0
40
0
40
0
40
0
40
1
40
1
40
1
40
1
41
1
10
70.5548013545557
20
-4.87661015076048
30
0
41
1
10
70.6796975417946
20
-4.69190610269951
30
0
41
1
10
70.8006256423442
20
-4.50420213854218
30
0
41
1
10
70.9169217789441
20
-4.31299635995921
30
0
0
SPLINE
5
23C
100
AcDbEntity
8
1
62
256
6
ByLayer
370
-1
48
1
60
0
100
AcDbSpline
70
4
71
3
72
8
73
4
40
0
40
0
40
0
40
0
40
1
40
1
40
1
40
1
41
1
10
70.9169217789402
20
4.31299635996541
30
0
41
1
10
70.8010723701601
20
4.50346766066181
30
0
41
1
10
70.6801566730787
20
4.69122711154145
30
0
41
1
10
70.5548013545553
20
4.87661015076071
30
0
0
SPLINE
5
23D
100
AcDbEntity
8
1
62
256
6
ByLayer
370
-1
48
1
60
0
100
AcDbSpline
70
4
71
3
72
12
73
8
40
0
40
0
40
0
40
0
40
0.433856895626107
40
0.433856895626107
40
0.875089665541721
40
0.875089665541721
40
1
40
1
40
1
40
1
41
1
10
70.9169217789325
20
10.00875
30
0
41
1
10
70.9632151142668
20
10.00875
30
0
41
1
10
71.0153160166479
20
10.00875
30
0
41
1
10
71.1299107254884
20
10.00875
30
0
41
1
10
71.1944130535069
20
10.00875
30
0
41
1
10
71.2788085018288
20
10.00875
30
0
41
1
10
71.2978832729326
20
10.00875
30
0
41
1
10
71.3169217777864
20
10.00875
30
0
0
SPLINE
5
23E
100
AcDbEntity
8
1
62
256
6
ByLayer
370
-1
48
1
60
0
100
AcDbSpline
70
4
71
3
72
8
73
4
40
0
40
0
40
0
40
0
40
1
40
1
40
1
40
1
41
1
10
86.469636460843
20
8.23486879167586
30
0
41
1
10
86.5473725817536
20
8.45831468339622
30
0
41
1
10
86.6241312865118
20
8.67783386888377
30
0
41
1
10
86.6997923643452
20
8.89395765533064
30
0
0
SPLINE
5
23F
100
AcDbEntity
8
1
62
256
6
ByLayer
370
-1
48
1
60
0
100
AcDbSpline
70
4
71
2
72
6
73
3
40
0
40
0
40
0
40
1
40
1
40
1
41
0.500006365843124
10
82.0431152734343
20
12.1095408449998
30
0
41
0.499993634156876
10
82.1086407438802
20
12.1096633467524
30
0
41
0.500006365843124
10
82.1741710878379
20
12.1097856198704
30
0
0
SPLINE
5
240
100
AcDbEntity
8
1
62
256
6
ByLayer
370
-1
48
1
60
0
100
AcDbSpline
70
4
71
3
72
14
73
10
40
0
40
0
40
0
40
0
40
0.192338116955606
40
0.192338116955606
40
0.435982699781433
40
0.435982699781433
40
0.873991238082937
40
0.873991238082937
40
1
40
1
40
1
40
1
41
1
10
71.3169217777865
20
3.99757739137104
30
0
41
1
10
71.2829742376364
20
3.99757739137104
30
0
41
1
10
71.2485932378408
20
4.00454087828086
30
0
41
1
10
71.1766915619323
20
4.03202403260119
30
0
41
1
10
71.1394189925006
20
4.0556850400846
30
0
41
1
10
71.0463456769526
20
4.13168411075861
30
0
41
1
10
70.9965433775425
20
4.19278451284748
30
0
41
1
10
70.9406025128037
20
4.27505637620169
30
0
41
1
10
70.9285392552541
20
4.29389573746215
30
0
41
1
10
70.9169217789401
20
4.31299635996538
30
0
0
SPLINE
5
241
100
AcDbEntity
8
1
62
256
6
ByLayer
370
-1
48
1
60
0
100
AcDbSpline
70
4
71
3
72
18
73
14
40
0
40
0
40
0
40
0
40
0.188868289525626
40
0.188868289525626
40
0.379925431045808
40
0.379925431045808
40
0.546079786256115
40
0.546079786256115
40
0.702283134398435
40
0.702283134398435
40
0.873696004719061
40
0.873696004719061
40
1
40
1
40
1
40
1
41
1
10
80.9921634174787
20
11.8989079782661
30
0
41
1
10
80.9585473495195
20
11.9244069968536
30
0
41
1
10
80.9411811638779
20
11.9494464619677
30
0
41
1
10
80.9508499413041
20
11.9950204387056
30
0
41
1
10
80.9790945862155
20
12.0161376695313
30
0
41
1
10
81.0764368336834
20
12.048770614075
30
0
41
1
10
81.1411000920842
20
12.061653156334
30
0
41
1
10
81.291605314068
20
12.0813352038778
30
0
41
1
10
81.3776161001817
20
12.0887480290559
30
0
41
1
10
81.5702032220714
20
12.1003571356837
30
0
41
1
10
81.6801067330977
20
12.1043471083452
30
0
41
1
10
81.8743014944952
20
12.1084838203665
30
0
41
1
10
81.9588335178191
20
12.1093832778323
30
0
41
1
10
82.0431152734337
20
12.1095408449998
30
0
0
SPLINE
5
242
100
AcDbEntity
8
1
62
256
6
ByLayer
370
-1
48
1
60
0
100
AcDbSpline
70
4
71
3
72
12
73
8
40
0
40
0
40
0
40
0
40
0.363957736983433
40
0.363957736983433
40
0.727411459824473
40
0.727411459824473
40
1
40
1
40
1
40
1
41
1
10
82.1741710878377
20
12.1097856198704
30
0
41
1
10
82.2598013611663
20
12.1099453974617
30
0
41
1
10
82.3465062832243
20
12.1247834348371
30
0
41
1
10
82.5074659498079
20
12.1804946988703
30
0
41
1
10
82.5839025693074
20
12.2220171400332
30
0
41
1
10
82.7012493546198
20
12.3120536015399
30
0
41
1
10
82.7471913142303
20
12.3569071561209
30
0
41
1
10
82.7870066423408
20
12.405868259677
30
0
0
SPLINE
5
243
100
AcDbEntity
8
1
62
256
6
ByLayer
370
-1
48
1
60
0
100
AcDbSpline
70
4
71
3
72
8
73
4
40
0
40
0
40
0
40
0
40
1
40
1
40
1
40
1
41
1
10
70.5548013522087
20
10.00875
30
0
41
1
10
70.6764299276587
20
10.00875
30
0
41
1
10
70.7971677801851
20
10.00875
30
0
41
1
10
70.9169217789401
20
10.00875
30
0
0
SPLINE
5
244
100
AcDbEntity
8
1
62
256
6
ByLayer
370
-1
48
1
60
0
100
AcDbSpline
70
4
71
3
72
16
73
12
40
0
40
0
40
0
40
0
40
0.0023448809034132
40
0.0023448809034132
40
0.244769775798262
40
0.244769775798262
40
0.487038716338429
40
0.487038716338429
40
0.9736774978327
40
0.9736774978327
40
1
40
1
40
1
40
1
41
1
10
100.061481054748
20
-0.113818775306299
30
0
41
1
10
100.061506005083
20
-0.113829931402734
30
0
41
1
10
100.061530925494
20
-0.113841011640858
30
0
41
1
10
100.064130383555
20
-0.114990276839819
30
0
41
1
10
100.066393917598
20
-0.115321828353785
30
0
41
1
10
100.070419821861
20
-0.114623355824619
30
0
41
1
10
100.072186520023
20
-0.113592237818779
30
0
41
1
10
100.076866147013
20
-0.108691501490768
30
0
41
1
10
100.079175694684
20
-0.103010617231973
30
0
41
1
10
100.080855773944
20
-0.0948152944026219
30
0
41
1
10
100.080940061935
20
-0.0943874127855224
30
0
41
1
10
100.081022207045
20
-0.0939532614272878
30
0
0
SPLINE
5
245
100
AcDbEntity
8
1
62
256
6
ByLayer
370
-1
48
1
60
0
100
AcDbSpline
70
4
71
3
72
10
73
6
40
0
40
0
40
0
40
0
40
0.425586067180765
40
0.425586067180765
40
1
40
1
40
1
40
1
41
1
10
100.032411353721
20
1.2673730553598
30
0
41
1
10
100.02459906551
20
1.26811780847103
30
0
41
1
10
100.016791080648
20
1.27133125445917
30
0
41
1
10
99.9995423170444
20
1.28271082674257
30
0
41
1
10
99.990214207995
20
1.29226898552761
30
0
41
1
10
99.9817283160239
20
1.30350688193599
30
0
0
SPLINE
5
246
100
AcDbEntity
8
1
62
256
6
ByLayer
370
-1
48
1
60
0
100
AcDbSpline
70
4
71
3
72
10
73
6
40
0
40
0
40
0
40
0
40
0.747052175317142
40
0.747052175317142
40
1
40
1
40
1
40
1
41
1
10
99.9868932564664
20
1.85152610305741
30
0
41
1
10
99.9945785809976
20
1.86458610540464
30
0
41
1
10
100.002891685742
20
1.87654835986803
30
0
41
1
10
100.014504104739
20
1.88955711635506
30
0
41
1
10
100.017533385105
20
1.89263576521296
30
0
41
1
10
100.020580085623
20
1.89538586893011
30
0
0
SPLINE
5
247
100
AcDbEntity
8
1
62
256
6
ByLayer
370
-1
48
1
60
0
100
AcDbSpline
70
4
71
1
72
4
73
2
40
0
40
0
40
1
40
1
41
1.08358774580744
10
87.4928233914841
20
6.70310098889185
30
0
41
1.08358774580744
10
87.528561196097
20
6.87723351878055
30
0
0
SPLINE
5
248
100
AcDbEntity
8
1
62
256
6
ByLayer
370
-1
48
1
60
0
100
AcDbSpline
70
4
71
3
72
30
73
26
40
0
40
0
40
0
40
0
40
0.0511772287529149
40
0.0511772287529149
40
0.135075241067794
40
0.135075241067794
40
0.271834780652363
40
0.271834780652363
40
0.469061266910755
40
0.469061266910755
40
0.500636061959849
40
0.500636061959849
40
0.599800502489235
40
0.599800502489235
40
0.697557955314504
40
0.697557955314504
40
0.781333785463113
40
0.781333785463113
40
0.847844869822053
40
0.847844869822053
40
0.899113486931163
40
0.899113486931163
40
0.939077913069234
40
0.939077913069234
40
1
40
1
40
1
40
1
41
1
10
94.1162123299378
20
7.98799385638259
30
0
41
1
10
94.1252536885759
20
7.99585019416341
30
0
41
1
10
94.1323411237448
20
8.00557471525022
30
0
41
1
10
94.1462457808866
20
8.03340280172392
30
0
41
1
10
94.1504457183652
20
8.05333513446533
30
0
41
1
10
94.1538416384
20
8.10715095121421
30
0
41
1
10
94.1485236676095
20
8.14312114884061
30
0
41
1
10
94.1253915565417
20
8.23059804340139
30
0
41
1
10
94.102560224758
20
8.28390448540981
30
0
41
1
10
94.069561719086
20
8.34357515582539
30
0
41
1
10
94.0647966449234
20
8.35187044850528
30
0
41
1
10
94.0444826866867
20
8.38595819575545
30
0
41
1
10
94.0275375254499
20
8.41146499339473
30
0
41
1
10
93.9913132373676
20
8.46041829074269
30
0
41
1
10
93.9719523501855
20
8.48405508357493
30
0
41
1
10
93.933778078973
20
8.52550657291627
30
0
41
1
10
93.9151672669994
20
8.54379796026794
30
0
41
1
10
93.8802139570171
20
8.57395832221428
30
0
41
1
10
93.8640976049595
20
8.58645586074334
30
0
41
1
10
93.8346248615152
20
8.60610770887692
30
0
41
1
10
93.8214048984609
20
8.61387787406656
30
0
41
1
10
93.7974432564297
20
8.62555707721168
30
0
41
1
10
93.7867353506504
20
8.62996588267171
30
0
41
1
10
93.7597335810229
20
8.63850176242855
30
0
41
1
10
93.7430109972663
20
8.64138690017003
30
0
41
1
10
93.7272439778362
20
8.64070046925619
30
0
0
SPLINE
5
249
100
AcDbEntity
8
1
62
256
6
ByLayer
370
-1
48
1
60
0
100
AcDbSpline
70
4
71
3
72
30
73
26
40
0
40
0
40
0
40
0
40
0.0515194889309869
40
0.0515194889309869
40
0.092877146076427
40
0.092877146076427
40
0.148185150442372
40
0.148185150442372
40
0.203338923043493
40
0.203338923043493
40
0.287955708682877
40
0.287955708682877
40
0.372427214532832
40
0.372427214532832
40
0.435367147735319
40
0.435367147735319
40
0.498971020782921
40
0.498971020782921
40
0.70133434803899
40
0.70133434803899
40
0.838887327921372
40
0.838887327921372
40
0.925006664597111
40
0.925006664597111
40
1
40
1
40
1
40
1
41
1
10
93.7272439778361
20
9.39279578822089
30
0
41
1
10
93.7406201383424
20
9.38796539573983
30
0
41
1
10
93.7546831624704
20
9.38569765145428
30
0
41
1
10
93.7796501657884
20
9.38520861533613
30
0
41
1
10
93.7907962310386
20
9.38626163196224
30
0
41
1
10
93.8163266055465
20
9.39096912813
30
0
41
1
10
93.8306744147183
20
9.39539382138202
30
0
41
1
10
93.8584315584192
20
9.40665808168782
30
0
41
1
10
93.8719368983615
20
9.41353190361178
30
0
41
1
10
93.9050168406035
20
9.43326986758035
30
0
41
1
10
93.9241492436004
20
9.44745684428241
30
0
41
1
10
93.9603631960832
20
9.47891545136491
30
0
41
1
10
93.9775649083276
20
9.4962945696619
30
0
41
1
10
94.005832918079
20
9.52877591610553
30
0
41
1
10
94.0173882551284
20
9.54338478977095
30
0
41
1
10
94.0394553402459
20
9.57394119140838
30
0
41
1
10
94.0499839342166
20
9.58994206109398
30
0
41
1
10
94.0909899074376
20
9.65836377284302
30
0
41
1
10
94.1165032113725
20
9.71633065021572
30
0
41
1
10
94.1442129999312
20
9.81725785568318
30
0
41
1
10
94.1515231419923
20
9.8600513562989
30
0
41
1
10
94.1525357180563
20
9.9288829504614
30
0
41
1
10
94.1502602491482
20
9.95571491735649
30
0
41
1
10
94.138307899452
20
10.0029073918021
30
0
41
1
10
94.1293367564663
20
10.024309119164
30
0
41
1
10
94.1162123299378
20
10.0418202687174
30
0
0
SPLINE
5
24A
100
AcDbEntity
8
1
62
256
6
ByLayer
370
-1
48
1
60
0
100
AcDbSpline
70
4
71
3
72
22
73
18
40
0
40
0
40
0
40
0
40
0.142057608736487
40
0.142057608736487
40
0.351004812989509
40
0.351004812989509
40
0.487763342939158
40
0.487763342939158
40
0.591529353507204
40
0.591529353507204
40
0.758694969225675
40
0.758694969225675
40
0.858776631807669
40
0.858776631807669
40
0.960359919516349
40
0.960359919516349
40
1
40
1
40
1
40
1
41
1
10
93.5050820831052
20
9.04361786606785
30
0
41
1
10
93.5050820831052
20
9.06646426137686
30
0
41
1
10
93.5061148661617
20
9.0892513568983
30
0
41
1
10
93.5112931001007
20
9.14500015831703
30
0
41
1
10
93.5166709352437
20
9.17788658889569
30
0
41
1
10
93.530007833576
20
9.23059379843181
30
0
41
1
10
93.5364645200369
20
9.25109496273492
30
0
41
1
10
93.5502814496127
20
9.28578351355065
30
0
41
1
10
93.5570727835824
20
9.30035684720826
30
0
41
1
10
93.5772398695052
20
9.33631874784041
30
0
41
1
10
93.5923759654935
20
9.35704913785111
30
0
41
1
10
93.6217096856824
20
9.38290267056558
30
0
41
1
10
93.6341161680418
20
9.39106283290104
30
0
41
1
10
93.6608785291209
20
9.40171186026899
30
0
41
1
10
93.6756877303857
20
9.40415742749727
30
0
41
1
10
93.6959942179375
20
9.40249258919087
30
0
41
1
10
93.701778326265
20
9.40147001950876
30
0
41
1
10
93.7074625847393
20
9.39993930465386
30
0
0
SPLINE
5
24B
100
AcDbEntity
8
1
62
256
6
ByLayer
370
-1
48
1
60
0
100
AcDbSpline
70
4
71
3
72
8
73
4
40
0
40
0
40
0
40
0
40
1
40
1
40
1
40
1
41
1
10
93.7074625847394
20
9.39993930465386
30
0
41
1
10
93.7140563447621
20
9.39755812325217
30
0
41
1
10
93.7206501419503
20
9.39517695098201
30
0
41
1
10
93.7272439778361
20
9.39279578822089
30
0
0
SPLINE
5
24C
100
AcDbEntity
8
1
62
256
6
ByLayer
370
-1
48
1
60
0
100
AcDbSpline
70
4
71
3
72
24
73
20
40
0
40
0
40
0
40
0
40
0.0974021566270716
40
0.0974021566270716
40
0.180354031075263
40
0.180354031075263
40
0.307542616516888
40
0.307542616516888
40
0.412109117008952
40
0.412109117008952
40
0.51634896768989
40
0.51634896768989
40
0.620446917152119
40
0.620446917152119
40
0.724476829458381
40
0.724476829458381
40
0.933310901383961
40
0.933310901383961
40
1
40
1
40
1
40
1
41
1
10
93.7074625847394
20
8.6398393366724
30
0
41
1
10
93.6937586940946
20
8.64040369489493
30
0
41
1
10
93.6793045673202
20
8.64402823864623
30
0
41
1
10
93.6540757795609
20
8.65573177541407
30
0
41
1
10
93.6427749478256
20
8.66316051365718
30
0
41
1
10
93.6166346395021
20
8.68496771533731
30
0
41
1
10
93.6026035401663
20
8.70121538281617
30
0
41
1
10
93.5806235566253
20
8.73272845751896
30
0
41
1
10
93.5718476138929
20
8.74791041316053
30
0
41
1
10
93.5563644290992
20
8.77899042029335
30
0
41
1
10
93.5496034362223
20
8.79498633620111
30
0
41
1
10
93.5377490448386
20
8.82736616011567
30
0
41
1
10
93.5326346635046
20
8.84380711227516
30
0
41
1
10
93.5238237970249
20
8.87689490311016
30
0
41
1
10
93.5201177823479
20
8.89357902879743
30
0
41
1
10
93.5108799312721
20
8.94383345040464
30
0
41
1
10
93.5072060123785
20
8.97768773352917
30
0
41
1
10
93.5053109062169
20
9.02212190311511
30
0
41
1
10
93.5050820831052
20
9.03288062921752
30
0
41
1
10
93.5050820831052
20
9.04361786606785
30
0
0
SPLINE
5
24D
100
AcDbEntity
8
1
62
256
6
ByLayer
370
-1
48
1
60
0
100
AcDbSpline
70
4
71
3
72
22
73
18
40
0
40
0
40
0
40
0
40
0.0973712659844823
40
0.0973712659844823
40
0.180296832630493
40
0.180296832630493
40
0.30744508080263
40
0.30744508080263
40
0.411978418514156
40
0.411978418514156
40
0.51618521001011
40
0.51618521001011
40
0.620250145290738
40
0.620250145290738
40
0.829289859624561
40
0.829289859624561
40
1
40
1
40
1
40
1
41
1
10
95.5749723255623
20
7.58935766389286
30
0
41
1
10
95.5806416969108
20
7.57902448502577
30
0
41
1
10
95.5894380125761
20
7.56957056223251
30
0
41
1
10
95.6097719835989
20
7.55564486558029
30
0
41
1
10
95.6209043787538
20
7.55045482428275
30
0
41
1
10
95.6509111289137
20
7.54067908177367
30
0
41
1
10
95.6711968631145
20
7.53762339360739
30
0
41
1
10
95.7084985628654
20
7.53579028517217
30
0
41
1
10
95.7257619927875
20
7.53632498990726
30
0
41
1
10
95.7601096461614
20
7.53937495195379
30
0
41
1
10
95.7773043241608
20
7.54189570751183
30
0
41
1
10
95.81135987605
20
7.54845100534644
30
0
41
1
10
95.8282809792134
20
7.55249690964547
30
0
41
1
10
95.878511866678
20
7.56650703103335
30
0
41
1
10
95.9114014302616
20
7.57836597127516
30
0
41
1
10
95.9692334597771
20
7.603273938163
30
0
41
1
10
95.994646621647
20
7.61576874988515
30
0
41
1
10
96.0192616975281
20
7.62938181187545
30
0
0
SPLINE
5
24E
100
AcDbEntity
8
1
62
256
6
ByLayer
370
-1
48
1
60
0
100
AcDbSpline
70
4
71
3
72
8
73
4
40
0
40
0
40
0
40
0
40
1
40
1
40
1
40
1
41
1
10
96.2425440060257
20
10.0317559091539
30
0
41
1
10
96.2471444891755
20
10.0376597198758
30
0
41
1
10
96.2517449480731
20
10.0435635202977
30
0
41
1
10
96.2563453836786
20
10.0494673108262
30
0
0
SPLINE
5
24F
100
AcDbEntity
8
1
62
256
6
ByLayer
370
-1
48
1
60
0
100
AcDbSpline
70
4
71
3
72
8
73
4
40
0
40
0
40
0
40
0
40
1
40
1
40
1
40
1
41
1
10
96.2563453836787
20
7.96618257085024
30
0
41
1
10
96.2517449480732
20
7.97009816910759
30
0
41
1
10
96.2471444891755
20
7.974013810504
30
0
41
1
10
96.2425440060257
20
7.97792949681906
30
0
0
SPLINE
5
250
100
AcDbEntity
8
1
62
256
6
ByLayer
370
-1
48
1
60
0
100
AcDbSpline
70
4
71
3
72
22
73
18
40
0
40
0
40
0
40
0
40
0.0973712659845923
40
0.0973712659845923
40
0.180296832630673
40
0.180296832630673
40
0.307445080802867
40
0.307445080802867
40
0.411978418514556
40
0.411978418514556
40
0.51618521001054
40
0.51618521001054
40
0.620250145291189
40
0.620250145291189
40
0.829289859624963
40
0.829289859624963
40
1
40
1
40
1
40
1
41
1
10
94.1028414789749
20
7.97637554208904
30
0
41
1
10
94.0946612774359
20
7.96767089838039
30
0
41
1
10
94.0888588367915
20
7.95677751870937
30
0
41
1
10
94.083725907177
20
7.93475929011615
30
0
41
1
10
94.0834565520083
20
7.92367670818115
30
0
41
1
10
94.087099508996
20
7.89550623400024
30
0
41
1
10
94.093243778051
20
7.8778987143036
30
0
41
1
10
94.1084007052705
20
7.84709436111254
30
0
41
1
10
94.1168259283934
20
7.83341197691209
30
0
41
1
10
94.1355841370283
20
7.80703336612865
30
0
41
1
10
94.1459734759067
20
7.79425024413217
30
0
41
1
10
94.1680989106924
20
7.76961037190637
30
0
41
1
10
94.1798741360821
20
7.75770979463638
30
0
41
1
10
94.216787604608
20
7.72326551270413
30
0
41
1
10
94.2435852798967
20
7.70189967543962
30
0
41
1
10
94.2946110715832
20
7.66616458017779
30
0
41
1
10
94.3185268786984
20
7.65116130524086
30
0
41
1
10
94.3431419545794
20
7.63731522694636
30
0
0
SPLINE
5
251
100
AcDbEntity
8
1
62
256
6
ByLayer
370
-1
48
1
60
0
100
AcDbSpline
70
4
71
3
72
8
73
4
40
0
40
0
40
0
40
0
40
1
40
1
40
1
40
1
41
1
10
95.5683465200834
20
7.60507295092992
30
0
41
1
10
95.570555132569
20
7.59983447025169
30
0
41
1
10
95.5727637342527
20
7.59459604193071
30
0
41
1
10
95.5749723255623
20
7.58935766389286
30
0
0
SPLINE
5
252
100
AcDbEntity
8
1
62
256
6
ByLayer
370
-1
48
1
60
0
100
AcDbSpline
70
4
71
3
72
8
73
4
40
0
40
0
40
0
40
0
40
1
40
1
40
1
40
1
41
1
10
96.6315123581273
20
8.62695397731557
30
0
41
1
10
96.6382497005129
20
8.62660380975771
30
0
41
1
10
96.6449870066299
20
8.62625366706823
30
0
41
1
10
96.6517242779141
20
8.62590354826145
30
0
0
SPLINE
5
253
100
AcDbEntity
8
1
62
256
6
ByLayer
370
-1
48
1
60
0
100
AcDbSpline
70
4
71
3
72
24
73
20
40
0
40
0
40
0
40
0
40
0.0380198325500848
40
0.0380198325500848
40
0.246834654672813
40
0.246834654672813
40
0.404726505661584
40
0.404726505661584
40
0.526150637961442
40
0.526150637961442
40
0.621531995502547
40
0.621531995502547
40
0.776890538331327
40
0.776890538331327
40
0.873684213897316
40
0.873684213897316
40
0.97174617225441
40
0.97174617225441
40
1
40
1
40
1
40
1
41
1
10
96.0192616975281
20
7.62938181187545
30
0
41
1
10
96.0247500167264
20
7.63241705864169
30
0
41
1
10
96.0302009185045
20
7.63550952691736
30
0
41
1
10
96.0652806301958
20
7.65592117179145
30
0
41
1
10
96.0938530107712
20
7.67490903101179
30
0
41
1
10
96.141095661633
20
7.71107206983268
30
0
41
1
10
96.1605668525834
20
7.7276295832506
30
0
41
1
10
96.1926391983092
20
7.75860083116095
30
0
41
1
10
96.2058394844589
20
7.77267810010127
30
0
41
1
10
96.2273903483219
20
7.79882763571823
30
0
41
1
10
96.2362082674836
20
7.81072673829419
30
0
41
1
10
96.2566917916785
20
7.84268911701304
30
0
41
1
10
96.2670348737477
20
7.8636950946437
30
0
41
1
10
96.275806824106
20
7.89771592651829
30
0
41
1
10
96.2772377508875
20
7.91101861284872
30
0
41
1
10
96.2745666495844
20
7.93599300261187
30
0
41
1
10
96.2702618329447
20
7.9479628576471
30
0
41
1
10
96.2611534711048
20
7.96081556909118
30
0
41
1
10
96.2588518977231
20
7.96358377559224
30
0
41
1
10
96.2563453836786
20
7.96618257085026
30
0
0
SPLINE
5
254
100
AcDbEntity
8
1
62
256
6
ByLayer
370
-1
48
1
60
0
100
AcDbSpline
70
4
71
3
72
24
73
20
40
0
40
0
40
0
40
0
40
0.0380198325505626
40
0.0380198325505626
40
0.246834654673194
40
0.246834654673194
40
0.404726505661734
40
0.404726505661734
40
0.526150637961487
40
0.526150637961487
40
0.62153199550248
40
0.62153199550248
40
0.776890538331297
40
0.776890538331297
40
0.873684213897269
40
0.873684213897269
40
0.971746172254452
40
0.971746172254452
40
1
40
1
40
1
40
1
41
1
10
94.3431419545794
20
7.63731522694636
30
0
41
1
10
94.3486302737778
20
7.63422802552179
30
0
41
1
10
94.3541560278182
20
7.63119722338755
30
0
41
1
10
94.3902073306903
20
7.6119235122963
30
0
41
1
10
94.4218388400243
20
7.59729835625126
30
0
41
1
10
94.4787498252255
20
7.57526031032333
30
0
41
1
10
94.5038041336127
20
7.56692036611398
30
0
41
1
10
94.5486884805217
20
7.55481996906454
30
0
41
1
10
94.5684623653704
20
7.55042847849168
30
0
41
1
10
94.6038721530965
20
7.5446406091115
30
0
41
1
10
94.6195450702667
20
7.54279576042686
30
0
41
1
10
94.6602506024767
20
7.54037511322073
30
0
41
1
10
94.6856411946567
20
7.54125560596566
30
0
41
1
10
94.723420706244
20
7.54891246477635
30
0
41
1
10
94.7373572868909
20
7.55346635479918
30
0
41
1
10
94.7613291770155
20
7.56616547024555
30
0
41
1
10
94.7715824508838
20
7.57459354607741
30
0
41
1
10
94.7807797406462
20
7.5871024215956
30
0
41
1
10
94.78262332601
20
7.59005863572568
30
0
41
1
10
94.7842145370913
20
7.59310048106494
30
0
0
SPLINE
5
255
100
AcDbEntity
8
1
62
256
6
ByLayer
370
-1
48
1
60
0
100
AcDbSpline
70
4
71
3
72
34
73
30
40
0
40
0
40
0
40
0
40
0.0514465755209098
40
0.0514465755209098
40
0.135786144735372
40
0.135786144735372
40
0.203131635218827
40
0.203131635218827
40
0.270315608875064
40
0.270315608875064
40
0.337431278535891
40
0.337431278535891
40
0.404515897625495
40
0.404515897625495
40
0.499929883690859
40
0.499929883690859
40
0.599210771748152
40
0.599210771748152
40
0.697083019894278
40
0.697083019894278
40
0.780957226922792
40
0.780957226922792
40
0.847546414393278
40
0.847546414393278
40
0.898875235580388
40
0.898875235580388
40
0.980803570703594
40
0.980803570703594
40
1
40
1
40
1
40
1
41
1
10
96.2425440060257
20
7.97792949681903
30
0
41
1
10
96.2332115321691
20
7.98587280167976
30
0
41
1
10
96.2258334036539
20
7.99566579121674
30
0
41
1
10
96.2112077391374
20
8.02362891749578
30
0
41
1
10
96.2065918209821
20
8.04360297747186
30
0
41
1
10
96.2035942336616
20
8.08062143000893
30
0
41
1
10
96.2041400878005
20
8.09775017208204
30
0
41
1
10
96.2080128353352
20
8.13238096060795
30
0
41
1
10
96.2113518607364
20
8.14999701367256
30
0
41
1
10
96.2202332530618
20
8.18536749122745
30
0
41
1
10
96.2257960268004
20
8.20319960308021
30
0
41
1
10
96.2387722948878
20
8.2388293775021
30
0
41
1
10
96.2462089087769
20
8.25668869886255
30
0
41
1
10
96.2661661581358
20
8.29968065348038
30
0
41
1
10
96.2795703818314
20
8.32484713557329
30
0
41
1
10
96.3097691288544
20
8.37523613507
30
0
41
1
10
96.3267752636401
20
8.40058223433152
30
0
41
1
10
96.3632396809872
20
8.44919148127775
30
0
41
1
10
96.3827787356674
20
8.47264415278562
30
0
41
1
10
96.4213889742247
20
8.51373220545145
30
0
41
1
10
96.4402438079335
20
8.53184626029602
30
0
41
1
10
96.4757083373328
20
8.56167332031049
30
0
41
1
10
96.4920781587594
20
8.5740170951843
30
0
41
1
10
96.5220453149914
20
8.59338760220376
30
0
41
1
10
96.5354970960315
20
8.60103152461303
30
0
41
1
10
96.570842192445
20
8.6176177753515
30
0
41
1
10
96.5937635194567
20
8.62499513664596
30
0
41
1
10
96.621114490479
20
8.62713042744193
30
0
41
1
10
96.6263591844943
20
8.62722180906923
30
0
41
1
10
96.6315123581272
20
8.62695397731559
30
0
0
SPLINE
5
256
100
AcDbEntity
8
1
62
256
6
ByLayer
370
-1
48
1
60
0
100
AcDbSpline
70
4
71
3
72
34
73
30
40
0
40
0
40
0
40
0
40
0.0514465755209101
40
0.0514465755209101
40
0.135786144735334
40
0.135786144735334
40
0.203131635218789
40
0.203131635218789
40
0.270315608874972
40
0.270315608874972
40
0.337431278535805
40
0.337431278535805
40
0.404515897625349
40
0.404515897625349
40
0.499929883690841
40
0.499929883690841
40
0.599210771748136
40
0.599210771748136
40
0.697083019894223
40
0.697083019894223
40
0.780957226922753
40
0.780957226922753
40
0.847546414393269
40
0.847546414393269
40
0.898875235580372
40
0.898875235580372
40
0.980803570703528
40
0.980803570703528
40
1
40
1
40
1
40
1
41
1
10
96.6315123581272
20
9.37904929628024
30
0
41
1
10
96.6178450824024
20
9.37434690587389
30
0
41
1
10
96.6034913649281
20
9.3722136637962
30
0
41
1
10
96.5664183129166
20
9.37184916137934
30
0
41
1
10
96.5434810743221
20
9.37677361594439
30
0
41
1
10
96.5044364490327
20
9.39088269211945
30
0
41
1
10
96.4875751137129
20
9.3991438306355
30
0
41
1
10
96.4552677746898
20
9.41835509321737
30
0
41
1
10
96.4397147141003
20
9.42936776122252
30
0
41
1
10
96.4099385930766
20
9.45347580729018
30
0
41
1
10
96.3956505199232
20
9.46662486131376
30
0
41
1
10
96.3683848422489
20
9.49462367577107
30
0
41
1
10
96.3553603974898
20
9.50952245160812
30
0
41
1
10
96.3254590624699
20
9.54731011064047
30
0
41
1
10
96.3091729706255
20
9.57104111417055
30
0
41
1
10
96.2789742236025
20
9.62171598727005
30
0
41
1
10
96.2650863946089
20
9.64891360453368
30
0
41
1
10
96.2411730893375
20
9.70467533801963
30
0
41
1
10
96.2310112445858
20
9.73339954701322
30
0
41
1
10
96.2161955890189
20
9.78776922861709
30
0
41
1
10
96.2109145520226
20
9.81343248246083
30
0
41
1
10
96.2051303570119
20
9.85972446115395
30
0
41
1
10
96.203852296276
20
9.88042813240307
30
0
41
1
10
96.2046054131142
20
9.91679601715273
30
0
41
1
10
96.2059509793228
20
9.93262146739343
30
0
41
1
10
96.2127974386726
20
9.97252129663573
30
0
41
1
10
96.2204344205732
20
9.99677139983646
30
0
41
1
10
96.2357842651493
20
10.0224674756406
30
0
41
1
10
96.2390252463858
20
10.0272402767271
30
0
41
1
10
96.2425440060257
20
10.0317559091538
30
0
0
SPLINE
5
257
100
AcDbEntity
8
1
62
256
6
ByLayer
370
-1
48
1
60
0
100
AcDbSpline
70
4
71
3
72
8
73
4
40
0
40
0
40
0
40
0
40
1
40
1
40
1
40
1
41
1
10
95.5749723255622
20
10.4327423718504
30
0
41
1
10
95.5727637342526
20
10.4254931593719
30
0
41
1
10
95.5705551325689
20
10.4182439297336
30
0
41
1
10
95.5683465200833
20
10.4109946822294
30
0
0
SPLINE
5
258
100
AcDbEntity
8
1
62
256
6
ByLayer
370
-1
48
1
60
0
100
AcDbSpline
70
4
71
3
72
34
73
30
40
0
40
0
40
0
40
0
40
0.0514465755209168
40
0.0514465755209168
40
0.135786144735385
40
0.135786144735385
40
0.20313163521883
40
0.20313163521883
40
0.270315608875035
40
0.270315608875035
40
0.337431278535899
40
0.337431278535899
40
0.404515897625441
40
0.404515897625441
40
0.499929883690898
40
0.499929883690898
40
0.599210771748133
40
0.599210771748133
40
0.697083019894239
40
0.697083019894239
40
0.780957226922738
40
0.780957226922738
40
0.847546414393263
40
0.847546414393263
40
0.898875235580394
40
0.898875235580394
40
0.98080357070353
40
0.98080357070353
40
1
40
1
40
1
40
1
41
1
10
95.5683465200833
20
10.4109946822294
30
0
41
1
10
95.5638661606058
20
10.396288963154
30
0
41
1
10
95.5567452249736
20
10.3823056930334
30
0
41
1
10
95.5339373337912
20
10.3488759870028
30
0
41
1
10
95.5154080230137
20
10.3308827701157
30
0
41
1
10
95.4790293761323
20
10.3032802536405
30
0
41
1
10
95.4614874508688
20
10.2925057833318
30
0
41
1
10
95.4250660369407
20
10.273670839045
30
0
41
1
10
95.4060665351142
20
10.2655472368
30
0
41
1
10
95.3672216115947
20
10.2516324574561
30
0
41
1
10
95.3472903542821
20
10.2458113802424
30
0
41
1
10
95.3069150366134
20
10.2362928562731
30
0
41
1
10
95.2864007868232
20
10.2325795158959
30
0
41
1
10
95.2364469715202
20
10.2260274517386
30
0
41
1
10
95.2067284965647
20
10.2241934432284
30
0
41
1
10
95.1463310025185
20
10.2244793168311
30
0
41
1
10
95.1154675255138
20
10.2267623030426
30
0
41
1
10
95.0552098675276
20
10.2356140205778
30
0
41
1
10
95.025598051844
20
10.2421463278941
30
0
41
1
10
94.9723901413922
20
10.2585130003228
30
0
41
1
10
94.9483762815555
20
10.2677889746874
30
0
41
1
10
94.9073831668539
20
10.2878714444374
30
0
41
1
10
94.889862019376
20
10.2980249706248
30
0
41
1
10
94.8608951863761
20
10.3185209703753
30
0
41
1
10
94.8489048805374
20
10.3283429159508
30
0
41
1
10
94.820724051817
20
10.356154320139
30
0
41
1
10
94.8056585545665
20
10.3761243360766
30
0
41
1
10
94.793938265797
20
10.4036597144
30
0
41
1
10
94.7919893481507
20
10.4091166294039
30
0
41
1
10
94.7904098158801
20
10.4146768146065
30
0
0
SPLINE
5
259
100
AcDbEntity
8
1
62
256
6
ByLayer
370
-1
48
1
60
0
100
AcDbSpline
70
4
71
3
72
24
73
20
40
0
40
0
40
0
40
0
40
0.0380198325506227
40
0.0380198325506227
40
0.246834654673534
40
0.246834654673534
40
0.404726505662275
40
0.404726505662275
40
0.526150637961983
40
0.526150637961983
40
0.621531995502812
40
0.621531995502812
40
0.776890538331458
40
0.776890538331458
40
0.873684213897517
40
0.873684213897517
40
0.971746172254678
40
0.971746172254678
40
1
40
1
40
1
40
1
41
1
10
96.0192616975283
20
10.4340536750478
30
0
41
1
10
96.0137733783299
20
10.4371408764723
30
0
41
1
10
96.0082468027856
20
10.4401600521621
30
0
41
1
10
95.9721848224914
20
10.4592826495892
30
0
41
1
10
95.9405200288994
20
10.4734367456589
30
0
41
1
10
95.883498841721
20
10.4939151431574
30
0
41
1
10
95.8583799745927
20
10.5013414110249
30
0
41
1
10
95.8133399930243
20
10.5112391674505
30
0
41
1
10
95.7934843251782
20
10.514473213057
30
0
41
1
10
95.7578937809925
20
10.5177029021254
30
0
41
1
10
95.7421290120922
20
10.51824780674
30
0
41
1
10
95.7011404905766
20
10.5166634094128
30
0
41
1
10
95.6755292656362
20
10.5126603815985
30
0
41
1
10
95.6372806921584
20
10.4983650607599
30
0
41
1
10
95.6231324513377
20
10.4908156214171
30
0
41
1
10
95.5986797006478
20
10.4713110615967
30
0
41
1
10
95.5881485399395
20
10.4589501545672
30
0
41
1
10
95.5785790719106
20
10.4411739756499
30
0
41
1
10
95.5766497437477
20
10.4370042749243
30
0
41
1
10
95.5749723255623
20
10.4327423718503
30
0
0
SPLINE
5
25A
100
AcDbEntity
8
1
62
256
6
ByLayer
370
-1
48
1
60
0
100
AcDbSpline
70
4
71
3
72
24
73
20
40
0
40
0
40
0
40
0
40
0.0380198325509477
40
0.0380198325509477
40
0.246834654673983
40
0.246834654673983
40
0.404726505662624
40
0.404726505662624
40
0.526150637962328
40
0.526150637962328
40
0.621531995503259
40
0.621531995503259
40
0.776890538331787
40
0.776890538331787
40
0.873684213897743
40
0.873684213897743
40
0.971746172254821
40
0.971746172254821
40
1
40
1
40
1
40
1
41
1
10
94.3431419545794
20
10.4419870901185
30
0
41
1
10
94.3376536353809
20
10.4389518433522
30
0
41
1
10
94.3322019120991
20
10.435847748632
30
0
41
1
10
94.2971115229856
20
10.4152849900937
30
0
41
1
10
94.2685058581522
20
10.3958260708979
30
0
41
1
10
94.2211530053133
20
10.3581033836475
30
0
41
1
10
94.2016172556216
20
10.3406321938878
30
0
41
1
10
94.1693892752368
20
10.3074583053536
30
0
41
1
10
94.1561072060895
20
10.2922235914469
30
0
41
1
10
94.134375585767
20
10.2635158755183
30
0
41
1
10
94.1254658148753
20
10.2503168288723
30
0
41
1
10
94.1046993013748
20
10.2143494056202
30
0
41
1
10
94.0941355865453
20
10.1902208929202
30
0
41
1
10
94.0848945742966
20
10.1495615990178
30
0
41
1
10
94.0832519873413
20
10.1332633633673
30
0
41
1
10
94.0854422280792
20
10.1014835292303
30
0
41
1
10
94.0894691578788
20
10.0855808429974
30
0
41
1
10
94.0982053414522
20
10.0674608281543
30
0
41
1
10
94.1004211720347
20
10.0634791350577
30
0
41
1
10
94.1028414789749
20
10.0596602820651
30
0
0
SPLINE
5
25B
100
AcDbEntity
8
1
62
256
6
ByLayer
370
-1
48
1
60
0
100
AcDbSpline
70
4
71
3
72
22
73
18
40
0
40
0
40
0
40
0
40
0.0973712659844633
40
0.0973712659844633
40
0.180296832630571
40
0.180296832630571
40
0.307445080802706
40
0.307445080802706
40
0.411978418514545
40
0.411978418514545
40
0.516185210010506
40
0.516185210010506
40
0.62025014529125
40
0.62025014529125
40
0.829289859625158
40
0.829289859625158
40
1
40
1
40
1
40
1
41
1
10
94.7842145370913
20
10.4364851890225
30
0
41
1
10
94.7788365302281
20
10.4509419432892
30
0
41
1
10
94.7703294736336
20
10.4644896443184
30
0
41
1
10
94.7504717283669
20
10.4851551905777
30
0
41
1
10
94.7395411703881
20
10.4932017598892
30
0
41
1
10
94.7099813899258
20
10.5093033016705
30
0
41
1
10
94.6899163873451
20
10.5154829240304
30
0
41
1
10
94.6529442655748
20
10.5219804295408
30
0
41
1
10
94.6358053637863
20
10.5232081261085
30
0
41
1
10
94.6016702303028
20
10.5231658806386
30
0
41
1
10
94.5845642447938
20
10.521900357581
30
0
41
1
10
94.5506601443441
20
10.5174884967884
30
0
41
1
10
94.5338020340581
20
10.5143341077319
30
0
41
1
10
94.4837309582767
20
10.5025857428676
30
0
41
1
10
94.4509098570407
20
10.4916957252863
30
0
41
1
10
94.3931539066056
20
10.4678644779024
30
0
41
1
10
94.3677570304605
20
10.4556001521088
30
0
41
1
10
94.3431419545794
20
10.4419870901185
30
0
0
SPLINE
5
25C
100
AcDbEntity
8
1
62
256
6
ByLayer
370
-1
48
1
60
0
100
AcDbSpline
70
4
71
3
72
24
73
20
40
0
40
0
40
0
40
0
40
0.0380198325500163
40
0.0380198325500163
40
0.24683465467264
40
0.24683465467264
40
0.404726505661478
40
0.404726505661478
40
0.526150637961403
40
0.526150637961403
40
0.62153199550254
40
0.62153199550254
40
0.776890538331357
40
0.776890538331357
40
0.873684213897419
40
0.873684213897419
40
0.971746172254549
40
0.971746172254549
40
1
40
1
40
1
40
1
41
1
10
96.8573215690025
20
9.02775103592623
30
0
41
1
10
96.8573215690025
20
9.03387348411698
30
0
41
1
10
96.8572463059883
20
9.03999094130464
30
0
41
1
10
96.8562693760965
20
9.0796007404378
30
0
41
1
10
96.853193605209
20
9.11297822571547
30
0
41
1
10
96.843470169881
20
9.17039948624958
30
0
41
1
10
96.8378547730737
20
9.19484010570596
30
0
41
1
10
96.8249649545608
20
9.23681043035387
30
0
41
1
10
96.8183504643631
20
9.25470046738391
30
0
41
1
10
96.80440116227
20
9.28535878222522
30
0
41
1
10
96.7975002383965
20
9.29845276145079
30
0
41
1
10
96.7771367357285
20
9.33083326510911
30
0
41
1
10
96.7619789092374
20
9.34939748246018
30
0
41
1
10
96.7327368170632
20
9.37244222451014
30
0
41
1
10
96.7201253331109
20
9.37969324615764
30
0
41
1
10
96.6932419114006
20
9.38856579828746
30
0
41
1
10
96.6785448774725
20
9.39014116189205
30
0
41
1
10
96.6600531367368
20
9.38785134611834
30
0
41
1
10
96.6558651065919
20
9.38705659519152
30
0
41
1
10
96.6517242779141
20
9.38600351624294
30
0
0
SPLINE
5
25D
100
AcDbEntity
8
1
62
256
6
ByLayer
370
-1
48
1
60
0
100
AcDbSpline
70
4
71
3
72
22
73
18
40
0
40
0
40
0
40
0
40
0.097371265984567
40
0.097371265984567
40
0.180296832630562
40
0.180296832630562
40
0.307445080802647
40
0.307445080802647
40
0.411978418514337
40
0.411978418514337
40
0.516185210010341
40
0.516185210010341
40
0.620250145290926
40
0.620250145290926
40
0.829289859624568
40
0.829289859624568
40
1
40
1
40
1
40
1
41
1
10
96.6517242779142
20
8.62590354826145
30
0
41
1
10
96.6657195330443
20
8.62633680080287
30
0
41
1
10
96.6804629188896
20
8.62982314679857
30
0
41
1
10
96.7061679324048
20
8.64128560354311
30
0
41
1
10
96.7176706013163
20
8.64860640818753
30
0
41
1
10
96.7442578793375
20
8.67016403949549
30
0
41
1
10
96.7585097102934
20
8.68627783812266
30
0
41
1
10
96.7808192718151
20
8.71758128141605
30
0
41
1
10
96.7897197426812
20
8.73267957100299
30
0
41
1
10
96.8054154473654
20
8.76361200212128
30
0
41
1
10
96.8122651327316
20
8.77954349592602
30
0
41
1
10
96.8242709755549
20
8.81181038450748
30
0
41
1
10
96.8294483497674
20
8.82820262369779
30
0
41
1
10
96.8428456745476
20
8.87778790527972
30
0
41
1
10
96.8489717940164
20
8.91149714411631
30
0
41
1
10
96.8558160713856
20
8.972678566018
30
0
41
1
10
96.8573215690025
20
9.00029189564137
30
0
41
1
10
96.8573215690025
20
9.02775103592623
30
0
0
SPLINE
5
25E
100
AcDbEntity
8
1
62
256
6
ByLayer
370
-1
48
1
60
0
100
AcDbSpline
70
4
71
3
72
8
73
4
40
0
40
0
40
0
40
0
40
1
40
1
40
1
40
1
41
1
10
93.7272439778362
20
8.64070046925619
30
0
41
1
10
93.7206501419504
20
8.64041340087189
30
0
41
1
10
93.7140563447622
20
8.64012635700118
30
0
41
1
10
93.7074625847394
20
8.63983933667237
30
0
0
SPLINE
5
25F
100
AcDbEntity
8
1
62
256
6
ByLayer
370
-1
48
1
60
0
100
AcDbSpline
70
4
71
3
72
8
73
4
40
0
40
0
40
0
40
0
40
1
40
1
40
1
40
1
41
1
10
94.1028414789749
20
10.0596602820651
30
0
41
1
10
94.1072984033189
20
10.0537136212129
30
0
41
1
10
94.1117553532877
20
10.0477669502357
30
0
41
1
10
94.1162123299378
20
10.0418202687174
30
0
0
SPLINE
5
260
100
AcDbEntity
8
1
62
256
6
ByLayer
370
-1
48
1
60
0
100
AcDbSpline
70
4
71
3
72
34
73
30
40
0
40
0
40
0
40
0
40
0.0514465755209311
40
0.0514465755209311
40
0.135786144735414
40
0.135786144735414
40
0.203131635218849
40
0.203131635218849
40
0.270315608875088
40
0.270315608875088
40
0.337431278535887
40
0.337431278535887
40
0.404515897625417
40
0.404515897625417
40
0.499929883690793
40
0.499929883690793
40
0.599210771748141
40
0.599210771748141
40
0.697083019894188
40
0.697083019894188
40
0.780957226922695
40
0.780957226922695
40
0.847546414393271
40
0.847546414393271
40
0.898875235580376
40
0.898875235580376
40
0.980803570703627
40
0.980803570703627
40
1
40
1
40
1
40
1
41
1
10
94.7904098158801
20
7.60875508330702
30
0
41
1
10
94.7945990601391
20
7.61934075476574
30
0
41
1
10
94.8014293024252
20
7.62920994787444
30
0
41
1
10
94.8235161862328
20
7.65243549923565
30
0
41
1
10
94.8416295163335
20
7.66454149317064
30
0
41
1
10
94.87734494539
20
7.68275772941939
30
0
41
1
10
94.894617399044
20
7.6897184662248
30
0
41
1
10
94.9305561582315
20
7.70172257382606
30
0
41
1
10
94.9493408283865
20
7.70680574170004
30
0
41
1
10
94.9878109315652
20
7.71541582533058
30
0
41
1
10
95.0075813680366
20
7.7189608637751
30
0
41
1
10
95.0476899418912
20
7.72470425973501
30
0
41
1
10
95.0680978093972
20
7.72691201040467
30
0
41
1
10
95.1178611628518
20
7.73076853741838
30
0
41
1
10
95.1475233189764
20
7.73180548603375
30
0
41
1
10
95.2079208130225
20
7.73151961243104
30
0
41
1
10
95.238845263576
20
7.73009956263832
30
0
41
1
10
95.299343050827
20
7.72464630709413
30
0
41
1
10
95.3291330340071
20
7.72063553943886
30
0
41
1
10
95.3827769118036
20
7.71043895399151
30
0
41
1
10
95.4070347933772
20
7.70461653035778
30
0
41
1
10
95.4485391274959
20
7.69176916275049
30
0
41
1
10
95.4663137443427
20
7.6852028961874
30
0
41
1
10
95.4957749901304
20
7.6717041404774
30
0
41
1
10
95.5079971139548
20
7.66516303039003
30
0
41
1
10
95.5368135593616
20
7.64634727757053
30
0
41
1
10
95.5523167523333
20
7.63257180969561
30
0
41
1
10
95.5645987164565
20
7.61298561800257
30
0
41
1
10
95.5666572243678
20
7.60907969408811
30
0
41
1
10
95.5683465200834
20
7.60507295092998
30
0
0
SPLINE
5
261
100
AcDbEntity
8
1
62
256
6
ByLayer
370
-1
48
1
60
0
100
AcDbSpline
70
4
71
3
72
8
73
4
40
0
40
0
40
0
40
0
40
1
40
1
40
1
40
1
41
1
10
94.7904098158801
20
10.4146768146066
30
0
41
1
10
94.7883447098943
20
10.421946290488
30
0
41
1
10
94.7862796171393
20
10.4292157483897
30
0
41
1
10
94.7842145370913
20
10.4364851890225
30
0
0
SPLINE
5
262
100
AcDbEntity
8
1
62
256
6
ByLayer
370
-1
48
1
60
0
100
AcDbSpline
70
4
71
3
72
22
73
18
40
0
40
0
40
0
40
0
40
0.0973712659846322
40
0.0973712659846322
40
0.180296832630682
40
0.180296832630682
40
0.307445080802836
40
0.307445080802836
40
0.411978418514571
40
0.411978418514571
40
0.516185210010484
40
0.516185210010484
40
0.620250145291194
40
0.620250145291194
40
0.829289859625007
40
0.829289859625007
40
1
40
1
40
1
40
1
41
1
10
96.2563453836786
20
10.0494673108263
30
0
41
1
10
96.2648169497029
20
10.0622955299346
30
0
41
1
10
96.2709086494183
20
10.0772826878415
30
0
41
1
10
96.2765178047888
20
10.1060407660418
30
0
41
1
10
96.2769889971336
20
10.1199798759908
30
0
41
1
10
96.2737930098435
20
10.1544761494439
30
0
41
1
10
96.2678694724087
20
10.1752076033342
30
0
41
1
10
96.2530421231698
20
10.2106763536004
30
0
41
1
10
96.2447414281806
20
10.2261211391037
30
0
41
1
10
96.226195739436
20
10.2555074664637
30
0
41
1
10
96.2158950930481
20
10.2695458209607
30
0
41
1
10
96.1939211097019
20
10.2963291302285
30
0
41
1
10
96.1822088771897
20
10.3091212227411
30
0
41
1
10
96.1454552203469
20
10.3458272611969
30
0
41
1
10
96.1187260074059
20
10.368162021122
30
0
41
1
10
96.0677762947998
20
10.4049738358878
30
0
41
1
10
96.0438767734094
20
10.4202075967533
30
0
41
1
10
96.0192616975283
20
10.4340536750478
30
0
0
SPLINE
5
263
100
AcDbEntity
8
1
62
256
6
ByLayer
370
-1
48
1
60
0
100
AcDbSpline
70
4
71
3
72
8
73
4
40
0
40
0
40
0
40
0
40
1
40
1
40
1
40
1
41
1
10
94.7842145370913
20
7.59310048106494
30
0
41
1
10
94.7862796171393
20
7.59831863094854
30
0
41
1
10
94.7883447098942
20
7.60353683100604
30
0
41
1
10
94.7904098158801
20
7.60875508330702
30
0
0
SPLINE
5
264
100
AcDbEntity
8
1
62
256
6
ByLayer
370
-1
48
1
60
0
100
AcDbSpline
70
4
71
3
72
8
73
4
40
0
40
0
40
0
40
0
40
1
40
1
40
1
40
1
41
1
10
94.1162123299377
20
7.98799385638253
30
0
41
1
10
94.1117553532876
20
7.98412104086381
30
0
41
1
10
94.1072984033189
20
7.98024827002266
30
0
41
1
10
94.1028414789749
20
7.97637554208907
30
0
0
SPLINE
5
265
100
AcDbEntity
8
1
62
256
6
ByLayer
370
-1
48
1
60
0
100
AcDbSpline
70
4
71
3
72
8
73
4
40
0
40
0
40
0
40
0
40
1
40
1
40
1
40
1
41
1
10
96.6517242779142
20
9.38600351624297
30
0
41
1
10
96.6449870066299
20
9.38368543331922
30
0
41
1
10
96.6382497005128
20
9.38136735986777
30
0
41
1
10
96.6315123581272
20
9.37904929628024
30
0
0
SPLINE
5
266
100
AcDbEntity
8
1
62
256
6
ByLayer
370
-1
48
1
60
0
100
AcDbSpline
70
4
71
3
72
12
73
8
40
0
40
0
40
0
40
0
40
0.40464407390132
40
0.40464407390132
40
0.809285947755723
40
0.809285947755723
40
1
40
1
40
1
40
1
41
1
10
90.6288736992668
20
12.0641123213662
30
0
41
1
10
90.6288736992668
20
12.1181595628661
30
0
41
1
10
90.638533894695
20
12.1729180566476
30
0
41
1
10
90.675573456429
20
12.274787942225
30
0
41
1
10
90.7034633761762
20
12.3233040845859
30
0
41
1
10
90.7550688745123
20
12.3854398474738
30
0
41
1
10
90.7734540015142
20
12.4042569846191
30
0
41
1
10
90.7932170139527
20
12.4214773545059
30
0
0
SPLINE
5
267
100
AcDbEntity
8
1
62
256
6
ByLayer
370
-1
48
1
60
0
100
AcDbSpline
70
4
71
3
72
10
73
6
40
0
40
0
40
0
40
0
40
0.722254617258852
40
0.722254617258852
40
1
40
1
40
1
40
1
41
1
10
90.8966334467426
20
12.4678449382479
30
0
41
1
10
90.9465381236384
20
12.4921615696966
30
0
41
1
10
91.0015087255539
20
12.5084741975072
30
0
41
1
10
91.0785901637134
20
12.5181415458612
30
0
41
1
10
91.1004228019469
20
12.5194861163459
30
0
41
1
10
91.1222117941134
20
12.5194494029736
30
0
0
SPLINE
5
268
100
AcDbEntity
8
1
62
256
6
ByLayer
370
-1
48
1
60
0
100
AcDbSpline
70
4
71
3
72
8
73
4
40
0
40
0
40
0
40
0
40
1
40
1
40
1
40
1
41
1
10
91.1231947459697
20
12.5195752736869
30
0
41
1
10
91.1228674486191
20
12.5195334243281
30
0
41
1
10
91.1225397962007
20
12.5194914679192
30
0
41
1
10
91.1222117941145
20
12.5194494029735
30
0
0
SPLINE
5
269
100
AcDbEntity
8
1
62
256
6
ByLayer
370
-1
48
1
60
0
100
AcDbSpline
70
4
71
3
72
10
73
6
40
0
40
0
40
0
40
0
40
0.638091248905341
40
0.638091248905341
40
1
40
1
40
1
40
1
41
1
10
90.8966334467426
20
12.4678449382479
30
0
41
1
10
90.8685978312874
20
12.4574756514364
30
0
41
1
10
90.8438312326529
20
12.446361552474
30
0
41
1
10
90.812095010705
20
12.4309769815107
30
0
41
1
10
90.8018623344523
20
12.4257459290081
30
0
41
1
10
90.7932170139508
20
12.4214773545037
30
0
0
SPLINE
5
26A
100
AcDbEntity
8
1
62
256
6
ByLayer
370
-1
48
1
60
0
100
AcDbSpline
70
4
71
3
72
10
73
6
40
0
40
0
40
0
40
0
40
0.709495622816753
40
0.709495622816753
40
1
40
1
40
1
40
1
41
1
10
99.931205898842
20
5.61963082946664
30
0
41
1
10
99.9287534331305
20
5.59507280891148
30
0
41
1
10
99.9221309410939
20
5.56945769790349
30
0
41
1
10
99.9083043093756
20
5.5360319567915
30
0
41
1
10
99.9036778280507
20
5.52643430143962
30
0
41
1
10
99.8985421027961
20
5.51715830363727
30
0
0
SPLINE
5
26B
100
AcDbEntity
8
1
62
256
6
ByLayer
370
-1
48
1
60
0
100
AcDbSpline
70
4
71
3
72
24
73
20
40
0
40
0
40
0
40
0
40
0.0154450745970775
40
0.0154450745970775
40
0.0417985895668856
40
0.0417985895668856
40
0.0483972597877284
40
0.0483972597877284
40
0.102103855500617
40
0.102103855500617
40
0.185330321122065
40
0.185330321122065
40
0.354377449491658
40
0.354377449491658
40
0.535348727399473
40
0.535348727399473
40
0.666091500997366
40
0.666091500997366
40
1
40
1
40
1
40
1
41
1
10
98.6151538154919
20
8.71281684724201
30
0
41
1
10
98.6141944096306
20
8.71586419749764
30
0
41
1
10
98.6136752576174
20
8.71906069538954
30
0
41
1
10
98.6134606556868
20
8.72758026330501
30
0
41
1
10
98.614571180002
20
8.73297984146024
30
0
41
1
10
98.6168579523849
20
8.7392705592942
30
0
41
1
10
98.6173676630204
20
8.74052769706594
30
0
41
1
10
98.6223162607559
20
8.75169641526924
30
0
41
1
10
98.6291111068649
20
8.7605933429262
30
0
41
1
10
98.647918098235
20
8.78126259907526
30
0
41
1
10
98.6611714111494
20
8.79229728919165
30
0
41
1
10
98.7026959197032
20
8.8234089180132
30
0
41
1
10
98.7328806679834
20
8.84133282594348
30
0
41
1
10
98.7964245003498
20
8.87610669975422
30
0
41
1
10
98.8301500789516
20
8.89268763390061
30
0
41
1
10
98.8888717218141
20
8.91991105779417
30
0
41
1
10
98.9137238482399
20
8.93091171275029
30
0
41
1
10
99.0025376834062
20
8.96889948954492
30
0
41
1
10
99.0672933387235
20
8.9942448362109
30
0
41
1
10
99.1324794711793
20
9.01847176625344
30
0
0
SPLINE
5
26C
100
AcDbEntity
8
1
62
256
6
ByLayer
370
-1
48
1
60
0
100
AcDbSpline
70
4
71
3
72
18
73
14
40
0
40
0
40
0
40
0
40
0.439677344605696
40
0.439677344605696
40
0.819840138515295
40
0.819840138515295
40
0.920758376963026
40
0.920758376963026
40
0.968467673881571
40
0.968467673881571
40
0.990240013274144
40
0.990240013274144
40
1
40
1
40
1
40
1
41
1
10
99.4156243699837
20
8.0765571935859
30
0
41
1
10
99.3215234179366
20
8.06879641802911
30
0
41
1
10
99.2271062263633
20
8.06294958897789
30
0
41
1
10
99.0509332270556
20
8.06055181411304
30
0
41
1
10
98.9681662521438
20
8.06087130330272
30
0
41
1
10
98.8663794543691
20
8.08049438024509
30
0
41
1
10
98.8448137405959
20
8.08579299328341
30
0
41
1
10
98.8156777661561
20
8.09925865507222
30
0
41
1
10
98.8064897602854
20
8.1046062049177
30
0
41
1
10
98.795846279341
20
8.11506098117303
30
0
41
1
10
98.7928700360824
20
8.11882955117784
30
0
41
1
10
98.7897351689593
20
8.12481395365074
30
0
41
1
10
98.7889167817798
20
8.12676411670213
30
0
41
1
10
98.7882887261909
20
8.12875900274227
30
0
0
SPLINE
5
26D
100
AcDbEntity
8
1
62
256
6
ByLayer
370
-1
48
1
60
0
100
AcDbSpline
70
4
71
3
72
14
73
10
40
0
40
0
40
0
40
0
40
0.249606055014982
40
0.249606055014982
40
0.499158243446787
40
0.499158243446787
40
0.746144217743591
40
0.746144217743591
40
1
40
1
40
1
40
1
41
1
10
92.2988678216052
20
5.21018087520318
30
0
41
1
10
92.2832127450052
20
5.21921685896075
30
0
41
1
10
92.2675950846987
20
5.22864832941727
30
0
41
1
10
92.2370879542434
20
5.24789006692541
30
0
41
1
10
92.2220922286485
20
5.25776704023244
30
0
41
1
10
92.1933625089836
20
5.27752639807554
30
0
41
1
10
92.179521697856
20
5.28747326022326
30
0
41
1
10
92.1529184690107
20
5.30748388301902
30
0
41
1
10
92.1401040876088
20
5.31761288904036
30
0
41
1
10
92.1282294163912
20
5.32751798252679
30
0
0
SPLINE
5
26E
100
AcDbEntity
8
1
62
256
6
ByLayer
370
-1
48
1
60
0
100
AcDbSpline
70
4
71
3
72
14
73
10
40
0
40
0
40
0
40
0
40
0.24960605501499
40
0.24960605501499
40
0.499158243446874
40
0.499158243446874
40
0.7461442177436
40
0.7461442177436
40
1
40
1
40
1
40
1
41
1
10
99.9288185797055
20
8.34555048386036
30
0
41
1
10
99.9288334068592
20
8.32829810190643
30
0
41
1
10
99.9288744089185
20
8.31146006558754
30
0
41
1
10
99.9290059405457
20
8.27930133718357
30
0
41
1
10
99.9290969086179
20
8.26386835793883
30
0
41
1
10
99.9293237552176
20
8.23504919126253
30
0
41
1
10
99.9294599123583
20
8.2215478140881
30
0
41
1
10
99.9297776667997
20
8.19639487588955
30
0
41
1
10
99.9299615286451
20
8.18471758511006
30
0
41
1
10
99.9301645144408
20
8.17436078870253
30
0
0
SPLINE
5
26F
100
AcDbEntity
8
1
62
256
6
ByLayer
370
-1
48
1
60
0
100
AcDbSpline
70
4
71
3
72
16
73
12
40
0
40
0
40
0
40
0
40
0.0426292751498866
40
0.0426292751498866
40
0.099643616628721
40
0.099643616628721
40
0.207156078099336
40
0.207156078099336
40
0.580806890299229
40
0.580806890299229
40
1
40
1
40
1
40
1
41
1
10
92.6337017156807
20
6.38243069061034
30
0
41
1
10
92.6240257739078
20
6.38480352521364
30
0
41
1
10
92.6137585618197
20
6.3853426506991
30
0
41
1
10
92.5905891298298
20
6.38304450804688
30
0
41
1
10
92.5775603074866
20
6.37910918154276
30
0
41
1
10
92.5425354771614
20
6.36407447268735
30
0
41
1
10
92.5217845810963
20
6.34969293343119
30
0
41
1
10
92.4368666025425
20
6.28033680933225
30
0
41
1
10
92.3852893036275
20
6.21121457489343
30
0
41
1
10
92.2837353000848
20
6.06379862616566
30
0
41
1
10
92.2356176393653
20
5.98202508274906
30
0
41
1
10
92.1902865385463
20
5.89905534038687
30
0
0
SPLINE
5
270
100
AcDbEntity
8
1
62
256
6
ByLayer
370
-1
48
1
60
0
100
AcDbSpline
70
4
71
3
72
12
73
8
40
0
40
0
40
0
40
0
40
0.474376698371054
40
0.474376698371054
40
0.706219783413809
40
0.706219783413809
40
1
40
1
40
1
40
1
41
1
10
92.541521341396
20
12.7760408293622
30
0
41
1
10
92.5640272513861
20
12.7834533540439
30
0
41
1
10
92.5900562996099
20
12.7939292726391
30
0
41
1
10
92.6307315433508
20
12.81263996525
30
0
41
1
10
92.6446083744865
20
12.8193802989646
30
0
41
1
10
92.6763681539067
20
12.8355693298914
30
0
41
1
10
92.6944977191442
20
12.8453450375598
30
0
41
1
10
92.712485216158
20
12.8555508083197
30
0
0
SPLINE
5
271
100
AcDbEntity
8
1
62
256
6
ByLayer
370
-1
48
1
60
0
100
AcDbSpline
70
4
71
2
72
6
73
3
40
0
40
0
40
0
40
1
40
1
40
1
41
0.500001283460075
10
99.4779866932226
20
4.6232068286943
30
0
41
0.499998716539925
10
99.4784028025995
20
4.62236755279514
30
0
41
0.500001283460075
10
99.4788184035137
20
4.6215312923707
30
0
0
SPLINE
5
272
100
AcDbEntity
8
1
62
256
6
ByLayer
370
-1
48
1
60
0
100
AcDbSpline
70
4
71
3
72
16
73
12
40
0
40
0
40
0
40
0
40
0.0426292751498927
40
0.0426292751498927
40
0.099643616628714
40
0.099643616628714
40
0.207156078099338
40
0.207156078099338
40
0.580806890299264
40
0.580806890299264
40
1
40
1
40
1
40
1
41
1
10
98.7632924993804
20
8.12252302055927
30
0
41
1
10
98.7660411984967
20
8.11325048693479
30
0
41
1
10
98.7707316707448
20
8.10439294695351
30
0
41
1
10
98.7844671885375
20
8.08614827046975
30
0
41
1
10
98.7945603828549
20
8.07719994544809
30
0
41
1
10
98.8256876469509
20
8.05535488216532
30
0
41
1
10
98.8490365732361
20
8.04512810862468
30
0
41
1
10
98.9540019155125
20
8.00848803815219
30
0
41
1
10
99.0419568229719
20
7.99962649290205
30
0
41
1
10
99.2252818347612
20
7.98779240534245
30
0
41
1
10
99.3228346308489
20
7.98810153818349
30
0
41
1
10
99.4200555765011
20
7.99133547274823
30
0
0
SPLINE
5
273
100
AcDbEntity
8
1
62
256
6
ByLayer
370
-1
48
1
60
0
100
AcDbSpline
70
4
71
3
72
20
73
16
40
0
40
0
40
0
40
0
40
0.511365204367441
40
0.511365204367441
40
0.617167309555448
40
0.617167309555448
40
0.785488434327092
40
0.785488434327092
40
0.873398812153864
40
0.873398812153864
40
0.935684402254232
40
0.935684402254232
40
0.978722765374141
40
0.978722765374141
40
1
40
1
40
1
40
1
41
1
10
93.0623215128037
20
12.1703386782686
30
0
41
1
10
93.1588419751794
20
12.1068769247207
30
0
41
1
10
93.2580997158312
20
12.0463216852593
30
0
41
1
10
93.3846693756342
20
11.9864233537816
30
0
41
1
10
93.4067019160876
20
11.976647955955
30
0
41
1
10
93.4645529821068
20
11.9534094047997
30
0
41
1
10
93.5010680851526
20
11.9408311440281
30
0
41
1
10
93.5582470269165
20
11.9289392305923
30
0
41
1
10
93.5783508642
20
11.926144996617
30
0
41
1
10
93.6126045468015
20
11.9261542319456
30
0
41
1
10
93.627023505916
20
11.9276026312924
30
0
41
1
10
93.6499808064597
20
11.9342999489616
30
0
41
1
10
93.6591200837171
20
11.938351584792
30
0
41
1
10
93.6711233336505
20
11.9465359828104
30
0
41
1
10
93.6748775092763
20
11.9496294585905
30
0
41
1
10
93.6782836379094
20
11.9530220440044
30
0
0
SPLINE
5
274
100
AcDbEntity
8
1
62
256
6
ByLayer
370
-1
48
1
60
0
100
AcDbSpline
70
4
71
3
72
12
73
8
40
0
40
0
40
0
40
0
40
0.347623173836804
40
0.347623173836804
40
0.696503371294511
40
0.696503371294511
40
1
40
1
40
1
40
1
41
1
10
89.324563489464
20
7.32322667964328
30
0
41
1
10
89.3174886405836
20
7.3345209735852
30
0
41
1
10
89.3082734829346
20
7.34490898508076
30
0
41
1
10
89.2868915215766
20
7.36247643812581
30
0
41
1
10
89.2743906795927
20
7.36989429846113
30
0
41
1
10
89.2497533416291
20
7.38013819473608
30
0
41
1
10
89.2374909526799
20
7.38355473409391
30
0
41
1
10
89.2254260720381
20
7.38548666000085
30
0
0
SPLINE
5
275
100
AcDbEntity
8
1
62
256
6
ByLayer
370
-1
48
1
60
0
100
AcDbSpline
70
4
71
3
72
24
73
20
40
0
40
0
40
0
40
0
40
0.015445074597074
40
0.015445074597074
40
0.0417985895668014
40
0.0417985895668014
40
0.0483972597876438
40
0.0483972597876438
40
0.102103855500433
40
0.102103855500433
40
0.185330321121813
40
0.185330321121813
40
0.35437744949115
40
0.35437744949115
40
0.5353487273987
40
0.5353487273987
40
0.666091501001301
40
0.666091501001301
40
1
40
1
40
1
40
1
41
1
10
93.2368304953329
20
6.20799614609882
30
0
41
1
10
93.2400362369561
20
6.20726713906811
30
0
41
1
10
93.2431627834358
20
6.20608389515289
30
0
41
1
10
93.2509294018768
20
6.2019258464519
30
0
41
1
10
93.2552477329253
20
6.19821962341342
30
0
41
1
10
93.2597976113133
20
6.19304861734861
30
0
41
1
10
93.2606813130396
20
6.19196994690617
30
0
41
1
10
93.2683287257741
20
6.18202575184435
30
0
41
1
10
93.2730382889658
20
6.17165320469783
30
0
41
1
10
93.2825157425412
20
6.14495966966186
30
0
41
1
10
93.2860188834566
20
6.12794809945751
30
0
41
1
10
93.2938818284722
20
6.07641176699966
30
0
41
1
10
93.2953785333896
20
6.04133922650297
30
0
41
1
10
93.2958694021076
20
5.96901134780913
30
0
41
1
10
93.2944441131766
20
5.93157805677885
30
0
41
1
10
93.2904825401377
20
5.86723784073169
30
0
41
1
10
93.2883378205896
20
5.84027264802464
30
0
41
1
10
93.2794824608918
20
5.74458068697919
30
0
41
1
10
93.2709122639889
20
5.67600511859428
30
0
41
1
10
93.2611292740381
20
5.60762641257895
30
0
0
SPLINE
5
276
100
AcDbEntity
8
1
62
256
6
ByLayer
370
-1
48
1
60
0
100
AcDbSpline
70
4
71
3
72
12
73
8
40
0
40
0
40
0
40
0
40
0.474376698371052
40
0.474376698371052
40
0.706219783413747
40
0.706219783413747
40
1
40
1
40
1
40
1
41
1
10
99.9293088935016
20
9.16993280002768
30
0
41
1
10
99.928968152087
20
9.13921639692276
30
0
41
1
10
99.9287026747951
20
9.10580920780058
30
0
41
1
10
99.9284459606277
20
9.05620828486641
30
0
41
1
10
99.9283825030249
20
9.03968357841339
30
0
41
1
10
99.9282887967614
20
9.00271211619551
30
0
41
1
10
99.9282714243002
20
8.98220227939592
30
0
41
1
10
99.9282884283142
20
8.96241697541399
30
0
0
SPLINE
5
277
100
AcDbEntity
8
1
62
256
6
ByLayer
370
-1
48
1
60
0
100
AcDbSpline
70
4
71
3
72
14
73
10
40
0
40
0
40
0
40
0
40
0.249606055014929
40
0.249606055014929
40
0.499158243446788
40
0.499158243446788
40
0.746144217743588
40
0.746144217743588
40
1
40
1
40
1
40
1
41
1
10
93.2732996562534
20
13.1737464755703
30
0
41
1
10
93.2889843871608
20
13.1826456997341
30
0
41
1
10
93.304684051586
20
13.1919405087065
30
0
41
1
10
93.3354542452958
20
13.2109148462967
30
0
41
1
10
93.3506319070349
20
13.220660149995
30
0
41
1
10
93.3798153198994
20
13.2401667884659
30
0
41
1
10
93.3939284453082
20
13.2499916661694
30
0
41
1
10
93.4211671830363
20
13.2697673352095
30
0
41
1
10
93.434349288129
20
13.2797828986409
30
0
41
1
10
93.4466299309381
20
13.2895825839836
30
0
0
SPLINE
5
278
100
AcDbEntity
8
1
62
256
6
ByLayer
370
-1
48
1
60
0
100
AcDbSpline
70
4
71
3
72
12
73
8
40
0
40
0
40
0
40
0
40
0.474376698370955
40
0.474376698370955
40
0.70621978341358
40
0.70621978341358
40
1
40
1
40
1
40
1
41
1
10
93.0316267640547
20
4.80608433076611
30
0
41
1
10
93.0084393712355
20
4.81369625033958
30
0
41
1
10
92.9818793684277
20
4.82440165525961
30
0
41
1
10
92.9406906963518
20
4.84346958286201
30
0
41
1
10
92.9266869500109
20
4.85033158089931
30
0
41
1
10
92.8947397580638
20
4.86679861415658
30
0
41
1
10
92.8765754479039
20
4.87673269981281
30
0
41
1
10
92.858621958918
20
4.8870953086338
30
0
0
SPLINE
5
279
100
AcDbEntity
8
1
62
256
6
ByLayer
370
-1
48
1
60
0
100
AcDbSpline
70
4
71
3
72
18
73
14
40
0
40
0
40
0
40
0
40
0.439677344605744
40
0.439677344605744
40
0.819840138515329
40
0.819840138515329
40
0.920758376963107
40
0.920758376963107
40
0.96846767388166
40
0.96846767388166
40
0.990240013274133
40
0.990240013274133
40
1
40
1
40
1
40
1
41
1
10
92.2764270749264
20
5.84510125318775
30
0
41
1
10
92.3150398882892
20
5.92991152887956
30
0
41
1
10
92.3555300286196
20
6.01401277763063
30
0
41
1
10
92.438740625386
20
6.16659021419642
30
0
41
1
10
92.4791358125622
20
6.23753117204475
30
0
41
1
10
92.5461105968758
20
6.31497099891357
30
0
41
1
10
92.5613269517236
20
6.33079661849663
30
0
41
1
10
92.5875573198841
20
6.34896300547439
30
0
41
1
10
92.5968194305221
20
6.35413053449557
30
0
41
1
10
92.6113803253505
20
6.35794536340026
30
0
41
1
10
92.6162120796345
20
6.35858137920053
30
0
41
1
10
92.6231136453418
20
6.35822427589113
30
0
41
1
10
92.6252642265428
20
6.35793335292999
30
0
41
1
10
92.6273628002793
20
6.35745612326267
30
0
0
SPLINE
5
27A
100
AcDbEntity
8
1
62
256
6
ByLayer
370
-1
48
1
60
0
100
AcDbSpline
70
4
71
3
72
20
73
16
40
0
40
0
40
0
40
0
40
0.511365204367437
40
0.511365204367437
40
0.617167309555414
40
0.617167309555414
40
0.78548843432711
40
0.78548843432711
40
0.873398812153867
40
0.873398812153867
40
0.935684402254223
40
0.935684402254223
40
0.978722765374133
40
0.978722765374133
40
1
40
1
40
1
40
1
41
1
10
99.0905421515043
20
9.11241853568657
30
0
41
1
10
98.9857693315754
20
9.06364360448146
30
0
41
1
10
98.8822441193675
20
9.01111389620351
30
0
41
1
10
98.7657586726925
20
8.93540258519101
30
0
41
1
10
98.7460654548722
20
8.9218949495322
30
0
41
1
10
98.6965340746469
20
8.88520390640352
30
0
41
1
10
98.6671436086565
20
8.8609917979272
30
0
41
1
10
98.6281173327077
20
8.81914538342232
30
0
41
1
10
98.6156391724223
20
8.8037335101678
30
0
41
1
10
98.5986546067453
20
8.77507043527845
30
0
41
1
10
98.5927999473585
20
8.7622769148393
30
0
41
1
10
98.5874149009798
20
8.73969477936186
30
0
41
1
10
98.5865130952957
20
8.73000671488538
30
0
41
1
10
98.5878953134845
20
8.7158399531815
30
0
41
1
10
98.5888060519693
20
8.71114017441843
30
0
41
1
10
98.5901575886813
20
8.70658086505898
30
0
0
SPLINE
5
27B
100
AcDbEntity
8
1
62
256
6
ByLayer
370
-1
48
1
60
0
100
AcDbSpline
70
4
71
3
72
20
73
16
40
0
40
0
40
0
40
0
40
0.511365204366879
40
0.511365204366879
40
0.617167309555283
40
0.617167309555283
40
0.785488434327032
40
0.785488434327032
40
0.873398812153789
40
0.873398812153789
40
0.935684402254178
40
0.935684402254178
40
0.978722765374143
40
0.978722765374143
40
1
40
1
40
1
40
1
41
1
10
93.3587469730172
20
5.60981640855474
30
0
41
1
10
93.3669993305704
20
5.72205309330778
30
0
41
1
10
93.3712668021278
20
5.83513804104706
30
0
41
1
10
93.3611825890001
20
5.97074768353724
30
0
41
1
10
93.3588432663654
20
5.99403071702261
30
0
41
1
10
93.3505235805715
20
6.05396031130672
30
0
41
1
10
93.343398943516
20
6.09075068055463
30
0
41
1
10
93.3252462777009
20
6.14448900849533
30
0
41
1
10
93.3176206007028
20
6.16269511572509
30
0
41
1
10
93.3003514837783
20
6.19134895528595
30
0
41
1
10
93.2917871840506
20
6.20269407637824
30
0
41
1
10
93.2742149298857
20
6.21857889418655
30
0
41
1
10
93.2659774583124
20
6.22421532283258
30
0
41
1
10
93.2525919901901
20
6.23019768651807
30
0
41
1
10
93.2479270760795
20
6.231803989501
30
0
41
1
10
93.2431694107344
20
6.23297071344652
30
0
0
SPLINE
5
27C
100
AcDbEntity
8
1
62
256
6
ByLayer
370
-1
48
1
60
0
100
AcDbSpline
70
4
71
3
72
12
73
8
40
0
40
0
40
0
40
0
40
0.347623173836913
40
0.347623173836913
40
0.696503371294875
40
0.696503371294875
40
1
40
1
40
1
40
1
41
1
10
99.4841252467711
20
4.73744596379467
30
0
41
1
10
99.4770503978908
20
4.72517693413721
30
0
41
1
10
99.4719007205695
20
4.71161639884736
30
0
41
1
10
99.4663304274205
20
4.68414723749942
30
0
41
1
10
99.4658635428459
20
4.66983960752339
30
0
41
1
10
99.4694551123435
20
4.64466621444782
30
0
41
1
10
99.4729802934248
20
4.63330453599428
30
0
41
1
10
99.4779866932225
20
4.62320682869426
30
0
0
SPLINE
5
27D
100
AcDbEntity
8
1
62
256
6
ByLayer
370
-1
48
1
60
0
100
AcDbSpline
70
4
71
3
72
18
73
14
40
0
40
0
40
0
40
0
40
0.439677344605718
40
0.439677344605718
40
0.81984013851526
40
0.81984013851526
40
0.920758376963026
40
0.920758376963026
40
0.968467673881579
40
0.968467673881579
40
0.990240013274122
40
0.990240013274122
40
1
40
1
40
1
40
1
41
1
10
93.8177136101134
20
12.9425840128711
30
0
41
1
10
93.8734738421379
20
12.8697113628992
30
0
41
1
10
93.9276718394035
20
12.7956161811196
30
0
41
1
10
94.0211325465436
20
12.6530858931328
30
0
41
1
10
94.0637369283884
20
12.5853959515041
30
0
41
1
10
94.0988208119491
20
12.4925064709321
30
0
41
1
10
94.1052269345296
20
12.4722536057685
30
0
41
1
10
94.108204674419
20
12.4417288655492
30
0
41
1
10
94.1081525223055
20
12.4315507774569
30
0
41
1
10
94.1042574580355
20
12.4176242567271
30
0
41
1
10
94.1024075854198
20
12.4133062250155
30
0
41
1
10
94.098645365545
20
12.4077476776193
30
0
41
1
10
94.097314059614
20
12.4061020704287
30
0
41
1
10
94.0958438616195
20
12.4045893286613
30
0
0
SPLINE
5
27E
100
AcDbEntity
8
1
62
256
6
ByLayer
370
-1
48
1
60
0
100
AcDbSpline
70
4
71
3
72
12
73
8
40
0
40
0
40
0
40
0
40
0.34762317383675
40
0.34762317383675
40
0.69650337129467
40
0.69650337129467
40
1
40
1
40
1
40
1
41
1
10
96.6826194007186
20
14.5202413776192
30
0
41
1
10
96.6966678476776
20
14.5196618326363
30
0
41
1
10
96.7109381549005
20
14.5213832799838
30
0
41
1
10
96.7377731599582
20
14.5294851155641
30
0
41
1
10
96.7507179949087
20
14.536023480731
30
0
41
1
10
96.7718344427971
20
14.5520379631345
30
0
41
1
10
96.7806519843863
20
14.5612162890355
30
0
41
1
10
96.7878399044045
20
14.571369065168
30
0
0
SPLINE
5
27F
100
AcDbEntity
8
1
62
256
6
ByLayer
370
-1
48
1
60
0
100
AcDbSpline
70
4
71
2
72
6
73
3
40
0
40
0
40
0
40
1
40
1
40
1
41
0.50000128511924
10
89.2254260720382
20
7.38548666000084
30
0
41
0.49999871488076
10
89.2244232935614
20
7.38564723297092
30
0
41
0.50000128511924
10
89.2234221311149
20
7.38580932434724
30
0
0
SPLINE
5
280
100
AcDbEntity
8
1
62
256
6
ByLayer
370
-1
48
1
60
0
100
AcDbSpline
70
4
71
3
72
10
73
6
40
0
40
0
40
0
40
0
40
0.709495622816666
40
0.709495622816666
40
1
40
1
40
1
40
1
41
1
10
95.7698038349676
20
14.6064123582382
30
0
41
1
10
95.7930546515993
20
14.6165434392561
30
0
41
1
10
95.818166127392
20
14.6219874249781
30
0
41
1
10
95.8528031113536
20
14.6236746442517
30
0
41
1
10
95.8629839697443
20
14.6234717072203
30
0
41
1
10
95.8731008469153
20
14.6226363932798
30
0
0
SPLINE
5
281
100
AcDbEntity
8
1
62
256
6
ByLayer
370
-1
48
1
60
0
100
AcDbSpline
70
4
71
3
72
16
73
12
40
0
40
0
40
0
40
0
40
0.0426292751499114
40
0.0426292751499114
40
0.0996436166287664
40
0.0996436166287664
40
0.207156078099364
40
0.207156078099364
40
0.580806890299268
40
0.580806890299268
40
1
40
1
40
1
40
1
41
1
10
94.114616422264
20
12.3876199113403
30
0
41
1
10
94.1215436649206
20
12.3945196103615
30
0
41
1
10
94.1271204047606
20
12.4028380248573
30
0
41
1
10
94.136554318958
20
12.4233808439934
30
0
41
1
10
94.1394899469838
20
12.4362644955191
30
0
41
1
10
94.1433875132128
20
12.4731442676573
30
0
41
1
10
94.1407894829928
20
12.4977525804541
30
0
41
1
10
94.1207421192701
20
12.6037487750255
30
0
41
1
10
94.0843645107257
20
12.6817325547145
30
0
41
1
10
94.0025935024792
20
12.8409825910018
30
0
41
1
10
93.9531583671109
20
12.9224470015774
30
0
41
1
10
93.9012685222777
20
13.0021828093749
30
0
0
SPLINE
5
282
100
AcDbEntity
8
1
62
256
6
ByLayer
370
-1
48
1
60
0
100
AcDbSpline
70
4
71
3
72
24
73
20
40
0
40
0
40
0
40
0
40
0.0154450745970043
40
0.0154450745970043
40
0.0417985895668479
40
0.0417985895668479
40
0.0483972597876719
40
0.0483972597876719
40
0.102103855500578
40
0.102103855500578
40
0.185330321122001
40
0.185330321122001
40
0.354377449491632
40
0.354377449491632
40
0.535348727399447
40
0.535348727399447
40
0.666091500997344
40
0.666091500997344
40
1
40
1
40
1
40
1
41
1
10
93.6595110772648
20
11.9699914613254
30
0
41
1
10
93.6572652305627
20
11.9676806255588
30
0
41
1
10
93.6546569782996
20
11.9656542037167
30
0
41
1
10
93.6470993833281
20
11.9612070506699
30
0
41
1
10
93.6416634817384
20
11.9594055303532
30
0
41
1
10
93.6348158199376
20
11.9581167904758
30
0
41
1
10
93.6334200583772
20
11.957902261072
30
0
41
1
10
93.6208019908416
20
11.9563391443537
30
0
41
1
10
93.6092719546991
20
11.9574213713445
30
0
41
1
10
93.5809193985498
20
11.962400088838
30
0
41
1
10
93.5641174680789
20
11.9676788661505
30
0
41
1
10
93.5145899095937
20
11.9859528473912
30
0
41
1
10
93.4828098480983
20
12.0015877638019
30
0
41
1
10
93.4185693836333
20
12.0359831363986
30
0
41
1
10
93.3861610745211
20
12.0551773085543
30
0
41
1
10
93.3312138517763
20
12.0894211538426
30
0
41
1
10
93.3084275358792
20
12.104174375464
30
0
41
1
10
93.2281877602043
20
12.1575603767459
30
0
41
1
10
93.1717984242115
20
12.1976609144383
30
0
41
1
10
93.1161905812906
20
12.2386703754825
30
0
0
SPLINE
5
283
100
AcDbEntity
8
1
62
256
6
ByLayer
370
-1
48
1
60
0
100
AcDbSpline
70
4
71
2
72
6
73
3
40
0
40
0
40
0
40
1
40
1
40
1
41
0.500001284340826
10
96.7878399044046
20
14.5713690651681
30
0
41
0.499998715659174
10
96.7884373319052
20
14.57221291814
30
0
41
0.500001284340826
10
96.789033979457
20
14.573057266447
30
0
0
SPLINE
5
284
100
AcDbEntity
8
1
62
256
6
ByLayer
370
-1
48
1
60
0
100
AcDbSpline
70
4
71
3
72
8
73
4
40
0
40
0
40
0
40
0
40
1
40
1
40
1
40
1
41
1
10
100.026735144036
20
0.638860126854468
30
0
41
1
10
100.030980300259
20
0.635854291637855
30
0
41
1
10
100.035225547907
20
0.632848481026599
30
0
41
1
10
100.039470882667
20
0.629842693862457
30
0
0
SPLINE
5
285
100
AcDbEntity
8
1
62
256
6
ByLayer
370
-1
48
1
60
0
100
AcDbSpline
70
4
71
3
72
22
73
18
40
0
40
0
40
0
40
0
40
0.208266363442643
40
0.208266363442643
40
0.317899168105404
40
0.317899168105404
40
0.427584739861806
40
0.427584739861806
40
0.537377253733009
40
0.537377253733009
40
0.647402228731019
40
0.647402228731019
40
0.811583680502299
40
0.811583680502299
40
0.906636022131508
40
0.906636022131508
40
1
40
1
40
1
40
1
41
1
10
100.081022207045
20
-0.0939532614272878
30
0
41
1
10
100.082454585216
20
-0.0863828907360471
30
0
41
1
10
100.083253099998
20
-0.0768986861669987
30
0
41
1
10
100.083332732673
20
-0.0594928747272263
30
0
41
1
10
100.083150063394
20
-0.0529333844704638
30
0
41
1
10
100.08227995319
20
-0.0386690128413818
30
0
41
1
10
100.081592068356
20
-0.0309483682297866
30
0
41
1
10
100.079571821067
20
-0.0142493373420791
30
0
41
1
10
100.078236915806
20
-0.0052434689986285
30
0
41
1
10
100.07469609691
20
0.0141815533497152
30
0
41
1
10
100.07248050497
20
0.0246568278516293
30
0
41
1
10
100.065480554814
20
0.0524996244936062
30
0
41
1
10
100.059837796686
20
0.071293967813375
30
0
41
1
10
100.04766882571
20
0.102798049855863
30
0
41
1
10
100.042369865482
20
0.115024307808
30
0
41
1
10
100.030655377692
20
0.138641891959594
30
0
41
1
10
100.024105508881
20
0.150326519497895
30
0
41
1
10
100.017382800331
20
0.160923000849891
30
0
0
SPLINE
5
286
100
AcDbEntity
8
1
62
256
6
ByLayer
370
-1
48
1
60
0
100
AcDbSpline
70
4
71
3
72
22
73
18
40
0
40
0
40
0
40
0
40
0.208266363443416
40
0.208266363443416
40
0.317899168106082
40
0.317899168106082
40
0.427584739862368
40
0.427584739862368
40
0.537377253733433
40
0.537377253733433
40
0.647402228731348
40
0.647402228731348
40
0.811583680502428
40
0.811583680502428
40
0.906636022131556
40
0.906636022131556
40
1
40
1
40
1
40
1
41
1
10
100.102321579534
20
2.26447458437144
30
0
41
1
10
100.101144384049
20
2.28515997342464
30
0
41
1
10
100.09929620538
20
2.30451439501914
30
0
41
1
10
100.09533845802
20
2.33139392657748
30
0
41
1
10
100.093759271355
20
2.34020644600727
30
0
41
1
10
100.090107334977
20
2.35668206377042
30
0
41
1
10
100.088031005517
20
2.36436402305296
30
0
41
1
10
100.083262086833
20
2.37829752735354
30
0
41
1
10
100.080562398905
20
2.38457235065181
30
0
41
1
10
100.074350465491
20
2.39523191745221
30
0
41
1
10
100.070821075532
20
2.39964482243272
30
0
41
1
10
100.060718867915
20
2.40726266207588
30
0
41
1
10
100.053308517068
20
2.40896096738209
30
0
41
1
10
100.038940320875
20
2.40374660067201
30
0
41
1
10
100.032948283056
20
2.40002976041714
30
0
41
1
10
100.020269851277
20
2.38889154742481
30
0
41
1
10
100.013433276899
20
2.38137265727778
30
0
41
1
10
100.006639479046
20
2.37255885853435
30
0
0
SPLINE
5
287
100
AcDbEntity
8
1
62
256
6
ByLayer
370
-1
48
1
60
0
100
AcDbSpline
70
4
71
3
72
8
73
4
40
0
40
0
40
0
40
0
40
1
40
1
40
1
40
1
41
1
10
100.020580085623
20
1.89538586893013
30
0
41
1
10
100.024769799718
20
1.89916771366251
30
0
41
1
10
100.028959605679
20
1.90294952882911
30
0
41
1
10
100.033149499176
20
1.90673131582147
30
0
0
SPLINE
5
288
100
AcDbEntity
8
1
62
256
6
ByLayer
370
-1
48
1
60
0
100
AcDbSpline
70
4
71
3
72
22
73
18
40
0
40
0
40
0
40
0
40
0.20826636344346
40
0.20826636344346
40
0.317899168106134
40
0.317899168106134
40
0.427584739862444
40
0.427584739862444
40
0.537377253733543
40
0.537377253733543
40
0.647402228731466
40
0.647402228731466
40
0.811583680502557
40
0.811583680502557
40
0.906636022131713
40
0.906636022131713
40
1
40
1
40
1
40
1
41
1
10
100.127974174268
20
0.90281511890754
30
0
41
1
10
100.128229356954
20
0.931070878652008
30
0
41
1
10
100.127781957691
20
0.959912467289655
30
0
41
1
10
100.125876459711
20
1.00420751337452
30
0
41
1
10
100.124991631129
20
1.01958383706312
30
0
41
1
10
100.122688353076
20
1.05033474033607
30
0
41
1
10
100.12126785331
20
1.06574395381563
30
0
41
1
10
100.117756536857
20
1.0963926123886
30
0
41
1
10
100.115660711685
20
1.1116828406191
30
0
41
1
10
100.110578835001
20
1.14179040529623
30
0
41
1
10
100.107578745315
20
1.15669208660441
30
0
41
1
10
100.098636852894
20
1.19219286234591
30
0
41
1
10
100.091803219816
20
1.21271610389635
30
0
41
1
10
100.077918590476
20
1.23906805568407
30
0
41
1
10
100.07201273457
20
1.24760396230894
30
0
41
1
10
100.059263592751
20
1.26014060794262
30
0
41
1
10
100.052271695112
20
1.26433779940689
30
0
41
1
10
100.045217505231
20
1.26615226944645
30
0
0
SPLINE
5
289
100
AcDbEntity
8
1
62
256
6
ByLayer
370
-1
48
1
60
0
100
AcDbSpline
70
4
71
3
72
24
73
20
40
0
40
0
40
0
40
0
40
0.104000448201737
40
0.104000448201737
40
0.19249905546091
40
0.19249905546091
40
0.328500518746698
40
0.328500518746698
40
0.438682575665444
40
0.438682575665444
40
0.548533158171952
40
0.548533158171952
40
0.658237202770079
40
0.658237202770079
40
0.767870673661279
40
0.767870673661279
40
0.988088331634795
40
0.988088331634795
40
1
40
1
40
1
40
1
41
1
10
100.039470882667
20
0.629842693862457
30
0
41
1
10
100.047260649093
20
0.625443062411023
30
0
41
1
10
100.055032127921
20
0.623670956247793
30
0
41
1
10
100.06790007728
20
0.625597384779127
30
0
41
1
10
100.073386122574
20
0.628496442315821
30
0
41
1
10
100.085630363555
20
0.639503354745443
30
0
41
1
10
100.091758340907
20
0.649645866416165
30
0
41
1
10
100.100919602754
20
0.671012226712236
30
0
41
1
10
100.104394954758
20
0.681834096418726
30
0
41
1
10
100.110368991849
20
0.704821740468645
30
0
41
1
10
100.112887677135
20
0.717058761721688
30
0
41
1
10
100.11721093519
20
0.742431425690739
30
0
41
1
10
100.119022755445
20
0.755613527248386
30
0
41
1
10
100.122088554256
20
0.782616946852897
30
0
41
1
10
100.123345686941
20
0.796471101509496
30
0
41
1
10
100.126423962685
20
0.838808617046027
30
0
41
1
10
100.127566348608
20
0.868142243606769
30
0
41
1
10
100.127942546467
20
0.899575913879232
30
0
41
1
10
100.127959539858
20
0.901194686174449
30
0
41
1
10
100.127974174268
20
0.90281511890754
30
0
0
SPLINE
5
28A
100
AcDbEntity
8
1
62
256
6
ByLayer
370
-1
48
1
60
0
100
AcDbSpline
70
4
71
3
72
24
73
20
40
0
40
0
40
0
40
0
40
0.104000448201826
40
0.104000448201826
40
0.192499055460992
40
0.192499055460992
40
0.32850051874674
40
0.32850051874674
40
0.438682575665458
40
0.438682575665458
40
0.548533158171962
40
0.548533158171962
40
0.658237202770089
40
0.658237202770089
40
0.767870673661288
40
0.767870673661288
40
0.988088331634787
40
0.988088331634787
40
1
40
1
40
1
40
1
41
1
10
100.033149499176
20
1.9067313158215
30
0
41
1
10
100.040772101805
20
1.91474118781633
30
0
41
1
10
100.048223272875
20
1.92524496412926
30
0
41
1
10
100.060280557453
20
1.94716496931633
30
0
41
1
10
100.065301404029
20
1.95843904644946
30
0
41
1
10
100.076252312047
20
1.98764014533961
30
0
41
1
10
100.08147298741
20
2.0063651983433
30
0
41
1
10
100.088942815842
20
2.03948798973784
30
0
41
1
10
100.091629639353
20
2.05430408784346
30
0
41
1
10
100.096017504113
20
2.08322328423742
30
0
41
1
10
100.097733456574
20
2.09742097231219
30
0
41
1
10
100.100453908746
20
2.12508857385876
30
0
41
1
10
100.101462711731
20
2.1386094110533
30
0
41
1
10
100.102931590985
20
2.16492630603977
30
0
41
1
10
100.103392887976
20
2.1777541182573
30
0
41
1
10
100.104100173391
20
2.21520225339805
30
0
41
1
10
100.10367954188
20
2.23885866780094
30
0
41
1
10
100.102454361001
20
2.26209740236339
30
0
41
1
10
100.102389090234
20
2.26328830299656
30
0
41
1
10
100.102321579534
20
2.26447458437144
30
0
0
SPLINE
5
28B
100
AcDbEntity
8
1
62
256
6
ByLayer
370
-1
48
1
60
0
100
AcDbSpline
70
4
71
3
72
8
73
4
40
0
40
0
40
0
40
0
40
1
40
1
40
1
40
1
41
1
10
100.045217505229
20
1.26615226944665
30
0
41
1
10
100.040948699691
20
1.26655919434165
30
0
41
1
10
100.036679981087
20
1.26696612291872
30
0
41
1
10
100.032411353721
20
1.26737305535977
30
0
0
SPLINE
5
28C
100
AcDbEntity
8
1
62
256
6
ByLayer
370
-1
48
1
60
0
100
AcDbSpline
70
4
71
3
72
10
73
6
40
0
40
0
40
0
40
0
40
0.709495622816999
40
0.709495622816999
40
1
40
1
40
1
40
1
41
1
10
89.8106009035156
20
6.66653043480508
30
0
41
1
10
89.7898025525954
20
6.6809573743424
30
0
41
1
10
89.7710800375326
20
6.69754360749167
30
0
41
1
10
89.749818683946
20
6.72235889838217
30
0
41
1
10
89.7441160707407
20
6.72988394758957
30
0
41
1
10
89.7389803454861
20
6.73762243509384
30
0
0
LINE
5
4B
100
AcDbEntity
8
1
62
256
6
ByLayer
370
-1
48
1
60
0
100
AcDbLine
10
99.207628
20
1.441709
30
0
11
99.274513
21
2.468439
31
0
39
0
210
0
220
0
230
1
0
LINE
5
4C
100
AcDbEntity
8
1
62
256
6
ByLayer
370
-1
48
1
60
0
100
AcDbLine
10
99.555968
20
3.310488
30
0
11
99.619842
21
4.291007
31
0
39
0
210
0
220
0
230
1
0
LINE
5
4D
100
AcDbEntity
8
1
62
256
6
ByLayer
370
-1
48
1
60
0
100
AcDbLine
10
99.862581
20
4.564049
30
0
11
99.931887
21
5.62795
31
0
39
0
210
0
220
0
230
1
0
LINE
5
4E
100
AcDbEntity
8
1
62
256
6
ByLayer
370
-1
48
1
60
0
100
AcDbLine
10
87.299768
20
8.82577
30
0
11
87.232908
21
7.799424
31
0
39
0
210
0
220
0
230
1
0
LINE
5
4F
100
AcDbEntity
8
1
62
256
6
ByLayer
370
-1
48
1
60
0
100
AcDbLine
10
88.435895
20
8.166652
30
0
11
88.372072
21
7.186917
31
0
39
0
210
0
220
0
230
1
0
LINE
5
50
100
AcDbEntity
8
SK1
62
256
6
ByLayer
370
-1
48
1
60
0
100
AcDbLine
10
-199.32
20
-12.49125
30
0
11
0
21
-12.49125
31
0
39
0
210
0
220
0
230
1
0
LINE
5
52
100
AcDbEntity
8
1
62
256
6
ByLayer
370
-1
48
1
60
0
100
AcDbLine
10
99.993281
20
0.650463
30
0
11
99.992475
21
0.650459
31
0
39
0
210
0
220
0
230
1
0
LINE
5
53
100
AcDbEntity
8
1
62
256
6
ByLayer
370
-1
48
1
60
0
100
AcDbLine
10
92.461856
20
9.211864
30
0
11
92.439209
21
8.891341
31
0
39
0
210
0
220
0
230
1
0
LINE
5
54
100
AcDbEntity
8
1
62
256
6
ByLayer
370
-1
48
1
60
0
100
AcDbLine
10
97.875655
20
8.507211
30
0
11
97.898302
21
8.827735
31
0
39
0
210
0
220
0
230
1
0
LINE
5
55
100
AcDbEntity
8
1
62
256
6
ByLayer
370
-1
48
1
60
0
100
AcDbLine
10
94.133211
20
7.811522
30
0
11
94.151635
21
8.072275
31
0
39
0
210
0
220
0
230
1
0
LINE
5
56
100
AcDbEntity
8
1
62
256
6
ByLayer
370
-1
48
1
60
0
100
AcDbLine
10
96.204911
20
8.102362
30
0
11
96.179282
21
7.739644
31
0
39
0
210
0
220
0
230
1
0
LINE
5
57
100
AcDbEntity
8
1
62
256
6
ByLayer
370
-1
48
1
60
0
100
AcDbLine
10
94.125525
20
9.516581
30
0
11
94.151173
21
9.879573
31
0
39
0
210
0
220
0
230
1
0
LINE
5
58
100
AcDbEntity
8
1
62
256
6
ByLayer
370
-1
48
1
60
0
100
AcDbLine
10
96.205072
20
9.918468
30
0
11
96.17912
21
9.551176
31
0
39
0
210
0
220
0
230
1
0
LINE
5
59
100
AcDbEntity
8
1
62
256
6
ByLayer
370
-1
48
1
60
0
100
AcDbLine
10
70.554801
20
-12.49125
30
0
11
70.916922
21
-12.28218
31
0
39
0
210
0
220
0
230
1
0
LINE
5
5A
100
AcDbEntity
8
1
62
256
6
ByLayer
370
-1
48
1
60
0
100
AcDbLine
10
71.316922
20
-12.175
30
0
11
82.174171
21
-12.175
31
0
39
0
210
0
220
0
230
1
0
LINE
5
5B
100
AcDbEntity
8
1
62
256
6
ByLayer
370
-1
48
1
60
0
100
AcDbLine
10
82.174171
20
12.175
30
0
11
80.268812
21
12.175
31
0
39
0
210
0
220
0
230
1
0
LINE
5
5C
100
AcDbEntity
8
1
62
256
6
ByLayer
370
-1
48
1
60
0
100
AcDbLine
10
82.300266
20
-12.185
30
0
11
82.549866
21
-12.185
31
0
39
0
210
0
220
0
230
1
0
LINE
5
5D
100
AcDbEntity
8
1
62
256
6
ByLayer
370
-1
48
1
60
0
100
AcDbLine
10
0
20
-12.49125
30
0
11
70.554801
21
-12.49125
31
0
39
0
210
0
220
0
230
1
0
LINE
5
5E
100
AcDbEntity
8
1
62
256
6
ByLayer
370
-1
48
1
60
0
100
AcDbLine
10
83.446636
20
13.246886
30
0
11
82.787007
21
12.46077
31
0
39
0
210
0
220
0
230
1
0
LINE
5
5F
100
AcDbEntity
8
1
62
256
6
ByLayer
370
-1
48
1
60
0
100
AcDbLine
10
95.748448
20
14.595882
30
0
11
93.627836
21
13.42235
31
0
39
0
210
0
220
0
230
1
0
LINE
5
60
100
AcDbEntity
8
1
62
256
6
ByLayer
370
-1
48
1
60
0
100
AcDbLine
10
99.922524
20
13.858581
30
0
11
99.919247
21
13.107538
31
0
39
0
210
0
220
0
230
1
0
LINE
5
61
100
AcDbEntity
8
SK4
62
256
6
ByLayer
370
-1
48
0.05
60
0
100
AcDbLine
10
-206.32
20
0
30
0
11
104.93
21
0
31
0
39
0
210
0
220
0
230
1
0
LINE
5
63
100
AcDbEntity
8
80
62
256
6
ByLayer
370
-1
48
1
60
0
100
AcDbLine
10
0
20
0
30
0
11
-5
21
0
31
0
39
0
210
0
220
0
230
1
0
LINE
5
64
100
AcDbEntity
8
81
62
256
6
ByLayer
370
-1
48
1
60
0
100
AcDbLine
10
99.93
20
16.875
30
0
11
104.93
21
16.875
31
0
39
0
210
0
220
0
230
1
0
LINE
5
65
100
AcDbEntity
8
4
62
256
6
ByLayer
370
-1
48
0.05
60
0
100
AcDbLine
10
0
20
0
30
0
11
301.25
21
0
31
0
39
0
210
0
220
0
230
1
0
LINE
5
67
100
AcDbEntity
8
1
62
256
6
ByLayer
370
-1
48
1
60
0
100
AcDbLine
10
90.338016
20
11.908401
30
0
11
90.338016
21
11.601765
31
0
39
0
210
0
220
0
230
1
0
LINE
5
68
100
AcDbEntity
8
1
62
256
6
ByLayer
370
-1
48
1
60
0
100
AcDbLine
10
86.958509
20
10.124674
30
0
11
90.367318
21
12.010823
31
0
39
0
210
0
220
0
230
1
0
LINE
5
69
100
AcDbEntity
8
1
62
256
6
ByLayer
370
-1
48
1
60
0
100
AcDbLine
10
78.102562
20
10.00875
30
0
11
71.316922
21
10.00875
31
0
39
0
210
0
220
0
230
1
0
LINE
5
6A
100
AcDbEntity
8
1
62
256
6
ByLayer
370
-1
48
1
60
0
100
AcDbLine
10
0
20
-4.87661
30
0
11
70.554801
21
-4.87661
31
0
39
0
210
0
220
0
230
1
0
LINE
5
6B
100
AcDbEntity
8
1
62
256
6
ByLayer
370
-1
48
1
60
0
100
AcDbLine
10
83.658612
20
13.471597
30
0
11
90.367318
21
13.442322
31
0
39
0
210
0
220
0
230
1
0
LINE
5
6C
100
AcDbEntity
8
1
62
256
6
ByLayer
370
-1
48
1
60
0
100
AcDbLine
10
91.461977
20
5.393502
30
0
11
96.20199
21
2.727226
31
0
39
0
210
0
220
0
230
1
0
LINE
5
6D
100
AcDbEntity
8
1
62
256
6
ByLayer
370
-1
48
1
60
0
100
AcDbLine
10
82.300266
20
-12.185
30
0
11
82.300266
21
-4.027931
31
0
39
0
210
0
220
0
230
1
0
LINE
5
6E
100
AcDbEntity
8
1
62
256
6
ByLayer
370
-1
48
1
60
0
100
AcDbLine
10
70.554801
20
4.87661
30
0
11
0
21
4.87661
31
0
39
0
210
0
220
0
230
1
0
LINE
5
6F
100
AcDbEntity
8
1
62
256
6
ByLayer
370
-1
48
1
60
0
100
AcDbLine
10
0
20
-4.87661
30
0
11
0
21
-12.49125
31
0
39
0
210
0
220
0
230
1
0
LINE
5
70
100
AcDbEntity
8
1
62
256
6
ByLayer
370
-1
48
1
60
0
100
AcDbLine
10
87.815958
20
9.678267
30
0
11
86.198384
21
8.783688
31
0
39
0
210
0
220
0
230
1
0
LINE
5
71
100
AcDbEntity
8
1
62
256
6
ByLayer
370
-1
48
1
60
0
100
AcDbLine
10
92.981736
20
-6.241463
30
0
11
92.103495
21
-6.741839
31
0
39
0
210
0
220
0
230
1
0
LINE
5
72
100
AcDbEntity
8
1
62
256
6
ByLayer
370
-1
48
1
60
0
100
AcDbLine
10
90.367318
20
12.010823
30
0
11
90.367318
21
13.442322
31
0
39
0
210
0
220
0
230
1
0
LINE
5
73
100
AcDbEntity
8
1
62
256
6
ByLayer
370
-1
48
1
60
0
100
AcDbLine
10
71.316922
20
3.997577
30
0
11
79.286883
21
3.997577
31
0
39
0
210
0
220
0
230
1
0
LINE
5
74
100
AcDbEntity
8
1
62
256
6
ByLayer
370
-1
48
1
60
0
100
AcDbLine
10
82.787007
20
12.46077
30
0
11
82.787007
21
12.405868
31
0
39
0
210
0
220
0
230
1
0
LINE
5
75
100
AcDbEntity
8
1
62
256
6
ByLayer
370
-1
48
1
60
0
100
AcDbLine
10
92.981736
20
-6.241463
30
0
11
82.043115
21
12.109541
31
0
39
0
210
0
220
0
230
1
0
LINE
5
76
100
AcDbEntity
8
1
62
256
6
ByLayer
370
-1
48
1
60
0
100
AcDbLine
10
85.996017
20
-4.027931
30
0
11
82.300266
21
-4.027931
31
0
39
0
210
0
220
0
230
1
0
LINE
5
77
100
AcDbEntity
8
1
62
256
6
ByLayer
370
-1
48
1
60
0
100
AcDbLine
10
90.715982
20
-7.532372
30
0
11
82.549866
21
-12.185
31
0
39
0
210
0
220
0
230
1
0
LINE
5
78
100
AcDbEntity
8
1
62
256
6
ByLayer
370
-1
48
1
60
0
100
AcDbLine
10
0
20
10.00875
30
0
11
70.554801
21
10.00875
31
0
39
0
210
0
220
0
230
1
0
LINE
5
79
100
AcDbEntity
8
1
62
256
6
ByLayer
370
-1
48
1
60
0
100
AcDbLine
10
71.316922
20
3.997577
30
0
11
71.316922
21
10.00875
31
0
39
0
210
0
220
0
230
1
0
LINE
5
7A
100
AcDbEntity
8
1
62
256
6
ByLayer
370
-1
48
1
60
0
100
AcDbLine
10
92.103494
20
-6.741839
30
0
11
90.715982
21
-7.532372
31
0
39
0
210
0
220
0
230
1
0
LINE
5
7B
100
AcDbEntity
8
1
62
256
6
ByLayer
370
-1
48
1
60
0
100
AcDbLine
10
70.916922
20
-12.28218
30
0
11
70.916922
21
-4.312996
31
0
39
0
210
0
220
0
230
1
0
LINE
5
7C
100
AcDbEntity
8
1
62
256
6
ByLayer
370
-1
48
1
60
0
100
AcDbLine
10
88.771327
20
6.887517
30
0
11
90.75339
21
5.772598
31
0
39
0
210
0
220
0
230
1
0
LINE
5
7D
100
AcDbEntity
8
1
62
256
6
ByLayer
370
-1
48
1
60
0
100
AcDbLine
10
88.771327
20
6.887517
30
0
11
88.583741
21
6.954083
31
0
39
0
210
0
220
0
230
1
0
LINE
5
7E
100
AcDbEntity
8
1
62
256
6
ByLayer
370
-1
48
1
60
0
100
AcDbLine
10
83.812911
20
7.166725
30
0
11
80.992163
21
11.898908
31
0
39
0
210
0
220
0
230
1
0
LINE
5
7F
100
AcDbEntity
8
1
62
256
6
ByLayer
370
-1
48
1
60
0
100
AcDbLine
10
92.103494
20
-6.741839
30
0
11
85.642137
21
4.097953
31
0
39
0
210
0
220
0
230
1
0
LINE
5
80
100
AcDbEntity
8
1
62
256
6
ByLayer
370
-1
48
1
60
0
100
AcDbLine
10
88.583741
20
6.954083
30
0
11
99.362902
21
0.889981
31
0
39
0
210
0
220
0
230
1
0
LINE
5
81
100
AcDbEntity
8
1
62
256
6
ByLayer
370
-1
48
1
60
0
100
AcDbLine
10
96.814554
20
2.363169
30
0
11
99.349707
21
0.937135
31
0
39
0
210
0
220
0
230
1
0
LINE
5
82
100
AcDbEntity
8
1
62
256
6
ByLayer
370
-1
48
1
60
0
100
AcDbLine
10
80.268812
20
12.175
30
0
11
78.102562
21
10.00875
31
0
39
0
210
0
220
0
230
1
0
LINE
5
83
100
AcDbEntity
8
1
62
256
6
ByLayer
370
-1
48
1
60
0
100
AcDbLine
10
99.362902
20
-2.605806
30
0
11
92.981736
21
-6.241463
31
0
39
0
210
0
220
0
230
1
0
LINE
5
84
100
AcDbEntity
8
1
62
256
6
ByLayer
370
-1
48
1
60
0
100
AcDbLine
10
82.174171
20
-3.997577
30
0
11
71.316922
21
-3.997577
31
0
39
0
210
0
220
0
230
1
0
LINE
5
85
100
AcDbEntity
8
1
62
256
6
ByLayer
370
-1
48
1
60
0
100
AcDbLine
10
71.316922
20
-3.997577
30
0
11
71.316922
21
-12.175
31
0
39
0
210
0
220
0
230
1
0
LINE
5
86
100
AcDbEntity
8
1
62
256
6
ByLayer
370
-1
48
1
60
0
100
AcDbLine
10
99.349707
20
0.937135
30
0
11
99.362902
21
0.889981
31
0
39
0
210
0
220
0
230
1
0
LINE
5
87
100
AcDbEntity
8
1
62
256
6
ByLayer
370
-1
48
1
60
0
100
AcDbLine
10
79.286883
20
3.997577
30
0
11
85.996017
21
-4.027931
31
0
39
0
210
0
220
0
230
1
0
LINE
5
88
100
AcDbEntity
8
1
62
256
6
ByLayer
370
-1
48
1
60
0
100
AcDbLine
10
82.174171
20
12.175
30
0
11
82.174171
21
12.109786
31
0
39
0
210
0
220
0
230
1
0
LINE
5
89
100
AcDbEntity
8
1
62
256
6
ByLayer
370
-1
48
1
60
0
100
AcDbLine
10
82.174171
20
-3.997577
30
0
11
82.174171
21
-12.175
31
0
39
0
210
0
220
0
230
1
0
LINE
5
8A
100
AcDbEntity
8
1
62
256
6
ByLayer
370
-1
48
1
60
0
100
AcDbLine
10
90.233782
20
11.544101
30
0
11
90.367318
21
12.010823
31
0
39
0
210
0
220
0
230
1
0
LINE
5
8B
100
AcDbEntity
8
1
62
256
6
ByLayer
370
-1
48
1
60
0
100
AcDbLine
10
0
20
-4.87661
30
0
11
0
21
4.87661
31
0
39
0
210
0
220
0
230
1
0
LINE
5
8C
100
AcDbEntity
8
1
62
256
6
ByLayer
370
-1
48
1
60
0
100
AcDbLine
10
99.362902
20
0.889981
30
0
11
99.362902
21
-2.605806
31
0
39
0
210
0
220
0
230
1
0
LINE
5
8D
100
AcDbEntity
8
1
62
256
6
ByLayer
370
-1
48
1
60
0
100
AcDbLine
10
88.551014
20
6.92474
30
0
11
88.583741
21
6.954083
31
0
39
0
210
0
220
0
230
1
0
LINE
5
8E
100
AcDbEntity
8
1
62
256
6
ByLayer
370
-1
48
1
60
0
100
AcDbLine
10
70.916922
20
4.312996
30
0
11
70.916922
21
10.00875
31
0
39
0
210
0
220
0
230
1
0
LINE
5
8F
100
AcDbEntity
8
1
62
256
6
ByLayer
370
-1
48
1
60
0
100
AcDbLine
10
70.554801
20
-12.49125
30
0
11
70.554801
21
-4.87661
31
0
39
0
210
0
220
0
230
1
0
LINE
5
90
100
AcDbEntity
8
1
62
256
6
ByLayer
370
-1
48
1
60
0
100
AcDbLine
10
70.554801
20
4.87661
30
0
11
70.554801
21
10.00875
31
0
39
0
210
0
220
0
230
1
0
LINE
5
91
100
AcDbEntity
8
1
62
256
6
ByLayer
370
-1
48
1
60
0
100
AcDbLine
10
0
20
10.00875
30
0
11
0
21
4.87661
31
0
39
0
210
0
220
0
230
1
0
LINE
5
92
100
AcDbEntity
8
1
62
256
6
ByLayer
370
-1
48
1
60
0
100
AcDbLine
10
100.015376
20
0.160913
30
0
11
100.017383
21
0.160923
31
0
39
0
210
0
220
0
230
1
0
LINE
5
93
100
AcDbEntity
8
1
62
256
6
ByLayer
370
-1
48
1
60
0
100
AcDbLine
10
99.986875
20
1.906504
30
0
11
100.033149
21
1.906731
31
0
39
0
210
0
220
0
230
1
0
LINE
5
94
100
AcDbEntity
8
1
62
256
6
ByLayer
370
-1
48
1
60
0
100
AcDbLine
10
99.982057
20
1.267125
30
0
11
100.032411
21
1.267373
31
0
39
0
210
0
220
0
230
1
0
LINE
5
95
100
AcDbEntity
8
1
62
256
6
ByLayer
370
-1
48
1
60
0
100
AcDbLine
10
99.986623
20
1.895219
30
0
11
100.02058
21
1.895386
31
0
39
0
210
0
220
0
230
1
0
LINE
5
96
100
AcDbEntity
8
1
62
256
6
ByLayer
370
-1
48
1
60
0
100
AcDbLine
10
99.982055
20
1.265842
30
0
11
100.045218
21
1.266152
31
0
39
0
210
0
220
0
230
1
0
LINE
5
97
100
AcDbEntity
8
1
62
256
6
ByLayer
370
-1
48
1
60
0
100
AcDbLine
10
98.608973
20
1.353794
30
0
11
99.119108
21
1.35903
31
0
39
0
210
0
220
0
230
1
0
LINE
5
98
100
AcDbEntity
8
1
62
256
6
ByLayer
370
-1
48
1
60
0
100
AcDbLine
10
97.450689
20
2.262782
30
0
11
97.434512
21
2.01444
31
0
39
0
210
0
220
0
230
1
0
LINE
5
99
100
AcDbEntity
8
1
62
256
6
ByLayer
370
-1
48
1
60
0
100
AcDbLine
10
89.830803
20
6.653887
30
0
11
89.808034
21
6.304363
31
0
39
0
210
0
220
0
230
1
0
LINE
5
9A
100
AcDbEntity
8
1
62
256
6
ByLayer
370
-1
48
1
60
0
100
AcDbLine
10
97.308229
20
2.085461
30
0
11
97.321343
21
2.286775
31
0
39
0
210
0
220
0
230
1
0
LINE
5
9B
100
AcDbEntity
8
1
62
256
6
ByLayer
370
-1
48
1
60
0
100
AcDbLine
10
98.844417
20
3.304993
30
0
11
98.83739
21
3.197135
31
0
39
0
210
0
220
0
230
1
0
LINE
5
9C
100
AcDbEntity
8
1
62
256
6
ByLayer
370
-1
48
1
60
0
100
AcDbLine
10
98.966415
20
3.508596
30
0
11
98.935757
21
3.037979
31
0
39
0
210
0
220
0
230
1
0
LINE
5
9D
100
AcDbEntity
8
1
62
256
6
ByLayer
370
-1
48
1
60
0
100
AcDbLine
10
99.134162
20
3.584394
30
0
11
99.083176
21
2.80172
31
0
39
0
210
0
220
0
230
1
0
LINE
5
9E
100
AcDbEntity
8
1
62
256
6
ByLayer
370
-1
48
1
60
0
100
AcDbLine
10
99.065776
20
3.573998
30
0
11
99.021869
21
2.899987
31
0
39
0
210
0
220
0
230
1
0
LINE
5
9F
100
AcDbEntity
8
1
62
256
6
ByLayer
370
-1
48
1
60
0
100
AcDbLine
10
99.60651
20
4.086324
30
0
11
99.829585
21
4.458615
31
0
39
0
210
0
220
0
230
1
0
LINE
5
A0
100
AcDbEntity
8
1
62
256
6
ByLayer
370
-1
48
1
60
0
100
AcDbLine
10
99.484125
20
4.737446
30
0
11
99.476911
21
4.626705
31
0
39
0
210
0
220
0
230
1
0
LINE
5
A1
100
AcDbEntity
8
1
62
256
6
ByLayer
370
-1
48
1
60
0
100
AcDbLine
10
89.714195
20
6.357142
30
0
11
89.73898
21
6.737622
31
0
39
0
210
0
220
0
230
1
0
LINE
5
A2
100
AcDbEntity
8
1
62
256
6
ByLayer
370
-1
48
1
60
0
100
AcDbLine
10
89.324563
20
7.323227
30
0
11
89.277628
21
6.602725
31
0
39
0
210
0
220
0
230
1
0
LINE
5
A3
100
AcDbEntity
8
1
62
256
6
ByLayer
370
-1
48
1
60
0
100
AcDbLine
10
88.921124
20
7.434752
30
0
11
88.881441
21
6.825588
31
0
39
0
210
0
220
0
230
1
0
LINE
5
A4
100
AcDbEntity
8
1
62
256
6
ByLayer
370
-1
48
1
60
0
100
AcDbLine
10
88.784218
20
7.526507
30
0
11
88.743242
21
6.897498
31
0
39
0
210
0
220
0
230
1
0
LINE
5
A5
100
AcDbEntity
8
1
62
256
6
ByLayer
370
-1
48
1
60
0
100
AcDbLine
10
89.225426
20
7.385487
30
0
11
89.178082
21
6.658722
31
0
39
0
210
0
220
0
230
1
0
LINE
5
A6
100
AcDbEntity
8
1
62
256
6
ByLayer
370
-1
48
1
60
0
100
AcDbLine
10
88.395828
20
7.088963
30
0
11
88.508401
21
6.900107
31
0
39
0
210
0
220
0
230
1
0
LINE
5
A7
100
AcDbEntity
8
1
62
256
6
ByLayer
370
-1
48
1
60
0
100
AcDbLine
10
88.472294
20
8.39023
30
0
11
88.463033
21
8.248076
31
0
39
0
210
0
220
0
230
1
0
LINE
5
A8
100
AcDbEntity
8
1
62
256
6
ByLayer
370
-1
48
1
60
0
100
AcDbLine
10
88.287166
20
7.625804
30
0
11
88.38948
21
7.454157
31
0
39
0
210
0
220
0
230
1
0
LINE
5
A9
100
AcDbEntity
8
1
62
256
6
ByLayer
370
-1
48
1
60
0
100
AcDbLine
10
87.853701
20
6.694815
30
0
11
87.528561
21
6.877234
31
0
39
0
210
0
220
0
230
1
0
LINE
5
AA
100
AcDbEntity
8
1
62
256
6
ByLayer
370
-1
48
1
60
0
100
AcDbLine
10
91.657775
20
12.649778
30
0
11
91.657775
21
12.332096
31
0
39
0
210
0
220
0
230
1
0
LINE
5
AB
100
AcDbEntity
8
1
62
256
6
ByLayer
370
-1
48
1
60
0
100
AcDbLine
10
91.955223
20
12.648729
30
0
11
91.955223
21
12.496736
31
0
39
0
210
0
220
0
230
1
0
LINE
5
AC
100
AcDbEntity
8
1
62
256
6
ByLayer
370
-1
48
1
60
0
100
AcDbLine
10
91.472367
20
12.62944
30
0
11
91.472367
21
12.229475
31
0
39
0
210
0
220
0
230
1
0
LINE
5
AD
100
AcDbEntity
8
1
62
256
6
ByLayer
370
-1
48
1
60
0
100
AcDbLine
10
91.228354
20
12.54496
30
0
11
91.228354
21
12.094386
31
0
39
0
210
0
220
0
230
1
0
LINE
5
AE
100
AcDbEntity
8
1
62
256
6
ByLayer
370
-1
48
1
60
0
100
AcDbLine
10
91.122212
20
12.51945
30
0
11
91.122212
21
12.035719
31
0
39
0
210
0
220
0
230
1
0
LINE
5
AF
100
AcDbEntity
8
1
62
256
6
ByLayer
370
-1
48
1
60
0
100
AcDbLine
10
90.793217
20
12.421477
30
0
11
90.793217
21
11.853651
31
0
39
0
210
0
220
0
230
1
0
LINE
5
B0
100
AcDbEntity
8
1
62
256
6
ByLayer
370
-1
48
1
60
0
100
AcDbLine
10
87.528561
20
6.877234
30
0
11
87.528561
21
7.701386
31
0
39
0
210
0
220
0
230
1
0
LINE
5
B1
100
AcDbEntity
8
1
62
256
6
ByLayer
370
-1
48
1
60
0
100
AcDbLine
10
90.628874
20
11.76273
30
0
11
90.628874
21
12.064112
31
0
39
0
210
0
220
0
230
1
0
LINE
5
B2
100
AcDbEntity
8
1
62
256
6
ByLayer
370
-1
48
1
60
0
100
AcDbLine
10
90.896633
20
12.467845
30
0
11
90.896633
21
11.910817
31
0
39
0
210
0
220
0
230
1
0
LINE
5
B3
100
AcDbEntity
8
1
62
256
6
ByLayer
370
-1
48
1
60
0
100
AcDbLine
10
87.361842
20
7.704519
30
0
11
87.361842
21
6.71643
31
0
39
0
210
0
220
0
230
1
0
LINE
5
B4
100
AcDbEntity
8
1
62
256
6
ByLayer
370
-1
48
1
60
0
100
AcDbLine
10
92.13842
20
12.62709
30
0
11
92.13842
21
12.598079
31
0
39
0
210
0
220
0
230
1
0
LINE
5
B5
100
AcDbEntity
8
1
62
256
6
ByLayer
370
-1
48
1
60
0
100
AcDbLine
10
90.552353
20
11.720391
30
0
11
90.628874
21
12.064112
31
0
39
0
210
0
220
0
230
1
0
LINE
5
B6
100
AcDbEntity
8
1
62
256
6
ByLayer
370
-1
48
1
60
0
100
AcDbLine
10
94.09592
20
7.878418
30
0
11
94.102841
21
7.976376
31
0
39
0
210
0
220
0
230
1
0
LINE
5
B7
100
AcDbEntity
8
1
62
256
6
ByLayer
370
-1
48
1
60
0
100
AcDbLine
10
96.246621
20
7.828553
30
0
11
96.256345
21
7.966183
31
0
39
0
210
0
220
0
230
1
0
LINE
5
B8
100
AcDbEntity
8
1
62
256
6
ByLayer
370
-1
48
1
60
0
100
AcDbLine
10
94.106645
20
7.852588
30
0
11
94.116212
21
7.987994
31
0
39
0
210
0
220
0
230
1
0
LINE
5
B9
100
AcDbEntity
8
1
62
256
6
ByLayer
370
-1
48
1
60
0
100
AcDbLine
10
96.230266
20
7.804168
30
0
11
96.242544
21
7.977929
31
0
39
0
210
0
220
0
230
1
0
LINE
5
BA
100
AcDbEntity
8
SK1
62
256
6
ByLayer
370
-1
48
1
60
0
100
AcDbLine
10
0
20
-4.87661
30
0
11
0
21
-12.49125
31
0
39
0
210
0
220
0
230
1
0
LINE
5
BB
100
AcDbEntity
8
1
62
256
6
ByLayer
370
-1
48
1
60
0
100
AcDbLine
10
95.541372
20
10.029232
30
0
11
95.547782
21
10.047934
31
0
39
0
210
0
220
0
230
1
0
LINE
5
BC
100
AcDbEntity
8
1
62
256
6
ByLayer
370
-1
48
1
60
0
100
AcDbLine
10
94.757025
20
10.051676
30
0
11
94.763435
21
10.032915
31
0
39
0
210
0
220
0
230
1
0
LINE
5
BD
100
AcDbEntity
8
1
62
256
6
ByLayer
370
-1
48
1
60
0
100
AcDbLine
10
94.763435
20
10.032915
30
0
11
94.79041
21
10.414677
31
0
39
0
210
0
220
0
230
1
0
LINE
5
BE
100
AcDbEntity
8
1
62
256
6
ByLayer
370
-1
48
1
60
0
100
AcDbLine
10
96.604538
20
8.997287
30
0
11
96.631512
21
9.379049
31
0
39
0
210
0
220
0
230
1
0
LINE
5
BF
100
AcDbEntity
8
1
62
256
6
ByLayer
370
-1
48
1
60
0
100
AcDbLine
10
96.624534
20
9.001195
30
0
11
96.651724
21
9.386004
31
0
39
0
210
0
220
0
230
1
0
LINE
5
C0
100
AcDbEntity
8
1
62
256
6
ByLayer
370
-1
48
1
60
0
100
AcDbLine
10
95.547782
20
10.047934
30
0
11
95.574972
21
10.432742
31
0
39
0
210
0
220
0
230
1
0
LINE
5
C1
100
AcDbEntity
8
1
62
256
6
ByLayer
370
-1
48
1
60
0
100
AcDbLine
10
96.604538
20
8.997287
30
0
11
96.624534
21
9.001195
31
0
39
0
210
0
220
0
230
1
0
LINE
5
C2
100
AcDbEntity
8
1
62
256
6
ByLayer
370
-1
48
1
60
0
100
AcDbLine
10
93.700269
20
9.011034
30
0
11
93.727244
21
9.392796
31
0
39
0
210
0
220
0
230
1
0
LINE
5
C3
100
AcDbEntity
8
1
62
256
6
ByLayer
370
-1
48
1
60
0
100
AcDbLine
10
93.680273
20
9.01513
30
0
11
93.707463
21
9.399939
31
0
39
0
210
0
220
0
230
1
0
LINE
5
C4
100
AcDbEntity
8
1
62
256
6
ByLayer
370
-1
48
1
60
0
100
AcDbLine
10
95.541372
20
10.029232
30
0
11
95.568347
21
10.410995
31
0
39
0
210
0
220
0
230
1
0
LINE
5
C5
100
AcDbEntity
8
1
62
256
6
ByLayer
370
-1
48
1
60
0
100
AcDbLine
10
94.757025
20
10.051676
30
0
11
94.784215
21
10.436485
31
0
39
0
210
0
220
0
230
1
0
LINE
5
C6
100
AcDbEntity
8
1
62
256
6
ByLayer
370
-1
48
1
60
0
100
AcDbLine
10
93.680273
20
9.01513
30
0
11
93.700269
21
9.011034
31
0
39
0
210
0
220
0
230
1
0
LINE
5
C7
100
AcDbEntity
8
1
62
256
6
ByLayer
370
-1
48
1
60
0
100
AcDbLine
10
91.955223
20
12.648729
30
0
11
91.657775
21
12.649778
31
0
39
0
210
0
220
0
230
1
0
LINE
5
C8
100
AcDbEntity
8
1
62
256
6
ByLayer
370
-1
48
1
60
0
100
AcDbLine
10
89.830803
20
6.653887
30
0
11
91.951415
21
5.461847
31
0
39
0
210
0
220
0
230
1
0
LINE
5
C9
100
AcDbEntity
8
1
62
256
6
ByLayer
370
-1
48
1
60
0
100
AcDbLine
10
96.430596
20
2.732083
30
0
11
96.653654
21
2.827221
31
0
39
0
210
0
220
0
230
1
0
LINE
5
CA
100
AcDbEntity
8
1
62
256
6
ByLayer
370
-1
48
1
60
0
100
AcDbLine
10
89.100302
20
10.490105
30
0
11
88.94253
21
10.632466
31
0
39
0
210
0
220
0
230
1
0
LINE
5
CB
100
AcDbEntity
8
1
62
256
6
ByLayer
370
-1
48
1
60
0
100
AcDbLine
10
88.239982
20
8.662541
30
0
11
87.388161
21
8.729691
31
0
39
0
210
0
220
0
230
1
0
LINE
5
CC
100
AcDbEntity
8
1
62
256
6
ByLayer
370
-1
48
1
60
0
100
AcDbLine
10
98.246975
20
3.213637
30
0
11
97.933697
21
3.034044
31
0
39
0
210
0
220
0
230
1
0
LINE
5
CD
100
AcDbEntity
8
1
62
256
6
ByLayer
370
-1
48
1
60
0
100
AcDbLine
10
99.260901
20
2.42856
30
0
11
99.193975
21
1.401194
31
0
39
0
210
0
220
0
230
1
0
LINE
5
CE
100
AcDbEntity
8
1
62
256
6
ByLayer
370
-1
48
1
60
0
100
AcDbLine
10
95.961737
20
14.611298
30
0
11
96.169005
21
14.570768
31
0
39
0
210
0
220
0
230
1
0
LINE
5
CF
100
AcDbEntity
8
1
62
256
6
ByLayer
370
-1
48
1
60
0
100
AcDbLine
10
89.122019
20
10.731794
30
0
11
88.94253
21
10.632466
31
0
39
0
210
0
220
0
230
1
0
LINE
5
D0
100
AcDbEntity
8
1
62
256
6
ByLayer
370
-1
48
1
60
0
100
AcDbLine
10
96.68989
20
2.589582
30
0
11
96.739476
21
2.812684
31
0
39
0
210
0
220
0
230
1
0
LINE
5
D1
100
AcDbEntity
8
1
62
256
6
ByLayer
370
-1
48
1
60
0
100
AcDbLine
10
87.310598
20
8.859814
30
0
11
88.145453
21
10.211962
31
0
39
0
210
0
220
0
230
1
0
LINE
5
D2
100
AcDbEntity
8
1
62
256
6
ByLayer
370
-1
48
1
60
0
100
AcDbLine
10
98.246975
20
3.213637
30
0
11
98.540636
21
2.742992
31
0
39
0
210
0
220
0
230
1
0
LINE
5
D3
100
AcDbEntity
8
1
62
256
6
ByLayer
370
-1
48
1
60
0
100
AcDbLine
10
97.793727
20
3.27819
30
0
11
98.107005
21
3.457783
31
0
39
0
210
0
220
0
230
1
0
LINE
5
D4
100
AcDbEntity
8
1
62
256
6
ByLayer
370
-1
48
1
60
0
100
AcDbLine
10
93.243169
20
6.232971
30
0
11
92.633702
21
6.382431
31
0
39
0
210
0
220
0
230
1
0
LINE
5
D5
100
AcDbEntity
8
1
62
256
6
ByLayer
370
-1
48
1
60
0
100
AcDbLine
10
99.931756
20
9.390559
30
0
11
99.929309
21
9.169933
31
0
39
0
210
0
220
0
230
1
0
LINE
5
D6
100
AcDbEntity
8
1
62
256
6
ByLayer
370
-1
48
1
60
0
100
AcDbLine
10
92.286809
20
12.680235
30
0
11
93.062322
21
12.170339
31
0
39
0
210
0
220
0
230
1
0
LINE
5
D7
100
AcDbEntity
8
1
62
256
6
ByLayer
370
-1
48
1
60
0
100
AcDbLine
10
98.924316
20
14.688889
30
0
11
99.229028
21
14.155681
31
0
39
0
210
0
220
0
230
1
0
LINE
5
D8
100
AcDbEntity
8
1
62
256
6
ByLayer
370
-1
48
1
60
0
100
AcDbLine
10
98.831184
20
15.295776
30
0
11
98.827154
21
14.745747
31
0
39
0
210
0
220
0
230
1
0
LINE
5
D9
100
AcDbEntity
8
1
62
256
6
ByLayer
370
-1
48
1
60
0
100
AcDbLine
10
88.028794
20
8.986801
30
0
11
88.624848
21
8.939813
31
0
39
0
210
0
220
0
230
1
0
LINE
5
DA
100
AcDbEntity
8
1
62
256
6
ByLayer
370
-1
48
1
60
0
100
AcDbLine
10
98.632813
20
2.809273
30
0
11
98.339152
21
3.279918
31
0
39
0
210
0
220
0
230
1
0
LINE
5
DB
100
AcDbEntity
8
1
62
256
6
ByLayer
370
-1
48
1
60
0
100
AcDbLine
10
92.712485
20
12.855551
30
0
11
93.2733
21
13.173746
31
0
39
0
210
0
220
0
230
1
0
LINE
5
DC
100
AcDbEntity
8
1
62
256
6
ByLayer
370
-1
48
1
60
0
100
AcDbLine
10
99.18584
20
2.383424
30
0
11
97.450689
21
2.262782
31
0
39
0
210
0
220
0
230
1
0
LINE
5
DD
100
AcDbEntity
8
1
62
256
6
ByLayer
370
-1
48
1
60
0
100
AcDbLine
10
89.856952
20
11.320144
30
0
11
89.693593
21
6.801621
31
0
39
0
210
0
220
0
230
1
0
LINE
5
DE
100
AcDbEntity
8
1
62
256
6
ByLayer
370
-1
48
1
60
0
100
AcDbLine
10
97.909483
20
14.823903
30
0
11
97.949438
21
14.7663
31
0
39
0
210
0
220
0
230
1
0
LINE
5
DF
100
AcDbEntity
8
1
62
256
6
ByLayer
370
-1
48
1
60
0
100
AcDbLine
10
99.689085
20
13.030844
30
0
11
96.789034
21
14.573057
31
0
39
0
210
0
220
0
230
1
0
LINE
5
E0
100
AcDbEntity
8
1
62
256
6
ByLayer
370
-1
48
1
60
0
100
AcDbLine
10
96.142903
20
2.932735
30
0
11
95.720214
21
3.326741
31
0
39
0
210
0
220
0
230
1
0
LINE
5
E1
100
AcDbEntity
8
1
62
256
6
ByLayer
370
-1
48
1
60
0
100
AcDbLine
10
93.901269
20
13.002183
30
0
11
93.627836
21
13.42235
31
0
39
0
210
0
220
0
230
1
0
LINE
5
E2
100
AcDbEntity
8
1
62
256
6
ByLayer
370
-1
48
1
60
0
100
AcDbLine
10
93.116191
20
12.23867
30
0
11
92.379868
21
12.722799
31
0
39
0
210
0
220
0
230
1
0
LINE
5
E3
100
AcDbEntity
8
1
62
256
6
ByLayer
370
-1
48
1
60
0
100
AcDbLine
10
98.966415
20
3.508596
30
0
11
98.844417
21
3.304993
31
0
39
0
210
0
220
0
230
1
0
LINE
5
E4
100
AcDbEntity
8
1
62
256
6
ByLayer
370
-1
48
1
60
0
100
AcDbLine
10
95.720214
20
3.326741
30
0
11
99.853154
21
5.431652
31
0
39
0
210
0
220
0
230
1
0
LINE
5
E5
100
AcDbEntity
8
1
62
256
6
ByLayer
370
-1
48
1
60
0
100
AcDbLine
10
99.026647
20
15.294923
30
0
11
99.563532
21
14.355444
31
0
39
0
210
0
220
0
230
1
0
LINE
5
E6
100
AcDbEntity
8
1
62
256
6
ByLayer
370
-1
48
1
60
0
100
AcDbLine
10
87.321429
20
7.705297
30
0
11
88.176566
21
7.689057
31
0
39
0
210
0
220
0
230
1
0
LINE
5
E7
100
AcDbEntity
8
1
62
256
6
ByLayer
370
-1
48
1
60
0
100
AcDbLine
10
92.128229
20
5.327518
30
0
11
92.276427
21
5.845101
31
0
39
0
210
0
220
0
230
1
0
LINE
5
E8
100
AcDbEntity
8
1
62
256
6
ByLayer
370
-1
48
1
60
0
100
AcDbLine
10
89.042693
20
10.429533
30
0
11
89.223422
21
7.385809
31
0
39
0
210
0
220
0
230
1
0
LINE
5
E9
100
AcDbEntity
8
1
62
256
6
ByLayer
370
-1
48
1
60
0
100
AcDbLine
10
92.286809
20
12.680235
30
0
11
89.981901
21
11.404715
31
0
39
0
210
0
220
0
230
1
0
LINE
5
EA
100
AcDbEntity
8
1
62
256
6
ByLayer
370
-1
48
1
60
0
100
AcDbLine
10
89.223422
20
7.385809
30
0
11
88.921124
21
7.434752
31
0
39
0
210
0
220
0
230
1
0
LINE
5
EB
100
AcDbEntity
8
1
62
256
6
ByLayer
370
-1
48
1
60
0
100
AcDbLine
10
97.934387
20
2.604403
30
0
11
98.535082
21
2.646168
31
0
39
0
210
0
220
0
230
1
0
LINE
5
EC
100
AcDbEntity
8
1
62
256
6
ByLayer
370
-1
48
1
60
0
100
AcDbLine
10
97.939942
20
2.701226
30
0
11
97.933697
21
3.034044
31
0
39
0
210
0
220
0
230
1
0
LINE
5
ED
100
AcDbEntity
8
1
62
256
6
ByLayer
370
-1
48
1
60
0
100
AcDbLine
10
89.586088
20
6.938032
30
0
11
89.375139
21
10.490678
31
0
39
0
210
0
220
0
230
1
0
LINE
5
EE
100
AcDbEntity
8
1
62
256
6
ByLayer
370
-1
48
1
60
0
100
AcDbLine
10
92.858622
20
4.887095
30
0
11
92.298868
21
5.210181
31
0
39
0
210
0
220
0
230
1
0
LINE
5
EF
100
AcDbEntity
8
1
62
256
6
ByLayer
370
-1
48
1
60
0
100
AcDbLine
10
98.535082
20
2.646168
30
0
11
98.976728
21
2.462037
31
0
39
0
210
0
220
0
230
1
0
LINE
5
F0
100
AcDbEntity
8
1
62
256
6
ByLayer
370
-1
48
1
60
0
100
AcDbLine
10
93.292442
20
4.708029
30
0
11
95.597349
21
3.412393
31
0
39
0
210
0
220
0
230
1
0
LINE
5
F1
100
AcDbEntity
8
1
62
256
6
ByLayer
370
-1
48
1
60
0
100
AcDbLine
10
88.863134
20
10.591554
30
0
11
89.042693
21
10.429533
31
0
39
0
210
0
220
0
230
1
0
LINE
5
F2
100
AcDbEntity
8
1
62
256
6
ByLayer
370
-1
48
1
60
0
100
AcDbLine
10
99.59617
20
4.216396
30
0
11
99.532211
21
3.234576
31
0
39
0
210
0
220
0
230
1
0
LINE
5
F3
100
AcDbEntity
8
1
62
256
6
ByLayer
370
-1
48
1
60
0
100
AcDbLine
10
99.20778
20
2.693131
30
0
11
99.532211
21
3.234576
31
0
39
0
210
0
220
0
230
1
0
LINE
5
F4
100
AcDbEntity
8
1
62
256
6
ByLayer
370
-1
48
1
60
0
100
AcDbLine
10
99.132479
20
9.018472
30
0
11
99.931756
21
9.390559
31
0
39
0
210
0
220
0
230
1
0
LINE
5
F5
100
AcDbEntity
8
1
62
256
6
ByLayer
370
-1
48
1
60
0
100
AcDbLine
10
88.472294
20
8.39023
30
0
11
88.350296
21
8.594898
31
0
39
0
210
0
220
0
230
1
0
LINE
5
F6
100
AcDbEntity
8
1
62
256
6
ByLayer
370
-1
48
1
60
0
100
AcDbLine
10
97.666041
20
2.721855
30
0
11
97.659796
21
3.054672
31
0
39
0
210
0
220
0
230
1
0
LINE
5
F7
100
AcDbEntity
8
1
62
256
6
ByLayer
370
-1
48
1
60
0
100
AcDbLine
10
96.739476
20
2.812684
30
0
11
99.478818
21
4.621531
31
0
39
0
210
0
220
0
230
1
0
LINE
5
F8
100
AcDbEntity
8
1
62
256
6
ByLayer
370
-1
48
1
60
0
100
AcDbLine
10
87.497476
20
8.970446
30
0
11
88.006711
21
9.795213
31
0
39
0
210
0
220
0
230
1
0
LINE
5
F9
100
AcDbEntity
8
1
62
256
6
ByLayer
370
-1
48
1
60
0
100
AcDbLine
10
99.93236
20
9.50431
30
0
11
99.93236
21
12.075466
31
0
39
0
210
0
220
0
230
1
0
LINE
5
FA
100
AcDbEntity
8
1
62
256
6
ByLayer
370
-1
48
1
60
0
100
AcDbLine
10
99.930165
20
8.174361
30
0
11
99.931745
21
8.093725
31
0
39
0
210
0
220
0
230
1
0
LINE
5
FB
100
AcDbEntity
8
1
62
256
6
ByLayer
370
-1
48
1
60
0
100
AcDbLine
10
88.898658
20
9.387689
30
0
11
88.894072
21
9.054919
31
0
39
0
210
0
220
0
230
1
0
LINE
5
FC
100
AcDbEntity
8
1
62
256
6
ByLayer
370
-1
48
1
60
0
100
AcDbLine
10
99.931745
20
8.093725
30
0
11
99.415624
21
8.076557
31
0
39
0
210
0
220
0
230
1
0
LINE
5
FD
100
AcDbEntity
8
1
62
256
6
ByLayer
370
-1
48
1
60
0
100
AcDbLine
10
94.095844
20
12.404589
30
0
11
93.659511
21
11.969991
31
0
39
0
210
0
220
0
230
1
0
LINE
5
FE
100
AcDbEntity
8
1
62
256
6
ByLayer
370
-1
48
1
60
0
100
AcDbLine
10
99.919042
20
12.815383
30
0
11
99.919042
21
13.015604
31
0
39
0
210
0
220
0
230
1
0
LINE
5
FF
100
AcDbEntity
8
1
62
256
6
ByLayer
370
-1
48
1
60
0
100
AcDbLine
10
88.239982
20
8.662541
30
0
11
88.176566
21
7.689057
31
0
39
0
210
0
220
0
230
1
0
LINE
5
100
100
AcDbEntity
8
1
62
256
6
ByLayer
370
-1
48
1
60
0
100
AcDbLine
10
98.557047
20
3.454388
30
0
11
98.339152
21
3.279918
31
0
39
0
210
0
220
0
230
1
0
LINE
5
101
100
AcDbEntity
8
1
62
256
6
ByLayer
370
-1
48
1
60
0
100
AcDbLine
10
96.548278
20
3.105635
30
0
11
96.142903
21
2.932735
31
0
39
0
210
0
220
0
230
1
0
LINE
5
102
100
AcDbEntity
8
1
62
256
6
ByLayer
370
-1
48
1
60
0
100
AcDbLine
10
88.453108
20
9.794696
30
0
11
88.764728
21
9.612375
31
0
39
0
210
0
220
0
230
1
0
LINE
5
103
100
AcDbEntity
8
1
62
256
6
ByLayer
370
-1
48
1
60
0
100
AcDbLine
10
92.858622
20
4.887095
30
0
11
93.23683
21
6.207996
31
0
39
0
210
0
220
0
230
1
0
LINE
5
104
100
AcDbEntity
8
1
62
256
6
ByLayer
370
-1
48
1
60
0
100
AcDbLine
10
98.827154
20
14.745747
30
0
11
98.5178
21
14.215219
31
0
39
0
210
0
220
0
230
1
0
LINE
5
105
100
AcDbEntity
8
1
62
256
6
ByLayer
370
-1
48
1
60
0
100
AcDbLine
10
98.286122
20
14.361018
30
0
11
98.5178
21
14.215219
31
0
39
0
210
0
220
0
230
1
0
LINE
5
106
100
AcDbEntity
8
1
62
256
6
ByLayer
370
-1
48
1
60
0
100
AcDbLine
10
88.220083
20
9.618861
30
0
11
87.931063
21
9.150758
31
0
39
0
210
0
220
0
230
1
0
LINE
5
107
100
AcDbEntity
8
1
62
256
6
ByLayer
370
-1
48
1
60
0
100
AcDbLine
10
88.006711
20
9.795213
30
0
11
88.220083
21
9.618861
31
0
39
0
210
0
220
0
230
1
0
LINE
5
108
100
AcDbEntity
8
1
62
256
6
ByLayer
370
-1
48
1
60
0
100
AcDbLine
10
99.26294
20
2.431962
30
0
11
99.196014
21
1.404597
31
0
39
0
210
0
220
0
230
1
0
LINE
5
109
100
AcDbEntity
8
1
62
256
6
ByLayer
370
-1
48
1
60
0
100
AcDbLine
10
99.26294
20
2.431962
30
0
11
99.260901
21
2.42856
31
0
39
0
210
0
220
0
230
1
0
LINE
5
10A
100
AcDbEntity
8
1
62
256
6
ByLayer
370
-1
48
1
60
0
100
AcDbLine
10
97.115241
20
14.904347
30
0
11
97.764103
21
14.901515
31
0
39
0
210
0
220
0
230
1
0
LINE
5
10B
100
AcDbEntity
8
1
62
256
6
ByLayer
370
-1
48
1
60
0
100
AcDbLine
10
98.286122
20
14.361018
30
0
11
98.831184
21
15.295776
31
0
39
0
210
0
220
0
230
1
0
LINE
5
10C
100
AcDbEntity
8
1
62
256
6
ByLayer
370
-1
48
1
60
0
100
AcDbLine
10
96.169005
20
14.570768
30
0
11
99.553956
21
12.77069
31
0
39
0
210
0
220
0
230
1
0
LINE
5
10D
100
AcDbEntity
8
1
62
256
6
ByLayer
370
-1
48
1
60
0
100
AcDbLine
10
99.271739
20
3.674951
30
0
11
99.20778
21
2.693131
31
0
39
0
210
0
220
0
230
1
0
LINE
5
10E
100
AcDbEntity
8
1
62
256
6
ByLayer
370
-1
48
1
60
0
100
AcDbLine
10
87.313487
20
8.77548
30
0
11
87.246562
21
7.748115
31
0
39
0
210
0
220
0
230
1
0
LINE
5
10F
100
AcDbEntity
8
1
62
256
6
ByLayer
370
-1
48
1
60
0
100
AcDbLine
10
88.459787
20
8.070784
30
0
11
88.395828
21
7.088963
31
0
39
0
210
0
220
0
230
1
0
LINE
5
110
100
AcDbEntity
8
1
62
256
6
ByLayer
370
-1
48
1
60
0
100
AcDbLine
10
89.375139
20
10.490678
30
0
11
89.414606
21
10.929913
31
0
39
0
210
0
220
0
230
1
0
LINE
5
111
100
AcDbEntity
8
1
62
256
6
ByLayer
370
-1
48
1
60
0
100
AcDbLine
10
92.627363
20
6.357456
30
0
11
93.23683
21
6.207996
31
0
39
0
210
0
220
0
230
1
0
LINE
5
112
100
AcDbEntity
8
1
62
256
6
ByLayer
370
-1
48
1
60
0
100
AcDbLine
10
88.450978
20
8.223486
30
0
11
88.478656
21
8.279945
31
0
39
0
210
0
220
0
230
1
0
LINE
5
113
100
AcDbEntity
8
1
62
256
6
ByLayer
370
-1
48
1
60
0
100
AcDbLine
10
88.238234
20
10.294229
30
0
11
88.863134
21
10.591554
31
0
39
0
210
0
220
0
230
1
0
LINE
5
114
100
AcDbEntity
8
1
62
256
6
ByLayer
370
-1
48
1
60
0
100
AcDbLine
10
99.853154
20
5.431652
30
0
11
99.745649
21
5.216928
31
0
39
0
210
0
220
0
230
1
0
LINE
5
115
100
AcDbEntity
8
1
62
256
6
ByLayer
370
-1
48
1
60
0
100
AcDbLine
10
98.614961
20
14.158361
30
0
11
98.921166
21
13.967002
31
0
39
0
210
0
220
0
230
1
0
LINE
5
116
100
AcDbEntity
8
1
62
256
6
ByLayer
370
-1
48
1
60
0
100
AcDbLine
10
96.430596
20
2.732083
30
0
11
96.610085
21
2.631189
31
0
39
0
210
0
220
0
230
1
0
LINE
5
117
100
AcDbEntity
8
1
62
256
6
ByLayer
370
-1
48
1
60
0
100
AcDbLine
10
98.788289
20
8.128759
30
0
11
98.615154
21
8.712817
31
0
39
0
210
0
220
0
230
1
0
LINE
5
118
100
AcDbEntity
8
1
62
256
6
ByLayer
370
-1
48
1
60
0
100
AcDbLine
10
88.311119
20
9.55178
30
0
11
88.622739
21
9.36946
31
0
39
0
210
0
220
0
230
1
0
LINE
5
119
100
AcDbEntity
8
1
62
256
6
ByLayer
370
-1
48
1
60
0
100
AcDbLine
10
93.542244
20
13.365881
30
0
11
93.817714
21
12.942584
31
0
39
0
210
0
220
0
230
1
0
LINE
5
11A
100
AcDbEntity
8
1
62
256
6
ByLayer
370
-1
48
1
60
0
100
AcDbLine
10
93.44663
20
13.289583
30
0
11
93.817714
21
12.942584
31
0
39
0
210
0
220
0
230
1
0
LINE
5
11B
100
AcDbEntity
8
1
62
256
6
ByLayer
370
-1
48
1
60
0
100
AcDbLine
10
98.540636
20
2.742992
30
0
11
97.939942
21
2.701226
31
0
39
0
210
0
220
0
230
1
0
LINE
5
11C
100
AcDbEntity
8
1
62
256
6
ByLayer
370
-1
48
1
60
0
100
AcDbLine
10
99.229028
20
14.155681
30
0
11
98.921166
21
13.967002
31
0
39
0
210
0
220
0
230
1
0
LINE
5
11D
100
AcDbEntity
8
1
62
256
6
ByLayer
370
-1
48
1
60
0
100
AcDbLine
10
99.928819
20
8.34555
30
0
11
98.788289
21
8.128759
31
0
39
0
210
0
220
0
230
1
0
LINE
5
11E
100
AcDbEntity
8
1
62
256
6
ByLayer
370
-1
48
1
60
0
100
AcDbLine
10
99.022617
20
14.744895
30
0
11
99.026647
21
15.294923
31
0
39
0
210
0
220
0
230
1
0
LINE
5
11F
100
AcDbEntity
8
1
62
256
6
ByLayer
370
-1
48
1
60
0
100
AcDbLine
10
96.789034
20
14.573057
30
0
11
96.96919
21
14.828006
31
0
39
0
210
0
220
0
230
1
0
LINE
5
120
100
AcDbEntity
8
1
62
256
6
ByLayer
370
-1
48
1
60
0
100
AcDbLine
10
95.769804
20
14.606412
30
0
11
99.93236
21
12.075466
31
0
39
0
210
0
220
0
230
1
0
LINE
5
121
100
AcDbEntity
8
1
62
256
6
ByLayer
370
-1
48
1
60
0
100
AcDbLine
10
99.929309
20
9.169933
30
0
11
99.132479
21
9.018472
31
0
39
0
210
0
220
0
230
1
0
LINE
5
122
100
AcDbEntity
8
1
62
256
6
ByLayer
370
-1
48
1
60
0
100
AcDbLine
10
92.128229
20
5.327518
30
0
11
92.035776
21
5.404637
31
0
39
0
210
0
220
0
230
1
0
LINE
5
123
100
AcDbEntity
8
1
62
256
6
ByLayer
370
-1
48
1
60
0
100
AcDbLine
10
99.716807
20
12.948216
30
0
11
99.919042
21
13.015604
31
0
39
0
210
0
220
0
230
1
0
LINE
5
124
100
AcDbEntity
8
1
62
256
6
ByLayer
370
-1
48
1
60
0
100
AcDbLine
10
97.321343
20
2.286775
30
0
11
96.68989
21
2.589582
31
0
39
0
210
0
220
0
230
1
0
LINE
5
125
100
AcDbEntity
8
1
62
256
6
ByLayer
370
-1
48
1
60
0
100
AcDbLine
10
88.350296
20
8.594898
30
0
11
88.287166
21
7.625804
31
0
39
0
210
0
220
0
230
1
0
LINE
5
126
100
AcDbEntity
8
1
62
256
6
ByLayer
370
-1
48
1
60
0
100
AcDbLine
10
89.414606
20
10.929913
30
0
11
89.856952
21
11.320144
31
0
39
0
210
0
220
0
230
1
0
LINE
5
127
100
AcDbEntity
8
1
62
256
6
ByLayer
370
-1
48
1
60
0
100
AcDbLine
10
89.122019
20
10.731794
30
0
11
89.100302
21
10.490105
31
0
39
0
210
0
220
0
230
1
0
LINE
5
128
100
AcDbEntity
8
1
62
256
6
ByLayer
370
-1
48
1
60
0
100
AcDbLine
10
93.2733
20
13.173746
30
0
11
94.095844
21
12.404589
31
0
39
0
210
0
220
0
230
1
0
LINE
5
129
100
AcDbEntity
8
1
62
256
6
ByLayer
370
-1
48
1
60
0
100
AcDbLine
10
99.18584
20
2.383424
30
0
11
99.119108
21
1.35903
31
0
39
0
210
0
220
0
230
1
0
LINE
5
12A
100
AcDbEntity
8
1
62
256
6
ByLayer
370
-1
48
1
60
0
100
AcDbLine
10
97.918341
20
2.388449
30
0
11
97.934387
21
2.604403
31
0
39
0
210
0
220
0
230
1
0
LINE
5
12B
100
AcDbEntity
8
1
62
256
6
ByLayer
370
-1
48
1
60
0
100
AcDbLine
10
92.190287
20
5.899055
30
0
11
91.951415
21
5.461847
31
0
39
0
210
0
220
0
230
1
0
LINE
5
12C
100
AcDbEntity
8
1
62
256
6
ByLayer
370
-1
48
1
60
0
100
AcDbLine
10
87.244523
20
7.751535
30
0
11
87.246562
21
7.748115
31
0
39
0
210
0
220
0
230
1
0
LINE
5
12D
100
AcDbEntity
8
1
62
256
6
ByLayer
370
-1
48
1
60
0
100
AcDbLine
10
98.614961
20
14.158361
30
0
11
98.924316
21
14.688889
31
0
39
0
210
0
220
0
230
1
0
LINE
5
12E
100
AcDbEntity
8
1
62
256
6
ByLayer
370
-1
48
1
60
0
100
AcDbLine
10
93.198175
20
4.75141
30
0
11
93.031627
21
4.806084
31
0
39
0
210
0
220
0
230
1
0
LINE
5
12F
100
AcDbEntity
8
1
62
256
6
ByLayer
370
-1
48
1
60
0
100
AcDbLine
10
99.420056
20
7.991335
30
0
11
99.93236
21
8.008377
31
0
39
0
210
0
220
0
230
1
0
LINE
5
130
100
AcDbEntity
8
1
62
256
6
ByLayer
370
-1
48
1
60
0
100
AcDbLine
10
88.618152
20
9.03669
30
0
11
88.622739
21
9.36946
31
0
39
0
210
0
220
0
230
1
0
LINE
5
131
100
AcDbEntity
8
1
62
256
6
ByLayer
370
-1
48
1
60
0
100
AcDbLine
10
99.193975
20
1.401194
30
0
11
99.196014
21
1.404597
31
0
39
0
210
0
220
0
230
1
0
LINE
5
132
100
AcDbEntity
8
1
62
256
6
ByLayer
370
-1
48
1
60
0
100
AcDbLine
10
88.618152
20
9.03669
30
0
11
88.022099
21
9.083677
31
0
39
0
210
0
220
0
230
1
0
LINE
5
133
100
AcDbEntity
8
1
62
256
6
ByLayer
370
-1
48
1
60
0
100
AcDbLine
10
99.134162
20
3.584394
30
0
11
99.065776
21
3.573998
31
0
39
0
210
0
220
0
230
1
0
LINE
5
134
100
AcDbEntity
8
1
62
256
6
ByLayer
370
-1
48
1
60
0
100
AcDbLine
10
98.928103
20
15.576442
30
0
11
98.932181
21
15.576425
31
0
39
0
210
0
220
0
230
1
0
LINE
5
135
100
AcDbEntity
8
1
62
256
6
ByLayer
370
-1
48
1
60
0
100
AcDbLine
10
98.788245
20
13.751119
30
0
11
98.48204
21
13.942477
31
0
39
0
210
0
220
0
230
1
0
LINE
5
136
100
AcDbEntity
8
1
62
256
6
ByLayer
370
-1
48
1
60
0
100
AcDbLine
10
99.919247
20
13.107538
30
0
11
99.689085
21
13.030844
31
0
39
0
210
0
220
0
230
1
0
LINE
5
137
100
AcDbEntity
8
1
62
256
6
ByLayer
370
-1
48
1
60
0
100
AcDbLine
10
87.388161
20
8.729691
30
0
11
87.321429
21
7.705297
31
0
39
0
210
0
220
0
230
1
0
LINE
5
138
100
AcDbEntity
8
1
62
256
6
ByLayer
370
-1
48
1
60
0
100
AcDbLine
10
99.59617
20
4.216396
30
0
11
99.271739
21
3.674951
31
0
39
0
210
0
220
0
230
1
0
LINE
5
139
100
AcDbEntity
8
1
62
256
6
ByLayer
370
-1
48
1
60
0
100
AcDbLine
10
88.645416
20
8.723699
30
0
11
88.624848
21
8.939813
31
0
39
0
210
0
220
0
230
1
0
LINE
5
13A
100
AcDbEntity
8
1
62
256
6
ByLayer
370
-1
48
1
60
0
100
AcDbLine
10
98.410286
20
14.77423
30
0
11
98.852385
21
15.53241
31
0
39
0
210
0
220
0
230
1
0
LINE
5
13B
100
AcDbEntity
8
1
62
256
6
ByLayer
370
-1
48
1
60
0
100
AcDbLine
10
99.553956
20
12.77069
30
0
11
99.921489
21
12.529285
31
0
39
0
210
0
220
0
230
1
0
LINE
5
13C
100
AcDbEntity
8
1
62
256
6
ByLayer
370
-1
48
1
60
0
100
AcDbLine
10
99.363969
20
13.938628
30
0
11
99.056106
21
13.74995
31
0
39
0
210
0
220
0
230
1
0
LINE
5
13D
100
AcDbEntity
8
1
62
256
6
ByLayer
370
-1
48
1
60
0
100
AcDbLine
10
99.829585
20
4.458615
30
0
11
99.898542
21
5.517158
31
0
39
0
210
0
220
0
230
1
0
LINE
5
13E
100
AcDbEntity
8
1
62
256
6
ByLayer
370
-1
48
1
60
0
100
AcDbLine
10
87.311449
20
8.778901
30
0
11
87.244523
21
7.751535
31
0
39
0
210
0
220
0
230
1
0
LINE
5
13F
100
AcDbEntity
8
1
62
256
6
ByLayer
370
-1
48
1
60
0
100
AcDbLine
10
99.93236
20
5.642805
30
0
11
99.93236
21
8.008377
31
0
39
0
210
0
220
0
230
1
0
LINE
5
140
100
AcDbEntity
8
1
62
256
6
ByLayer
370
-1
48
1
60
0
100
AcDbLine
10
92.541521
20
12.776041
30
0
11
93.116191
21
12.23867
31
0
39
0
210
0
220
0
230
1
0
LINE
5
141
100
AcDbEntity
8
1
62
256
6
ByLayer
370
-1
48
1
60
0
100
AcDbLine
10
87.313487
20
8.77548
30
0
11
87.311449
21
8.778901
31
0
39
0
210
0
220
0
230
1
0
LINE
5
142
100
AcDbEntity
8
1
62
256
6
ByLayer
370
-1
48
1
60
0
100
AcDbLine
10
99.074459
20
2.625141
30
0
11
98.632813
21
2.809273
31
0
39
0
210
0
220
0
230
1
0
LINE
5
143
100
AcDbEntity
8
1
62
256
6
ByLayer
370
-1
48
1
60
0
100
AcDbLine
10
92.298868
20
5.210181
30
0
11
92.627363
21
6.357456
31
0
39
0
210
0
220
0
230
1
0
LINE
5
144
100
AcDbEntity
8
1
62
256
6
ByLayer
370
-1
48
1
60
0
100
AcDbLine
10
99.928288
20
8.962417
30
0
11
99.928819
21
8.34555
31
0
39
0
210
0
220
0
230
1
0
LINE
5
145
100
AcDbEntity
8
1
62
256
6
ByLayer
370
-1
48
1
60
0
100
AcDbLine
10
92.712485
20
12.855551
30
0
11
93.659511
21
11.969991
31
0
39
0
210
0
220
0
230
1
0
LINE
5
146
100
AcDbEntity
8
1
62
256
6
ByLayer
370
-1
48
1
60
0
100
AcDbLine
10
98.557047
20
3.454388
30
0
11
99.074459
21
2.625141
31
0
39
0
210
0
220
0
230
1
0
LINE
5
147
100
AcDbEntity
8
1
62
256
6
ByLayer
370
-1
48
1
60
0
100
AcDbLine
10
89.693593
20
6.801621
30
0
11
89.586088
21
6.938032
31
0
39
0
210
0
220
0
230
1
0
LINE
5
148
100
AcDbEntity
8
1
62
256
6
ByLayer
370
-1
48
1
60
0
100
AcDbLine
10
96.653654
20
2.827221
30
0
11
96.610085
21
2.631189
31
0
39
0
210
0
220
0
230
1
0
LINE
5
149
100
AcDbEntity
8
1
62
256
6
ByLayer
370
-1
48
1
60
0
100
AcDbLine
10
92.035776
20
5.404637
30
0
11
92.276427
21
5.845101
31
0
39
0
210
0
220
0
230
1
0
LINE
5
14A
100
AcDbEntity
8
1
62
256
6
ByLayer
370
-1
48
1
60
0
100
AcDbLine
10
99.930165
20
8.174361
30
0
11
99.415624
21
8.076557
31
0
39
0
210
0
220
0
230
1
0
LINE
5
14B
100
AcDbEntity
8
1
62
256
6
ByLayer
370
-1
48
1
60
0
100
AcDbLine
10
98.590158
20
8.706581
30
0
11
98.763292
21
8.122523
31
0
39
0
210
0
220
0
230
1
0
LINE
5
14C
100
AcDbEntity
8
1
62
256
6
ByLayer
370
-1
48
1
60
0
100
AcDbLine
10
88.022099
20
9.083677
30
0
11
88.311119
21
9.55178
31
0
39
0
210
0
220
0
230
1
0
LINE
5
14D
100
AcDbEntity
8
1
62
256
6
ByLayer
370
-1
48
1
60
0
100
AcDbLine
10
87.595208
20
8.806488
30
0
11
88.028794
21
8.986801
31
0
39
0
210
0
220
0
230
1
0
LINE
5
14E
100
AcDbEntity
8
1
62
256
6
ByLayer
370
-1
48
1
60
0
100
AcDbLine
10
88.784218
20
7.526507
30
0
11
88.459787
21
8.070784
31
0
39
0
210
0
220
0
230
1
0
LINE
5
14F
100
AcDbEntity
8
1
62
256
6
ByLayer
370
-1
48
1
60
0
100
AcDbLine
10
99.478818
20
4.621531
30
0
11
99.604308
21
4.369025
31
0
39
0
210
0
220
0
230
1
0
LINE
5
150
100
AcDbEntity
8
1
62
256
6
ByLayer
370
-1
48
1
60
0
100
AcDbLine
10
92.379868
20
12.722799
30
0
11
92.541521
21
12.776041
31
0
39
0
210
0
220
0
230
1
0
LINE
5
151
100
AcDbEntity
8
1
62
256
6
ByLayer
370
-1
48
1
60
0
100
AcDbLine
10
99.921489
20
12.529285
30
0
11
99.931318
21
12.197685
31
0
39
0
210
0
220
0
230
1
0
LINE
5
152
100
AcDbEntity
8
1
62
256
6
ByLayer
370
-1
48
1
60
0
100
AcDbLine
10
98.054434
20
14.710247
30
0
11
98.29843
21
14.709182
31
0
39
0
210
0
220
0
230
1
0
LINE
5
153
100
AcDbEntity
8
1
62
256
6
ByLayer
370
-1
48
1
60
0
100
AcDbLine
10
99.007512
20
15.531733
30
0
11
99.887697
21
13.991523
31
0
39
0
210
0
220
0
230
1
0
LINE
5
154
100
AcDbEntity
8
1
62
256
6
ByLayer
370
-1
48
1
60
0
100
AcDbLine
10
93.678284
20
11.953022
30
0
11
94.114616
21
12.38762
31
0
39
0
210
0
220
0
230
1
0
LINE
5
155
100
AcDbEntity
8
1
62
256
6
ByLayer
370
-1
48
1
60
0
100
AcDbLine
10
99.919042
20
12.815383
30
0
11
99.716807
21
12.948216
31
0
39
0
210
0
220
0
230
1
0
LINE
5
156
100
AcDbEntity
8
1
62
256
6
ByLayer
370
-1
48
1
60
0
100
AcDbLine
10
99.93236
20
9.50431
30
0
11
99.090542
21
9.112419
31
0
39
0
210
0
220
0
230
1
0
LINE
5
157
100
AcDbEntity
8
1
62
256
6
ByLayer
370
-1
48
1
60
0
100
AcDbLine
10
89.810601
20
6.66653
30
0
11
89.981901
21
11.404715
31
0
39
0
210
0
220
0
230
1
0
LINE
5
158
100
AcDbEntity
8
1
62
256
6
ByLayer
370
-1
48
1
60
0
100
AcDbLine
10
99.32733
20
14.211686
30
0
11
99.022617
21
14.744895
31
0
39
0
210
0
220
0
230
1
0
LINE
5
159
100
AcDbEntity
8
1
62
256
6
ByLayer
370
-1
48
1
60
0
100
AcDbLine
10
99.563532
20
14.355444
30
0
11
99.32733
21
14.211686
31
0
39
0
210
0
220
0
230
1
0
LINE
5
15A
100
AcDbEntity
8
1
62
256
6
ByLayer
370
-1
48
1
60
0
100
AcDbLine
10
99.931206
20
5.619631
30
0
11
95.597349
21
3.412393
31
0
39
0
210
0
220
0
230
1
0
LINE
5
15B
100
AcDbEntity
8
1
62
256
6
ByLayer
370
-1
48
1
60
0
100
AcDbLine
10
87.931063
20
9.150758
30
0
11
87.497476
21
8.970446
31
0
39
0
210
0
220
0
230
1
0
LINE
5
15C
100
AcDbEntity
8
1
62
256
6
ByLayer
370
-1
48
1
60
0
100
AcDbLine
10
99.931318
20
12.197685
30
0
11
95.961737
21
14.611298
31
0
39
0
210
0
220
0
230
1
0
LINE
5
15D
100
AcDbEntity
8
1
62
256
6
ByLayer
370
-1
48
1
60
0
100
AcDbLine
10
98.843731
20
3.18547
30
0
11
99.263403
21
2.51287
31
0
39
0
210
0
220
0
230
1
0
LINE
5
15E
100
AcDbEntity
8
1
62
256
6
ByLayer
370
-1
48
1
60
0
100
AcDbLine
10
99.928288
20
8.962417
30
0
11
98.615154
21
8.712817
31
0
39
0
210
0
220
0
230
1
0
LINE
5
15F
100
AcDbEntity
8
1
62
256
6
ByLayer
370
-1
48
1
60
0
100
AcDbLine
10
93.44663
20
13.289583
30
0
11
93.542244
21
13.365881
31
0
39
0
210
0
220
0
230
1
0
LINE
5
160
100
AcDbEntity
8
1
62
256
6
ByLayer
370
-1
48
1
60
0
100
AcDbLine
10
93.261129
20
5.607626
30
0
11
93.198175
21
4.75141
31
0
39
0
210
0
220
0
230
1
0
LINE
5
161
100
AcDbEntity
8
1
62
256
6
ByLayer
370
-1
48
1
60
0
100
AcDbLine
10
98.976728
20
2.462037
30
0
11
97.918341
21
2.388449
31
0
39
0
210
0
220
0
230
1
0
LINE
5
162
100
AcDbEntity
8
1
62
256
6
ByLayer
370
-1
48
1
60
0
100
AcDbLine
10
99.745649
20
5.216928
30
0
11
96.548278
21
3.105635
31
0
39
0
210
0
220
0
230
1
0
LINE
5
163
100
AcDbEntity
8
1
62
256
6
ByLayer
370
-1
48
1
60
0
100
AcDbLine
10
88.645416
20
8.723699
30
0
11
87.595208
21
8.806488
31
0
39
0
210
0
220
0
230
1
0
LINE
5
164
100
AcDbEntity
8
1
62
256
6
ByLayer
370
-1
48
1
60
0
100
AcDbLine
10
93.292442
20
4.708029
30
0
11
93.358747
21
5.609816
31
0
39
0
210
0
220
0
230
1
0
LINE
5
165
100
AcDbEntity
8
1
62
256
6
ByLayer
370
-1
48
1
60
0
100
AcDbLine
10
93.031627
20
4.806084
30
0
11
93.261129
21
5.607626
31
0
39
0
210
0
220
0
230
1
0
LINE
5
166
100
AcDbEntity
8
SK1
62
256
6
ByLayer
370
-1
48
1
60
0
100
AcDbLine
10
-199.32
20
-4.87661
30
0
11
0
21
-4.87661
31
0
39
0
210
0
220
0
230
1
0
LINE
5
167
100
AcDbEntity
8
SK1
62
256
6
ByLayer
370
-1
48
1
60
0
100
AcDbLine
10
0
20
-4.87661
30
0
11
0
21
4.87661
31
0
39
0
210
0
220
0
230
1
0
LINE
5
168
100
AcDbEntity
8
SK1
62
256
6
ByLayer
370
-1
48
1
60
0
100
AcDbLine
10
-199.32
20
10.00875
30
0
11
0
21
10.00875
31
0
39
0
210
0
220
0
230
1
0
LINE
5
169
100
AcDbEntity
8
SK1
62
256
6
ByLayer
370
-1
48
1
60
0
100
AcDbLine
10
0
20
10.00875
30
0
11
0
21
4.87661
31
0
39
0
210
0
220
0
230
1
0
LINE
5
16A
100
AcDbEntity
8
SK1
62
256
6
ByLayer
370
-1
48
1
60
0
100
AcDbLine
10
0
20
4.87661
30
0
11
-199.32
21
4.87661
31
0
39
0
210
0
220
0
230
1
0
LINE
5
16B
100
AcDbEntity
8
SK2
62
256
6
ByLayer
370
-1
48
1
60
0
100
AcDbLine
10
-211.07
20
12.49125
30
0
11
-211.07
21
-12.49125
31
0
39
0
210
0
220
0
230
1
0
LINE
5
16D
100
AcDbEntity
8
SK2
62
256
6
ByLayer
370
-1
48
1
60
0
100
AcDbLine
10
-202.82
20
-12.49125
30
0
11
-214.07
21
-12.49125
31
0
39
0
210
0
220
0
230
1
0
LINE
5
16E
100
AcDbEntity
8
SK2
62
256
6
ByLayer
370
-1
48
1
60
0
100
AcDbLine
10
-202.82
20
12.49125
30
0
11
-214.07
21
12.49125
31
0
39
0
210
0
220
0
230
1
0
LINE
5
16F
100
AcDbEntity
8
SK2
62
256
6
ByLayer
370
-1
48
1
60
0
100
AcDbLine
10
-211.07
20
-12.49125
30
0
11
-211.464957
21
-9.491251
31
0
39
0
210
0
220
0
230
1
0
LINE
5
170
100
AcDbEntity
8
SK2
62
256
6
ByLayer
370
-1
48
1
60
0
100
AcDbLine
10
-211.07
20
-12.49125
30
0
11
-210.675043
21
-9.491249
31
0
39
0
210
0
220
0
230
1
0
LINE
5
171
100
AcDbEntity
8
SK2
62
256
6
ByLayer
370
-1
48
1
60
0
100
AcDbLine
10
-211.464957
20
-9.491251
30
0
11
-210.675043
21
-9.491249
31
0
39
0
210
0
220
0
230
1
0
LINE
5
172
100
AcDbEntity
8
SK2
62
256
6
ByLayer
370
-1
48
1
60
0
100
AcDbLine
10
-211.07
20
12.49125
30
0
11
-210.675043
21
9.491251
31
0
39
0
210
0
220
0
230
1
0
LINE
5
173
100
AcDbEntity
8
SK2
62
256
6
ByLayer
370
-1
48
1
60
0
100
AcDbLine
10
-211.07
20
12.49125
30
0
11
-211.464957
21
9.491249
31
0
39
0
210
0
220
0
230
1
0
LINE
5
174
100
AcDbEntity
8
SK2
62
256
6
ByLayer
370
-1
48
1
60
0
100
AcDbLine
10
-210.675043
20
9.491251
30
0
11
-211.464957
21
9.491249
31
0
39
0
210
0
220
0
230
1
0
MTEXT
5
28D
100
AcDbEntity
8
SK6
62
256
6
ByLayer
370
-1
48
1
60
0
100
AcDbMText
10
48.34
20
-25.540014
30
0
210
0
220
0
230
1
1
\W00.714;\fsimplex.shx,bigfont.shx;266RKF-25-16 
40
3.5
41
0
44
1.084337
50
0
71
7
72
5
7
DEFAULT
0
MTEXT
5
2B3
100
AcDbEntity
8
SK2
62
256
6
ByLayer
370
-1
48
1
60
0
100
AcDbMText
10
-212.195
20
-3.659211
30
0
210
0
220
0
230
1
1
\W00.875;\fsimplex.shx,bigfont.shx;%%c25 
40
4.5
41
0
44
1.084337
50
89.9999999999999
71
7
72
5
7
DEFAULT
0
DIMENSION
5
2C1
100
AcDbEntity
8
2
62
256
6
ByLayer
370
-3
48
1
60
0
100
AcDbDimension
2
DimnDraft3D1
10
114.18
20
16.875
30
0
11
114.18
21
6.371053
31
0
70
32
71
5
72
1
41
1
210
0
220
0
230
1
3
Standard
100
AcDbAlignedDimension
13
106.43
23
0
33
0
14
101.43
24
16.875
34
0
50
90
100
AcDbRotatedDimension
1001
ACAD
1000
DSTYLE
1002
{
1070
    74
1070
     0
1070
   279
1070
     0
1070
   172
1070
     1
1070
   173
1070
     1
1070
   340
1005
28E
1070
   271
1070
     3
1070
   272
1070
     3
1070
    77
1070
     1
1070
    73
1070
     0
1070
   171
1070
     4
1070
   274
1070
     4
1070
   177
1070
     2
1070
   176
1070
     2
1070
   178
1070
     7
1070
    78
1070
     8
1070
    41
1041
3.0
1070
   147
1041
2.25
1070
    42
1041
1.5
1070
    44
1041
3.0
1070
   140
1041
4.5
1070
   343
1005
2C2
1070
   344
1005
2C2
1002
}
0
DIMENSION
5
2D6
100
AcDbEntity
8
2
62
256
6
ByLayer
370
-3
48
1
60
0
100
AcDbDimension
2
DimnDraft3D2
10
71.102562
20
26.625
30
0
11
82.887334
21
26.625
31
0
70
32
71
5
72
1
41
1
210
0
220
0
230
1
3
Standard
100
AcDbAlignedDimension
13
99.93
23
18.375
33
0
14
71.102562
24
18.375
34
0
50
0
100
AcDbRotatedDimension
1001
ACAD
1000
DSTYLE
1002
{
1070
   279
1070
     0
1070
   172
1070
     1
1070
   173
1070
     1
1070
   340
1005
28E
1070
   271
1070
     3
1070
   272
1070
     3
1070
    77
1070
     1
1070
    73
1070
     0
1070
   171
1070
     4
1070
   274
1070
     4
1070
   177
1070
     2
1070
   176
1070
     2
1070
   178
1070
     7
1070
    78
1070
     8
1070
    41
1041
3.0
1070
   147
1041
2.25
1070
    42
1041
1.5
1070
    44
1041
3.0
1070
   140
1041
4.5
1070
   343
1005
2C2
1070
   344
1005
2C2
1002
}
0
DIMENSION
5
2E4
100
AcDbEntity
8
SK2
62
256
6
ByLayer
370
-3
48
1
60
0
100
AcDbDimension
2
DimnDraft3D3
10
-201.32
20
36.625
30
0
11
-54.413421
21
36.625
31
0
70
32
71
5
72
1
41
1
210
0
220
0
230
1
3
Standard
100
AcDbAlignedDimension
13
99.93
23
18.375
33
0
14
-201.32
24
1.5
34
0
50
0
100
AcDbRotatedDimension
1001
ACAD
1000
DSTYLE
1002
{
1070
   279
1070
     0
1070
   172
1070
     1
1070
   173
1070
     1
1070
   340
1005
28E
1070
   271
1070
     3
1070
   272
1070
     3
1070
    77
1070
     1
1070
    73
1070
     0
1070
   171
1070
     4
1070
   274
1070
     4
1070
   177
1070
     2
1070
   176
1070
     2
1070
   178
1070
     7
1070
    78
1070
     8
1070
    41
1041
3.0
1070
   147
1041
2.25
1070
    42
1041
1.5
1070
    44
1041
3.0
1070
   140
1041
4.5
1070
   343
1005
2C2
1070
   344
1005
2C2
1002
}
0
ENDSEC
0
SECTION
2
OBJECTS
0
DICTIONARY
5
315
330
0
100
AcDbDictionary
280
0
281
1
3
ACAD_GROUP
350
316
3
ACAD_MLINESTYLE
350
317
0
DICTIONARY
5
316
330
0
100
AcDbDictionary
280
0
281
1
0
DICTIONARY
5
317
330
0
100
AcDbDictionary
280
0
281
1
3
Standard
350
18
0
MLINESTYLE
5
18
330
317
100
AcDbMlineStyle
2
Standard
70
0
3

62
256
51
90
52
90
71
2
49
-0.5
62
256
6
ByLayer
49
0.5
62
256
6
ByLayer
0
RASTERVARIABLES
5
303
330

100
AcDbRasterVariables
90
0
70
1
71
1
72
1
0
ENDSEC
0
EOF
