0
SECTION
2
HEADER
9
$ACADVER
1
AC1015
9
$DWGCODEPAGE
3
ANSI_1252
9
$HANDSEED
5
326
9
$ANGBASE
50
0
9
$ANGDIR
70
0
9
$ATTMODE
70
1
9
$AUNITS
70
0
9
$AUPREC
70
0
9
$CECOLOR
62
256
9
$CELTSCALE
40
1
9
$CELTYPE
6
ByLayer
9
$CELWEIGHT
370
-1
9
$CLAYER
8
0
9
$CMLJUST
70
0
9
$CMLSCALE
40
1
9
$CMLSTYLE
2
Standard
9
$DIMSTYLE
2
Standard
9
$TEXTSIZE
40
0.2
9
$TEXTSTYLE
7
Standard
9
$LUNITS
70
2
9
$LUPREC
70
4
9
$EXTNAMES
290
1
9
$INSUNITS
70
4
9
$LTSCALE
40
1
9
$LWDISPLAY
290
0
9
$PDMODE
70
0
9
$PDSIZE
40
0
9
$PLINEGEN
70
0
0
ENDSEC
0
SECTION
2
CLASSES
0
CLASS
1
RASTERVARIABLES
2
AcDbRasterVariables
3
ISM
90
0
280
0
281
0
0
ENDSEC
0
SECTION
2
TABLES
0
TABLE
2
VPORT
5
31c
100
AcDbSymbolTable
0
VPORT
5
1
100
AcDbSymbolTableRecord
100
AcDbViewportTableRecord
2
*Active
70
0
10
0
20
0
11
1
21
1
12
-1
22
1
13
0
23
0
14
0.5
24
0.5
15
10
25
10
16
0
26
0
36
1
17
0
27
0
37
0
0
ENDTAB
0
TABLE
2
LTYPE
5
31d
100
AcDbSymbolTable
0
LTYPE
5
14
100
AcDbSymbolTableRecord
100
AcDbLinetypeTableRecord
70
0
2
ByBlock
3

72
65
73
0
40
0
0
LTYPE
5
15
100
AcDbSymbolTableRecord
100
AcDbLinetypeTableRecord
70
0
2
ByLayer
3

72
65
73
0
40
0
0
LTYPE
5
16
100
AcDbSymbolTableRecord
100
AcDbLinetypeTableRecord
70
0
2
CONTINUOUS
3
Solid line
72
65
73
0
40
0
0
LTYPE
5
3B
100
AcDbSymbolTableRecord
100
AcDbLinetypeTableRecord
70
0
2
DASHED
3
__ __ __ __ __ __ __ __ __
72
65
73
2
40
25.72
49
12.86
74
0
49
-12.86
74
0
0
LTYPE
5
3C
100
AcDbSymbolTableRecord
100
AcDbLinetypeTableRecord
70
0
2
HIDDEN
3
_ _ _ _ _ _ _ _ _ _ _ _ _ _ _
72
65
73
2
40
0.5
49
0.25
74
0
49
-0.25
74
0
0
LTYPE
5
3D
100
AcDbSymbolTableRecord
100
AcDbLinetypeTableRecord
70
0
2
PHANTOM
3
____ _ _ ____ _ _ _____ _ _ ____
72
65
73
6
40
50.5
49
18
74
0
49
-6.5
74
0
49
6.5
74
0
49
-6.5
74
0
49
6.5
74
0
49
-6.5
74
0
0
LTYPE
5
3E
100
AcDbSymbolTableRecord
100
AcDbLinetypeTableRecord
70
0
2
CENTER
3
____ _ ____ _ ____ _ ____
72
65
73
4
40
47.5
49
22
74
0
49
-8.5
74
0
49
8.5
74
0
49
-8.5
74
0
0
LTYPE
5
3F
100
AcDbSymbolTableRecord
100
AcDbLinetypeTableRecord
70
0
2
DOT
3
.........................
72
65
73
2
40
10
49
0
74
0
49
-10
74
0
0
LTYPE
5
40
100
AcDbSymbolTableRecord
100
AcDbLinetypeTableRecord
70
0
2
DASHDOT
3
_._._._._._._._._._._._._._._._.
72
65
73
4
40
70
49
31
74
0
49
-13
74
0
49
13
74
0
49
-13
74
0
0
ENDTAB
0
TABLE
2
LAYER
5
31e
100
AcDbSymbolTable
0
LAYER
5
10
100
AcDbSymbolTableRecord
100
AcDbLayerTableRecord
2
0
70
0
62
7
6
CONTINUOUS
290
1
370
-3
390
0
0
LAYER
5
42
100
AcDbSymbolTableRecord
100
AcDbLayerTableRecord
2
2
70
0
62
7
6
CONTINUOUS
290
1
370
-3
390
0
0
LAYER
5
44
100
AcDbSymbolTableRecord
100
AcDbLayerTableRecord
2
80
70
0
62
-6
6
CONTINUOUS
290
1
370
-3
390
0
0
LAYER
5
46
100
AcDbSymbolTableRecord
100
AcDbLayerTableRecord
2
1
70
0
62
4
6
CONTINUOUS
290
1
370
-3
390
0
0
LAYER
5
4A
100
AcDbSymbolTableRecord
100
AcDbLayerTableRecord
2
81
70
0
62
-3
6
CONTINUOUS
290
1
370
-3
390
0
0
LAYER
5
6B
100
AcDbSymbolTableRecord
100
AcDbLayerTableRecord
2
4
70
0
62
-2
6
CENTER
290
1
370
-3
390
0
0
LAYER
5
308
100
AcDbSymbolTableRecord
100
AcDbLayerTableRecord
2
SK1
70
0
62
4
6
CONTINUOUS
290
1
370
-3
390
0
0
LAYER
5
309
100
AcDbSymbolTableRecord
100
AcDbLayerTableRecord
2
SK4
70
0
62
2
6
CENTER
290
1
370
-3
390
0
0
LAYER
5
30a
100
AcDbSymbolTableRecord
100
AcDbLayerTableRecord
2
SK6
70
0
62
5
6
CONTINUOUS
290
1
370
-3
390
0
0
LAYER
5
30b
100
AcDbSymbolTableRecord
100
AcDbLayerTableRecord
2
SK2
70
0
62
7
6
CONTINUOUS
290
1
370
-3
390
0
0
ENDTAB
0
TABLE
2
STYLE
5
31f
100
AcDbSymbolTable
0
STYLE
5
11
100
AcDbSymbolTableRecord
100
AcDbTextStyleTableRecord
2
Standard
3
txt
70
0
71
0
40
0
41
1
42
0
50
0
0
STYLE
5
284
100
AcDbSymbolTableRecord
100
AcDbTextStyleTableRecord
2
DEFAULT
3
simplex.shx
70
0
71
0
40
0
41
1
42
0
50
0
0
STYLE
5
2A7
100
AcDbSymbolTableRecord
100
AcDbTextStyleTableRecord
2
DWGDirectTextStyle
3
SIMPLEX
70
0
71
0
40
0
41
1
42
0
50
0
0
ENDTAB
0
TABLE
2
DIMSTYLE
5
320
100
AcDbSymbolTable
100
AcDbDimStyleTable
0
DIMSTYLE
105
27
100
AcDbSymbolTableRecord
100
AcDbDimStyleTableRecord
2
Standard
70
0
3
<>
41
0.18
42
0.0625
44
0.18
140
0.18
147
0.09
73
0
74
0
77
1
271
2
275
0
278
52
280
0
340
11
0
ENDTAB
0
TABLE
2
VIEW
5
321
100
AcDbSymbolTable
0
ENDTAB
0
TABLE
2
UCS
5
322
100
AcDbSymbolTable
0
ENDTAB
0
TABLE
2
APPID
5
323
100
AcDbSymbolTable
0
APPID
5
12
100
AcDbSymbolTableRecord
100
AcDbRegAppTableRecord
2
ACAD
70
0
0
ENDTAB
0
TABLE
2
BLOCK_RECORD
5
324
100
AcDbSymbolTable
0
BLOCK_RECORD
5
1F
100
AcDbSymbolTableRecord
100
AcDbBlockTableRecord
2
*Model_Space
340
0
70
0
0
BLOCK_RECORD
5
1B
100
AcDbSymbolTableRecord
100
AcDbBlockTableRecord
2
*Paper_Space
340
0
70
0
0
BLOCK_RECORD
5
23
100
AcDbSymbolTableRecord
100
AcDbBlockTableRecord
2
*Paper_Space0
340
0
70
0
0
BLOCK_RECORD
5
2A9
100
AcDbSymbolTableRecord
100
AcDbBlockTableRecord
2
DimnDraft3D1
340
0
70
0
0
BLOCK_RECORD
5
2B7
100
AcDbSymbolTableRecord
100
AcDbBlockTableRecord
2
_CLOSED
340
0
70
0
0
BLOCK_RECORD
5
2BE
100
AcDbSymbolTableRecord
100
AcDbBlockTableRecord
2
DimnDraft3D2
340
0
70
0
0
BLOCK_RECORD
5
2CD
100
AcDbSymbolTableRecord
100
AcDbBlockTableRecord
2
DimnDraft3D3
340
0
70
0
0
BLOCK_RECORD
5
2DB
100
AcDbSymbolTableRecord
100
AcDbBlockTableRecord
2
DimnDraft3D4
340
0
70
0
0
ENDTAB
0
ENDSEC
0
SECTION
2
BLOCKS
0
BLOCK
5
20
100
AcDbEntity
8
0
100
AcDbBlockBegin
2
*Model_Space
70
0
10
0
20
0
30
0
3
*Model_Space
0
ENDBLK
5
21
100
AcDbEntity
8
0
100
AcDbBlockEnd
0
BLOCK
5
1C
100
AcDbEntity
8
0
100
AcDbBlockBegin
2
*Paper_Space
70
0
10
0
20
0
30
0
3
*Paper_Space
0
ENDBLK
5
1D
100
AcDbEntity
8
0
100
AcDbBlockEnd
0
BLOCK
5
24
100
AcDbEntity
8
0
100
AcDbBlockBegin
2
*Paper_Space0
70
0
10
0
20
0
30
0
3
*Paper_Space0
0
ENDBLK
5
25
100
AcDbEntity
8
0
100
AcDbBlockEnd
0
BLOCK
5
2B4
100
AcDbEntity
8
0
100
AcDbBlockBegin
2
DimnDraft3D1
70
0
10
0
20
0
30
0
3
DimnDraft3D1
0
MTEXT
5
2AA
100
AcDbEntity
8
2
62
256
6
ByLayer
370
-1
48
1
60
0
100
AcDbMText
10
93.055
20
5.759211
30
0
210
0
220
0
230
1
1
\W01.000;\fsimplex.shx,bigfont.shx;14 
40
4.5
41
0
44
1.084337
50
90
71
7
72
5
7
DEFAULT
0
LINE
5
2AB
100
AcDbEntity
8
2
62
256
6
ByLayer
370
-1
48
1
60
0
100
AcDbLine
10
86.43
20
0
30
0
11
97.18
21
0
31
0
39
0
210
0
220
0
230
1
0
LINE
5
2AC
100
AcDbEntity
8
2
62
256
6
ByLayer
370
-1
48
1
60
0
100
AcDbLine
10
81.43
20
13.875
30
0
11
97.18
21
13.875
31
0
39
0
210
0
220
0
230
1
0
LINE
5
2AD
100
AcDbEntity
8
2
62
256
6
ByLayer
370
-1
48
1
60
0
100
AcDbLine
10
94.18
20
0
30
0
11
94.18
21
13.875
31
0
39
0
210
0
220
0
230
1
0
LINE
5
2AE
100
AcDbEntity
8
2
62
256
6
ByLayer
370
-1
48
1
60
0
100
AcDbLine
10
94.18
20
0
30
0
11
93.785043
21
2.999999
31
0
39
0
210
0
220
0
230
1
0
LINE
5
2AF
100
AcDbEntity
8
2
62
256
6
ByLayer
370
-1
48
1
60
0
100
AcDbLine
10
94.18
20
0
30
0
11
94.574957
21
3.000001
31
0
39
0
210
0
220
0
230
1
0
LINE
5
2B0
100
AcDbEntity
8
2
62
256
6
ByLayer
370
-1
48
1
60
0
100
AcDbLine
10
93.785043
20
2.999999
30
0
11
94.574957
21
3.000001
31
0
39
0
210
0
220
0
230
1
0
LINE
5
2B1
100
AcDbEntity
8
2
62
256
6
ByLayer
370
-1
48
1
60
0
100
AcDbLine
10
94.18
20
13.875
30
0
11
94.574957
21
10.875001
31
0
39
0
210
0
220
0
230
1
0
LINE
5
2B2
100
AcDbEntity
8
2
62
256
6
ByLayer
370
-1
48
1
60
0
100
AcDbLine
10
94.18
20
13.875
30
0
11
93.785043
21
10.874999
31
0
39
0
210
0
220
0
230
1
0
LINE
5
2B3
100
AcDbEntity
8
2
62
256
6
ByLayer
370
-1
48
1
60
0
100
AcDbLine
10
94.574957
20
10.875001
30
0
11
93.785043
21
10.874999
31
0
39
0
210
0
220
0
230
1
0
ENDBLK
5
2B5
100
AcDbEntity
8
0
100
AcDbBlockEnd
0
BLOCK
5
2B8
100
AcDbEntity
8
0
100
AcDbBlockBegin
2
_CLOSED
70
0
10
0
20
0
30
0
3
_CLOSED
0
LINE
5
2BA
100
AcDbEntity
8
0
62
256
6
ByLayer
370
-2
48
1
60
0
100
AcDbLine
10
-1
20
0.166667
30
0
11
0
21
0
31
0
39
0
210
0
220
0
230
1
0
LINE
5
2BB
100
AcDbEntity
8
0
62
256
6
ByLayer
370
-2
48
1
60
0
100
AcDbLine
10
0
20
0
30
0
11
-1
21
-0.166667
31
0
39
0
210
0
220
0
230
1
0
LINE
5
2BC
100
AcDbEntity
8
0
62
256
6
ByLayer
370
-2
48
1
60
0
100
AcDbLine
10
-1
20
0.166667
30
0
11
-1
21
-0.166667
31
0
39
0
210
0
220
0
230
1
0
LINE
5
2BD
100
AcDbEntity
8
0
62
256
6
ByLayer
370
-2
48
1
60
0
100
AcDbLine
10
0
20
0
30
0
11
-1
21
0
31
0
39
0
210
0
220
0
230
1
0
ENDBLK
5
2B9
100
AcDbEntity
8
0
100
AcDbBlockEnd
0
BLOCK
5
2CA
100
AcDbEntity
8
0
100
AcDbBlockBegin
2
DimnDraft3D2
70
0
10
0
20
0
30
0
3
DimnDraft3D2
0
MTEXT
5
2BF
100
AcDbEntity
8
SK2
62
256
6
ByLayer
370
-1
48
1
60
0
100
AcDbMText
10
-72.195
20
-3.659211
30
0
210
0
220
0
230
1
1
\W01.000;\fsimplex.shx,bigfont.shx;%%c20 
40
4.5
41
0
44
1.084337
50
90
71
7
72
5
7
DEFAULT
0
LINE
5
2C1
100
AcDbEntity
8
SK2
62
256
6
ByLayer
370
-1
48
1
60
0
100
AcDbLine
10
-62.82
20
9.99125
30
0
11
-74.07
21
9.99125
31
0
39
0
210
0
220
0
230
1
0
LINE
5
2C2
100
AcDbEntity
8
SK2
62
256
6
ByLayer
370
-1
48
1
60
0
100
AcDbLine
10
-62.82
20
-9.99125
30
0
11
-74.07
21
-9.99125
31
0
39
0
210
0
220
0
230
1
0
LINE
5
2C3
100
AcDbEntity
8
SK2
62
256
6
ByLayer
370
-1
48
1
60
0
100
AcDbLine
10
-71.07
20
9.99125
30
0
11
-71.07
21
-9.99125
31
0
39
0
210
0
220
0
230
1
0
LINE
5
2C4
100
AcDbEntity
8
SK2
62
256
6
ByLayer
370
-1
48
1
60
0
100
AcDbLine
10
-71.07
20
9.99125
30
0
11
-70.675043
21
6.991251
31
0
39
0
210
0
220
0
230
1
0
LINE
5
2C5
100
AcDbEntity
8
SK2
62
256
6
ByLayer
370
-1
48
1
60
0
100
AcDbLine
10
-71.07
20
9.99125
30
0
11
-71.464957
21
6.991249
31
0
39
0
210
0
220
0
230
1
0
LINE
5
2C6
100
AcDbEntity
8
SK2
62
256
6
ByLayer
370
-1
48
1
60
0
100
AcDbLine
10
-70.675043
20
6.991251
30
0
11
-71.464957
21
6.991249
31
0
39
0
210
0
220
0
230
1
0
LINE
5
2C7
100
AcDbEntity
8
SK2
62
256
6
ByLayer
370
-1
48
1
60
0
100
AcDbLine
10
-71.07
20
-9.99125
30
0
11
-71.464957
21
-6.991251
31
0
39
0
210
0
220
0
230
1
0
LINE
5
2C8
100
AcDbEntity
8
SK2
62
256
6
ByLayer
370
-1
48
1
60
0
100
AcDbLine
10
-71.07
20
-9.99125
30
0
11
-70.675043
21
-6.991249
31
0
39
0
210
0
220
0
230
1
0
LINE
5
2C9
100
AcDbEntity
8
SK2
62
256
6
ByLayer
370
-1
48
1
60
0
100
AcDbLine
10
-71.464957
20
-6.991251
30
0
11
-70.675043
21
-6.991249
31
0
39
0
210
0
220
0
230
1
0
ENDBLK
5
2CB
100
AcDbEntity
8
0
100
AcDbBlockEnd
0
BLOCK
5
2D8
100
AcDbEntity
8
0
100
AcDbBlockBegin
2
DimnDraft3D3
70
0
10
0
20
0
30
0
3
DimnDraft3D3
0
MTEXT
5
2CE
100
AcDbEntity
8
2
62
256
6
ByLayer
370
-1
48
1
60
0
100
AcDbMText
10
64.266175
20
24.75
30
0
210
0
220
0
230
1
1
\W01.000;\fsimplex.shx,bigfont.shx;28 
40
4.5
41
0
44
1.084337
50
0
71
7
72
5
7
DEFAULT
0
LINE
5
2CF
100
AcDbEntity
8
2
62
256
6
ByLayer
370
-1
48
1
60
0
100
AcDbLine
10
79.93
20
15.375
30
0
11
79.93
21
26.625
31
0
39
0
210
0
220
0
230
1
0
LINE
5
2D0
100
AcDbEntity
8
2
62
256
6
ByLayer
370
-1
48
1
60
0
100
AcDbLine
10
51.610246
20
15.375
30
0
11
51.610246
21
26.625
31
0
39
0
210
0
220
0
230
1
0
LINE
5
2D1
100
AcDbEntity
8
2
62
256
6
ByLayer
370
-1
48
1
60
0
100
AcDbLine
10
79.93
20
23.625
30
0
11
51.610246
21
23.625
31
0
39
0
210
0
220
0
230
1
0
LINE
5
2D2
100
AcDbEntity
8
2
62
256
6
ByLayer
370
-1
48
1
60
0
100
AcDbLine
10
79.93
20
23.625
30
0
11
76.930001
21
23.230043
31
0
39
0
210
0
220
0
230
1
0
LINE
5
2D3
100
AcDbEntity
8
2
62
256
6
ByLayer
370
-1
48
1
60
0
100
AcDbLine
10
79.93
20
23.625
30
0
11
76.929999
21
24.019957
31
0
39
0
210
0
220
0
230
1
0
LINE
5
2D4
100
AcDbEntity
8
2
62
256
6
ByLayer
370
-1
48
1
60
0
100
AcDbLine
10
76.930001
20
23.230043
30
0
11
76.929999
21
24.019957
31
0
39
0
210
0
220
0
230
1
0
LINE
5
2D5
100
AcDbEntity
8
2
62
256
6
ByLayer
370
-1
48
1
60
0
100
AcDbLine
10
51.610246
20
23.625
30
0
11
54.610244
21
24.019957
31
0
39
0
210
0
220
0
230
1
0
LINE
5
2D6
100
AcDbEntity
8
2
62
256
6
ByLayer
370
-1
48
1
60
0
100
AcDbLine
10
51.610246
20
23.625
30
0
11
54.610247
21
23.230043
31
0
39
0
210
0
220
0
230
1
0
LINE
5
2D7
100
AcDbEntity
8
2
62
256
6
ByLayer
370
-1
48
1
60
0
100
AcDbLine
10
54.610244
20
24.019957
30
0
11
54.610247
21
23.230043
31
0
39
0
210
0
220
0
230
1
0
ENDBLK
5
2D9
100
AcDbEntity
8
0
100
AcDbBlockEnd
0
BLOCK
5
2E6
100
AcDbEntity
8
0
100
AcDbBlockBegin
2
DimnDraft3D4
70
0
10
0
20
0
30
0
3
DimnDraft3D4
0
MTEXT
5
2DC
100
AcDbEntity
8
SK2
62
256
6
ByLayer
370
-1
48
1
60
0
100
AcDbMText
10
7.037237
20
34.75
30
0
210
0
220
0
230
1
1
\W01.000;\fsimplex.shx,bigfont.shx;141 
40
4.5
41
0
44
1.084337
50
0
71
7
72
5
7
DEFAULT
0
LINE
5
2DD
100
AcDbEntity
8
SK2
62
256
6
ByLayer
370
-1
48
1
60
0
100
AcDbLine
10
79.93
20
15.375
30
0
11
79.93
21
36.625
31
0
39
0
210
0
220
0
230
1
0
LINE
5
2DE
100
AcDbEntity
8
SK2
62
256
6
ByLayer
370
-1
48
1
60
0
100
AcDbLine
10
-61.32
20
1.5
30
0
11
-61.32
21
36.625
31
0
39
0
210
0
220
0
230
1
0
LINE
5
2DF
100
AcDbEntity
8
SK2
62
256
6
ByLayer
370
-1
48
1
60
0
100
AcDbLine
10
79.93
20
33.625
30
0
11
-61.32
21
33.625
31
0
39
0
210
0
220
0
230
1
0
LINE
5
2E0
100
AcDbEntity
8
SK2
62
256
6
ByLayer
370
-1
48
1
60
0
100
AcDbLine
10
79.93
20
33.625
30
0
11
76.930001
21
33.230043
31
0
39
0
210
0
220
0
230
1
0
LINE
5
2E1
100
AcDbEntity
8
SK2
62
256
6
ByLayer
370
-1
48
1
60
0
100
AcDbLine
10
79.93
20
33.625
30
0
11
76.929999
21
34.019957
31
0
39
0
210
0
220
0
230
1
0
LINE
5
2E2
100
AcDbEntity
8
SK2
62
256
6
ByLayer
370
-1
48
1
60
0
100
AcDbLine
10
76.930001
20
33.230043
30
0
11
76.929999
21
34.019957
31
0
39
0
210
0
220
0
230
1
0
LINE
5
2E3
100
AcDbEntity
8
SK2
62
256
6
ByLayer
370
-1
48
1
60
0
100
AcDbLine
10
-61.32
20
33.625
30
0
11
-58.320001
21
34.019957
31
0
39
0
210
0
220
0
230
1
0
LINE
5
2E4
100
AcDbEntity
8
SK2
62
256
6
ByLayer
370
-1
48
1
60
0
100
AcDbLine
10
-61.32
20
33.625
30
0
11
-58.319999
21
33.230043
31
0
39
0
210
0
220
0
230
1
0
LINE
5
2E5
100
AcDbEntity
8
SK2
62
256
6
ByLayer
370
-1
48
1
60
0
100
AcDbLine
10
-58.320001
20
34.019957
30
0
11
-58.319999
21
33.230043
31
0
39
0
210
0
220
0
230
1
0
ENDBLK
5
2E7
100
AcDbEntity
8
0
100
AcDbBlockEnd
0
ENDSEC
0
SECTION
2
ENTITIES
0
ARC
5
169
100
AcDbEntity
8
1
62
256
6
ByLayer
370
-1
48
1
60
0
100
AcDbCircle
39
0
10
-51.824605
20
-10.475
30
0
40
0.799999999999997
210
0
220
0
230
-1
100
AcDbArc
50
60
51
90
0
ARC
5
16A
100
AcDbEntity
8
1
62
256
6
ByLayer
370
-1
48
1
60
0
100
AcDbCircle
39
0
10
-51.824605
20
10.475
30
0
40
0.799999999999997
210
0
220
0
230
-1
100
AcDbArc
50
270
51
300
0
ARC
5
16B
100
AcDbEntity
8
1
62
256
6
ByLayer
370
-1
48
1
60
0
100
AcDbCircle
39
0
10
-62.824605
20
-10.475
30
0
40
0.8
210
0
220
0
230
-1
100
AcDbArc
50
90
51
99.068722
0
ARC
5
16C
100
AcDbEntity
8
1
62
256
6
ByLayer
370
-1
48
1
60
0
100
AcDbCircle
39
0
10
-62.824605
20
10.475
30
0
40
0.8
210
0
220
0
230
-1
100
AcDbArc
50
220
51
270
0
ELLIPSE
5
16D
100
AcDbEntity
8
1
62
256
6
ByLayer
370
-1
48
1
60
0
100
AcDbEllipse
10
71.963669
20
2.583049
30
0
11
-2.65443258938431
21
1.29855551870084
31
0
210
0
220
0
230
1
40
0.133258
41
1.16354352657314
42
1.4461565289657
0
ELLIPSE
5
16E
100
AcDbEntity
8
1
62
256
6
ByLayer
370
-1
48
1
60
0
100
AcDbEllipse
10
67.153644
20
8.061803
30
0
11
-2.24598971625818
21
-9.02241818050123
31
0
210
0
220
0
230
1
40
0.041989
41
-1.31708711066666
42
-1.30214394260686
0
ELLIPSE
5
16F
100
AcDbEntity
8
1
62
256
6
ByLayer
370
-1
48
1
60
0
100
AcDbEllipse
10
66.842332
20
3.655055
30
0
11
-1.64589647751506
21
0.116296110440479
31
0
210
0
220
0
230
1
40
0.965764
41
-1.5026625466383
42
-0.630870483031651
0
ELLIPSE
5
170
100
AcDbEntity
8
1
62
256
6
ByLayer
370
-1
48
1
60
0
100
AcDbEllipse
10
66.842332
20
3.655055
30
0
11
-1.64589647751506
21
0.116296110440479
31
0
210
0
220
0
230
1
40
0.965764
41
-1.7578189790074
42
-1.50266254663831
0
ELLIPSE
5
171
100
AcDbEntity
8
1
62
256
6
ByLayer
370
-1
48
1
60
0
100
AcDbEllipse
10
68.093952
20
3.916499
30
0
11
-2.11145701959825
21
0.149191788241904
31
0
210
0
220
0
230
1
40
0.965764
41
-1.11762307732675
42
-0.627728021228801
0
ELLIPSE
5
172
100
AcDbEntity
8
1
62
256
6
ByLayer
370
-1
48
1
60
0
100
AcDbEllipse
10
63.087095
20
4.416281
30
0
11
-1.43947440699165
21
1.42723399759439
31
0
210
0
220
0
230
1
40
0.667826
41
-0.728704501944969
42
3.13395682040277
0
ELLIPSE
5
173
100
AcDbEntity
8
1
62
256
6
ByLayer
370
-1
48
1
60
0
100
AcDbEllipse
10
67.674664
20
5.286369
30
0
11
-1.65306217752411
21
0.107682693208166
31
0
210
0
220
0
230
1
40
0.965788
41
1.05525226571959
42
2.19115544793671
0
ELLIPSE
5
174
100
AcDbEntity
8
1
62
256
6
ByLayer
370
-1
48
1
60
0
100
AcDbEllipse
10
66.974877
20
5.530904
30
0
11
-1.64651197074779
21
0.107256010922454
31
0
210
0
220
0
230
1
40
0.965788
41
-1.49804507945725
42
1.50863681175311
0
ELLIPSE
5
175
100
AcDbEntity
8
1
62
256
6
ByLayer
370
-1
48
1
60
0
100
AcDbEllipse
10
68.138384
20
4.545324
30
0
11
-1.99502603335156
21
0.140964982352094
31
0
210
0
220
0
230
1
40
0.965764
41
-1.26020625214149
42
-0.69970173996073
0
ELLIPSE
5
176
100
AcDbEntity
8
1
62
256
6
ByLayer
370
-1
48
1
60
0
100
AcDbEllipse
10
70.832901
20
0
30
0
11
-11.5835962051397
21
8.30554342693538
31
0
210
0
220
0
230
1
40
0.430064
41
1.16199184855651
42
1.84066189220832
0
ELLIPSE
5
177
100
AcDbEntity
8
1
62
256
6
ByLayer
370
-1
48
1
60
0
100
AcDbEllipse
10
66.844161
20
3.680933
30
0
11
1.64589647751506
21
-0.116296110440486
31
0
210
0
220
0
230
1
40
0.965764
41
1.3838608899811
42
1.86794914054485
0
ELLIPSE
5
178
100
AcDbEntity
8
1
62
256
6
ByLayer
370
-1
48
1
60
0
100
AcDbEllipse
10
274.30591
20
-0.008714
30
0
11
-574.128923640163
21
2.50894053945258
31
0
210
0
220
0
230
1
40
0.016291
41
-1.19348981640149
42
-1.19146765526251
0
ELLIPSE
5
179
100
AcDbEntity
8
1
62
256
6
ByLayer
370
-1
48
1
60
0
100
AcDbEllipse
10
70.832901
20
0
30
0
11
-11.5716358579881
21
8.29696774966858
31
0
210
0
220
0
230
1
40
0.430064
41
-0.283174664864386
42
1.14730791518389
0
ELLIPSE
5
17A
100
AcDbEntity
8
1
62
256
6
ByLayer
370
-1
48
1
60
0
100
AcDbEllipse
10
66.888593
20
4.309758
30
0
11
1.64589647751506
21
-0.116296110440486
31
0
210
0
220
0
230
1
40
0.965764
41
1.75362471590282
42
2.07470006325472
0
ELLIPSE
5
17B
100
AcDbEntity
8
1
62
256
6
ByLayer
370
-1
48
1
60
0
100
AcDbEllipse
10
78.024833
20
-0.82638
30
0
11
-2.65443259325615
21
1.29855552023462
31
0
210
0
220
0
230
1
40
0.133258
41
0.880930524160581
42
1.16354352620314
0
ELLIPSE
5
17C
100
AcDbEntity
8
1
62
256
6
ByLayer
370
-1
48
1
60
0
100
AcDbEllipse
10
67.521913
20
13.272908
30
0
11
-1.63784993058776
21
-7.54195098374937
31
0
210
0
220
0
230
1
40
0.160744
41
0.242557715262324
42
0.653463958018517
0
ELLIPSE
5
17D
100
AcDbEntity
8
1
62
256
6
ByLayer
370
-1
48
1
60
0
100
AcDbEllipse
10
80.05537
20
-1.732294
30
0
11
0.00693407685584027
21
-1.40968294611879
31
0
210
0
220
0
230
1
40
0.052006
41
-1.83287963693155
42
-0.7856820857353
0
ELLIPSE
5
17E
100
AcDbEntity
8
1
62
256
6
ByLayer
370
-1
48
1
60
0
100
AcDbEllipse
10
80.05537
20
-1.732294
30
0
11
0.00693407685584027
21
-1.40968294611879
31
0
210
0
220
0
230
1
40
0.052006
41
-2.88007718812786
42
-1.83287963693155
0
ELLIPSE
5
17F
100
AcDbEntity
8
1
62
256
6
ByLayer
370
-1
48
1
60
0
100
AcDbEllipse
10
80.05537
20
-1.732294
30
0
11
0.00693407685584027
21
-1.40968294611879
31
0
210
0
220
0
230
1
40
0.052006
41
0.261515465461165
42
1.30871301665803
0
ELLIPSE
5
180
100
AcDbEntity
8
1
62
256
6
ByLayer
370
-1
48
1
60
0
100
AcDbEllipse
10
80.05537
20
-1.732294
30
0
11
0.00693407685584027
21
-1.40968294611879
31
0
210
0
220
0
230
1
40
0.052006
41
2.35591056785476
42
-2.88007718812786
0
ELLIPSE
5
181
100
AcDbEntity
8
1
62
256
6
ByLayer
370
-1
48
1
60
0
100
AcDbEllipse
10
80.05537
20
-1.732294
30
0
11
0.00693407685584027
21
-1.40968294611879
31
0
210
0
220
0
230
1
40
0.052006
41
1.30871301665803
42
2.35591056785476
0
ELLIPSE
5
182
100
AcDbEntity
8
1
62
256
6
ByLayer
370
-1
48
1
60
0
100
AcDbEllipse
10
80.05537
20
-1.732294
30
0
11
0.00693407685584027
21
-1.40968294611879
31
0
210
0
220
0
230
1
40
0.052006
41
-0.7856820857353
42
0.261515465461165
0
ELLIPSE
5
183
100
AcDbEntity
8
1
62
256
6
ByLayer
370
-1
48
1
60
0
100
AcDbEllipse
10
78.956871
20
-1.737697
30
0
11
-0.0152483778485525
21
3.09996249767203
31
0
210
0
220
0
230
1
40
0.052006
41
1.57054039011301
42
1.57486007868975
0
ELLIPSE
5
184
100
AcDbEntity
8
1
62
256
6
ByLayer
370
-1
48
1
60
0
100
AcDbEllipse
10
78.956871
20
-1.737697
30
0
11
-0.0152483778485525
21
3.09996249767203
31
0
210
0
220
0
230
1
40
0.052006
41
1.54049899354177
42
1.57054039011301
0
ELLIPSE
5
185
100
AcDbEntity
8
1
62
256
6
ByLayer
370
-1
48
1
60
0
100
AcDbEllipse
10
80.05537
20
-1.732294
30
0
11
-0.00836201365888357
21
1.69997943420723
31
0
210
0
220
0
230
1
40
0.052006
41
0
42
6.28318530717959
0
ELLIPSE
5
186
100
AcDbEntity
8
1
62
256
6
ByLayer
370
-1
48
1
60
0
100
AcDbEllipse
10
76.672971
20
-0.067014
30
0
11
0.176329317764098
21
-0.267035525158822
31
0
210
0
220
0
230
1
40
0.03732
41
-2.29821777815288
42
-1.12825396992132
0
ELLIPSE
5
187
100
AcDbEntity
8
1
62
256
6
ByLayer
370
-1
48
1
60
0
100
AcDbEllipse
10
72.28428
20
9.641417
30
0
11
-0.143517613699301
21
-0.0843322544366393
31
0
210
0
220
0
230
1
40
0.195042
41
-2.40799874310896
42
-1.70241255340094
0
ELLIPSE
5
188
100
AcDbEntity
8
1
62
256
6
ByLayer
370
-1
48
1
60
0
100
AcDbEllipse
10
78.472053
20
-0.132947
30
0
11
0.126989212138566
21
0.304587819849098
31
0
210
0
220
0
230
1
40
0.517188
41
-2.1463557277068
42
-1.54493633139591
0
ELLIPSE
5
189
100
AcDbEntity
8
1
62
256
6
ByLayer
370
-1
48
1
60
0
100
AcDbEllipse
10
78.738867
20
10.854076
30
0
11
-0.822902478290182
21
-0.504346294690243
31
0
210
0
220
0
230
1
40
0.3419
41
2.31465636022756
42
3.13110594625893
0
ELLIPSE
5
18A
100
AcDbEntity
8
1
62
256
6
ByLayer
370
-1
48
1
60
0
100
AcDbEllipse
10
77.871358
20
-0.174713
30
0
11
0.329092877421673
21
-0.0244515445386072
31
0
210
0
220
0
230
1
40
0.673036
41
-2.14481203860294
42
-1.32836245256567
0
ELLIPSE
5
18B
100
AcDbEntity
8
1
62
256
6
ByLayer
370
-1
48
1
60
0
100
AcDbEllipse
10
68.101429
20
6.207093
30
0
11
0.12671433357778
21
-0.304702277093459
31
0
210
0
220
0
230
1
40
0.542683
41
-1.61141908984989
42
-1.00999969353896
0
ELLIPSE
5
18C
100
AcDbEntity
8
1
62
256
6
ByLayer
370
-1
48
1
60
0
100
AcDbEllipse
10
68.390449
20
6.675195
30
0
11
0.166646788342776
21
0.284831262215084
31
0
210
0
220
0
230
1
40
0.020796
41
1.15004999605153
42
2.03107132205982
0
ELLIPSE
5
18D
100
AcDbEntity
8
1
62
256
6
ByLayer
370
-1
48
1
60
0
100
AcDbEllipse
10
78.931783
20
12.485321
30
0
11
-0.000396770067298707
21
-0.0911034398144401
31
0
210
0
220
0
230
1
40
0.965798
41
2.10952713435495
42
3.14158434198106
0
ELLIPSE
5
18E
100
AcDbEntity
8
1
62
256
6
ByLayer
370
-1
48
1
60
0
100
AcDbEllipse
10
68.101429
20
6.207093
30
0
11
-0.0259338634078486
21
-0.328979383440274
31
0
210
0
220
0
230
1
40
0.228524
41
-1.16829399898119
42
-0.819228148582228
0
ELLIPSE
5
18F
100
AcDbEntity
8
1
62
256
6
ByLayer
370
-1
48
1
60
0
100
AcDbEllipse
10
73.625307
20
10.383532
30
0
11
-0.128945792966777
21
-0.0768529686820255
31
0
210
0
220
0
230
1
40
0.215846
41
-1.71819106648098
42
-1.00566648803623
0
ELLIPSE
5
190
100
AcDbEntity
8
1
62
256
6
ByLayer
370
-1
48
1
60
0
100
AcDbEllipse
10
79.966153
20
2.5999
30
0
11
-0.140714192678185
21
-0.239169976259792
31
0
210
0
220
0
230
1
40
0.063581
41
-1.18041021360604
42
-0.753835097365208
0
ELLIPSE
5
191
100
AcDbEntity
8
1
62
256
6
ByLayer
370
-1
48
1
60
0
100
AcDbEllipse
10
79.694296
20
10.030832
30
0
11
0.150248298124012
21
0.282533978329754
31
0
210
0
220
0
230
1
40
0.014394
41
1.57841055121133
42
2.74837435943774
0
ELLIPSE
5
192
100
AcDbEntity
8
1
62
256
6
ByLayer
370
-1
48
1
60
0
100
AcDbEllipse
10
68.838088
20
6.305221
30
0
11
-0.832437249543942
21
0.488229794592997
31
0
210
0
220
0
230
1
40
0.306363
41
-0.823404481091979
42
-0.00695489505244464
0
ELLIPSE
5
193
100
AcDbEntity
8
1
62
256
6
ByLayer
370
-1
48
1
60
0
100
AcDbEllipse
10
73.240641
20
3.194153
30
0
11
0.0357259918071446
21
0.145683401626252
31
0
210
0
220
0
230
1
40
0.046814
41
1.31258632271736
42
1.48711924791733
0
ELLIPSE
5
194
100
AcDbEntity
8
1
62
256
6
ByLayer
370
-1
48
1
60
0
100
AcDbEllipse
10
78.760764
20
5.083706
30
0
11
-0.143814300897885
21
-0.0426315242192043
31
0
210
0
220
0
230
1
40
0.244304
41
-1.83516128982953
42
-1.66062836463021
0
ELLIPSE
5
195
100
AcDbEntity
8
1
62
256
6
ByLayer
370
-1
48
1
60
0
100
AcDbEllipse
10
78.923126
20
10.967081
30
0
11
-4.67600826818841E-17
21
-0.254558441227155
31
0
210
0
220
0
230
1
40
0.999867
41
-0.558493593836867
42
0.549766437173617
0
ELLIPSE
5
196
100
AcDbEntity
8
1
62
256
6
ByLayer
370
-1
48
1
60
0
100
AcDbEllipse
10
76.623385
20
-0.290117
30
0
11
-0.289207308379009
21
0.16986217434955
31
0
210
0
220
0
230
1
40
0.223196
41
1.65552978788611
42
1.93117354712283
0
ELLIPSE
5
197
100
AcDbEntity
8
1
62
256
6
ByLayer
370
-1
48
1
60
0
100
AcDbEllipse
10
79.051918
20
-0.219256
30
0
11
-0.179619284128355
21
0.0117009730030217
31
0
210
0
220
0
230
1
40
0.965789
41
2.39034587768744
42
2.68082561138853
0
ELLIPSE
5
198
100
AcDbEntity
8
1
62
256
6
ByLayer
370
-1
48
1
60
0
100
AcDbEllipse
10
79.694296
20
10.030832
30
0
11
-0.175677408214765
21
-0.267464854220032
31
0
210
0
220
0
230
1
40
0.203761
41
0.402079994214191
42
1.39268532020111
0
ELLIPSE
5
199
100
AcDbEntity
8
1
62
256
6
ByLayer
370
-1
48
1
60
0
100
AcDbEllipse
10
79.417527
20
4.952518
30
0
11
0.00498680642490531
21
-0.149917082954814
31
0
210
0
220
0
230
1
40
0.026344
41
1.83182940267578
42
2.54435398120054
0
ELLIPSE
5
19A
100
AcDbEntity
8
1
62
256
6
ByLayer
370
-1
48
1
60
0
100
AcDbEllipse
10
78.616922
20
11.158439
30
0
11
-4.67600826818841E-17
21
-0.254558441227155
31
0
210
0
220
0
230
1
40
0.999867
41
-0.863312072454354
42
-0.558493593836855
0
ELLIPSE
5
19B
100
AcDbEntity
8
1
62
256
6
ByLayer
370
-1
48
1
60
0
100
AcDbEllipse
10
79.119814
20
-1.55257
30
0
11
-0.0878138722405288
21
0.00572047569036621
31
0
210
0
220
0
230
1
40
0.965789
41
2.68082561138867
42
-3.14157919444835
0
ELLIPSE
5
19C
100
AcDbEntity
8
1
62
256
6
ByLayer
370
-1
48
1
60
0
100
AcDbEllipse
10
79.186343
20
-0.531307
30
0
11
-0.0842609164652341
21
-0.0290942334951346
31
0
210
0
220
0
230
1
40
0.911082
41
2.31546043515793
42
-2.9356676644204
0
ELLIPSE
5
19D
100
AcDbEntity
8
1
62
256
6
ByLayer
370
-1
48
1
60
0
100
AcDbEllipse
10
75.170537
20
5.964191
30
0
11
3.07390048262853
21
-0.200243680603412
31
0
210
0
220
0
230
1
40
0.965789
41
0
42
6.28318530717959
0
ELLIPSE
5
19E
100
AcDbEntity
8
1
62
256
6
ByLayer
370
-1
48
1
60
0
100
AcDbEllipse
10
79.694296
20
10.030832
30
0
11
-0.101161855390478
21
0.303588996859168
31
0
210
0
220
0
230
1
40
0.015437
41
1.56561488893599
42
1.84125864988229
0
ELLIPSE
5
19F
100
AcDbEntity
8
1
62
256
6
ByLayer
370
-1
48
1
60
0
100
AcDbEllipse
10
77.871358
20
-0.174713
30
0
11
-0.329941928492634
21
-0.0061906237619317
31
0
210
0
220
0
230
1
40
0.387666
41
0.891887709618126
42
1.77290903562753
0
ELLIPSE
5
1A0
100
AcDbEntity
8
1
62
256
6
ByLayer
370
-1
48
1
60
0
100
AcDbEllipse
10
79.106381
20
10.852472
30
0
11
-0.818470076660247
21
0.511508916892432
31
0
210
0
220
0
230
1
40
0.341899
41
0.0104869071733627
42
0.826936493207591
0
ELLIPSE
5
1A1
100
AcDbEntity
8
1
62
256
6
ByLayer
370
-1
48
1
60
0
100
AcDbEllipse
10
69.303711
20
4.448863
30
0
11
-0.352030382761102
21
0.578101923584175
31
0
210
0
220
0
230
1
40
0.071322
41
1.74625735237125
42
2.60919099825423
0
ELLIPSE
5
1A2
100
AcDbEntity
8
1
62
256
6
ByLayer
370
-1
48
1
60
0
100
AcDbEllipse
10
76.740296
20
11.601735
30
0
11
-0.704940313667196
21
0.0225354790913942
31
0
210
0
220
0
230
1
40
0.11846
41
0.629741133709681
42
1.49267477965613
0
ELLIPSE
5
1A3
100
AcDbEntity
8
1
62
256
6
ByLayer
370
-1
48
1
60
0
100
AcDbEllipse
10
78.587629
20
5.667764
30
0
11
-0.143814300897885
21
-0.0426315242192043
31
0
210
0
220
0
230
1
40
0.244304
41
-1.83516128982953
42
-1.66062836463002
0
ELLIPSE
5
1A4
100
AcDbEntity
8
1
62
256
6
ByLayer
370
-1
48
1
60
0
100
AcDbEllipse
10
79.234402
20
11.155669
30
0
11
-0.171567193481955
21
0.281894835214705
31
0
210
0
220
0
230
1
40
0.328804
41
-2.38864574650016
42
-1.57219616046262
0
ELLIPSE
5
1A5
100
AcDbEntity
8
1
62
256
6
ByLayer
370
-1
48
1
60
0
100
AcDbEllipse
10
79.924457
20
9.879656
30
0
11
-0.000910734193138487
21
-0.382239909112894
31
0
210
0
220
0
230
1
40
0.013965
41
-1.40181009900262
42
-0.411204772644563
0
ELLIPSE
5
1A6
100
AcDbEntity
8
1
62
256
6
ByLayer
370
-1
48
1
60
0
100
AcDbEllipse
10
68.360314
20
5.336951
30
0
11
-0.120148037056857
21
0.0531314301917148
31
0
210
0
220
0
230
1
40
0.908072
41
3.10576497474639
42
-2.23387201390945
0
ELLIPSE
5
1A7
100
AcDbEntity
8
1
62
256
6
ByLayer
370
-1
48
1
60
0
100
AcDbEllipse
10
68.697483
20
6.160105
30
0
11
-0.0259338634078486
21
-0.328979383440274
31
0
210
0
220
0
230
1
40
0.228524
41
-1.16829399898124
42
-0.81922814858253
0
ELLIPSE
5
1A8
100
AcDbEntity
8
1
62
256
6
ByLayer
370
-1
48
1
60
0
100
AcDbEllipse
10
69.955785
20
3.862471
30
0
11
0.249471227956048
21
-0.0162513513930857
31
0
210
0
220
0
230
1
40
0.965789
41
-2.12769914672041
42
-2.03156336899617
0
ELLIPSE
5
1A9
100
AcDbEntity
8
1
62
256
6
ByLayer
370
-1
48
1
60
0
100
AcDbEllipse
10
79.088013
20
6.073601
30
0
11
0.0633059060388738
21
-0.135986625300422
31
0
210
0
220
0
230
1
40
0.127852
41
1.09471097891119
42
1.80029716860936
0
ELLIPSE
5
1AA
100
AcDbEntity
8
1
62
256
6
ByLayer
370
-1
48
1
60
0
100
AcDbEllipse
10
78.929689
20
11.688877
30
0
11
-0.285075263893942
21
0.166229040530827
31
0
210
0
220
0
230
1
40
0.008173
41
1.20764539343539
42
1.55671124383636
0
ELLIPSE
5
1AB
100
AcDbEntity
8
1
62
256
6
ByLayer
370
-1
48
1
60
0
100
AcDbEllipse
10
79.682396
20
2.643896
30
0
11
0.249471227956048
21
-0.0162513513930857
31
0
210
0
220
0
230
1
40
0.965789
41
-0.0333040443272456
42
0.0628317333970616
0
ELLIPSE
5
1AC
100
AcDbEntity
8
1
62
256
6
ByLayer
370
-1
48
1
60
0
100
AcDbEllipse
10
79.230989
20
11.155759
30
0
11
-4.67600826818841E-17
21
-0.254558441227155
31
0
210
0
220
0
230
1
40
0.999867
41
0.549766437173729
42
0.854585258752993
0
ELLIPSE
5
1AD
100
AcDbEntity
8
1
62
256
6
ByLayer
370
-1
48
1
60
0
100
AcDbEllipse
10
79.439494
20
1.291528
30
0
11
-0.17235187462767
21
-0.0595109321079779
31
0
210
0
220
0
230
1
40
0.911082
41
2.31546043547531
42
-3.02417655312595
0
ELLIPSE
5
1AE
100
AcDbEntity
8
1
62
256
6
ByLayer
370
-1
48
1
60
0
100
AcDbEllipse
10
79.115064
20
0.750084
30
0
11
-0.17235187461066
21
-0.059510932126036
31
0
210
0
220
0
230
1
40
0.911082
41
1.37191211673033
42
2.31546043533729
0
ELLIPSE
5
1AF
100
AcDbEntity
8
1
62
256
6
ByLayer
370
-1
48
1
60
0
100
AcDbEllipse
10
79.234402
20
11.155669
30
0
11
0.172437766515797
21
-0.281363140228146
31
0
210
0
220
0
230
1
40
0.013865
41
-1.57933547052241
42
-0.698314144517581
0
ELLIPSE
5
1B0
100
AcDbEntity
8
1
62
256
6
ByLayer
370
-1
48
1
60
0
100
AcDbEllipse
10
79.079569
20
0.454334
30
0
11
-0.124476353880888
21
-0.0429801176526918
31
0
210
0
220
0
230
1
40
0.911082
41
-1.76968053692386
42
-0.82613221830045
0
ELLIPSE
5
1B1
100
AcDbEntity
8
1
62
256
6
ByLayer
370
-1
48
1
60
0
100
AcDbEllipse
10
78.926539
20
10.966991
30
0
11
-0.174886668864497
21
-0.279847553238329
31
0
210
0
220
0
230
1
40
0.013828
41
-1.56219675959257
42
-0.681175433579822
0
ELLIPSE
5
1B2
100
AcDbEntity
8
1
62
256
6
ByLayer
370
-1
48
1
60
0
100
AcDbEllipse
10
79.234402
20
11.155669
30
0
11
0.28651500664998
21
0.1637350022578
31
0
210
0
220
0
230
1
40
0.008111
41
1.23585108313343
42
1.58491693353031
0
ELLIPSE
5
1B3
100
AcDbEntity
8
1
62
256
6
ByLayer
370
-1
48
1
60
0
100
AcDbEllipse
10
79.61311
20
1.580301
30
0
11
0.249471227956048
21
-0.0162513513930857
31
0
210
0
220
0
230
1
40
0.965789
41
-0.460767042201218
42
-1.31917325578184E-06
0
ELLIPSE
5
1B4
100
AcDbEntity
8
1
62
256
6
ByLayer
370
-1
48
1
60
0
100
AcDbEllipse
10
78.620335
20
11.158349
30
0
11
0.174886668864497
21
0.279847553238329
31
0
210
0
220
0
230
1
40
0.013828
41
1.57939589399718
42
2.46041722000748
0
ELLIPSE
5
1B5
100
AcDbEntity
8
1
62
256
6
ByLayer
370
-1
48
1
60
0
100
AcDbEllipse
10
78.929689
20
11.688877
30
0
11
0.28651500664998
21
0.1637350022578
31
0
210
0
220
0
230
1
40
0.008111
41
1.23585108313232
42
1.58491693353031
0
ELLIPSE
5
1B6
100
AcDbEntity
8
1
62
256
6
ByLayer
370
-1
48
1
60
0
100
AcDbEllipse
10
74.112088
20
9.348803
30
0
11
0.105854520827007
21
-0.106277092642229
31
0
210
0
220
0
230
1
40
0.19749
41
1.74310194330193
42
1.91763486850139
0
ELLIPSE
5
1B7
100
AcDbEntity
8
1
62
256
6
ByLayer
370
-1
48
1
60
0
100
AcDbEllipse
10
77.446326
20
-0.504642
30
0
11
-0.239377603625571
21
-0.0826540723705797
31
0
210
0
220
0
230
1
40
0.911082
41
0.744664108637977
42
1.28340322788427
0
ELLIPSE
5
1B8
100
AcDbEntity
8
1
62
256
6
ByLayer
370
-1
48
1
60
0
100
AcDbEllipse
10
73.675755
20
8.914205
30
0
11
0.105854520827007
21
-0.106277092642229
31
0
210
0
220
0
230
1
40
0.19749
41
1.74310194330164
42
1.91763486850099
0
ELLIPSE
5
1B9
100
AcDbEntity
8
1
62
256
6
ByLayer
370
-1
48
1
60
0
100
AcDbEllipse
10
68.238316
20
5.541619
30
0
11
-0.120148037015792
21
0.0531314302280299
31
0
210
0
220
0
230
1
40
0.908072
41
-2.23387201348968
42
-1.20181480591754
0
ELLIPSE
5
1BA
100
AcDbEntity
8
1
62
256
6
ByLayer
370
-1
48
1
60
0
100
AcDbEllipse
10
78.929689
20
11.688877
30
0
11
-0.329991143274648
21
0.00241771799247104
31
0
210
0
220
0
230
1
40
0.178986
41
-1.85495451927008
42
-1.25353512295933
0
ELLIPSE
5
1BB
100
AcDbEntity
8
1
62
256
6
ByLayer
370
-1
48
1
60
0
100
AcDbEllipse
10
67.320722
20
4.793703
30
0
11
-0.0878138722405259
21
0.00572047569036602
31
0
210
0
220
0
230
1
40
0.965789
41
1.16283420954723E-05
42
0.586430508995181
0
ELLIPSE
5
1BC
100
AcDbEntity
8
1
62
256
6
ByLayer
370
-1
48
1
60
0
100
AcDbEllipse
10
73.356218
20
2.570999
30
0
11
-0.149596176921153
21
0.0109992659107353
31
0
210
0
220
0
230
1
40
0.259322
41
-1.56863274343696
42
-0.863046553738757
0
ELLIPSE
5
1BD
100
AcDbEntity
8
1
62
256
6
ByLayer
370
-1
48
1
60
0
100
AcDbEllipse
10
78.620335
20
11.158349
30
0
11
-0.285075263893942
21
0.166229040530827
31
0
210
0
220
0
230
1
40
0.008173
41
1.20764539343712
42
1.55671124383619
0
ELLIPSE
5
1BE
100
AcDbEntity
8
1
62
256
6
ByLayer
370
-1
48
1
60
0
100
AcDbEllipse
10
79.672559
20
10.859672
30
0
11
-0.00112718756784704
21
-0.258816590361805
31
0
210
0
220
0
230
1
40
0.965798
41
1.57078801463434
42
2.10952713396572
0
ELLIPSE
5
1BF
100
AcDbEntity
8
1
62
256
6
ByLayer
370
-1
48
1
60
0
100
AcDbEllipse
10
73.289913
20
1.669211
30
0
11
-0.14336018976957
21
0.0848352941024823
31
0
210
0
220
0
230
1
40
0.209444
41
-1.46498982432075
42
-0.759403634593669
0
ELLIPSE
5
1C0
100
AcDbEntity
8
1
62
256
6
ByLayer
370
-1
48
1
60
0
100
AcDbEllipse
10
79.376349
20
0.322189
30
0
11
-0.179619284128355
21
0.0117009730030217
31
0
210
0
220
0
230
1
40
0.965789
41
2.68082561138856
42
-3.14158154768321
0
ELLIPSE
5
1C1
100
AcDbEntity
8
1
62
256
6
ByLayer
370
-1
48
1
60
0
100
AcDbEllipse
10
78.620335
20
11.158349
30
0
11
-0.175765810909964
21
-0.279296222164144
31
0
210
0
220
0
230
1
40
0.354829
41
-1.55115824838676
42
-0.734708662349302
0
ELLIPSE
5
1C2
100
AcDbEntity
8
1
62
256
6
ByLayer
370
-1
48
1
60
0
100
AcDbEllipse
10
68.651586
20
6.414338
30
0
11
0.214135434812111
21
-0.137644526072878
31
0
210
0
220
0
230
1
40
0.895737
41
0.509329721976745
42
1.61758975637608
0
ELLIPSE
5
1C3
100
AcDbEntity
8
1
62
256
6
ByLayer
370
-1
48
1
60
0
100
AcDbEllipse
10
78.957571
20
0.250731
30
0
11
-0.124476353899567
21
-0.0429801176373616
31
0
210
0
220
0
230
1
40
0.911082
41
-0.82613221812572
42
0.205924989390249
0
ELLIPSE
5
1C4
100
AcDbEntity
8
1
62
256
6
ByLayer
370
-1
48
1
60
0
100
AcDbEllipse
10
77.76329
20
11.715167
30
0
11
-0.000811575289892787
21
-0.186347945095011
31
0
210
0
220
0
230
1
40
0.965798
41
2.19803602415748
42
3.14158434276606
0
ELLIPSE
5
1C5
100
AcDbEntity
8
1
62
256
6
ByLayer
370
-1
48
1
60
0
100
AcDbEllipse
10
72.187758
20
2.860238
30
0
11
-0.131634364356025
21
0.0719193584550445
31
0
210
0
220
0
230
1
40
0.236597
41
-2.17381970518025
42
-1.46129512665335
0
ELLIPSE
5
1C6
100
AcDbEntity
8
1
62
256
6
ByLayer
370
-1
48
1
60
0
100
AcDbEllipse
10
79.929831
20
9.036648
30
0
11
-0.000560354042072567
21
-0.17520402568285
31
0
210
0
220
0
230
1
40
0.014074
41
1.79425022212258
42
2.73672801774293
0
ELLIPSE
5
1C7
100
AcDbEntity
8
1
62
256
6
ByLayer
370
-1
48
1
60
0
100
AcDbEllipse
10
69.806591
20
3.586741
30
0
11
-0.140264068708215
21
0.240302572549515
31
0
210
0
220
0
230
1
40
0.078706
41
-0.938728405687165
42
-0.512153288108582
0
ELLIPSE
5
1C8
100
AcDbEntity
8
1
62
256
6
ByLayer
370
-1
48
1
60
0
100
AcDbEllipse
10
78.926539
20
10.966991
30
0
11
-0.172437766515797
21
0.281363140228146
31
0
210
0
220
0
230
1
40
0.013865
41
1.56225718306743
42
2.44327850907472
0
ELLIPSE
5
1C9
100
AcDbEntity
8
1
62
256
6
ByLayer
370
-1
48
1
60
0
100
AcDbEllipse
10
68.939267
20
4.600279
30
0
11
-0.166358820481514
21
0.0735665957023968
31
0
210
0
220
0
230
1
40
0.908072
41
0.907720640112851
42
1.85126895873784
0
ELLIPSE
5
1CA
100
AcDbEntity
8
1
62
256
6
ByLayer
370
-1
48
1
60
0
100
AcDbEllipse
10
68.174599
20
4.56351
30
0
11
0.129725038537145
21
-0.00845070272440455
31
0
210
0
220
0
230
1
40
0.965789
41
0.586430508995417
42
1.61848771655667
0
ELLIPSE
5
1CB
100
AcDbEntity
8
1
62
256
6
ByLayer
370
-1
48
1
60
0
100
AcDbEllipse
10
68.654331
20
6.613498
30
0
11
-0.000207326159982558
21
0.8901575247244
31
0
210
0
220
0
230
1
40
0.360082
41
3.11313022187831
42
-2.3536054992793
0
ELLIPSE
5
1CC
100
AcDbEntity
8
1
62
256
6
ByLayer
370
-1
48
1
60
0
100
AcDbEllipse
10
77.871358
20
-0.174713
30
0
11
0.0228891020462366
21
-0.329205238426604
31
0
210
0
220
0
230
1
40
0.196789
41
0.821693699627935
42
1.17075955002708
0
ELLIPSE
5
1CD
100
AcDbEntity
8
1
62
256
6
ByLayer
370
-1
48
1
60
0
100
AcDbEllipse
10
72.631173
20
3.343613
30
0
11
0.0357259918071446
21
0.145683401626252
31
0
210
0
220
0
230
1
40
0.046814
41
1.31258632271843
42
1.48711924791743
0
ELLIPSE
5
1CE
100
AcDbEntity
8
1
62
256
6
ByLayer
370
-1
48
1
60
0
100
AcDbEllipse
10
75.149312
20
5.638373
30
0
11
-2.91486949082833
21
0.189883894622037
31
0
210
0
220
0
230
1
40
0.965789
41
-0.591306881925007
42
-3.14832315605616E-16
0
ELLIPSE
5
1CF
100
AcDbEntity
8
1
62
256
6
ByLayer
370
-1
48
1
60
0
100
AcDbEllipse
10
75.149312
20
5.638373
30
0
11
-2.91486949082833
21
0.189883894622037
31
0
210
0
220
0
230
1
40
0.965789
41
0
42
0.440412056915356
0
ELLIPSE
5
1D0
100
AcDbEntity
8
1
62
256
6
ByLayer
370
-1
48
1
60
0
100
AcDbEllipse
10
75.149312
20
5.638373
30
0
11
-2.91486949082833
21
0.189883894622037
31
0
210
0
220
0
230
1
40
0.965789
41
2.70108248924326
42
-2.57767685223082
0
ELLIPSE
5
1D1
100
AcDbEntity
8
1
62
256
6
ByLayer
370
-1
48
1
60
0
100
AcDbEllipse
10
78.178392
20
0.337698
30
0
11
-0.206260449892316
21
0.257597800476284
31
0
210
0
220
0
230
1
40
0.301789
41
-2.0276870397459
42
-1.21123745370846
0
ELLIPSE
5
1D2
100
AcDbEntity
8
1
62
256
6
ByLayer
370
-1
48
1
60
0
100
AcDbEllipse
10
67.389289
20
5.811547
30
0
11
-0.0813309789022598
21
0.0359658912331022
31
0
210
0
220
0
230
1
40
0.908072
41
0.907720640125421
42
1.93977784769636
0
ELLIPSE
5
1D3
100
AcDbEntity
8
1
62
256
6
ByLayer
370
-1
48
1
60
0
100
AcDbEllipse
10
71.948886
20
2.42303
30
0
11
-0.128769199371499
21
0.0771501606320456
31
0
210
0
220
0
230
1
40
0.232115
41
-2.16459055346873
42
-1.45206597501525
0
ELLIPSE
5
1D4
100
AcDbEntity
8
1
62
256
6
ByLayer
370
-1
48
1
60
0
100
AcDbEllipse
10
68.614837
20
5.144555
30
0
11
-0.166358820506645
21
0.0735665956796585
31
0
210
0
220
0
230
1
40
0.908072
41
-0.0358276786437985
42
0.907720639933942
0
ELLIPSE
5
1D5
100
AcDbEntity
8
1
62
256
6
ByLayer
370
-1
48
1
60
0
100
AcDbEllipse
10
68.390449
20
6.675195
30
0
11
-0.21023359508877
21
-0.25436555485374
31
0
210
0
220
0
230
1
40
0.325777
41
-1.90870933697274
42
-1.09225975093549
0
ELLIPSE
5
1D6
100
AcDbEntity
8
1
62
256
6
ByLayer
370
-1
48
1
60
0
100
AcDbEllipse
10
75.87343
20
11.386207
30
0
11
0.249471227956048
21
-0.0162513513930857
31
0
210
0
220
0
230
1
40
0.965789
41
2.06109105806586
42
2.15722683579019
0
ELLIPSE
5
1D7
100
AcDbEntity
8
1
62
256
6
ByLayer
370
-1
48
1
60
0
100
AcDbEllipse
10
69.011064
20
6.585376
30
0
11
-1.536306891668
21
-0.724448865221308
31
0
210
0
220
0
230
1
40
0.188839
41
-0.282355984099014
42
0.319063412221303
0
ELLIPSE
5
1D8
100
AcDbEntity
8
1
62
256
6
ByLayer
370
-1
48
1
60
0
100
AcDbEllipse
10
78.222036
20
0.25875
30
0
11
0.222782340523561
21
0.123158551269667
31
0
210
0
220
0
230
1
40
0.903036
41
1.28317267091926
42
1.58799132119608
0
ELLIPSE
5
1D9
100
AcDbEntity
8
1
62
256
6
ByLayer
370
-1
48
1
60
0
100
AcDbEllipse
10
68.697483
20
6.160105
30
0
11
0.328515456278559
21
0.0312665154133021
31
0
210
0
220
0
230
1
40
0.671
41
-1.85705436438098
42
-1.04060477834363
0
ELLIPSE
5
1DA
100
AcDbEntity
8
1
62
256
6
ByLayer
370
-1
48
1
60
0
100
AcDbEllipse
10
73.89874
20
9.963365
30
0
11
0.125722164389598
21
0.0818164859988194
31
0
210
0
220
0
230
1
40
0.210253
41
1.41488498587103
42
2.12740956439784
0
ELLIPSE
5
1DB
100
AcDbEntity
8
1
62
256
6
ByLayer
370
-1
48
1
60
0
100
AcDbEllipse
10
68.702069
20
6.492875
30
0
11
-0.166646788342777
21
-0.284831262215084
31
0
210
0
220
0
230
1
40
0.020796
41
-1.99154265753827
42
-1.1105213315282
0
ELLIPSE
5
1DC
100
AcDbEntity
8
1
62
256
6
ByLayer
370
-1
48
1
60
0
100
AcDbEllipse
10
69.144334
20
7.824273
30
0
11
-0.336670865974962
21
-0.199900719026741
31
0
210
0
220
0
230
1
40
0.176549
41
1.40038053930212
42
2.39098586531941
0
ELLIPSE
5
1DD
100
AcDbEntity
8
1
62
256
6
ByLayer
370
-1
48
1
60
0
100
AcDbEllipse
10
77.915002
20
-0.253661
30
0
11
0.222782340523561
21
0.123158551269667
31
0
210
0
220
0
230
1
40
0.903036
41
2.69625135559556
42
3.00107000587245
0
ELLIPSE
5
1DE
100
AcDbEntity
8
1
62
256
6
ByLayer
370
-1
48
1
60
0
100
AcDbEllipse
10
78.178392
20
0.337698
30
0
11
0.164123276904415
21
-0.286292769692419
31
0
210
0
220
0
230
1
40
0.007386
41
-2.00786484603838
42
-1.12684352003382
0
ELLIPSE
5
1DF
100
AcDbEntity
8
1
62
256
6
ByLayer
370
-1
48
1
60
0
100
AcDbEllipse
10
69.119619
20
7.549209
30
0
11
-0.319437373112233
21
-0.0189674631713379
31
0
210
0
220
0
230
1
40
0.372092
41
1.30555697618084
42
2.47552078441337
0
ELLIPSE
5
1E0
100
AcDbEntity
8
1
62
256
6
ByLayer
370
-1
48
1
60
0
100
AcDbEllipse
10
78.472053
20
-0.132947
30
0
11
0.0228891020462366
21
-0.329205238426604
31
0
210
0
220
0
230
1
40
0.196789
41
0.821693699628523
42
1.17075955002723
0
ELLIPSE
5
1E1
100
AcDbEntity
8
1
62
256
6
ByLayer
370
-1
48
1
60
0
100
AcDbEllipse
10
69.119619
20
7.549209
30
0
11
-0.214373568568197
21
-0.237579403777635
31
0
210
0
220
0
230
1
40
0.080191
41
1.11663809063041
42
1.39228185157732
0
ELLIPSE
5
1E2
100
AcDbEntity
8
1
62
256
6
ByLayer
370
-1
48
1
60
0
100
AcDbEllipse
10
79.929831
20
6.465493
30
0
11
-0.000592402743838296
21
-0.16572921117316
31
0
210
0
220
0
230
1
40
0.014833
41
1.10168084754271
42
1.80726703527587
0
ELLIPSE
5
1E3
100
AcDbEntity
8
1
62
256
6
ByLayer
370
-1
48
1
60
0
100
AcDbEllipse
10
68.94006
20
7.711229
30
0
11
-0.289259154534303
21
-0.169069488305596
31
0
210
0
220
0
230
1
40
0.207991
41
1.18265416946182
42
1.45829792971387
0
ELLIPSE
5
1E4
100
AcDbEntity
8
1
62
256
6
ByLayer
370
-1
48
1
60
0
100
AcDbEllipse
10
68.551691
20
4.175216
30
0
11
-0.179619284128355
21
0.0117009730030217
31
0
210
0
220
0
230
1
40
0.965789
41
9.08050199972374E-07
42
0.586430508995287
0
ELLIPSE
5
1E5
100
AcDbEntity
8
1
62
256
6
ByLayer
370
-1
48
1
60
0
100
AcDbEllipse
10
77.865114
20
0.158105
30
0
11
0.329941928492634
21
0.00619062376193198
31
0
210
0
220
0
230
1
40
0.387666
41
-2.24970494397172
42
-1.36868361796226
0
ELLIPSE
5
1E6
100
AcDbEntity
8
1
62
256
6
ByLayer
370
-1
48
1
60
0
100
AcDbEllipse
10
77.90502
20
0.278345
30
0
11
-0.00595811941980433
21
0.89017666942274
31
0
210
0
220
0
230
1
40
0.362985
41
2.34793671774149
42
-3.11879900341349
0
ELLIPSE
5
1E7
100
AcDbEntity
8
1
62
256
6
ByLayer
370
-1
48
1
60
0
100
AcDbEllipse
10
68.339966
20
6.596658
30
0
11
0.214135434812111
21
-0.137644526072878
31
0
210
0
220
0
230
1
40
0.895737
41
1.61758975637614
42
1.92240840665302
0
ELLIPSE
5
1E8
100
AcDbEntity
8
1
62
256
6
ByLayer
370
-1
48
1
60
0
100
AcDbEllipse
10
75.59482
20
0.373575
30
0
11
-0.152152475732202
21
0.0895179785069965
31
0
210
0
220
0
230
1
40
0.197758
41
-2.41395421089299
42
-1.47147641477904
0
ELLIPSE
5
1E9
100
AcDbEntity
8
1
62
256
6
ByLayer
370
-1
48
1
60
0
100
AcDbEllipse
10
76.419111
20
-0.17529
30
0
11
-0.335804858939723
21
0.201414936976501
31
0
210
0
220
0
230
1
40
0.189826
41
0.72755014621519
42
1.71815547220107
0
ELLIPSE
5
1EA
100
AcDbEntity
8
1
62
256
6
ByLayer
370
-1
48
1
60
0
100
AcDbEllipse
10
76.672971
20
-0.067014
30
0
11
0.312377620717914
21
-0.0694278191693727
31
0
210
0
220
0
230
1
40
0.335766
41
-1.55801442581507
42
-1.2823706648683
0
ELLIPSE
5
1EB
100
AcDbEntity
8
1
62
256
6
ByLayer
370
-1
48
1
60
0
100
AcDbEllipse
10
68.697483
20
6.160105
30
0
11
-0.329968661514939
21
0.00454779265573912
31
0
210
0
220
0
230
1
40
0.388155
41
1.33335276074524
42
2.2143740867545
0
ELLIPSE
5
1EC
100
AcDbEntity
8
1
62
256
6
ByLayer
370
-1
48
1
60
0
100
AcDbEllipse
10
68.101429
20
6.207093
30
0
11
-0.280790684040499
21
0.173368370114241
31
0
210
0
220
0
230
1
40
0.444526
41
1.21365952070703
42
1.56272537110603
0
ELLIPSE
5
1ED
100
AcDbEntity
8
1
62
256
6
ByLayer
370
-1
48
1
60
0
100
AcDbEllipse
10
75.731281
20
11.58948
30
0
11
-0.28303303166322
21
0.000905222948037169
31
0
210
0
220
0
230
1
40
0.13718
41
-2.52176974027015
42
-2.09519462497369
0
ELLIPSE
5
1EE
100
AcDbEntity
8
1
62
256
6
ByLayer
370
-1
48
1
60
0
100
AcDbEllipse
10
69.979373
20
8.365898
30
0
11
-0.152300321241131
21
-0.0888973533437487
31
0
210
0
220
0
230
1
40
0.184283
41
-1.69445883680106
42
-0.751981040687764
0
ELLIPSE
5
1EF
100
AcDbEntity
8
1
62
256
6
ByLayer
370
-1
48
1
60
0
100
AcDbEllipse
10
69.119619
20
7.549209
30
0
11
0.3187160302586
21
-0.0286372494524021
31
0
210
0
220
0
230
1
40
0.189541
41
-1.61440428860225
42
-0.623798962615209
0
ELLIPSE
5
1F0
100
AcDbEntity
8
1
62
256
6
ByLayer
370
-1
48
1
60
0
100
AcDbEllipse
10
67.322761
20
4.790283
30
0
11
-0.0878138722405288
21
0.00572047569036621
31
0
210
0
220
0
230
1
40
0.965789
41
0.586430508995172
42
1.61848771655667
0
ELLIPSE
5
1F1
100
AcDbEntity
8
1
62
256
6
ByLayer
370
-1
48
1
60
0
100
AcDbEllipse
10
67.38725
20
5.814967
30
0
11
-0.0813309788926981
21
0.0359658912393465
31
0
210
0
220
0
230
1
40
0.908072
41
-0.124336567342488
42
0.907720640261794
0
ELLIPSE
5
1F2
100
AcDbEntity
8
1
62
256
6
ByLayer
370
-1
48
1
60
0
100
AcDbEllipse
10
73.059793
20
9.131521
30
0
11
0.0824075344049275
21
0.125335542737488
31
0
210
0
220
0
230
1
40
0.131471
41
0.637761892178256
42
1.34334808187636
0
ELLIPSE
5
1F3
100
AcDbEntity
8
1
62
256
6
ByLayer
370
-1
48
1
60
0
100
AcDbEllipse
10
79.929831
20
4.969559
30
0
11
-0.000654095709453669
21
-0.150104692018834
31
0
210
0
220
0
230
1
40
0.016273
41
1.83244169419477
42
2.54496627429354
0
ELLIPSE
5
1F4
100
AcDbEntity
8
1
62
256
6
ByLayer
370
-1
48
1
60
0
100
AcDbEllipse
10
77.545509
20
0.253349
30
0
11
-1.55232594746966
21
0.738057643119622
31
0
210
0
220
0
230
1
40
0.185907
41
2.82298096078143
42
-2.85878495008632
0
ELLIPSE
5
1F5
100
AcDbEntity
8
1
62
256
6
ByLayer
370
-1
48
1
60
0
100
AcDbEllipse
10
68.390449
20
6.675195
30
0
11
-0.280790684040499
21
0.173368370114241
31
0
210
0
220
0
230
1
40
0.444526
41
1.21365952070708
42
1.56272537110603
0
ELLIPSE
5
1F6
100
AcDbEntity
8
1
62
256
6
ByLayer
370
-1
48
1
60
0
100
AcDbEllipse
10
79.924457
20
10.107527
30
0
11
-0.00147399319267737
21
-0.33778467501084
31
0
210
0
220
0
230
1
40
0.015426
41
-1.57076269104812
42
-1.29511890680548
0
ELLIPSE
5
1F7
100
AcDbEntity
8
1
62
256
6
ByLayer
370
-1
48
1
60
0
100
AcDbEllipse
10
79.184304
20
-0.534709
30
0
11
-0.0842609164775399
21
-0.0290942334828853
31
0
210
0
220
0
230
1
40
0.911082
41
1.2834032277983
42
2.31546043534523
0
ELLIPSE
5
1F8
100
AcDbEntity
8
1
62
256
6
ByLayer
370
-1
48
1
60
0
100
AcDbEllipse
10
77.908758
20
0.079157
30
0
11
0.222782340523561
21
0.123158551269667
31
0
210
0
220
0
230
1
40
0.903036
41
1.58799132119608
42
2.6962513555956
0
ELLIPSE
5
1F9
100
AcDbEntity
8
1
62
256
6
ByLayer
370
-1
48
1
60
0
100
AcDbEllipse
10
79.463273
20
1.775482
30
0
11
-0.35297802553608
21
-0.61449167987329
31
0
210
0
220
0
230
1
40
0.052277
41
1.53890582510103
42
2.40183947119335
0
ELLIPSE
5
1FA
100
AcDbEntity
8
1
62
256
6
ByLayer
370
-1
48
1
60
0
100
AcDbEllipse
10
77.865114
20
0.158105
30
0
11
-0.164123276904415
21
0.286292769692419
31
0
210
0
220
0
230
1
40
0.007386
41
1.13372780755388
42
2.01474913355598
0
ELLIPSE
5
1FB
100
AcDbEntity
8
1
62
256
6
ByLayer
370
-1
48
1
60
0
100
AcDbEllipse
10
78.299017
20
11.843767
30
0
11
-0.00058613772014815
21
-0.134584627010414
31
0
210
0
220
0
230
1
40
0.965798
41
-8.31074622601666E-06
42
1.03204889682496
0
ELLIPSE
5
1FC
100
AcDbEntity
8
1
62
256
6
ByLayer
370
-1
48
1
60
0
100
AcDbEllipse
10
77.114428
20
11.717999
30
0
11
-0.000811575252638293
21
-0.186347945099856
31
0
210
0
220
0
230
1
40
0.965798
41
3.14158434257351
42
-2.1980526460103
0
ELLIPSE
5
1FD
100
AcDbEntity
8
1
62
256
6
ByLayer
370
-1
48
1
60
0
100
AcDbEllipse
10
78.055021
20
11.844831
30
0
11
-0.000586137741764462
21
-0.134584627017413
31
0
210
0
220
0
230
1
40
0.965798
41
-0.94355662918282
42
-8.31059224972049E-06
0
ELLIPSE
5
1FE
100
AcDbEntity
8
1
62
256
6
ByLayer
370
-1
48
1
60
0
100
AcDbEllipse
10
79.117776
20
-1.555973
30
0
11
-0.0878138722405259
21
0.00572047569036602
31
0
210
0
220
0
230
1
40
0.965789
41
1.64876840382699
42
2.68082561138869
0
ELLIPSE
5
1FF
100
AcDbEntity
8
1
62
256
6
ByLayer
370
-1
48
1
60
0
100
AcDbEllipse
10
78.178392
20
0.337698
30
0
11
0.279970847001606
21
0.174689223563457
31
0
210
0
220
0
230
1
40
0.429075
41
-1.59348664827026
42
-1.24442079787153
0
ELLIPSE
5
200
100
AcDbEntity
8
1
62
256
6
ByLayer
370
-1
48
1
60
0
100
AcDbEllipse
10
68.647
20
6.081568
30
0
11
0.214135434812111
21
-0.137644526072878
31
0
210
0
220
0
230
1
40
0.895737
41
0.204511071699765
42
0.509329721976636
0
ELLIPSE
5
201
100
AcDbEntity
8
1
62
256
6
ByLayer
370
-1
48
1
60
0
100
AcDbEllipse
10
68.363217
20
7.084554
30
0
11
-0.231053917329704
21
0.102175827129494
31
0
210
0
220
0
230
1
40
0.908072
41
-0.663075687581475
42
-0.124336568227879
0
ELLIPSE
5
202
100
AcDbEntity
8
1
62
256
6
ByLayer
370
-1
48
1
60
0
100
AcDbEllipse
10
75.153552
20
5.703454
30
0
11
-3.00359442768437
21
0.19566371996699
31
0
210
0
220
0
230
1
40
0.965789
41
-0.372671608531906
42
-3.05532299243592E-16
0
ELLIPSE
5
203
100
AcDbEntity
8
1
62
256
6
ByLayer
370
-1
48
1
60
0
100
AcDbEllipse
10
75.153552
20
5.703454
30
0
11
-3.00359442768437
21
0.19566371996699
31
0
210
0
220
0
230
1
40
0.965789
41
0
42
0.220206031232929
0
ELLIPSE
5
204
100
AcDbEntity
8
1
62
256
6
ByLayer
370
-1
48
1
60
0
100
AcDbEllipse
10
75.153552
20
5.703454
30
0
11
-3.00359442768437
21
0.19566371996699
31
0
210
0
220
0
230
1
40
0.965789
41
2.92128823926725
42
-2.07953834765509
0
ELLIPSE
5
205
100
AcDbEntity
8
1
62
256
6
ByLayer
370
-1
48
1
60
0
100
AcDbEllipse
10
77.721263
20
-0.028328
30
0
11
-0.837564038378664
21
-0.479739159403811
31
0
210
0
220
0
230
1
40
0.308746
41
-3.12995290558049
42
-2.31350331955693
0
ELLIPSE
5
206
100
AcDbEntity
8
1
62
256
6
ByLayer
370
-1
48
1
60
0
100
AcDbEllipse
10
78.927706
20
12.485339
30
0
11
-0.000396770115201803
21
-0.0911034398272073
31
0
210
0
220
0
230
1
40
0.965798
41
3.14158434248642
42
-2.10954375715229
0
ELLIPSE
5
207
100
AcDbEntity
8
1
62
256
6
ByLayer
370
-1
48
1
60
0
100
AcDbEllipse
10
78.921235
20
10.534955
30
0
11
-0.00804175809590688
21
-1.84310051257582
31
0
210
0
220
0
230
1
40
0.179021
41
2.84088284843386
42
-2.8408830624432
0
ELLIPSE
5
208
100
AcDbEntity
8
1
62
256
6
ByLayer
370
-1
48
1
60
0
100
AcDbEllipse
10
78.472053
20
-0.132947
30
0
11
0.279970847001606
21
0.174689223563457
31
0
210
0
220
0
230
1
40
0.429075
41
-1.59348664827043
42
-1.24442079787157
0
ELLIPSE
5
209
100
AcDbEntity
8
1
62
256
6
ByLayer
370
-1
48
1
60
0
100
AcDbEllipse
10
76.672971
20
-0.067014
30
0
11
-0.125543597399466
21
0.294344704644063
31
0
210
0
220
0
230
1
40
0.19293
41
0.8643325373224
42
1.85493786330981
0
ELLIPSE
5
20A
100
AcDbEntity
8
1
62
256
6
ByLayer
370
-1
48
1
60
0
100
AcDbEllipse
10
68.702069
20
6.492875
30
0
11
0.329968661514939
21
-0.00454779265573931
31
0
210
0
220
0
230
1
40
0.388155
41
-1.80823989284455
42
-0.927218566835341
0
ELLIPSE
5
20B
100
AcDbEntity
8
1
62
256
6
ByLayer
370
-1
48
1
60
0
100
AcDbEllipse
10
72.782767
20
9.310047
30
0
11
-1.8
21
2.20429143688028E-16
31
0
210
0
220
0
230
1
40
0.258819
41
-0.755396374706203
42
-0.52850357194693
0
ELLIPSE
5
20C
100
AcDbEntity
8
1
62
256
6
ByLayer
370
-1
48
1
60
0
100
AcDbEllipse
10
71.654367
20
9.58508
30
0
11
-0.25
21
3.06151588455594E-17
31
0
210
0
220
0
230
1
40
0.258819
41
-1.58442776940355
42
-0.755396374706275
0
ELLIPSE
5
20D
100
AcDbEntity
8
1
62
256
6
ByLayer
370
-1
48
1
60
0
100
AcDbEllipse
10
70.794868
20
9.317061
30
0
11
-1.8
21
2.20429143688028E-16
31
0
210
0
220
0
230
1
40
0.258819
41
-2.44231040400175
42
-2.41345916410083
0
ELLIPSE
5
20E
100
AcDbEntity
8
1
62
256
6
ByLayer
370
-1
48
1
60
0
100
AcDbEllipse
10
71.951815
20
9.58403
30
0
11
-0.25
21
3.06151588455594E-17
31
0
210
0
220
0
230
1
40
0.258819
41
-2.41345916410082
42
-1.58442776940343
0
ELLIPSE
5
20F
100
AcDbEntity
8
1
62
256
6
ByLayer
370
-1
48
1
60
0
100
AcDbEllipse
10
71.012464
20
9.577587
30
0
11
-0.25
21
3.06151588455594E-17
31
0
210
0
220
0
230
1
40
0.258819
41
2.02965358241131
42
2.6130890816428
0
ELLIPSE
5
210
100
AcDbEntity
8
1
62
256
6
ByLayer
370
-1
48
1
60
0
100
AcDbEllipse
10
73.868043
20
6.350571
30
0
11
-0.200051044280395
21
-0.32695788300951
31
0
210
0
220
0
230
1
40
0.499975
41
0.178877565652919
42
1.58915102711409
0
ELLIPSE
5
211
100
AcDbEntity
8
1
62
256
6
ByLayer
370
-1
48
1
60
0
100
AcDbEllipse
10
76.436764
20
6.338412
30
0
11
-0.200517583765869
21
0.328568772581093
31
0
210
0
220
0
230
1
40
0.495781
41
0.608513246078649
42
1.54958265945356
0
ELLIPSE
5
212
100
AcDbEntity
8
1
62
256
6
ByLayer
370
-1
48
1
60
0
100
AcDbEllipse
10
75.152404
20
5.628113
30
0
11
-1.28709104541676
21
0.0909435583644532
31
0
210
0
220
0
230
1
40
0.965764
41
-2.54986031696431
42
-1.50266276576776
0
ELLIPSE
5
213
100
AcDbEntity
8
1
62
256
6
ByLayer
370
-1
48
1
60
0
100
AcDbEllipse
10
73.669252
20
5.635133
30
0
11
-0.000623103068505345
21
0.380672332819599
31
0
210
0
220
0
230
1
40
0.50691
41
-0.0603741684583098
42
0.903672283967315
0
ELLIPSE
5
214
100
AcDbEntity
8
1
62
256
6
ByLayer
370
-1
48
1
60
0
100
AcDbEllipse
10
75.152404
20
5.628113
30
0
11
-1.28709104541676
21
0.0909435583644532
31
0
210
0
220
0
230
1
40
0.965764
41
-0.455465214571033
42
0.124927586583813
0
ELLIPSE
5
215
100
AcDbEntity
8
1
62
256
6
ByLayer
370
-1
48
1
60
0
100
AcDbEllipse
10
75.152404
20
5.628113
30
0
11
-1.28709104541676
21
0.0909435583644532
31
0
210
0
220
0
230
1
40
0.965764
41
3.12691571093314
42
-2.54986031696441
0
ELLIPSE
5
216
100
AcDbEntity
8
1
62
256
6
ByLayer
370
-1
48
1
60
0
100
AcDbEllipse
10
76.436764
20
6.338412
30
0
11
-0.20051758376299
21
0.328568772576707
31
0
210
0
220
0
230
1
40
0.495781
41
1.5495826594543
42
2.95985612092119
0
ELLIPSE
5
217
100
AcDbEntity
8
1
62
256
6
ByLayer
370
-1
48
1
60
0
100
AcDbEllipse
10
75.89398
20
6.865491
30
0
11
-0.342845330156823
21
0.189166589712728
31
0
210
0
220
0
230
1
40
0.479089
41
-2.35411703748978
42
0.0400244433162089
0
ELLIPSE
5
218
100
AcDbEntity
8
1
62
256
6
ByLayer
370
-1
48
1
60
0
100
AcDbEllipse
10
75.152404
20
5.628113
30
0
11
-1.28709104541676
21
0.0909435583644532
31
0
210
0
220
0
230
1
40
0.965764
41
0.732793256386726
42
0.963569540893165
0
ELLIPSE
5
219
100
AcDbEntity
8
1
62
256
6
ByLayer
370
-1
48
1
60
0
100
AcDbEllipse
10
75.152404
20
7.06087
30
0
11
-0.394032475315164
21
0.00240287603065504
31
0
210
0
220
0
230
1
40
0.473102
41
0.163407912190663
42
1.57368137365143
0
ELLIPSE
5
21A
100
AcDbEntity
8
1
62
256
6
ByLayer
370
-1
48
1
60
0
100
AcDbEllipse
10
73.868043
20
6.350571
30
0
11
-0.200051044283942
21
-0.326957883012032
31
0
210
0
220
0
230
1
40
0.499975
41
1.58915102712317
42
2.37462779239412
0
ELLIPSE
5
21B
100
AcDbEntity
8
1
62
256
6
ByLayer
370
-1
48
1
60
0
100
AcDbEllipse
10
75.152404
20
5.628113
30
0
11
-1.28709104541676
21
0.0909435583644532
31
0
210
0
220
0
230
1
40
0.965764
41
2.12648254357419
42
2.57250707433197
0
ELLIPSE
5
21C
100
AcDbEntity
8
1
62
256
6
ByLayer
370
-1
48
1
60
0
100
AcDbEllipse
10
75.181202
20
6.035684
30
0
11
1.67223082115528
21
-0.118156848207534
31
0
210
0
220
0
230
1
40
0.965764
41
-3.07345909256256
42
-2.02626154136601
0
ELLIPSE
5
21D
100
AcDbEntity
8
1
62
256
6
ByLayer
370
-1
48
1
60
0
100
AcDbEllipse
10
75.181202
20
6.035684
30
0
11
1.67223082115528
21
-0.118156848207534
31
0
210
0
220
0
230
1
40
0.965764
41
2.16252866342042
42
-3.07345909256256
0
ELLIPSE
5
21E
100
AcDbEntity
8
1
62
256
6
ByLayer
370
-1
48
1
60
0
100
AcDbEllipse
10
75.181202
20
6.035684
30
0
11
1.67223082115528
21
-0.118156848207534
31
0
210
0
220
0
230
1
40
0.965764
41
0.0681335610272155
42
1.11533111222384
0
ELLIPSE
5
21F
100
AcDbEntity
8
1
62
256
6
ByLayer
370
-1
48
1
60
0
100
AcDbEllipse
10
75.181202
20
6.035684
30
0
11
1.67223082115528
21
-0.118156848207534
31
0
210
0
220
0
230
1
40
0.965764
41
-0.979063990169403
42
0.068133561027215
0
ELLIPSE
5
220
100
AcDbEntity
8
1
62
256
6
ByLayer
370
-1
48
1
60
0
100
AcDbEllipse
10
75.181202
20
6.035684
30
0
11
1.67223082115528
21
-0.118156848207534
31
0
210
0
220
0
230
1
40
0.965764
41
1.11533111222384
42
2.16252866342042
0
ELLIPSE
5
221
100
AcDbEntity
8
1
62
256
6
ByLayer
370
-1
48
1
60
0
100
AcDbEllipse
10
75.181202
20
6.035684
30
0
11
1.67223082115528
21
-0.118156848207534
31
0
210
0
220
0
230
1
40
0.965764
41
-2.02626154136601
42
-0.979063990169403
0
ELLIPSE
5
222
100
AcDbEntity
8
1
62
256
6
ByLayer
370
-1
48
1
60
0
100
AcDbEllipse
10
75.152404
20
7.06087
30
0
11
-0.394032475315123
21
0.00240287603029833
31
0
210
0
220
0
230
1
40
0.473102
41
1.57368137364926
42
2.98395483511012
0
ELLIPSE
5
223
100
AcDbEntity
8
1
62
256
6
ByLayer
370
-1
48
1
60
0
100
AcDbEllipse
10
75.152404
20
5.628113
30
0
11
1.28709104541676
21
-0.0909435583644591
31
0
210
0
220
0
230
1
40
0.965764
41
1.6389298878221
42
2.68612743901867
0
ELLIPSE
5
224
100
AcDbEntity
8
1
62
256
6
ByLayer
370
-1
48
1
60
0
100
AcDbEllipse
10
76.635556
20
5.621093
30
0
11
-0.00062310306850533
21
0.38067233281959
31
0
210
0
220
0
230
1
40
0.50691
41
-1.20422847250881
42
0.0539160509655793
0
ELLIPSE
5
225
100
AcDbEntity
8
1
62
256
6
ByLayer
370
-1
48
1
60
0
100
AcDbEllipse
10
74.410828
20
6.872511
30
0
11
-0.343133849056953
21
-0.185391276329979
31
0
210
0
220
0
230
1
40
0.48292
41
3.10477118287748
42
-0.96639676324681
0
ELLIPSE
5
226
100
AcDbEntity
8
1
62
256
6
ByLayer
370
-1
48
1
60
0
100
AcDbEllipse
10
75.157432
20
5.699276
30
0
11
-2.7182229704415
21
0.192064788454727
31
0
210
0
220
0
230
1
40
0.965764
41
0
42
3.14149459685376
0
ELLIPSE
5
227
100
AcDbEntity
8
1
62
256
6
ByLayer
370
-1
48
1
60
0
100
AcDbEllipse
10
75.180079
20
6.019799
30
0
11
-2.7182229704415
21
0.192064788454727
31
0
210
0
220
0
230
1
40
0.965764
41
0
42
6.28318530717959
0
ELLIPSE
5
228
100
AcDbEntity
8
1
62
256
6
ByLayer
370
-1
48
1
60
0
100
AcDbEllipse
10
75.181202
20
6.035684
30
0
11
-1.7955234300164
21
0.126868484116884
31
0
210
0
220
0
230
1
40
0.965764
41
0
42
6.28318530717959
0
POINT
5
41
100
AcDbEntity
8
2
62
256
6
ByLayer
370
-1
48
1
60
0
100
AcDbPoint
10
79.93
20
13.875
30
0
39
0
210
0
220
0
230
1
50
360
0
POINT
5
43
100
AcDbEntity
8
80
62
256
6
ByLayer
370
-1
48
1
60
0
100
AcDbPoint
10
0
20
0
30
0
39
0
210
0
220
0
230
1
50
360
0
POINT
5
45
100
AcDbEntity
8
1
62
256
6
ByLayer
370
-1
48
1
60
0
100
AcDbPoint
10
79.935843
20
13.911222
30
0
39
0
210
0
220
0
230
1
50
360
0
POINT
5
47
100
AcDbEntity
8
1
62
256
6
ByLayer
370
-1
48
1
60
0
100
AcDbPoint
10
79.935843
20
13.911222
30
0
39
0
210
0
220
0
230
1
50
360
0
POINT
5
48
100
AcDbEntity
8
1
62
256
6
ByLayer
370
-1
48
1
60
0
100
AcDbPoint
10
78.930142
20
12.576468
30
0
39
0
210
0
220
0
230
1
50
360
0
POINT
5
49
100
AcDbEntity
8
81
62
256
6
ByLayer
370
-1
48
1
60
0
100
AcDbPoint
10
79.93
20
13.875
30
0
39
0
210
0
220
0
230
1
50
360
0
SPLINE
5
229
100
AcDbEntity
8
1
62
256
6
ByLayer
370
-1
48
1
60
0
100
AcDbSpline
70
4
71
1
72
4
73
2
40
0
40
0
40
1
40
1
41
1
10
70.6493348472746
20
9.20210101484599
30
0
41
1
10
70.5406558379374
20
8.71392697973715
30
0
0
SPLINE
5
22A
100
AcDbEntity
8
1
62
256
6
ByLayer
370
-1
48
1
60
0
100
AcDbSpline
70
4
71
3
72
11
73
7
40
0
40
0
40
0
40
0
40
0.15420853747337
40
0.563389186465038
40
0.94922561074338
40
1
40
1
40
1
40
1
41
1
10
79.587349875825
20
0.732684472146019
30
0
41
1
10
79.6174466861715
20
0.69485725663904
30
0
41
1
10
79.7245367842148
20
0.554482134197087
30
0
41
1
10
79.8850393159096
20
0.303595003257158
30
0
41
1
10
80.012136921962
20
0.0697016287397219
30
0
41
1
10
80.062177731505
20
-0.0576253179273749
30
0
41
1
10
80.0678566806804
20
-0.0724983367867367
30
0
0
SPLINE
5
22B
100
AcDbEntity
8
1
62
256
6
ByLayer
370
-1
48
1
60
0
100
AcDbSpline
70
4
71
3
72
11
73
7
40
0
40
0
40
0
40
0
40
0.123470791855173
40
0.463910733871596
40
0.799075261182768
40
1
40
1
40
1
40
1
41
1
10
80.0706548342596
20
-3.41102462936877
30
0
41
1
10
80.052325300557
20
-3.46097793547057
30
0
41
1
10
79.9780444090518
20
-3.64592557917538
30
0
41
1
10
79.8030616204057
20
-3.94388543818099
30
0
41
1
10
79.5813048702345
20
-4.24867137707397
30
0
41
1
10
79.4285781813964
20
-4.42218746743683
30
0
41
1
10
79.3687810268392
20
-4.48466720201176
30
0
0
SPLINE
5
22C
100
AcDbEntity
8
1
62
256
6
ByLayer
370
-1
48
1
60
0
100
AcDbSpline
70
4
71
3
72
12
73
8
40
0
40
0
40
0
40
0
40
0.475342619062398
40
0.475342619062398
40
0.927454988620464
40
0.927454988620464
40
1
40
1
40
1
40
1
41
1
10
70.4784759135853
20
-7.01565385129641
30
0
41
1
10
70.5299020439733
20
-7.15125490382388
30
0
41
1
10
70.6195284725848
20
-7.27729717909483
30
0
41
1
10
70.845382863014
20
-7.48867352134414
30
0
41
1
10
70.9822279380163
20
-7.57863395442286
30
0
41
1
10
71.1605306442601
20
-7.66305979527459
30
0
41
1
10
71.1858537236715
20
-7.67440228904309
30
0
41
1
10
71.2116155537731
20
-7.68531127189891
30
0
0
SPLINE
5
22D
100
AcDbEntity
8
1
62
256
6
ByLayer
370
-1
48
1
60
0
100
AcDbSpline
70
4
71
3
72
10
73
6
40
0
40
0
40
0
40
0
40
0.60249333225171
40
0.60249333225171
40
1
40
1
40
1
40
1
41
1
10
51.1456028712549
20
-0.199999999999989
30
0
41
1
10
51.203728121273
20
-0.199999999999989
30
0
41
1
10
51.2626336262148
20
-0.191886475917471
30
0
41
1
10
51.3557146867631
20
-0.161391690331527
30
0
41
1
10
51.3923694699036
20
-0.144590920969762
30
0
41
1
10
51.424604975909
20
-0.12025358358693
30
0
0
SPLINE
5
22E
100
AcDbEntity
8
1
62
256
6
ByLayer
370
-1
48
1
60
0
100
AcDbSpline
70
4
71
3
72
10
73
6
40
0
40
0
40
0
40
0
40
0.471779252648709
40
0.471779252648709
40
1
40
1
40
1
40
1
41
1
10
51.1456028712549
20
0.199999999999989
30
0
41
1
10
51.1325317081775
20
0.199999999999989
30
0
41
1
10
51.1194605435939
20
0.199999999999989
30
0
41
1
10
51.0917544373882
20
0.199999999999989
30
0
41
1
10
51.0771194953868
20
0.199999999999989
30
0
41
1
10
51.0624845515244
20
0.199999999999989
30
0
0
SPLINE
5
22F
100
AcDbEntity
8
1
62
256
6
ByLayer
370
-1
48
1
60
0
100
AcDbSpline
70
4
71
3
72
8
73
4
40
0
40
0
40
0
40
0
40
1
40
1
40
1
40
1
41
1
10
63.8950567149014
20
10.4705651750485
30
0
41
1
10
63.7421569560353
20
10.2833691116578
30
0
41
1
10
63.5895968540649
20
10.0959129226134
30
0
41
1
10
63.4374405338029
20
9.90815112581086
30
0
0
SPLINE
5
230
100
AcDbEntity
8
1
62
256
6
ByLayer
370
-1
48
1
60
0
100
AcDbSpline
70
4
71
3
72
26
73
22
40
0
40
0
40
0
40
0
40
0.0837850344888329
40
0.0837850344888329
40
0.166680220763532
40
0.166680220763532
40
0.300605859556095
40
0.300605859556095
40
0.439652677642149
40
0.439652677642149
40
0.516903040670302
40
0.516903040670302
40
0.593932668520927
40
0.593932668520927
40
0.729942741033308
40
0.729942741033308
40
0.875779460040479
40
0.875779460040479
40
0.960206971473087
40
0.960206971473087
40
1
40
1
40
1
40
1
41
1
10
64.5192495459985
20
2.98174782846502
30
0
41
1
10
64.4931523636089
20
2.98786579575943
30
0
41
1
10
64.4781306187623
20
3.01953901812962
30
0
41
1
10
64.4619738762155
20
3.12231748457907
30
0
41
1
10
64.4603341674108
20
3.193810640945
30
0
41
1
10
64.4618493177896
20
3.41270389380668
30
0
41
1
10
64.4688410351941
20
3.58302389867913
30
0
41
1
10
64.4628406180917
20
3.95824200181369
30
0
41
1
10
64.4515005102047
20
4.17208233523479
30
0
41
1
10
64.3572001704436
20
4.49801013634095
30
0
41
1
10
64.3047212045196
20
4.61501573579156
30
0
41
1
10
64.1608296254701
20
4.82405818546815
30
0
41
1
10
64.0690942517325
20
4.91840059421409
30
0
41
1
10
63.7992311493139
20
5.15073130934081
30
0
41
1
10
63.6054527333753
20
5.27665705954482
30
0
41
1
10
63.2308526050739
20
5.52832812350812
30
0
41
1
10
63.0425963088825
20
5.65675021994926
30
0
41
1
10
62.8143178529317
20
5.86026428400803
30
0
41
1
10
62.7436657885473
20
5.93695453007575
30
0
41
1
10
62.6753312789844
20
6.04891166303247
30
0
41
1
10
62.6585474149584
20
6.0851770061162
30
0
41
1
10
62.6478948621208
20
6.12119635852716
30
0
0
SPLINE
5
231
100
AcDbEntity
8
1
62
256
6
ByLayer
370
-1
48
1
60
0
100
AcDbSpline
70
4
71
3
72
10
73
6
40
0
40
0
40
0
40
0
40
0.410052963085376
40
0.410052963085376
40
1
40
1
40
1
40
1
41
1
10
51.424604975909
20
0.12025358358693
30
0
41
1
10
51.3913706381835
20
0.145345024366151
30
0
41
1
10
51.3534562970318
20
0.162443818990226
30
0
41
1
10
51.2601984329244
20
0.192198911388715
30
0
41
1
10
51.2025393035823
20
0.199999999999989
30
0
41
1
10
51.1456028712549
20
0.199999999999989
30
0
0
SPLINE
5
232
100
AcDbEntity
8
1
62
256
6
ByLayer
370
-1
48
1
60
0
100
AcDbSpline
70
4
71
3
72
8
73
4
40
0
40
0
40
0
40
0
40
1
40
1
40
1
40
1
41
1
10
66.4696364608438
20
5.23486879167601
30
0
41
1
10
66.5473725817543
20
5.45831468339637
30
0
41
1
10
66.6241312865125
20
5.67783386888388
30
0
41
1
10
66.6997923643458
20
5.89395765533072
30
0
0
SPLINE
5
233
100
AcDbEntity
8
1
62
256
6
ByLayer
370
-1
48
1
60
0
100
AcDbSpline
70
4
71
3
72
10
73
6
40
0
40
0
40
0
40
0
40
0.528220747351286
40
0.528220747351286
40
1
40
1
40
1
40
1
41
1
10
51.0624845515244
20
-0.199999999999989
30
0
41
1
10
51.0771194953868
20
-0.199999999999989
30
0
41
1
10
51.0917544373882
20
-0.199999999999989
30
0
41
1
10
51.1194605435939
20
-0.199999999999989
30
0
41
1
10
51.1325317081775
20
-0.199999999999989
30
0
41
1
10
51.1456028712549
20
-0.199999999999989
30
0
0
SPLINE
5
234
100
AcDbEntity
8
1
62
256
6
ByLayer
370
-1
48
1
60
0
100
AcDbSpline
70
4
71
3
72
18
73
14
40
0
40
0
40
0
40
0
40
0.191954550368708
40
0.191954550368708
40
0.386519733380089
40
0.386519733380089
40
0.551272268589869
40
0.551272268589869
40
0.703295179061451
40
0.703295179061451
40
0.870002935842467
40
0.870002935842467
40
1
40
1
40
1
40
1
41
1
10
60.7191061671112
20
9.35699814720843
30
0
41
1
10
60.6822877947028
20
9.38810091047375
30
0
41
1
10
60.6614215155292
20
9.41858880577647
30
0
41
1
10
60.6652845951364
20
9.47403337468432
30
0
41
1
10
60.6913680198898
20
9.49970422917357
30
0
41
1
10
60.7868039782058
20
9.53854001777398
30
0
41
1
10
60.8503116947103
20
9.55358834100605
30
0
41
1
10
60.9979343321289
20
9.5762184700173
30
0
41
1
10
61.0817032386082
20
9.58463207790189
30
0
41
1
10
61.2694501536054
20
9.59780804905986
30
0
41
1
10
61.3766703126871
20
9.60234171549055
30
0
41
1
10
61.5709766520174
20
9.6072406887879
30
0
41
1
10
61.6584794502435
20
9.60832727384229
30
0
41
1
10
61.7456894815106
20
9.6085125115147
30
0
0
SPLINE
5
235
100
AcDbEntity
8
1
62
256
6
ByLayer
370
-1
48
1
60
0
100
AcDbSpline
70
4
71
3
72
20
73
16
40
0
40
0
40
0
40
0
40
0.259984794345659
40
0.259984794345659
40
0.370704729698455
40
0.370704729698455
40
0.483556540695273
40
0.483556540695273
40
0.581190747015672
40
0.581190747015672
40
0.697988284749073
40
0.697988284749073
40
0.908686384218222
40
0.908686384218222
40
1
40
1
40
1
40
1
41
1
10
51.4246049759192
20
-0.120253583606001
30
0
41
1
10
51.4442074472178
20
-0.105454003372955
30
0
41
1
10
51.4635410529948
20
-0.0884011195630308
30
0
41
1
10
51.4861130916615
20
-0.0590162201930013
30
0
41
1
10
51.492268421405
20
-0.0494005886203581
30
0
41
1
10
51.5016991270619
20
-0.0285406178246035
30
0
41
1
10
51.5049588609888
20
-0.0169204053862302
30
0
41
1
10
51.5063028189417
20
0.0048769573801337
30
0
41
1
10
51.5050114218783
20
0.0152887060210958
30
0
41
1
10
51.4988114796845
20
0.0365584360233413
30
0
41
1
10
51.4932729434407
20
0.0474735629989311
30
0
41
1
10
51.4751751112935
20
0.0750982765136996
30
0
41
1
10
51.4603806045452
20
0.0902785670147637
30
0
41
1
10
51.4383995219738
20
0.109490992653633
30
0
41
1
10
51.4315473030064
20
0.115012227774173
30
0
41
1
10
51.4246049759091
20
0.120253583587186
30
0
0
SPLINE
5
236
100
AcDbEntity
8
1
62
256
6
ByLayer
370
-1
48
1
60
0
100
AcDbSpline
70
4
71
3
72
12
73
8
40
0
40
0
40
0
40
0
40
0.386304391156057
40
0.386304391156057
40
0.774421074664093
40
0.774421074664093
40
1
40
1
40
1
40
1
41
1
10
63.4374405338029
20
9.90815112581083
30
0
41
1
10
63.3814485599955
20
9.83905669982508
30
0
41
1
10
63.312918554678
20
9.77787997135633
30
0
41
1
10
63.1601187220308
20
9.68239156257749
30
0
41
1
10
63.0735337803647
20
9.64692171523012
30
0
41
1
10
62.9321344807684
20
9.61668454745327
30
0
41
1
10
62.8782379494218
20
9.6108954587489
30
0
41
1
10
62.8246049793082
20
9.61078358598451
30
0
0
SPLINE
5
237
100
AcDbEntity
8
1
62
256
6
ByLayer
370
-1
48
1
60
0
100
AcDbSpline
70
4
71
3
72
8
73
4
40
0
40
0
40
0
40
0
40
1
40
1
40
1
40
1
41
1
10
62.9507001814484
20
-1.26961846540058
30
0
41
1
10
62.9100761626927
20
-1.2209122508774
30
0
41
1
10
62.8680157715115
20
-1.17325965239445
30
0
41
1
10
62.8246049793087
20
-1.12733482123875
30
0
0
SPLINE
5
238
100
AcDbEntity
8
1
62
256
6
ByLayer
370
-1
48
1
60
0
100
AcDbSpline
70
4
71
3
72
8
73
4
40
0
40
0
40
0
40
0
40
1
40
1
40
1
40
1
41
1
10
63.6712133552984
20
10.2393105180889
30
0
41
1
10
63.736266959176
20
10.3168362928776
30
0
41
1
10
63.8112120799145
20
10.3939059301234
30
0
41
1
10
63.8950567149014
20
10.4705651750485
30
0
0
SPLINE
5
239
100
AcDbEntity
8
1
62
256
6
ByLayer
370
-1
48
1
60
0
100
AcDbSpline
70
4
71
3
72
10
73
6
40
0
40
0
40
0
40
0
40
0.709495622816845
40
0.709495622816845
40
1
40
1
40
1
40
1
41
1
10
69.8106009035156
20
3.66653043480503
30
0
41
1
10
69.7898025525954
20
3.68095737434237
30
0
41
1
10
69.7710800375326
20
3.69754360749164
30
0
41
1
10
69.749818683946
20
3.72235889838214
30
0
41
1
10
69.7441160707407
20
3.72988394758951
30
0
41
1
10
69.7389803454861
20
3.73762243509381
30
0
0
SPLINE
5
23A
100
AcDbEntity
8
1
62
256
6
ByLayer
370
-1
48
1
60
0
100
AcDbSpline
70
4
71
3
72
22
73
18
40
0
40
0
40
0
40
0
40
0.208266363442876
40
0.208266363442876
40
0.317899168105597
40
0.317899168105597
40
0.42758473986196
40
0.42758473986196
40
0.537377253733104
40
0.537377253733104
40
0.647402228731115
40
0.647402228731115
40
0.811583680502356
40
0.811583680502356
40
0.906636022131534
40
0.906636022131534
40
1
40
1
40
1
40
1
41
1
10
80.1023215795345
20
-0.735525415628615
30
0
41
1
10
80.1011443840491
20
-0.714840026575502
30
0
41
1
10
80.0992962053805
20
-0.695485604981059
30
0
41
1
10
80.0953384580202
20
-0.668606073422779
30
0
41
1
10
80.0937592713555
20
-0.659793553993012
30
0
41
1
10
80.0901073349776
20
-0.643317936229863
30
0
41
1
10
80.0880310055169
20
-0.635635976947299
30
0
41
1
10
80.0832620868333
20
-0.621702472646746
30
0
41
1
10
80.0805623989054
20
-0.615427649348447
30
0
41
1
10
80.0743504654912
20
-0.604768082548048
30
0
41
1
10
80.0708210755319
20
-0.600355177567536
30
0
41
1
10
80.0607188679145
20
-0.592737337924376
30
0
41
1
10
80.053308517068
20
-0.591039032618141
30
0
41
1
10
80.0389403208748
20
-0.596253399328219
30
0
41
1
10
80.0329482830561
20
-0.599970239583115
30
0
41
1
10
80.020269851277
20
-0.611108452575451
30
0
41
1
10
80.0134332768992
20
-0.618627342722448
30
0
41
1
10
80.006639479046
20
-0.627441141465908
30
0
0
SPLINE
5
23B
100
AcDbEntity
8
1
62
256
6
ByLayer
370
-1
48
1
60
0
100
AcDbSpline
70
4
71
3
72
8
73
4
40
0
40
0
40
0
40
0
40
1
40
1
40
1
40
1
41
1
10
80.020580085623
20
-1.10461413107012
30
0
41
1
10
80.0247697997178
20
-1.10083228633772
30
0
41
1
10
80.0289596056796
20
-1.09705047117114
30
0
41
1
10
80.0331494991758
20
-1.09326868417875
30
0
0
SPLINE
5
23C
100
AcDbEntity
8
1
62
256
6
ByLayer
370
-1
48
1
60
0
100
AcDbSpline
70
4
71
3
72
8
73
4
40
0
40
0
40
0
40
0
40
1
40
1
40
1
40
1
41
1
10
80.0452175052289
20
-1.73384773055307
30
0
41
1
10
80.0409486996911
20
-1.73344080565809
30
0
41
1
10
80.0366799810874
20
-1.73303387708103
30
0
41
1
10
80.032411353721
20
-1.73262694463997
30
0
0
SPLINE
5
23D
100
AcDbEntity
8
1
62
256
6
ByLayer
370
-1
48
1
60
0
100
AcDbSpline
70
4
71
3
72
8
73
4
40
0
40
0
40
0
40
0
40
1
40
1
40
1
40
1
41
1
10
80.0267351440364
20
-2.36113987314528
30
0
41
1
10
80.0309803002594
20
-2.36414570836189
30
0
41
1
10
80.0352255479069
20
-2.36715151897315
30
0
41
1
10
80.0394708826671
20
-2.37015730613729
30
0
0
SPLINE
5
23E
100
AcDbEntity
8
1
62
256
6
ByLayer
370
-1
48
1
60
0
100
AcDbSpline
70
4
71
3
72
22
73
18
40
0
40
0
40
0
40
0
40
0.208266363442835
40
0.208266363442835
40
0.317899168105562
40
0.317899168105562
40
0.427584739861932
40
0.427584739861932
40
0.537377253733092
40
0.537377253733092
40
0.647402228731078
40
0.647402228731078
40
0.811583680502356
40
0.811583680502356
40
0.906636022131581
40
0.906636022131581
40
1
40
1
40
1
40
1
41
1
10
80.0810222070448
20
-3.09395326142658
30
0
41
1
10
80.0824545852159
20
-3.08638289073534
30
0
41
1
10
80.0832530999981
20
-3.07689868616629
30
0
41
1
10
80.0833327326731
20
-3.05949287472649
30
0
41
1
10
80.0831500633946
20
-3.05293338446972
30
0
41
1
10
80.0822799531898
20
-3.03866901284064
30
0
41
1
10
80.0815920683561
20
-3.03094836822905
30
0
41
1
10
80.079571821067
20
-3.01424933734137
30
0
41
1
10
80.0782369158066
20
-3.00524346899789
30
0
41
1
10
80.0746960969101
20
-2.98581844664955
30
0
41
1
10
80.0724805049699
20
-2.97534317214766
30
0
41
1
10
80.0654805548146
20
-2.94750037550568
30
0
41
1
10
80.0598377966859
20
-2.92870603218591
30
0
41
1
10
80.0476688257102
20
-2.89720195014343
30
0
41
1
10
80.0423698654825
20
-2.88497569219126
30
0
41
1
10
80.0306553776919
20
-2.86135810803967
30
0
41
1
10
80.0241055088808
20
-2.84967348050134
30
0
41
1
10
80.0173828003315
20
-2.83907699914937
30
0
0
SPLINE
5
23F
100
AcDbEntity
8
1
62
256
6
ByLayer
370
-1
48
1
60
0
100
AcDbSpline
70
4
71
3
72
16
73
12
40
0
40
0
40
0
40
0
40
0.0023448809064724
40
0.0023448809064724
40
0.244769775800737
40
0.244769775800737
40
0.487038716340285
40
0.487038716340285
40
0.973677497833315
40
0.973677497833315
40
1
40
1
40
1
40
1
41
1
10
80.0614810547482
20
-3.11381877530559
30
0
41
1
10
80.0615060050832
20
-3.113829931402
30
0
41
1
10
80.0615309254937
20
-3.11384101164015
30
0
41
1
10
80.064130383555
20
-3.11499027683908
30
0
41
1
10
80.066393917598
20
-3.11532182835302
30
0
41
1
10
80.0704198218609
20
-3.11462335582385
30
0
41
1
10
80.0721865200235
20
-3.11359223781804
30
0
41
1
10
80.0768661470128
20
-3.10869150149003
30
0
41
1
10
80.0791756946846
20
-3.10301061723123
30
0
41
1
10
80.0808557739443
20
-3.09481529440188
30
0
41
1
10
80.0809400619355
20
-3.09438741278481
30
0
41
1
10
80.0810222070448
20
-3.09395326142658
30
0
0
SPLINE
5
240
100
AcDbEntity
8
1
62
256
6
ByLayer
370
-1
48
1
60
0
100
AcDbSpline
70
4
71
3
72
24
73
20
40
0
40
0
40
0
40
0
40
0.104000448201672
40
0.104000448201672
40
0.192499055460829
40
0.192499055460829
40
0.328500518746459
40
0.328500518746459
40
0.438682575665102
40
0.438682575665102
40
0.548533158171547
40
0.548533158171547
40
0.658237202769607
40
0.658237202769607
40
0.767870673660739
40
0.767870673660739
40
0.98808833163412
40
0.98808833163412
40
1
40
1
40
1
40
1
41
1
10
80.0331494991758
20
-1.09326868417875
30
0
41
1
10
80.0407721018049
20
-1.0852588121839
30
0
41
1
10
80.0482232728751
20
-1.07475503587096
30
0
41
1
10
80.0602805574532
20
-1.05283503068389
30
0
41
1
10
80.0653014040292
20
-1.04156095355083
30
0
41
1
10
80.0762523120469
20
-1.01235985466064
30
0
41
1
10
80.0814729874097
20
-0.993634801656924
30
0
41
1
10
80.0889428158416
20
-0.96051201026242
30
0
41
1
10
80.0916296393537
20
-0.945695912156793
30
0
41
1
10
80.0960175041134
20
-0.916776715762865
30
0
41
1
10
80.0977334565741
20
-0.902579027688091
30
0
41
1
10
80.1004539087458
20
-0.874911426141523
30
0
41
1
10
80.101462711731
20
-0.861390588946989
30
0
41
1
10
80.1029315909846
20
-0.83507369396051
30
0
41
1
10
80.103392887976
20
-0.822245881742987
30
0
41
1
10
80.1041001733909
20
-0.784797746602209
30
0
41
1
10
80.1036795418804
20
-0.761141332199344
30
0
41
1
10
80.1024543610016
20
-0.737902597636833
30
0
41
1
10
80.1023890902337
20
-0.736711697003585
30
0
41
1
10
80.1023215795345
20
-0.735525415628615
30
0
0
SPLINE
5
241
100
AcDbEntity
8
1
62
256
6
ByLayer
370
-1
48
1
60
0
100
AcDbSpline
70
4
71
3
72
22
73
18
40
0
40
0
40
0
40
0
40
0.208266363443005
40
0.208266363443005
40
0.317899168105746
40
0.317899168105746
40
0.42758473986212
40
0.42758473986212
40
0.537377253733284
40
0.537377253733284
40
0.647402228731276
40
0.647402228731276
40
0.811583680502403
40
0.811583680502403
40
0.906636022131626
40
0.906636022131626
40
1
40
1
40
1
40
1
41
1
10
80.1279741742682
20
-2.09718488109195
30
0
41
1
10
80.128229356954
20
-2.06892912134754
30
0
41
1
10
80.1277819576906
20
-2.04008753270998
30
0
41
1
10
80.125876459711
20
-1.99579248662519
30
0
41
1
10
80.1249916311288
20
-1.98041616293659
30
0
41
1
10
80.1226883530761
20
-1.94966525966365
30
0
41
1
10
80.1212678533106
20
-1.93425604618412
30
0
41
1
10
80.1177565368566
20
-1.90360738761112
30
0
41
1
10
80.115660711685
20
-1.88831715938062
30
0
41
1
10
80.1105788350013
20
-1.85820959470348
30
0
41
1
10
80.107578745315
20
-1.84330791339531
30
0
41
1
10
80.0986368528944
20
-1.80780713765384
30
0
41
1
10
80.0918032198159
20
-1.78728389610339
30
0
41
1
10
80.0779185904757
20
-1.76093194431564
30
0
41
1
10
80.0720127345699
20
-1.75239603769077
30
0
41
1
10
80.0592635927506
20
-1.73985939205713
30
0
41
1
10
80.052271695112
20
-1.73566220059286
30
0
41
1
10
80.0452175052312
20
-1.73384773055329
30
0
0
SPLINE
5
242
100
AcDbEntity
8
1
62
256
6
ByLayer
370
-1
48
1
60
0
100
AcDbSpline
70
4
71
3
72
24
73
20
40
0
40
0
40
0
40
0
40
0.104000448201696
40
0.104000448201696
40
0.192499055460838
40
0.192499055460838
40
0.328500518746486
40
0.328500518746486
40
0.438682575665136
40
0.438682575665136
40
0.548533158171592
40
0.548533158171592
40
0.658237202769668
40
0.658237202769668
40
0.767870673660814
40
0.767870673660814
40
0.98808833163422
40
0.98808833163422
40
1
40
1
40
1
40
1
41
1
10
80.0394708826671
20
-2.37015730613729
30
0
41
1
10
80.0472606490927
20
-2.37455693758872
30
0
41
1
10
80.0550321279212
20
-2.37632904375195
30
0
41
1
10
80.0679000772805
20
-2.37440261522062
30
0
41
1
10
80.0733861225741
20
-2.37150355768392
30
0
41
1
10
80.0856303635549
20
-2.3604966452543
30
0
41
1
10
80.0917583409071
20
-2.35035413358361
30
0
41
1
10
80.1009196027537
20
-2.32898777328751
30
0
41
1
10
80.1043949547577
20
-2.31816590358102
30
0
41
1
10
80.1103689918492
20
-2.29517825953113
30
0
41
1
10
80.1128876771352
20
-2.28294123827806
30
0
41
1
10
80.1172109351901
20
-2.257568574309
30
0
41
1
10
80.1190227554445
20
-2.24438647275136
30
0
41
1
10
80.1220885542557
20
-2.21738305314687
30
0
41
1
10
80.1233456869409
20
-2.20352889849025
30
0
41
1
10
80.1264239626847
20
-2.16119138295372
30
0
41
1
10
80.1275663486084
20
-2.13185775639298
30
0
41
1
10
80.1279425464668
20
-2.10042408612043
30
0
41
1
10
80.1279595398581
20
-2.09880531382513
30
0
41
1
10
80.1279741742682
20
-2.09718488109195
30
0
0
SPLINE
5
243
100
AcDbEntity
8
1
62
256
6
ByLayer
370
-1
48
1
60
0
100
AcDbSpline
70
4
71
3
72
10
73
6
40
0
40
0
40
0
40
0
40
0.425586067180523
40
0.425586067180523
40
1
40
1
40
1
40
1
41
1
10
80.032411353721
20
-1.73262694463995
30
0
41
1
10
80.0245990655103
20
-1.73188219152871
30
0
41
1
10
80.0167910806479
20
-1.72866874554057
30
0
41
1
10
79.9995423170445
20
-1.71728917325717
30
0
41
1
10
79.990214207995
20
-1.70773101447213
30
0
41
1
10
79.9817283160239
20
-1.69649311806373
30
0
0
SPLINE
5
244
100
AcDbEntity
8
1
62
256
6
ByLayer
370
-1
48
1
60
0
100
AcDbSpline
70
4
71
3
72
10
73
6
40
0
40
0
40
0
40
0
40
0.74705217531661
40
0.74705217531661
40
1
40
1
40
1
40
1
41
1
10
79.9868932564664
20
-1.14847389694282
30
0
41
1
10
79.9945785809977
20
-1.13541389459561
30
0
41
1
10
80.0028916857416
20
-1.12345164013226
30
0
41
1
10
80.0145041047393
20
-1.11044288364519
30
0
41
1
10
80.0175333851048
20
-1.1073642347873
30
0
41
1
10
80.020580085623
20
-1.10461413107015
30
0
0
SPLINE
5
245
100
AcDbEntity
8
1
62
256
6
ByLayer
370
-1
48
1
60
0
100
AcDbSpline
70
4
71
3
72
12
73
8
40
0
40
0
40
0
40
0
40
0.347623173836781
40
0.347623173836781
40
0.696503371294913
40
0.696503371294913
40
1
40
1
40
1
40
1
41
1
10
69.324563489464
20
4.32322667964325
30
0
41
1
10
69.3174886405837
20
4.33452097358517
30
0
41
1
10
69.3082734829347
20
4.34490898508071
30
0
41
1
10
69.2868915215767
20
4.36247643812578
30
0
41
1
10
69.2743906795926
20
4.36989429846108
30
0
41
1
10
69.249753341629
20
4.38013819473602
30
0
41
1
10
69.2374909526799
20
4.38355473409385
30
0
41
1
10
69.2254260720382
20
4.38548666000082
30
0
0
SPLINE
5
246
100
AcDbEntity
8
1
62
256
6
ByLayer
370
-1
48
1
60
0
100
AcDbSpline
70
4
71
3
72
20
73
16
40
0
40
0
40
0
40
0
40
0.511365204367434
40
0.511365204367434
40
0.617167309555443
40
0.617167309555443
40
0.785488434327106
40
0.785488434327106
40
0.873398812153863
40
0.873398812153863
40
0.93568440225422
40
0.93568440225422
40
0.978722765374131
40
0.978722765374131
40
1
40
1
40
1
40
1
41
1
10
79.0905421515043
20
6.11241853568669
30
0
41
1
10
78.9857693315754
20
6.06364360448154
30
0
41
1
10
78.8822441193674
20
6.0111138962036
30
0
41
1
10
78.7657586726924
20
5.93540258519113
30
0
41
1
10
78.7460654548722
20
5.92189494953232
30
0
41
1
10
78.6965340746469
20
5.8852039064036
30
0
41
1
10
78.6671436086565
20
5.86099179792728
30
0
41
1
10
78.6281173327077
20
5.81914538342241
30
0
41
1
10
78.6156391724223
20
5.80373351016789
30
0
41
1
10
78.5986546067453
20
5.77507043527854
30
0
41
1
10
78.5927999473585
20
5.76227691483939
30
0
41
1
10
78.5874149009798
20
5.73969477936194
30
0
41
1
10
78.5865130952957
20
5.73000671488546
30
0
41
1
10
78.5878953134845
20
5.71583995318159
30
0
41
1
10
78.5888060519693
20
5.71114017441852
30
0
41
1
10
78.5901575886813
20
5.7065808650591
30
0
0
SPLINE
5
247
100
AcDbEntity
8
1
62
256
6
ByLayer
370
-1
48
1
60
0
100
AcDbSpline
70
4
71
3
72
14
73
10
40
0
40
0
40
0
40
0
40
0.249606055015
40
0.249606055015
40
0.499158243446936
40
0.499158243446936
40
0.746144217743615
40
0.746144217743615
40
1
40
1
40
1
40
1
41
1
10
73.2732996562534
20
10.1737464755703
30
0
41
1
10
73.2889843871608
20
10.1826456997342
30
0
41
1
10
73.304684051586
20
10.1919405087065
30
0
41
1
10
73.3354542452958
20
10.2109148462967
30
0
41
1
10
73.350631907035
20
10.220660149995
30
0
41
1
10
73.3798153198994
20
10.240166788466
30
0
41
1
10
73.3939284453082
20
10.2499916661694
30
0
41
1
10
73.4211671830363
20
10.2697673352095
30
0
41
1
10
73.434349288129
20
10.279782898641
30
0
41
1
10
73.4466299309381
20
10.2895825839837
30
0
0
SPLINE
5
248
100
AcDbEntity
8
1
62
256
6
ByLayer
370
-1
48
1
60
0
100
AcDbSpline
70
4
71
3
72
12
73
8
40
0
40
0
40
0
40
0
40
0.47437669837107
40
0.47437669837107
40
0.706219783413751
40
0.706219783413751
40
1
40
1
40
1
40
1
41
1
10
73.0316267640547
20
1.80608433076611
30
0
41
1
10
73.0084393712354
20
1.81369625033958
30
0
41
1
10
72.9818793684277
20
1.82440165525961
30
0
41
1
10
72.9406906963517
20
1.84346958286201
30
0
41
1
10
72.9266869500109
20
1.85033158089931
30
0
41
1
10
72.8947397580638
20
1.86679861415658
30
0
41
1
10
72.8765754479039
20
1.87673269981283
30
0
41
1
10
72.858621958918
20
1.8870953086338
30
0
0
SPLINE
5
249
100
AcDbEntity
8
1
62
256
6
ByLayer
370
-1
48
1
60
0
100
AcDbSpline
70
4
71
3
72
18
73
14
40
0
40
0
40
0
40
0
40
0.439677344605711
40
0.439677344605711
40
0.819840138515299
40
0.819840138515299
40
0.920758376963043
40
0.920758376963043
40
0.968467673881603
40
0.968467673881603
40
0.990240013274168
40
0.990240013274168
40
1
40
1
40
1
40
1
41
1
10
72.2764270749264
20
2.84510125318775
30
0
41
1
10
72.3150398882892
20
2.92991152887956
30
0
41
1
10
72.3555300286196
20
3.01401277763063
30
0
41
1
10
72.4387406253859
20
3.16659021419642
30
0
41
1
10
72.4791358125622
20
3.23753117204475
30
0
41
1
10
72.5461105968758
20
3.31497099891357
30
0
41
1
10
72.5613269517236
20
3.33079661849664
30
0
41
1
10
72.5875573198841
20
3.34896300547439
30
0
41
1
10
72.596819430522
20
3.35413053449554
30
0
41
1
10
72.6113803253504
20
3.35794536340026
30
0
41
1
10
72.6162120796345
20
3.35858137920053
30
0
41
1
10
72.6231136453418
20
3.35822427589113
30
0
41
1
10
72.6252642265428
20
3.35793335292999
30
0
41
1
10
72.6273628002793
20
3.35745612326267
30
0
0
SPLINE
5
24A
100
AcDbEntity
8
1
62
256
6
ByLayer
370
-1
48
1
60
0
100
AcDbSpline
70
4
71
3
72
20
73
16
40
0
40
0
40
0
40
0
40
0.511365204366865
40
0.511365204366865
40
0.617167309555266
40
0.617167309555266
40
0.785488434326997
40
0.785488434326997
40
0.873398812153788
40
0.873398812153788
40
0.935684402254182
40
0.935684402254182
40
0.978722765374109
40
0.978722765374109
40
1
40
1
40
1
40
1
41
1
10
73.3587469730172
20
2.60981640855473
30
0
41
1
10
73.3669993305703
20
2.72205309330781
30
0
41
1
10
73.3712668021278
20
2.83513804104706
30
0
41
1
10
73.3611825890002
20
2.97074768353724
30
0
41
1
10
73.3588432663654
20
2.99403071702261
30
0
41
1
10
73.3505235805715
20
3.05396031130675
30
0
41
1
10
73.343398943516
20
3.09075068055464
30
0
41
1
10
73.3252462777009
20
3.14448900849536
30
0
41
1
10
73.3176206007028
20
3.16269511572509
30
0
41
1
10
73.3003514837783
20
3.19134895528595
30
0
41
1
10
73.2917871840506
20
3.20269407637827
30
0
41
1
10
73.2742149298857
20
3.21857889418655
30
0
41
1
10
73.2659774583123
20
3.22421532283258
30
0
41
1
10
73.2525919901902
20
3.2301976865181
30
0
41
1
10
73.2479270760795
20
3.231803989501
30
0
41
1
10
73.2431694107344
20
3.23297071344652
30
0
0
SPLINE
5
24B
100
AcDbEntity
8
1
62
256
6
ByLayer
370
-1
48
1
60
0
100
AcDbSpline
70
4
71
3
72
12
73
8
40
0
40
0
40
0
40
0
40
0.347623173836916
40
0.347623173836916
40
0.696503371294879
40
0.696503371294879
40
1
40
1
40
1
40
1
41
1
10
79.4841252467711
20
1.73744596379476
30
0
41
1
10
79.4770503978908
20
1.72517693413729
30
0
41
1
10
79.4719007205696
20
1.71161639884744
30
0
41
1
10
79.4663304274205
20
1.68414723749953
30
0
41
1
10
79.465863542846
20
1.6698396075235
30
0
41
1
10
79.4694551123435
20
1.64466621444791
30
0
41
1
10
79.4729802934248
20
1.63330453599437
30
0
41
1
10
79.4779866932225
20
1.62320682869435
30
0
0
SPLINE
5
24C
100
AcDbEntity
8
1
62
256
6
ByLayer
370
-1
48
1
60
0
100
AcDbSpline
70
4
71
3
72
12
73
8
40
0
40
0
40
0
40
0
40
0.474376698371049
40
0.474376698371049
40
0.706219783413746
40
0.706219783413746
40
1
40
1
40
1
40
1
41
1
10
79.9293088935015
20
6.16993280002779
30
0
41
1
10
79.928968152087
20
6.13921639692288
30
0
41
1
10
79.9287026747952
20
6.10580920780069
30
0
41
1
10
79.9284459606277
20
6.05620828486653
30
0
41
1
10
79.9283825030249
20
6.0396835784135
30
0
41
1
10
79.9282887967614
20
6.00271211619563
30
0
41
1
10
79.9282714243003
20
5.98220227939603
30
0
41
1
10
79.9282884283142
20
5.9624169754141
30
0
0
SPLINE
5
24D
100
AcDbEntity
8
1
62
256
6
ByLayer
370
-1
48
1
60
0
100
AcDbSpline
70
4
71
3
72
16
73
12
40
0
40
0
40
0
40
0
40
0.0426292751499061
40
0.0426292751499061
40
0.09964361662876
40
0.09964361662876
40
0.207156078099356
40
0.207156078099356
40
0.580806890299265
40
0.580806890299265
40
1
40
1
40
1
40
1
41
1
10
74.114616422264
20
9.38761991134038
30
0
41
1
10
74.1215436649207
20
9.39451961036156
30
0
41
1
10
74.1271204047606
20
9.40283802485735
30
0
41
1
10
74.136554318958
20
9.42338084399339
30
0
41
1
10
74.1394899469837
20
9.43626449551914
30
0
41
1
10
74.1433875132128
20
9.47314426765735
30
0
41
1
10
74.1407894829927
20
9.49775258045412
30
0
41
1
10
74.1207421192701
20
9.60374877502557
30
0
41
1
10
74.0843645107257
20
9.6817325547145
30
0
41
1
10
74.0025935024792
20
9.84098259100185
30
0
41
1
10
73.9531583671109
20
9.92244700157744
30
0
41
1
10
73.9012685222777
20
10.0021828093749
30
0
0
SPLINE
5
24E
100
AcDbEntity
8
1
62
256
6
ByLayer
370
-1
48
1
60
0
100
AcDbSpline
70
4
71
3
72
24
73
20
40
0
40
0
40
0
40
0
40
0.0154450745970414
40
0.0154450745970414
40
0.0417985895668442
40
0.0417985895668442
40
0.0483972597876847
40
0.0483972597876847
40
0.102103855500447
40
0.102103855500447
40
0.185330321121825
40
0.185330321121825
40
0.354377449491156
40
0.354377449491156
40
0.535348727398708
40
0.535348727398708
40
0.66609150100131
40
0.66609150100131
40
1
40
1
40
1
40
1
41
1
10
73.2368304953329
20
3.20799614609882
30
0
41
1
10
73.2400362369561
20
3.20726713906811
30
0
41
1
10
73.2431627834357
20
3.20608389515289
30
0
41
1
10
73.2509294018768
20
3.2019258464519
30
0
41
1
10
73.2552477329253
20
3.19821962341342
30
0
41
1
10
73.2597976113132
20
3.19304861734864
30
0
41
1
10
73.2606813130396
20
3.19196994690617
30
0
41
1
10
73.2683287257741
20
3.18202575184435
30
0
41
1
10
73.2730382889658
20
3.17165320469783
30
0
41
1
10
73.2825157425412
20
3.14495966966186
30
0
41
1
10
73.2860188834566
20
3.12794809945751
30
0
41
1
10
73.2938818284722
20
3.07641176699966
30
0
41
1
10
73.2953785333895
20
3.04133922650297
30
0
41
1
10
73.2958694021075
20
2.96901134780913
30
0
41
1
10
73.2944441131766
20
2.93157805677885
30
0
41
1
10
73.2904825401377
20
2.86723784073169
30
0
41
1
10
73.2883378205895
20
2.84027264802464
30
0
41
1
10
73.2794824608917
20
2.74458068697922
30
0
41
1
10
73.2709122639889
20
2.6760051185943
30
0
41
1
10
73.2611292740382
20
2.60762641257895
30
0
0
SPLINE
5
24F
100
AcDbEntity
8
1
62
256
6
ByLayer
370
-1
48
1
60
0
100
AcDbSpline
70
4
71
3
72
14
73
10
40
0
40
0
40
0
40
0
40
0.249606055014945
40
0.249606055014945
40
0.499158243446913
40
0.499158243446913
40
0.746144217743566
40
0.746144217743566
40
1
40
1
40
1
40
1
41
1
10
72.2988678216052
20
2.21018087520318
30
0
41
1
10
72.2832127450052
20
2.21921685896075
30
0
41
1
10
72.2675950846987
20
2.22864832941727
30
0
41
1
10
72.2370879542434
20
2.24789006692541
30
0
41
1
10
72.2220922286485
20
2.25776704023241
30
0
41
1
10
72.1933625089835
20
2.27752639807551
30
0
41
1
10
72.179521697856
20
2.28747326022327
30
0
41
1
10
72.1529184690107
20
2.30748388301902
30
0
41
1
10
72.1401040876088
20
2.31761288904036
30
0
41
1
10
72.1282294163911
20
2.32751798252676
30
0
0
SPLINE
5
250
100
AcDbEntity
8
1
62
256
6
ByLayer
370
-1
48
1
60
0
100
AcDbSpline
70
4
71
3
72
10
73
6
40
0
40
0
40
0
40
0
40
0.709495622816824
40
0.709495622816824
40
1
40
1
40
1
40
1
41
1
10
79.9312058988419
20
2.61963082946676
30
0
41
1
10
79.9287534331305
20
2.5950728089116
30
0
41
1
10
79.9221309410939
20
2.56945769790357
30
0
41
1
10
79.9083043093756
20
2.53603195679159
30
0
41
1
10
79.9036778280507
20
2.52643430143971
30
0
41
1
10
79.8985421027961
20
2.51715830363736
30
0
0
SPLINE
5
251
100
AcDbEntity
8
1
62
256
6
ByLayer
370
-1
48
1
60
0
100
AcDbSpline
70
4
71
3
72
24
73
20
40
0
40
0
40
0
40
0
40
0.015445074597059
40
0.015445074597059
40
0.0417985895668773
40
0.0417985895668773
40
0.0483972597877209
40
0.0483972597877209
40
0.102103855500569
40
0.102103855500569
40
0.185330321122078
40
0.185330321122078
40
0.354377449491642
40
0.354377449491642
40
0.535348727399461
40
0.535348727399461
40
0.666091500997318
40
0.666091500997318
40
1
40
1
40
1
40
1
41
1
10
78.6151538154918
20
5.7128168472421
30
0
41
1
10
78.6141944096306
20
5.71586419749772
30
0
41
1
10
78.6136752576174
20
5.71906069538966
30
0
41
1
10
78.6134606556868
20
5.7275802633051
30
0
41
1
10
78.614571180002
20
5.73297984146032
30
0
41
1
10
78.6168579523848
20
5.73927055929428
30
0
41
1
10
78.6173676630204
20
5.74052769706603
30
0
41
1
10
78.6223162607559
20
5.75169641526932
30
0
41
1
10
78.6291111068649
20
5.76059334292628
30
0
41
1
10
78.647918098235
20
5.78126259907538
30
0
41
1
10
78.6611714111494
20
5.79229728919174
30
0
41
1
10
78.7026959197032
20
5.82340891801329
30
0
41
1
10
78.7328806679834
20
5.84133282594357
30
0
41
1
10
78.7964245003498
20
5.87610669975433
30
0
41
1
10
78.8301500789516
20
5.89268763390069
30
0
41
1
10
78.8888717218141
20
5.91991105779428
30
0
41
1
10
78.9137238482398
20
5.93091171275037
30
0
41
1
10
79.0025376834062
20
5.96889948954504
30
0
41
1
10
79.0672933387234
20
5.99424483621098
30
0
41
1
10
79.1324794711793
20
6.01847176625353
30
0
0
SPLINE
5
252
100
AcDbEntity
8
1
62
256
6
ByLayer
370
-1
48
1
60
0
100
AcDbSpline
70
4
71
2
72
6
73
3
40
0
40
0
40
0
40
1
40
1
40
1
41
0.500001284466093
10
79.4779866932225
20
1.62320682869435
30
0
41
0.499998715533907
10
79.4784028025991
20
1.62236755279565
30
0
41
0.500001284466093
10
79.4788184035136
20
1.62153129237076
30
0
0
SPLINE
5
253
100
AcDbEntity
8
1
62
256
6
ByLayer
370
-1
48
1
60
0
100
AcDbSpline
70
4
71
3
72
20
73
16
40
0
40
0
40
0
40
0
40
0.511365204367417
40
0.511365204367417
40
0.617167309555458
40
0.617167309555458
40
0.785488434327098
40
0.785488434327098
40
0.873398812153871
40
0.873398812153871
40
0.935684402254202
40
0.935684402254202
40
0.978722765374119
40
0.978722765374119
40
1
40
1
40
1
40
1
41
1
10
73.0623215128037
20
9.17033867826865
30
0
41
1
10
73.1588419751794
20
9.10687692472069
30
0
41
1
10
73.2580997158312
20
9.0463216852593
30
0
41
1
10
73.3846693756342
20
8.98642335378167
30
0
41
1
10
73.4067019160876
20
8.97664795595506
30
0
41
1
10
73.4645529821068
20
8.95340940479971
30
0
41
1
10
73.5010680851527
20
8.94083114402815
30
0
41
1
10
73.5582470269165
20
8.92893923059231
30
0
41
1
10
73.5783508642
20
8.9261449966171
30
0
41
1
10
73.6126045468015
20
8.92615423194559
30
0
41
1
10
73.627023505916
20
8.92760263129244
30
0
41
1
10
73.6499808064596
20
8.93429994896158
30
0
41
1
10
73.6591200837171
20
8.93835158479203
30
0
41
1
10
73.6711233336505
20
8.94653598281042
30
0
41
1
10
73.6748775092763
20
8.94962945859055
30
0
41
1
10
73.6782836379094
20
8.95302204400446
30
0
0
SPLINE
5
254
100
AcDbEntity
8
1
62
256
6
ByLayer
370
-1
48
1
60
0
100
AcDbSpline
70
4
71
3
72
16
73
12
40
0
40
0
40
0
40
0
40
0.0426292751499009
40
0.0426292751499009
40
0.0996436166287427
40
0.0996436166287427
40
0.207156078099357
40
0.207156078099357
40
0.580806890299255
40
0.580806890299255
40
1
40
1
40
1
40
1
41
1
10
78.7632924993804
20
5.12252302055936
30
0
41
1
10
78.7660411984967
20
5.11325048693487
30
0
41
1
10
78.7707316707448
20
5.10439294695362
30
0
41
1
10
78.7844671885374
20
5.08614827046983
30
0
41
1
10
78.7945603828548
20
5.07719994544817
30
0
41
1
10
78.825687646951
20
5.0553548821654
30
0
41
1
10
78.8490365732361
20
5.0451281086248
30
0
41
1
10
78.9540019155126
20
5.00848803815228
30
0
41
1
10
79.041956822972
20
4.99962649290214
30
0
41
1
10
79.2252818347612
20
4.98779240534256
30
0
41
1
10
79.322834630849
20
4.98810153818357
30
0
41
1
10
79.4200555765012
20
4.99133547274832
30
0
0
SPLINE
5
255
100
AcDbEntity
8
1
62
256
6
ByLayer
370
-1
48
1
60
0
100
AcDbSpline
70
4
71
3
72
10
73
6
40
0
40
0
40
0
40
0
40
0.709495622816838
40
0.709495622816838
40
1
40
1
40
1
40
1
41
1
10
75.7698038349676
20
11.6064123582383
30
0
41
1
10
75.7930546515993
20
11.6165434392561
30
0
41
1
10
75.818166127392
20
11.6219874249782
30
0
41
1
10
75.8528031113537
20
11.6236746442518
30
0
41
1
10
75.8629839697444
20
11.6234717072203
30
0
41
1
10
75.8731008469153
20
11.6226363932798
30
0
0
SPLINE
5
256
100
AcDbEntity
8
1
62
256
6
ByLayer
370
-1
48
1
60
0
100
AcDbSpline
70
4
71
3
72
14
73
10
40
0
40
0
40
0
40
0
40
0.249606055014984
40
0.249606055014984
40
0.49915824344687
40
0.49915824344687
40
0.746144217743596
40
0.746144217743596
40
1
40
1
40
1
40
1
41
1
10
79.9288185797055
20
5.34555048386048
30
0
41
1
10
79.9288334068592
20
5.32829810190651
30
0
41
1
10
79.9288744089186
20
5.31146006558765
30
0
41
1
10
79.9290059405458
20
5.27930133718365
30
0
41
1
10
79.9290969086179
20
5.26386835793895
30
0
41
1
10
79.9293237552177
20
5.23504919126262
30
0
41
1
10
79.9294599123583
20
5.22154781408821
30
0
41
1
10
79.9297776667997
20
5.19639487588964
30
0
41
1
10
79.9299615286451
20
5.18471758511018
30
0
41
1
10
79.9301645144408
20
5.17436078870264
30
0
0
SPLINE
5
257
100
AcDbEntity
8
1
62
256
6
ByLayer
370
-1
48
1
60
0
100
AcDbSpline
70
4
71
3
72
24
73
20
40
0
40
0
40
0
40
0
40
0.0154450745970494
40
0.0154450745970494
40
0.0417985895668606
40
0.0417985895668606
40
0.0483972597877282
40
0.0483972597877282
40
0.102103855500593
40
0.102103855500593
40
0.185330321122057
40
0.185330321122057
40
0.354377449491638
40
0.354377449491638
40
0.535348727399442
40
0.535348727399442
40
0.666091500997331
40
0.666091500997331
40
1
40
1
40
1
40
1
41
1
10
73.6595110772648
20
8.96999146132541
30
0
41
1
10
73.6572652305627
20
8.96768062555878
30
0
41
1
10
73.6546569782996
20
8.9656542037167
30
0
41
1
10
73.6470993833281
20
8.96120705066991
30
0
41
1
10
73.6416634817384
20
8.95940553035322
30
0
41
1
10
73.6348158199375
20
8.95811679047583
30
0
41
1
10
73.6334200583772
20
8.95790226107198
30
0
41
1
10
73.6208019908416
20
8.95633914435376
30
0
41
1
10
73.609271954699
20
8.95742137134451
30
0
41
1
10
73.5809193985499
20
8.96240008883805
30
0
41
1
10
73.5641174680789
20
8.96767886615058
30
0
41
1
10
73.5145899095937
20
8.98595284739125
30
0
41
1
10
73.4828098480983
20
9.00158776380192
30
0
41
1
10
73.4185693836333
20
9.03598313639867
30
0
41
1
10
73.3861610745211
20
9.05517730855436
30
0
41
1
10
73.3312138517763
20
9.08942115384269
30
0
41
1
10
73.3084275358792
20
9.10417437546403
30
0
41
1
10
73.2281877602043
20
9.15756037674592
30
0
41
1
10
73.1717984242115
20
9.19766091443827
30
0
41
1
10
73.1161905812906
20
9.23867037548254
30
0
0
SPLINE
5
258
100
AcDbEntity
8
1
62
256
6
ByLayer
370
-1
48
1
60
0
100
AcDbSpline
70
4
71
2
72
6
73
3
40
0
40
0
40
0
40
1
40
1
40
1
41
0.500001283631369
10
76.7878399044045
20
11.5713690651681
30
0
41
0.499998716368631
10
76.788437331905
20
11.5722129181398
30
0
41
0.500001283631369
10
76.7890339794569
20
11.573057266447
30
0
0
SPLINE
5
259
100
AcDbEntity
8
1
62
256
6
ByLayer
370
-1
48
1
60
0
100
AcDbSpline
70
4
71
3
72
12
73
8
40
0
40
0
40
0
40
0
40
0.347623173836825
40
0.347623173836825
40
0.696503371294804
40
0.696503371294804
40
1
40
1
40
1
40
1
41
1
10
76.6826194007186
20
11.5202413776193
30
0
41
1
10
76.6966678476777
20
11.5196618326364
30
0
41
1
10
76.7109381549005
20
11.5213832799838
30
0
41
1
10
76.7377731599582
20
11.5294851155642
30
0
41
1
10
76.7507179949088
20
11.5360234807311
30
0
41
1
10
76.7718344427971
20
11.5520379631346
30
0
41
1
10
76.7806519843863
20
11.5612162890356
30
0
41
1
10
76.7878399044045
20
11.5713690651681
30
0
0
SPLINE
5
25A
100
AcDbEntity
8
1
62
256
6
ByLayer
370
-1
48
1
60
0
100
AcDbSpline
70
4
71
2
72
6
73
3
40
0
40
0
40
0
40
1
40
1
40
1
41
0.50000128372792
10
69.2254260720382
20
4.38548666000082
30
0
41
0.49999871627208
10
69.2244232935614
20
4.38564723297089
30
0
41
0.50000128372792
10
69.2234221311148
20
4.38580932434724
30
0
0
SPLINE
5
25B
100
AcDbEntity
8
1
62
256
6
ByLayer
370
-1
48
1
60
0
100
AcDbSpline
70
4
71
3
72
12
73
8
40
0
40
0
40
0
40
0
40
0.47437669837111
40
0.47437669837111
40
0.706219783413731
40
0.706219783413731
40
1
40
1
40
1
40
1
41
1
10
72.541521341396
20
9.77604082936227
30
0
41
1
10
72.5640272513862
20
9.7834533540439
30
0
41
1
10
72.5900562996099
20
9.79392927263916
30
0
41
1
10
72.6307315433508
20
9.81263996525007
30
0
41
1
10
72.6446083744866
20
9.8193802989646
30
0
41
1
10
72.6763681539067
20
9.83556932989146
30
0
41
1
10
72.6944977191443
20
9.84534503755981
30
0
41
1
10
72.7124852161581
20
9.85555080831978
30
0
0
SPLINE
5
25C
100
AcDbEntity
8
1
62
256
6
ByLayer
370
-1
48
1
60
0
100
AcDbSpline
70
4
71
3
72
18
73
14
40
0
40
0
40
0
40
0
40
0.439677344605708
40
0.439677344605708
40
0.819840138515278
40
0.819840138515278
40
0.92075837696304
40
0.92075837696304
40
0.968467673881579
40
0.968467673881579
40
0.990240013274128
40
0.990240013274128
40
1
40
1
40
1
40
1
41
1
10
79.4156243699837
20
5.07655719358601
30
0
41
1
10
79.3215234179367
20
5.06879641802922
30
0
41
1
10
79.2271062263633
20
5.06294958897797
30
0
41
1
10
79.0509332270556
20
5.06055181411313
30
0
41
1
10
78.9681662521438
20
5.0608713033028
30
0
41
1
10
78.8663794543691
20
5.08049438024517
30
0
41
1
10
78.8448137405959
20
5.08579299328349
30
0
41
1
10
78.8156777661561
20
5.0992586550723
30
0
41
1
10
78.8064897602854
20
5.10460620491779
30
0
41
1
10
78.795846279341
20
5.11506098117312
30
0
41
1
10
78.7928700360824
20
5.11882955117792
30
0
41
1
10
78.7897351689593
20
5.12481395365086
30
0
41
1
10
78.7889167817798
20
5.12676411670222
30
0
41
1
10
78.7882887261909
20
5.12875900274236
30
0
0
SPLINE
5
25D
100
AcDbEntity
8
1
62
256
6
ByLayer
370
-1
48
1
60
0
100
AcDbSpline
70
4
71
3
72
16
73
12
40
0
40
0
40
0
40
0
40
0.0426292751499035
40
0.0426292751499035
40
0.099643616628748
40
0.099643616628748
40
0.207156078099369
40
0.207156078099369
40
0.580806890299256
40
0.580806890299256
40
1
40
1
40
1
40
1
41
1
10
72.6337017156807
20
3.38243069061034
30
0
41
1
10
72.6240257739078
20
3.38480352521364
30
0
41
1
10
72.6137585618197
20
3.3853426506991
30
0
41
1
10
72.5905891298297
20
3.38304450804685
30
0
41
1
10
72.5775603074866
20
3.37910918154276
30
0
41
1
10
72.5425354771614
20
3.36407447268732
30
0
41
1
10
72.5217845810963
20
3.34969293343119
30
0
41
1
10
72.4368666025424
20
3.28033680933223
30
0
41
1
10
72.3852893036275
20
3.21121457489343
30
0
41
1
10
72.2837353000848
20
3.06379862616566
30
0
41
1
10
72.2356176393653
20
2.98202508274906
30
0
41
1
10
72.1902865385463
20
2.89905534038687
30
0
0
SPLINE
5
25E
100
AcDbEntity
8
1
62
256
6
ByLayer
370
-1
48
1
60
0
100
AcDbSpline
70
4
71
3
72
18
73
14
40
0
40
0
40
0
40
0
40
0.439677344605699
40
0.439677344605699
40
0.81984013851528
40
0.81984013851528
40
0.920758376963033
40
0.920758376963033
40
0.968467673881572
40
0.968467673881572
40
0.990240013274133
40
0.990240013274133
40
1
40
1
40
1
40
1
41
1
10
73.8177136101134
20
9.94258401287115
30
0
41
1
10
73.8734738421378
20
9.86971136289927
30
0
41
1
10
73.9276718394034
20
9.79561618111958
30
0
41
1
10
74.0211325465436
20
9.65308589313281
30
0
41
1
10
74.0637369283884
20
9.58539595150418
30
0
41
1
10
74.0988208119491
20
9.49250647093214
30
0
41
1
10
74.1052269345296
20
9.47225360576854
30
0
41
1
10
74.108204674419
20
9.44172886554927
30
0
41
1
10
74.1081525223056
20
9.43155077745689
30
0
41
1
10
74.1042574580355
20
9.41762425672718
30
0
41
1
10
74.1024075854197
20
9.41330622501548
30
0
41
1
10
74.098645365545
20
9.40774767761937
30
0
41
1
10
74.097314059614
20
9.4061020704288
30
0
41
1
10
74.0958438616195
20
9.4045893286613
30
0
0
SPLINE
5
25F
100
AcDbEntity
8
1
62
256
6
ByLayer
370
-1
48
1
60
0
100
AcDbSpline
70
4
71
3
72
8
73
4
40
0
40
0
40
0
40
0
40
1
40
1
40
1
40
1
41
1
10
71.1231947459698
20
9.51957527368694
30
0
41
1
10
71.1228674486193
20
9.51953342432819
30
0
41
1
10
71.1225397962008
20
9.51949146791927
30
0
41
1
10
71.1222117941147
20
9.51944940297363
30
0
0
SPLINE
5
260
100
AcDbEntity
8
1
62
256
6
ByLayer
370
-1
48
1
60
0
100
AcDbSpline
70
4
71
1
72
4
73
2
40
0
40
0
40
1
40
1
41
1.08358774580744
10
67.4996640803816
20
3.73643226026587
30
0
41
1.08358774580744
10
67.5285611960972
20
3.87723351878054
30
0
0
SPLINE
5
261
100
AcDbEntity
8
1
62
256
6
ByLayer
370
-1
48
1
60
0
100
AcDbSpline
70
4
71
3
72
10
73
6
40
0
40
0
40
0
40
0
40
0.722254617258736
40
0.722254617258736
40
1
40
1
40
1
40
1
41
1
10
70.8966334467428
20
9.46784493824791
30
0
41
1
10
70.9465381236386
20
9.49216156969661
30
0
41
1
10
71.0015087255541
20
9.50847419750724
30
0
41
1
10
71.0785901637136
20
9.51814154586125
30
0
41
1
10
71.1004228019471
20
9.51948611634595
30
0
41
1
10
71.1222117941136
20
9.51944940297366
30
0
0
SPLINE
5
262
100
AcDbEntity
8
1
62
256
6
ByLayer
370
-1
48
1
60
0
100
AcDbSpline
70
4
71
3
72
10
73
6
40
0
40
0
40
0
40
0
40
0.638091248905444
40
0.638091248905444
40
1
40
1
40
1
40
1
41
1
10
70.8966334467428
20
9.46784493824794
30
0
41
1
10
70.8685978312875
20
9.45747565143643
30
0
41
1
10
70.8438312326531
20
9.44636155247403
30
0
41
1
10
70.8120950107052
20
9.43097698151081
30
0
41
1
10
70.8018623344524
20
9.4257459290082
30
0
41
1
10
70.793217013951
20
9.42147735450374
30
0
0
SPLINE
5
263
100
AcDbEntity
8
1
62
256
6
ByLayer
370
-1
48
1
60
0
100
AcDbSpline
70
4
71
3
72
12
73
8
40
0
40
0
40
0
40
0
40
0.404644073901362
40
0.404644073901362
40
0.809285947755718
40
0.809285947755718
40
1
40
1
40
1
40
1
41
1
10
70.6288736992669
20
9.06411232136622
30
0
41
1
10
70.6288736992669
20
9.11815956286617
30
0
41
1
10
70.6385338946952
20
9.1729180566476
30
0
41
1
10
70.6755734564293
20
9.27478794222503
30
0
41
1
10
70.7034633761763
20
9.32330408458591
30
0
41
1
10
70.7550688745124
20
9.38543984747386
30
0
41
1
10
70.7734540015144
20
9.40425698461917
30
0
41
1
10
70.7932170139528
20
9.42147735450598
30
0
0
SPLINE
5
264
100
AcDbEntity
8
1
62
256
6
ByLayer
370
-1
48
1
60
0
100
AcDbSpline
70
4
71
3
72
8
73
4
40
0
40
0
40
0
40
0
40
1
40
1
40
1
40
1
41
1
10
73.727243977836
20
5.64070046925622
30
0
41
1
10
73.7206501419502
20
5.64041340087192
30
0
41
1
10
73.7140563447621
20
5.64012635700121
30
0
41
1
10
73.7074625847393
20
5.6398393366724
30
0
0
SPLINE
5
265
100
AcDbEntity
8
1
62
256
6
ByLayer
370
-1
48
1
60
0
100
AcDbSpline
70
4
71
3
72
30
73
26
40
0
40
0
40
0
40
0
40
0.0511772287528771
40
0.0511772287528771
40
0.13507524106773
40
0.13507524106773
40
0.271834780652242
40
0.271834780652242
40
0.469061266910597
40
0.469061266910597
40
0.500636061959798
40
0.500636061959798
40
0.599800502489151
40
0.599800502489151
40
0.697557955314463
40
0.697557955314463
40
0.781333785463094
40
0.781333785463094
40
0.847844869822084
40
0.847844869822084
40
0.899113486931114
40
0.899113486931114
40
0.939077913069148
40
0.939077913069148
40
1
40
1
40
1
40
1
41
1
10
74.1162123299376
20
4.98799385638267
30
0
41
1
10
74.1252536885757
20
4.99585019416347
30
0
41
1
10
74.1323411237447
20
5.00557471525025
30
0
41
1
10
74.1462457808864
20
5.03340280172392
30
0
41
1
10
74.150445718365
20
5.05333513446536
30
0
41
1
10
74.1538416383999
20
5.10715095121418
30
0
41
1
10
74.1485236676095
20
5.14312114884058
30
0
41
1
10
74.1253915565416
20
5.23059804340133
30
0
41
1
10
74.102560224758
20
5.28390448540975
30
0
41
1
10
74.069561719086
20
5.34357515582536
30
0
41
1
10
74.0647966449233
20
5.35187044850525
30
0
41
1
10
74.0444826866866
20
5.38595819575545
30
0
41
1
10
74.0275375254498
20
5.41146499339476
30
0
41
1
10
73.9913132373676
20
5.46041829074272
30
0
41
1
10
73.9719523501854
20
5.48405508357496
30
0
41
1
10
73.9337780789729
20
5.52550657291633
30
0
41
1
10
73.9151672669993
20
5.54379796026797
30
0
41
1
10
73.8802139570169
20
5.57395832221434
30
0
41
1
10
73.8640976049593
20
5.5864558607434
30
0
41
1
10
73.834624861515
20
5.60610770887695
30
0
41
1
10
73.8214048984607
20
5.61387787406662
30
0
41
1
10
73.7974432564297
20
5.62555707721171
30
0
41
1
10
73.7867353506504
20
5.62996588267174
30
0
41
1
10
73.7597335810228
20
5.63850176242858
30
0
41
1
10
73.7430109972662
20
5.64138690017006
30
0
41
1
10
73.7272439778361
20
5.64070046925625
30
0
0
SPLINE
5
266
100
AcDbEntity
8
1
62
256
6
ByLayer
370
-1
48
1
60
0
100
AcDbSpline
70
4
71
3
72
30
73
26
40
0
40
0
40
0
40
0
40
0.0515194889309866
40
0.0515194889309866
40
0.092877146076308
40
0.092877146076308
40
0.148185150442192
40
0.148185150442192
40
0.203338923043302
40
0.203338923043302
40
0.287955708682754
40
0.287955708682754
40
0.372427214532706
40
0.372427214532706
40
0.435367147735229
40
0.435367147735229
40
0.498971020782875
40
0.498971020782875
40
0.701334348038968
40
0.701334348038968
40
0.83888732792135
40
0.83888732792135
40
0.925006664597121
40
0.925006664597121
40
1
40
1
40
1
40
1
41
1
10
73.727243977836
20
6.39279578822098
30
0
41
1
10
73.7406201383424
20
6.38796539573991
30
0
41
1
10
73.7546831624704
20
6.38569765145434
30
0
41
1
10
73.7796501657883
20
6.38520861533621
30
0
41
1
10
73.7907962310385
20
6.38626163196233
30
0
41
1
10
73.8163266055464
20
6.39096912813005
30
0
41
1
10
73.8306744147181
20
6.39539382138204
30
0
41
1
10
73.8584315584191
20
6.40665808168785
30
0
41
1
10
73.8719368983614
20
6.41353190361181
30
0
41
1
10
73.9050168406034
20
6.43326986758035
30
0
41
1
10
73.9241492436004
20
6.44745684428239
30
0
41
1
10
73.9603631960831
20
6.47891545136491
30
0
41
1
10
73.9775649083274
20
6.4962945696619
30
0
41
1
10
74.0058329180789
20
6.52877591610553
30
0
41
1
10
74.0173882551283
20
6.54338478977098
30
0
41
1
10
74.0394553402458
20
6.57394119140841
30
0
41
1
10
74.0499839342166
20
6.58994206109401
30
0
41
1
10
74.0909899074376
20
6.65836377284307
30
0
41
1
10
74.1165032113725
20
6.71633065021581
30
0
41
1
10
74.1442129999312
20
6.81725785568327
30
0
41
1
10
74.1515231419923
20
6.86005135629895
30
0
41
1
10
74.1525357180563
20
6.92888295046149
30
0
41
1
10
74.1502602491482
20
6.95571491735657
30
0
41
1
10
74.1383078994519
20
7.00290739180218
30
0
41
1
10
74.1293367564663
20
7.02430911916403
30
0
41
1
10
74.1162123299377
20
7.04182026871746
30
0
0
SPLINE
5
267
100
AcDbEntity
8
1
62
256
6
ByLayer
370
-1
48
1
60
0
100
AcDbSpline
70
4
71
3
72
22
73
18
40
0
40
0
40
0
40
0
40
0.142057608738904
40
0.142057608738904
40
0.351004812992479
40
0.351004812992479
40
0.487763342941668
40
0.487763342941668
40
0.591529353509245
40
0.591529353509245
40
0.758694969227044
40
0.758694969227044
40
0.858776631808837
40
0.858776631808837
40
0.960359919517393
40
0.960359919517393
40
1
40
1
40
1
40
1
41
1
10
73.5050820831053
20
6.04361786606785
30
0
41
1
10
73.5050820831053
20
6.06646426137723
30
0
41
1
10
73.5061148661618
20
6.08925135689904
30
0
41
1
10
73.5112931001009
20
6.14500015831823
30
0
41
1
10
73.516670935244
20
6.17788658889691
30
0
41
1
10
73.5300078335764
20
6.23059379843301
30
0
41
1
10
73.5364645200374
20
6.251094962736
30
0
41
1
10
73.5502814496131
20
6.28578351355156
30
0
41
1
10
73.5570727835829
20
6.30035684720909
30
0
41
1
10
73.5772398695057
20
6.336318747841
30
0
41
1
10
73.592375965494
20
6.35704913785159
30
0
41
1
10
73.6217096856828
20
6.38290267056587
30
0
41
1
10
73.6341161680423
20
6.39106283290127
30
0
41
1
10
73.6608785291213
20
6.40171186026907
30
0
41
1
10
73.6756877303861
20
6.4041574274973
30
0
41
1
10
73.6959942179379
20
6.40249258919081
30
0
41
1
10
73.7017783262652
20
6.40147001950876
30
0
41
1
10
73.7074625847393
20
6.39993930465388
30
0
0
SPLINE
5
268
100
AcDbEntity
8
1
62
256
6
ByLayer
370
-1
48
1
60
0
100
AcDbSpline
70
4
71
3
72
8
73
4
40
0
40
0
40
0
40
0
40
1
40
1
40
1
40
1
41
1
10
73.7074625847393
20
6.39993930465388
30
0
41
1
10
73.714056344762
20
6.3975581232522
30
0
41
1
10
73.7206501419502
20
6.39517695098201
30
0
41
1
10
73.727243977836
20
6.39279578822089
30
0
0
SPLINE
5
269
100
AcDbEntity
8
1
62
256
6
ByLayer
370
-1
48
1
60
0
100
AcDbSpline
70
4
71
3
72
24
73
20
40
0
40
0
40
0
40
0
40
0.0974021566270014
40
0.0974021566270014
40
0.180354031075305
40
0.180354031075305
40
0.30754261651715
40
0.30754261651715
40
0.412109117009491
40
0.412109117009491
40
0.516348967690663
40
0.516348967690663
40
0.620446917153197
40
0.620446917153197
40
0.724476829459728
40
0.724476829459728
40
0.933310901385852
40
0.933310901385852
40
1
40
1
40
1
40
1
41
1
10
73.7074625847393
20
5.6398393366724
30
0
41
1
10
73.6937586940945
20
5.64040369489496
30
0
41
1
10
73.6793045673201
20
5.64402823864626
30
0
41
1
10
73.6540757795609
20
5.65573177541413
30
0
41
1
10
73.6427749478256
20
5.66316051365726
30
0
41
1
10
73.6166346395021
20
5.68496771533742
30
0
41
1
10
73.6026035401663
20
5.70121538281634
30
0
41
1
10
73.5806235566253
20
5.73272845751922
30
0
41
1
10
73.5718476138929
20
5.74791041316081
30
0
41
1
10
73.5563644290991
20
5.7789904202937
30
0
41
1
10
73.5496034362222
20
5.79498633620148
30
0
41
1
10
73.5377490448385
20
5.82736616011613
30
0
41
1
10
73.5326346635044
20
5.84380711227567
30
0
41
1
10
73.5238237970248
20
5.87689490311075
30
0
41
1
10
73.5201177823478
20
5.89357902879809
30
0
41
1
10
73.5108799312721
20
5.94383345040541
30
0
41
1
10
73.5072060123785
20
5.97768773353002
30
0
41
1
10
73.505310906217
20
6.0221219031157
30
0
41
1
10
73.5050820831053
20
6.03288062921783
30
0
41
1
10
73.5050820831053
20
6.04361786606785
30
0
0
SPLINE
5
26A
100
AcDbEntity
8
1
62
256
6
ByLayer
370
-1
48
1
60
0
100
AcDbSpline
70
4
71
3
72
22
73
18
40
0
40
0
40
0
40
0
40
0.0973712659846945
40
0.0973712659846945
40
0.180296832630729
40
0.180296832630729
40
0.307445080803076
40
0.307445080803076
40
0.411978418514991
40
0.411978418514991
40
0.516185210011246
40
0.516185210011246
40
0.620250145292136
40
0.620250145292136
40
0.829289859626381
40
0.829289859626381
40
1
40
1
40
1
40
1
41
1
10
75.5749723255622
20
4.58935766389291
30
0
41
1
10
75.5806416969107
20
4.57902448502583
30
0
41
1
10
75.589438012576
20
4.56957056223257
30
0
41
1
10
75.6097719835988
20
4.55564486558035
30
0
41
1
10
75.6209043787537
20
4.55045482428284
30
0
41
1
10
75.6509111289137
20
4.54067908177379
30
0
41
1
10
75.6711968631145
20
4.53762339360753
30
0
41
1
10
75.7084985628655
20
4.53579028517234
30
0
41
1
10
75.7257619927876
20
4.5363249899074
30
0
41
1
10
75.7601096461617
20
4.53937495195399
30
0
41
1
10
75.7773043241611
20
4.54189570751206
30
0
41
1
10
75.8113598760504
20
4.54845100534672
30
0
41
1
10
75.8282809792139
20
4.55249690964578
30
0
41
1
10
75.8785118666785
20
4.56650703103375
30
0
41
1
10
75.9114014302622
20
4.57836597127562
30
0
41
1
10
75.9692334597775
20
4.60327393816343
30
0
41
1
10
75.9946466216471
20
4.61576874988543
30
0
41
1
10
76.019261697528
20
4.62938181187559
30
0
0
SPLINE
5
26B
100
AcDbEntity
8
1
62
256
6
ByLayer
370
-1
48
1
60
0
100
AcDbSpline
70
4
71
3
72
8
73
4
40
0
40
0
40
0
40
0
40
1
40
1
40
1
40
1
41
1
10
74.1028414789748
20
7.05966028206507
30
0
41
1
10
74.1072984033188
20
7.05371362121286
30
0
41
1
10
74.1117553532876
20
7.04776695023574
30
0
41
1
10
74.1162123299377
20
7.04182026871746
30
0
0
SPLINE
5
26C
100
AcDbEntity
8
1
62
256
6
ByLayer
370
-1
48
1
60
0
100
AcDbSpline
70
4
71
3
72
34
73
30
40
0
40
0
40
0
40
0
40
0.0514465755209029
40
0.0514465755209029
40
0.13578614473537
40
0.13578614473537
40
0.203131635218805
40
0.203131635218805
40
0.270315608875039
40
0.270315608875039
40
0.337431278535896
40
0.337431278535896
40
0.404515897625461
40
0.404515897625461
40
0.499929883690869
40
0.499929883690869
40
0.599210771748096
40
0.599210771748096
40
0.697083019894145
40
0.697083019894145
40
0.780957226922665
40
0.780957226922665
40
0.8475464143932
40
0.8475464143932
40
0.898875235580299
40
0.898875235580299
40
0.980803570703539
40
0.980803570703539
40
1
40
1
40
1
40
1
41
1
10
74.79040981588
20
4.60875508330705
30
0
41
1
10
74.794599060139
20
4.61934075476574
30
0
41
1
10
74.801429302425
20
4.62920994787444
30
0
41
1
10
74.8235161862327
20
4.65243549923565
30
0
41
1
10
74.8416295163334
20
4.66454149317067
30
0
41
1
10
74.8773449453899
20
4.68275772941942
30
0
41
1
10
74.8946173990439
20
4.68971846622483
30
0
41
1
10
74.9305561582314
20
4.70172257382609
30
0
41
1
10
74.9493408283863
20
4.70680574170004
30
0
41
1
10
74.9878109315651
20
4.71541582533061
30
0
41
1
10
75.0075813680365
20
4.71896086377512
30
0
41
1
10
75.0476899418912
20
4.72470425973503
30
0
41
1
10
75.0680978093972
20
4.7269120104047
30
0
41
1
10
75.1178611628518
20
4.73076853741841
30
0
41
1
10
75.1475233189763
20
4.73180548603378
30
0
41
1
10
75.2079208130224
20
4.73151961243104
30
0
41
1
10
75.2388452635759
20
4.73009956263834
30
0
41
1
10
75.2993430508268
20
4.72464630709419
30
0
41
1
10
75.3291330340069
20
4.72063553943892
30
0
41
1
10
75.3827769118034
20
4.71043895399154
30
0
41
1
10
75.4070347933771
20
4.70461653035781
30
0
41
1
10
75.4485391274957
20
4.69176916275052
30
0
41
1
10
75.4663137443425
20
4.68520289618743
30
0
41
1
10
75.4957749901302
20
4.67170414047746
30
0
41
1
10
75.5079971139546
20
4.66516303039009
30
0
41
1
10
75.5368135593614
20
4.64634727757058
30
0
41
1
10
75.5523167523331
20
4.63257180969563
30
0
41
1
10
75.5645987164563
20
4.6129856180026
30
0
41
1
10
75.5666572243676
20
4.60907969408811
30
0
41
1
10
75.5683465200832
20
4.60507295092998
30
0
0
SPLINE
5
26D
100
AcDbEntity
8
1
62
256
6
ByLayer
370
-1
48
1
60
0
100
AcDbSpline
70
4
71
3
72
24
73
20
40
0
40
0
40
0
40
0
40
0.0380198325521991
40
0.0380198325521991
40
0.246834654675418
40
0.246834654675418
40
0.404726505663775
40
0.404726505663775
40
0.526150637963264
40
0.526150637963264
40
0.621531995504018
40
0.621531995504018
40
0.776890538332378
40
0.776890538332378
40
0.873684213898177
40
0.873684213898177
40
0.971746172255109
40
0.971746172255109
40
1
40
1
40
1
40
1
41
1
10
74.3431419545795
20
4.63731522694647
30
0
41
1
10
74.3486302737781
20
4.63422802552176
30
0
41
1
10
74.3541560278188
20
4.63119722338737
30
0
41
1
10
74.3902073306911
20
4.61192351229602
30
0
41
1
10
74.4218388400253
20
4.597298356251
30
0
41
1
10
74.4787498252265
20
4.57526031032313
30
0
41
1
10
74.5038041336136
20
4.56692036611383
30
0
41
1
10
74.5486884805227
20
4.55481996906448
30
0
41
1
10
74.5684623653712
20
4.55042847849165
30
0
41
1
10
74.6038721530973
20
4.54464060911155
30
0
41
1
10
74.6195450702674
20
4.54279576042694
30
0
41
1
10
74.6602506024772
20
4.54037511322088
30
0
41
1
10
74.6856411946571
20
4.54125560596586
30
0
41
1
10
74.7234207062444
20
4.54891246477661
30
0
41
1
10
74.7373572868912
20
4.55346635479947
30
0
41
1
10
74.7613291770157
20
4.56616547024584
30
0
41
1
10
74.7715824508839
20
4.57459354607769
30
0
41
1
10
74.7807797406462
20
4.58710242159583
30
0
41
1
10
74.7826233260099
20
4.59005863572582
30
0
41
1
10
74.7842145370912
20
4.59310048106502
30
0
0
SPLINE
5
26E
100
AcDbEntity
8
1
62
256
6
ByLayer
370
-1
48
1
60
0
100
AcDbSpline
70
4
71
3
72
8
73
4
40
0
40
0
40
0
40
0
40
1
40
1
40
1
40
1
41
1
10
76.2563453836786
20
4.96618257085032
30
0
41
1
10
76.2517449480731
20
4.97009816910762
30
0
41
1
10
76.2471444891754
20
4.974013810504
30
0
41
1
10
76.2425440060256
20
4.97792949681906
30
0
0
SPLINE
5
26F
100
AcDbEntity
8
1
62
256
6
ByLayer
370
-1
48
1
60
0
100
AcDbSpline
70
4
71
3
72
22
73
18
40
0
40
0
40
0
40
0
40
0.0973712659846785
40
0.0973712659846785
40
0.180296832630705
40
0.180296832630705
40
0.307445080803031
40
0.307445080803031
40
0.411978418514911
40
0.411978418514911
40
0.516185210011117
40
0.516185210011117
40
0.620250145291986
40
0.620250145291986
40
0.829289859626195
40
0.829289859626195
40
1
40
1
40
1
40
1
41
1
10
74.1028414789748
20
4.97637554208913
30
0
41
1
10
74.0946612774358
20
4.96767089838045
30
0
41
1
10
74.0888588367914
20
4.9567775187094
30
0
41
1
10
74.0837259071769
20
4.93475929011618
30
0
41
1
10
74.0834565520084
20
4.92367670818118
30
0
41
1
10
74.0870995089961
20
4.89550623400029
30
0
41
1
10
74.0932437780509
20
4.8778987143036
30
0
41
1
10
74.1084007052705
20
4.84709436111251
30
0
41
1
10
74.1168259283934
20
4.833411976912
30
0
41
1
10
74.1355841370285
20
4.80703336612854
30
0
41
1
10
74.1459734759069
20
4.79425024413209
30
0
41
1
10
74.1680989106927
20
4.76961037190623
30
0
41
1
10
74.1798741360824
20
4.75770979463624
30
0
41
1
10
74.2167876046084
20
4.72326551270393
30
0
41
1
10
74.2435852798972
20
4.70189967543942
30
0
41
1
10
74.2946110715835
20
4.66616458017768
30
0
41
1
10
74.3185268786986
20
4.65116130524086
30
0
41
1
10
74.3431419545795
20
4.63731522694647
30
0
0
SPLINE
5
270
100
AcDbEntity
8
1
62
256
6
ByLayer
370
-1
48
1
60
0
100
AcDbSpline
70
4
71
3
72
8
73
4
40
0
40
0
40
0
40
0
40
1
40
1
40
1
40
1
41
1
10
75.5683465200833
20
4.60507295092995
30
0
41
1
10
75.5705551325689
20
4.59983447025172
30
0
41
1
10
75.5727637342526
20
4.59459604193074
30
0
41
1
10
75.5749723255622
20
4.58935766389291
30
0
0
SPLINE
5
271
100
AcDbEntity
8
1
62
256
6
ByLayer
370
-1
48
1
60
0
100
AcDbSpline
70
4
71
3
72
24
73
20
40
0
40
0
40
0
40
0
40
0.038019832552073
40
0.038019832552073
40
0.246834654675221
40
0.246834654675221
40
0.404726505663669
40
0.404726505663669
40
0.526150637963161
40
0.526150637963161
40
0.621531995503959
40
0.621531995503959
40
0.776890538332343
40
0.776890538332343
40
0.873684213898226
40
0.873684213898226
40
0.971746172255229
40
0.971746172255229
40
1
40
1
40
1
40
1
41
1
10
74.3431419545795
20
7.44198709011852
30
0
41
1
10
74.3376536353809
20
7.4389518433521
30
0
41
1
10
74.3322019120988
20
7.4358477486318
30
0
41
1
10
74.2971115229852
20
7.41528499009334
30
0
41
1
10
74.2685058581517
20
7.39582607089747
30
0
41
1
10
74.2211530053129
20
7.35810338364706
30
0
41
1
10
74.2016172556213
20
7.34063219388736
30
0
41
1
10
74.1693892752365
20
7.30745830535318
30
0
41
1
10
74.1561072060893
20
7.29222359144649
30
0
41
1
10
74.1343755857669
20
7.26351587551792
30
0
41
1
10
74.125465814875
20
7.25031682887195
30
0
41
1
10
74.1046993013746
20
7.21434940561986
30
0
41
1
10
74.0941355865452
20
7.19022089291991
30
0
41
1
10
74.0848945742966
20
7.14956159901752
30
0
41
1
10
74.0832519873412
20
7.13326336336703
30
0
41
1
10
74.0854422280791
20
7.10148352922999
30
0
41
1
10
74.0894691578788
20
7.08558084299716
30
0
41
1
10
74.0982053414522
20
7.06746082815417
30
0
41
1
10
74.1004211720346
20
7.06347913505763
30
0
41
1
10
74.1028414789748
20
7.05966028206504
30
0
0
SPLINE
5
272
100
AcDbEntity
8
1
62
256
6
ByLayer
370
-1
48
1
60
0
100
AcDbSpline
70
4
71
3
72
22
73
18
40
0
40
0
40
0
40
0
40
0.0973712659846874
40
0.0973712659846874
40
0.180296832630639
40
0.180296832630639
40
0.307445080803001
40
0.307445080803001
40
0.41197841851483
40
0.41197841851483
40
0.516185210011047
40
0.516185210011047
40
0.620250145291905
40
0.620250145291905
40
0.829289859626094
40
0.829289859626094
40
1
40
1
40
1
40
1
41
1
10
74.7842145370912
20
7.43648518902248
30
0
41
1
10
74.778836530228
20
7.45094194328925
30
0
41
1
10
74.7703294736335
20
7.46448964431835
30
0
41
1
10
74.7504717283667
20
7.48515519057764
30
0
41
1
10
74.7395411703881
20
7.49320175988913
30
0
41
1
10
74.7099813899257
20
7.50930330167046
30
0
41
1
10
74.6899163873449
20
7.51548292403035
30
0
41
1
10
74.6529442655746
20
7.52198042954061
30
0
41
1
10
74.6358053637861
20
7.52320812610836
30
0
41
1
10
74.6016702303026
20
7.52316588063843
30
0
41
1
10
74.5845642447936
20
7.52190035758085
30
0
41
1
10
74.5506601443438
20
7.51748849678822
30
0
41
1
10
74.5338020340578
20
7.51433410773174
30
0
41
1
10
74.4837309582764
20
7.50258574286738
30
0
41
1
10
74.4509098570403
20
7.49169572528606
30
0
41
1
10
74.3931539066054
20
7.46786447790217
30
0
41
1
10
74.3677570304605
20
7.4556001521087
30
0
41
1
10
74.3431419545795
20
7.44198709011852
30
0
0
SPLINE
5
273
100
AcDbEntity
8
1
62
256
6
ByLayer
370
-1
48
1
60
0
100
AcDbSpline
70
4
71
3
72
24
73
20
40
0
40
0
40
0
40
0
40
0.0380198325523525
40
0.0380198325523525
40
0.246834654675593
40
0.246834654675593
40
0.404726505663928
40
0.404726505663928
40
0.526150637963393
40
0.526150637963393
40
0.621531995504151
40
0.621531995504151
40
0.776890538332505
40
0.776890538332505
40
0.873684213898428
40
0.873684213898428
40
0.971746172255433
40
0.971746172255433
40
1
40
1
40
1
40
1
41
1
10
76.8573215690023
20
6.02775103592623
30
0
41
1
10
76.8573215690023
20
6.03387348411738
30
0
41
1
10
76.8572463059879
20
6.0399909413054
30
0
41
1
10
76.8562693760962
20
6.07960074043902
30
0
41
1
10
76.8531936052086
20
6.11297822571674
30
0
41
1
10
76.8434701698804
20
6.17039948625083
30
0
41
1
10
76.8378547730731
20
6.19484010570713
30
0
41
1
10
76.8249649545601
20
6.23681043035484
30
0
41
1
10
76.8183504643624
20
6.25470046738477
30
0
41
1
10
76.8044011622694
20
6.28535878222593
30
0
41
1
10
76.7975002383959
20
6.29845276145142
30
0
41
1
10
76.7771367357279
20
6.33083326510956
30
0
41
1
10
76.7619789092368
20
6.34939748246052
30
0
41
1
10
76.7327368170626
20
6.37244222451034
30
0
41
1
10
76.7201253331103
20
6.37969324615781
30
0
41
1
10
76.6932419114
20
6.38856579828754
30
0
41
1
10
76.6785448774719
20
6.39014116189205
30
0
41
1
10
76.6600531367365
20
6.38785134611834
30
0
41
1
10
76.6558651065916
20
6.38705659519152
30
0
41
1
10
76.651724277914
20
6.38600351624299
30
0
0
SPLINE
5
274
100
AcDbEntity
8
1
62
256
6
ByLayer
370
-1
48
1
60
0
100
AcDbSpline
70
4
71
3
72
22
73
18
40
0
40
0
40
0
40
0
40
0.0973712659846449
40
0.0973712659846449
40
0.180296832630683
40
0.180296832630683
40
0.307445080803068
40
0.307445080803068
40
0.411978418514943
40
0.411978418514943
40
0.516185210011186
40
0.516185210011186
40
0.620250145292063
40
0.620250145292063
40
0.829289859626308
40
0.829289859626308
40
1
40
1
40
1
40
1
41
1
10
76.651724277914
20
5.62590354826148
30
0
41
1
10
76.6657195330442
20
5.62633680080293
30
0
41
1
10
76.6804629188894
20
5.6298231467986
30
0
41
1
10
76.7061679324047
20
5.6412856035432
30
0
41
1
10
76.7176706013162
20
5.64860640818765
30
0
41
1
10
76.7442578793373
20
5.67016403949566
30
0
41
1
10
76.7585097102932
20
5.68627783812289
30
0
41
1
10
76.7808192718149
20
5.71758128141633
30
0
41
1
10
76.789719742681
20
5.73267957100333
30
0
41
1
10
76.8054154473653
20
5.7636120021217
30
0
41
1
10
76.8122651327315
20
5.77954349592645
30
0
41
1
10
76.8242709755548
20
5.81181038450799
30
0
41
1
10
76.8294483497673
20
5.82820262369836
30
0
41
1
10
76.8428456745475
20
5.8777879052804
30
0
41
1
10
76.8489717940162
20
5.91149714411711
30
0
41
1
10
76.8558160713852
20
5.9726785660186
30
0
41
1
10
76.8573215690023
20
6.00029189564168
30
0
41
1
10
76.8573215690023
20
6.02775103592623
30
0
0
SPLINE
5
275
100
AcDbEntity
8
1
62
256
6
ByLayer
370
-1
48
1
60
0
100
AcDbSpline
70
4
71
3
72
8
73
4
40
0
40
0
40
0
40
0
40
1
40
1
40
1
40
1
41
1
10
76.2425440060256
20
7.0317559091539
30
0
41
1
10
76.2471444891755
20
7.03765971987588
30
0
41
1
10
76.2517449480731
20
7.04356352029777
30
0
41
1
10
76.2563453836786
20
7.04946731082626
30
0
0
SPLINE
5
276
100
AcDbEntity
8
1
62
256
6
ByLayer
370
-1
48
1
60
0
100
AcDbSpline
70
4
71
3
72
8
73
4
40
0
40
0
40
0
40
0
40
1
40
1
40
1
40
1
41
1
10
76.651724277914
20
6.38600351624299
30
0
41
1
10
76.6449870066298
20
6.38368543331927
30
0
41
1
10
76.6382497005128
20
6.38136735986782
30
0
41
1
10
76.6315123581272
20
6.3790492962803
30
0
0
SPLINE
5
277
100
AcDbEntity
8
1
62
256
6
ByLayer
370
-1
48
1
60
0
100
AcDbSpline
70
4
71
3
72
8
73
4
40
0
40
0
40
0
40
0
40
1
40
1
40
1
40
1
41
1
10
74.7842145370911
20
4.59310048106502
30
0
41
1
10
74.7862796171391
20
4.5983186309486
30
0
41
1
10
74.7883447098941
20
4.60353683100607
30
0
41
1
10
74.79040981588
20
4.60875508330702
30
0
0
SPLINE
5
278
100
AcDbEntity
8
1
62
256
6
ByLayer
370
-1
48
1
60
0
100
AcDbSpline
70
4
71
3
72
8
73
4
40
0
40
0
40
0
40
0
40
1
40
1
40
1
40
1
41
1
10
74.1162123299376
20
4.98799385638259
30
0
41
1
10
74.1117553532875
20
4.98412104086387
30
0
41
1
10
74.1072984033188
20
4.98024827002271
30
0
41
1
10
74.1028414789748
20
4.9763755420891
30
0
0
SPLINE
5
279
100
AcDbEntity
8
1
62
256
6
ByLayer
370
-1
48
1
60
0
100
AcDbSpline
70
4
71
3
72
8
73
4
40
0
40
0
40
0
40
0
40
1
40
1
40
1
40
1
41
1
10
74.79040981588
20
7.41467681460657
30
0
41
1
10
74.7883447098941
20
7.42194629048802
30
0
41
1
10
74.7862796171392
20
7.42921574838971
30
0
41
1
10
74.7842145370912
20
7.43648518902248
30
0
0
SPLINE
5
27A
100
AcDbEntity
8
1
62
256
6
ByLayer
370
-1
48
1
60
0
100
AcDbSpline
70
4
71
3
72
22
73
18
40
0
40
0
40
0
40
0
40
0.0973712659846667
40
0.0973712659846667
40
0.180296832630665
40
0.180296832630665
40
0.307445080802993
40
0.307445080802993
40
0.41197841851485
40
0.41197841851485
40
0.516185210011053
40
0.516185210011053
40
0.620250145291898
40
0.620250145291898
40
0.829289859625985
40
0.829289859625985
40
1
40
1
40
1
40
1
41
1
10
76.2563453836786
20
7.04946731082626
30
0
41
1
10
76.2648169497029
20
7.06229552993463
30
0
41
1
10
76.2709086494182
20
7.07728268784149
30
0
41
1
10
76.2765178047887
20
7.10604076604184
30
0
41
1
10
76.2769889971334
20
7.11997987599079
30
0
41
1
10
76.2737930098433
20
7.15447614944395
30
0
41
1
10
76.2678694724084
20
7.17520760333429
30
0
41
1
10
76.2530421231695
20
7.21067635360043
30
0
41
1
10
76.2447414281803
20
7.22612113910375
30
0
41
1
10
76.2261957394357
20
7.25550746646388
30
0
41
1
10
76.2158950930477
20
7.26954582096081
30
0
41
1
10
76.1939211097015
20
7.29632913022871
30
0
41
1
10
76.1822088771893
20
7.30912122274128
30
0
41
1
10
76.1454552203465
20
7.34582726119717
30
0
41
1
10
76.1187260074053
20
7.36816202112226
30
0
41
1
10
76.0677762947993
20
7.40497383588792
30
0
41
1
10
76.043876773409
20
7.4202075967533
30
0
41
1
10
76.019261697528
20
7.43405367504769
30
0
0
SPLINE
5
27B
100
AcDbEntity
8
1
62
256
6
ByLayer
370
-1
48
1
60
0
100
AcDbSpline
70
4
71
3
72
8
73
4
40
0
40
0
40
0
40
0
40
1
40
1
40
1
40
1
41
1
10
75.5749723255622
20
7.43274237185037
30
0
41
1
10
75.5727637342526
20
7.42549315937188
30
0
41
1
10
75.5705551325688
20
7.41824392973368
30
0
41
1
10
75.5683465200832
20
7.4109946822295
30
0
0
SPLINE
5
27C
100
AcDbEntity
8
1
62
256
6
ByLayer
370
-1
48
1
60
0
100
AcDbSpline
70
4
71
3
72
34
73
30
40
0
40
0
40
0
40
0
40
0.0514465755209096
40
0.0514465755209096
40
0.135786144735376
40
0.135786144735376
40
0.203131635218812
40
0.203131635218812
40
0.270315608875037
40
0.270315608875037
40
0.337431278535869
40
0.337431278535869
40
0.404515897625474
40
0.404515897625474
40
0.499929883690872
40
0.499929883690872
40
0.5992107717481
40
0.5992107717481
40
0.697083019894144
40
0.697083019894144
40
0.780957226922699
40
0.780957226922699
40
0.847546414393236
40
0.847546414393236
40
0.89887523558035
40
0.89887523558035
40
0.980803570703581
40
0.980803570703581
40
1
40
1
40
1
40
1
41
1
10
75.5683465200833
20
7.41099468222947
30
0
41
1
10
75.5638661606058
20
7.39628896315406
30
0
41
1
10
75.5567452249736
20
7.38230569303343
30
0
41
1
10
75.5339373337911
20
7.34887598700283
30
0
41
1
10
75.5154080230136
20
7.33088277011581
30
0
41
1
10
75.4790293761322
20
7.30328025364054
30
0
41
1
10
75.4614874508688
20
7.29250578333182
30
0
41
1
10
75.4250660369406
20
7.273670839045
30
0
41
1
10
75.4060665351141
20
7.26554723680002
30
0
41
1
10
75.3672216115947
20
7.25163245745614
30
0
41
1
10
75.347290354282
20
7.24581138024243
30
0
41
1
10
75.3069150366134
20
7.2362928562732
30
0
41
1
10
75.2864007868231
20
7.23257951589591
30
0
41
1
10
75.2364469715201
20
7.22602745173867
30
0
41
1
10
75.2067284965646
20
7.22419344322839
30
0
41
1
10
75.1463310025185
20
7.22447931683112
30
0
41
1
10
75.1154675255138
20
7.22676230304259
30
0
41
1
10
75.0552098675276
20
7.23561402057783
30
0
41
1
10
75.025598051844
20
7.24214632789409
30
0
41
1
10
74.9723901413922
20
7.25851300032278
30
0
41
1
10
74.9483762815555
20
7.26778897468739
30
0
41
1
10
74.9073831668539
20
7.28787144443737
30
0
41
1
10
74.889862019376
20
7.29802497062485
30
0
41
1
10
74.860895186376
20
7.31852097037532
30
0
41
1
10
74.8489048805374
20
7.32834291595083
30
0
41
1
10
74.8207240518169
20
7.35615432013901
30
0
41
1
10
74.8056585545664
20
7.3761243360766
30
0
41
1
10
74.7939382657969
20
7.40365971440002
30
0
41
1
10
74.7919893481506
20
7.40911662940394
30
0
41
1
10
74.7904098158801
20
7.41467681460654
30
0
0
SPLINE
5
27D
100
AcDbEntity
8
1
62
256
6
ByLayer
370
-1
48
1
60
0
100
AcDbSpline
70
4
71
3
72
24
73
20
40
0
40
0
40
0
40
0
40
0.0380198325519592
40
0.0380198325519592
40
0.246834654675191
40
0.246834654675191
40
0.404726505663593
40
0.404726505663593
40
0.526150637963107
40
0.526150637963107
40
0.62153199550393
40
0.62153199550393
40
0.776890538332361
40
0.776890538332361
40
0.873684213898199
40
0.873684213898199
40
0.971746172255194
40
0.971746172255194
40
1
40
1
40
1
40
1
41
1
10
76.019261697528
20
7.43405367504769
30
0
41
1
10
76.0137733783294
20
7.4371408764724
30
0
41
1
10
76.0082468027849
20
7.44016005216227
30
0
41
1
10
75.9721848224905
20
7.45928264958945
30
0
41
1
10
75.9405200288985
20
7.47343674565906
30
0
41
1
10
75.8834988417201
20
7.49391514315749
30
0
41
1
10
75.8583799745917
20
7.50134141102495
30
0
41
1
10
75.8133399930236
20
7.51123916745047
30
0
41
1
10
75.7934843251774
20
7.5144732130569
30
0
41
1
10
75.7578937809918
20
7.51770290212534
30
0
41
1
10
75.7421290120916
20
7.51824780673988
30
0
41
1
10
75.701140490576
20
7.51666340941264
30
0
41
1
10
75.6755292656356
20
7.51266038159832
30
0
41
1
10
75.637280692158
20
7.49836506075968
30
0
41
1
10
75.6231324513373
20
7.49081562141674
30
0
41
1
10
75.5986797006476
20
7.4713110615964
30
0
41
1
10
75.5881485399392
20
7.45895015456691
30
0
41
1
10
75.5785790719104
20
7.44117397564975
30
0
41
1
10
75.5766497437475
20
7.43700427492416
30
0
41
1
10
75.5749723255622
20
7.43274237185034
30
0
0
SPLINE
5
27E
100
AcDbEntity
8
1
62
256
6
ByLayer
370
-1
48
1
60
0
100
AcDbSpline
70
4
71
3
72
8
73
4
40
0
40
0
40
0
40
0
40
1
40
1
40
1
40
1
41
1
10
76.6315123581272
20
5.62695397731559
30
0
41
1
10
76.6382497005128
20
5.62660380975774
30
0
41
1
10
76.6449870066298
20
5.62625366706828
30
0
41
1
10
76.651724277914
20
5.62590354826148
30
0
0
SPLINE
5
27F
100
AcDbEntity
8
1
62
256
6
ByLayer
370
-1
48
1
60
0
100
AcDbSpline
70
4
71
3
72
24
73
20
40
0
40
0
40
0
40
0
40
0.0380198325524273
40
0.0380198325524273
40
0.246834654675549
40
0.246834654675549
40
0.404726505663887
40
0.404726505663887
40
0.526150637963301
40
0.526150637963301
40
0.621531995504108
40
0.621531995504108
40
0.776890538332438
40
0.776890538332438
40
0.873684213898286
40
0.873684213898286
40
0.971746172255257
40
0.971746172255257
40
1
40
1
40
1
40
1
41
1
10
76.019261697528
20
4.62938181187559
30
0
41
1
10
76.0247500167266
20
4.63241705864203
30
0
41
1
10
76.0302009185049
20
4.6355095269179
30
0
41
1
10
76.0652806301966
20
4.65592117179222
30
0
41
1
10
76.093853010772
20
4.67490903101267
30
0
41
1
10
76.1410956616337
20
4.71107206983362
30
0
41
1
10
76.1605668525841
20
4.72762958325151
30
0
41
1
10
76.1926391983097
20
4.7586008311618
30
0
41
1
10
76.2058394844593
20
4.7726781001021
30
0
41
1
10
76.2273903483222
20
4.79882763571899
30
0
41
1
10
76.2362082674839
20
4.8107267382949
30
0
41
1
10
76.2566917916786
20
4.84268911701366
30
0
41
1
10
76.2670348737476
20
4.8636950946443
30
0
41
1
10
76.2758068241058
20
4.8977159265188
30
0
41
1
10
76.2772377508874
20
4.91101861284918
30
0
41
1
10
76.2745666495842
20
4.93599300261226
30
0
41
1
10
76.2702618329444
20
4.94796285764747
30
0
41
1
10
76.2611534711045
20
4.96081556909141
30
0
41
1
10
76.2588518977229
20
4.96358377559235
30
0
41
1
10
76.2563453836786
20
4.96618257085032
30
0
0
SPLINE
5
280
100
AcDbEntity
8
1
62
256
6
ByLayer
370
-1
48
1
60
0
100
AcDbSpline
70
4
71
3
72
34
73
30
40
0
40
0
40
0
40
0
40
0.051446575520939
40
0.051446575520939
40
0.13578614473541
40
0.13578614473541
40
0.203131635218861
40
0.203131635218861
40
0.270315608875087
40
0.270315608875087
40
0.337431278535911
40
0.337431278535911
40
0.404515897625489
40
0.404515897625489
40
0.499929883690942
40
0.499929883690942
40
0.599210771748095
40
0.599210771748095
40
0.697083019894177
40
0.697083019894177
40
0.780957226922728
40
0.780957226922728
40
0.847546414393251
40
0.847546414393251
40
0.898875235580375
40
0.898875235580375
40
0.980803570703511
40
0.980803570703511
40
1
40
1
40
1
40
1
41
1
10
76.2425440060256
20
4.97792949681903
30
0
41
1
10
76.233211532169
20
4.98587280167976
30
0
41
1
10
76.2258334036538
20
4.99566579121674
30
0
41
1
10
76.2112077391373
20
5.02362891749578
30
0
41
1
10
76.2065918209819
20
5.04360297747183
30
0
41
1
10
76.2035942336614
20
5.0806214300089
30
0
41
1
10
76.2041400878003
20
5.09775017208204
30
0
41
1
10
76.2080128353351
20
5.13238096060797
30
0
41
1
10
76.2113518607363
20
5.14999701367256
30
0
41
1
10
76.2202332530617
20
5.18536749122745
30
0
41
1
10
76.2257960268003
20
5.20319960308018
30
0
41
1
10
76.2387722948877
20
5.23882937750207
30
0
41
1
10
76.2462089087767
20
5.25668869886258
30
0
41
1
10
76.2661661581356
20
5.29968065348041
30
0
41
1
10
76.2795703818313
20
5.32484713557332
30
0
41
1
10
76.3097691288543
20
5.37523613507003
30
0
41
1
10
76.3267752636399
20
5.40058223433155
30
0
41
1
10
76.363239680987
20
5.44919148127775
30
0
41
1
10
76.3827787356672
20
5.47264415278559
30
0
41
1
10
76.4213889742244
20
5.51373220545145
30
0
41
1
10
76.4402438079333
20
5.53184626029599
30
0
41
1
10
76.4757083373327
20
5.56167332031049
30
0
41
1
10
76.4920781587592
20
5.5740170951843
30
0
41
1
10
76.5220453149913
20
5.59338760220376
30
0
41
1
10
76.5354970960314
20
5.60103152461303
30
0
41
1
10
76.5708421924448
20
5.61761777535148
30
0
41
1
10
76.5937635194564
20
5.62499513664596
30
0
41
1
10
76.6211144904789
20
5.62713042744193
30
0
41
1
10
76.6263591844942
20
5.6272218090692
30
0
41
1
10
76.6315123581271
20
5.62695397731554
30
0
0
SPLINE
5
281
100
AcDbEntity
8
1
62
256
6
ByLayer
370
-1
48
1
60
0
100
AcDbSpline
70
4
71
3
72
34
73
30
40
0
40
0
40
0
40
0
40
0.0514465755209296
40
0.0514465755209296
40
0.135786144735372
40
0.135786144735372
40
0.203131635218823
40
0.203131635218823
40
0.270315608875055
40
0.270315608875055
40
0.337431278535896
40
0.337431278535896
40
0.404515897625497
40
0.404515897625497
40
0.499929883690877
40
0.499929883690877
40
0.599210771748046
40
0.599210771748046
40
0.69708301989415
40
0.69708301989415
40
0.780957226922698
40
0.780957226922698
40
0.847546414393221
40
0.847546414393221
40
0.898875235580338
40
0.898875235580338
40
0.980803570703534
40
0.980803570703534
40
1
40
1
40
1
40
1
41
1
10
76.6315123581272
20
6.37904929628024
30
0
41
1
10
76.6178450824023
20
6.37434690587389
30
0
41
1
10
76.603491364928
20
6.37221366379623
30
0
41
1
10
76.5664183129165
20
6.37184916137937
30
0
41
1
10
76.543481074322
20
6.37677361594441
30
0
41
1
10
76.5044364490326
20
6.39088269211948
30
0
41
1
10
76.4875751137128
20
6.39914383063555
30
0
41
1
10
76.4552677746897
20
6.4183550932174
30
0
41
1
10
76.4397147141001
20
6.42936776122255
30
0
41
1
10
76.4099385930764
20
6.45347580729023
30
0
41
1
10
76.395650519923
20
6.46662486131385
30
0
41
1
10
76.3683848422488
20
6.49462367577115
30
0
41
1
10
76.3553603974896
20
6.50952245160818
30
0
41
1
10
76.3254590624697
20
6.54731011064055
30
0
41
1
10
76.3091729706254
20
6.57104111417061
30
0
41
1
10
76.2789742236023
20
6.62171598727005
30
0
41
1
10
76.2650863946089
20
6.64891360453365
30
0
41
1
10
76.2411730893374
20
6.70467533801957
30
0
41
1
10
76.2310112445857
20
6.73339954701316
30
0
41
1
10
76.2161955890188
20
6.78776922861704
30
0
41
1
10
76.2109145520225
20
6.81343248246077
30
0
41
1
10
76.2051303570118
20
6.85972446115392
30
0
41
1
10
76.203852296276
20
6.88042813240301
30
0
41
1
10
76.2046054131143
20
6.91679601715268
30
0
41
1
10
76.2059509793228
20
6.9326214673934
30
0
41
1
10
76.2127974386726
20
6.9725212966357
30
0
41
1
10
76.2204344205732
20
6.99677139983643
30
0
41
1
10
76.2357842651492
20
7.02246747564061
30
0
41
1
10
76.2390252463858
20
7.0272402767271
30
0
41
1
10
76.2425440060256
20
7.03175590915384
30
0
0
SPLINE
5
282
100
AcDbEntity
8
SK1
62
256
6
ByLayer
370
-1
48
1
60
0
100
AcDbSpline
70
4
71
3
72
26
73
22
40
0
40
0
40
0
40
0
40
0.250000000000008
40
0.250000000000008
40
0.375000000000013
40
0.375000000000013
40
0.437500000000016
40
0.437500000000016
40
0.500000000000019
40
0.500000000000019
40
0.51562500000002
40
0.51562500000002
40
0.53125000000002
40
0.53125000000002
40
0.562500000000019
40
0.562500000000019
40
0.625000000000016
40
0.625000000000016
40
0.750000000000009
40
0.750000000000009
40
1
40
1
40
1
40
1
41
1
10
-22.7492170784459
20
-0.200000000000017
30
0
41
1
10
-23.3232906651606
20
-0.200000000000017
30
0
41
1
10
-23.89735615309
20
-0.197657469168831
30
0
41
1
10
-24.7583703928151
20
-0.175375706896745
30
0
41
1
10
-25.0451524631358
20
-0.165023231727503
30
0
41
1
10
-25.4744083873551
20
-0.137444530330015
30
0
41
1
10
-25.6173512537978
20
-0.126380239626599
30
0
41
1
10
-25.9024700460867
20
-0.0941748853927606
30
0
41
1
10
-26.0721915538248
20
-0.116757885091516
30
0
41
1
10
-26.2062315469927
20
0.0077762400655104
30
0
41
1
10
-26.1513054924536
20
0.0362938320400303
30
0
41
1
10
-26.0821181355254
20
0.058682345724975
30
0
41
1
10
-26.0466451415958
20
0.0665303889708184
30
0
41
1
10
-25.939573375777
20
0.0875903863095289
30
0
41
1
10
-25.8675153419067
20
0.0974986399318993
30
0
41
1
10
-25.6512668508652
20
0.123433927563013
30
0
41
1
10
-25.5064942773293
20
0.1350240774822
30
0
41
1
10
-25.0715535979398
20
0.163944205497643
30
0
41
1
10
-24.7813833201714
20
0.174612586471341
30
0
41
1
10
-23.9107158973485
20
0.197630365337744
30
0
41
1
10
-23.3299872648284
20
0.199999999999989
30
0
41
1
10
-22.7492170784456
20
0.199999999999989
30
0
0
LINE
5
4B
100
AcDbEntity
8
1
62
256
6
ByLayer
370
-1
48
1
60
0
100
AcDbLine
10
74.133211
20
4.811522
30
0
11
74.151635
21
5.072275
31
0
39
0
210
0
220
0
230
1
0
LINE
5
4C
100
AcDbEntity
8
1
62
256
6
ByLayer
370
-1
48
1
60
0
100
AcDbLine
10
79.993281
20
-2.349537
30
0
11
79.992475
21
-2.349541
31
0
39
0
210
0
220
0
230
1
0
LINE
5
4D
100
AcDbEntity
8
1
62
256
6
ByLayer
370
-1
48
1
60
0
100
AcDbLine
10
72.461856
20
6.211864
30
0
11
72.439209
21
5.891341
31
0
39
0
210
0
220
0
230
1
0
LINE
5
4E
100
AcDbEntity
8
1
62
256
6
ByLayer
370
-1
48
1
60
0
100
AcDbLine
10
77.875655
20
5.507211
30
0
11
77.898302
21
5.827735
31
0
39
0
210
0
220
0
230
1
0
LINE
5
4F
100
AcDbEntity
8
1
62
256
6
ByLayer
370
-1
48
1
60
0
100
AcDbLine
10
76.204911
20
5.102362
30
0
11
76.179282
21
4.739644
31
0
39
0
210
0
220
0
230
1
0
LINE
5
50
100
AcDbEntity
8
1
62
256
6
ByLayer
370
-1
48
1
60
0
100
AcDbLine
10
74.125525
20
6.516581
30
0
11
74.151173
21
6.879573
31
0
39
0
210
0
220
0
230
1
0
LINE
5
51
100
AcDbEntity
8
1
62
256
6
ByLayer
370
-1
48
1
60
0
100
AcDbLine
10
76.205072
20
6.918468
30
0
11
76.17912
21
6.551176
31
0
39
0
210
0
220
0
230
1
0
LINE
5
52
100
AcDbEntity
8
1
62
256
6
ByLayer
370
-1
48
1
60
0
100
AcDbLine
10
79.207628
20
-1.558291
30
0
11
79.274513
21
-0.531561
31
0
39
0
210
0
220
0
230
1
0
LINE
5
53
100
AcDbEntity
8
1
62
256
6
ByLayer
370
-1
48
1
60
0
100
AcDbLine
10
79.555968
20
0.310488
30
0
11
79.619842
21
1.291007
31
0
39
0
210
0
220
0
230
1
0
LINE
5
54
100
AcDbEntity
8
1
62
256
6
ByLayer
370
-1
48
1
60
0
100
AcDbLine
10
79.862581
20
1.564049
30
0
11
79.931887
21
2.62795
31
0
39
0
210
0
220
0
230
1
0
LINE
5
55
100
AcDbEntity
8
1
62
256
6
ByLayer
370
-1
48
1
60
0
100
AcDbLine
10
67.299768
20
5.82577
30
0
11
67.232908
21
4.799424
31
0
39
0
210
0
220
0
230
1
0
LINE
5
56
100
AcDbEntity
8
1
62
256
6
ByLayer
370
-1
48
1
60
0
100
AcDbLine
10
68.435895
20
5.166652
30
0
11
68.372072
21
4.186917
31
0
39
0
210
0
220
0
230
1
0
LINE
5
57
100
AcDbEntity
8
SK1
62
256
6
ByLayer
370
-1
48
1
60
0
100
AcDbLine
10
-60.82
20
9.99125
30
0
11
-61.32
21
9.49125
31
0
39
0
210
0
220
0
230
1
0
LINE
5
59
100
AcDbEntity
8
SK1
62
256
6
ByLayer
370
-1
48
1
60
0
100
AcDbLine
10
-61.32
20
-9.49125
30
0
11
-60.82
21
-9.99125
31
0
39
0
210
0
220
0
230
1
0
LINE
5
5A
100
AcDbEntity
8
SK1
62
256
6
ByLayer
370
-1
48
1
60
0
100
AcDbLine
10
-60.82
20
-9.99125
30
0
11
0
21
-9.99125
31
0
39
0
210
0
220
0
230
1
0
LINE
5
5B
100
AcDbEntity
8
SK1
62
256
6
ByLayer
370
-1
48
1
60
0
100
AcDbLine
10
0
20
9.99125
30
0
11
-60.82
21
9.99125
31
0
39
0
210
0
220
0
230
1
0
LINE
5
5C
100
AcDbEntity
8
1
62
256
6
ByLayer
370
-1
48
1
60
0
100
AcDbLine
10
0
20
-9.99125
30
0
11
51.062485
21
-9.99125
31
0
39
0
210
0
220
0
230
1
0
LINE
5
5D
100
AcDbEntity
8
1
62
256
6
ByLayer
370
-1
48
1
60
0
100
AcDbLine
10
51.062485
20
9.99125
30
0
11
0
21
9.99125
31
0
39
0
210
0
220
0
230
1
0
LINE
5
5E
100
AcDbEntity
8
1
62
256
6
ByLayer
370
-1
48
1
60
0
100
AcDbLine
10
51.062485
20
-9.99125
30
0
11
51.424605
21
-9.78218
31
0
39
0
210
0
220
0
230
1
0
LINE
5
5F
100
AcDbEntity
8
1
62
256
6
ByLayer
370
-1
48
1
60
0
100
AcDbLine
10
51.424605
20
9.78218
30
0
11
51.062485
21
9.99125
31
0
39
0
210
0
220
0
230
1
0
LINE
5
60
100
AcDbEntity
8
1
62
256
6
ByLayer
370
-1
48
1
60
0
100
AcDbLine
10
51.824605
20
-9.675
30
0
11
62.824605
21
-9.675
31
0
39
0
210
0
220
0
230
1
0
LINE
5
61
100
AcDbEntity
8
1
62
256
6
ByLayer
370
-1
48
1
60
0
100
AcDbLine
10
62.824605
20
9.675
30
0
11
51.824605
21
9.675
31
0
39
0
210
0
220
0
230
1
0
LINE
5
62
100
AcDbEntity
8
1
62
256
6
ByLayer
370
-1
48
1
60
0
100
AcDbLine
10
62.9507
20
-9.685
30
0
11
63.19888
21
-9.685
31
0
39
0
210
0
220
0
230
1
0
LINE
5
63
100
AcDbEntity
8
1
62
256
6
ByLayer
370
-1
48
1
60
0
100
AcDbLine
10
63.674868
20
10.243725
30
0
11
63.437441
21
9.96077
31
0
39
0
210
0
220
0
230
1
0
LINE
5
64
100
AcDbEntity
8
1
62
256
6
ByLayer
370
-1
48
1
60
0
100
AcDbLine
10
75.748448
20
11.595882
30
0
11
73.627836
21
10.42235
31
0
39
0
210
0
220
0
230
1
0
LINE
5
65
100
AcDbEntity
8
1
62
256
6
ByLayer
370
-1
48
1
60
0
100
AcDbLine
10
79.922524
20
10.858581
30
0
11
79.919247
21
10.107538
31
0
39
0
210
0
220
0
230
1
0
LINE
5
66
100
AcDbEntity
8
SK4
62
256
6
ByLayer
370
-1
48
0.05
60
0
100
AcDbLine
10
-66.32
20
0
30
0
11
84.93
21
0
31
0
39
0
210
0
220
0
230
1
0
LINE
5
68
100
AcDbEntity
8
80
62
256
6
ByLayer
370
-1
48
1
60
0
100
AcDbLine
10
0
20
0
30
0
11
-5
21
0
31
0
39
0
210
0
220
0
230
1
0
LINE
5
69
100
AcDbEntity
8
81
62
256
6
ByLayer
370
-1
48
1
60
0
100
AcDbLine
10
79.93
20
13.875
30
0
11
84.93
21
13.875
31
0
39
0
210
0
220
0
230
1
0
LINE
5
6A
100
AcDbEntity
8
4
62
256
6
ByLayer
370
-1
48
0.05
60
0
100
AcDbLine
10
0
20
0
30
0
11
141.25
21
0
31
0
39
0
210
0
220
0
230
1
0
LINE
5
6C
100
AcDbEntity
8
1
62
256
6
ByLayer
370
-1
48
1
60
0
100
AcDbLine
10
71.945045
20
-7.502274
30
0
11
61.745689
21
9.608513
31
0
39
0
210
0
220
0
230
1
0
LINE
5
6D
100
AcDbEntity
8
1
62
256
6
ByLayer
370
-1
48
1
60
0
100
AcDbLine
10
51.824605
20
9.675
30
0
11
51.824605
21
-9.675
31
0
39
0
210
0
220
0
230
1
0
LINE
5
6E
100
AcDbEntity
8
1
62
256
6
ByLayer
370
-1
48
1
60
0
100
AcDbLine
10
0
20
-9.99125
30
0
11
0
21
-0.2
31
0
39
0
210
0
220
0
230
1
0
LINE
5
6F
100
AcDbEntity
8
1
62
256
6
ByLayer
370
-1
48
1
60
0
100
AcDbLine
10
0
20
0.2
30
0
11
0
21
9.99125
31
0
39
0
210
0
220
0
230
1
0
LINE
5
70
100
AcDbEntity
8
1
62
256
6
ByLayer
370
-1
48
1
60
0
100
AcDbLine
10
51.424605
20
0.120254
30
0
11
51.424605
21
9.78218
31
0
39
0
210
0
220
0
230
1
0
LINE
5
71
100
AcDbEntity
8
1
62
256
6
ByLayer
370
-1
48
1
60
0
100
AcDbLine
10
51.424605
20
-9.78218
30
0
11
51.424605
21
-0.120254
31
0
39
0
210
0
220
0
230
1
0
LINE
5
72
100
AcDbEntity
8
1
62
256
6
ByLayer
370
-1
48
1
60
0
100
AcDbLine
10
70.478476
20
-7.015654
30
0
11
64.51925
21
2.981748
31
0
39
0
210
0
220
0
230
1
0
LINE
5
73
100
AcDbEntity
8
1
62
256
6
ByLayer
370
-1
48
1
60
0
100
AcDbLine
10
63.437441
20
9.908151
30
0
11
63.437441
21
9.96077
31
0
39
0
210
0
220
0
230
1
0
LINE
5
74
100
AcDbEntity
8
1
62
256
6
ByLayer
370
-1
48
1
60
0
100
AcDbLine
10
70.367318
20
9.010823
30
0
11
66.958509
21
7.124674
31
0
39
0
210
0
220
0
230
1
0
LINE
5
75
100
AcDbEntity
8
1
62
256
6
ByLayer
370
-1
48
1
60
0
100
AcDbLine
10
62.647895
20
6.121196
30
0
11
60.719106
21
9.356998
31
0
39
0
210
0
220
0
230
1
0
LINE
5
76
100
AcDbEntity
8
1
62
256
6
ByLayer
370
-1
48
1
60
0
100
AcDbLine
10
67.815958
20
6.678267
30
0
11
66.198384
21
5.783688
31
0
39
0
210
0
220
0
230
1
0
LINE
5
77
100
AcDbEntity
8
1
62
256
6
ByLayer
370
-1
48
1
60
0
100
AcDbLine
10
79.362902
20
-5.651045
30
0
11
79.362902
21
-2.110019
31
0
39
0
210
0
220
0
230
1
0
LINE
5
78
100
AcDbEntity
8
1
62
256
6
ByLayer
370
-1
48
1
60
0
100
AcDbLine
10
70.367318
20
10.442322
30
0
11
63.895057
21
10.470565
31
0
39
0
210
0
220
0
230
1
0
LINE
5
79
100
AcDbEntity
8
1
62
256
6
ByLayer
370
-1
48
1
60
0
100
AcDbLine
10
71.945045
20
-7.502274
30
0
11
79.362902
21
-5.651045
31
0
39
0
210
0
220
0
230
1
0
LINE
5
7A
100
AcDbEntity
8
1
62
256
6
ByLayer
370
-1
48
1
60
0
100
AcDbLine
10
0
20
-0.2
30
0
11
0
21
0.2
31
0
39
0
210
0
220
0
230
1
0
LINE
5
7B
100
AcDbEntity
8
1
62
256
6
ByLayer
370
-1
48
1
60
0
100
AcDbLine
10
71.461977
20
2.393502
30
0
11
76.20199
21
-0.272774
31
0
39
0
210
0
220
0
230
1
0
LINE
5
7C
100
AcDbEntity
8
1
62
256
6
ByLayer
370
-1
48
1
60
0
100
AcDbLine
10
0
20
-0.2
30
0
11
51.062485
21
-0.2
31
0
39
0
210
0
220
0
230
1
0
LINE
5
7D
100
AcDbEntity
8
1
62
256
6
ByLayer
370
-1
48
1
60
0
100
AcDbLine
10
51.062485
20
0.2
30
0
11
0
21
0.2
31
0
39
0
210
0
220
0
230
1
0
LINE
5
7E
100
AcDbEntity
8
1
62
256
6
ByLayer
370
-1
48
1
60
0
100
AcDbLine
10
63.19888
20
-9.685
30
0
11
71.211616
21
-7.685311
31
0
39
0
210
0
220
0
230
1
0
LINE
5
7F
100
AcDbEntity
8
1
62
256
6
ByLayer
370
-1
48
1
60
0
100
AcDbLine
10
70.367318
20
10.442322
30
0
11
70.367318
21
9.010823
31
0
39
0
210
0
220
0
230
1
0
LINE
5
80
100
AcDbEntity
8
1
62
256
6
ByLayer
370
-1
48
1
60
0
100
AcDbLine
10
71.945045
20
-7.502274
30
0
11
71.211616
21
-7.685311
31
0
39
0
210
0
220
0
230
1
0
LINE
5
81
100
AcDbEntity
8
1
62
256
6
ByLayer
370
-1
48
1
60
0
100
AcDbLine
10
79.362902
20
-2.110019
30
0
11
68.583741
21
3.954083
31
0
39
0
210
0
220
0
230
1
0
LINE
5
82
100
AcDbEntity
8
1
62
256
6
ByLayer
370
-1
48
1
60
0
100
AcDbLine
10
79.349707
20
-2.062865
30
0
11
79.362902
21
-2.110019
31
0
39
0
210
0
220
0
230
1
0
LINE
5
83
100
AcDbEntity
8
1
62
256
6
ByLayer
370
-1
48
1
60
0
100
AcDbLine
10
70.233782
20
8.544101
30
0
11
70.367318
21
9.010823
31
0
39
0
210
0
220
0
230
1
0
LINE
5
84
100
AcDbEntity
8
1
62
256
6
ByLayer
370
-1
48
1
60
0
100
AcDbLine
10
68.771327
20
3.887517
30
0
11
70.75339
21
2.772598
31
0
39
0
210
0
220
0
230
1
0
LINE
5
85
100
AcDbEntity
8
1
62
256
6
ByLayer
370
-1
48
1
60
0
100
AcDbLine
10
68.771327
20
3.887517
30
0
11
68.583741
21
3.954083
31
0
39
0
210
0
220
0
230
1
0
LINE
5
86
100
AcDbEntity
8
1
62
256
6
ByLayer
370
-1
48
1
60
0
100
AcDbLine
10
68.583741
20
3.954083
30
0
11
68.551014
21
3.92474
31
0
39
0
210
0
220
0
230
1
0
LINE
5
87
100
AcDbEntity
8
1
62
256
6
ByLayer
370
-1
48
1
60
0
100
AcDbLine
10
76.814554
20
-0.636831
30
0
11
79.349707
21
-2.062865
31
0
39
0
210
0
220
0
230
1
0
LINE
5
88
100
AcDbEntity
8
1
62
256
6
ByLayer
370
-1
48
1
60
0
100
AcDbLine
10
62.9507
20
-9.685
30
0
11
62.9507
21
-1.269618
31
0
39
0
210
0
220
0
230
1
0
LINE
5
89
100
AcDbEntity
8
1
62
256
6
ByLayer
370
-1
48
1
60
0
100
AcDbLine
10
51.062485
20
0.2
30
0
11
51.062485
21
9.99125
31
0
39
0
210
0
220
0
230
1
0
LINE
5
8A
100
AcDbEntity
8
1
62
256
6
ByLayer
370
-1
48
1
60
0
100
AcDbLine
10
51.062485
20
-9.99125
30
0
11
51.062485
21
-0.2
31
0
39
0
210
0
220
0
230
1
0
LINE
5
8B
100
AcDbEntity
8
1
62
256
6
ByLayer
370
-1
48
1
60
0
100
AcDbLine
10
70.338016
20
8.908401
30
0
11
70.338016
21
8.601765
31
0
39
0
210
0
220
0
230
1
0
LINE
5
8C
100
AcDbEntity
8
1
62
256
6
ByLayer
370
-1
48
1
60
0
100
AcDbLine
10
62.824605
20
9.675
30
0
11
62.824605
21
9.610784
31
0
39
0
210
0
220
0
230
1
0
LINE
5
8D
100
AcDbEntity
8
1
62
256
6
ByLayer
370
-1
48
1
60
0
100
AcDbLine
10
62.824605
20
-1.127335
30
0
11
62.824605
21
-9.675
31
0
39
0
210
0
220
0
230
1
0
LINE
5
8E
100
AcDbEntity
8
SK1
62
256
6
ByLayer
370
-1
48
1
60
0
100
AcDbLine
10
0
20
0.2
30
0
11
-22.749217
21
0.2
31
0
39
0
210
0
220
0
230
1
0
LINE
5
8F
100
AcDbEntity
8
1
62
256
6
ByLayer
370
-1
48
1
60
0
100
AcDbLine
10
79.986875
20
-1.093496
30
0
11
80.033149
21
-1.093269
31
0
39
0
210
0
220
0
230
1
0
LINE
5
90
100
AcDbEntity
8
1
62
256
6
ByLayer
370
-1
48
1
60
0
100
AcDbLine
10
80.015376
20
-2.839087
30
0
11
80.017383
21
-2.839077
31
0
39
0
210
0
220
0
230
1
0
LINE
5
91
100
AcDbEntity
8
1
62
256
6
ByLayer
370
-1
48
1
60
0
100
AcDbLine
10
79.986623
20
-1.104781
30
0
11
80.02058
21
-1.104614
31
0
39
0
210
0
220
0
230
1
0
LINE
5
92
100
AcDbEntity
8
1
62
256
6
ByLayer
370
-1
48
1
60
0
100
AcDbLine
10
79.982055
20
-1.734158
30
0
11
80.045218
21
-1.733848
31
0
39
0
210
0
220
0
230
1
0
LINE
5
93
100
AcDbEntity
8
1
62
256
6
ByLayer
370
-1
48
1
60
0
100
AcDbLine
10
79.982057
20
-1.732875
30
0
11
80.032411
21
-1.732627
31
0
39
0
210
0
220
0
230
1
0
LINE
5
94
100
AcDbEntity
8
SK1
62
256
6
ByLayer
370
-1
48
1
60
0
100
AcDbLine
10
-20.07
20
-0.2
30
0
11
-20.07
21
0.2
31
0
39
0
210
0
220
0
230
1
0
LINE
5
95
100
AcDbEntity
8
1
62
256
6
ByLayer
370
-1
48
1
60
0
100
AcDbLine
10
79.26294
20
-0.568038
30
0
11
79.196014
21
-1.595403
31
0
39
0
210
0
220
0
230
1
0
LINE
5
96
100
AcDbEntity
8
1
62
256
6
ByLayer
370
-1
48
1
60
0
100
AcDbLine
10
79.931206
20
2.619631
30
0
11
75.597349
21
0.412393
31
0
39
0
210
0
220
0
230
1
0
LINE
5
97
100
AcDbEntity
8
1
62
256
6
ByLayer
370
-1
48
1
60
0
100
AcDbLine
10
73.292442
20
1.708029
30
0
11
75.597349
21
0.412393
31
0
39
0
210
0
220
0
230
1
0
LINE
5
98
100
AcDbEntity
8
1
62
256
6
ByLayer
370
-1
48
1
60
0
100
AcDbLine
10
79.420056
20
4.991335
30
0
11
79.93236
21
5.008377
31
0
39
0
210
0
220
0
230
1
0
LINE
5
99
100
AcDbEntity
8
1
62
256
6
ByLayer
370
-1
48
1
60
0
100
AcDbLine
10
68.618152
20
6.03669
30
0
11
68.622739
21
6.36946
31
0
39
0
210
0
220
0
230
1
0
LINE
5
9A
100
AcDbEntity
8
1
62
256
6
ByLayer
370
-1
48
1
60
0
100
AcDbLine
10
68.863134
20
7.591554
30
0
11
69.042693
21
7.429533
31
0
39
0
210
0
220
0
230
1
0
LINE
5
9B
100
AcDbEntity
8
1
62
256
6
ByLayer
370
-1
48
1
60
0
100
AcDbLine
10
79.93236
20
2.642805
30
0
11
79.93236
21
5.008377
31
0
39
0
210
0
220
0
230
1
0
LINE
5
9C
100
AcDbEntity
8
1
62
256
6
ByLayer
370
-1
48
1
60
0
100
AcDbLine
10
69.375139
20
7.490678
30
0
11
69.414606
21
7.929913
31
0
39
0
210
0
220
0
230
1
0
LINE
5
9D
100
AcDbEntity
8
1
62
256
6
ByLayer
370
-1
48
1
60
0
100
AcDbLine
10
68.645416
20
5.723699
30
0
11
68.624848
21
5.939813
31
0
39
0
210
0
220
0
230
1
0
LINE
5
9E
100
AcDbEntity
8
1
62
256
6
ByLayer
370
-1
48
1
60
0
100
AcDbLine
10
78.590158
20
5.706581
30
0
11
78.763292
21
5.122523
31
0
39
0
210
0
220
0
230
1
0
LINE
5
9F
100
AcDbEntity
8
1
62
256
6
ByLayer
370
-1
48
1
60
0
100
AcDbLine
10
69.586088
20
3.938032
30
0
11
69.375139
21
7.490678
31
0
39
0
210
0
220
0
230
1
0
LINE
5
A0
100
AcDbEntity
8
1
62
256
6
ByLayer
370
-1
48
1
60
0
100
AcDbLine
10
73.44663
20
10.289583
30
0
11
73.817714
21
9.942584
31
0
39
0
210
0
220
0
230
1
0
LINE
5
A1
100
AcDbEntity
8
1
62
256
6
ByLayer
370
-1
48
1
60
0
100
AcDbLine
10
69.324563
20
4.323227
30
0
11
69.277628
21
3.602725
31
0
39
0
210
0
220
0
230
1
0
LINE
5
A2
100
AcDbEntity
8
1
62
256
6
ByLayer
370
-1
48
1
60
0
100
AcDbLine
10
67.321429
20
4.705297
30
0
11
68.176566
21
4.689057
31
0
39
0
210
0
220
0
230
1
0
LINE
5
A3
100
AcDbEntity
8
1
62
256
6
ByLayer
370
-1
48
1
60
0
100
AcDbLine
10
69.122019
20
7.731794
30
0
11
69.100302
21
7.490105
31
0
39
0
210
0
220
0
230
1
0
LINE
5
A4
100
AcDbEntity
8
1
62
256
6
ByLayer
370
-1
48
1
60
0
100
AcDbLine
10
73.2733
20
10.173746
30
0
11
74.095844
21
9.404589
31
0
39
0
210
0
220
0
230
1
0
LINE
5
A5
100
AcDbEntity
8
1
62
256
6
ByLayer
370
-1
48
1
60
0
100
AcDbLine
10
69.414606
20
7.929913
30
0
11
69.856952
21
8.320144
31
0
39
0
210
0
220
0
230
1
0
LINE
5
A6
100
AcDbEntity
8
1
62
256
6
ByLayer
370
-1
48
1
60
0
100
AcDbLine
10
79.007512
20
12.531733
30
0
11
79.887697
21
10.991523
31
0
39
0
210
0
220
0
230
1
0
LINE
5
A7
100
AcDbEntity
8
1
62
256
6
ByLayer
370
-1
48
1
60
0
100
AcDbLine
10
73.678284
20
8.953022
30
0
11
74.114616
21
9.38762
31
0
39
0
210
0
220
0
230
1
0
LINE
5
A8
100
AcDbEntity
8
1
62
256
6
ByLayer
370
-1
48
1
60
0
100
AcDbLine
10
79.919042
20
9.815383
30
0
11
79.716807
21
9.948216
31
0
39
0
210
0
220
0
230
1
0
LINE
5
A9
100
AcDbEntity
8
1
62
256
6
ByLayer
370
-1
48
1
60
0
100
AcDbLine
10
78.788289
20
5.128759
30
0
11
78.615154
21
5.712817
31
0
39
0
210
0
220
0
230
1
0
LINE
5
AA
100
AcDbEntity
8
1
62
256
6
ByLayer
370
-1
48
1
60
0
100
AcDbLine
10
79.193975
20
-1.598806
30
0
11
79.196014
21
-1.595403
31
0
39
0
210
0
220
0
230
1
0
LINE
5
AB
100
AcDbEntity
8
1
62
256
6
ByLayer
370
-1
48
1
60
0
100
AcDbLine
10
73.243169
20
3.232971
30
0
11
72.633702
21
3.382431
31
0
39
0
210
0
220
0
230
1
0
LINE
5
AC
100
AcDbEntity
8
1
62
256
6
ByLayer
370
-1
48
1
60
0
100
AcDbLine
10
78.540636
20
-0.257008
30
0
11
77.939942
21
-0.298774
31
0
39
0
210
0
220
0
230
1
0
LINE
5
AD
100
AcDbEntity
8
1
62
256
6
ByLayer
370
-1
48
1
60
0
100
AcDbLine
10
76.430596
20
-0.267917
30
0
11
76.610085
21
-0.368811
31
0
39
0
210
0
220
0
230
1
0
LINE
5
AE
100
AcDbEntity
8
1
62
256
6
ByLayer
370
-1
48
1
60
0
100
AcDbLine
10
79.716807
20
9.948216
30
0
11
79.919042
21
10.015604
31
0
39
0
210
0
220
0
230
1
0
LINE
5
AF
100
AcDbEntity
8
1
62
256
6
ByLayer
370
-1
48
1
60
0
100
AcDbLine
10
77.321343
20
-0.713225
30
0
11
76.68989
21
-0.410418
31
0
39
0
210
0
220
0
230
1
0
LINE
5
B0
100
AcDbEntity
8
1
62
256
6
ByLayer
370
-1
48
1
60
0
100
AcDbLine
10
69.225426
20
4.385487
30
0
11
69.178082
21
3.658722
31
0
39
0
210
0
220
0
230
1
0
LINE
5
B1
100
AcDbEntity
8
1
62
256
6
ByLayer
370
-1
48
1
60
0
100
AcDbLine
10
68.459787
20
5.070784
30
0
11
68.395828
21
4.088963
31
0
39
0
210
0
220
0
230
1
0
LINE
5
B2
100
AcDbEntity
8
1
62
256
6
ByLayer
370
-1
48
1
60
0
100
AcDbLine
10
68.921124
20
4.434752
30
0
11
68.881441
21
3.825588
31
0
39
0
210
0
220
0
230
1
0
LINE
5
B3
100
AcDbEntity
8
1
62
256
6
ByLayer
370
-1
48
1
60
0
100
AcDbLine
10
72.541521
20
9.776041
30
0
11
73.116191
21
9.23867
31
0
39
0
210
0
220
0
230
1
0
LINE
5
B4
100
AcDbEntity
8
1
62
256
6
ByLayer
370
-1
48
1
60
0
100
AcDbLine
10
79.829585
20
1.458615
30
0
11
79.898542
21
2.517158
31
0
39
0
210
0
220
0
230
1
0
LINE
5
B5
100
AcDbEntity
8
1
62
256
6
ByLayer
370
-1
48
1
60
0
100
AcDbLine
10
68.220083
20
6.618861
30
0
11
67.931063
21
6.150758
31
0
39
0
210
0
220
0
230
1
0
LINE
5
B6
100
AcDbEntity
8
1
62
256
6
ByLayer
370
-1
48
1
60
0
100
AcDbLine
10
68.006711
20
6.795213
30
0
11
68.220083
21
6.618861
31
0
39
0
210
0
220
0
230
1
0
LINE
5
B7
100
AcDbEntity
8
1
62
256
6
ByLayer
370
-1
48
1
60
0
100
AcDbLine
10
79.59617
20
1.216396
30
0
11
79.532211
21
0.234576
31
0
39
0
210
0
220
0
230
1
0
LINE
5
B8
100
AcDbEntity
8
1
62
256
6
ByLayer
370
-1
48
1
60
0
100
AcDbLine
10
78.535082
20
-0.353832
30
0
11
78.976728
21
-0.537963
31
0
39
0
210
0
220
0
230
1
0
LINE
5
B9
100
AcDbEntity
8
1
62
256
6
ByLayer
370
-1
48
1
60
0
100
AcDbLine
10
67.311449
20
5.778901
30
0
11
67.244523
21
4.751535
31
0
39
0
210
0
220
0
230
1
0
LINE
5
BA
100
AcDbEntity
8
1
62
256
6
ByLayer
370
-1
48
1
60
0
100
AcDbLine
10
67.497476
20
5.970446
30
0
11
68.006711
21
6.795213
31
0
39
0
210
0
220
0
230
1
0
LINE
5
BB
100
AcDbEntity
8
1
62
256
6
ByLayer
370
-1
48
1
60
0
100
AcDbLine
10
79.134162
20
0.584394
30
0
11
79.065776
21
0.573998
31
0
39
0
210
0
220
0
230
1
0
LINE
5
BC
100
AcDbEntity
8
1
62
256
6
ByLayer
370
-1
48
1
60
0
100
AcDbLine
10
73.198175
20
1.75141
30
0
11
73.031627
21
1.806084
31
0
39
0
210
0
220
0
230
1
0
LINE
5
BD
100
AcDbEntity
8
1
62
256
6
ByLayer
370
-1
48
1
60
0
100
AcDbLine
10
78.844417
20
0.304993
30
0
11
78.83739
21
0.197135
31
0
39
0
210
0
220
0
230
1
0
LINE
5
BE
100
AcDbEntity
8
1
62
256
6
ByLayer
370
-1
48
1
60
0
100
AcDbLine
10
79.59617
20
1.216396
30
0
11
79.271739
21
0.674951
31
0
39
0
210
0
220
0
230
1
0
LINE
5
BF
100
AcDbEntity
8
1
62
256
6
ByLayer
370
-1
48
1
60
0
100
AcDbLine
10
69.042693
20
7.429533
30
0
11
69.223422
21
4.385809
31
0
39
0
210
0
220
0
230
1
0
LINE
5
C0
100
AcDbEntity
8
1
62
256
6
ByLayer
370
-1
48
1
60
0
100
AcDbLine
10
72.286809
20
9.680235
30
0
11
69.981901
21
8.404715
31
0
39
0
210
0
220
0
230
1
0
LINE
5
C1
100
AcDbEntity
8
1
62
256
6
ByLayer
370
-1
48
1
60
0
100
AcDbLine
10
79.553956
20
9.77069
30
0
11
79.921489
21
9.529285
31
0
39
0
210
0
220
0
230
1
0
LINE
5
C2
100
AcDbEntity
8
1
62
256
6
ByLayer
370
-1
48
1
60
0
100
AcDbLine
10
79.363969
20
10.938628
30
0
11
79.056106
21
10.74995
31
0
39
0
210
0
220
0
230
1
0
LINE
5
C3
100
AcDbEntity
8
1
62
256
6
ByLayer
370
-1
48
1
60
0
100
AcDbLine
10
79.271739
20
0.674951
30
0
11
79.20778
21
-0.306869
31
0
39
0
210
0
220
0
230
1
0
LINE
5
C4
100
AcDbEntity
8
1
62
256
6
ByLayer
370
-1
48
1
60
0
100
AcDbLine
10
67.313487
20
5.77548
30
0
11
67.246562
21
4.748115
31
0
39
0
210
0
220
0
230
1
0
LINE
5
C5
100
AcDbEntity
8
1
62
256
6
ByLayer
370
-1
48
1
60
0
100
AcDbLine
10
79.026647
20
12.294923
30
0
11
79.563532
21
11.355444
31
0
39
0
210
0
220
0
230
1
0
LINE
5
C6
100
AcDbEntity
8
1
62
256
6
ByLayer
370
-1
48
1
60
0
100
AcDbLine
10
68.472294
20
5.39023
30
0
11
68.463033
21
5.248076
31
0
39
0
210
0
220
0
230
1
0
LINE
5
C7
100
AcDbEntity
8
1
62
256
6
ByLayer
370
-1
48
1
60
0
100
AcDbLine
10
67.388161
20
5.729691
30
0
11
67.321429
21
4.705297
31
0
39
0
210
0
220
0
230
1
0
LINE
5
C8
100
AcDbEntity
8
1
62
256
6
ByLayer
370
-1
48
1
60
0
100
AcDbLine
10
68.784218
20
4.526507
30
0
11
68.743242
21
3.897498
31
0
39
0
210
0
220
0
230
1
0
LINE
5
C9
100
AcDbEntity
8
1
62
256
6
ByLayer
370
-1
48
1
60
0
100
AcDbLine
10
78.246975
20
0.213637
30
0
11
78.540636
21
-0.257008
31
0
39
0
210
0
220
0
230
1
0
LINE
5
CA
100
AcDbEntity
8
1
62
256
6
ByLayer
370
-1
48
1
60
0
100
AcDbLine
10
68.395828
20
4.088963
30
0
11
68.508401
21
3.900107
31
0
39
0
210
0
220
0
230
1
0
LINE
5
CB
100
AcDbEntity
8
1
62
256
6
ByLayer
370
-1
48
1
60
0
100
AcDbLine
10
68.287166
20
4.625804
30
0
11
68.38948
21
4.454157
31
0
39
0
210
0
220
0
230
1
0
LINE
5
CC
100
AcDbEntity
8
1
62
256
6
ByLayer
370
-1
48
1
60
0
100
AcDbLine
10
69.830803
20
3.653887
30
0
11
71.951415
21
2.461847
31
0
39
0
210
0
220
0
230
1
0
LINE
5
CD
100
AcDbEntity
8
1
62
256
6
ByLayer
370
-1
48
1
60
0
100
AcDbLine
10
76.430596
20
-0.267917
30
0
11
76.653654
21
-0.172779
31
0
39
0
210
0
220
0
230
1
0
LINE
5
CE
100
AcDbEntity
8
1
62
256
6
ByLayer
370
-1
48
1
60
0
100
AcDbLine
10
79.18584
20
-0.616576
30
0
11
79.119108
21
-1.64097
31
0
39
0
210
0
220
0
230
1
0
LINE
5
CF
100
AcDbEntity
8
1
62
256
6
ByLayer
370
-1
48
1
60
0
100
AcDbLine
10
77.918341
20
-0.611551
30
0
11
77.934387
21
-0.395597
31
0
39
0
210
0
220
0
230
1
0
LINE
5
D0
100
AcDbEntity
8
1
62
256
6
ByLayer
370
-1
48
1
60
0
100
AcDbLine
10
72.190287
20
2.899055
30
0
11
71.951415
21
2.461847
31
0
39
0
210
0
220
0
230
1
0
LINE
5
D1
100
AcDbEntity
8
1
62
256
6
ByLayer
370
-1
48
1
60
0
100
AcDbLine
10
72.128229
20
2.327518
30
0
11
72.035776
21
2.404637
31
0
39
0
210
0
220
0
230
1
0
LINE
5
D2
100
AcDbEntity
8
1
62
256
6
ByLayer
370
-1
48
1
60
0
100
AcDbLine
10
78.966415
20
0.508596
30
0
11
78.844417
21
0.304993
31
0
39
0
210
0
220
0
230
1
0
LINE
5
D3
100
AcDbEntity
8
1
62
256
6
ByLayer
370
-1
48
1
60
0
100
AcDbLine
10
75.720214
20
0.326741
30
0
11
79.853154
21
2.431652
31
0
39
0
210
0
220
0
230
1
0
LINE
5
D4
100
AcDbEntity
8
1
62
256
6
ByLayer
370
-1
48
1
60
0
100
AcDbLine
10
77.793727
20
0.27819
30
0
11
78.107005
21
0.457783
31
0
39
0
210
0
220
0
230
1
0
LINE
5
D5
100
AcDbEntity
8
1
62
256
6
ByLayer
370
-1
48
1
60
0
100
AcDbLine
10
78.788245
20
10.751119
30
0
11
78.48204
21
10.942477
31
0
39
0
210
0
220
0
230
1
0
LINE
5
D6
100
AcDbEntity
8
1
62
256
6
ByLayer
370
-1
48
1
60
0
100
AcDbLine
10
79.919247
20
10.107538
30
0
11
79.689085
21
10.030844
31
0
39
0
210
0
220
0
230
1
0
LINE
5
D7
100
AcDbEntity
8
1
62
256
6
ByLayer
370
-1
48
1
60
0
100
AcDbLine
10
68.022099
20
6.083677
30
0
11
68.311119
21
6.55178
31
0
39
0
210
0
220
0
230
1
0
LINE
5
D8
100
AcDbEntity
8
1
62
256
6
ByLayer
370
-1
48
1
60
0
100
AcDbLine
10
67.595208
20
5.806488
30
0
11
68.028794
21
5.986801
31
0
39
0
210
0
220
0
230
1
0
LINE
5
D9
100
AcDbEntity
8
1
62
256
6
ByLayer
370
-1
48
1
60
0
100
AcDbLine
10
68.618152
20
6.03669
30
0
11
68.022099
21
6.083677
31
0
39
0
210
0
220
0
230
1
0
LINE
5
DA
100
AcDbEntity
8
1
62
256
6
ByLayer
370
-1
48
1
60
0
100
AcDbLine
10
69.223422
20
4.385809
30
0
11
68.921124
21
4.434752
31
0
39
0
210
0
220
0
230
1
0
LINE
5
DB
100
AcDbEntity
8
1
62
256
6
ByLayer
370
-1
48
1
60
0
100
AcDbLine
10
78.831184
20
12.295776
30
0
11
78.827154
21
11.745747
31
0
39
0
210
0
220
0
230
1
0
LINE
5
DC
100
AcDbEntity
8
1
62
256
6
ByLayer
370
-1
48
1
60
0
100
AcDbLine
10
78.924316
20
11.688889
30
0
11
79.229028
21
11.155681
31
0
39
0
210
0
220
0
230
1
0
LINE
5
DD
100
AcDbEntity
8
1
62
256
6
ByLayer
370
-1
48
1
60
0
100
AcDbLine
10
78.286122
20
11.361018
30
0
11
78.831184
21
12.295776
31
0
39
0
210
0
220
0
230
1
0
LINE
5
DE
100
AcDbEntity
8
1
62
256
6
ByLayer
370
-1
48
1
60
0
100
AcDbLine
10
76.169005
20
11.570768
30
0
11
79.553956
21
9.77069
31
0
39
0
210
0
220
0
230
1
0
LINE
5
DF
100
AcDbEntity
8
1
62
256
6
ByLayer
370
-1
48
1
60
0
100
AcDbLine
10
68.350296
20
5.594898
30
0
11
68.287166
21
4.625804
31
0
39
0
210
0
220
0
230
1
0
LINE
5
E0
100
AcDbEntity
8
1
62
256
6
ByLayer
370
-1
48
1
60
0
100
AcDbLine
10
79.929309
20
6.169933
30
0
11
79.132479
21
6.018472
31
0
39
0
210
0
220
0
230
1
0
LINE
5
E1
100
AcDbEntity
8
1
62
256
6
ByLayer
370
-1
48
1
60
0
100
AcDbLine
10
78.843731
20
0.18547
30
0
11
79.263403
21
-0.48713
31
0
39
0
210
0
220
0
230
1
0
LINE
5
E2
100
AcDbEntity
8
1
62
256
6
ByLayer
370
-1
48
1
60
0
100
AcDbLine
10
79.26294
20
-0.568038
30
0
11
79.260901
21
-0.57144
31
0
39
0
210
0
220
0
230
1
0
LINE
5
E3
100
AcDbEntity
8
1
62
256
6
ByLayer
370
-1
48
1
60
0
100
AcDbLine
10
79.229028
20
11.155681
30
0
11
78.921166
21
10.967002
31
0
39
0
210
0
220
0
230
1
0
LINE
5
E4
100
AcDbEntity
8
1
62
256
6
ByLayer
370
-1
48
1
60
0
100
AcDbLine
10
79.928819
20
5.34555
30
0
11
78.788289
21
5.128759
31
0
39
0
210
0
220
0
230
1
0
LINE
5
E5
100
AcDbEntity
8
1
62
256
6
ByLayer
370
-1
48
1
60
0
100
AcDbLine
10
69.856952
20
8.320144
30
0
11
69.693593
21
3.801621
31
0
39
0
210
0
220
0
230
1
0
LINE
5
E6
100
AcDbEntity
8
1
62
256
6
ByLayer
370
-1
48
1
60
0
100
AcDbLine
10
79.93236
20
6.50431
30
0
11
79.090542
21
6.112419
31
0
39
0
210
0
220
0
230
1
0
LINE
5
E7
100
AcDbEntity
8
1
62
256
6
ByLayer
370
-1
48
1
60
0
100
AcDbLine
10
78.614961
20
11.158361
30
0
11
78.924316
21
11.688889
31
0
39
0
210
0
220
0
230
1
0
LINE
5
E8
100
AcDbEntity
8
1
62
256
6
ByLayer
370
-1
48
1
60
0
100
AcDbLine
10
79.022617
20
11.744895
30
0
11
79.026647
21
12.294923
31
0
39
0
210
0
220
0
230
1
0
LINE
5
E9
100
AcDbEntity
8
1
62
256
6
ByLayer
370
-1
48
1
60
0
100
AcDbLine
10
74.095844
20
9.404589
30
0
11
73.659511
21
8.969991
31
0
39
0
210
0
220
0
230
1
0
LINE
5
EA
100
AcDbEntity
8
1
62
256
6
ByLayer
370
-1
48
1
60
0
100
AcDbLine
10
78.827154
20
11.745747
30
0
11
78.5178
21
11.215219
31
0
39
0
210
0
220
0
230
1
0
LINE
5
EB
100
AcDbEntity
8
1
62
256
6
ByLayer
370
-1
48
1
60
0
100
AcDbLine
10
73.292442
20
1.708029
30
0
11
73.358747
21
2.609816
31
0
39
0
210
0
220
0
230
1
0
LINE
5
EC
100
AcDbEntity
8
1
62
256
6
ByLayer
370
-1
48
1
60
0
100
AcDbLine
10
78.608973
20
-1.646206
30
0
11
79.119108
21
-1.64097
31
0
39
0
210
0
220
0
230
1
0
LINE
5
ED
100
AcDbEntity
8
1
62
256
6
ByLayer
370
-1
48
1
60
0
100
AcDbLine
10
79.60651
20
1.086324
30
0
11
79.829585
21
1.458615
31
0
39
0
210
0
220
0
230
1
0
LINE
5
EE
100
AcDbEntity
8
1
62
256
6
ByLayer
370
-1
48
1
60
0
100
AcDbLine
10
72.128229
20
2.327518
30
0
11
72.276427
21
2.845101
31
0
39
0
210
0
220
0
230
1
0
LINE
5
EF
100
AcDbEntity
8
1
62
256
6
ByLayer
370
-1
48
1
60
0
100
AcDbLine
10
79.563532
20
11.355444
30
0
11
79.32733
21
11.211686
31
0
39
0
210
0
220
0
230
1
0
LINE
5
F0
100
AcDbEntity
8
1
62
256
6
ByLayer
370
-1
48
1
60
0
100
AcDbLine
10
79.931756
20
6.390559
30
0
11
79.929309
21
6.169933
31
0
39
0
210
0
220
0
230
1
0
LINE
5
F1
100
AcDbEntity
8
1
62
256
6
ByLayer
370
-1
48
1
60
0
100
AcDbLine
10
79.260901
20
-0.57144
30
0
11
79.193975
21
-1.598806
31
0
39
0
210
0
220
0
230
1
0
LINE
5
F2
100
AcDbEntity
8
1
62
256
6
ByLayer
370
-1
48
1
60
0
100
AcDbLine
10
79.930165
20
5.174361
30
0
11
79.415624
21
5.076557
31
0
39
0
210
0
220
0
230
1
0
LINE
5
F3
100
AcDbEntity
8
1
62
256
6
ByLayer
370
-1
48
1
60
0
100
AcDbLine
10
77.450689
20
-0.737218
30
0
11
77.434512
21
-0.98556
31
0
39
0
210
0
220
0
230
1
0
LINE
5
F4
100
AcDbEntity
8
1
62
256
6
ByLayer
370
-1
48
1
60
0
100
AcDbLine
10
78.286122
20
11.361018
30
0
11
78.5178
21
11.215219
31
0
39
0
210
0
220
0
230
1
0
LINE
5
F5
100
AcDbEntity
8
1
62
256
6
ByLayer
370
-1
48
1
60
0
100
AcDbLine
10
79.478818
20
1.621531
30
0
11
79.604308
21
1.369025
31
0
39
0
210
0
220
0
230
1
0
LINE
5
F6
100
AcDbEntity
8
1
62
256
6
ByLayer
370
-1
48
1
60
0
100
AcDbLine
10
72.379868
20
9.722799
30
0
11
72.541521
21
9.776041
31
0
39
0
210
0
220
0
230
1
0
LINE
5
F7
100
AcDbEntity
8
1
62
256
6
ByLayer
370
-1
48
1
60
0
100
AcDbLine
10
72.627363
20
3.357456
30
0
11
73.23683
21
3.207996
31
0
39
0
210
0
220
0
230
1
0
LINE
5
F8
100
AcDbEntity
8
1
62
256
6
ByLayer
370
-1
48
1
60
0
100
AcDbLine
10
78.614961
20
11.158361
30
0
11
78.921166
21
10.967002
31
0
39
0
210
0
220
0
230
1
0
LINE
5
F9
100
AcDbEntity
8
1
62
256
6
ByLayer
370
-1
48
1
60
0
100
AcDbLine
10
73.116191
20
9.23867
30
0
11
72.379868
21
9.722799
31
0
39
0
210
0
220
0
230
1
0
LINE
5
FA
100
AcDbEntity
8
1
62
256
6
ByLayer
370
-1
48
1
60
0
100
AcDbLine
10
79.32733
20
11.211686
30
0
11
79.022617
21
11.744895
31
0
39
0
210
0
220
0
230
1
0
LINE
5
FB
100
AcDbEntity
8
1
62
256
6
ByLayer
370
-1
48
1
60
0
100
AcDbLine
10
73.901269
20
10.002183
30
0
11
73.627836
21
10.42235
31
0
39
0
210
0
220
0
230
1
0
LINE
5
FC
100
AcDbEntity
8
1
62
256
6
ByLayer
370
-1
48
1
60
0
100
AcDbLine
10
79.921489
20
9.529285
30
0
11
79.931318
21
9.197685
31
0
39
0
210
0
220
0
230
1
0
LINE
5
FD
100
AcDbEntity
8
1
62
256
6
ByLayer
370
-1
48
1
60
0
100
AcDbLine
10
78.054434
20
11.710247
30
0
11
78.29843
21
11.709182
31
0
39
0
210
0
220
0
230
1
0
LINE
5
FE
100
AcDbEntity
8
1
62
256
6
ByLayer
370
-1
48
1
60
0
100
AcDbLine
10
72.858622
20
1.887095
30
0
11
73.23683
21
3.207996
31
0
39
0
210
0
220
0
230
1
0
LINE
5
FF
100
AcDbEntity
8
1
62
256
6
ByLayer
370
-1
48
1
60
0
100
AcDbLine
10
78.632813
20
-0.190727
30
0
11
78.339152
21
0.279918
31
0
39
0
210
0
220
0
230
1
0
LINE
5
100
100
AcDbEntity
8
1
62
256
6
ByLayer
370
-1
48
1
60
0
100
AcDbLine
10
69.100302
20
7.490105
30
0
11
68.94253
21
7.632466
31
0
39
0
210
0
220
0
230
1
0
LINE
5
101
100
AcDbEntity
8
1
62
256
6
ByLayer
370
-1
48
1
60
0
100
AcDbLine
10
79.18584
20
-0.616576
30
0
11
77.450689
21
-0.737218
31
0
39
0
210
0
220
0
230
1
0
LINE
5
102
100
AcDbEntity
8
1
62
256
6
ByLayer
370
-1
48
1
60
0
100
AcDbLine
10
79.853154
20
2.431652
30
0
11
79.745649
21
2.216928
31
0
39
0
210
0
220
0
230
1
0
LINE
5
103
100
AcDbEntity
8
1
62
256
6
ByLayer
370
-1
48
1
60
0
100
AcDbLine
10
79.065776
20
0.573998
30
0
11
79.021869
21
-0.100013
31
0
39
0
210
0
220
0
230
1
0
LINE
5
104
100
AcDbEntity
8
1
62
256
6
ByLayer
370
-1
48
1
60
0
100
AcDbLine
10
72.858622
20
1.887095
30
0
11
72.298868
21
2.210181
31
0
39
0
210
0
220
0
230
1
0
LINE
5
105
100
AcDbEntity
8
1
62
256
6
ByLayer
370
-1
48
1
60
0
100
AcDbLine
10
77.934387
20
-0.395597
30
0
11
78.535082
21
-0.353832
31
0
39
0
210
0
220
0
230
1
0
LINE
5
106
100
AcDbEntity
8
1
62
256
6
ByLayer
370
-1
48
1
60
0
100
AcDbLine
10
77.939942
20
-0.298774
30
0
11
77.933697
21
0.034044
31
0
39
0
210
0
220
0
230
1
0
LINE
5
107
100
AcDbEntity
8
1
62
256
6
ByLayer
370
-1
48
1
60
0
100
AcDbLine
10
79.20778
20
-0.306869
30
0
11
79.532211
21
0.234576
31
0
39
0
210
0
220
0
230
1
0
LINE
5
108
100
AcDbEntity
8
1
62
256
6
ByLayer
370
-1
48
1
60
0
100
AcDbLine
10
79.132479
20
6.018472
30
0
11
79.931756
21
6.390559
31
0
39
0
210
0
220
0
230
1
0
LINE
5
109
100
AcDbEntity
8
1
62
256
6
ByLayer
370
-1
48
1
60
0
100
AcDbLine
10
68.472294
20
5.39023
30
0
11
68.350296
21
5.594898
31
0
39
0
210
0
220
0
230
1
0
LINE
5
10A
100
AcDbEntity
8
1
62
256
6
ByLayer
370
-1
48
1
60
0
100
AcDbLine
10
78.246975
20
0.213637
30
0
11
77.933697
21
0.034044
31
0
39
0
210
0
220
0
230
1
0
LINE
5
10B
100
AcDbEntity
8
1
62
256
6
ByLayer
370
-1
48
1
60
0
100
AcDbLine
10
68.238234
20
7.294229
30
0
11
68.863134
21
7.591554
31
0
39
0
210
0
220
0
230
1
0
LINE
5
10C
100
AcDbEntity
8
1
62
256
6
ByLayer
370
-1
48
1
60
0
100
AcDbLine
10
67.244523
20
4.751535
30
0
11
67.246562
21
4.748115
31
0
39
0
210
0
220
0
230
1
0
LINE
5
10D
100
AcDbEntity
8
1
62
256
6
ByLayer
370
-1
48
1
60
0
100
AcDbLine
10
68.311119
20
6.55178
30
0
11
68.622739
21
6.36946
31
0
39
0
210
0
220
0
230
1
0
LINE
5
10E
100
AcDbEntity
8
1
62
256
6
ByLayer
370
-1
48
1
60
0
100
AcDbLine
10
68.028794
20
5.986801
30
0
11
68.624848
21
5.939813
31
0
39
0
210
0
220
0
230
1
0
LINE
5
10F
100
AcDbEntity
8
1
62
256
6
ByLayer
370
-1
48
1
60
0
100
AcDbLine
10
78.557047
20
0.454388
30
0
11
79.074459
21
-0.374859
31
0
39
0
210
0
220
0
230
1
0
LINE
5
110
100
AcDbEntity
8
1
62
256
6
ByLayer
370
-1
48
1
60
0
100
AcDbLine
10
77.666041
20
-0.278145
30
0
11
77.659796
21
0.054672
31
0
39
0
210
0
220
0
230
1
0
LINE
5
111
100
AcDbEntity
8
1
62
256
6
ByLayer
370
-1
48
1
60
0
100
AcDbLine
10
68.784218
20
4.526507
30
0
11
68.459787
21
5.070784
31
0
39
0
210
0
220
0
230
1
0
LINE
5
112
100
AcDbEntity
8
1
62
256
6
ByLayer
370
-1
48
1
60
0
100
AcDbLine
10
69.714195
20
3.357142
30
0
11
69.73898
21
3.737622
31
0
39
0
210
0
220
0
230
1
0
LINE
5
113
100
AcDbEntity
8
1
62
256
6
ByLayer
370
-1
48
1
60
0
100
AcDbLine
10
76.739476
20
-0.187316
30
0
11
79.478818
21
1.621531
31
0
39
0
210
0
220
0
230
1
0
LINE
5
114
100
AcDbEntity
8
1
62
256
6
ByLayer
370
-1
48
1
60
0
100
AcDbLine
10
73.261129
20
2.607626
30
0
11
73.198175
21
1.75141
31
0
39
0
210
0
220
0
230
1
0
LINE
5
115
100
AcDbEntity
8
1
62
256
6
ByLayer
370
-1
48
1
60
0
100
AcDbLine
10
67.313487
20
5.77548
30
0
11
67.311449
21
5.778901
31
0
39
0
210
0
220
0
230
1
0
LINE
5
116
100
AcDbEntity
8
1
62
256
6
ByLayer
370
-1
48
1
60
0
100
AcDbLine
10
73.542244
20
10.365881
30
0
11
73.817714
21
9.942584
31
0
39
0
210
0
220
0
230
1
0
LINE
5
117
100
AcDbEntity
8
1
62
256
6
ByLayer
370
-1
48
1
60
0
100
AcDbLine
10
69.122019
20
7.731794
30
0
11
68.94253
21
7.632466
31
0
39
0
210
0
220
0
230
1
0
LINE
5
118
100
AcDbEntity
8
1
62
256
6
ByLayer
370
-1
48
1
60
0
100
AcDbLine
10
79.134162
20
0.584394
30
0
11
79.083176
21
-0.19828
31
0
39
0
210
0
220
0
230
1
0
LINE
5
119
100
AcDbEntity
8
1
62
256
6
ByLayer
370
-1
48
1
60
0
100
AcDbLine
10
76.142903
20
-0.067265
30
0
11
75.720214
21
0.326741
31
0
39
0
210
0
220
0
230
1
0
LINE
5
11A
100
AcDbEntity
8
1
62
256
6
ByLayer
370
-1
48
1
60
0
100
AcDbLine
10
69.810601
20
3.66653
30
0
11
69.981901
21
8.404715
31
0
39
0
210
0
220
0
230
1
0
LINE
5
11B
100
AcDbEntity
8
1
62
256
6
ByLayer
370
-1
48
1
60
0
100
AcDbLine
10
67.931063
20
6.150758
30
0
11
67.497476
21
5.970446
31
0
39
0
210
0
220
0
230
1
0
LINE
5
11C
100
AcDbEntity
8
1
62
256
6
ByLayer
370
-1
48
1
60
0
100
AcDbLine
10
79.931318
20
9.197685
30
0
11
75.961737
21
11.611298
31
0
39
0
210
0
220
0
230
1
0
LINE
5
11D
100
AcDbEntity
8
1
62
256
6
ByLayer
370
-1
48
1
60
0
100
AcDbLine
10
78.966415
20
0.508596
30
0
11
78.935757
21
0.037979
31
0
39
0
210
0
220
0
230
1
0
LINE
5
11E
100
AcDbEntity
8
1
62
256
6
ByLayer
370
-1
48
1
60
0
100
AcDbLine
10
68.239982
20
5.662541
30
0
11
67.388161
21
5.729691
31
0
39
0
210
0
220
0
230
1
0
LINE
5
11F
100
AcDbEntity
8
1
62
256
6
ByLayer
370
-1
48
1
60
0
100
AcDbLine
10
68.239982
20
5.662541
30
0
11
68.176566
21
4.689057
31
0
39
0
210
0
220
0
230
1
0
LINE
5
120
100
AcDbEntity
8
1
62
256
6
ByLayer
370
-1
48
1
60
0
100
AcDbLine
10
72.712485
20
9.855551
30
0
11
73.2733
21
10.173746
31
0
39
0
210
0
220
0
230
1
0
LINE
5
121
100
AcDbEntity
8
1
62
256
6
ByLayer
370
-1
48
1
60
0
100
AcDbLine
10
76.789034
20
11.573057
30
0
11
76.96919
21
11.828006
31
0
39
0
210
0
220
0
230
1
0
LINE
5
122
100
AcDbEntity
8
1
62
256
6
ByLayer
370
-1
48
1
60
0
100
AcDbLine
10
75.769804
20
11.606412
30
0
11
79.93236
21
9.075466
31
0
39
0
210
0
220
0
230
1
0
LINE
5
123
100
AcDbEntity
8
1
62
256
6
ByLayer
370
-1
48
1
60
0
100
AcDbLine
10
73.031627
20
1.806084
30
0
11
73.261129
21
2.607626
31
0
39
0
210
0
220
0
230
1
0
LINE
5
124
100
AcDbEntity
8
1
62
256
6
ByLayer
370
-1
48
1
60
0
100
AcDbLine
10
79.074459
20
-0.374859
30
0
11
78.632813
21
-0.190727
31
0
39
0
210
0
220
0
230
1
0
LINE
5
125
100
AcDbEntity
8
1
62
256
6
ByLayer
370
-1
48
1
60
0
100
AcDbLine
10
77.308229
20
-0.914539
30
0
11
77.321343
21
-0.713225
31
0
39
0
210
0
220
0
230
1
0
LINE
5
126
100
AcDbEntity
8
1
62
256
6
ByLayer
370
-1
48
1
60
0
100
AcDbLine
10
72.712485
20
9.855551
30
0
11
73.659511
21
8.969991
31
0
39
0
210
0
220
0
230
1
0
LINE
5
127
100
AcDbEntity
8
1
62
256
6
ByLayer
370
-1
48
1
60
0
100
AcDbLine
10
79.484125
20
1.737446
30
0
11
79.476911
21
1.626705
31
0
39
0
210
0
220
0
230
1
0
LINE
5
128
100
AcDbEntity
8
1
62
256
6
ByLayer
370
-1
48
1
60
0
100
AcDbLine
10
79.919042
20
9.815383
30
0
11
79.919042
21
10.015604
31
0
39
0
210
0
220
0
230
1
0
LINE
5
129
100
AcDbEntity
8
1
62
256
6
ByLayer
370
-1
48
1
60
0
100
AcDbLine
10
75.961737
20
11.611298
30
0
11
76.169005
21
11.570768
31
0
39
0
210
0
220
0
230
1
0
LINE
5
12A
100
AcDbEntity
8
1
62
256
6
ByLayer
370
-1
48
1
60
0
100
AcDbLine
10
68.453108
20
6.794696
30
0
11
68.764728
21
6.612375
31
0
39
0
210
0
220
0
230
1
0
LINE
5
12B
100
AcDbEntity
8
1
62
256
6
ByLayer
370
-1
48
1
60
0
100
AcDbLine
10
68.645416
20
5.723699
30
0
11
67.595208
21
5.806488
31
0
39
0
210
0
220
0
230
1
0
LINE
5
12C
100
AcDbEntity
8
1
62
256
6
ByLayer
370
-1
48
1
60
0
100
AcDbLine
10
72.286809
20
9.680235
30
0
11
73.062322
21
9.170339
31
0
39
0
210
0
220
0
230
1
0
LINE
5
12D
100
AcDbEntity
8
1
62
256
6
ByLayer
370
-1
48
1
60
0
100
AcDbLine
10
79.928288
20
5.962417
30
0
11
79.928819
21
5.34555
31
0
39
0
210
0
220
0
230
1
0
LINE
5
12E
100
AcDbEntity
8
1
62
256
6
ByLayer
370
-1
48
1
60
0
100
AcDbLine
10
78.976728
20
-0.537963
30
0
11
77.918341
21
-0.611551
31
0
39
0
210
0
220
0
230
1
0
LINE
5
12F
100
AcDbEntity
8
1
62
256
6
ByLayer
370
-1
48
1
60
0
100
AcDbLine
10
72.035776
20
2.404637
30
0
11
72.276427
21
2.845101
31
0
39
0
210
0
220
0
230
1
0
LINE
5
130
100
AcDbEntity
8
1
62
256
6
ByLayer
370
-1
48
1
60
0
100
AcDbLine
10
79.931745
20
5.093725
30
0
11
79.415624
21
5.076557
31
0
39
0
210
0
220
0
230
1
0
LINE
5
131
100
AcDbEntity
8
1
62
256
6
ByLayer
370
-1
48
1
60
0
100
AcDbLine
10
68.450978
20
5.223486
30
0
11
68.478656
21
5.279945
31
0
39
0
210
0
220
0
230
1
0
LINE
5
132
100
AcDbEntity
8
1
62
256
6
ByLayer
370
-1
48
1
60
0
100
AcDbLine
10
79.928288
20
5.962417
30
0
11
78.615154
21
5.712817
31
0
39
0
210
0
220
0
230
1
0
LINE
5
133
100
AcDbEntity
8
1
62
256
6
ByLayer
370
-1
48
1
60
0
100
AcDbLine
10
78.410286
20
11.77423
30
0
11
78.852385
21
12.53241
31
0
39
0
210
0
220
0
230
1
0
LINE
5
134
100
AcDbEntity
8
1
62
256
6
ByLayer
370
-1
48
1
60
0
100
AcDbLine
10
77.115241
20
11.904347
30
0
11
77.764103
21
11.901515
31
0
39
0
210
0
220
0
230
1
0
LINE
5
135
100
AcDbEntity
8
1
62
256
6
ByLayer
370
-1
48
1
60
0
100
AcDbLine
10
77.909483
20
11.823903
30
0
11
77.949438
21
11.7663
31
0
39
0
210
0
220
0
230
1
0
LINE
5
136
100
AcDbEntity
8
1
62
256
6
ByLayer
370
-1
48
1
60
0
100
AcDbLine
10
79.745649
20
2.216928
30
0
11
76.548278
21
0.105635
31
0
39
0
210
0
220
0
230
1
0
LINE
5
137
100
AcDbEntity
8
1
62
256
6
ByLayer
370
-1
48
1
60
0
100
AcDbLine
10
76.68989
20
-0.410418
30
0
11
76.739476
21
-0.187316
31
0
39
0
210
0
220
0
230
1
0
LINE
5
138
100
AcDbEntity
8
1
62
256
6
ByLayer
370
-1
48
1
60
0
100
AcDbLine
10
67.310598
20
5.859814
30
0
11
68.145453
21
7.211962
31
0
39
0
210
0
220
0
230
1
0
LINE
5
139
100
AcDbEntity
8
1
62
256
6
ByLayer
370
-1
48
1
60
0
100
AcDbLine
10
78.557047
20
0.454388
30
0
11
78.339152
21
0.279918
31
0
39
0
210
0
220
0
230
1
0
LINE
5
13A
100
AcDbEntity
8
1
62
256
6
ByLayer
370
-1
48
1
60
0
100
AcDbLine
10
76.548278
20
0.105635
30
0
11
76.142903
21
-0.067265
31
0
39
0
210
0
220
0
230
1
0
LINE
5
13B
100
AcDbEntity
8
1
62
256
6
ByLayer
370
-1
48
1
60
0
100
AcDbLine
10
69.693593
20
3.801621
30
0
11
69.586088
21
3.938032
31
0
39
0
210
0
220
0
230
1
0
LINE
5
13C
100
AcDbEntity
8
1
62
256
6
ByLayer
370
-1
48
1
60
0
100
AcDbLine
10
69.830803
20
3.653887
30
0
11
69.808034
21
3.304363
31
0
39
0
210
0
220
0
230
1
0
LINE
5
13D
100
AcDbEntity
8
1
62
256
6
ByLayer
370
-1
48
1
60
0
100
AcDbLine
10
76.653654
20
-0.172779
30
0
11
76.610085
21
-0.368811
31
0
39
0
210
0
220
0
230
1
0
LINE
5
13E
100
AcDbEntity
8
1
62
256
6
ByLayer
370
-1
48
1
60
0
100
AcDbLine
10
79.93236
20
6.50431
30
0
11
79.93236
21
9.075466
31
0
39
0
210
0
220
0
230
1
0
LINE
5
13F
100
AcDbEntity
8
1
62
256
6
ByLayer
370
-1
48
1
60
0
100
AcDbLine
10
79.930165
20
5.174361
30
0
11
79.931745
21
5.093725
31
0
39
0
210
0
220
0
230
1
0
LINE
5
140
100
AcDbEntity
8
1
62
256
6
ByLayer
370
-1
48
1
60
0
100
AcDbLine
10
68.898658
20
6.387689
30
0
11
68.894072
21
6.054919
31
0
39
0
210
0
220
0
230
1
0
LINE
5
141
100
AcDbEntity
8
1
62
256
6
ByLayer
370
-1
48
1
60
0
100
AcDbLine
10
72.298868
20
2.210181
30
0
11
72.627363
21
3.357456
31
0
39
0
210
0
220
0
230
1
0
LINE
5
142
100
AcDbEntity
8
1
62
256
6
ByLayer
370
-1
48
1
60
0
100
AcDbLine
10
78.928103
20
12.576442
30
0
11
78.932181
21
12.576425
31
0
39
0
210
0
220
0
230
1
0
LINE
5
143
100
AcDbEntity
8
1
62
256
6
ByLayer
370
-1
48
1
60
0
100
AcDbLine
10
79.689085
20
10.030844
30
0
11
76.789034
21
11.573057
31
0
39
0
210
0
220
0
230
1
0
LINE
5
144
100
AcDbEntity
8
1
62
256
6
ByLayer
370
-1
48
1
60
0
100
AcDbLine
10
73.44663
20
10.289583
30
0
11
73.542244
21
10.365881
31
0
39
0
210
0
220
0
230
1
0
LINE
5
145
100
AcDbEntity
8
1
62
256
6
ByLayer
370
-1
48
1
60
0
100
AcDbLine
10
71.955223
20
9.648729
30
0
11
71.955223
21
9.496736
31
0
39
0
210
0
220
0
230
1
0
LINE
5
146
100
AcDbEntity
8
1
62
256
6
ByLayer
370
-1
48
1
60
0
100
AcDbLine
10
70.628874
20
8.76273
30
0
11
70.628874
21
9.064112
31
0
39
0
210
0
220
0
230
1
0
LINE
5
147
100
AcDbEntity
8
1
62
256
6
ByLayer
370
-1
48
1
60
0
100
AcDbLine
10
67.361842
20
4.704519
30
0
11
67.361842
21
3.71643
31
0
39
0
210
0
220
0
230
1
0
LINE
5
148
100
AcDbEntity
8
1
62
256
6
ByLayer
370
-1
48
1
60
0
100
AcDbLine
10
70.896633
20
9.467845
30
0
11
70.896633
21
8.910817
31
0
39
0
210
0
220
0
230
1
0
LINE
5
149
100
AcDbEntity
8
1
62
256
6
ByLayer
370
-1
48
1
60
0
100
AcDbLine
10
67.528561
20
3.877234
30
0
11
67.528561
21
4.701386
31
0
39
0
210
0
220
0
230
1
0
LINE
5
14A
100
AcDbEntity
8
1
62
256
6
ByLayer
370
-1
48
1
60
0
100
AcDbLine
10
70.552353
20
8.720391
30
0
11
70.628874
21
9.064112
31
0
39
0
210
0
220
0
230
1
0
LINE
5
14B
100
AcDbEntity
8
1
62
256
6
ByLayer
370
-1
48
1
60
0
100
AcDbLine
10
72.13842
20
9.62709
30
0
11
72.13842
21
9.598079
31
0
39
0
210
0
220
0
230
1
0
LINE
5
14C
100
AcDbEntity
8
1
62
256
6
ByLayer
370
-1
48
1
60
0
100
AcDbLine
10
71.228354
20
9.54496
30
0
11
71.228354
21
9.094386
31
0
39
0
210
0
220
0
230
1
0
LINE
5
14D
100
AcDbEntity
8
1
62
256
6
ByLayer
370
-1
48
1
60
0
100
AcDbLine
10
71.122212
20
9.51945
30
0
11
71.122212
21
9.035719
31
0
39
0
210
0
220
0
230
1
0
LINE
5
14E
100
AcDbEntity
8
1
62
256
6
ByLayer
370
-1
48
1
60
0
100
AcDbLine
10
71.955223
20
9.648729
30
0
11
71.657775
21
9.649778
31
0
39
0
210
0
220
0
230
1
0
LINE
5
14F
100
AcDbEntity
8
1
62
256
6
ByLayer
370
-1
48
1
60
0
100
AcDbLine
10
70.793217
20
9.421477
30
0
11
70.793217
21
8.853651
31
0
39
0
210
0
220
0
230
1
0
LINE
5
150
100
AcDbEntity
8
1
62
256
6
ByLayer
370
-1
48
1
60
0
100
AcDbLine
10
71.657775
20
9.649778
30
0
11
71.657775
21
9.332096
31
0
39
0
210
0
220
0
230
1
0
LINE
5
151
100
AcDbEntity
8
1
62
256
6
ByLayer
370
-1
48
1
60
0
100
AcDbLine
10
71.472367
20
9.62944
30
0
11
71.472367
21
9.229475
31
0
39
0
210
0
220
0
230
1
0
LINE
5
152
100
AcDbEntity
8
1
62
256
6
ByLayer
370
-1
48
1
60
0
100
AcDbLine
10
67.853701
20
3.694815
30
0
11
67.528561
21
3.877234
31
0
39
0
210
0
220
0
230
1
0
LINE
5
153
100
AcDbEntity
8
1
62
256
6
ByLayer
370
-1
48
1
60
0
100
AcDbLine
10
73.700269
20
6.011034
30
0
11
73.727244
21
6.392796
31
0
39
0
210
0
220
0
230
1
0
LINE
5
154
100
AcDbEntity
8
1
62
256
6
ByLayer
370
-1
48
1
60
0
100
AcDbLine
10
73.680273
20
6.01513
30
0
11
73.707463
21
6.399939
31
0
39
0
210
0
220
0
230
1
0
LINE
5
155
100
AcDbEntity
8
1
62
256
6
ByLayer
370
-1
48
1
60
0
100
AcDbLine
10
74.09592
20
4.878418
30
0
11
74.102841
21
4.976376
31
0
39
0
210
0
220
0
230
1
0
LINE
5
156
100
AcDbEntity
8
1
62
256
6
ByLayer
370
-1
48
1
60
0
100
AcDbLine
10
76.230266
20
4.804168
30
0
11
76.242544
21
4.977929
31
0
39
0
210
0
220
0
230
1
0
LINE
5
157
100
AcDbEntity
8
1
62
256
6
ByLayer
370
-1
48
1
60
0
100
AcDbLine
10
75.541372
20
7.029232
30
0
11
75.568347
21
7.410995
31
0
39
0
210
0
220
0
230
1
0
LINE
5
158
100
AcDbEntity
8
1
62
256
6
ByLayer
370
-1
48
1
60
0
100
AcDbLine
10
74.757025
20
7.051676
30
0
11
74.784215
21
7.436485
31
0
39
0
210
0
220
0
230
1
0
LINE
5
159
100
AcDbEntity
8
1
62
256
6
ByLayer
370
-1
48
1
60
0
100
AcDbLine
10
76.604538
20
5.997287
30
0
11
76.624534
21
6.001195
31
0
39
0
210
0
220
0
230
1
0
LINE
5
15A
100
AcDbEntity
8
1
62
256
6
ByLayer
370
-1
48
1
60
0
100
AcDbLine
10
76.624534
20
6.001195
30
0
11
76.651724
21
6.386004
31
0
39
0
210
0
220
0
230
1
0
LINE
5
15B
100
AcDbEntity
8
1
62
256
6
ByLayer
370
-1
48
1
60
0
100
AcDbLine
10
75.547782
20
7.047934
30
0
11
75.574972
21
7.432742
31
0
39
0
210
0
220
0
230
1
0
LINE
5
15C
100
AcDbEntity
8
1
62
256
6
ByLayer
370
-1
48
1
60
0
100
AcDbLine
10
76.246621
20
4.828553
30
0
11
76.256345
21
4.966183
31
0
39
0
210
0
220
0
230
1
0
LINE
5
15D
100
AcDbEntity
8
1
62
256
6
ByLayer
370
-1
48
1
60
0
100
AcDbLine
10
76.604538
20
5.997287
30
0
11
76.631512
21
6.379049
31
0
39
0
210
0
220
0
230
1
0
LINE
5
15E
100
AcDbEntity
8
1
62
256
6
ByLayer
370
-1
48
1
60
0
100
AcDbLine
10
74.106645
20
4.852588
30
0
11
74.116212
21
4.987994
31
0
39
0
210
0
220
0
230
1
0
LINE
5
15F
100
AcDbEntity
8
1
62
256
6
ByLayer
370
-1
48
1
60
0
100
AcDbLine
10
73.680273
20
6.01513
30
0
11
73.700269
21
6.011034
31
0
39
0
210
0
220
0
230
1
0
LINE
5
160
100
AcDbEntity
8
1
62
256
6
ByLayer
370
-1
48
1
60
0
100
AcDbLine
10
75.541372
20
7.029232
30
0
11
75.547782
21
7.047934
31
0
39
0
210
0
220
0
230
1
0
LINE
5
161
100
AcDbEntity
8
1
62
256
6
ByLayer
370
-1
48
1
60
0
100
AcDbLine
10
74.757025
20
7.051676
30
0
11
74.763435
21
7.032915
31
0
39
0
210
0
220
0
230
1
0
LINE
5
162
100
AcDbEntity
8
1
62
256
6
ByLayer
370
-1
48
1
60
0
100
AcDbLine
10
74.763435
20
7.032915
30
0
11
74.79041
21
7.414677
31
0
39
0
210
0
220
0
230
1
0
LINE
5
163
100
AcDbEntity
8
SK1
62
256
6
ByLayer
370
-1
48
1
60
0
100
AcDbLine
10
-60.82
20
-9.99125
30
0
11
-60.82
21
9.99125
31
0
39
0
210
0
220
0
230
1
0
LINE
5
164
100
AcDbEntity
8
SK1
62
256
6
ByLayer
370
-1
48
1
60
0
100
AcDbLine
10
-61.32
20
-9.49125
30
0
11
-61.32
21
9.49125
31
0
39
0
210
0
220
0
230
1
0
LINE
5
165
100
AcDbEntity
8
SK1
62
256
6
ByLayer
370
-1
48
1
60
0
100
AcDbLine
10
0
20
-9.99125
30
0
11
0
21
-0.2
31
0
39
0
210
0
220
0
230
1
0
LINE
5
166
100
AcDbEntity
8
SK1
62
256
6
ByLayer
370
-1
48
1
60
0
100
AcDbLine
10
0
20
0.2
30
0
11
0
21
9.99125
31
0
39
0
210
0
220
0
230
1
0
LINE
5
167
100
AcDbEntity
8
SK1
62
256
6
ByLayer
370
-1
48
1
60
0
100
AcDbLine
10
-22.749217
20
-0.2
30
0
11
0
21
-0.2
31
0
39
0
210
0
220
0
230
1
0
LINE
5
168
100
AcDbEntity
8
SK1
62
256
6
ByLayer
370
-1
48
1
60
0
100
AcDbLine
10
0
20
-0.2
30
0
11
0
21
0.2
31
0
39
0
210
0
220
0
230
1
0
MTEXT
5
283
100
AcDbEntity
8
SK6
62
256
6
ByLayer
370
-1
48
1
60
0
100
AcDbMText
10
38.34
20
-22.790014
30
0
210
0
220
0
230
1
1
\W00.712;\fsimplex.shx,bigfont.shx;266RKF-20-16-R 
40
3.5
41
0
44
1.084337
50
0
71
7
72
5
7
DEFAULT
0
DIMENSION
5
2B6
100
AcDbEntity
8
2
62
256
6
ByLayer
370
-3
48
1
60
0
100
AcDbDimension
2
DimnDraft3D1
10
94.18
20
13.875
30
0
11
94.18
21
4.634211
31
0
70
32
71
5
72
1
41
1
210
0
220
0
230
1
3
Standard
100
AcDbAlignedDimension
13
86.43
23
0
33
0
14
81.43
24
13.875
34
0
50
90
100
AcDbRotatedDimension
1001
ACAD
1000
DSTYLE
1002
{
1070
    74
1070
     0
1070
   279
1070
     0
1070
   172
1070
     1
1070
   173
1070
     1
1070
   340
1005
284
1070
   271
1070
     3
1070
   272
1070
     3
1070
    77
1070
     1
1070
    73
1070
     0
1070
   171
1070
     4
1070
   274
1070
     4
1070
   177
1070
     2
1070
   176
1070
     2
1070
   178
1070
     7
1070
    78
1070
     8
1070
    41
1041
3.0
1070
   147
1041
2.25
1070
    42
1041
1.5
1070
    44
1041
3.0
1070
   140
1041
4.5
1070
   343
1005
2B7
1070
   344
1005
2B7
1002
}
0
DIMENSION
5
2CC
100
AcDbEntity
8
SK2
62
256
6
ByLayer
370
-3
48
1
60
0
100
AcDbDimension
2
DimnDraft3D2
10
-71.07
20
-9.99125
30
0
11
-71.07
21
-4.784211
31
0
70
32
71
5
72
1
41
1
210
0
220
0
230
1
3
Standard
100
AcDbAlignedDimension
13
-62.82
23
9.99125
33
0
14
-62.82
24
-9.99125
34
0
50
90
100
AcDbRotatedDimension
1001
ACAD
1000
DSTYLE
1002
{
1070
    74
1070
     0
1070
   279
1070
     0
1070
   172
1070
     1
1070
   173
1070
     1
1070
   340
1005
284
1070
   271
1070
     3
1070
   272
1070
     3
1070
    77
1070
     1
1070
    73
1070
     0
1070
   171
1070
     4
1070
   274
1070
     4
1070
   177
1070
     2
1070
   176
1070
     2
1070
   178
1070
     7
1070
    78
1070
     8
1070
    41
1041
3.0
1070
   147
1041
2.25
1070
    42
1041
1.5
1070
    44
1041
3.0
1070
   140
1041
4.5
1070
   343
1005
2B7
1070
   344
1005
2B7
1002
}
0
DIMENSION
5
2DA
100
AcDbEntity
8
2
62
256
6
ByLayer
370
-3
48
1
60
0
100
AcDbDimension
2
DimnDraft3D3
10
51.610246
20
23.625
30
0
11
63.141175
21
23.625
31
0
70
32
71
5
72
1
41
1
210
0
220
0
230
1
3
Standard
100
AcDbAlignedDimension
13
79.93
23
15.375
33
0
14
51.610246
24
15.375
34
0
50
0
100
AcDbRotatedDimension
1001
ACAD
1000
DSTYLE
1002
{
1070
   279
1070
     0
1070
   172
1070
     1
1070
   173
1070
     1
1070
   340
1005
284
1070
   271
1070
     3
1070
   272
1070
     3
1070
    77
1070
     1
1070
    73
1070
     0
1070
   171
1070
     4
1070
   274
1070
     4
1070
   177
1070
     2
1070
   176
1070
     2
1070
   178
1070
     7
1070
    78
1070
     8
1070
    41
1041
3.0
1070
   147
1041
2.25
1070
    42
1041
1.5
1070
    44
1041
3.0
1070
   140
1041
4.5
1070
   343
1005
2B7
1070
   344
1005
2B7
1002
}
0
DIMENSION
5
2E8
100
AcDbEntity
8
SK2
62
256
6
ByLayer
370
-3
48
1
60
0
100
AcDbDimension
2
DimnDraft3D4
10
-61.32
20
33.625
30
0
11
5.912237
21
33.625
31
0
70
32
71
5
72
1
41
1
210
0
220
0
230
1
3
Standard
100
AcDbAlignedDimension
13
79.93
23
15.375
33
0
14
-61.32
24
1.5
34
0
50
0
100
AcDbRotatedDimension
1001
ACAD
1000
DSTYLE
1002
{
1070
   279
1070
     0
1070
   172
1070
     1
1070
   173
1070
     1
1070
   340
1005
284
1070
   271
1070
     3
1070
   272
1070
     3
1070
    77
1070
     1
1070
    73
1070
     0
1070
   171
1070
     4
1070
   274
1070
     4
1070
   177
1070
     2
1070
   176
1070
     2
1070
   178
1070
     7
1070
    78
1070
     8
1070
    41
1041
3.0
1070
   147
1041
2.25
1070
    42
1041
1.5
1070
    44
1041
3.0
1070
   140
1041
4.5
1070
   343
1005
2B7
1070
   344
1005
2B7
1002
}
0
ENDSEC
0
SECTION
2
OBJECTS
0
DICTIONARY
5
319
330
0
100
AcDbDictionary
280
0
281
1
3
ACAD_GROUP
350
31a
3
ACAD_MLINESTYLE
350
31b
0
DICTIONARY
5
31a
330
0
100
AcDbDictionary
280
0
281
1
0
DICTIONARY
5
31b
330
0
100
AcDbDictionary
280
0
281
1
3
Standard
350
18
0
MLINESTYLE
5
18
330
31b
100
AcDbMlineStyle
2
Standard
70
0
3

62
256
51
90
52
90
71
2
49
-0.5
62
256
6
ByLayer
49
0.5
62
256
6
ByLayer
0
RASTERVARIABLES
5
307
330

100
AcDbRasterVariables
90
0
70
1
71
1
72
1
0
ENDSEC
0
EOF
