0
SECTION
2
HEADER
9
$ACADVER
1
AC1015
9
$DWGCODEPAGE
3
ANSI_1252
9
$HANDSEED
5
2ef
9
$ANGBASE
50
0
9
$ANGDIR
70
0
9
$ATTMODE
70
1
9
$AUNITS
70
0
9
$AUPREC
70
0
9
$CECOLOR
62
256
9
$CELTSCALE
40
1
9
$CELTYPE
6
ByLayer
9
$CELWEIGHT
370
-1
9
$CLAYER
8
0
9
$CMLJUST
70
0
9
$CMLSCALE
40
1
9
$CMLSTYLE
2
Standard
9
$DIMSTYLE
2
Standard
9
$TEXTSIZE
40
0.2
9
$TEXTSTYLE
7
Standard
9
$LUNITS
70
2
9
$LUPREC
70
4
9
$EXTNAMES
290
1
9
$INSUNITS
70
4
9
$LTSCALE
40
1
9
$LWDISPLAY
290
0
9
$PDMODE
70
0
9
$PDSIZE
40
0
9
$PLINEGEN
70
0
0
ENDSEC
0
SECTION
2
CLASSES
0
CLASS
1
RASTERVARIABLES
2
AcDbRasterVariables
3
ISM
90
0
280
0
281
0
0
ENDSEC
0
SECTION
2
TABLES
0
TABLE
2
VPORT
5
2e5
100
AcDbSymbolTable
0
VPORT
5
1
100
AcDbSymbolTableRecord
100
AcDbViewportTableRecord
2
*Active
70
0
10
0
20
0
11
1
21
1
12
-1
22
1
13
0
23
0
14
0.5
24
0.5
15
10
25
10
16
0
26
0
36
1
17
0
27
0
37
0
0
ENDTAB
0
TABLE
2
LTYPE
5
2e6
100
AcDbSymbolTable
0
LTYPE
5
14
100
AcDbSymbolTableRecord
100
AcDbLinetypeTableRecord
70
0
2
ByBlock
3

72
65
73
0
40
0
0
LTYPE
5
15
100
AcDbSymbolTableRecord
100
AcDbLinetypeTableRecord
70
0
2
ByLayer
3

72
65
73
0
40
0
0
LTYPE
5
16
100
AcDbSymbolTableRecord
100
AcDbLinetypeTableRecord
70
0
2
CONTINUOUS
3
Solid line
72
65
73
0
40
0
0
LTYPE
5
3B
100
AcDbSymbolTableRecord
100
AcDbLinetypeTableRecord
70
0
2
DASHED
3
__ __ __ __ __ __ __ __ __
72
65
73
2
40
25.72
49
12.86
74
0
49
-12.86
74
0
0
LTYPE
5
3C
100
AcDbSymbolTableRecord
100
AcDbLinetypeTableRecord
70
0
2
HIDDEN
3
_ _ _ _ _ _ _ _ _ _ _ _ _ _ _
72
65
73
2
40
0.5
49
0.25
74
0
49
-0.25
74
0
0
LTYPE
5
3D
100
AcDbSymbolTableRecord
100
AcDbLinetypeTableRecord
70
0
2
PHANTOM
3
____ _ _ ____ _ _ _____ _ _ ____
72
65
73
6
40
50.5
49
18
74
0
49
-6.5
74
0
49
6.5
74
0
49
-6.5
74
0
49
6.5
74
0
49
-6.5
74
0
0
LTYPE
5
3E
100
AcDbSymbolTableRecord
100
AcDbLinetypeTableRecord
70
0
2
CENTER
3
____ _ ____ _ ____ _ ____
72
65
73
4
40
47.5
49
22
74
0
49
-8.5
74
0
49
8.5
74
0
49
-8.5
74
0
0
LTYPE
5
3F
100
AcDbSymbolTableRecord
100
AcDbLinetypeTableRecord
70
0
2
DOT
3
.........................
72
65
73
2
40
10
49
0
74
0
49
-10
74
0
0
LTYPE
5
40
100
AcDbSymbolTableRecord
100
AcDbLinetypeTableRecord
70
0
2
DASHDOT
3
_._._._._._._._._._._._._._._._.
72
65
73
4
40
70
49
31
74
0
49
-13
74
0
49
13
74
0
49
-13
74
0
0
ENDTAB
0
TABLE
2
LAYER
5
2e7
100
AcDbSymbolTable
0
LAYER
5
10
100
AcDbSymbolTableRecord
100
AcDbLayerTableRecord
2
0
70
0
62
7
6
CONTINUOUS
290
1
370
-3
390
0
0
LAYER
5
42
100
AcDbSymbolTableRecord
100
AcDbLayerTableRecord
2
80
70
0
62
-6
6
CONTINUOUS
290
1
370
-3
390
0
0
LAYER
5
44
100
AcDbSymbolTableRecord
100
AcDbLayerTableRecord
2
81
70
0
62
-3
6
CONTINUOUS
290
1
370
-3
390
0
0
LAYER
5
46
100
AcDbSymbolTableRecord
100
AcDbLayerTableRecord
2
2
70
0
62
7
6
CONTINUOUS
290
1
370
-3
390
0
0
LAYER
5
48
100
AcDbSymbolTableRecord
100
AcDbLayerTableRecord
2
1
70
0
62
4
6
CONTINUOUS
290
1
370
-3
390
0
0
LAYER
5
2d2
100
AcDbSymbolTableRecord
100
AcDbLayerTableRecord
2
SK1
70
0
62
4
6
CONTINUOUS
290
1
370
-3
390
0
0
LAYER
5
2d3
100
AcDbSymbolTableRecord
100
AcDbLayerTableRecord
2
SK2
70
0
62
7
6
CONTINUOUS
290
1
370
-3
390
0
0
LAYER
5
2d4
100
AcDbSymbolTableRecord
100
AcDbLayerTableRecord
2
SK6
70
0
62
5
6
CONTINUOUS
290
1
370
-3
390
0
0
ENDTAB
0
TABLE
2
STYLE
5
2e8
100
AcDbSymbolTable
0
STYLE
5
11
100
AcDbSymbolTableRecord
100
AcDbTextStyleTableRecord
2
Standard
3
txt
70
0
71
0
40
0
41
1
42
0
50
0
0
STYLE
5
276
100
AcDbSymbolTableRecord
100
AcDbTextStyleTableRecord
2
DEFAULT
3
simplex.shx
70
0
71
0
40
0
41
1
42
0
50
0
0
STYLE
5
299
100
AcDbSymbolTableRecord
100
AcDbTextStyleTableRecord
2
DWGDirectTextStyle
3
SIMPLEX
70
0
71
0
40
0
41
1
42
0
50
0
0
ENDTAB
0
TABLE
2
DIMSTYLE
5
2e9
100
AcDbSymbolTable
100
AcDbDimStyleTable
0
DIMSTYLE
105
27
100
AcDbSymbolTableRecord
100
AcDbDimStyleTableRecord
2
Standard
70
0
3
<>
41
0.18
42
0.0625
44
0.18
140
0.18
147
0.09
73
0
74
0
77
1
271
2
275
0
278
52
280
0
340
11
0
ENDTAB
0
TABLE
2
VIEW
5
2ea
100
AcDbSymbolTable
0
ENDTAB
0
TABLE
2
UCS
5
2eb
100
AcDbSymbolTable
0
ENDTAB
0
TABLE
2
APPID
5
2ec
100
AcDbSymbolTable
0
APPID
5
12
100
AcDbSymbolTableRecord
100
AcDbRegAppTableRecord
2
ACAD
70
0
0
ENDTAB
0
TABLE
2
BLOCK_RECORD
5
2ed
100
AcDbSymbolTable
0
BLOCK_RECORD
5
1F
100
AcDbSymbolTableRecord
100
AcDbBlockTableRecord
2
*Model_Space
340
0
70
0
0
BLOCK_RECORD
5
1B
100
AcDbSymbolTableRecord
100
AcDbBlockTableRecord
2
*Paper_Space
340
0
70
0
0
BLOCK_RECORD
5
23
100
AcDbSymbolTableRecord
100
AcDbBlockTableRecord
2
*Paper_Space0
340
0
70
0
0
BLOCK_RECORD
5
29E
100
AcDbSymbolTableRecord
100
AcDbBlockTableRecord
2
DimnDraft3D1
340
0
70
0
0
BLOCK_RECORD
5
2AC
100
AcDbSymbolTableRecord
100
AcDbBlockTableRecord
2
_CLOSED
340
0
70
0
0
ENDTAB
0
ENDSEC
0
SECTION
2
BLOCKS
0
BLOCK
5
20
100
AcDbEntity
8
0
100
AcDbBlockBegin
2
*Model_Space
70
0
10
0
20
0
30
0
3
*Model_Space
0
ENDBLK
5
21
100
AcDbEntity
8
0
100
AcDbBlockEnd
0
BLOCK
5
1C
100
AcDbEntity
8
0
100
AcDbBlockBegin
2
*Paper_Space
70
0
10
0
20
0
30
0
3
*Paper_Space
0
ENDBLK
5
1D
100
AcDbEntity
8
0
100
AcDbBlockEnd
0
BLOCK
5
24
100
AcDbEntity
8
0
100
AcDbBlockBegin
2
*Paper_Space0
70
0
10
0
20
0
30
0
3
*Paper_Space0
0
ENDBLK
5
25
100
AcDbEntity
8
0
100
AcDbBlockEnd
0
BLOCK
5
2A9
100
AcDbEntity
8
0
100
AcDbBlockBegin
2
DimnDraft3D1
70
0
10
0
20
0
30
0
3
DimnDraft3D1
0
MTEXT
5
29F
100
AcDbEntity
8
SK2
62
256
6
ByLayer
370
-1
48
1
60
0
100
AcDbMText
10
-128.915218
20
-1.503947
30
0
210
0
220
0
230
1
1
\W01.000;\fsimplex.shx,bigfont.shx;25 
40
4.5
41
0
44
1.084337
50
90
71
7
72
5
7
DEFAULT
0
LINE
5
2A0
100
AcDbEntity
8
SK2
62
256
6
ByLayer
370
-1
48
1
60
0
100
AcDbLine
10
-119.540218
20
12.4375
30
0
11
-130.790218
21
12.4375
31
0
39
0
210
0
220
0
230
1
0
LINE
5
2A1
100
AcDbEntity
8
SK2
62
256
6
ByLayer
370
-1
48
1
60
0
100
AcDbLine
10
-119.540218
20
-12.4375
30
0
11
-130.790218
21
-12.4375
31
0
39
0
210
0
220
0
230
1
0
LINE
5
2A2
100
AcDbEntity
8
SK2
62
256
6
ByLayer
370
-1
48
1
60
0
100
AcDbLine
10
-127.790218
20
12.4375
30
0
11
-127.790218
21
-12.4375
31
0
39
0
210
0
220
0
230
1
0
LINE
5
2A3
100
AcDbEntity
8
SK2
62
256
6
ByLayer
370
-1
48
1
60
0
100
AcDbLine
10
-127.790218
20
12.4375
30
0
11
-127.395261
21
9.437501
31
0
39
0
210
0
220
0
230
1
0
LINE
5
2A4
100
AcDbEntity
8
SK2
62
256
6
ByLayer
370
-1
48
1
60
0
100
AcDbLine
10
-127.790218
20
12.4375
30
0
11
-128.185176
21
9.437499
31
0
39
0
210
0
220
0
230
1
0
LINE
5
2A5
100
AcDbEntity
8
SK2
62
256
6
ByLayer
370
-1
48
1
60
0
100
AcDbLine
10
-127.395261
20
9.437501
30
0
11
-128.185176
21
9.437499
31
0
39
0
210
0
220
0
230
1
0
LINE
5
2A6
100
AcDbEntity
8
SK2
62
256
6
ByLayer
370
-1
48
1
60
0
100
AcDbLine
10
-127.790218
20
-12.4375
30
0
11
-128.185176
21
-9.437501
31
0
39
0
210
0
220
0
230
1
0
LINE
5
2A7
100
AcDbEntity
8
SK2
62
256
6
ByLayer
370
-1
48
1
60
0
100
AcDbLine
10
-127.790218
20
-12.4375
30
0
11
-127.395261
21
-9.437499
31
0
39
0
210
0
220
0
230
1
0
LINE
5
2A8
100
AcDbEntity
8
SK2
62
256
6
ByLayer
370
-1
48
1
60
0
100
AcDbLine
10
-128.185176
20
-9.437501
30
0
11
-127.395261
21
-9.437499
31
0
39
0
210
0
220
0
230
1
0
ENDBLK
5
2AA
100
AcDbEntity
8
0
100
AcDbBlockEnd
0
BLOCK
5
2AD
100
AcDbEntity
8
0
100
AcDbBlockBegin
2
_CLOSED
70
0
10
0
20
0
30
0
3
_CLOSED
0
LINE
5
2AF
100
AcDbEntity
8
0
62
256
6
ByLayer
370
-2
48
1
60
0
100
AcDbLine
10
-1
20
0.166667
30
0
11
0
21
0
31
0
39
0
210
0
220
0
230
1
0
LINE
5
2B0
100
AcDbEntity
8
0
62
256
6
ByLayer
370
-2
48
1
60
0
100
AcDbLine
10
0
20
0
30
0
11
-1
21
-0.166667
31
0
39
0
210
0
220
0
230
1
0
LINE
5
2B1
100
AcDbEntity
8
0
62
256
6
ByLayer
370
-2
48
1
60
0
100
AcDbLine
10
-1
20
0.166667
30
0
11
-1
21
-0.166667
31
0
39
0
210
0
220
0
230
1
0
LINE
5
2B2
100
AcDbEntity
8
0
62
256
6
ByLayer
370
-2
48
1
60
0
100
AcDbLine
10
0
20
0
30
0
11
-1
21
0
31
0
39
0
210
0
220
0
230
1
0
ENDBLK
5
2AE
100
AcDbEntity
8
0
100
AcDbBlockEnd
0
ENDSEC
0
SECTION
2
ENTITIES
0
ARC
5
13C
100
AcDbEntity
8
1
62
256
6
ByLayer
370
-1
48
1
60
0
100
AcDbCircle
39
0
10
13.36504
20
14.172572
30
0
40
5.97633063734988
210
0
220
0
230
1
100
AcDbArc
50
54.315661
51
69.095151
0
ARC
5
13D
100
AcDbEntity
8
1
62
256
6
ByLayer
370
-1
48
1
60
0
100
AcDbCircle
39
0
10
13.36504
20
14.172572
30
0
40
5.97633063734988
210
0
220
0
230
1
100
AcDbArc
50
110.837319
51
122.498426
0
ELLIPSE
5
13E
100
AcDbEntity
8
1
62
256
6
ByLayer
370
-1
48
1
60
0
100
AcDbEllipse
10
22.092183
20
2.563953
30
0
11
-0.206873124355478
21
2.08978554383556
31
0
210
0
220
0
230
1
40
0.984662
41
1.78017848538996
42
-1.61078329220099
0
ELLIPSE
5
13F
100
AcDbEntity
8
1
62
256
6
ByLayer
370
-1
48
1
60
0
100
AcDbEllipse
10
14.424678
20
17.002938
30
0
11
-1.16166011391281
21
2.82949830449979
31
0
210
0
220
0
230
1
40
0.404894
41
1.88248147944302
42
2.24654148169604
0
ELLIPSE
5
140
100
AcDbEntity
8
1
62
256
6
ByLayer
370
-1
48
1
60
0
100
AcDbEllipse
10
20.061115
20
3.793919
30
0
11
-0.285461719077335
21
2.91039537264477
31
0
210
0
220
0
230
1
40
0.984665
41
-2.28817713324617
42
-1.82289570904539
0
ELLIPSE
5
141
100
AcDbEntity
8
1
62
256
6
ByLayer
370
-1
48
1
60
0
100
AcDbEllipse
10
19.522815
20
8.08417
30
0
11
-1.16166011370847
21
2.82949830435351
31
0
210
0
220
0
230
1
40
0.404894
41
1.51842147730513
42
1.88248147959769
0
ELLIPSE
5
142
100
AcDbEntity
8
1
62
256
6
ByLayer
370
-1
48
1
60
0
100
AcDbEllipse
10
28.438289
20
3.186401
30
0
11
-5.86696719989736
21
-2.19955227409394
31
0
210
0
220
0
230
1
40
0.221467
41
-0.839250761819778
42
-0.453141779061367
0
ELLIPSE
5
143
100
AcDbEntity
8
1
62
256
6
ByLayer
370
-1
48
1
60
0
100
AcDbEllipse
10
20.691366
20
3.855737
30
0
11
-0.268441419903903
21
2.73686667634358
31
0
210
0
220
0
230
1
40
0.984665
41
-2.17767013075922
42
-1.69448171525841
0
ELLIPSE
5
144
100
AcDbEntity
8
1
62
256
6
ByLayer
370
-1
48
1
60
0
100
AcDbEllipse
10
20.360697
20
2.394122
30
0
11
-0.204991629744799
21
2.08997091648056
31
0
210
0
220
0
230
1
40
0.984665
41
-1.81127820694351
42
-1.25494885880053
0
ELLIPSE
5
145
100
AcDbEntity
8
1
62
256
6
ByLayer
370
-1
48
1
60
0
100
AcDbEllipse
10
20.30861
20
2.389014
30
0
11
-0.204991629744799
21
2.08997091648056
31
0
210
0
220
0
230
1
40
0.984665
41
-2.69341298703701
42
-1.25505427596365
0
ELLIPSE
5
146
100
AcDbEntity
8
1
62
256
6
ByLayer
370
-1
48
1
60
0
100
AcDbEllipse
10
20.30861
20
2.389014
30
0
11
-0.204991629744799
21
2.08997091648056
31
0
210
0
220
0
230
1
40
0.984665
41
0
42
6.28318530717959
0
ELLIPSE
5
147
100
AcDbEntity
8
1
62
256
6
ByLayer
370
-1
48
1
60
0
100
AcDbEllipse
10
20.92108
20
3.778712
30
0
11
-0.199089484905766
21
2.01115698108448
31
0
210
0
220
0
230
1
40
0.984662
41
0.692779797074116
42
2.62846801096178
0
ELLIPSE
5
148
100
AcDbEntity
8
1
62
256
6
ByLayer
370
-1
48
1
60
0
100
AcDbEllipse
10
20.990949
20
2.45594
30
0
11
0.204991629744795
21
-2.08997091648056
31
0
210
0
220
0
230
1
40
0.984665
41
1.14558685807715
42
1.50122801580438
0
ELLIPSE
5
149
100
AcDbEntity
8
SK1
62
256
6
ByLayer
370
-1
48
1
60
0
100
AcDbEllipse
10
0.2804
20
-12.404406
30
0
11
-1.6
21
1.61702248813178E-15
31
0
210
0
220
0
230
1
40
0.004364
41
-0.174506879417346
42
1.39463639395215
0
ELLIPSE
5
14A
100
AcDbEntity
8
1
62
256
6
ByLayer
370
-1
48
1
60
0
100
AcDbEllipse
10
28.229715
20
19.782172
30
0
11
-0.750296195543581
21
0.434738949155698
31
0
210
0
220
0
230
1
40
0.088816
41
1.44800889775632
42
1.62254181800562
0
ELLIPSE
5
14B
100
AcDbEntity
8
1
62
256
6
ByLayer
370
-1
48
1
60
0
100
AcDbEllipse
10
29.464945
20
15.2107
30
0
11
-0.253855532568822
21
-0.000754189516441977
31
0
210
0
220
0
230
1
40
0.984667
41
1.38364731850759E-05
42
0.952733513392513
0
ELLIPSE
5
14C
100
AcDbEntity
8
1
62
256
6
ByLayer
370
-1
48
1
60
0
100
AcDbEllipse
10
31.11643
20
17.436686
30
0
11
-0.528019507744942
21
-0.0015687141955281
31
0
210
0
220
0
230
1
40
0.984667
41
-3.14157881711977
42
-2.10103542345393
0
ELLIPSE
5
14D
100
AcDbEntity
8
1
62
256
6
ByLayer
370
-1
48
1
60
0
100
AcDbEllipse
10
31.116581
20
17.385901
30
0
11
-0.52801950774355
21
-0.00156871409427547
31
0
210
0
220
0
230
1
40
0.984667
41
2.10106309658045
42
-3.14157881693126
0
ELLIPSE
5
14E
100
AcDbEntity
8
1
62
256
6
ByLayer
370
-1
48
1
60
0
100
AcDbEllipse
10
29.463988
20
15.53134
30
0
11
-0.253855532568314
21
-0.00075418947753432
31
0
210
0
220
0
230
1
40
0.984667
41
-1.04052955704623
42
1.3836623031568E-05
0
ELLIPSE
5
14F
100
AcDbEntity
8
1
62
256
6
ByLayer
370
-1
48
1
60
0
100
AcDbEllipse
10
20.542336
20
3.927885
30
0
11
-0.0512257656543241
21
0.517470695724046
31
0
210
0
220
0
230
1
40
0.984662
41
2.52082656649369
42
3.14159128718803
0
ELLIPSE
5
150
100
AcDbEntity
8
1
62
256
6
ByLayer
370
-1
48
1
60
0
100
AcDbEllipse
10
19.718313
20
6.292034
30
0
11
0.0246277719491972
21
-0.248783988328868
31
0
210
0
220
0
230
1
40
0.984662
41
1.48028317282338
42
2.52082656649376
0
ELLIPSE
5
151
100
AcDbEntity
8
1
62
256
6
ByLayer
370
-1
48
1
60
0
100
AcDbEllipse
10
20.617743
20
6.381071
30
0
11
-0.104148322270513
21
0.228445258135516
31
0
210
0
220
0
230
1
40
0.958576
41
-1.97766540602648
42
-0.937122012340227
0
ELLIPSE
5
152
100
AcDbEntity
8
1
62
256
6
ByLayer
370
-1
48
1
60
0
100
AcDbEllipse
10
21.448363
20
4.047263
30
0
11
-0.216628510296768
21
0.475166136944797
31
0
210
0
220
0
230
1
40
0.958576
41
1.16392724763776
42
2.2044706413023
0
ELLIPSE
5
153
100
AcDbEntity
8
1
62
256
6
ByLayer
370
-1
48
1
60
0
100
AcDbEllipse
10
20.34376
20
6.541391
30
0
11
-0.104148322260624
21
0.228445258144026
31
0
210
0
220
0
230
1
40
0.958576
41
-0.937122012298749
42
0.0155976646230315
0
ELLIPSE
5
154
100
AcDbEntity
8
1
62
256
6
ByLayer
370
-1
48
1
60
0
100
AcDbEllipse
10
16.686923
20
10.993044
30
0
11
-0.155247516409455
21
0.241830006309851
31
0
210
0
220
0
230
1
40
0.120053
41
-2.53402038934124
42
-1.03690980339951
0
ELLIPSE
5
155
100
AcDbEntity
8
1
62
256
6
ByLayer
370
-1
48
1
60
0
100
AcDbEllipse
10
16.528785
20
11.369309
30
0
11
-0.156347378481248
21
0.26668417973845
31
0
210
0
220
0
230
1
40
0.154177
41
1.49991027725708
42
2.19804197834539
0
ELLIPSE
5
156
100
AcDbEntity
8
1
62
256
6
ByLayer
370
-1
48
1
60
0
100
AcDbEllipse
10
15.586816
20
13.067458
30
0
11
-0.444948532433172
21
0.763538154391355
31
0
210
0
220
0
230
1
40
0.134911
41
1.50917053222709
42
2.40290295666175
0
ELLIPSE
5
157
100
AcDbEntity
8
1
62
256
6
ByLayer
370
-1
48
1
60
0
100
AcDbEllipse
10
16.082506
20
12.149996
30
0
11
-0.156347378781874
21
0.266684180200394
31
0
210
0
220
0
230
1
40
0.154177
41
1.07473396624754
42
1.49991027681393
0
ELLIPSE
5
158
100
AcDbEntity
8
1
62
256
6
ByLayer
370
-1
48
1
60
0
100
AcDbEllipse
10
21.587384
20
19.915488
30
0
11
-1.48293986337974
21
-0.00113199992073542
31
0
210
0
220
0
230
1
40
0.008659
41
1.30833359030159
42
2.44279760404328
0
ELLIPSE
5
159
100
AcDbEntity
8
1
62
256
6
ByLayer
370
-1
48
1
60
0
100
AcDbEllipse
10
22.574975
20
13.571127
30
0
11
-0.478749947311717
21
4.83621992075257
31
0
210
0
220
0
230
1
40
0.984662
41
0.426431464100535
42
0.984936824738722
0
ELLIPSE
5
15A
100
AcDbEntity
8
1
62
256
6
ByLayer
370
-1
48
1
60
0
100
AcDbEllipse
10
22.074566
20
18.659849
30
0
11
-0.230406752779106
21
-0.227796117648325
31
0
210
0
220
0
230
1
40
0.628363
41
2.56493088444786
42
-2.22114383679295
0
ELLIPSE
5
15B
100
AcDbEntity
8
1
62
256
6
ByLayer
370
-1
48
1
60
0
100
AcDbEllipse
10
22.56951
20
13.570586
30
0
11
0.439414618244503
21
-4.43886363258443
31
0
210
0
220
0
230
1
40
0.984662
41
-3.11707500541196
42
-1.75474201292826
0
ELLIPSE
5
15C
100
AcDbEntity
8
1
62
256
6
ByLayer
370
-1
48
1
60
0
100
AcDbEllipse
10
17.53745
20
13.874737
30
0
11
-0.191670218367179
21
-0.230486518020037
31
0
210
0
220
0
230
1
40
0.678021
41
-0.96492853779162
42
0.532182048143394
0
ELLIPSE
5
15D
100
AcDbEntity
8
1
62
256
6
ByLayer
370
-1
48
1
60
0
100
AcDbEllipse
10
17.554813
20
13.876456
30
0
11
-0.190444039246211
21
-0.196955959498611
31
0
210
0
220
0
230
1
40
0.38081
41
-0.908778104875311
42
0.588332481056505
0
ELLIPSE
5
15E
100
AcDbEntity
8
1
62
256
6
ByLayer
370
-1
48
1
60
0
100
AcDbEllipse
10
22.582378
20
13.57186
30
0
11
-0.448930058632324
21
4.53498638438206
31
0
210
0
220
0
230
1
40
0.984662
41
0.024517648174312
42
1.38685064066154
0
ELLIPSE
5
15F
100
AcDbEntity
8
1
62
256
6
ByLayer
370
-1
48
1
60
0
100
AcDbEllipse
10
22.091928
20
18.661567
30
0
11
-0.185582861240545
21
-0.20168364623962
31
0
210
0
220
0
230
1
40
0.380522
41
2.53967617191068
42
-2.24639854933278
0
ELLIPSE
5
160
100
AcDbEntity
8
1
62
256
6
ByLayer
370
-1
48
1
60
0
100
AcDbEllipse
10
22.582378
20
13.57186
30
0
11
0.470680391416388
21
-4.75470315570218
31
0
210
0
220
0
230
1
40
0.984662
41
-2.71516118948926
42
-2.15665582885108
0
ELLIPSE
5
161
100
AcDbEntity
8
1
62
256
6
ByLayer
370
-1
48
1
60
0
100
AcDbEllipse
10
21.648392
20
13.776454
30
0
11
-0.15942181294744
21
-4.4168982259218
31
0
210
0
220
0
230
1
40
0.859742
41
2.90096364024652
42
3.03887278957586
0
ELLIPSE
5
162
100
AcDbEntity
8
1
62
256
6
ByLayer
370
-1
48
1
60
0
100
AcDbEllipse
10
22.250313
20
14.411276
30
0
11
-2.25135354675008
21
-4.13800146619252
31
0
210
0
220
0
230
1
40
0.856395
41
-0.997177226117799
42
-0.859268076905106
0
ELLIPSE
5
163
100
AcDbEntity
8
1
62
256
6
ByLayer
370
-1
48
1
60
0
100
AcDbEllipse
10
16.167264
20
12.292064
30
0
11
-0.588593799668412
21
-0.58373099710675
31
0
210
0
220
0
230
1
40
0.430967
41
-1.63053867770949
42
-1.61795361640385
0
ELLIPSE
5
164
100
AcDbEntity
8
1
62
256
6
ByLayer
370
-1
48
1
60
0
100
AcDbEllipse
10
16.29293
20
12.211419
30
0
11
-0.629654485106077
21
-0.404889123975418
31
0
210
0
220
0
230
1
40
0.294686
41
-1.51797498653779
42
-1.50538402926105
0
ELLIPSE
5
165
100
AcDbEntity
8
1
62
256
6
ByLayer
370
-1
48
1
60
0
100
AcDbEllipse
10
22.44348
20
13.55811
30
0
11
0.40475826952995
21
-4.08877330886744
31
0
210
0
220
0
230
1
40
0.984662
41
2.90673834865461
42
-1.49537005981536
0
ELLIPSE
5
166
100
AcDbEntity
8
1
62
256
6
ByLayer
370
-1
48
1
60
0
100
AcDbEllipse
10
22.469861
20
13.560721
30
0
11
0.424264922325093
21
-4.28582495005256
31
0
210
0
220
0
230
1
40
0.984662
41
3.02014473408999
42
-1.60877644525073
0
ELLIPSE
5
167
100
AcDbEntity
8
1
62
256
6
ByLayer
370
-1
48
1
60
0
100
AcDbEllipse
10
19.573921
20
18.733187
30
0
11
0.379766412202704
21
-0.646743745360314
31
0
210
0
220
0
230
1
40
0.158847
41
-1.81848809092726
42
-0.684024077131023
0
ELLIPSE
5
168
100
AcDbEntity
8
1
62
256
6
ByLayer
370
-1
48
1
60
0
100
AcDbEllipse
10
22.54241
20
12.918101
30
0
11
-1.39227954337657
21
-6.67884561573195
31
0
210
0
220
0
230
1
40
0.960266
41
-2.42525216036985
42
-2.21273284232378
0
ELLIPSE
5
169
100
AcDbEntity
8
1
62
256
6
ByLayer
370
-1
48
1
60
0
100
AcDbEllipse
10
18.431949
20
17.887788
30
0
11
0.379766412202704
21
-0.646743745360314
31
0
210
0
220
0
230
1
40
0.158847
41
-1.81848809092723
42
-1.64395516572783
0
ELLIPSE
5
16A
100
AcDbEntity
8
1
62
256
6
ByLayer
370
-1
48
1
60
0
100
AcDbEllipse
10
18.431949
20
17.887788
30
0
11
0.507192783306785
21
-0.552499303675141
31
0
210
0
220
0
230
1
40
0.102923
41
-1.84632301281815
42
-0.716375128220223
0
ELLIPSE
5
16B
100
AcDbEntity
8
1
62
256
6
ByLayer
370
-1
48
1
60
0
100
AcDbEllipse
10
18.431949
20
17.887788
30
0
11
0.523699716093527
21
-0.536878577858681
31
0
210
0
220
0
230
1
40
0.137103
41
-1.67994431826321
42
-0.720013229666368
0
ELLIPSE
5
16C
100
AcDbEntity
8
1
62
256
6
ByLayer
370
-1
48
1
60
0
100
AcDbEllipse
10
22.392584
20
13.553072
30
0
11
-0.589672763893986
21
5.95673625340893
31
0
210
0
220
0
230
1
40
0.984662
41
0.666776392044042
42
0.984936824738723
0
ELLIPSE
5
16D
100
AcDbEntity
8
1
62
256
6
ByLayer
370
-1
48
1
60
0
100
AcDbEllipse
10
22.448112
20
13.558568
30
0
11
0.529151094678653
21
-5.34536051553104
31
0
210
0
220
0
230
1
40
0.984662
41
-2.47481626154575
42
-2.15665582885108
0
ELLIPSE
5
16E
100
AcDbEntity
8
1
62
256
6
ByLayer
370
-1
48
1
60
0
100
AcDbEllipse
10
17.309515
20
16.375734
30
0
11
0.665215374977295
21
-0.346393569359792
31
0
210
0
220
0
230
1
40
0.096468
41
-1.71737772613797
42
-0.757446637540986
0
ELLIPSE
5
16F
100
AcDbEntity
8
1
62
256
6
ByLayer
370
-1
48
1
60
0
100
AcDbEllipse
10
16.077125
20
12.499283
30
0
11
-0.140555557628672
21
0.149228466519271
31
0
210
0
220
0
230
1
40
0.249834
41
0.784202037758843
42
2.28131262369596
0
ELLIPSE
5
170
100
AcDbEntity
8
1
62
256
6
ByLayer
370
-1
48
1
60
0
100
AcDbEllipse
10
16.069559
20
12.492118
30
0
11
-0.141364748562554
21
0.148462142864253
31
0
210
0
220
0
230
1
40
0.244711
41
0.78285774228678
42
2.26981503406457
0
ELLIPSE
5
171
100
AcDbEntity
8
1
62
256
6
ByLayer
370
-1
48
1
60
0
100
AcDbEllipse
10
18.032862
20
13.293379
30
0
11
-0.203058355103601
21
-0.0281479026326955
31
0
210
0
220
0
230
1
40
0.658003
41
1.79607876326904
42
3.02654093053697
0
ELLIPSE
5
172
100
AcDbEntity
8
1
62
256
6
ByLayer
370
-1
48
1
60
0
100
AcDbEllipse
10
18.123726
20
13.09562
30
0
11
-0.145616974328063
21
-0.144293786378832
31
0
210
0
220
0
230
1
40
0.661379
41
1.36345832542036
42
2.26098977545907
0
ELLIPSE
5
173
100
AcDbEntity
8
1
62
256
6
ByLayer
370
-1
48
1
60
0
100
AcDbEllipse
10
18.572374
20
11.403114
30
0
11
0.187908468395976
21
0.0819475899894478
31
0
210
0
220
0
230
1
40
0.6096
41
0.126191590979682
42
1.35665375824771
0
ELLIPSE
5
174
100
AcDbEntity
8
1
62
256
6
ByLayer
370
-1
48
1
60
0
100
AcDbEllipse
10
18.541795
20
11.630847
30
0
11
0.20091479286169
21
-0.0407215668822333
31
0
210
0
220
0
230
1
40
0.618552
41
0.841860612036575
42
1.73939206207542
0
ELLIPSE
5
175
100
AcDbEntity
8
1
62
256
6
ByLayer
370
-1
48
1
60
0
100
AcDbEllipse
10
22.121587
20
18.170248
30
0
11
-0.0971812891280707
21
0.0235753482138934
31
0
210
0
220
0
230
1
40
0.058433
41
-2.43435818834325
42
-1.73622648754564
0
ELLIPSE
5
176
100
AcDbEntity
8
1
62
256
6
ByLayer
370
-1
48
1
60
0
100
AcDbEllipse
10
22.270987
20
18.786101
30
0
11
0.0971812891280079
21
-0.0235753482141525
31
0
210
0
220
0
230
1
40
0.058433
41
0.707234465245803
42
1.40536616604342
0
ELLIPSE
5
177
100
AcDbEntity
8
1
62
256
6
ByLayer
370
-1
48
1
60
0
100
AcDbEllipse
10
22.00675
20
18.092928
30
0
11
-0.0123256273635171
21
0.0992374874233307
31
0
210
0
220
0
230
1
40
0.174419
41
-2.88413705677331
42
-1.57514011778046
0
ELLIPSE
5
178
100
AcDbEntity
8
1
62
256
6
ByLayer
370
-1
48
1
60
0
100
AcDbEllipse
10
22.130736
20
18.841081
30
0
11
-0.0506355216270319
21
0.0862324993813724
31
0
210
0
220
0
230
1
40
0.158847
41
-1.64395516572787
42
-0.684024077132147
0
ELLIPSE
5
179
100
AcDbEntity
8
1
62
256
6
ByLayer
370
-1
48
1
60
0
100
AcDbEllipse
10
18.092806
20
13.965049
30
0
11
-0.0996597563433026
21
0.00824214569111422
31
0
210
0
220
0
230
1
40
0.031913
41
-3.05226220714312
42
-1.74326526814734
0
ELLIPSE
5
17A
100
AcDbEntity
8
1
62
256
6
ByLayer
370
-1
48
1
60
0
100
AcDbEllipse
10
20.199989
20
17.70735
30
0
11
-0.0506355216270319
21
0.0862324993813724
31
0
210
0
220
0
230
1
40
0.158847
41
-1.64395516572771
42
-0.684024077132432
0
ELLIPSE
5
17B
100
AcDbEntity
8
1
62
256
6
ByLayer
370
-1
48
1
60
0
100
AcDbEllipse
10
18.021068
20
13.845596
30
0
11
-0.0279745547181563
21
0.0960074178817496
31
0
210
0
220
0
230
1
40
0.171587
41
-2.30100253057357
42
-1.60287082977488
0
ELLIPSE
5
17C
100
AcDbEntity
8
1
62
256
6
ByLayer
370
-1
48
1
60
0
100
AcDbEllipse
10
18.403739
20
15.812918
30
0
11
-0.0886953833303047
21
0.0461858092479747
31
0
210
0
220
0
230
1
40
0.096468
41
-1.71737772613764
42
-0.757446637539837
0
ELLIPSE
5
17D
100
AcDbEntity
8
1
62
256
6
ByLayer
370
-1
48
1
60
0
100
AcDbEllipse
10
17.420651
20
13.670647
30
0
11
-0.0279745547181563
21
0.0960074178817496
31
0
210
0
220
0
230
1
40
0.171587
41
-2.30100253057236
42
-1.60287082977467
0
ELLIPSE
5
17E
100
AcDbEntity
8
1
62
256
6
ByLayer
370
-1
48
1
60
0
100
AcDbEllipse
10
17.361224
20
13.810869
30
0
11
-0.0886953833303047
21
0.0461858092479747
31
0
210
0
220
0
230
1
40
0.096468
41
-1.71737772613792
42
-0.757446637541117
0
ELLIPSE
5
17F
100
AcDbEntity
8
1
62
256
6
ByLayer
370
-1
48
1
60
0
100
AcDbEllipse
10
23.116078
20
19.906992
30
0
11
-0.266397243572135
21
0.000798625381231753
31
0
210
0
220
0
230
1
40
0.014886
41
-2.31078868970143
42
-0.813678103721619
0
ELLIPSE
5
180
100
AcDbEntity
8
1
62
256
6
ByLayer
370
-1
48
1
60
0
100
AcDbEllipse
10
23.591847
20
19.912328
30
0
11
-0.30890984956904
21
-0.000869647343036825
31
0
210
0
220
0
230
1
40
0.016452
41
0.703194177100675
42
1.40132587742581
0
ELLIPSE
5
181
100
AcDbEntity
8
1
62
256
6
ByLayer
370
-1
48
1
60
0
100
AcDbEllipse
10
25.547365
20
19.915024
30
0
11
-0.880628696976125
21
-0.00190649454828872
31
0
210
0
220
0
230
1
40
0.014477
41
0.528620229785334
42
1.42235265432363
0
ELLIPSE
5
182
100
AcDbEntity
8
1
62
256
6
ByLayer
370
-1
48
1
60
0
100
AcDbEllipse
10
24.479743
20
19.912328
30
0
11
-0.308909849662718
21
-0.000869647339981642
31
0
210
0
220
0
230
1
40
0.016452
41
1.40132587822197
42
1.82650218882061
0
ELLIPSE
5
183
100
AcDbEntity
8
1
62
256
6
ByLayer
370
-1
48
1
60
0
100
AcDbEllipse
10
22.574975
20
13.571127
30
0
11
-0.478749947311717
21
4.83621992075257
31
0
210
0
220
0
230
1
40
0.984662
41
-1.66796363829266
42
-1.10945827765448
0
ELLIPSE
5
184
100
AcDbEntity
8
1
62
256
6
ByLayer
370
-1
48
1
60
0
100
AcDbEllipse
10
27.150487
20
11.44316
30
0
11
-0.114905950198418
21
0.296452990404734
31
0
210
0
220
0
230
1
40
0.634221
41
2.49967924897848
42
-2.28639547226639
0
ELLIPSE
5
185
100
AcDbEntity
8
1
62
256
6
ByLayer
370
-1
48
1
60
0
100
AcDbEllipse
10
22.56951
20
13.570586
30
0
11
0.439414618244503
21
-4.43886363258443
31
0
210
0
220
0
230
1
40
0.984662
41
1.07171519937444
42
2.43404819185814
0
ELLIPSE
5
186
100
AcDbEntity
8
1
62
256
6
ByLayer
370
-1
48
1
60
0
100
AcDbEllipse
10
25.325425
20
17.837558
30
0
11
-0.0542977281528642
21
0.307627406498459
31
0
210
0
220
0
230
1
40
0.644722
41
-0.839805110892356
42
0.657305475045051
0
ELLIPSE
5
187
100
AcDbEntity
8
1
62
256
6
ByLayer
370
-1
48
1
60
0
100
AcDbEllipse
10
25.342787
20
17.839276
30
0
11
-0.0723853551992339
21
0.266698746770754
31
0
210
0
220
0
230
1
40
0.374291
41
-0.899769069367563
42
0.597341516565246
0
ELLIPSE
5
188
100
AcDbEntity
8
1
62
256
6
ByLayer
370
-1
48
1
60
0
100
AcDbEllipse
10
22.582378
20
13.57186
30
0
11
-0.448930058632324
21
4.53498638438206
31
0
210
0
220
0
230
1
40
0.984662
41
-2.06987745421889
42
-0.707544461731661
0
ELLIPSE
5
189
100
AcDbEntity
8
1
62
256
6
ByLayer
370
-1
48
1
60
0
100
AcDbEllipse
10
27.167849
20
11.444879
30
0
11
-0.0788069796410347
21
0.264833866490432
31
0
210
0
220
0
230
1
40
0.37439
41
2.54904330411
42
-2.23703141714193
0
ELLIPSE
5
18A
100
AcDbEntity
8
1
62
256
6
ByLayer
370
-1
48
1
60
0
100
AcDbEllipse
10
22.582378
20
13.57186
30
0
11
0.470680391416388
21
-4.75470315570218
31
0
210
0
220
0
230
1
40
0.984662
41
1.47362901529714
42
2.03213437593532
0
ELLIPSE
5
18B
100
AcDbEntity
8
1
62
256
6
ByLayer
370
-1
48
1
60
0
100
AcDbEllipse
10
23.336482
20
13.349459
30
0
11
-5.05800582178793
21
0.527036713803877
31
0
210
0
220
0
230
1
40
0.86101
41
-1.81752603605529
42
-1.67961688673401
0
ELLIPSE
5
18C
100
AcDbEntity
8
1
62
256
6
ByLayer
370
-1
48
1
60
0
100
AcDbEllipse
10
24.587504
20
19.787424
30
0
11
-0.298856525246367
21
0.752796681497234
31
0
210
0
220
0
230
1
40
0.288601
41
-1.71651965731171
42
-1.70393828617139
0
ELLIPSE
5
18D
100
AcDbEntity
8
1
62
256
6
ByLayer
370
-1
48
1
60
0
100
AcDbEllipse
10
24.427741
20
19.696446
30
0
11
-0.0930029134938608
21
0.720178003121412
31
0
210
0
220
0
230
1
40
0.21901
41
-1.58438626982509
42
-1.57178367345692
0
ELLIPSE
5
18E
100
AcDbEntity
8
1
62
256
6
ByLayer
370
-1
48
1
60
0
100
AcDbEllipse
10
28.403781
20
13.566426
30
0
11
-0.749996658706078
21
-0.00223873395445227
31
0
210
0
220
0
230
1
40
0.016926
41
0.436307048915914
42
1.5707710627121
0
ELLIPSE
5
18F
100
AcDbEntity
8
1
62
256
6
ByLayer
370
-1
48
1
60
0
100
AcDbEllipse
10
21.491391
20
13.533101
30
0
11
-6.91241000079715
21
-0.0205681037498659
31
0
210
0
220
0
230
1
40
0.977133
41
-3.14158341102106
42
-2.92906409294609
0
ELLIPSE
5
190
100
AcDbEntity
8
1
62
256
6
ByLayer
370
-1
48
1
60
0
100
AcDbEllipse
10
28.244018
20
14.99061
30
0
11
-0.749996658706078
21
-0.00223873395445227
31
0
210
0
220
0
230
1
40
0.016926
41
1.39623813751272
42
1.57077106271214
0
ELLIPSE
5
191
100
AcDbEntity
8
1
62
256
6
ByLayer
370
-1
48
1
60
0
100
AcDbEllipse
10
28.244018
20
14.99061
30
0
11
-0.731869975798782
21
-0.163909543725468
31
0
210
0
220
0
230
1
40
0.016523
41
0.437173922974194
42
1.56712180757178
0
ELLIPSE
5
192
100
AcDbEntity
8
1
62
256
6
ByLayer
370
-1
48
1
60
0
100
AcDbEllipse
10
28.244018
20
14.99061
30
0
11
-0.728560147993158
21
-0.178045249181739
31
0
210
0
220
0
230
1
40
0.024895
41
-1.39718608401701
42
-0.437254995420385
0
ELLIPSE
5
193
100
AcDbEntity
8
1
62
256
6
ByLayer
370
-1
48
1
60
0
100
AcDbEllipse
10
22.392584
20
13.553072
30
0
11
-0.589672763893986
21
5.95673625340893
31
0
210
0
220
0
230
1
40
0.984662
41
-1.42761871034915
42
-1.10945827765447
0
ELLIPSE
5
194
100
AcDbEntity
8
1
62
256
6
ByLayer
370
-1
48
1
60
0
100
AcDbEllipse
10
22.448112
20
13.558568
30
0
11
0.529151094678653
21
-5.34536051553104
31
0
210
0
220
0
230
1
40
0.984662
41
1.71397394324065
42
2.03213437593533
0
ELLIPSE
5
195
100
AcDbEntity
8
1
62
256
6
ByLayer
370
-1
48
1
60
0
100
AcDbEllipse
10
27.512504
20
16.737512
30
0
11
-0.637868808874101
21
-0.39449129605802
31
0
210
0
220
0
230
1
40
0.077665
41
-1.41344291262315
42
-0.453511824026195
0
ELLIPSE
5
196
100
AcDbEntity
8
1
62
256
6
ByLayer
370
-1
48
1
60
0
100
AcDbEllipse
10
24.685461
20
19.672453
30
0
11
0.193564836018629
21
0.0675104011029503
31
0
210
0
220
0
230
1
40
0.346701
41
0.484409122246404
42
1.98151970818365
0
ELLIPSE
5
197
100
AcDbEntity
8
1
62
256
6
ByLayer
370
-1
48
1
60
0
100
AcDbEllipse
10
24.682117
20
19.681983
30
0
11
0.193313961817341
21
0.0682254510170763
31
0
210
0
220
0
230
1
40
0.340496
41
0.483138993595531
42
1.97009628537381
0
ELLIPSE
5
198
100
AcDbEntity
8
1
62
256
6
ByLayer
370
-1
48
1
60
0
100
AcDbEllipse
10
24.435655
20
17.586879
30
0
11
0.0402479264483296
21
0.201010209732267
31
0
210
0
220
0
230
1
40
0.506688
41
1.499940585639
42
2.73040275290682
0
ELLIPSE
5
199
100
AcDbEntity
8
1
62
256
6
ByLayer
370
-1
48
1
60
0
100
AcDbEllipse
10
24.176208
20
17.573234
30
0
11
-0.0673423310881047
21
0.193623372668746
31
0
210
0
220
0
230
1
40
0.421353
41
1.24768327877888
42
2.14521472881765
0
ELLIPSE
5
19A
100
AcDbEntity
8
1
62
256
6
ByLayer
370
-1
48
1
60
0
100
AcDbEllipse
10
22.554915
20
18.062605
30
0
11
-0.0633371763412894
21
-0.194970259509271
31
0
210
0
220
0
230
1
40
0.758553
41
0.436134588316574
42
1.66659675558442
0
ELLIPSE
5
19B
100
AcDbEntity
8
1
62
256
6
ByLayer
370
-1
48
1
60
0
100
AcDbEllipse
10
22.718816
20
17.941875
30
0
11
-0.167732241456936
21
-0.117859641845002
31
0
210
0
220
0
230
1
40
0.644202
41
1.23179492555291
42
2.12932637559167
0
ELLIPSE
5
19C
100
AcDbEntity
8
1
62
256
6
ByLayer
370
-1
48
1
60
0
100
AcDbEllipse
10
26.709469
20
11.647902
30
0
11
0.0699045413981611
21
0.0715077274978921
31
0
210
0
220
0
230
1
40
0.113154
41
-2.1348665075765
42
-1.43673480678007
0
ELLIPSE
5
19D
100
AcDbEntity
8
1
62
256
6
ByLayer
370
-1
48
1
60
0
100
AcDbEllipse
10
27.160485
20
11.206998
30
0
11
-0.0699045413983567
21
-0.0715077274977009
31
0
210
0
220
0
230
1
40
0.113154
41
1.0067261460132
42
1.70485784680941
0
ELLIPSE
5
19E
100
AcDbEntity
8
1
62
256
6
ByLayer
370
-1
48
1
60
0
100
AcDbEllipse
10
26.700632
20
11.787736
30
0
11
0.0923403222557827
21
-0.0383831328280822
31
0
210
0
220
0
230
1
40
0.083505
41
1.41645776164816
42
2.72545470063845
0
ELLIPSE
5
19F
100
AcDbEntity
8
1
62
256
6
ByLayer
370
-1
48
1
60
0
100
AcDbEllipse
10
27.27714
20
11.30268
30
0
11
0.0999995544941437
21
0.000298497860593855
31
0
210
0
220
0
230
1
40
0.016926
41
0.43630704891676
42
1.39623813751333
0
ELLIPSE
5
1A0
100
AcDbEntity
8
1
62
256
6
ByLayer
370
-1
48
1
60
0
100
AcDbEllipse
10
25.126241
20
17.303866
30
0
11
0.0578196889704004
21
0.0815897270945685
31
0
210
0
220
0
230
1
40
0.132591
41
-2.76513106635187
42
-1.45613412735604
0
ELLIPSE
5
1A1
100
AcDbEntity
8
1
62
256
6
ByLayer
370
-1
48
1
60
0
100
AcDbEllipse
10
27.270372
20
13.570141
30
0
11
0.0999995544941437
21
0.000298497860593855
31
0
210
0
220
0
230
1
40
0.016926
41
0.43630704891676
42
1.39623813751258
0
ELLIPSE
5
1A2
100
AcDbEntity
8
1
62
256
6
ByLayer
370
-1
48
1
60
0
100
AcDbEllipse
10
25.060028
20
17.426981
30
0
11
0.0971812891280079
21
-0.0235753482141525
31
0
210
0
220
0
230
1
40
0.058433
41
1.40536616604425
42
2.10349786684229
0
ELLIPSE
5
1A3
100
AcDbEntity
8
1
62
256
6
ByLayer
370
-1
48
1
60
0
100
AcDbEllipse
10
26.547827
20
16.101691
30
0
11
0.0850491745165467
21
0.0525988394744027
31
0
210
0
220
0
230
1
40
0.077665
41
-1.41344291262318
42
-0.453511824023629
0
ELLIPSE
5
1A4
100
AcDbEntity
8
1
62
256
6
ByLayer
370
-1
48
1
60
0
100
AcDbEllipse
10
25.209429
20
18.042835
30
0
11
0.0971812891280079
21
-0.0235753482141525
31
0
210
0
220
0
230
1
40
0.058433
41
1.40536616604387
42
2.10349786684266
0
ELLIPSE
5
1A5
100
AcDbEntity
8
1
62
256
6
ByLayer
370
-1
48
1
60
0
100
AcDbEllipse
10
25.358596
20
18.024607
30
0
11
0.0850491745165467
21
0.0525988394744027
31
0
210
0
220
0
230
1
40
0.077665
41
-1.41344291262318
42
-0.453511824026168
0
ELLIPSE
5
1A6
100
AcDbEntity
8
1
62
256
6
ByLayer
370
-1
48
1
60
0
100
AcDbEllipse
10
17.954597
20
19.186313
30
0
11
-0.0595777300360302
21
-0.192154317219067
31
0
210
0
220
0
230
1
40
0.960584
41
-2.33004026953349
42
-1.37732059259004
0
ELLIPSE
5
1A7
100
AcDbEntity
8
1
62
256
6
ByLayer
370
-1
48
1
60
0
100
AcDbEllipse
10
13.929786
20
19.158437
30
0
11
-0.0512257656543241
21
0.517470695724046
31
0
210
0
220
0
230
1
40
0.984662
41
-1.27356957271195E-05
42
0.426431464100502
0
ELLIPSE
5
1A8
100
AcDbEntity
8
1
62
256
6
ByLayer
370
-1
48
1
60
0
100
AcDbEllipse
10
14.351924
20
15.492007
30
0
11
-0.00514834969177255
21
-0.869332156401292
31
0
210
0
220
0
230
1
40
0.149715
41
-1.72961401623203
42
-1.55508108620767
0
ELLIPSE
5
1A9
100
AcDbEntity
8
1
62
256
6
ByLayer
370
-1
48
1
60
0
100
AcDbEllipse
10
28.41084
20
11.201824
30
0
11
-0.74038380351474
21
-1.29783052840164
31
0
210
0
220
0
230
1
40
0.071516
41
-1.69462957682339
42
-0.56016556302111
0
ELLIPSE
5
1AA
100
AcDbEntity
8
1
62
256
6
ByLayer
370
-1
48
1
60
0
100
AcDbEllipse
10
27.521993
20
9.773754
30
0
11
-0.154370698298697
21
-0.244728101726931
31
0
210
0
220
0
230
1
40
0.105802
41
1.0578641707169
42
2.554974756629
0
ELLIPSE
5
1AB
100
AcDbEntity
8
1
62
256
6
ByLayer
370
-1
48
1
60
0
100
AcDbEllipse
10
27.366069
20
9.408161
30
0
11
-0.155871228008709
21
-0.266908649486768
31
0
210
0
220
0
230
1
40
0.13779
41
-2.1693764744713
42
-1.47124477320112
0
ELLIPSE
5
1AC
100
AcDbEntity
8
1
62
256
6
ByLayer
370
-1
48
1
60
0
100
AcDbEllipse
10
26.434222
20
7.715404
30
0
11
-0.442835045804945
21
-0.764026523447808
31
0
210
0
220
0
230
1
40
0.12071
41
-2.37784691028948
42
-1.48411448579123
0
ELLIPSE
5
1AD
100
AcDbEntity
8
1
62
256
6
ByLayer
370
-1
48
1
60
0
100
AcDbEllipse
10
26.924452
20
8.627474
30
0
11
-0.155871227917223
21
-0.266908649407472
31
0
210
0
220
0
230
1
40
0.13779
41
-1.47124477410792
42
-1.04606846259999
0
ELLIPSE
5
1AE
100
AcDbEntity
8
1
62
256
6
ByLayer
370
-1
48
1
60
0
100
AcDbEllipse
10
17.584245
20
9.581966
30
0
11
-0.746681204356669
21
1.29754494914045
31
0
210
0
220
0
230
1
40
0.079737
41
0.574936535422932
42
1.70940054921568
0
ELLIPSE
5
1AF
100
AcDbEntity
8
1
62
256
6
ByLayer
370
-1
48
1
60
0
100
AcDbEllipse
10
22.44348
20
13.55811
30
0
11
-0.394907160750222
21
3.98925971353589
31
0
210
0
220
0
230
1
40
0.984662
41
0
42
6.28318530717959
0
ELLIPSE
5
1B0
100
AcDbEntity
8
1
62
256
6
ByLayer
370
-1
48
1
60
0
100
AcDbEllipse
10
22.398162
20
13.553624
30
0
11
-0.383286223598372
21
3.87186772620059
31
0
210
0
220
0
230
1
40
0.984662
41
0
42
6.28318530717959
0
ELLIPSE
5
1B1
100
AcDbEntity
8
1
62
256
6
ByLayer
370
-1
48
1
60
0
100
AcDbEllipse
10
29.459637
20
14.66347
30
0
11
-0.203084426046515
21
-0.000603351459769054
31
0
210
0
220
0
230
1
40
0.984667
41
-3.14157881637526
42
-2.18885913943089
0
ELLIPSE
5
1B2
100
AcDbEntity
8
1
62
256
6
ByLayer
370
-1
48
1
60
0
100
AcDbEllipse
10
19.879316
20
6.820895
30
0
11
-0.0833186578326512
21
0.18275620649873
31
0
210
0
220
0
230
1
40
0.958576
41
2.20447064114082
42
-3.12599498910373
0
ELLIPSE
5
1B3
100
AcDbEntity
8
1
62
256
6
ByLayer
370
-1
48
1
60
0
100
AcDbEllipse
10
22.574975
20
13.571127
30
0
11
-0.478749947311717
21
4.83621992075257
31
0
210
0
220
0
230
1
40
0.984662
41
2.52082656649374
42
3.07933192713192
0
ELLIPSE
5
1B4
100
AcDbEntity
8
1
62
256
6
ByLayer
370
-1
48
1
60
0
100
AcDbEllipse
10
18.469996
20
10.607414
30
0
11
-0.283657974686794
21
0.0811316868775305
31
0
210
0
220
0
230
1
40
0.693231
41
-0.558498766330897
42
0.938611819606376
0
ELLIPSE
5
1B5
100
AcDbEntity
8
1
62
256
6
ByLayer
370
-1
48
1
60
0
100
AcDbEllipse
10
22.56951
20
13.570586
30
0
11
0.439414618244503
21
-4.43886363258443
31
0
210
0
220
0
230
1
40
0.984662
41
-1.02267990301876
42
0.339653089464948
0
ELLIPSE
5
1B6
100
AcDbEntity
8
1
62
256
6
ByLayer
370
-1
48
1
60
0
100
AcDbEllipse
10
24.832173
20
8.998129
30
0
11
-0.31620258959889
21
0.0767036367308375
31
0
210
0
220
0
230
1
40
0.628866
41
2.23190931594199
42
-2.55416540530189
0
ELLIPSE
5
1B7
100
AcDbEntity
8
1
62
256
6
ByLayer
370
-1
48
1
60
0
100
AcDbEllipse
10
24.849535
20
8.999847
30
0
11
-0.26343590670052
21
0.0706360774047546
31
0
210
0
220
0
230
1
40
0.384253
41
2.24411311368044
42
-2.54196160755963
0
ELLIPSE
5
1B8
100
AcDbEntity
8
1
62
256
6
ByLayer
370
-1
48
1
60
0
100
AcDbEllipse
10
22.582378
20
13.57186
30
0
11
-0.448930058632324
21
4.53498638438206
31
0
210
0
220
0
230
1
40
0.984662
41
2.1189127505675
42
-2.80193956412485
0
ELLIPSE
5
1B9
100
AcDbEntity
8
1
62
256
6
ByLayer
370
-1
48
1
60
0
100
AcDbEllipse
10
18.487358
20
10.609133
30
0
11
-0.265058776117541
21
0.0639953609485583
31
0
210
0
220
0
230
1
40
0.384441
41
-0.590834750056025
42
0.906275835879868
0
ELLIPSE
5
1BA
100
AcDbEntity
8
1
62
256
6
ByLayer
370
-1
48
1
60
0
100
AcDbEllipse
10
22.582378
20
13.57186
30
0
11
0.470680391416388
21
-4.75470315570218
31
0
210
0
220
0
230
1
40
0.984662
41
-0.620766087096062
42
-0.0622607264578727
0
ELLIPSE
5
1BB
100
AcDbEntity
8
1
62
256
6
ByLayer
370
-1
48
1
60
0
100
AcDbEllipse
10
22.73456
20
12.714637
30
0
11
-3.72864873797575
21
3.0830063396507
31
0
210
0
220
0
230
1
40
0.85683
41
1.0371086884327
42
1.17501783807629
0
ELLIPSE
5
1BC
100
AcDbEntity
8
1
62
256
6
ByLayer
370
-1
48
1
60
0
100
AcDbEllipse
10
23.094358
20
14.197778
30
0
11
-4.38136132546865
21
-2.46862494224237
31
0
210
0
220
0
230
1
40
0.85965
41
1.80944139858804
42
1.94735054767062
0
ELLIPSE
5
1BD
100
AcDbEntity
8
1
62
256
6
ByLayer
370
-1
48
1
60
0
100
AcDbEllipse
10
21.890516
20
12.928134
30
0
11
-1.68068884507667
21
4.16587691258853
31
0
210
0
220
0
230
1
40
0.858326
41
-2.80029230480503
42
-2.66238315510743
0
ELLIPSE
5
1BE
100
AcDbEntity
8
1
62
256
6
ByLayer
370
-1
48
1
60
0
100
AcDbEllipse
10
26.79313
20
8.616417
30
0
11
-0.736795584545355
21
0.126292055735336
31
0
210
0
220
0
230
1
40
0.444628
41
1.31058982371606
42
1.32317435088798
0
ELLIPSE
5
1BF
100
AcDbEntity
8
1
62
256
6
ByLayer
370
-1
48
1
60
0
100
AcDbEllipse
10
26.766397
20
8.782165
30
0
11
-0.618254772039398
21
0.308657868884083
31
0
210
0
220
0
230
1
40
0.323741
41
1.52740100127574
42
1.53998494725689
0
ELLIPSE
5
1C0
100
AcDbEntity
8
1
62
256
6
ByLayer
370
-1
48
1
60
0
100
AcDbEllipse
10
22.44348
20
13.55811
30
0
11
0.40475826952995
21
-4.08877330886744
31
0
210
0
220
0
230
1
40
0.984662
41
0.812343246261414
42
2.69342014497103
0
ELLIPSE
5
1C1
100
AcDbEntity
8
1
62
256
6
ByLayer
370
-1
48
1
60
0
100
AcDbEllipse
10
22.44348
20
13.55811
30
0
11
0.40475826952995
21
-4.08877330886744
31
0
210
0
220
0
230
1
40
0.984662
41
-1.28205185613178
42
0.599025042577847
0
ELLIPSE
5
1C2
100
AcDbEntity
8
1
62
256
6
ByLayer
370
-1
48
1
60
0
100
AcDbEllipse
10
22.469861
20
13.560721
30
0
11
0.424264922325093
21
-4.28582495005256
31
0
210
0
220
0
230
1
40
0.984662
41
0.925749631696787
42
2.58001375953567
0
ELLIPSE
5
1C3
100
AcDbEntity
8
1
62
256
6
ByLayer
370
-1
48
1
60
0
100
AcDbEllipse
10
22.469861
20
13.560721
30
0
11
0.424264922325093
21
-4.28582495005256
31
0
210
0
220
0
230
1
40
0.984662
41
-1.16864547069641
42
0.485618657142471
0
ELLIPSE
5
1C4
100
AcDbEntity
8
1
62
256
6
ByLayer
370
-1
48
1
60
0
100
AcDbEllipse
10
19.604766
20
8.399665
30
0
11
0.378778588461341
21
0.647322779549147
31
0
210
0
220
0
230
1
40
0.141921
41
0.713566021927812
42
1.84803003572419
0
ELLIPSE
5
1C5
100
AcDbEntity
8
1
62
256
6
ByLayer
370
-1
48
1
60
0
100
AcDbEllipse
10
22.538738
20
14.148101
30
0
11
-2.25120813043133
21
6.42152965248149
31
0
210
0
220
0
230
1
40
0.960139
41
2.29511388886527
42
2.50763320689994
0
ELLIPSE
5
1C6
100
AcDbEntity
8
1
62
256
6
ByLayer
370
-1
48
1
60
0
100
AcDbEllipse
10
20.892436
20
7.819489
30
0
11
0.378778588461341
21
0.647322779549147
31
0
210
0
220
0
230
1
40
0.141921
41
1.67349711052475
42
1.84803003572415
0
ELLIPSE
5
1C7
100
AcDbEntity
8
1
62
256
6
ByLayer
370
-1
48
1
60
0
100
AcDbEllipse
10
20.892436
20
7.819489
30
0
11
0.233290113116998
21
0.712794306319753
31
0
210
0
220
0
230
1
40
0.196995
41
0.681804793544264
42
1.81175267814247
0
ELLIPSE
5
1C8
100
AcDbEntity
8
1
62
256
6
ByLayer
370
-1
48
1
60
0
100
AcDbEllipse
10
20.892436
20
7.819489
30
0
11
0.212385396647188
21
0.719299967531639
31
0
210
0
220
0
230
1
40
0.161998
41
0.676562815569574
42
1.63649390416653
0
ELLIPSE
5
1C9
100
AcDbEntity
8
1
62
256
6
ByLayer
370
-1
48
1
60
0
100
AcDbEllipse
10
22.392584
20
13.553072
30
0
11
-0.589672763893986
21
5.95673625340893
31
0
210
0
220
0
230
1
40
0.984662
41
2.76117149443724
42
3.07933192713191
0
ELLIPSE
5
1CA
100
AcDbEntity
8
1
62
256
6
ByLayer
370
-1
48
1
60
0
100
AcDbEllipse
10
22.448112
20
13.558568
30
0
11
0.529151094678653
21
-5.34536051553104
31
0
210
0
220
0
230
1
40
0.984662
41
-0.380421159152549
42
-0.0622607264578715
0
ELLIPSE
5
1CB
100
AcDbEntity
8
1
62
256
6
ByLayer
370
-1
48
1
60
0
100
AcDbEllipse
10
22.746385
20
7.58464
30
0
11
-0.0265767931705938
21
0.749528968129163
31
0
210
0
220
0
230
1
40
0.174133
41
0.62188957121428
42
1.58182065981105
0
ELLIPSE
5
1CC
100
AcDbEntity
8
1
62
256
6
ByLayer
370
-1
48
1
60
0
100
AcDbEllipse
10
26.522617
20
8.498116
30
0
11
-0.0581462248231533
21
-0.196580814269387
31
0
210
0
220
0
230
1
40
0.525366
41
0.739898180572196
42
2.23700876650966
0
ELLIPSE
5
1CD
100
AcDbEntity
8
1
62
256
6
ByLayer
370
-1
48
1
60
0
100
AcDbEllipse
10
26.531414
20
8.495542
30
0
11
-0.0569865995697252
21
-0.196920104279578
31
0
210
0
220
0
230
1
40
0.520662
41
0.736815573718542
42
2.22377286549655
0
ELLIPSE
5
1CE
100
AcDbEntity
8
1
62
256
6
ByLayer
370
-1
48
1
60
0
100
AcDbEllipse
10
24.913429
20
9.79917
30
0
11
0.164065786984748
21
-0.122912235115448
31
0
210
0
220
0
230
1
40
0.73407
41
1.39775006092687
42
2.62821222819482
0
ELLIPSE
5
1CF
100
AcDbEntity
8
1
62
256
6
ByLayer
370
-1
48
1
60
0
100
AcDbEllipse
10
24.985268
20
10.000998
30
0
11
0.204832711838611
21
-0.00828010633025967
31
0
210
0
220
0
230
1
40
0.597289
41
0.986412609208328
42
1.88394405924706
0
ELLIPSE
5
1D0
100
AcDbEntity
8
1
62
256
6
ByLayer
370
-1
48
1
60
0
100
AcDbEllipse
10
26.254658
20
11.21371
30
0
11
-0.135060805906662
21
0.154219255308288
31
0
210
0
220
0
230
1
40
0.530608
41
0.477477109125123
42
1.70793927639321
0
ELLIPSE
5
1D1
100
AcDbEntity
8
1
62
256
6
ByLayer
370
-1
48
1
60
0
100
AcDbEllipse
10
26.024591
20
11.097129
30
0
11
-0.0391603218264086
21
0.201224921901966
31
0
210
0
220
0
230
1
40
0.417266
41
1.06581627605482
42
1.96334772609355
0
ELLIPSE
5
1D2
100
AcDbEntity
8
1
62
256
6
ByLayer
370
-1
48
1
60
0
100
AcDbEllipse
10
18.863993
20
10.892273
30
0
11
0.0279745547184144
21
-0.0960074178816743
31
0
210
0
220
0
230
1
40
0.171587
41
1.53872182381463
42
2.23685352461266
0
ELLIPSE
5
1D3
100
AcDbEntity
8
1
62
256
6
ByLayer
370
-1
48
1
60
0
100
AcDbEllipse
10
18.263576
20
10.717324
30
0
11
-0.0279745547181563
21
0.0960074178817496
31
0
210
0
220
0
230
1
40
0.171587
41
-1.60287082977484
42
-0.904739128978752
0
ELLIPSE
5
1D4
100
AcDbEntity
8
1
62
256
6
ByLayer
370
-1
48
1
60
0
100
AcDbEllipse
10
18.987667
20
10.82976
30
0
11
-0.0802132941343311
21
-0.0597145496853094
31
0
210
0
220
0
230
1
40
0.090914
41
1.72089095133533
42
3.02988789032757
0
ELLIPSE
5
1D5
100
AcDbEntity
8
1
62
256
6
ByLayer
370
-1
48
1
60
0
100
AcDbEllipse
10
18.287172
20
10.566663
30
0
11
-0.0505038117948442
21
-0.0863097039398871
31
0
210
0
220
0
230
1
40
0.141921
41
0.713566021928376
42
1.6734971105244
0
ELLIPSE
5
1D6
100
AcDbEntity
8
1
62
256
6
ByLayer
370
-1
48
1
60
0
100
AcDbEllipse
10
24.476002
20
9.441509
30
0
11
0.0428840397794479
21
-0.0903380270550267
31
0
210
0
220
0
230
1
40
0.164504
41
1.51183251964742
42
2.82082945864309
0
ELLIPSE
5
1D7
100
AcDbEntity
8
1
62
256
6
ByLayer
370
-1
48
1
60
0
100
AcDbEllipse
10
20.224688
20
9.432932
30
0
11
-0.0505038117948442
21
-0.0863097039398871
31
0
210
0
220
0
230
1
40
0.141921
41
0.713566021928212
42
1.67349711052461
0
ELLIPSE
5
1D8
100
AcDbEntity
8
1
62
256
6
ByLayer
370
-1
48
1
60
0
100
AcDbEllipse
10
24.613952
20
9.437846
30
0
11
-0.0699045413983567
21
-0.0715077274977009
31
0
210
0
220
0
230
1
40
0.113154
41
1.7048578468098
42
2.40298954760718
0
ELLIPSE
5
1D9
100
AcDbEntity
8
1
62
256
6
ByLayer
370
-1
48
1
60
0
100
AcDbEllipse
10
22.743482
20
8.795814
30
0
11
0.00354357242273311
21
-0.0999371957505555
31
0
210
0
220
0
230
1
40
0.174133
41
0.621889571216429
42
1.58182065981104
0
ELLIPSE
5
1DA
100
AcDbEntity
8
1
62
256
6
ByLayer
370
-1
48
1
60
0
100
AcDbEllipse
10
25.064968
20
8.996941
30
0
11
-0.0699045413983567
21
-0.0715077274977009
31
0
210
0
220
0
230
1
40
0.113154
41
1.70485784680969
42
2.40298954760784
0
ELLIPSE
5
1DB
100
AcDbEntity
8
1
62
256
6
ByLayer
370
-1
48
1
60
0
100
AcDbEllipse
10
24.975228
20
8.874947
30
0
11
0.00354357242273311
21
-0.0999371957505555
31
0
210
0
220
0
230
1
40
0.174133
41
0.621889571215186
42
1.58182065981108
0
ELLIPSE
5
1DC
100
AcDbEntity
8
1
62
256
6
ByLayer
370
-1
48
1
60
0
100
AcDbEllipse
10
14.835964
20
19.22703
30
0
11
-0.154902098000485
21
-0.499601224811688
31
0
210
0
220
0
230
1
40
0.960584
41
-2.33004026971794
42
-1.28949687604882
0
ELLIPSE
5
1DD
100
AcDbEntity
8
1
62
256
6
ByLayer
370
-1
48
1
60
0
100
AcDbEllipse
10
20.498941
20
3.953277
30
0
11
-0.0512257656543241
21
0.517470695724046
31
0
210
0
220
0
230
1
40
0.984662
41
1.48028317282342
42
2.52082656649369
0
ELLIPSE
5
1DE
100
AcDbEntity
8
1
62
256
6
ByLayer
370
-1
48
1
60
0
100
AcDbEllipse
10
24.986764
20
5.423708
30
0
11
-0.753883228261263
21
-0.427274538645915
31
0
210
0
220
0
230
1
40
0.061745
41
-1.43228535133359
42
-1.25775242464431
0
ELLIPSE
5
1DF
100
AcDbEntity
8
1
62
256
6
ByLayer
370
-1
48
1
60
0
100
AcDbEllipse
10
18.980095
20
6.731878
30
0
11
-0.0197022175593556
21
0.199027190663096
31
0
210
0
220
0
230
1
40
0.984662
41
2.72111941250975
42
3.14157888877633
0
ELLIPSE
5
1E0
100
AcDbEntity
8
1
62
256
6
ByLayer
370
-1
48
1
60
0
100
AcDbEllipse
10
21.491758
20
4.02187
30
0
11
-0.21662851029804
21
0.47516613694335
31
0
210
0
220
0
230
1
40
0.958576
41
2.20447064130239
42
-3.03817127220896
0
ELLIPSE
5
1E1
100
AcDbEntity
8
1
62
256
6
ByLayer
370
-1
48
1
60
0
100
AcDbEllipse
10
17.055376
20
19.097297
30
0
11
-0.0197022175593556
21
0.199027190663096
31
0
210
0
220
0
230
1
40
0.984662
41
0.42643146410054
42
1.37915114102269
0
ELLIPSE
5
1E2
100
AcDbEntity
8
1
62
256
6
ByLayer
370
-1
48
1
60
0
100
AcDbEllipse
10
14.879207
20
19.252423
30
0
11
-0.154902098007346
21
-0.49960122480827
31
0
210
0
220
0
230
1
40
0.960584
41
2.91260164380481
42
-2.33004026970375
0
ELLIPSE
5
1E3
100
AcDbEntity
8
1
62
256
6
ByLayer
370
-1
48
1
60
0
100
AcDbEllipse
10
13.886542
20
19.133044
30
0
11
-0.0512257656543241
21
0.517470695724046
31
0
210
0
220
0
230
1
40
0.984662
41
0.426431464100502
42
1.46697485777089
0
ELLIPSE
5
1E4
100
AcDbEntity
8
1
62
256
6
ByLayer
370
-1
48
1
60
0
100
AcDbEllipse
10
17.485473
20
18.918649
30
0
11
-0.0744721625143916
21
-0.240192896537509
31
0
210
0
220
0
230
1
40
0.960584
41
0.8115523839298
42
1.76427206085866
0
ELLIPSE
5
1E5
100
AcDbEntity
8
1
62
256
6
ByLayer
370
-1
48
1
60
0
100
AcDbEllipse
10
16.586042
20
18.829612
30
0
11
0.0246277719491972
21
-0.248783988328868
31
0
210
0
220
0
230
1
40
0.984662
41
0.977951918309059
42
1.37915114102265
0
ELLIPSE
5
1E6
100
AcDbEntity
8
1
62
256
6
ByLayer
370
-1
48
1
60
0
100
AcDbEllipse
10
17.212447
20
18.758329
30
0
11
-0.0744721624820441
21
-0.240192896555093
31
0
210
0
220
0
230
1
40
0.960584
41
-0.228991009874711
42
0.811552383783592
0
ELLIPSE
5
1E7
100
AcDbEntity
8
1
62
256
6
ByLayer
370
-1
48
1
60
0
100
AcDbEllipse
10
26.436612
20
7.596774
30
0
11
-0.0585690370699424
21
0.597134547565873
31
0
210
0
220
0
230
1
40
0.984665
41
3.04531189936414
42
-3.14159150847987
0
ELLIPSE
5
1E8
100
AcDbEntity
8
1
62
256
6
ByLayer
370
-1
48
1
60
0
100
AcDbEllipse
10
19.696104
20
4.197267
30
0
11
-0.0976150617832374
21
0.995224245943122
31
0
210
0
220
0
230
1
40
0.984665
41
2.64202029075126
42
3.04531189936416
0
ELLIPSE
5
1E9
100
AcDbEntity
8
1
62
256
6
ByLayer
370
-1
48
1
60
0
100
AcDbEllipse
10
21.81807
20
4.197267
30
0
11
-0.0976150617832374
21
0.995224245943122
31
0
210
0
220
0
230
1
40
0.984665
41
3.04531189936419
42
-3.14158846175817
0
ELLIPSE
5
1EA
100
AcDbEntity
8
1
62
256
6
ByLayer
370
-1
48
1
60
0
100
AcDbEllipse
10
27.745917
20
9.324204
30
0
11
3.67381906146713E-17
21
0.599999999999999
31
0
210
0
220
0
230
1
40
0.173648
41
-1.55609306079292
42
-0.727061666095419
0
ELLIPSE
5
1EB
100
AcDbEntity
8
1
62
256
6
ByLayer
370
-1
48
1
60
0
100
AcDbEllipse
10
27.746206
20
9.210723
30
0
11
3.67381906146713E-17
21
0.599999999999999
31
0
210
0
220
0
230
1
40
0.173648
41
-2.38512445549021
42
-1.55609306079292
0
ELLIPSE
5
1EC
100
AcDbEntity
8
1
62
256
6
ByLayer
370
-1
48
1
60
0
100
AcDbEllipse
10
27.460163
20
10.956159
30
0
11
1.83690953073357E-16
21
3
31
0
210
0
220
0
230
1
40
0.173648
41
-2.55965738068964
42
-2.3851244554902
0
ELLIPSE
5
1ED
100
AcDbEntity
8
1
62
256
6
ByLayer
370
-1
48
1
60
0
100
AcDbEllipse
10
22.537694
20
4.267851
30
0
11
-0.0843626025585145
21
0.996437820110053
31
0
210
0
220
0
230
1
40
0.984699
41
3.05841628187003
42
-1.65397269851557
0
ELLIPSE
5
1EE
100
AcDbEntity
8
1
62
256
6
ByLayer
370
-1
48
1
60
0
100
AcDbEllipse
10
27.755993
20
10.21237
30
0
11
9.18454765366783E-18
21
0.15
31
0
210
0
220
0
230
1
40
0.173648
41
2.15016447796863
42
2.58906391269355
0
ELLIPSE
5
1EF
100
AcDbEntity
8
1
62
256
6
ByLayer
370
-1
48
1
60
0
100
AcDbEllipse
10
27.157609
20
7.667492
30
0
11
-0.0506175614879885
21
0.597862692068054
31
0
210
0
220
0
230
1
40
0.984699
41
3.05841628194701
42
-1.6539726984352
0
ELLIPSE
5
1F0
100
AcDbEntity
8
1
62
256
6
ByLayer
370
-1
48
1
60
0
100
AcDbEllipse
10
20.415728
20
4.267851
30
0
11
-0.0843626078754199
21
0.996437818436072
31
0
210
0
220
0
230
1
40
0.984699
41
2.91468119324644
42
3.05841627646375
0
ELLIPSE
5
1F1
100
AcDbEntity
8
1
62
256
6
ByLayer
370
-1
48
1
60
0
100
AcDbEllipse
10
27.760813
20
8.324647
30
0
11
9.18454765366783E-18
21
0.15
31
0
210
0
220
0
230
1
40
0.173648
41
0.581935272900151
42
2.58906391269355
0
ELLIPSE
5
1F2
100
AcDbEntity
8
1
62
256
6
ByLayer
370
-1
48
1
60
0
100
AcDbEllipse
10
27.468909
20
7.53109
30
0
11
1.83690953073357E-16
21
3
31
0
210
0
220
0
230
1
40
0.173648
41
-0.727061666095622
42
-0.552528740896167
0
ELLIPSE
5
1F3
100
AcDbEntity
8
1
62
256
6
ByLayer
370
-1
48
1
60
0
100
AcDbEllipse
10
22.876434
20
4.509205
30
0
11
-4.85074540949321
21
-0.827581472919334
31
0
210
0
220
0
230
1
40
0.190838
41
0.713521195097954
42
0.973077720537816
0
ELLIPSE
5
1F4
100
AcDbEntity
8
1
62
256
6
ByLayer
370
-1
48
1
60
0
100
AcDbEllipse
10
22.538487
20
13.567515
30
0
11
0.193919076327981
21
-1.95892512410153
31
0
210
0
220
0
230
1
40
0.984662
41
1.47362901529713
42
2.51416949490072
0
ELLIPSE
5
1F5
100
AcDbEntity
8
1
62
256
6
ByLayer
370
-1
48
1
60
0
100
AcDbEllipse
10
22.260691
20
13.540015
30
0
11
-0.139491700320238
21
1.40911250989473
31
0
210
0
220
0
230
1
40
0.984662
41
-2.18823387809445
42
-1.14769339849084
0
ELLIPSE
5
1F6
100
AcDbEntity
8
1
62
256
6
ByLayer
370
-1
48
1
60
0
100
AcDbEllipse
10
22.483104
20
13.562032
30
0
11
0.139491700320254
21
-1.40911250989472
31
0
210
0
220
0
230
1
40
0.984662
41
2.93634691015981
42
-3.13068153315541
0
ELLIPSE
5
1F7
100
AcDbEntity
8
1
62
256
6
ByLayer
370
-1
48
1
60
0
100
AcDbEllipse
10
22.260691
20
13.540015
30
0
11
-0.139491700320238
21
1.40911250989473
31
0
210
0
220
0
230
1
40
0.984662
41
1.1775304092121
42
1.71231938458147
0
ELLIPSE
5
1F8
100
AcDbEntity
8
1
62
256
6
ByLayer
370
-1
48
1
60
0
100
AcDbEllipse
10
22.260691
20
13.540015
30
0
11
0.139491700320255
21
-1.40911250989473
31
0
210
0
220
0
230
1
40
0.984662
41
-3.13068153315541
42
-2.56054477153627
0
ELLIPSE
5
1F9
100
AcDbEntity
8
1
62
256
6
ByLayer
370
-1
48
1
60
0
100
AcDbEllipse
10
22.538487
20
13.567515
30
0
11
0.193919076327981
21
-1.95892512410153
31
0
210
0
220
0
230
1
40
0.984662
41
2.51416949490072
42
-2.70850411789629
0
ELLIPSE
5
1FA
100
AcDbEntity
8
1
62
256
6
ByLayer
370
-1
48
1
60
0
100
AcDbEllipse
10
21.448821
20
12.126726
30
0
11
-0.0325086589729364
21
0.328394864594106
31
0
210
0
220
0
230
1
40
0.984662
41
-2.68961876492341
42
-2.43948678553514
0
ELLIPSE
5
1FB
100
AcDbEntity
8
1
62
256
6
ByLayer
370
-1
48
1
60
0
100
AcDbEllipse
10
22.538487
20
13.567515
30
0
11
0.193919076327981
21
-1.95892512410153
31
0
210
0
220
0
230
1
40
0.984662
41
-0.627423158689014
42
0.433088535693576
0
ELLIPSE
5
1FC
100
AcDbEntity
8
1
62
256
6
ByLayer
370
-1
48
1
60
0
100
AcDbEllipse
10
21.440384
20
14.953304
30
0
11
-0.0325086589729364
21
0.328394864594106
31
0
210
0
220
0
230
1
40
0.984662
41
-0.896440491049858
42
-0.466946123866491
0
ELLIPSE
5
1FD
100
AcDbEntity
8
1
62
256
6
ByLayer
370
-1
48
1
60
0
100
AcDbEllipse
10
22.254067
20
15.75918
30
0
11
-0.0813701585201376
21
0.821982297438581
31
0
210
0
220
0
230
1
40
0.984662
41
2.24515216253978
42
2.85843812004656
0
ELLIPSE
5
1FE
100
AcDbEntity
8
1
62
256
6
ByLayer
370
-1
48
1
60
0
100
AcDbEllipse
10
23.072561
20
14.953304
30
0
11
-0.0325086589729364
21
0.328394864594106
31
0
210
0
220
0
230
1
40
0.984662
41
-1.9295584657977
42
-0.422767543732043
0
ELLIPSE
5
1FF
100
AcDbEntity
8
1
62
256
6
ByLayer
370
-1
48
1
60
0
100
AcDbEllipse
10
22.260691
20
13.540015
30
0
11
-0.139491700320238
21
1.40911250989473
31
0
210
0
220
0
230
1
40
0.984662
41
-2.9728213398439
42
-2.18823387809445
0
ELLIPSE
5
200
100
AcDbEntity
8
1
62
256
6
ByLayer
370
-1
48
1
60
0
100
AcDbEllipse
10
22.483104
20
13.562032
30
0
11
0.139491700320254
21
-1.40911250989472
31
0
210
0
220
0
230
1
40
0.984662
41
-0.205245743429798
42
0.0109111204343644
0
ELLIPSE
5
201
100
AcDbEntity
8
1
62
256
6
ByLayer
370
-1
48
1
60
0
100
AcDbEllipse
10
22.538487
20
13.567515
30
0
11
0.193919076327981
21
-1.95892512410153
31
0
210
0
220
0
230
1
40
0.984662
41
0.433088535693576
42
1.47362901529713
0
ELLIPSE
5
202
100
AcDbEntity
8
1
62
256
6
ByLayer
370
-1
48
1
60
0
100
AcDbEllipse
10
24.17316
20
14.654382
30
0
11
-0.0813701585201376
21
0.821982297438581
31
0
210
0
220
0
230
1
40
0.984662
41
1.99389925509891
42
2.77576432240584
0
ELLIPSE
5
203
100
AcDbEntity
8
1
62
256
6
ByLayer
370
-1
48
1
60
0
100
AcDbEllipse
10
24.179813
20
12.425649
30
0
11
-0.0813701585201376
21
0.821982297438581
31
0
210
0
220
0
230
1
40
0.984662
41
0.953358775495315
42
1.73522384280217
0
ELLIPSE
5
204
100
AcDbEntity
8
1
62
256
6
ByLayer
370
-1
48
1
60
0
100
AcDbEllipse
10
22.538487
20
13.567515
30
0
11
0.193919076327981
21
-1.95892512410153
31
0
210
0
220
0
230
1
40
0.984662
41
-2.70850411789629
42
-1.66796363829266
0
ELLIPSE
5
205
100
AcDbEntity
8
1
62
256
6
ByLayer
370
-1
48
1
60
0
100
AcDbEllipse
10
22.267315
20
11.32085
30
0
11
-0.0813701585201376
21
0.821982297438581
31
0
210
0
220
0
230
1
40
0.984662
41
0.0888199105475802
42
0.702105868054422
0
ELLIPSE
5
206
100
AcDbEntity
8
1
62
256
6
ByLayer
370
-1
48
1
60
0
100
AcDbEllipse
10
22.260691
20
13.540015
30
0
11
-0.139491700320238
21
1.40911250989473
31
0
210
0
220
0
230
1
40
0.984662
41
-1.14769339849084
42
-0.205245743429964
0
ELLIPSE
5
207
100
AcDbEntity
8
1
62
256
6
ByLayer
370
-1
48
1
60
0
100
AcDbEllipse
10
22.538487
20
13.567515
30
0
11
0.193919076327981
21
-1.95892512410153
31
0
210
0
220
0
230
1
40
0.984662
41
-1.66796363829266
42
-0.627423158689014
0
ELLIPSE
5
208
100
AcDbEntity
8
1
62
256
6
ByLayer
370
-1
48
1
60
0
100
AcDbEllipse
10
22.260691
20
13.540015
30
0
11
0.139491700320255
21
-1.40911250989473
31
0
210
0
220
0
230
1
40
0.984662
41
2.93634691015983
42
-3.13068153315541
0
ELLIPSE
5
209
100
AcDbEntity
8
1
62
256
6
ByLayer
370
-1
48
1
60
0
100
AcDbEllipse
10
22.260691
20
13.540015
30
0
11
-0.139491700320238
21
1.40911250989473
31
0
210
0
220
0
230
1
40
0.984662
41
2.3692440139747
42
2.93634691015998
0
ELLIPSE
5
20A
100
AcDbEntity
8
1
62
256
6
ByLayer
370
-1
48
1
60
0
100
AcDbEllipse
10
24.17316
20
14.654382
30
0
11
-0.0813701585201376
21
0.821982297438581
31
0
210
0
220
0
230
1
40
0.984662
41
1.21203418779204
42
1.99389925509891
0
ELLIPSE
5
20B
100
AcDbEntity
8
1
62
256
6
ByLayer
370
-1
48
1
60
0
100
AcDbEllipse
10
23.874298
20
13.540015
30
0
11
-0.0325086589729364
21
0.328394864594106
31
0
210
0
220
0
230
1
40
0.984662
41
-2.97009894540136
42
-0.365828331183738
0
ELLIPSE
5
20C
100
AcDbEntity
8
1
62
256
6
ByLayer
370
-1
48
1
60
0
100
AcDbEllipse
10
24.179813
20
12.425649
30
0
11
-0.0813701585201376
21
0.821982297438581
31
0
210
0
220
0
230
1
40
0.984662
41
0.171493708188403
42
0.953358775495315
0
ELLIPSE
5
20D
100
AcDbEntity
8
1
62
256
6
ByLayer
370
-1
48
1
60
0
100
AcDbEllipse
10
23.080998
20
12.126726
30
0
11
-0.0325086589729364
21
0.328394864594106
31
0
210
0
220
0
230
1
40
0.984662
41
-2.72257122584913
42
-1.40636881078766
0
ELLIPSE
5
20E
100
AcDbEntity
8
1
62
256
6
ByLayer
370
-1
48
1
60
0
100
AcDbEllipse
10
13.367226
20
19.740797
30
0
11
1.96849965818198
21
-0.00116005943423579
31
0
210
0
220
0
230
1
40
0.053469
41
-0.431714908544337
42
-0.371469425605577
0
ELLIPSE
5
20F
100
AcDbEntity
8
1
62
256
6
ByLayer
370
-1
48
1
60
0
100
AcDbEllipse
10
13.367226
20
19.740797
30
0
11
1.96849965818198
21
-0.00116005943423579
31
0
210
0
220
0
230
1
40
0.053469
41
-1.41810433803263
42
-1.38621067432388
0
ELLIPSE
5
210
100
AcDbEntity
8
1
62
256
6
ByLayer
370
-1
48
1
60
0
100
AcDbEllipse
10
13.367226
20
19.740797
30
0
11
1.96849965818198
21
-0.00116005943423579
31
0
210
0
220
0
230
1
40
0.053469
41
2.77012322798422
42
-2.46586452799877
0
ELLIPSE
5
211
100
AcDbEntity
8
1
62
256
6
ByLayer
370
-1
48
1
60
0
100
AcDbEllipse
10
13.367226
20
19.740797
30
0
11
1.96849965818198
21
-0.00116005943423579
31
0
210
0
220
0
230
1
40
0.053469
41
0.675728125591019
42
1.7229256767878
0
ELLIPSE
5
212
100
AcDbEntity
8
1
62
256
6
ByLayer
370
-1
48
1
60
0
100
AcDbEllipse
10
13.367226
20
19.740797
30
0
11
1.96849965818198
21
-0.00116005943423579
31
0
210
0
220
0
230
1
40
0.053469
41
1.7229256767878
42
2.77012322798422
0
ELLIPSE
5
213
100
AcDbEntity
8
1
62
256
6
ByLayer
370
-1
48
1
60
0
100
AcDbEllipse
10
13.367226
20
19.740797
30
0
11
1.96849965818198
21
-0.00116005943423579
31
0
210
0
220
0
230
1
40
0.053469
41
-2.46586452799877
42
-1.41866697680203
0
ELLIPSE
5
214
100
AcDbEntity
8
1
62
256
6
ByLayer
370
-1
48
1
60
0
100
AcDbEllipse
10
13.367226
20
19.740797
30
0
11
1.96849965818198
21
-0.00116005943423579
31
0
210
0
220
0
230
1
40
0.053469
41
-0.371469425605577
42
0.67572812559102
0
ELLIPSE
5
215
100
AcDbEntity
8
1
62
256
6
ByLayer
370
-1
48
1
60
0
100
AcDbEllipse
10
13.366459
20
18.442657
30
0
11
-4.17499927503647
21
0.00246037497479773
31
0
210
0
220
0
230
1
40
0.053469
41
1.29719319929951
42
1.57187618182224
0
ELLIPSE
5
216
100
AcDbEntity
8
1
62
256
6
ByLayer
370
-1
48
1
60
0
100
AcDbEllipse
10
13.367226
20
19.740797
30
0
11
-2.14999962666547
21
0.00126701944809942
31
0
210
0
220
0
230
1
40
0.053469
41
-1.57127429100328
42
0
0
ELLIPSE
5
217
100
AcDbEntity
8
1
62
256
6
ByLayer
370
-1
48
1
60
0
100
AcDbEllipse
10
13.367226
20
19.740797
30
0
11
-2.14999962666547
21
0.00126701944809942
31
0
210
0
220
0
230
1
40
0.053469
41
0
42
1.72930696271008
0
ELLIPSE
5
218
100
AcDbEntity
8
1
62
256
6
ByLayer
370
-1
48
1
60
0
100
AcDbEllipse
10
13.367226
20
19.740797
30
0
11
-2.14999962666547
21
0.00126701944809942
31
0
210
0
220
0
230
1
40
0.053469
41
2.57757392756497
42
-1.57127382588688
0
ELLIPSE
5
219
100
AcDbEntity
8
1
62
256
6
ByLayer
370
-1
48
1
60
0
100
AcDbEllipse
10
22.33014
20
13.54689
30
0
11
0.352177138873518
21
-3.55761103310279
31
0
210
0
220
0
230
1
40
0.984662
41
-3.14154131716747
42
-0.10019792869629
0
ELLIPSE
5
21A
100
AcDbEntity
8
1
62
256
6
ByLayer
370
-1
48
1
60
0
100
AcDbEllipse
10
22.33014
20
13.54689
30
0
11
0.352177138873518
21
-3.55761103310279
31
0
210
0
220
0
230
1
40
0.984662
41
-0.100197928696284
42
0
0
ELLIPSE
5
21B
100
AcDbEntity
8
1
62
256
6
ByLayer
370
-1
48
1
60
0
100
AcDbEllipse
10
22.456061
20
13.559355
30
0
11
0.352177138873518
21
-3.55761103310279
31
0
210
0
220
0
230
1
40
0.984662
41
0
42
6.28318530717959
0
ELLIPSE
5
21C
100
AcDbEntity
8
1
62
256
6
ByLayer
370
-1
48
1
60
0
100
AcDbEllipse
10
22.538487
20
13.567515
30
0
11
0.236426610712292
21
-2.38832628795712
31
0
210
0
220
0
230
1
40
0.984662
41
0
42
6.28318530717959
0
POINT
5
41
100
AcDbEntity
8
80
62
256
6
ByLayer
370
-1
48
1
60
0
100
AcDbPoint
10
0
20
0
30
0
39
0
210
0
220
0
230
1
50
360
0
POINT
5
43
100
AcDbEntity
8
81
62
256
6
ByLayer
370
-1
48
1
60
0
100
AcDbPoint
10
33.309782
20
19.9125
30
0
39
0
210
0
220
0
230
1
50
360
0
POINT
5
45
100
AcDbEntity
8
2
62
256
6
ByLayer
370
-1
48
1
60
0
100
AcDbPoint
10
33.309782
20
19.9125
30
0
39
0
210
0
220
0
230
1
50
360
0
SPLINE
5
21D
100
AcDbEntity
8
1
62
256
6
ByLayer
370
-1
48
1
60
0
100
AcDbSpline
70
4
71
3
72
14
73
10
40
0
40
0
40
0
40
0
40
0.250000000918014
40
0.250000000918014
40
0.500000001754078
40
0.500000001754078
40
0.900000296227018
40
0.900000296227018
40
1
40
1
40
1
40
1
41
1
10
0.0008126953869407
20
-12.4112809299446
30
0
41
1
10
0.0008942634738105
20
-12.4112809933162
30
0
41
1
10
0.0009758315609929
20
-12.4112810563285
30
0
41
1
10
0.0011389677351303
20
-12.4112811825465
30
0
41
1
10
0.0012205358221991
20
-12.4112812456282
30
0
41
1
10
0.0014326129443134
20
-12.4112814095717
30
0
41
1
10
0.001563121979359
20
-12.4112815104104
30
0
41
1
10
0.0017262581526154
20
-12.4112816363122
30
0
41
1
10
0.0017588852907124
20
-12.4112816615112
30
0
41
1
10
0.0017915124288947
20
-12.4112816866065
30
0
0
SPLINE
5
21E
100
AcDbEntity
8
1
62
256
6
ByLayer
370
-1
48
1
60
0
100
AcDbSpline
70
4
71
3
72
8
73
4
40
0
40
0
40
0
40
0
40
1
40
1
40
1
40
1
41
1
10
22.4082209858452
20
2.09239227135407
30
0
41
1
10
22.635718089269
20
2.23819613266605
30
0
41
1
10
22.8512830573084
20
2.37785369176464
30
0
41
1
10
23.058141127974
20
2.51202107249469
30
0
0
SPLINE
5
21F
100
AcDbEntity
8
1
62
256
6
ByLayer
370
-1
48
1
60
0
100
AcDbSpline
70
4
71
3
72
14
73
10
40
0
40
0
40
0
40
0
40
0.25065484928088
40
0.25065484928088
40
0.500616057245208
40
0.500616057245208
40
0.761141676212498
40
0.761141676212498
40
1
40
1
40
1
40
1
41
1
10
15.8464311632251
20
12.4625170850734
30
0
41
1
10
15.8564632517813
20
12.4499761139316
30
0
41
1
10
15.8675553193374
20
12.4348017057628
30
0
41
1
10
15.8899036517154
20
12.401936304575
30
0
41
1
10
15.9014507174577
20
12.3838299082484
30
0
41
1
10
15.9240397789163
20
12.346364127908
30
0
41
1
10
15.9353235857812
20
12.3265222916138
30
0
41
1
10
15.9551552802094
20
12.2896549189527
30
0
41
1
10
15.9640375842082
20
12.2721931167371
30
0
41
1
10
15.9719299586075
20
12.2557291863635
30
0
0
SPLINE
5
220
100
AcDbEntity
8
1
62
256
6
ByLayer
370
-1
48
1
60
0
100
AcDbSpline
70
4
71
3
72
16
73
12
40
0
40
0
40
0
40
0
40
0.201528222394998
40
0.201528222394998
40
0.425760925194204
40
0.425760925194204
40
0.658562188548508
40
0.658562188548508
40
0.868007617002675
40
0.868007617002675
40
1
40
1
40
1
40
1
41
1
10
22.0230766050178
20
17.9975083396971
30
0
41
1
10
22.0393008118925
20
18.0009033205266
30
0
41
1
10
22.0553041410953
20
18.0058434953543
30
0
41
1
10
22.0876161385883
20
18.0194814395492
30
0
41
1
10
22.1039672335395
20
18.0286327603625
30
0
41
1
10
22.1343451632151
20
18.0509554810938
30
0
41
1
10
22.1485113631831
20
18.0644685020615
30
0
41
1
10
22.1710476786959
20
18.0932578585341
30
0
41
1
10
22.1800318417402
20
18.108470664229
30
0
41
1
10
22.1908186831621
20
18.1346713254225
30
0
41
1
10
22.1940967814115
20
18.1452618171551
30
0
41
1
10
22.196355202555
20
18.1560161425617
30
0
0
SPLINE
5
221
100
AcDbEntity
8
1
62
256
6
ByLayer
370
-1
48
1
60
0
100
AcDbSpline
70
4
71
3
72
14
73
10
40
0
40
0
40
0
40
0
40
0.217576655773118
40
0.217576655773118
40
0.418639226347888
40
0.418639226347888
40
0.722992246166043
40
0.722992246166043
40
1
40
1
40
1
40
1
41
1
10
18.0520008400764
20
13.7851333453865
30
0
41
1
10
18.0691283596246
20
13.7894562976712
30
0
41
1
10
18.0855997436085
20
13.796432370478
30
0
41
1
10
18.1140853509623
20
13.8138040567658
30
0
41
1
10
18.1266025588399
20
13.8240419570182
30
0
41
1
10
18.1537981760303
20
13.8527443956774
30
0
41
1
10
18.166790307204
20
13.8731973938019
30
0
41
1
10
18.1842886068986
20
13.9145841507823
30
0
41
1
10
18.1896638029722
20
13.9357531518785
30
0
41
1
10
18.1920913848562
20
13.957123292851
30
0
0
SPLINE
5
222
100
AcDbEntity
8
1
62
256
6
ByLayer
370
-1
48
1
60
0
100
AcDbSpline
70
4
71
3
72
14
73
10
40
0
40
0
40
0
40
0
40
0.305545320901994
40
0.305545320901994
40
0.618172577983535
40
0.618172577983535
40
0.807733277772296
40
0.807733277772296
40
1
40
1
40
1
40
1
41
1
10
18.1101677906276
20
13.9667675804692
30
0
41
1
10
18.1089241655321
20
13.951730310001
30
0
41
1
10
18.1062569749645
20
13.9367074111215
30
0
41
1
10
18.0973568245259
20
13.9076353500691
30
0
41
1
10
18.0909483334751
20
13.8932903893499
30
0
41
1
10
18.0768084142012
20
13.8731726913956
30
0
41
1
10
18.0704572048384
20
13.8661242519948
30
0
41
1
10
18.0558714634428
20
13.8545426238447
30
0
41
1
10
18.0473726357812
20
13.8499207434022
30
0
41
1
10
18.0384299668979
20
13.8473150366191
30
0
0
SPLINE
5
223
100
AcDbEntity
8
1
62
256
6
ByLayer
370
-1
48
1
60
0
100
AcDbSpline
70
4
71
3
72
14
73
10
40
0
40
0
40
0
40
0
40
0.114560016218158
40
0.114560016218158
40
0.305723973353163
40
0.305723973353163
40
0.535366948316017
40
0.535366948316017
40
1
40
1
40
1
40
1
41
1
10
22.1389489113642
20
18.1719663927211
30
0
41
1
10
22.1376058015491
20
18.1664298830549
30
0
41
1
10
22.1355545388005
20
18.1610351227686
30
0
41
1
10
22.1286341423339
20
18.1476302553405
30
0
41
1
10
22.1227029558014
20
18.1400426259149
30
0
41
1
10
22.1078722029706
20
18.1257242399084
30
0
41
1
10
22.0984396034411
20
18.1192359706096
30
0
41
1
10
22.068694119709
20
18.1034586858945
30
0
41
1
10
22.0463488762939
20
18.09740826145
30
0
41
1
10
22.0241122706229
20
18.0946464007597
30
0
0
SPLINE
5
224
100
AcDbEntity
8
1
62
256
6
ByLayer
370
-1
48
1
60
0
100
AcDbSpline
70
4
71
3
72
10
73
6
40
0
40
0
40
0
40
0
40
0.303481278345304
40
0.303481278345304
40
1
40
1
40
1
40
1
41
1
10
18.5329133109679
20
11.7601939466449
30
0
41
1
10
18.5281728553544
20
11.7368051693806
30
0
41
1
10
18.5263085203548
20
11.7130706277585
30
0
41
1
10
18.5280501498545
20
11.6360413572149
30
0
41
1
10
18.5416094363774
20
11.5826377297823
30
0
41
1
10
18.5634917579358
20
11.5324608602793
30
0
0
SPLINE
5
225
100
AcDbEntity
8
1
62
256
6
ByLayer
370
-1
48
1
60
0
100
AcDbSpline
70
4
71
3
72
12
73
8
40
0
40
0
40
0
40
0
40
0.0127217534692798
40
0.0127217534692798
40
0.526205585976624
40
0.526205585976624
40
1
40
1
40
1
40
1
41
1
10
18.6993441635731
20
12.0117851368905
30
0
41
1
10
18.6985326926328
20
12.0107016683407
30
0
41
1
10
18.6977215251903
20
12.0096184609303
30
0
41
1
10
18.6641418644352
20
11.964700829582
30
0
41
1
10
18.6325221717408
20
11.9203290890692
30
0
41
1
10
18.5772018007956
20
11.8369362298772
30
0
41
1
10
18.5525481163535
20
11.7970295285047
30
0
41
1
10
18.5329133109679
20
11.7601939466449
30
0
0
SPLINE
5
226
100
AcDbEntity
8
1
62
256
6
ByLayer
370
-1
48
1
60
0
100
AcDbSpline
70
4
71
3
72
12
73
8
40
0
40
0
40
0
40
0
40
0.470534389757133
40
0.470534389757133
40
0.985921764955486
40
0.985921764955486
40
1
40
1
40
1
40
1
41
1
10
18.694407351789
20
11.6964187144143
30
0
41
1
10
18.6914227143624
20
11.7424164905546
30
0
41
1
10
18.6908446416186
20
11.7917198206572
30
0
41
1
10
18.6925636172385
20
11.8959232623598
30
0
41
1
10
18.6951979886909
20
11.9516914874878
30
0
41
1
10
18.699132500635
20
12.0087551103474
30
0
41
1
10
18.6992382118784
20
12.0102700841772
30
0
41
1
10
18.6993441635731
20
12.0117851368905
30
0
0
SPLINE
5
227
100
AcDbEntity
8
1
62
256
6
ByLayer
370
-1
48
1
60
0
100
AcDbSpline
70
4
71
3
72
10
73
6
40
0
40
0
40
0
40
0
40
0.709213553058268
40
0.709213553058268
40
1
40
1
40
1
40
1
41
1
10
18.7525006925937
20
11.4988263897906
30
0
41
1
10
18.7309658210026
20
11.5434047325798
30
0
41
1
10
18.7134368388255
20
11.5899080620261
30
0
41
1
10
18.6987580399519
20
11.6568516506299
30
0
41
1
10
18.6956911941024
20
11.676632762927
30
0
41
1
10
18.694407351789
20
11.6964187144143
30
0
0
SPLINE
5
228
100
AcDbEntity
8
1
62
256
6
ByLayer
370
-1
48
1
60
0
100
AcDbSpline
70
4
71
3
72
10
73
6
40
0
40
0
40
0
40
0
40
0.469696784645118
40
0.469696784645118
40
1
40
1
40
1
40
1
41
1
10
18.2367042402996
20
13.3060019941488
30
0
41
1
10
18.2224990845303
20
13.4059199742909
30
0
41
1
10
18.2116605646682
20
13.5069230927295
30
0
41
1
10
18.1958307055338
20
13.7237954943199
30
0
41
1
10
18.1917643266107
20
13.840001838172
30
0
41
1
10
18.1920913848562
20
13.957123292851
30
0
0
SPLINE
5
229
100
AcDbEntity
8
1
62
256
6
ByLayer
370
-1
48
1
60
0
100
AcDbSpline
70
4
71
3
72
10
73
6
40
0
40
0
40
0
40
0
40
0.339922223692921
40
0.339922223692921
40
1
40
1
40
1
40
1
41
1
10
22.0230766050034
20
17.9975083396942
30
0
41
1
10
22.0850655695681
20
17.9880062265464
30
0
41
1
10
22.1467172089899
20
17.9766270293705
30
0
41
1
10
22.3268586893325
20
17.9377250341656
30
0
41
1
10
22.4443558908806
20
17.9050603273778
30
0
41
1
10
22.5599831204443
20
17.86558923787
30
0
0
SPLINE
5
22A
100
AcDbEntity
8
1
62
256
6
ByLayer
370
-1
48
1
60
0
100
AcDbSpline
70
4
71
3
72
10
73
6
40
0
40
0
40
0
40
0
40
0.296681385512613
40
0.296681385512613
40
1
40
1
40
1
40
1
41
1
10
18.0962750208957
20
13.1694296400592
30
0
41
1
10
18.0993487592619
20
13.1472557585869
30
0
41
1
10
18.1040235097069
20
13.1255094659567
30
0
41
1
10
18.1254348975264
20
13.0552576448835
30
0
41
1
10
18.1503874879147
20
13.0087588751427
30
0
41
1
10
18.1871387431029
20
12.971670607397
30
0
0
SPLINE
5
22B
100
AcDbEntity
8
1
62
256
6
ByLayer
370
-1
48
1
60
0
100
AcDbSpline
70
4
71
3
72
12
73
8
40
0
40
0
40
0
40
0
40
0.47379441402335
40
0.47379441402335
40
0.987278246530696
40
0.987278246530696
40
1
40
1
40
1
40
1
41
1
10
18.1871387431029
20
12.971670607397
30
0
41
1
10
18.2227410663826
20
12.952561429125
30
0
41
1
10
18.2643456707217
20
12.9330778637113
30
0
41
1
10
18.3547119954275
20
12.893681602532
30
0
41
1
10
18.4047613835866
20
12.8734819488621
30
0
41
1
10
18.4568515502593
20
12.8535450536426
30
0
41
1
10
18.4581089526828
20
12.8530648052209
30
0
41
1
10
18.459366807847
20
12.8525842950427
30
0
0
SPLINE
5
22C
100
AcDbEntity
8
1
62
256
6
ByLayer
370
-1
48
1
60
0
100
AcDbSpline
70
4
71
3
72
12
73
8
40
0
40
0
40
0
40
0
40
0.0140782350445187
40
0.0140782350445187
40
0.529465610242859
40
0.529465610242859
40
1
40
1
40
1
40
1
41
1
10
18.459366807847
20
12.8525842950427
30
0
41
1
10
18.4584786874262
20
12.8538096959207
30
0
41
1
10
18.4575908707205
20
12.8550349540281
30
0
41
1
10
18.4241922146908
20
12.9012036860208
30
0
41
1
10
18.3926543407817
20
12.946703517871
30
0
41
1
10
18.3366267443051
20
13.0327790404418
30
0
41
1
10
18.3113787367039
20
13.073961525331
30
0
41
1
10
18.2900286930723
20
13.113224207561
30
0
0
SPLINE
5
22D
100
AcDbEntity
8
1
62
256
6
ByLayer
370
-1
48
1
60
0
100
AcDbSpline
70
4
71
3
72
10
73
6
40
0
40
0
40
0
40
0
40
0.691437525404665
40
0.691437525404665
40
1
40
1
40
1
40
1
41
1
10
18.2900286930723
20
13.113224207561
30
0
41
1
10
18.2683253140746
20
13.1531366727348
30
0
41
1
10
18.2547044917293
20
13.1980563901885
30
0
41
1
10
18.2418399296928
20
13.2641912839748
30
0
41
1
10
18.2388408192559
20
13.2850105621872
30
0
41
1
10
18.236704240256
20
13.3060019941269
30
0
0
SPLINE
5
22E
100
AcDbEntity
8
1
62
256
6
ByLayer
370
-1
48
1
60
0
100
AcDbSpline
70
4
71
3
72
8
73
4
40
0
40
0
40
0
40
0
40
1
40
1
40
1
40
1
41
1
10
15.9719299586075
20
12.2557291863635
30
0
41
1
10
16.0243781153651
20
12.295582575836
30
0
41
1
10
16.0782794522788
20
12.3336007584623
30
0
41
1
10
16.1327122045125
20
12.370106751597
30
0
0
SPLINE
5
22F
100
AcDbEntity
8
1
62
256
6
ByLayer
370
-1
48
1
60
0
100
AcDbSpline
70
4
71
3
72
8
73
4
40
0
40
0
40
0
40
0
40
1
40
1
40
1
40
1
41
1
10
15.9437209297227
20
12.5729635037263
30
0
41
1
10
15.9106847227248
20
12.5371146642073
30
0
41
1
10
15.8781292635909
20
12.5002602530061
30
0
41
1
10
15.8464311632251
20
12.4625170850734
30
0
0
SPLINE
5
230
100
AcDbEntity
8
1
62
256
6
ByLayer
370
-1
48
1
60
0
100
AcDbSpline
70
4
71
3
72
8
73
4
40
0
40
0
40
0
40
0
40
1
40
1
40
1
40
1
41
1
10
18.7771285726234
20
17.4368190880145
30
0
41
1
10
19.0933250461329
20
17.7250855285933
30
0
41
1
10
19.4378602593342
20
17.9792114308114
30
0
41
1
10
19.8033348075089
20
18.1938172293326
30
0
0
SPLINE
5
231
100
AcDbEntity
8
1
62
256
6
ByLayer
370
-1
48
1
60
0
100
AcDbSpline
70
4
71
3
72
14
73
10
40
0
40
0
40
0
40
0
40
0.250654849280905
40
0.250654849280905
40
0.500616057245282
40
0.500616057245282
40
0.761141676212517
40
0.761141676212517
40
1
40
1
40
1
40
1
41
1
10
24.7869524339442
20
19.9069480978306
30
0
41
1
10
24.7750939080921
20
19.9072163407132
30
0
41
1
10
24.759866204136
20
19.9074428518646
30
0
41
1
10
24.7254782664334
20
19.9077764743705
30
0
41
1
10
24.7058903801661
20
19.9078885828557
30
0
41
1
10
24.6642637687275
20
19.9079983717762
30
0
41
1
10
24.641647797263
20
19.9079928684374
30
0
41
1
10
24.5986732059893
20
19.9078763672059
30
0
41
1
10
24.5778898216703
20
19.907773335455
30
0
41
1
10
24.5578890127981
20
19.9076310006147
30
0
0
SPLINE
5
232
100
AcDbEntity
8
1
62
256
6
ByLayer
370
-1
48
1
60
0
100
AcDbSpline
70
4
71
3
72
16
73
12
40
0
40
0
40
0
40
0
40
0.201528222395008
40
0.201528222395008
40
0.425760925194183
40
0.425760925194183
40
0.658562188548521
40
0.658562188548521
40
0.868007617002692
40
0.868007617002692
40
1
40
1
40
1
40
1
41
1
10
26.6174674342717
20
11.8259601176239
30
0
41
1
10
26.6135682077099
20
11.8109156843657
30
0
41
1
10
26.6110649775936
20
11.7952655849005
30
0
41
1
10
26.6090999645786
20
11.7617995818098
30
0
41
1
10
26.6100029240151
20
11.7437176543527
30
0
41
1
10
26.6161666883618
20
11.707411435633
30
0
41
1
10
26.6216574189741
20
11.6888986029875
30
0
41
1
10
26.6365428868265
20
11.6557315234149
30
0
41
1
10
26.6456280563239
20
11.6406057077287
30
0
41
1
10
26.6632327660876
20
11.6184037469687
30
0
41
1
10
26.6708007173452
20
11.6103182375524
30
0
41
1
10
26.6789335625938
20
11.6029872636637
30
0
0
SPLINE
5
233
100
AcDbEntity
8
1
62
256
6
ByLayer
370
-1
48
1
60
0
100
AcDbSpline
70
4
71
3
72
14
73
10
40
0
40
0
40
0
40
0
40
0.217576655773106
40
0.217576655773106
40
0.41863922634791
40
0.41863922634791
40
0.722992246166069
40
0.722992246166069
40
1
40
1
40
1
40
1
41
1
10
25.0118602325844
20
17.4438460738987
30
0
41
1
10
25.0068932477895
20
17.4265150827621
30
0
41
1
10
25.0042906275881
20
17.4082637040962
30
0
41
1
10
25.0038776909857
20
17.3737127528695
30
0
41
1
10
25.0057022762632
20
17.3570644619407
30
0
41
1
10
25.0146378908682
20
17.3172554603422
30
0
41
1
10
25.0240949301702
20
17.2944405587463
30
0
41
1
10
25.0474823137243
20
17.2559158537312
30
0
41
1
10
25.0611736351027
20
17.2393182927562
30
0
41
1
10
25.0764473550098
20
17.2251711449481
30
0
0
SPLINE
5
234
100
AcDbEntity
8
1
62
256
6
ByLayer
370
-1
48
1
60
0
100
AcDbSpline
70
4
71
3
72
14
73
10
40
0
40
0
40
0
40
0
40
0.305545320902031
40
0.305545320902031
40
0.618172577983432
40
0.618172577983432
40
0.807733277772259
40
0.807733277772259
40
1
40
1
40
1
40
1
41
1
10
25.1436031862782
20
17.3055843902437
30
0
41
1
10
25.1313949075735
20
17.3142359558599
30
0
41
1
10
25.1199069343566
20
17.3241319755125
30
0
41
1
10
25.0995351136765
20
17.346569812542
30
0
41
1
10
25.09048625425
20
17.359414642264
30
0
41
1
10
25.0803586587461
20
17.3819588911442
30
0
41
1
10
25.0775052587555
20
17.3910859447452
30
0
41
1
10
25.0748806919512
20
17.409731746693
30
0
41
1
10
25.0751653250653
20
17.4195274570083
30
0
41
1
10
25.0773905147974
20
17.4287000386712
30
0
0
SPLINE
5
235
100
AcDbEntity
8
1
62
256
6
ByLayer
370
-1
48
1
60
0
100
AcDbSpline
70
4
71
3
72
14
73
10
40
0
40
0
40
0
40
0
40
0.114560016218265
40
0.114560016218265
40
0.305723973353196
40
0.305723973353196
40
0.535366948316068
40
0.535366948316068
40
1
40
1
40
1
40
1
41
1
10
26.7268309761172
20
11.6496208122032
30
0
41
1
10
26.7227763501004
20
11.6535845344773
30
0
41
1
10
26.7191948545094
20
11.658099657282
30
0
41
1
10
26.7112025060596
20
11.6709220685906
30
0
41
1
10
26.7076802666669
20
11.6799508250275
30
0
41
1
10
26.7028431016067
20
11.7001876163304
30
0
41
1
10
26.7020001357969
20
11.7117424434477
30
0
41
1
10
26.7033367473822
20
11.7458263699459
30
0
41
1
10
26.7092896960724
20
11.7685146366317
30
0
41
1
10
26.7179937636774
20
11.7894544700574
30
0
0
SPLINE
5
236
100
AcDbEntity
8
1
62
256
6
ByLayer
370
-1
48
1
60
0
100
AcDbSpline
70
4
71
3
72
10
73
6
40
0
40
0
40
0
40
0
40
0.303481278345291
40
0.303481278345291
40
1
40
1
40
1
40
1
41
1
10
22.8720916150041
20
17.912700770929
30
0
41
1
10
22.8587361520614
20
17.9317076311231
30
0
41
1
10
22.8438831753369
20
17.948525275017
30
0
41
1
10
22.7922400860572
20
17.9965728060957
30
0
41
1
10
22.7509859296206
20
18.0195274576995
30
0
41
1
10
22.7081901883092
20
18.0334298929781
30
0
0
SPLINE
5
237
100
AcDbEntity
8
1
62
256
6
ByLayer
370
-1
48
1
60
0
100
AcDbSpline
70
4
71
3
72
12
73
8
40
0
40
0
40
0
40
0
40
0.0127217534692973
40
0.0127217534692973
40
0.52620558597667
40
0.52620558597667
40
1
40
1
40
1
40
1
41
1
10
22.9867028774433
20
17.6273823969592
30
0
41
1
10
22.9861822819159
20
17.6286404650346
30
0
41
1
10
22.9856625696154
20
17.6298987253698
30
0
41
1
10
22.9641167658168
20
17.6820495237839
30
0
41
1
10
22.9433730275929
20
17.7331566602506
30
0
41
1
10
22.9054328034248
20
17.8278446076424
30
0
41
1
10
22.8877556628822
20
17.8725635006224
30
0
41
1
10
22.8720916150041
20
17.912700770929
30
0
0
SPLINE
5
238
100
AcDbEntity
8
1
62
256
6
ByLayer
370
-1
48
1
60
0
100
AcDbSpline
70
4
71
3
72
12
73
8
40
0
40
0
40
0
40
0
40
0.470534389757136
40
0.470534389757136
40
0.985921764955441
40
0.985921764955441
40
1
40
1
40
1
40
1
41
1
10
22.7346418396198
20
17.8007777908717
30
0
41
1
10
22.770281056196
20
17.7765853209706
30
0
41
1
10
22.8092000223948
20
17.7498210427619
30
0
41
1
10
22.8924505476943
20
17.692456441332
30
0
41
1
10
22.9375675153979
20
17.6612779300728
30
0
41
1
10
22.9842243504302
20
17.6290920628295
30
0
41
1
10
22.9854632316657
20
17.6282370582717
30
0
41
1
10
22.9867028774433
20
17.6273823969592
30
0
0
SPLINE
5
239
100
AcDbEntity
8
1
62
256
6
ByLayer
370
-1
48
1
60
0
100
AcDbSpline
70
4
71
3
72
10
73
6
40
0
40
0
40
0
40
0
40
0.709213553058289
40
0.709213553058289
40
1
40
1
40
1
40
1
41
1
10
22.5599831204443
20
17.86558923787
30
0
41
1
10
22.603411213783
20
17.8582556094338
30
0
41
1
10
22.6463485640818
20
17.8463301361239
30
0
41
1
10
22.7031361517031
20
17.8200476714087
30
0
41
1
10
22.7193116243488
20
17.8111841860496
30
0
41
1
10
22.7346418396198
20
17.8007777908717
30
0
0
SPLINE
5
23A
100
AcDbEntity
8
1
62
256
6
ByLayer
370
-1
48
1
60
0
100
AcDbSpline
70
4
71
3
72
10
73
6
40
0
40
0
40
0
40
0
40
0.469696784645129
40
0.469696784645129
40
1
40
1
40
1
40
1
41
1
10
24.3580526669899
20
17.410775164101
30
0
41
1
10
24.4724416136056
20
17.3891182965251
30
0
41
1
10
24.5860878682346
20
17.3639603642213
30
0
41
1
10
24.8259134359762
20
17.3030396311344
30
0
41
1
10
24.9519303795968
20
17.2663015380092
30
0
41
1
10
25.0764473550098
20
17.2251711449481
30
0
0
SPLINE
5
23B
100
AcDbEntity
8
1
62
256
6
ByLayer
370
-1
48
1
60
0
100
AcDbSpline
70
4
71
3
72
10
73
6
40
0
40
0
40
0
40
0
40
0.296681385512611
40
0.296681385512611
40
1
40
1
40
1
40
1
41
1
10
24.3369105542051
20
17.6214519769589
30
0
41
1
10
24.3117796672307
20
17.626483890969
30
0
41
1
10
24.2862093034559
20
17.6298874370077
30
0
41
1
10
24.2000919738208
20
17.6350631830691
30
0
41
1
10
24.1370916862243
20
17.6285455724148
30
0
41
1
10
24.0774638460125
20
17.6078069719956
30
0
0
SPLINE
5
23C
100
AcDbEntity
8
1
62
256
6
ByLayer
370
-1
48
1
60
0
100
AcDbSpline
70
4
71
3
72
12
73
8
40
0
40
0
40
0
40
0
40
0.47379441402337
40
0.47379441402337
40
0.987278246530741
40
0.987278246530741
40
1
40
1
40
1
40
1
41
1
10
24.0774638460125
20
17.6078069719955
30
0
41
1
10
24.0374650301162
20
17.5817493872492
30
0
41
1
10
23.996051161566
20
17.5519773146634
30
0
41
1
10
23.9118209793527
20
17.4881918539563
30
0
41
1
10
23.868318687928
20
17.4533354784928
30
0
41
1
10
23.8253367563499
20
17.4175066973523
30
0
41
1
10
23.8243008908127
20
17.4166419138404
30
0
41
1
10
23.8232653882412
20
17.4157774541863
30
0
0
SPLINE
5
23D
100
AcDbEntity
8
1
62
256
6
ByLayer
370
-1
48
1
60
0
100
AcDbSpline
70
4
71
3
72
12
73
8
40
0
40
0
40
0
40
0
40
0.014078235044524
40
0.014078235044524
40
0.529465610242899
40
0.529465610242899
40
1
40
1
40
1
40
1
41
1
10
23.8232653882412
20
17.4157774541863
30
0
41
1
10
23.8247523873642
20
17.4159424222234
30
0
41
1
10
23.8262399304923
20
17.4161077892898
30
0
41
1
10
23.8822952796164
20
17.4223130447197
30
0
41
1
10
23.9379360959662
20
17.4280053013915
30
0
41
1
10
24.0440057508326
20
17.437482165357
30
0
41
1
10
24.0951166566277
20
17.4414737688818
30
0
41
1
10
24.1443082851286
20
17.4442086359305
30
0
0
SPLINE
5
23E
100
AcDbEntity
8
1
62
256
6
ByLayer
370
-1
48
1
60
0
100
AcDbSpline
70
4
71
3
72
10
73
6
40
0
40
0
40
0
40
0
40
0.69143752540467
40
0.69143752540467
40
1
40
1
40
1
40
1
41
1
10
24.1443082851286
20
17.4442086359305
30
0
41
1
10
24.1943140169805
20
17.4469887640226
30
0
41
1
10
24.2447689266787
20
17.440289583821
30
0
41
1
10
24.3151683806138
20
17.4238803654249
30
0
41
1
10
24.3367620802166
20
17.4177578461455
30
0
41
1
10
24.3580526669976
20
17.4107751641538
30
0
0
SPLINE
5
23F
100
AcDbEntity
8
1
62
256
6
ByLayer
370
-1
48
1
60
0
100
AcDbSpline
70
4
71
3
72
8
73
4
40
0
40
0
40
0
40
0
40
1
40
1
40
1
40
1
41
1
10
24.5578890127981
20
19.9076310006147
30
0
41
1
10
24.5684579738132
20
19.8434199677269
30
0
41
1
10
24.5774064112533
20
19.7793394262261
30
0
41
1
10
24.5855587490041
20
19.716103277354
30
0
0
SPLINE
5
240
100
AcDbEntity
8
1
62
256
6
ByLayer
370
-1
48
1
60
0
100
AcDbSpline
70
4
71
3
72
8
73
4
40
0
40
0
40
0
40
0
40
1
40
1
40
1
40
1
41
1
10
24.8425125894117
20
19.7729779757259
30
0
41
1
10
24.8246373571823
20
19.8173317510352
30
0
41
1
10
24.8061658184441
20
19.8621324425196
30
0
41
1
10
24.7869524339442
20
19.9069480978306
30
0
0
SPLINE
5
241
100
AcDbEntity
8
1
62
256
6
ByLayer
370
-1
48
1
60
0
100
AcDbSpline
70
4
71
3
72
8
73
4
40
0
40
0
40
0
40
0
40
1
40
1
40
1
40
1
41
1
10
27.5821255609131
20
14.8369958400691
30
0
41
1
10
27.6751489426828
20
14.4172897405592
30
0
41
1
10
27.7227804319936
20
13.9882441125445
30
0
41
1
10
27.724061625136
20
13.559032515502
30
0
0
SPLINE
5
242
100
AcDbEntity
8
1
62
256
6
ByLayer
370
-1
48
1
60
0
100
AcDbSpline
70
4
71
3
72
14
73
10
40
0
40
0
40
0
40
0
40
0.250654849280857
40
0.250654849280857
40
0.500616057245237
40
0.500616057245237
40
0.761141676212499
40
0.761141676212499
40
1
40
1
40
1
40
1
41
1
10
26.6902740826037
20
8.30419304910808
30
0
41
1
10
26.7002297003596
20
8.31727050601506
30
0
41
1
10
26.7112298246767
20
8.33289793648677
30
0
41
1
10
26.7333799594207
20
8.36643058268629
30
0
41
1
10
26.7448182609844
20
8.38476119598332
30
0
41
1
10
26.7671829969029
20
8.42244655416468
30
0
41
1
10
26.7783483811812
20
8.44227738378129
30
0
41
1
10
26.797960673502
20
8.47891175397933
30
0
41
1
10
26.8067393459222
20
8.49616749269325
30
0
41
1
10
26.8145342806604
20
8.51234675338614
30
0
0
SPLINE
5
243
100
AcDbEntity
8
1
62
256
6
ByLayer
370
-1
48
1
60
0
100
AcDbSpline
70
4
71
3
72
16
73
12
40
0
40
0
40
0
40
0
40
0.201528222395049
40
0.201528222395049
40
0.425760925194223
40
0.425760925194223
40
0.658562188548537
40
0.658562188548537
40
0.868007617002683
40
0.868007617002683
40
1
40
1
40
1
40
1
41
1
10
19.0679850917501
20
10.8882891973879
30
0
41
1
10
19.0583659027205
20
10.9002065031102
30
0
41
1
10
19.0475038278357
20
10.9111775726023
30
0
41
1
10
19.0224075792266
20
10.9315254154537
30
0
41
1
10
19.0077640365272
20
10.940714443417
30
0
41
1
10
18.9759607077601
20
10.9551670044656
30
0
41
1
10
18.9584482748024
20
10.9603791055225
30
0
41
1
10
18.9242900998308
20
10.9650799016779
30
0
41
1
10
18.9074461154136
20
10.9651142120566
30
0
41
1
10
18.8803722339853
20
10.9612459511683
30
0
41
1
10
18.8698758446114
20
10.958775582615
30
0
41
1
10
18.8596600925762
20
10.9553696057183
30
0
0
SPLINE
5
244
100
AcDbEntity
8
1
62
256
6
ByLayer
370
-1
48
1
60
0
100
AcDbSpline
70
4
71
3
72
14
73
10
40
0
40
0
40
0
40
0
40
0.217576655773184
40
0.217576655773184
40
0.418639226347857
40
0.418639226347857
40
0.722992246166102
40
0.722992246166102
40
1
40
1
40
1
40
1
41
1
10
24.6710877850643
20
9.48539359265854
30
0
41
1
10
24.6586391989177
20
9.49837311655625
30
0
41
1
10
24.644004443981
20
9.50957259496531
30
0
41
1
10
24.6136748005101
20
9.52652843632367
30
0
41
1
10
24.597883648889
20
9.53279535124824
30
0
41
1
10
24.5574609195666
20
9.5434770877221
30
0
41
1
10
24.5317686059216
20
9.54551794404372
30
0
41
1
10
24.4840622377932
20
9.54198069480037
30
0
41
1
10
24.4614023560114
20
9.5370535382288
30
0
41
1
10
24.4399903911713
20
9.52946321690959
30
0
0
SPLINE
5
245
100
AcDbEntity
8
1
62
256
6
ByLayer
370
-1
48
1
60
0
100
AcDbSpline
70
4
71
3
72
14
73
10
40
0
40
0
40
0
40
0
40
0.305545320901921
40
0.305545320901921
40
0.618172577983525
40
0.618172577983525
40
0.807733277772234
40
0.807733277772234
40
1
40
1
40
1
40
1
41
1
10
24.4933638673532
20
9.44322736362869
30
0
41
1
10
24.5068157711534
20
9.4496130684806
30
0
41
1
10
24.5209709349378
20
9.45473994770754
30
0
41
1
10
24.5502429060565
20
9.46137417173045
30
0
41
1
10
24.5657002565338
20
9.46287430272758
30
0
41
1
10
24.5899677713116
20
9.46044775180175
30
0
41
1
10
24.5991723806651
20
9.45836913760155
30
0
41
1
10
24.6163826888649
20
9.45130496380378
30
0
41
1
10
24.6245968834124
20
9.44613113393103
30
0
41
1
10
24.6313143625636
20
9.43956425905125
30
0
0
SPLINE
5
246
100
AcDbEntity
8
1
62
256
6
ByLayer
370
-1
48
1
60
0
100
AcDbSpline
70
4
71
3
72
14
73
10
40
0
40
0
40
0
40
0
40
0.114560016218199
40
0.114560016218199
40
0.305723973353285
40
0.305723973353285
40
0.5353669483161
40
0.5353669483161
40
1
40
1
40
1
40
1
41
1
10
18.8813549567775
20
10.8939921294172
30
0
41
1
10
18.8867526926095
20
10.8955649168092
30
0
41
1
10
18.892385450949
20
10.8964445542909
30
0
41
1
10
18.9072981958654
20
10.8970270104104
30
0
41
1
10
18.9167516217906
20
10.8955858833991
30
0
41
1
10
18.9364195396817
20
10.8896674781028
30
0
41
1
10
18.946695105021
20
10.8846009202842
30
0
41
1
10
18.9751039771678
20
10.8662942785011
30
0
41
1
10
18.9914962718926
20
10.8496564362597
30
0
41
1
10
19.0050288099586
20
10.8314784635244
30
0
0
SPLINE
5
247
100
AcDbEntity
8
1
62
256
6
ByLayer
370
-1
48
1
60
0
100
AcDbSpline
70
4
71
3
72
12
73
8
40
0
40
0
40
0
40
0
40
0.339979538766791
40
0.339979538766791
40
0.835812874070229
40
0.835812874070229
40
1
40
1
40
1
40
1
41
1
10
26.6174674342754
20
11.8259601176373
30
0
41
1
10
26.5626442603357
20
11.7646738163803
30
0
41
1
10
26.5063500836679
20
11.7046002054786
30
0
41
1
10
26.3645296578102
20
11.5600376730465
30
0
41
1
10
26.277375861862
20
11.476922086328
30
0
41
1
10
26.1576231118493
20
11.3700253654561
30
0
41
1
10
26.1275132297901
20
11.3437313921861
30
0
41
1
10
26.0970986772771
20
11.3177485240975
30
0
0
SPLINE
5
248
100
AcDbEntity
8
1
62
256
6
ByLayer
370
-1
48
1
60
0
100
AcDbSpline
70
4
71
3
72
10
73
6
40
0
40
0
40
0
40
0
40
0.303481278345322
40
0.303481278345322
40
1
40
1
40
1
40
1
41
1
10
25.9619938118403
20
11.0050539581303
30
0
41
1
10
25.9890868208858
20
11.010326520512
30
0
41
1
10
26.0152851855709
20
11.0181819722514
30
0
41
1
10
26.0968851513252
20
11.0503016289975
30
0
41
1
10
26.1480276472445
20
11.0830717461099
30
0
41
1
10
26.1920609837801
20
11.1216348808324
30
0
0
SPLINE
5
249
100
AcDbEntity
8
1
62
256
6
ByLayer
370
-1
48
1
60
0
100
AcDbSpline
70
4
71
3
72
12
73
8
40
0
40
0
40
0
40
0
40
0.0127217534693671
40
0.0127217534693671
40
0.52620558597668
40
0.52620558597668
40
1
40
1
40
1
40
1
41
1
10
25.644393737194
20
11.0351621746612
30
0
41
1
10
25.6457258036619
20
11.0349875751356
30
0
41
1
10
25.6470584062593
20
11.0348126927605
30
0
41
1
10
25.7023268578297
20
11.0275936803503
30
0
41
1
10
25.7576173949382
20
11.0211480462263
30
0
41
1
10
25.8629360619571
20
11.0110466178237
30
0
41
1
10
25.9139747920084
20
11.007096444313
30
0
41
1
10
25.9619938118403
20
11.0050539581303
30
0
0
SPLINE
5
24A
100
AcDbEntity
8
1
62
256
6
ByLayer
370
-1
48
1
60
0
100
AcDbSpline
70
4
71
3
72
12
73
8
40
0
40
0
40
0
40
0
40
0.47053438975717
40
0.47053438975717
40
0.985921764955499
40
0.985921764955499
40
1
40
1
40
1
40
1
41
1
10
25.9321612027999
20
11.1801791672793
30
0
41
1
10
25.8887174175189
20
11.1573058095553
30
0
41
1
10
25.8431056772103
20
11.1340469976825
30
0
41
1
10
25.7479864900492
20
11.0862034136569
30
0
41
1
10
25.6978078864184
20
11.0613734185852
30
0
41
1
10
25.6470856615124
20
11.0364827070235
30
0
41
1
10
25.6457393346665
20
11.0358225660619
30
0
41
1
10
25.644393737194
20
11.0351621746612
30
0
0
SPLINE
5
24B
100
AcDbEntity
8
1
62
256
6
ByLayer
370
-1
48
1
60
0
100
AcDbSpline
70
4
71
3
72
10
73
6
40
0
40
0
40
0
40
0
40
0.709213553058341
40
0.709213553058341
40
1
40
1
40
1
40
1
41
1
10
26.0970986772771
20
11.3177485240975
30
0
41
1
10
26.0639347537826
20
11.2793880937606
30
0
41
1
10
26.0269577290405
20
11.2436650263148
30
0
41
1
10
25.9686776480015
20
11.2014030642801
30
0
41
1
10
25.9508485546703
20
11.1900181461225
30
0
41
1
10
25.9321612027999
20
11.1801791672793
30
0
0
SPLINE
5
24C
100
AcDbEntity
8
1
62
256
6
ByLayer
370
-1
48
1
60
0
100
AcDbSpline
70
4
71
3
72
10
73
6
40
0
40
0
40
0
40
0
40
0.469696784645125
40
0.469696784645125
40
1
40
1
40
1
40
1
41
1
10
24.8148255830255
20
9.9653869935083
30
0
41
1
10
24.7615513500651
20
9.89176957968502
30
0
41
1
10
24.7056662618201
20
9.82056938797106
30
0
41
1
10
24.581376900872
20
9.67448790929984
30
0
41
1
10
24.5122316295752
20
9.60024699145848
30
0
41
1
10
24.4399903911712
20
9.52946321690959
30
0
0
SPLINE
5
24D
100
AcDbEntity
8
1
62
256
6
ByLayer
370
-1
48
1
60
0
100
AcDbSpline
70
4
71
3
72
10
73
6
40
0
40
0
40
0
40
0
40
0.33992222369292
40
0.33992222369292
40
1
40
1
40
1
40
1
41
1
10
19.0679850917586
20
10.8882891973772
30
0
41
1
10
19.0270893705043
20
10.955738598508
30
0
41
1
10
18.9879220947543
20
11.0238444855489
30
0
41
1
10
18.8778901677744
20
11.2258452059892
30
0
41
1
10
18.8118122391627
20
11.3614699762515
30
0
41
1
10
18.7525006925937
20
11.4988263897906
30
0
0
SPLINE
5
24E
100
AcDbEntity
8
1
62
256
6
ByLayer
370
-1
48
1
60
0
100
AcDbSpline
70
4
71
3
72
10
73
6
40
0
40
0
40
0
40
0
40
0.29668138551259
40
0.29668138551259
40
1
40
1
40
1
40
1
41
1
10
25.0305573549244
20
9.89664401707179
30
0
41
1
10
25.0426613634903
20
9.91280069739881
30
0
41
1
10
25.0535870482652
20
9.9301564949167
30
0
41
1
10
25.085291753848
20
9.9919656920018
30
0
41
1
10
25.1001410900043
20
10.0426856064973
30
0
41
1
10
25.1023961486969
20
10.0984710963117
30
0
0
SPLINE
5
24F
100
AcDbEntity
8
1
62
256
6
ByLayer
370
-1
48
1
60
0
100
AcDbSpline
70
4
71
3
72
12
73
8
40
0
40
0
40
0
40
0
40
0.473794414023351
40
0.473794414023351
40
0.987278246530715
40
0.987278246530715
40
1
40
1
40
1
40
1
41
1
10
25.1023961486968
20
10.0984710963117
30
0
41
1
10
25.0940724747452
20
10.1423786570659
30
0
41
1
10
25.0851738338899
20
10.1907722769685
30
0
41
1
10
25.0669796194915
20
10.2927603390578
30
0
41
1
10
25.0575054165673
20
10.3475266063614
30
0
41
1
10
25.0482541944556
20
10.4032781280658
30
0
41
1
10
25.048030934715
20
10.4046229894495
30
0
41
1
10
25.0478085821224
20
10.4059679592819
30
0
0
SPLINE
5
250
100
AcDbEntity
8
1
62
256
6
ByLayer
370
-1
48
1
60
0
100
AcDbSpline
70
4
71
3
72
12
73
8
40
0
40
0
40
0
40
0
40
0.0140782350445075
40
0.0140782350445075
40
0.529465610242875
40
0.529465610242875
40
1
40
1
40
1
40
1
41
1
10
25.0478085821224
20
10.4059679592819
30
0
41
1
10
25.0472097034201
20
10.4045775903667
30
0
41
1
10
25.046611711365
20
10.4031871368825
30
0
41
1
10
25.0240858961998
20
10.3508261054054
30
0
41
1
10
25.0024102182339
20
10.2998742980861
30
0
41
1
10
24.9625178460859
20
10.2053266553028
30
0
41
1
10
24.9439257947456
20
10.1608723268678
30
0
41
1
10
24.9268734160078
20
10.1199428290737
30
0
0
SPLINE
5
251
100
AcDbEntity
8
1
62
256
6
ByLayer
370
-1
48
1
60
0
100
AcDbSpline
70
4
71
3
72
10
73
6
40
0
40
0
40
0
40
0
40
0.691437525404663
40
0.691437525404663
40
1
40
1
40
1
40
1
41
1
10
24.9268734160078
20
10.1199428290737
30
0
41
1
10
24.9095388266764
20
10.0783359631517
30
0
41
1
10
24.8840929998281
20
10.0412427793297
30
0
41
1
10
24.8426686551214
20
9.99311192877076
30
0
41
1
10
24.8290490782822
20
9.97890765920522
30
0
41
1
10
24.8148255830714
20
9.96538699347843
30
0
0
SPLINE
5
252
100
AcDbEntity
8
1
62
256
6
ByLayer
370
-1
48
1
60
0
100
AcDbSpline
70
4
71
3
72
8
73
4
40
0
40
0
40
0
40
0
40
1
40
1
40
1
40
1
41
1
10
26.8145342806604
20
8.51234675338614
30
0
41
1
10
26.7571657262855
20
8.5372635627354
30
0
41
1
10
26.7013821782917
20
8.56402542567579
30
0
41
1
10
26.6474729740788
20
8.59161442983688
30
0
0
SPLINE
5
253
100
AcDbEntity
8
1
62
256
6
ByLayer
370
-1
48
1
60
0
100
AcDbSpline
70
4
71
3
72
8
73
4
40
0
40
0
40
0
40
0
40
1
40
1
40
1
40
1
41
1
10
26.5581016340065
20
8.3297636692526
30
0
41
1
10
26.6010987255547
20
8.32047527166847
30
0
41
1
10
26.6452741865532
20
8.31185073998839
30
0
41
1
10
26.6902740826037
20
8.30419304910808
30
0
0
SPLINE
5
254
100
AcDbEntity
8
1
62
256
6
ByLayer
370
-1
48
1
60
0
100
AcDbSpline
70
4
71
3
72
8
73
4
40
0
40
0
40
0
40
0
40
1
40
1
40
1
40
1
41
1
10
20.9850810196044
20
8.40189022062111
30
0
41
1
10
20.5852029628316
20
8.53425464840407
30
0
41
1
10
20.1977601385233
20
8.70964200315018
30
0
41
1
10
19.8310043972063
20
8.92424780167144
30
0
0
SPLINE
5
255
100
AcDbEntity
8
1
62
256
6
ByLayer
370
-1
48
1
60
0
100
AcDbSpline
70
4
71
3
72
8
73
4
40
0
40
0
40
0
40
0
40
1
40
1
40
1
40
1
41
1
10
19.2195115115108
20
3.44001929061199
30
0
41
1
10
19.151349660877
20
3.55926277803445
30
0
41
1
10
19.0797813263535
20
3.67754350503105
30
0
41
1
10
19.0116194757196
20
3.79678699245352
30
0
0
SPLINE
5
256
100
AcDbEntity
8
1
62
256
6
ByLayer
370
-1
48
1
60
0
100
AcDbSpline
70
4
71
3
72
12
73
8
40
0
40
0
40
0
40
0
40
0.215516644879596
40
0.215516644879596
40
0.714865241664915
40
0.714865241664915
40
1
40
1
40
1
40
1
41
1
10
22.3368844454175
20
12.1545023441484
30
0
41
1
10
22.3007715321488
20
12.147496472993
30
0
41
1
10
22.2658058707971
20
12.1379113919021
30
0
41
1
10
22.1560111963616
20
12.098925229801
30
0
41
1
10
22.0872778545971
20
12.0593545755655
30
0
41
1
10
21.9956622104605
20
11.984592533137
30
0
41
1
10
21.9652391384216
20
11.9543956256467
30
0
41
1
10
21.9380656170535
20
11.9219769231049
30
0
0
SPLINE
5
257
100
AcDbEntity
8
1
62
256
6
ByLayer
370
-1
48
1
60
0
100
AcDbSpline
70
4
71
3
72
18
73
14
40
0
40
0
40
0
40
0
40
0.112011648086842
40
0.112011648086842
40
0.306446977577165
40
0.306446977577165
40
0.465753631490159
40
0.465753631490159
40
0.625653969130988
40
0.625653969130988
40
0.77849877302059
40
0.77849877302059
40
1
40
1
40
1
40
1
41
1
10
20.8162810993572
20
13.8835129659233
30
0
41
1
10
20.8549395004728
20
13.8950623129617
30
0
41
1
10
20.8933333491585
20
13.9103472070784
30
0
41
1
10
20.9958794867499
20
13.9624332134464
30
0
41
1
10
21.0595953664201
20
14.0076947608717
30
0
41
1
10
21.1648687513722
20
14.1104878872147
30
0
41
1
10
21.2094333491875
20
14.1656087563062
30
0
41
1
10
21.2852713219724
20
14.2863646814579
30
0
41
1
10
21.3174174887684
20
14.3535937110882
30
0
41
1
10
21.3638818370017
20
14.4865763761823
30
0
41
1
10
21.3795608698678
20
14.5537742572914
30
0
41
1
10
21.4002662191752
20
14.7135094989014
30
0
41
1
10
21.3979762269169
20
14.8068245210372
30
0
41
1
10
21.3831202294292
20
14.8933541453348
30
0
0
SPLINE
5
258
100
AcDbEntity
8
1
62
256
6
ByLayer
370
-1
48
1
60
0
100
AcDbSpline
70
4
71
3
72
16
73
12
40
0
40
0
40
0
40
0
40
0.0787875328671803
40
0.0787875328671803
40
0.394338838008977
40
0.394338838008977
40
0.676533788437696
40
0.676533788437696
40
0.924926972378474
40
0.924926972378474
40
1
40
1
40
1
40
1
41
1
10
24.2179245843806
20
13.2472830203413
30
0
41
1
10
24.2288816165814
20
13.2501763189136
30
0
41
1
10
24.2397451191
20
13.2535717964469
30
0
41
1
10
24.2928687177318
20
13.2728906789801
30
0
41
1
10
24.3336594908637
20
13.2967385625277
30
0
41
1
10
24.3986739679506
20
13.3550565541216
30
0
41
1
10
24.4251486524672
20
13.3891224074431
30
0
41
1
10
24.4603698959585
20
13.4597102141171
30
0
41
1
10
24.4713262987127
20
13.4965096435158
30
0
41
1
10
24.4765208317162
20
13.5447938050476
30
0
41
1
10
24.4771148874974
20
13.5561659833677
30
0
41
1
10
24.4770810111884
20
13.5675148613722
30
0
0
SPLINE
5
259
100
AcDbEntity
8
1
62
256
6
ByLayer
370
-1
48
1
60
0
100
AcDbSpline
70
4
71
3
72
16
73
12
40
0
40
0
40
0
40
0
40
0.127627815582737
40
0.127627815582737
40
0.350325478338789
40
0.350325478338789
40
0.5795192618369
40
0.5795192618369
40
0.826356513012143
40
0.826356513012143
40
1
40
1
40
1
40
1
41
1
10
23.5240070969209
20
11.8695846469745
30
0
41
1
10
23.5402429324023
20
11.8792656899124
30
0
41
1
10
23.5555691523024
20
11.8904297052099
30
0
41
1
10
23.5939721009354
20
11.9242282764259
30
0
41
1
10
23.6147830254073
20
11.9497311116271
30
0
41
1
10
23.6469310442645
20
12.0052543373378
30
0
41
1
10
23.6584069345626
20
12.0360698747111
30
0
41
1
10
23.6714452066193
20
12.1006210633428
30
0
41
1
10
23.6723772143694
20
12.1351961289464
30
0
41
1
10
23.664913007375
20
12.1920090858337
30
0
41
1
10
23.6591625085908
20
12.2152191311033
30
0
41
1
10
23.6510854543086
20
12.2374418409304
30
0
0
SPLINE
5
25A
100
AcDbEntity
8
1
62
256
6
ByLayer
370
-1
48
1
60
0
100
AcDbSpline
70
4
71
3
72
18
73
14
40
0
40
0
40
0
40
0
40
0.211736715521564
40
0.211736715521564
40
0.386043728065607
40
0.386043728065607
40
0.562074977609608
40
0.562074977609608
40
0.714803156409119
40
0.714803156409119
40
0.918086007818279
40
0.918086007818279
40
1
40
1
40
1
40
1
41
1
10
23.6431575775808
20
14.8933541453348
30
0
41
1
10
23.6141117839341
20
14.8105752109101
30
0
41
1
10
23.5974275220321
20
14.7216716776389
30
0
41
1
10
23.5962707842108
20
14.5574194170431
30
0
41
1
10
23.6068464440792
20
14.4806123949308
30
0
41
1
10
23.6529238601473
20
14.3327236726293
30
0
41
1
10
23.6896400656007
20
14.2595901572886
30
0
41
1
10
23.7772255180058
20
14.1395562255756
30
0
41
1
10
23.8265014275714
20
14.0889704810446
30
0
41
1
10
23.9509397773525
20
13.9900336059694
30
0
41
1
10
24.0311775925226
20
13.9460037396099
30
0
41
1
10
24.1472703711455
20
13.9025553952157
30
0
41
1
10
24.1814950716172
20
13.8920243323393
30
0
41
1
10
24.2160254431435
20
13.8835129659232
30
0
0
SPLINE
5
25B
100
AcDbEntity
8
1
62
256
6
ByLayer
370
-1
48
1
60
0
100
AcDbSpline
70
4
71
3
72
18
73
14
40
0
40
0
40
0
40
0
40
0.207901775533397
40
0.207901775533397
40
0.382890954466112
40
0.382890954466112
40
0.55965006675281
40
0.55965006675281
40
0.712518135594103
40
0.712518135594103
40
0.91511768344731
40
0.91511768344731
40
1
40
1
40
1
40
1
41
1
10
24.2179245843804
20
13.2472830203437
30
0
41
1
10
24.1312964419287
20
13.2244081144124
30
0
41
1
10
24.0459032936242
20
13.188513712799
30
0
41
1
10
23.902137498893
20
13.0987038800097
30
0
41
1
10
23.8401394690063
20
13.0473557135026
30
0
41
1
10
23.7349827473958
20
12.9285104512896
30
0
41
1
10
23.6906943091682
20
12.8589246205589
30
0
41
1
10
23.6333932487317
20
12.7238452346124
30
0
41
1
10
23.6161530146513
20
12.6574998434139
30
0
41
1
10
23.5979804737607
20
12.506284335281
30
0
41
1
10
23.6034989895994
20
12.4198268756043
30
0
41
1
10
23.629212710706
20
12.3041212995877
30
0
41
1
10
23.6391281904412
20
12.2703403204957
30
0
41
1
10
23.6510854543085
20
12.2374418409304
30
0
0
SPLINE
5
25C
100
AcDbEntity
8
1
62
256
6
ByLayer
370
-1
48
1
60
0
100
AcDbSpline
70
4
71
3
72
12
73
8
40
0
40
0
40
0
40
0
40
0.238592977482495
40
0.238592977482495
40
0.744789629092718
40
0.744789629092718
40
1
40
1
40
1
40
1
41
1
10
22.629323133984
20
14.9695623334928
30
0
41
1
10
22.6717482502563
20
14.9775576854265
30
0
41
1
10
22.713756061224
20
14.9888134928319
30
0
41
1
10
22.8399348327779
20
15.0323361627133
30
0
41
1
10
22.9207846954751
20
15.0747342510107
30
0
41
1
10
23.028384759955
20
15.1508535043898
30
0
41
1
10
23.0626353920208
20
15.178846858261
30
0
41
1
10
23.0944991162821
20
15.2086566212278
30
0
0
SPLINE
5
25D
100
AcDbEntity
8
1
62
256
6
ByLayer
370
-1
48
1
60
0
100
AcDbSpline
70
4
71
3
72
14
73
10
40
0
40
0
40
0
40
0
40
0.280140124941077
40
0.280140124941077
40
0.568092970253135
40
0.568092970253135
40
0.828406595346735
40
0.828406595346735
40
1
40
1
40
1
40
1
41
1
10
21.391048106156
20
12.2374418409304
30
0
41
1
10
21.3850272959945
20
12.201787470531
30
0
41
1
10
21.3847144658396
20
12.1633428751411
30
0
41
1
10
21.3972010006857
20
12.0857388304404
30
0
41
1
10
21.4106343663164
20
12.0453826622516
30
0
41
1
10
21.448938821303
20
11.9747261758774
30
0
41
1
10
21.4732267736589
20
11.9427938257498
30
0
41
1
10
21.520323934958
20
11.898387069464
30
0
41
1
10
21.5411680071967
20
11.8826178161502
30
0
41
1
10
21.5631034177347
20
11.8695846469745
30
0
0
SPLINE
5
25E
100
AcDbEntity
8
1
62
256
6
ByLayer
370
-1
48
1
60
0
100
AcDbSpline
70
4
71
3
72
18
73
14
40
0
40
0
40
0
40
0
40
0.196598884261242
40
0.196598884261242
40
0.373667023274269
40
0.373667023274269
40
0.552639135080419
40
0.552639135080419
40
0.70600314387618
40
0.70600314387618
40
0.906663000120472
40
0.906663000120472
40
1
40
1
40
1
40
1
41
1
10
21.3910481061564
20
12.2374418409303
30
0
41
1
10
21.4037887743681
20
12.3128902426187
30
0
41
1
10
21.4066072935929
20
12.3935821647383
30
0
41
1
10
21.390497080923
20
12.549915378956
30
0
41
1
10
21.3733465233748
20
12.6270777629784
30
0
41
1
10
21.3199768514788
20
12.7769654772798
30
0
41
1
10
21.2825667498148
20
12.8518544527314
30
0
41
1
10
21.2002583818863
20
12.9751062529837
30
0
41
1
10
21.1562603233274
20
13.027255861957
30
0
41
1
10
21.0491225073234
20
13.1291294548892
30
0
41
1
10
20.9825376846908
20
13.1751162060288
30
0
41
1
10
20.8830445964597
20
13.2239261503479
30
0
41
1
10
20.8507056453972
20
13.236908312649
30
0
41
1
10
20.818180240594
20
13.2472830203436
30
0
0
SPLINE
5
25F
100
AcDbEntity
8
1
62
256
6
ByLayer
370
-1
48
1
60
0
100
AcDbSpline
70
4
71
3
72
16
73
12
40
0
40
0
40
0
40
0
40
0.213538877707898
40
0.213538877707898
40
0.437190569935609
40
0.437190569935609
40
0.671932374615077
40
0.671932374615077
40
0.927916080142008
40
0.927916080142008
40
1
40
1
40
1
40
1
41
1
10
21.5529668018467
20
15.26544507577
30
0
41
1
10
21.5258546872512
20
15.2492787660142
30
0
41
1
10
21.5004093578725
20
15.2287481512841
30
0
41
1
10
21.4554635392723
20
15.1811191630473
30
0
41
1
10
21.4357237125658
20
15.1531508696717
30
0
41
1
10
21.4043546715792
20
15.0931827308679
30
0
41
1
10
21.3927536478248
20
15.060314101308
30
0
41
1
10
21.3784623080859
20
14.992203911331
30
0
41
1
10
21.3764565074173
20
14.9561695540675
30
0
41
1
10
21.3802629638733
20
14.9123617823958
30
0
41
1
10
21.3815018917899
20
14.9027802473534
30
0
41
1
10
21.3831202294292
20
14.8933541453347
30
0
0
SPLINE
5
260
100
AcDbEntity
8
1
62
256
6
ByLayer
370
-1
48
1
60
0
100
AcDbSpline
70
4
71
3
72
16
73
12
40
0
40
0
40
0
40
0
40
0.0629457441396739
40
0.0629457441396739
40
0.374286864275396
40
0.374286864275396
40
0.654270571665967
40
0.654270571665967
40
0.900378573883644
40
0.900378573883644
40
1
40
1
40
1
40
1
41
1
10
23.1043098285718
20
11.921976923104
30
0
41
1
10
23.1110224915017
20
11.9158869481501
30
0
41
1
10
23.117987613339
20
11.9100050419644
30
0
41
1
10
23.160374024965
20
11.8767517406221
30
0
41
1
10
23.2020603006928
20
11.8543609934654
30
0
41
1
10
23.2865226028826
20
11.8280306966456
30
0
41
1
10
23.3301284016637
20
11.8221338598679
30
0
41
1
10
23.4104196360709
20
11.8263457040956
30
0
41
1
10
23.4484882859132
20
11.8347265191703
30
0
41
1
10
23.4972674332817
20
11.8549408737881
30
0
41
1
10
23.510972351593
20
11.8618123380379
30
0
41
1
10
23.5240070969209
20
11.8695846469745
30
0
0
SPLINE
5
261
100
AcDbEntity
8
1
62
256
6
ByLayer
370
-1
48
1
60
0
100
AcDbSpline
70
4
71
3
72
18
73
14
40
0
40
0
40
0
40
0
40
0.0241452680582635
40
0.0241452680582635
40
0.24325144995837
40
0.24325144995837
40
0.462933467910795
40
0.462933467910795
40
0.695215358988436
40
0.695215358988436
40
0.949601033713138
40
0.949601033713138
40
1
40
1
40
1
40
1
41
1
10
23.513870481033
20
15.2654450757701
30
0
41
1
10
23.5106888825627
20
15.2673354580377
30
0
41
1
10
23.507469928763
20
15.2691708368019
30
0
41
1
10
23.4750238150597
20
15.286910123178
30
0
41
1
10
23.4425797158717
20
15.298374378853
30
0
41
1
10
23.3765219151159
20
15.3108073762014
30
0
41
1
10
23.3420671907508
20
15.3119318907765
30
0
41
1
10
23.2736285013941
20
15.3044245228012
30
0
41
1
10
23.238925030827
20
15.2951705970451
30
0
41
1
10
23.1719280105536
20
15.2669549468419
30
0
41
1
10
23.1393222393713
20
15.246836420908
30
0
41
1
10
23.1053405565913
20
15.2185131248222
30
0
41
1
10
23.0998389913681
20
15.2136522836713
30
0
41
1
10
23.0944991162818
20
15.2086566212281
30
0
0
SPLINE
5
262
100
AcDbEntity
8
1
62
256
6
ByLayer
370
-1
48
1
60
0
100
AcDbSpline
70
4
71
3
72
14
73
10
40
0
40
0
40
0
40
0
40
0.264403361323502
40
0.264403361323502
40
0.554346349806413
40
0.554346349806413
40
0.816286796968186
40
0.816286796968186
40
1
40
1
40
1
40
1
41
1
10
20.8162810993572
20
13.8835129659233
30
0
41
1
10
20.7860856586867
20
13.8744919610908
30
0
41
1
10
20.7563306628073
20
13.8596593806664
30
0
41
1
10
20.6998100414027
20
13.8173908552688
30
0
41
1
10
20.6727536197883
20
13.7881223018354
30
0
41
1
10
20.6324496048268
20
13.722985116556
30
0
41
1
10
20.6175642898971
20
13.6869963290234
30
0
41
1
10
20.6029162890771
20
13.6229048136529
30
0
41
1
10
20.5998105548859
20
13.5950970780391
30
0
41
1
10
20.5998928875793
20
13.5675148613723
30
0
0
SPLINE
5
263
100
AcDbEntity
8
1
62
256
6
ByLayer
370
-1
48
1
60
0
100
AcDbSpline
70
4
71
3
72
12
73
8
40
0
40
0
40
0
40
0
40
0.537410795186767
40
0.537410795186767
40
0.978132403445866
40
0.978132403445866
40
1
40
1
40
1
40
1
41
1
10
21.9282549047663
20
15.2086566212236
30
0
41
1
10
21.979507144533
20
15.1463988437864
30
0
41
1
10
22.0425987245475
20
15.0916432880569
30
0
41
1
10
22.1757875131688
20
15.0146753867942
30
0
41
1
10
22.2442167791446
20
14.9876876620431
30
0
41
1
10
22.321084366937
20
14.9710710253705
30
0
41
1
10
22.32477651497
20
14.9703029444147
30
0
41
1
10
22.3284815141392
20
14.9695623334929
30
0
0
SPLINE
5
264
100
AcDbEntity
8
1
62
256
6
ByLayer
370
-1
48
1
60
0
100
AcDbSpline
70
4
71
3
72
14
73
10
40
0
40
0
40
0
40
0
40
0.22661462379913
40
0.22661462379913
40
0.521306004459432
40
0.521306004459432
40
0.78727344983856
40
0.78727344983856
40
1
40
1
40
1
40
1
41
1
10
23.6431575775817
20
14.8933541453345
30
0
41
1
10
23.6534747034011
20
14.922757393599
30
0
41
1
10
23.6598546320565
20
14.9538813787837
30
0
41
1
10
23.6638789669373
20
15.025822051212
30
0
41
1
10
23.6582684820368
20
15.0679678403333
30
0
41
1
10
23.6317558616968
20
15.1425603468757
30
0
41
1
10
23.6119180194755
20
15.1766644708649
30
0
41
1
10
23.5657769317659
20
15.2288094324831
30
0
41
1
10
23.5410388941016
20
15.2493026596914
30
0
41
1
10
23.513870481033
20
15.2654450757701
30
0
0
SPLINE
5
265
100
AcDbEntity
8
1
62
256
6
ByLayer
370
-1
48
1
60
0
100
AcDbSpline
70
4
71
3
72
18
73
14
40
0
40
0
40
0
40
0
40
0.0611914818580022
40
0.0611914818580022
40
0.27941973675695
40
0.27941973675695
40
0.500404252544619
40
0.500404252544619
40
0.735751387169641
40
0.735751387169641
40
0.994496400107377
40
0.994496400107377
40
1
40
1
40
1
40
1
41
1
10
21.5631034177347
20
11.8695846469745
30
0
41
1
10
21.5711342611669
20
11.8648130316497
30
0
41
1
10
21.5793413738094
20
11.8603827226318
30
0
41
1
10
21.6171687741178
20
11.8419404413977
30
0
41
1
10
21.6487221161019
20
11.8320968056772
30
0
41
1
10
21.7111695650297
20
11.8225628291949
30
0
41
1
10
21.7428419885318
20
11.8228542946387
30
0
41
1
10
21.8040319836219
20
11.8330139129737
30
0
41
1
10
21.8340486127904
20
11.843594467117
30
0
41
1
10
21.889883609701
20
11.8743381087238
30
0
41
1
10
21.9157096584627
20
11.8956995096564
30
0
41
1
10
21.9371683012118
20
11.9209105011085
30
0
41
1
10
21.9376179953899
20
11.9214428990683
30
0
41
1
10
21.9380656170536
20
11.9219769231048
30
0
0
SPLINE
5
266
100
AcDbEntity
8
1
62
256
6
ByLayer
370
-1
48
1
60
0
100
AcDbSpline
70
4
71
3
72
16
73
12
40
0
40
0
40
0
40
0
40
0.192651042858079
40
0.192651042858079
40
0.48707292130118
40
0.48707292130118
40
0.752815930674443
40
0.752815930674443
40
0.988571524642402
40
0.988571524642402
40
1
40
1
40
1
40
1
41
1
10
21.9282549047678
20
15.2086566212264
30
0
41
1
10
21.9126195892694
20
15.227649352021
30
0
41
1
10
21.8943762793743
20
15.2447683288486
30
0
41
1
10
21.8431386555349
20
15.2811425613798
30
0
41
1
10
21.8064273770316
20
15.2973044785834
30
0
41
1
10
21.7319203132649
20
15.3119901615326
30
0
41
1
10
21.6934075818225
20
15.312223556441
30
0
41
1
10
21.6222471194301
20
15.29848532805
30
0
41
1
10
21.5884092918071
20
15.2858756162521
30
0
41
1
10
21.5559907446851
20
15.2672320685501
30
0
41
1
10
21.5544757407594
20
15.2663448201916
30
0
41
1
10
21.5529668018467
20
15.26544507577
30
0
0
SPLINE
5
267
100
AcDbEntity
8
1
62
256
6
ByLayer
370
-1
48
1
60
0
100
AcDbSpline
70
4
71
3
72
16
73
12
40
0
40
0
40
0
40
0
40
0.152937598148235
40
0.152937598148235
40
0.37568942846759
40
0.37568942846759
40
0.606320624574513
40
0.606320624574513
40
0.855690651943138
40
0.855690651943138
40
1
40
1
40
1
40
1
41
1
10
24.4770810111884
20
13.5675148613722
30
0
41
1
10
24.4770126078394
20
13.5904306183518
30
0
41
1
10
24.4743535151907
20
13.6134745715069
30
0
41
1
10
24.4618028628944
20
13.6681717756711
30
0
41
1
10
24.4489354134337
20
13.6996437785345
30
0
41
1
10
24.4143294183514
20
13.7570886111152
30
0
41
1
10
24.3918856529708
20
13.7835670706535
30
0
41
1
10
24.3392352628237
20
13.829715973414
30
0
41
1
10
24.3079152494236
20
13.8492638409252
30
0
41
1
10
24.2559548833883
20
13.8718937587577
30
0
41
1
10
24.236125952612
20
13.8785584058164
30
0
41
1
10
24.2160254431435
20
13.8835129659232
30
0
0
SPLINE
5
268
100
AcDbEntity
8
1
62
256
6
ByLayer
370
-1
48
1
60
0
100
AcDbSpline
70
4
71
3
72
12
73
8
40
0
40
0
40
0
40
0
40
0.497028833984354
40
0.497028833984354
40
0.945312370476727
40
0.945312370476727
40
1
40
1
40
1
40
1
41
1
10
23.1043098285733
20
11.9219769231052
30
0
41
1
10
23.0424175912029
20
11.9781278395698
30
0
41
1
10
22.9711697123612
20
12.0278714991366
30
0
41
1
10
22.8233211639773
20
12.1032393133398
30
0
41
1
10
22.7461470947652
20
12.1314504715848
30
0
41
1
10
22.657330382471
20
12.1507536294044
30
0
41
1
10
22.647541886948
20
12.1527111307765
30
0
41
1
10
22.6377260652621
20
12.1545023441484
30
0
0
SPLINE
5
269
100
AcDbEntity
8
1
62
256
6
ByLayer
370
-1
48
1
60
0
100
AcDbSpline
70
4
71
3
72
16
73
12
40
0
40
0
40
0
40
0
40
0.0513580794938469
40
0.0513580794938469
40
0.274725697226149
40
0.274725697226149
40
0.500258795802176
40
0.500258795802176
40
0.739951195105552
40
0.739951195105552
40
1
40
1
40
1
40
1
41
1
10
20.5998928875793
20
13.5675148613723
30
0
41
1
10
20.5999160286405
20
13.5597623910316
30
0
41
1
10
20.6001859520781
20
13.5520017550905
30
0
41
1
10
20.6029233526988
20
13.5108986031408
30
0
41
1
10
20.6098837317479
20
13.4775086844485
30
0
41
1
10
20.631865504722
20
13.4156623907779
30
0
41
1
10
20.6472212566498
20
13.3864599289038
30
0
41
1
10
20.6847364467809
20
13.3340428429338
30
0
41
1
10
20.7077057442894
20
13.3106407100557
30
0
41
1
10
20.759104845527
20
13.2718355438508
30
0
41
1
10
20.7884430732146
20
13.2567683571472
30
0
41
1
10
20.818180240594
20
13.2472830203437
30
0
0
SPLINE
5
26A
100
AcDbEntity
8
1
62
256
6
ByLayer
370
-1
48
1
60
0
100
AcDbSpline
70
4
71
3
72
8
73
4
40
0
40
0
40
0
40
0
40
1
40
1
40
1
40
1
41
1
10
13.5629827128487
20
19.7251861332969
30
0
41
1
10
13.5633830114165
20
19.729474880232
30
0
41
1
10
13.5637833085044
20
19.7337636704719
30
0
41
1
10
13.5641836041623
20
19.7380525025563
30
0
0
SPLINE
5
26B
100
AcDbEntity
8
1
62
256
6
ByLayer
370
-1
48
1
60
0
100
AcDbSpline
70
4
71
3
72
22
73
18
40
0
40
0
40
0
40
0
40
0.0450139638013614
40
0.0450139638013614
40
0.239486137884558
40
0.239486137884558
40
0.43417096840958
40
0.43417096840958
40
0.563611300621831
40
0.563611300621831
40
0.66192739877877
40
0.66192739877877
40
0.820451041495802
40
0.820451041495802
40
0.916235947302995
40
0.916235947302995
40
1
40
1
40
1
40
1
41
1
10
14.9042854820843
20
19.8057236987535
30
0
41
1
10
14.899055797409
20
19.8060756209727
30
0
41
1
10
14.89374312363
20
19.8063938389655
30
0
41
1
10
14.8650741480314
20
19.8079041819477
30
0
41
1
10
14.840256842685
20
19.808509940234
30
0
41
1
10
14.78777323481
20
19.8082241797791
30
0
41
1
10
14.7599885322053
20
19.8073397261859
30
0
41
1
10
14.7112715018915
20
19.8040359932835
30
0
41
1
10
14.6910817915067
20
19.8022215542951
30
0
41
1
10
14.6543848218276
20
19.7977844991944
30
0
41
1
10
14.6381009685429
20
19.7954530582631
30
0
41
1
10
14.5948648088996
20
19.7879162393286
30
0
41
1
10
14.5668153094157
20
19.7817542038206
30
0
41
1
10
14.5222229895974
20
19.7679225901807
30
0
41
1
10
14.5051940720169
20
19.7616627383394
30
0
41
1
10
14.4755145138181
20
19.7480547663828
30
0
41
1
10
14.4622861944661
20
19.7407575784785
30
0
41
1
10
14.4508668613537
20
19.7330145173596
30
0
0
SPLINE
5
26C
100
AcDbEntity
8
1
62
256
6
ByLayer
370
-1
48
1
60
0
100
AcDbSpline
70
4
71
3
72
18
73
14
40
0
40
0
40
0
40
0
40
0.0235065764911545
40
0.0235065764911545
40
0.159686101650186
40
0.159686101650186
40
0.295423883198312
40
0.295423883198312
40
0.55042032554848
40
0.55042032554848
40
0.804718733927057
40
0.804718733927057
40
1
40
1
40
1
40
1
41
1
10
15.0710901857712
20
19.7474194237432
30
0
41
1
10
15.0711009710806
20
19.7484263204916
30
0
41
1
10
15.0710533478264
20
19.7494074757582
30
0
41
1
10
15.0703565820986
20
19.7559371059574
30
0
41
1
10
15.0679367273633
20
19.7607616356814
30
0
41
1
10
15.0606077483627
20
19.76927722197
30
0
41
1
10
15.0556796293702
20
19.7729958010096
30
0
41
1
10
15.0388772105214
20
19.7825332236459
30
0
41
1
10
15.0246552430231
20
19.7874093762722
30
0
41
1
10
14.9920904083275
20
19.7954330780464
30
0
41
1
10
14.973633240184
20
19.7985932139752
30
0
41
1
10
14.9380915144213
20
19.8030203539202
30
0
41
1
10
14.9216319169599
20
19.804556401634
30
0
41
1
10
14.9042854820843
20
19.8057236987535
30
0
0
SPLINE
5
26D
100
AcDbEntity
8
1
62
256
6
ByLayer
370
-1
48
1
60
0
100
AcDbSpline
70
4
71
3
72
8
73
4
40
0
40
0
40
0
40
0
40
1
40
1
40
1
40
1
41
1
10
12.6459481698982
20
19.7310663802651
30
0
41
1
10
12.648363992566
20
19.7267989737827
30
0
41
1
10
12.6507798241026
20
19.7225316092232
30
0
41
1
10
12.6531956648168
20
19.7182642880496
30
0
0
SPLINE
5
26E
100
AcDbEntity
8
1
62
256
6
ByLayer
370
-1
48
1
60
0
100
AcDbSpline
70
4
71
3
72
10
73
6
40
0
40
0
40
0
40
0
40
0.898347317818015
40
0.898347317818015
40
1
40
1
40
1
40
1
41
1
10
12.6531956648168
20
19.7182642880496
30
0
41
1
10
12.6585034382376
20
19.7088886807223
30
0
41
1
10
12.6610809467569
20
19.6994569530344
30
0
41
1
10
12.6615975859673
20
19.6894992757792
30
0
41
1
10
12.6616240027848
20
19.6884956758255
30
0
41
1
10
12.6616253577326
20
19.6874963236912
30
0
0
SPLINE
5
26F
100
AcDbEntity
8
1
62
256
6
ByLayer
370
-1
48
1
60
0
100
AcDbSpline
70
4
71
3
72
24
73
20
40
0
40
0
40
0
40
0
40
0.0429952269613741
40
0.0429952269613741
40
0.228745926441267
40
0.228745926441267
40
0.41469974538033
40
0.41469974538033
40
0.538335079651981
40
0.538335079651981
40
0.632242005354186
40
0.632242005354186
40
0.783656353743961
40
0.783656353743961
40
0.875145603232632
40
0.875145603232632
40
0.967942630462037
40
0.967942630462037
40
1
40
1
40
1
40
1
41
1
10
13.0700699126426
20
19.8450102053342
30
0
41
1
10
13.0618048485716
20
19.8449473230426
30
0
41
1
10
13.053555069373
20
19.8448485898205
30
0
41
1
10
13.0098053303829
20
19.8441322123085
30
0
41
1
10
12.9745671338208
20
19.8428901870904
30
0
41
1
10
12.9054664698522
20
19.8388609449513
30
0
41
1
10
12.87143882712
20
19.8360720665641
30
0
41
1
10
12.8168708482764
20
19.8295835122437
30
0
41
1
10
12.7955479657454
20
19.8264883208008
30
0
41
1
10
12.7596360041642
20
19.8198095399299
30
0
41
1
10
12.7446057232404
20
19.8165107834238
30
0
41
1
10
12.7076910315481
20
19.8064962711491
30
0
41
1
10
12.6866162889912
20
19.7988138931257
30
0
41
1
10
12.6607580085668
20
19.7827969454374
30
0
41
1
10
12.652723206933
20
19.7757583086265
30
0
41
1
10
12.6427491207704
20
19.7598340208005
30
0
41
1
10
12.6408701368787
20
19.7506549370034
30
0
41
1
10
12.6433623565629
20
19.737855768815
30
0
41
1
10
12.6444516974685
20
19.7344659230824
30
0
41
1
10
12.6459481698982
20
19.7310663802651
30
0
0
SPLINE
5
270
100
AcDbEntity
8
1
62
256
6
ByLayer
370
-1
48
1
60
0
100
AcDbSpline
70
4
71
3
72
22
73
18
40
0
40
0
40
0
40
0
40
0.0904884159773175
40
0.0904884159773175
40
0.167615335033859
40
0.167615335033859
40
0.286482716021486
40
0.286482716021486
40
0.385988194077636
40
0.385988194077636
40
0.485170892999881
40
0.485170892999881
40
0.671495106342737
40
0.671495106342737
40
0.857309270880793
40
0.857309270880793
40
1
40
1
40
1
40
1
41
1
10
13.5641836041623
20
19.7380525025563
30
0
41
1
10
13.5637938207182
20
19.7474981456755
30
0
41
1
10
13.5598856954493
20
19.7569157916081
30
0
41
1
10
13.5468468388322
20
19.7724831850115
30
0
41
1
10
13.5384767038001
20
19.7791063244358
30
0
41
1
10
13.5137452451846
20
19.7938528499956
30
0
41
1
10
13.4952075971687
20
19.8011755356918
30
0
41
1
10
13.4589984526119
20
19.8122268326155
30
0
41
1
10
13.4413779468874
20
19.8164415022496
30
0
41
1
10
13.4053571431663
20
19.8236354868543
30
0
41
1
10
13.3868432127583
20
19.8266382848929
30
0
41
1
10
13.3330413903025
20
19.8340176241127
30
0
41
1
10
13.2970122920259
20
19.8373552089544
30
0
41
1
10
13.224996123321
20
19.8421734707986
30
0
41
1
10
13.1887771983802
20
19.8436561176419
30
0
41
1
10
13.1251022491966
20
19.8450368745938
30
0
41
1
10
13.0974844518649
20
19.8452187807348
30
0
41
1
10
13.0700699126426
20
19.8450102053342
30
0
0
SPLINE
5
271
100
AcDbEntity
8
1
62
256
6
ByLayer
370
-1
48
1
60
0
100
AcDbSpline
70
4
71
3
72
22
73
18
40
0
40
0
40
0
40
0
40
0.0904884159773677
40
0.0904884159773677
40
0.167615335034005
40
0.167615335034005
40
0.286482716021683
40
0.286482716021683
40
0.385988194077859
40
0.385988194077859
40
0.485170893000205
40
0.485170893000205
40
0.671495106343107
40
0.671495106343107
40
0.857309270881246
40
0.857309270881246
40
1
40
1
40
1
40
1
41
1
10
11.9182383650634
20
19.7003049883952
30
0
41
1
10
11.9049563997589
20
19.7093358408017
30
0
41
1
10
11.8896486241523
20
19.7181666705149
30
0
41
1
10
11.8606035608723
20
19.732443806975
30
0
41
1
10
11.8466473482714
20
19.7383807869821
30
0
41
1
10
11.8122799761781
20
19.751308084221
30
0
41
1
10
11.7918476986748
20
19.7574286254297
30
0
41
1
10
11.7569451200172
20
19.7662835442445
30
0
41
1
10
11.7417467142077
20
19.7694835193122
30
0
41
1
10
11.7130587279407
20
19.7746753722704
30
0
41
1
10
11.6994745222228
20
19.7766842922969
30
0
41
1
10
11.6624790813554
20
19.7812505638851
30
0
41
1
10
11.6406737670185
20
19.782794307328
30
0
41
1
10
11.6012251222943
20
19.7841523031283
30
0
41
1
10
11.583464239362
20
19.7839576717638
30
0
41
1
10
11.555331942381
20
19.7824833600495
30
0
41
1
10
11.544173936594
20
19.7814585577615
30
0
41
1
10
11.5341058322474
20
19.7800826852414
30
0
0
SPLINE
5
272
100
AcDbEntity
8
1
62
256
6
ByLayer
370
-1
48
1
60
0
100
AcDbSpline
70
4
71
3
72
14
73
10
40
0
40
0
40
0
40
0
40
0.142282681336538
40
0.142282681336538
40
0.426493461709851
40
0.426493461709851
40
0.866145857124077
40
0.866145857124077
40
1
40
1
40
1
40
1
41
1
10
13.6425393670274
20
19.629925883285
30
0
41
1
10
13.6361392052931
20
19.6334491224187
30
0
41
1
10
13.6299679866229
20
19.6371166120833
30
0
41
1
10
13.612272288402
20
19.6485405891659
30
0
41
1
10
13.6014869038404
20
19.6567686636724
30
0
41
1
10
13.5781922410494
20
19.6790271118697
30
0
41
1
10
13.5674128874128
20
19.6942430501777
30
0
41
1
10
13.5628809681219
20
19.7151104810778
30
0
41
1
10
13.562512482554
20
19.7201481469099
30
0
41
1
10
13.5629827128485
20
19.7251861332967
30
0
0
SPLINE
5
273
100
AcDbEntity
8
1
62
256
6
ByLayer
370
-1
48
1
60
0
100
AcDbSpline
70
4
71
3
72
18
73
14
40
0
40
0
40
0
40
0
40
0.054985021402141
40
0.054985021402141
40
0.292534789319613
40
0.292534789319613
40
0.530344319275729
40
0.530344319275729
40
0.688457021111509
40
0.688457021111509
40
0.808551149795024
40
0.808551149795024
40
1
40
1
40
1
40
1
41
1
10
11.5341058322474
20
19.7800826852414
30
0
41
1
10
11.5310704528517
20
19.7796678807306
30
0
41
1
10
11.5281333296072
20
19.7792206826895
30
0
41
1
10
11.5130523760929
20
19.7766713438469
30
0
41
1
10
11.5026310026296
20
19.7740052365612
30
0
41
1
10
11.4860122005913
20
19.7672990689781
30
0
41
1
10
11.4797679970333
20
19.7632507346339
30
0
41
1
10
11.4739139856044
20
19.7548684932814
30
0
41
1
10
11.4727793286975
20
19.7510682573283
30
0
41
1
10
11.4735610703012
20
19.7432836322809
30
0
41
1
10
11.4748130124788
20
19.73955006584
30
0
41
1
10
11.4810855196185
20
19.7286423041318
30
0
41
1
10
11.4879430858846
20
19.7206156319652
30
0
41
1
10
11.4993599274778
20
19.7106539975248
30
0
0
SPLINE
5
274
100
AcDbEntity
8
1
62
256
6
ByLayer
370
-1
48
1
60
0
100
AcDbSpline
70
4
71
3
72
8
73
4
40
0
40
0
40
0
40
0
40
1
40
1
40
1
40
1
41
1
10
11.93531574052
20
19.6879184200675
30
0
41
1
10
11.9296232606987
20
19.6920472327602
30
0
41
1
10
11.9239308024554
20
19.696176089363
30
0
41
1
10
11.9182383650634
20
19.7003049883952
30
0
0
LINE
5
47
100
AcDbEntity
8
1
62
256
6
ByLayer
370
-1
48
1
60
0
100
AcDbLine
10
12.661598
20
19.642953
30
0
11
12.661625
21
19.687706
31
0
39
0
210
0
220
0
230
1
0
LINE
5
49
100
AcDbEntity
8
1
62
256
6
ByLayer
370
-1
48
1
60
0
100
AcDbLine
10
22.682317
20
9.989279
30
0
11
22.808238
21
10.001744
31
0
39
0
210
0
220
0
230
1
0
LINE
5
4A
100
AcDbEntity
8
1
62
256
6
ByLayer
370
-1
48
1
60
0
100
AcDbLine
10
22.103884
20
17.116966
30
0
11
21.977963
21
17.104501
31
0
39
0
210
0
220
0
230
1
0
LINE
5
4B
100
AcDbEntity
8
1
62
256
6
ByLayer
370
-1
48
1
60
0
100
AcDbLine
10
21.915685
20
3.202043
30
0
11
22.634906
21
3.272587
31
0
39
0
210
0
220
0
230
1
0
LINE
5
4C
100
AcDbEntity
8
1
62
256
6
ByLayer
370
-1
48
1
60
0
100
AcDbLine
10
26.495181
20
6.99964
30
0
11
27.215937
21
7.070334
31
0
39
0
210
0
220
0
230
1
0
LINE
5
4D
100
AcDbEntity
8
1
62
256
6
ByLayer
370
-1
48
1
60
0
100
AcDbLine
10
14.842475
20
19.771328
30
0
11
13.87856
21
19.675908
31
0
39
0
210
0
220
0
230
1
0
LINE
5
4E
100
AcDbEntity
8
1
62
256
6
ByLayer
370
-1
48
1
60
0
100
AcDbLine
10
20.593562
20
3.410414
30
0
11
21.555933
21
3.505681
31
0
39
0
210
0
220
0
230
1
0
LINE
5
4F
100
AcDbEntity
8
1
62
256
6
ByLayer
370
-1
48
1
60
0
100
AcDbLine
10
18.999797
20
6.532851
30
0
11
19.903999
21
6.62236
31
0
39
0
210
0
220
0
230
1
0
LINE
5
50
100
AcDbEntity
8
80
62
256
6
ByLayer
370
-1
48
1
60
0
100
AcDbLine
10
0
20
0
30
0
11
-5
21
0
31
0
39
0
210
0
220
0
230
1
0
LINE
5
51
100
AcDbEntity
8
81
62
256
6
ByLayer
370
-1
48
1
60
0
100
AcDbLine
10
33.309782
20
19.9125
30
0
11
38.309782
21
19.9125
31
0
39
0
210
0
220
0
230
1
0
LINE
5
52
100
AcDbEntity
8
1
62
256
6
ByLayer
370
-1
48
1
60
0
100
AcDbLine
10
26.699512
20
6.855417
30
0
11
26.699027
21
7.01964
31
0
39
0
210
0
220
0
230
1
0
LINE
5
53
100
AcDbEntity
8
1
62
256
6
ByLayer
370
-1
48
1
60
0
100
AcDbLine
10
25.824718
20
6.855302
30
0
11
27.329947
21
6.855302
31
0
39
0
210
0
220
0
230
1
0
LINE
5
54
100
AcDbEntity
8
1
62
256
6
ByLayer
370
-1
48
1
60
0
100
AcDbLine
10
28.431888
20
6.686452
30
0
11
28.459725
21
-2.639242
31
0
39
0
210
0
220
0
230
1
0
LINE
5
55
100
AcDbEntity
8
1
62
256
6
ByLayer
370
-1
48
1
60
0
100
AcDbLine
10
0
20
-12.523441
30
0
11
0
21
-12.41128
31
0
39
0
210
0
220
0
230
1
0
LINE
5
56
100
AcDbEntity
8
1
62
256
6
ByLayer
370
-1
48
1
60
0
100
AcDbLine
10
11.344393
20
-12.524767
30
0
11
0.303845
21
-12.524767
31
0
39
0
210
0
220
0
230
1
0
LINE
5
57
100
AcDbEntity
8
1
62
256
6
ByLayer
370
-1
48
1
60
0
100
AcDbLine
10
0
20
-12.41128
30
0
11
0
21
12.4375
31
0
39
0
210
0
220
0
230
1
0
LINE
5
58
100
AcDbEntity
8
1
62
256
6
ByLayer
370
-1
48
1
60
0
100
AcDbLine
10
25.496586
20
6.275154
30
0
11
26.420704
21
6.686452
31
0
39
0
210
0
220
0
230
1
0
LINE
5
59
100
AcDbEntity
8
1
62
256
6
ByLayer
370
-1
48
1
60
0
100
AcDbLine
10
0.002604
20
-12.411282
30
0
11
11.525527
21
-12.420147
31
0
39
0
210
0
220
0
230
1
0
LINE
5
5A
100
AcDbEntity
8
1
62
256
6
ByLayer
370
-1
48
1
60
0
100
AcDbLine
10
14.257391
20
14.866161
30
0
11
18.317926
21
7.762593
31
0
39
0
210
0
220
0
230
1
0
LINE
5
5B
100
AcDbEntity
8
1
62
256
6
ByLayer
370
-1
48
1
60
0
100
AcDbLine
10
22.950178
20
1.777676
30
0
11
25.077825
21
5.538738
31
0
39
0
210
0
220
0
230
1
0
LINE
5
5C
100
AcDbEntity
8
1
62
256
6
ByLayer
370
-1
48
1
60
0
100
AcDbLine
10
6.775567
20
19.213067
30
0
11
0.002604
21
12.440104
31
0
39
0
210
0
220
0
230
1
0
LINE
5
5D
100
AcDbEntity
8
1
62
256
6
ByLayer
370
-1
48
1
60
0
100
AcDbLine
10
6.775567
20
19.213067
30
0
11
11.55568
21
19.213067
31
0
39
0
210
0
220
0
230
1
0
LINE
5
5E
100
AcDbEntity
8
1
62
256
6
ByLayer
370
-1
48
1
60
0
100
AcDbLine
10
26.420704
20
6.686452
30
0
11
28.431888
21
6.686452
31
0
39
0
210
0
220
0
230
1
0
LINE
5
5F
100
AcDbEntity
8
1
62
256
6
ByLayer
370
-1
48
1
60
0
100
AcDbLine
10
27.329947
20
6.855302
30
0
11
27.330446
21
6.686449
31
0
39
0
210
0
220
0
230
1
0
LINE
5
60
100
AcDbEntity
8
1
62
256
6
ByLayer
370
-1
48
1
60
0
100
AcDbLine
10
13.690469
20
15.687549
30
0
11
11.683445
21
19.198671
31
0
39
0
210
0
220
0
230
1
0
LINE
5
61
100
AcDbEntity
8
1
62
256
6
ByLayer
370
-1
48
1
60
0
100
AcDbLine
10
18.788607
20
6.768781
30
0
11
19.548773
21
5.438934
31
0
39
0
210
0
220
0
230
1
0
LINE
5
62
100
AcDbEntity
8
1
62
256
6
ByLayer
370
-1
48
1
60
0
100
AcDbLine
10
0
20
12.4375
30
0
11
0.002604
21
12.440104
31
0
39
0
210
0
220
0
230
1
0
LINE
5
63
100
AcDbEntity
8
1
62
256
6
ByLayer
370
-1
48
1
60
0
100
AcDbLine
10
0.002604
20
-12.411282
30
0
11
0.002604
21
12.440104
31
0
39
0
210
0
220
0
230
1
0
LINE
5
64
100
AcDbEntity
8
1
62
256
6
ByLayer
370
-1
48
1
60
0
100
AcDbLine
10
19.503104
20
5.20104
30
0
11
19.542167
21
5.240821
31
0
39
0
210
0
220
0
230
1
0
LINE
5
65
100
AcDbEntity
8
1
62
256
6
ByLayer
370
-1
48
1
60
0
100
AcDbLine
10
24.156541
20
2.683948
30
0
11
26.420704
21
6.686452
31
0
39
0
210
0
220
0
230
1
0
LINE
5
66
100
AcDbEntity
8
1
62
256
6
ByLayer
370
-1
48
1
60
0
100
AcDbLine
10
11.344393
20
-12.524767
30
0
11
11.525527
21
-12.420147
31
0
39
0
210
0
220
0
230
1
0
LINE
5
67
100
AcDbEntity
8
1
62
256
6
ByLayer
370
-1
48
1
60
0
100
AcDbLine
10
11.525527
20
-12.420147
30
0
11
28.459725
21
-2.639242
31
0
39
0
210
0
220
0
230
1
0
LINE
5
68
100
AcDbEntity
8
1
62
256
6
ByLayer
370
-1
48
1
60
0
100
AcDbLine
10
0
20
-12.523441
30
0
11
0.303845
21
-12.524767
31
0
39
0
210
0
220
0
230
1
0
LINE
5
69
100
AcDbEntity
8
1
62
256
6
ByLayer
370
-1
48
1
60
0
100
AcDbLine
10
19.542167
20
5.240821
30
0
11
19.548773
21
5.438934
31
0
39
0
210
0
220
0
230
1
0
LINE
5
6A
100
AcDbEntity
8
1
62
256
6
ByLayer
370
-1
48
1
60
0
100
AcDbLine
10
19.542167
20
5.240821
30
0
11
11.55568
21
19.213067
31
0
39
0
210
0
220
0
230
1
0
LINE
5
6B
100
AcDbEntity
8
1
62
256
6
ByLayer
370
-1
48
1
60
0
100
AcDbLine
10
11.683445
20
19.198671
30
0
11
11.55568
21
19.213067
31
0
39
0
210
0
220
0
230
1
0
LINE
5
6C
100
AcDbEntity
8
SK1
62
256
6
ByLayer
370
-1
48
1
60
0
100
AcDbLine
10
0
20
-12.523441
30
0
11
0
21
-12.41128
31
0
39
0
210
0
220
0
230
1
0
LINE
5
6E
100
AcDbEntity
8
SK1
62
256
6
ByLayer
370
-1
48
1
60
0
100
AcDbLine
10
0
20
-12.41128
30
0
11
0
21
12.4375
31
0
39
0
210
0
220
0
230
1
0
LINE
5
6F
100
AcDbEntity
8
1
62
256
6
ByLayer
370
-1
48
1
60
0
100
AcDbLine
10
28.229962
20
19.693137
30
0
11
31.382137
21
17.88601
31
0
39
0
210
0
220
0
230
1
0
LINE
5
70
100
AcDbEntity
8
1
62
256
6
ByLayer
370
-1
48
1
60
0
100
AcDbLine
10
29.318452
20
15.006542
30
0
11
29.576831
21
14.826796
31
0
39
0
210
0
220
0
230
1
0
LINE
5
71
100
AcDbEntity
8
1
62
256
6
ByLayer
370
-1
48
1
60
0
100
AcDbLine
10
31.384967
20
16.938171
30
0
11
29.334957
21
15.746595
31
0
39
0
210
0
220
0
230
1
0
LINE
5
72
100
AcDbEntity
8
1
62
256
6
ByLayer
370
-1
48
1
60
0
100
AcDbLine
10
29.210133
20
15.530583
30
0
11
29.21109
21
15.209942
31
0
39
0
210
0
220
0
230
1
0
LINE
5
73
100
AcDbEntity
8
1
62
256
6
ByLayer
370
-1
48
1
60
0
100
AcDbLine
10
19.964504
20
6.293697
30
0
11
19.986863
21
3.949818
31
0
39
0
210
0
220
0
230
1
0
LINE
5
74
100
AcDbEntity
8
1
62
256
6
ByLayer
370
-1
48
1
60
0
100
AcDbLine
10
20.236209
20
6.768251
30
0
11
19.965357
21
6.639406
31
0
39
0
210
0
220
0
230
1
0
LINE
5
75
100
AcDbEntity
8
1
62
256
6
ByLayer
370
-1
48
1
60
0
100
AcDbLine
10
20.732545
20
6.596788
30
0
11
20.458561
21
6.757108
31
0
39
0
210
0
220
0
230
1
0
LINE
5
76
100
AcDbEntity
8
1
62
256
6
ByLayer
370
-1
48
1
60
0
100
AcDbLine
10
20.244235
20
3.50301
30
0
11
20.28763
21
3.477618
31
0
39
0
210
0
220
0
230
1
0
LINE
5
77
100
AcDbEntity
8
1
62
256
6
ByLayer
370
-1
48
1
60
0
100
AcDbLine
10
24.729501
20
5.336412
30
0
11
21.754252
21
3.570681
31
0
39
0
210
0
220
0
230
1
0
LINE
5
78
100
AcDbEntity
8
1
62
256
6
ByLayer
370
-1
48
1
60
0
100
AcDbLine
10
16.830961
20
10.805133
30
0
11
16.901349
21
10.638525
31
0
39
0
210
0
220
0
230
1
0
LINE
5
79
100
AcDbEntity
8
1
62
256
6
ByLayer
370
-1
48
1
60
0
100
AcDbLine
10
16.632912
20
11.132152
30
0
11
16.587258
21
11.193271
31
0
39
0
210
0
220
0
230
1
0
LINE
5
7A
100
AcDbEntity
8
1
62
256
6
ByLayer
370
-1
48
1
60
0
100
AcDbLine
10
15.456599
20
13.054568
30
0
11
14.22077
21
15.216439
31
0
39
0
210
0
220
0
230
1
0
LINE
5
7B
100
AcDbEntity
8
1
62
256
6
ByLayer
370
-1
48
1
60
0
100
AcDbLine
10
18.792349
20
19.906561
30
0
11
21.202631
21
19.902794
31
0
39
0
210
0
220
0
230
1
0
LINE
5
7C
100
AcDbEntity
8
1
62
256
6
ByLayer
370
-1
48
1
60
0
100
AcDbLine
10
16.03042
20
12.14484
30
0
11
16.476698
21
11.364153
31
0
39
0
210
0
220
0
230
1
0
LINE
5
7D
100
AcDbEntity
8
1
62
256
6
ByLayer
370
-1
48
1
60
0
100
AcDbLine
10
18.342355
20
15.852355
30
0
11
17.29984
21
13.850306
31
0
39
0
210
0
220
0
230
1
0
LINE
5
7E
100
AcDbEntity
8
1
62
256
6
ByLayer
370
-1
48
1
60
0
100
AcDbLine
10
22.100148
20
18.912997
30
0
11
20.1694
21
17.779266
31
0
39
0
210
0
220
0
230
1
0
LINE
5
7F
100
AcDbEntity
8
1
62
256
6
ByLayer
370
-1
48
1
60
0
100
AcDbLine
10
22.196355
20
18.156016
30
0
11
22.345756
21
18.77187
31
0
39
0
210
0
220
0
230
1
0
LINE
5
80
100
AcDbEntity
8
1
62
256
6
ByLayer
370
-1
48
1
60
0
100
AcDbLine
10
17.451584
20
13.610184
30
0
11
18.052001
21
13.785133
31
0
39
0
210
0
220
0
230
1
0
LINE
5
81
100
AcDbEntity
8
1
62
256
6
ByLayer
370
-1
48
1
60
0
100
AcDbLine
10
18.03843
20
13.847315
30
0
11
17.438013
21
13.672366
31
0
39
0
210
0
220
0
230
1
0
LINE
5
82
100
AcDbEntity
8
1
62
256
6
ByLayer
370
-1
48
1
60
0
100
AcDbLine
10
22.28835
20
18.78782
30
0
11
22.138949
21
18.171966
31
0
39
0
210
0
220
0
230
1
0
LINE
5
83
100
AcDbEntity
8
1
62
256
6
ByLayer
370
-1
48
1
60
0
100
AcDbLine
10
20.217351
20
17.709069
30
0
11
22.148099
21
18.842799
31
0
39
0
210
0
220
0
230
1
0
LINE
5
84
100
AcDbEntity
8
1
62
256
6
ByLayer
370
-1
48
1
60
0
100
AcDbLine
10
17.378586
20
13.812588
30
0
11
18.421101
21
15.814637
31
0
39
0
210
0
220
0
230
1
0
LINE
5
85
100
AcDbEntity
8
1
62
256
6
ByLayer
370
-1
48
1
60
0
100
AcDbLine
10
22.933117
20
19.910423
30
0
11
22.100148
21
18.912997
31
0
39
0
210
0
220
0
230
1
0
LINE
5
86
100
AcDbEntity
8
1
62
256
6
ByLayer
370
-1
48
1
60
0
100
AcDbLine
10
22.345756
20
18.77187
30
0
11
23.295713
21
19.909382
31
0
39
0
210
0
220
0
230
1
0
LINE
5
87
100
AcDbEntity
8
1
62
256
6
ByLayer
370
-1
48
1
60
0
100
AcDbLine
10
16.140537
20
12.375334
30
0
11
17.451584
21
13.610184
31
0
39
0
210
0
220
0
230
1
0
LINE
5
88
100
AcDbEntity
8
1
62
256
6
ByLayer
370
-1
48
1
60
0
100
AcDbLine
10
17.29984
20
13.850306
30
0
11
15.951287
21
12.580129
31
0
39
0
210
0
220
0
230
1
0
LINE
5
89
100
AcDbEntity
8
1
62
256
6
ByLayer
370
-1
48
1
60
0
100
AcDbLine
10
15.456599
20
13.054568
30
0
11
17.179298
21
16.362844
31
0
39
0
210
0
220
0
230
1
0
LINE
5
8A
100
AcDbEntity
8
1
62
256
6
ByLayer
370
-1
48
1
60
0
100
AcDbLine
10
14.221707
20
15.479116
30
0
11
18.301732
21
17.874897
31
0
39
0
210
0
220
0
230
1
0
LINE
5
8B
100
AcDbEntity
8
1
62
256
6
ByLayer
370
-1
48
1
60
0
100
AcDbLine
10
14.224224
20
15.630253
30
0
11
18.239245
21
17.987864
31
0
39
0
210
0
220
0
230
1
0
LINE
5
8C
100
AcDbEntity
8
1
62
256
6
ByLayer
370
-1
48
1
60
0
100
AcDbLine
10
18.342355
20
15.852355
30
0
11
17.769896
21
16.079957
31
0
39
0
210
0
220
0
230
1
0
LINE
5
8D
100
AcDbEntity
8
1
62
256
6
ByLayer
370
-1
48
1
60
0
100
AcDbLine
10
20.1694
20
17.779266
30
0
11
19.803335
21
18.193817
31
0
39
0
210
0
220
0
230
1
0
LINE
5
8E
100
AcDbEntity
8
1
62
256
6
ByLayer
370
-1
48
1
60
0
100
AcDbLine
10
21.202631
20
19.902794
30
0
11
19.381217
21
18.833264
31
0
39
0
210
0
220
0
230
1
0
LINE
5
8F
100
AcDbEntity
8
1
62
256
6
ByLayer
370
-1
48
1
60
0
100
AcDbLine
10
19.803335
20
18.193817
30
0
11
22.722756
21
19.908095
31
0
39
0
210
0
220
0
230
1
0
LINE
5
90
100
AcDbEntity
8
1
62
256
6
ByLayer
370
-1
48
1
60
0
100
AcDbLine
10
15.943721
20
12.572964
30
0
11
17.769896
21
16.079957
31
0
39
0
210
0
220
0
230
1
0
LINE
5
91
100
AcDbEntity
8
1
62
256
6
ByLayer
370
-1
48
1
60
0
100
AcDbLine
10
16.587258
20
11.193271
30
0
11
18.532913
21
11.760194
31
0
39
0
210
0
220
0
230
1
0
LINE
5
92
100
AcDbEntity
8
1
62
256
6
ByLayer
370
-1
48
1
60
0
100
AcDbLine
10
18.187139
20
12.971671
30
0
11
16.140537
21
12.375334
31
0
39
0
210
0
220
0
230
1
0
LINE
5
93
100
AcDbEntity
8
1
62
256
6
ByLayer
370
-1
48
1
60
0
100
AcDbLine
10
16.03042
20
12.14484
30
0
11
18.459367
21
12.852584
31
0
39
0
210
0
220
0
230
1
0
LINE
5
94
100
AcDbEntity
8
1
62
256
6
ByLayer
370
-1
48
1
60
0
100
AcDbLine
10
18.699344
20
12.011785
30
0
11
16.476698
21
11.364153
31
0
39
0
210
0
220
0
230
1
0
LINE
5
95
100
AcDbEntity
8
1
62
256
6
ByLayer
370
-1
48
1
60
0
100
AcDbLine
10
22.933117
20
19.910423
30
0
11
22.722756
21
19.908095
31
0
39
0
210
0
220
0
230
1
0
LINE
5
96
100
AcDbEntity
8
1
62
256
6
ByLayer
370
-1
48
1
60
0
100
AcDbLine
10
23.295713
20
19.909382
30
0
11
23.356226
21
19.908378
31
0
39
0
210
0
220
0
230
1
0
LINE
5
97
100
AcDbEntity
8
1
62
256
6
ByLayer
370
-1
48
1
60
0
100
AcDbLine
10
25.417148
20
19.902134
30
0
11
27.875901
21
19.902134
31
0
39
0
210
0
220
0
230
1
0
LINE
5
98
100
AcDbEntity
8
1
62
256
6
ByLayer
370
-1
48
1
60
0
100
AcDbLine
10
29.665983
20
13.571152
30
0
11
28.410185
21
11.414672
31
0
39
0
210
0
220
0
230
1
0
LINE
5
99
100
AcDbEntity
8
1
62
256
6
ByLayer
370
-1
48
1
60
0
100
AcDbLine
10
24.427656
20
19.907172
30
0
11
23.53976
21
19.907172
31
0
39
0
210
0
220
0
230
1
0
LINE
5
9A
100
AcDbEntity
8
1
62
256
6
ByLayer
370
-1
48
1
60
0
100
AcDbLine
10
26.626069
20
16.146079
30
0
11
25.436837
21
18.068995
31
0
39
0
210
0
220
0
230
1
0
LINE
5
9B
100
AcDbEntity
8
1
62
256
6
ByLayer
370
-1
48
1
60
0
100
AcDbLine
10
27.367769
20
11.303666
30
0
11
27.361001
21
13.571127
31
0
39
0
210
0
220
0
230
1
0
LINE
5
9C
100
AcDbEntity
8
1
62
256
6
ByLayer
370
-1
48
1
60
0
100
AcDbLine
10
26.678934
20
11.602987
30
0
11
27.12995
21
11.162083
31
0
39
0
210
0
220
0
230
1
0
LINE
5
9D
100
AcDbEntity
8
1
62
256
6
ByLayer
370
-1
48
1
60
0
100
AcDbLine
10
25.161261
20
18.059699
30
0
11
25.01186
21
17.443846
31
0
39
0
210
0
220
0
230
1
0
LINE
5
9E
100
AcDbEntity
8
1
62
256
6
ByLayer
370
-1
48
1
60
0
100
AcDbLine
10
25.077391
20
17.4287
30
0
11
25.226791
21
18.044553
31
0
39
0
210
0
220
0
230
1
0
LINE
5
9F
100
AcDbEntity
8
1
62
256
6
ByLayer
370
-1
48
1
60
0
100
AcDbLine
10
27.177847
20
11.208716
30
0
11
26.726831
21
11.649621
31
0
39
0
210
0
220
0
230
1
0
LINE
5
A0
100
AcDbEntity
8
1
62
256
6
ByLayer
370
-1
48
1
60
0
100
AcDbLine
10
27.287734
20
13.57186
30
0
11
27.294502
21
11.304399
31
0
39
0
210
0
220
0
230
1
0
LINE
5
A1
100
AcDbEntity
8
1
62
256
6
ByLayer
370
-1
48
1
60
0
100
AcDbLine
10
25.375958
20
18.026326
30
0
11
26.565189
21
16.10341
31
0
39
0
210
0
220
0
230
1
0
LINE
5
A2
100
AcDbEntity
8
1
62
256
6
ByLayer
370
-1
48
1
60
0
100
AcDbLine
10
24.586716
20
19.707026
30
0
11
25.161261
21
18.059699
31
0
39
0
210
0
220
0
230
1
0
LINE
5
A3
100
AcDbEntity
8
1
62
256
6
ByLayer
370
-1
48
1
60
0
100
AcDbLine
10
25.436837
20
18.068995
30
0
11
24.845856
21
19.763448
31
0
39
0
210
0
220
0
230
1
0
LINE
5
A4
100
AcDbEntity
8
1
62
256
6
ByLayer
370
-1
48
1
60
0
100
AcDbLine
10
25.417148
20
19.902134
30
0
11
27.382287
21
16.724621
31
0
39
0
210
0
220
0
230
1
0
LINE
5
A5
100
AcDbEntity
8
1
62
256
6
ByLayer
370
-1
48
1
60
0
100
AcDbLine
10
28.099498
20
19.769281
30
0
11
28.113801
21
14.977719
31
0
39
0
210
0
220
0
230
1
0
LINE
5
A6
100
AcDbEntity
8
1
62
256
6
ByLayer
370
-1
48
1
60
0
100
AcDbLine
10
28.229962
20
19.693137
30
0
11
28.244037
21
14.977915
31
0
39
0
210
0
220
0
230
1
0
LINE
5
A7
100
AcDbEntity
8
1
62
256
6
ByLayer
370
-1
48
1
60
0
100
AcDbLine
10
26.626069
20
16.146079
30
0
11
26.925691
21
16.404603
31
0
39
0
210
0
220
0
230
1
0
LINE
5
A8
100
AcDbEntity
8
1
62
256
6
ByLayer
370
-1
48
1
60
0
100
AcDbLine
10
27.361001
20
13.571127
30
0
11
27.724062
21
13.559033
31
0
39
0
210
0
220
0
230
1
0
LINE
5
A9
100
AcDbEntity
8
1
62
256
6
ByLayer
370
-1
48
1
60
0
100
AcDbLine
10
28.410185
20
11.414672
30
0
11
28.4038
21
13.553732
31
0
39
0
210
0
220
0
230
1
0
LINE
5
AA
100
AcDbEntity
8
1
62
256
6
ByLayer
370
-1
48
1
60
0
100
AcDbLine
10
24.842513
20
19.772978
30
0
11
26.925691
21
16.404603
31
0
39
0
210
0
220
0
230
1
0
LINE
5
AB
100
AcDbEntity
8
1
62
256
6
ByLayer
370
-1
48
1
60
0
100
AcDbLine
10
23.356226
20
19.908378
30
0
11
22.872092
21
17.912701
31
0
39
0
210
0
220
0
230
1
0
LINE
5
AC
100
AcDbEntity
8
1
62
256
6
ByLayer
370
-1
48
1
60
0
100
AcDbLine
10
24.077464
20
17.607807
30
0
11
24.586716
21
19.707026
31
0
39
0
210
0
220
0
230
1
0
LINE
5
AD
100
AcDbEntity
8
1
62
256
6
ByLayer
370
-1
48
1
60
0
100
AcDbLine
10
24.427656
20
19.907172
30
0
11
23.823265
21
17.415777
31
0
39
0
210
0
220
0
230
1
0
LINE
5
AE
100
AcDbEntity
8
1
62
256
6
ByLayer
370
-1
48
1
60
0
100
AcDbLine
10
22.986703
20
17.627382
30
0
11
23.53976
21
19.907172
31
0
39
0
210
0
220
0
230
1
0
LINE
5
AF
100
AcDbEntity
8
1
62
256
6
ByLayer
370
-1
48
1
60
0
100
AcDbLine
10
18.792349
20
19.906561
30
0
11
17.887005
21
19.816938
31
0
39
0
210
0
220
0
230
1
0
LINE
5
B0
100
AcDbEntity
8
1
62
256
6
ByLayer
370
-1
48
1
60
0
100
AcDbLine
10
14.594489
20
19.678873
30
0
11
14.637733
21
19.704265
31
0
39
0
210
0
220
0
230
1
0
LINE
5
B1
100
AcDbEntity
8
1
62
256
6
ByLayer
370
-1
48
1
60
0
100
AcDbLine
10
14.22077
20
15.216439
30
0
11
14.221707
21
15.479116
31
0
39
0
210
0
220
0
230
1
0
LINE
5
B2
100
AcDbEntity
8
1
62
256
6
ByLayer
370
-1
48
1
60
0
100
AcDbLine
10
17.887005
20
19.816938
30
0
11
16.956378
21
19.270477
31
0
39
0
210
0
220
0
230
1
0
LINE
5
B3
100
AcDbEntity
8
1
62
256
6
ByLayer
370
-1
48
1
60
0
100
AcDbLine
10
17.32854
20
18.541097
30
0
11
17.601566
21
18.701417
31
0
39
0
210
0
220
0
230
1
0
LINE
5
B4
100
AcDbEntity
8
1
62
256
6
ByLayer
370
-1
48
1
60
0
100
AcDbLine
10
27.664888
20
9.968527
30
0
11
27.734296
21
10.130478
31
0
39
0
210
0
220
0
230
1
0
LINE
5
B5
100
AcDbEntity
8
1
62
256
6
ByLayer
370
-1
48
1
60
0
100
AcDbLine
10
27.468798
20
9.639427
30
0
11
27.423515
21
9.5763
31
0
39
0
210
0
220
0
230
1
0
LINE
5
B6
100
AcDbEntity
8
1
62
256
6
ByLayer
370
-1
48
1
60
0
100
AcDbLine
10
26.304005
20
7.702513
30
0
11
25.081082
21
5.540642
31
0
39
0
210
0
220
0
230
1
0
LINE
5
B7
100
AcDbEntity
8
1
62
256
6
ByLayer
370
-1
48
1
60
0
100
AcDbLine
10
29.662721
20
14.664076
30
0
11
29.665983
21
13.571152
31
0
39
0
210
0
220
0
230
1
0
LINE
5
B8
100
AcDbEntity
8
1
62
256
6
ByLayer
370
-1
48
1
60
0
100
AcDbLine
10
31.644449
20
17.438262
30
0
11
31.644601
21
17.387477
31
0
39
0
210
0
220
0
230
1
0
LINE
5
B9
100
AcDbEntity
8
1
62
256
6
ByLayer
370
-1
48
1
60
0
100
AcDbLine
10
27.875901
20
19.902134
30
0
11
28.099498
21
19.769281
31
0
39
0
210
0
220
0
230
1
0
LINE
5
BA
100
AcDbEntity
8
1
62
256
6
ByLayer
370
-1
48
1
60
0
100
AcDbLine
10
18.853587
20
7.194783
30
0
11
18.57764
21
7.167466
31
0
39
0
210
0
220
0
230
1
0
LINE
5
BB
100
AcDbEntity
8
1
62
256
6
ByLayer
370
-1
48
1
60
0
100
AcDbLine
10
25.081082
20
5.540642
30
0
11
24.856547
21
5.410817
31
0
39
0
210
0
220
0
230
1
0
LINE
5
BC
100
AcDbEntity
8
1
62
256
6
ByLayer
370
-1
48
1
60
0
100
AcDbLine
10
21.252972
20
3.573179
30
0
11
21.209576
21
3.598572
31
0
39
0
210
0
220
0
230
1
0
LINE
5
BD
100
AcDbEntity
8
1
62
256
6
ByLayer
370
-1
48
1
60
0
100
AcDbLine
10
20.944336
20
4.0446
30
0
11
20.860064
21
6.382351
31
0
39
0
210
0
220
0
230
1
0
LINE
5
BE
100
AcDbEntity
8
1
62
256
6
ByLayer
370
-1
48
1
60
0
100
AcDbLine
10
14.331916
20
19.231287
30
0
11
13.374443
21
19.136504
31
0
39
0
210
0
220
0
230
1
0
LINE
5
BF
100
AcDbEntity
8
1
62
256
6
ByLayer
370
-1
48
1
60
0
100
AcDbLine
10
14.594489
20
19.678873
30
0
11
13.629148
21
19.583311
31
0
39
0
210
0
220
0
230
1
0
LINE
5
C0
100
AcDbEntity
8
1
62
256
6
ByLayer
370
-1
48
1
60
0
100
AcDbLine
10
14.637733
20
19.704265
30
0
11
13.672392
21
19.608704
31
0
39
0
210
0
220
0
230
1
0
LINE
5
C1
100
AcDbEntity
8
1
62
256
6
ByLayer
370
-1
48
1
60
0
100
AcDbLine
10
18.853587
20
7.194783
30
0
11
17.584937
21
9.343729
31
0
39
0
210
0
220
0
230
1
0
LINE
5
C2
100
AcDbEntity
8
1
62
256
6
ByLayer
370
-1
48
1
60
0
100
AcDbLine
10
26.872365
20
8.622318
30
0
11
27.313982
21
9.403005
31
0
39
0
210
0
220
0
230
1
0
LINE
5
C3
100
AcDbEntity
8
1
62
256
6
ByLayer
370
-1
48
1
60
0
100
AcDbLine
10
22.7565
20
8.714946
30
0
11
24.988247
21
8.79408
31
0
39
0
210
0
220
0
230
1
0
LINE
5
C4
100
AcDbEntity
8
1
62
256
6
ByLayer
370
-1
48
1
60
0
100
AcDbLine
10
18.257007
20
10.496718
30
0
11
20.194523
21
9.362988
31
0
39
0
210
0
220
0
230
1
0
LINE
5
C5
100
AcDbEntity
8
1
62
256
6
ByLayer
370
-1
48
1
60
0
100
AcDbLine
10
18.85966
20
10.95537
30
0
11
18.259243
21
10.780421
31
0
39
0
210
0
220
0
230
1
0
LINE
5
C6
100
AcDbEntity
8
1
62
256
6
ByLayer
370
-1
48
1
60
0
100
AcDbLine
10
25.122104
20
9.044489
30
0
11
24.671088
21
9.485394
31
0
39
0
210
0
220
0
230
1
0
LINE
5
C7
100
AcDbEntity
8
1
62
256
6
ByLayer
370
-1
48
1
60
0
100
AcDbLine
10
24.631314
20
9.439564
30
0
11
25.08233
21
8.99866
31
0
39
0
210
0
220
0
230
1
0
LINE
5
C8
100
AcDbEntity
8
1
62
256
6
ByLayer
370
-1
48
1
60
0
100
AcDbLine
10
18.280938
20
10.719043
30
0
11
18.881355
21
10.893992
31
0
39
0
210
0
220
0
230
1
0
LINE
5
C9
100
AcDbEntity
8
1
62
256
6
ByLayer
370
-1
48
1
60
0
100
AcDbLine
10
20.24205
20
9.434651
30
0
11
18.304534
21
10.568381
31
0
39
0
210
0
220
0
230
1
0
LINE
5
CA
100
AcDbEntity
8
1
62
256
6
ByLayer
370
-1
48
1
60
0
100
AcDbLine
10
24.992591
20
8.876666
30
0
11
22.760844
21
8.797532
31
0
39
0
210
0
220
0
230
1
0
LINE
5
CB
100
AcDbEntity
8
1
62
256
6
ByLayer
370
-1
48
1
60
0
100
AcDbLine
10
16.830961
20
10.805133
30
0
11
18.257007
21
10.496718
31
0
39
0
210
0
220
0
230
1
0
LINE
5
CC
100
AcDbEntity
8
1
62
256
6
ByLayer
370
-1
48
1
60
0
100
AcDbLine
10
18.259243
20
10.780421
30
0
11
16.632912
21
11.132152
31
0
39
0
210
0
220
0
230
1
0
LINE
5
CD
100
AcDbEntity
8
1
62
256
6
ByLayer
370
-1
48
1
60
0
100
AcDbLine
10
27.664888
20
9.968527
30
0
11
27.367769
21
11.303666
31
0
39
0
210
0
220
0
230
1
0
LINE
5
CE
100
AcDbEntity
8
1
62
256
6
ByLayer
370
-1
48
1
60
0
100
AcDbLine
10
27.12995
20
11.162083
30
0
11
27.468798
21
9.639427
31
0
39
0
210
0
220
0
230
1
0
LINE
5
CF
100
AcDbEntity
8
1
62
256
6
ByLayer
370
-1
48
1
60
0
100
AcDbLine
10
26.639745
20
8.595589
30
0
11
25.122104
21
9.044489
31
0
39
0
210
0
220
0
230
1
0
LINE
5
D0
100
AcDbEntity
8
1
62
256
6
ByLayer
370
-1
48
1
60
0
100
AcDbLine
10
24.988247
20
8.79408
30
0
11
26.549304
21
8.332338
31
0
39
0
210
0
220
0
230
1
0
LINE
5
D1
100
AcDbEntity
8
1
62
256
6
ByLayer
370
-1
48
1
60
0
100
AcDbLine
10
26.304005
20
7.702513
30
0
11
22.616168
21
7.57175
31
0
39
0
210
0
220
0
230
1
0
LINE
5
D2
100
AcDbEntity
8
1
62
256
6
ByLayer
370
-1
48
1
60
0
100
AcDbLine
10
24.856547
20
5.410817
30
0
11
20.762219
21
7.806598
31
0
39
0
210
0
220
0
230
1
0
LINE
5
D3
100
AcDbEntity
8
1
62
256
6
ByLayer
370
-1
48
1
60
0
100
AcDbLine
10
24.729501
20
5.336412
30
0
11
20.700405
21
7.694023
31
0
39
0
210
0
220
0
230
1
0
LINE
5
D4
100
AcDbEntity
8
1
62
256
6
ByLayer
370
-1
48
1
60
0
100
AcDbLine
10
22.7565
20
8.714946
30
0
11
22.648748
21
8.191146
31
0
39
0
210
0
220
0
230
1
0
LINE
5
D5
100
AcDbEntity
8
1
62
256
6
ByLayer
370
-1
48
1
60
0
100
AcDbLine
10
20.194523
20
9.362988
30
0
11
19.831004
21
8.924248
31
0
39
0
210
0
220
0
230
1
0
LINE
5
D6
100
AcDbEntity
8
1
62
256
6
ByLayer
370
-1
48
1
60
0
100
AcDbLine
10
17.584937
20
9.343729
30
0
11
19.412736
21
8.274199
31
0
39
0
210
0
220
0
230
1
0
LINE
5
D7
100
AcDbEntity
8
1
62
256
6
ByLayer
370
-1
48
1
60
0
100
AcDbLine
10
19.831004
20
8.924248
30
0
11
16.901349
21
10.638525
31
0
39
0
210
0
220
0
230
1
0
LINE
5
D8
100
AcDbEntity
8
1
62
256
6
ByLayer
370
-1
48
1
60
0
100
AcDbLine
10
26.558102
20
8.329764
30
0
11
22.648748
21
8.191146
31
0
39
0
210
0
220
0
230
1
0
LINE
5
D9
100
AcDbEntity
8
1
62
256
6
ByLayer
370
-1
48
1
60
0
100
AcDbLine
10
27.724062
20
13.559033
30
0
11
27.734296
21
10.130478
31
0
39
0
210
0
220
0
230
1
0
LINE
5
DA
100
AcDbEntity
8
1
62
256
6
ByLayer
370
-1
48
1
60
0
100
AcDbLine
10
27.423515
20
9.5763
30
0
11
25.961994
21
11.005054
31
0
39
0
210
0
220
0
230
1
0
LINE
5
DB
100
AcDbEntity
8
1
62
256
6
ByLayer
370
-1
48
1
60
0
100
AcDbLine
10
25.102396
20
10.098471
30
0
11
26.639745
21
8.595589
31
0
39
0
210
0
220
0
230
1
0
LINE
5
DC
100
AcDbEntity
8
1
62
256
6
ByLayer
370
-1
48
1
60
0
100
AcDbLine
10
26.872365
20
8.622318
30
0
11
25.047809
21
10.405968
31
0
39
0
210
0
220
0
230
1
0
LINE
5
DD
100
AcDbEntity
8
1
62
256
6
ByLayer
370
-1
48
1
60
0
100
AcDbLine
10
25.644394
20
11.035162
30
0
11
27.313982
21
9.403005
31
0
39
0
210
0
220
0
230
1
0
LINE
5
DE
100
AcDbEntity
8
1
62
256
6
ByLayer
370
-1
48
1
60
0
100
AcDbLine
10
19.787475
20
6.648321
30
0
11
18.907283
21
6.561189
31
0
39
0
210
0
220
0
230
1
0
LINE
5
DF
100
AcDbEntity
8
1
62
256
6
ByLayer
370
-1
48
1
60
0
100
AcDbLine
10
19.683501
20
6.600532
30
0
11
19.840767
21
6.508508
31
0
39
0
210
0
220
0
230
1
0
LINE
5
E0
100
AcDbEntity
8
1
62
256
6
ByLayer
370
-1
48
1
60
0
100
AcDbLine
10
21.252972
20
3.573179
30
0
11
20.28763
21
3.477618
31
0
39
0
210
0
220
0
230
1
0
LINE
5
E1
100
AcDbEntity
8
1
62
256
6
ByLayer
370
-1
48
1
60
0
100
AcDbLine
10
21.209576
20
3.598572
30
0
11
20.244235
21
3.50301
31
0
39
0
210
0
220
0
230
1
0
LINE
5
E2
100
AcDbEntity
8
1
62
256
6
ByLayer
370
-1
48
1
60
0
100
AcDbLine
10
20.944336
20
4.0446
30
0
11
19.986863
21
3.949818
31
0
39
0
210
0
220
0
230
1
0
LINE
5
E3
100
AcDbEntity
8
1
62
256
6
ByLayer
370
-1
48
1
60
0
100
AcDbLine
10
20.860064
20
6.382351
30
0
11
19.964504
21
6.293697
31
0
39
0
210
0
220
0
230
1
0
LINE
5
E4
100
AcDbEntity
8
1
62
256
6
ByLayer
370
-1
48
1
60
0
100
AcDbLine
10
20.732545
20
6.596788
30
0
11
19.840767
21
6.508508
31
0
39
0
210
0
220
0
230
1
0
LINE
5
E5
100
AcDbEntity
8
1
62
256
6
ByLayer
370
-1
48
1
60
0
100
AcDbLine
10
20.458561
20
6.757108
30
0
11
20.148195
21
6.726384
31
0
39
0
210
0
220
0
230
1
0
LINE
5
E6
100
AcDbEntity
8
1
62
256
6
ByLayer
370
-1
48
1
60
0
100
AcDbLine
10
13.374443
20
19.136504
30
0
11
13.364171
21
16.258412
31
0
39
0
210
0
220
0
230
1
0
LINE
5
E7
100
AcDbEntity
8
1
62
256
6
ByLayer
370
-1
48
1
60
0
100
AcDbLine
10
17.726212
20
18.894629
30
0
11
17.762006
21
19.205529
31
0
39
0
210
0
220
0
230
1
0
LINE
5
E8
100
AcDbEntity
8
1
62
256
6
ByLayer
370
-1
48
1
60
0
100
AcDbLine
10
19.787475
20
6.648321
30
0
11
18.853587
21
7.194783
31
0
39
0
210
0
220
0
230
1
0
LINE
5
E9
100
AcDbEntity
8
1
62
256
6
ByLayer
370
-1
48
1
60
0
100
AcDbLine
10
17.32854
20
18.541097
30
0
11
17.128503
21
18.521295
31
0
39
0
210
0
220
0
230
1
0
LINE
5
EA
100
AcDbEntity
8
1
62
256
6
ByLayer
370
-1
48
1
60
0
100
AcDbLine
10
17.601566
20
18.701417
30
0
11
16.929807
21
18.634918
31
0
39
0
210
0
220
0
230
1
0
LINE
5
EB
100
AcDbEntity
8
1
62
256
6
ByLayer
370
-1
48
1
60
0
100
AcDbLine
10
17.726212
20
18.894629
30
0
11
16.831216
21
18.806031
31
0
39
0
210
0
220
0
230
1
0
LINE
5
EC
100
AcDbEntity
8
1
62
256
6
ByLayer
370
-1
48
1
60
0
100
AcDbLine
10
17.762006
20
19.205529
30
0
11
16.859236
21
19.116162
31
0
39
0
210
0
220
0
230
1
0
LINE
5
ED
100
AcDbEntity
8
1
62
256
6
ByLayer
370
-1
48
1
60
0
100
AcDbLine
10
17.861722
20
19.360099
30
0
11
16.956378
21
19.270477
31
0
39
0
210
0
220
0
230
1
0
LINE
5
EE
100
AcDbEntity
8
1
62
256
6
ByLayer
370
-1
48
1
60
0
100
AcDbLine
10
13.672392
20
19.608704
30
0
11
13.629148
21
19.583311
31
0
39
0
210
0
220
0
230
1
0
LINE
5
EF
100
AcDbEntity
8
1
62
256
6
ByLayer
370
-1
48
1
60
0
100
AcDbLine
10
17.861722
20
19.360099
30
0
11
18.792349
21
19.906561
31
0
39
0
210
0
220
0
230
1
0
LINE
5
F0
100
AcDbEntity
8
1
62
256
6
ByLayer
370
-1
48
1
60
0
100
AcDbLine
10
16.859236
20
19.116162
30
0
11
16.831216
21
18.806031
31
0
39
0
210
0
220
0
230
1
0
LINE
5
F1
100
AcDbEntity
8
1
62
256
6
ByLayer
370
-1
48
1
60
0
100
AcDbLine
10
14.224224
20
15.630253
30
0
11
14.331916
21
19.231287
31
0
39
0
210
0
220
0
230
1
0
LINE
5
F2
100
AcDbEntity
8
1
62
256
6
ByLayer
370
-1
48
1
60
0
100
AcDbLine
10
15.139003
20
19.705206
30
0
11
17.087545
21
18.540645
31
0
39
0
210
0
220
0
230
1
0
LINE
5
F3
100
AcDbEntity
8
1
62
256
6
ByLayer
370
-1
48
1
60
0
100
AcDbLine
10
14.003355
20
15.194917
30
0
11
14.22077
21
15.216439
31
0
39
0
210
0
220
0
230
1
0
LINE
5
F4
100
AcDbEntity
8
1
62
256
6
ByLayer
370
-1
48
1
60
0
100
AcDbLine
10
27.850384
20
9.219545
30
0
11
27.210071
21
9.219545
31
0
39
0
210
0
220
0
230
1
0
LINE
5
F5
100
AcDbEntity
8
1
62
256
6
ByLayer
370
-1
48
1
60
0
100
AcDbLine
10
27.817717
20
8.774365
30
0
11
26.958215
21
8.774365
31
0
39
0
210
0
220
0
230
1
0
LINE
5
F6
100
AcDbEntity
8
1
62
256
6
ByLayer
370
-1
48
1
60
0
100
AcDbLine
10
27.746496
20
8.449957
30
0
11
26.782067
21
8.449957
31
0
39
0
210
0
220
0
230
1
0
LINE
5
F7
100
AcDbEntity
8
1
62
256
6
ByLayer
370
-1
48
1
60
0
100
AcDbLine
10
27.747142
20
8.196967
30
0
11
26.612286
21
8.196967
31
0
39
0
210
0
220
0
230
1
0
LINE
5
F8
100
AcDbEntity
8
1
62
256
6
ByLayer
370
-1
48
1
60
0
100
AcDbLine
10
27.159141
20
7.067555
30
0
11
26.438386
21
6.996861
31
0
39
0
210
0
220
0
230
1
0
LINE
5
F9
100
AcDbEntity
8
1
62
256
6
ByLayer
370
-1
48
1
60
0
100
AcDbLine
10
25.90479
20
6.996861
30
0
11
26.438386
21
6.996861
31
0
39
0
210
0
220
0
230
1
0
LINE
5
FA
100
AcDbEntity
8
1
62
256
6
ByLayer
370
-1
48
1
60
0
100
AcDbLine
10
19.699061
20
3.197412
30
0
11
21.821027
21
3.197412
31
0
39
0
210
0
220
0
230
1
0
LINE
5
FB
100
AcDbEntity
8
1
62
256
6
ByLayer
370
-1
48
1
60
0
100
AcDbLine
10
12.787967
20
17.266481
30
0
11
13.367847
21
17.266481
31
0
39
0
210
0
220
0
230
1
0
LINE
5
FC
100
AcDbEntity
8
1
62
256
6
ByLayer
370
-1
48
1
60
0
100
AcDbLine
10
27.159141
20
7.067555
30
0
11
25.944781
21
7.067555
31
0
39
0
210
0
220
0
230
1
0
LINE
5
FD
100
AcDbEntity
8
1
62
256
6
ByLayer
370
-1
48
1
60
0
100
AcDbLine
10
27.742322
20
10.08469
30
0
11
27.714672
21
10.08469
31
0
39
0
210
0
220
0
230
1
0
LINE
5
FE
100
AcDbEntity
8
1
62
256
6
ByLayer
370
-1
48
1
60
0
100
AcDbLine
10
27.815169
20
9.772482
30
0
11
27.557284
21
9.772482
31
0
39
0
210
0
220
0
230
1
0
LINE
5
FF
100
AcDbEntity
8
1
62
256
6
ByLayer
370
-1
48
1
60
0
100
AcDbLine
10
27.850384
20
9.219545
30
0
11
27.850094
21
9.333025
31
0
39
0
210
0
220
0
230
1
0
LINE
5
100
100
AcDbEntity
8
1
62
256
6
ByLayer
370
-1
48
1
60
0
100
AcDbLine
10
23.521603
20
4.619563
30
0
11
23.522501
21
4.267851
31
0
39
0
210
0
220
0
230
1
0
LINE
5
101
100
AcDbEntity
8
1
62
256
6
ByLayer
370
-1
48
1
60
0
100
AcDbLine
10
27.850094
20
9.333025
30
0
11
27.274308
21
9.333025
31
0
39
0
210
0
220
0
230
1
0
LINE
5
102
100
AcDbEntity
8
1
62
256
6
ByLayer
370
-1
48
1
60
0
100
AcDbLine
10
22.540247
20
3.267956
30
0
11
20.418281
21
3.267956
31
0
39
0
210
0
220
0
230
1
0
LINE
5
103
100
AcDbEntity
8
1
62
256
6
ByLayer
370
-1
48
1
60
0
100
AcDbLine
10
27.747142
20
8.196967
30
0
11
27.748494
21
7.667492
31
0
39
0
210
0
220
0
230
1
0
LINE
5
104
100
AcDbEntity
8
1
62
256
6
ByLayer
370
-1
48
1
60
0
100
AcDbLine
10
20.418281
20
3.267956
30
0
11
19.699061
21
3.197412
31
0
39
0
210
0
220
0
230
1
0
LINE
5
105
100
AcDbEntity
8
1
62
256
6
ByLayer
370
-1
48
1
60
0
100
AcDbLine
10
22.540247
20
3.267956
30
0
11
21.821027
21
3.197412
31
0
39
0
210
0
220
0
230
1
0
LINE
5
106
100
AcDbEntity
8
1
62
256
6
ByLayer
370
-1
48
1
60
0
100
AcDbLine
10
19.011619
20
3.796787
30
0
11
18.935835
21
3.929366
31
0
39
0
210
0
220
0
230
1
0
LINE
5
107
100
AcDbEntity
8
1
62
256
6
ByLayer
370
-1
48
1
60
0
100
AcDbLine
10
20.27719
20
3.278267
30
0
11
19.310514
21
4.970991
31
0
39
0
210
0
220
0
230
1
0
LINE
5
108
100
AcDbEntity
8
1
62
256
6
ByLayer
370
-1
48
1
60
0
100
AcDbLine
10
19.219512
20
3.440019
30
0
11
19.312338
21
3.277627
31
0
39
0
210
0
220
0
230
1
0
LINE
5
109
100
AcDbEntity
8
1
62
256
6
ByLayer
370
-1
48
1
60
0
100
AcDbLine
10
22.114472
20
12.132485
30
0
11
22.336884
21
12.154502
31
0
39
0
210
0
220
0
230
1
0
LINE
5
10A
100
AcDbEntity
8
1
62
256
6
ByLayer
370
-1
48
1
60
0
100
AcDbLine
10
22.328482
20
14.969562
30
0
11
22.106069
21
14.947545
31
0
39
0
210
0
220
0
230
1
0
LINE
5
10B
100
AcDbEntity
8
1
62
256
6
ByLayer
370
-1
48
1
60
0
100
AcDbLine
10
22.40691
20
14.947545
30
0
11
22.629323
21
14.969562
31
0
39
0
210
0
220
0
230
1
0
LINE
5
10C
100
AcDbEntity
8
1
62
256
6
ByLayer
370
-1
48
1
60
0
100
AcDbLine
10
21.672663
20
15.183355
30
0
11
21.928255
21
15.208657
31
0
39
0
210
0
220
0
230
1
0
LINE
5
10D
100
AcDbEntity
8
1
62
256
6
ByLayer
370
-1
48
1
60
0
100
AcDbLine
10
23.394674
20
12.212059
30
0
11
23.651085
21
12.237442
31
0
39
0
210
0
220
0
230
1
0
LINE
5
10E
100
AcDbEntity
8
1
62
256
6
ByLayer
370
-1
48
1
60
0
100
AcDbLine
10
23.961513
20
13.2219
30
0
11
24.217925
21
13.247283
31
0
39
0
210
0
220
0
230
1
0
LINE
5
10F
100
AcDbEntity
8
1
62
256
6
ByLayer
370
-1
48
1
60
0
100
AcDbLine
10
23.959614
20
13.85813
30
0
11
24.216025
21
13.883513
31
0
39
0
210
0
220
0
230
1
0
LINE
5
110
100
AcDbEntity
8
1
62
256
6
ByLayer
370
-1
48
1
60
0
100
AcDbLine
10
23.386746
20
14.867971
30
0
11
23.643158
21
14.893354
31
0
39
0
210
0
220
0
230
1
0
LINE
5
111
100
AcDbEntity
8
1
62
256
6
ByLayer
370
-1
48
1
60
0
100
AcDbLine
10
21.682474
20
11.896675
30
0
11
21.938066
21
11.921977
31
0
39
0
210
0
220
0
230
1
0
LINE
5
112
100
AcDbEntity
8
1
62
256
6
ByLayer
370
-1
48
1
60
0
100
AcDbLine
10
11.918221
20
19.670455
30
0
11
11.918238
21
19.700305
31
0
39
0
210
0
220
0
230
1
0
LINE
5
113
100
AcDbEntity
8
1
62
256
6
ByLayer
370
-1
48
1
60
0
100
AcDbLine
10
11.935305
20
19.669461
30
0
11
11.935316
21
19.687918
31
0
39
0
210
0
220
0
230
1
0
LINE
5
114
100
AcDbEntity
8
1
62
256
6
ByLayer
370
-1
48
1
60
0
100
AcDbLine
10
13.56293
20
19.635922
30
0
11
13.562983
21
19.725186
31
0
39
0
210
0
220
0
230
1
0
LINE
5
115
100
AcDbEntity
8
SK1
62
256
6
ByLayer
370
-1
48
1
60
0
100
AcDbLine
10
-1.295293
20
12.4375
30
0
11
0
21
12.4375
31
0
39
0
210
0
220
0
230
1
0
LINE
5
116
100
AcDbEntity
8
SK1
62
256
6
ByLayer
370
-1
48
1
60
0
100
AcDbLine
10
-7.644797
20
12.4375
30
0
11
-118.040218
21
12.4375
31
0
39
0
210
0
220
0
230
1
0
LINE
5
117
100
AcDbEntity
8
SK1
62
256
6
ByLayer
370
-1
48
1
60
0
100
AcDbLine
10
-118.040218
20
-12.4375
30
0
11
-19.696155
21
-12.4375
31
0
39
0
210
0
220
0
230
1
0
LINE
5
118
100
AcDbEntity
8
SK1
62
256
6
ByLayer
370
-1
48
1
60
0
100
AcDbLine
10
-7.487464
20
-12.328962
30
0
11
-7.644797
21
12.4375
31
0
39
0
210
0
220
0
230
1
0
LINE
5
119
100
AcDbEntity
8
SK1
62
256
6
ByLayer
370
-1
48
1
60
0
100
AcDbLine
10
-1.295299
20
-12.403194
30
0
11
-1.295299
21
12.4375
31
0
39
0
210
0
220
0
230
1
0
LINE
5
11A
100
AcDbEntity
8
SK1
62
256
6
ByLayer
370
-1
48
1
60
0
100
AcDbLine
10
-19.696155
20
-12.4375
30
0
11
0
21
-12.523441
31
0
39
0
210
0
220
0
230
1
0
LINE
5
11B
100
AcDbEntity
8
SK1
62
256
6
ByLayer
370
-1
48
1
60
0
100
AcDbLine
10
-7.644797
20
12.4375
30
0
11
-1.295299
21
12.4375
31
0
39
0
210
0
220
0
230
1
0
LINE
5
11C
100
AcDbEntity
8
SK1
62
256
6
ByLayer
370
-1
48
1
60
0
100
AcDbLine
10
-1.295299
20
-12.403194
30
0
11
-7.487464
21
-12.328962
31
0
39
0
210
0
220
0
230
1
0
LINE
5
11D
100
AcDbEntity
8
SK1
62
256
6
ByLayer
370
-1
48
1
60
0
100
AcDbLine
10
-118.040218
20
12.4375
30
0
11
-118.040218
21
-12.328962
31
0
39
0
210
0
220
0
230
1
0
LINE
5
11E
100
AcDbEntity
8
SK1
62
256
6
ByLayer
370
-1
48
1
60
0
100
AcDbLine
10
-118.040218
20
-12.328962
30
0
11
-7.487464
21
-12.328962
31
0
39
0
210
0
220
0
230
1
0
LINE
5
11F
100
AcDbEntity
8
SK1
62
256
6
ByLayer
370
-1
48
1
60
0
100
AcDbLine
10
-118.040218
20
-12.328962
30
0
11
-118.040218
21
-12.4375
31
0
39
0
210
0
220
0
230
1
0
LINE
5
120
100
AcDbEntity
8
2
62
256
6
ByLayer
370
-1
48
1
60
0
100
AcDbLine
10
0
20
29.6625
30
0
11
33.309782
21
29.6625
31
0
39
0
210
0
220
0
230
1
0
LINE
5
121
100
AcDbEntity
8
2
62
256
6
ByLayer
370
-1
48
1
60
0
100
AcDbLine
10
33.309782
20
27.5875
30
0
11
33.309782
21
32.6625
31
0
39
0
210
0
220
0
230
1
0
LINE
5
122
100
AcDbEntity
8
2
62
256
6
ByLayer
370
-1
48
1
60
0
100
AcDbLine
10
0
20
13.9375
30
0
11
0
21
32.6625
31
0
39
0
210
0
220
0
230
1
0
LINE
5
123
100
AcDbEntity
8
2
62
256
6
ByLayer
370
-1
48
1
60
0
100
AcDbLine
10
33.309782
20
29.6625
30
0
11
30.309783
21
29.267543
31
0
39
0
210
0
220
0
230
1
0
LINE
5
124
100
AcDbEntity
8
2
62
256
6
ByLayer
370
-1
48
1
60
0
100
AcDbLine
10
33.309782
20
29.6625
30
0
11
30.30978
21
30.057457
31
0
39
0
210
0
220
0
230
1
0
LINE
5
125
100
AcDbEntity
8
2
62
256
6
ByLayer
370
-1
48
1
60
0
100
AcDbLine
10
30.309783
20
29.267543
30
0
11
30.30978
21
30.057457
31
0
39
0
210
0
220
0
230
1
0
LINE
5
126
100
AcDbEntity
8
2
62
256
6
ByLayer
370
-1
48
1
60
0
100
AcDbLine
10
0
20
29.6625
30
0
11
2.999999
21
30.057457
31
0
39
0
210
0
220
0
230
1
0
LINE
5
127
100
AcDbEntity
8
2
62
256
6
ByLayer
370
-1
48
1
60
0
100
AcDbLine
10
0
20
29.6625
30
0
11
3.000001
21
29.267543
31
0
39
0
210
0
220
0
230
1
0
LINE
5
128
100
AcDbEntity
8
2
62
256
6
ByLayer
370
-1
48
1
60
0
100
AcDbLine
10
2.999999
20
30.057457
30
0
11
3.000001
21
29.267543
31
0
39
0
210
0
220
0
230
1
0
LINE
5
129
100
AcDbEntity
8
SK2
62
256
6
ByLayer
370
-1
48
1
60
0
100
AcDbLine
10
33.309782
20
39.6625
30
0
11
-118.040218
21
39.6625
31
0
39
0
210
0
220
0
230
1
0
LINE
5
12B
100
AcDbEntity
8
SK2
62
256
6
ByLayer
370
-1
48
1
60
0
100
AcDbLine
10
-118.040218
20
13.9375
30
0
11
-118.040218
21
42.6625
31
0
39
0
210
0
220
0
230
1
0
LINE
5
12C
100
AcDbEntity
8
SK2
62
256
6
ByLayer
370
-1
48
1
60
0
100
AcDbLine
10
33.309782
20
27.5875
30
0
11
33.309782
21
42.6625
31
0
39
0
210
0
220
0
230
1
0
LINE
5
12D
100
AcDbEntity
8
SK2
62
256
6
ByLayer
370
-1
48
1
60
0
100
AcDbLine
10
-118.040218
20
39.6625
30
0
11
-115.04022
21
40.057457
31
0
39
0
210
0
220
0
230
1
0
LINE
5
12E
100
AcDbEntity
8
SK2
62
256
6
ByLayer
370
-1
48
1
60
0
100
AcDbLine
10
-118.040218
20
39.6625
30
0
11
-115.040217
21
39.267543
31
0
39
0
210
0
220
0
230
1
0
LINE
5
12F
100
AcDbEntity
8
SK2
62
256
6
ByLayer
370
-1
48
1
60
0
100
AcDbLine
10
-115.04022
20
40.057457
30
0
11
-115.040217
21
39.267543
31
0
39
0
210
0
220
0
230
1
0
LINE
5
130
100
AcDbEntity
8
SK2
62
256
6
ByLayer
370
-1
48
1
60
0
100
AcDbLine
10
33.309782
20
39.6625
30
0
11
30.309783
21
39.267543
31
0
39
0
210
0
220
0
230
1
0
LINE
5
131
100
AcDbEntity
8
SK2
62
256
6
ByLayer
370
-1
48
1
60
0
100
AcDbLine
10
33.309782
20
39.6625
30
0
11
30.30978
21
40.057457
31
0
39
0
210
0
220
0
230
1
0
LINE
5
132
100
AcDbEntity
8
SK2
62
256
6
ByLayer
370
-1
48
1
60
0
100
AcDbLine
10
30.309783
20
39.267543
30
0
11
30.30978
21
40.057457
31
0
39
0
210
0
220
0
230
1
0
LINE
5
133
100
AcDbEntity
8
2
62
256
6
ByLayer
370
-1
48
1
60
0
100
AcDbLine
10
47.559782
20
19.9125
30
0
11
47.559782
21
-12.4375
31
0
39
0
210
0
220
0
230
1
0
LINE
5
134
100
AcDbEntity
8
2
62
256
6
ByLayer
370
-1
48
1
60
0
100
AcDbLine
10
1.5
20
-12.4375
30
0
11
50.559782
21
-12.4375
31
0
39
0
210
0
220
0
230
1
0
LINE
5
135
100
AcDbEntity
8
2
62
256
6
ByLayer
370
-1
48
1
60
0
100
AcDbLine
10
40.984782
20
19.9125
30
0
11
50.559782
21
19.9125
31
0
39
0
210
0
220
0
230
1
0
LINE
5
136
100
AcDbEntity
8
2
62
256
6
ByLayer
370
-1
48
1
60
0
100
AcDbLine
10
47.559782
20
-12.4375
30
0
11
47.164824
21
-9.437501
31
0
39
0
210
0
220
0
230
1
0
LINE
5
137
100
AcDbEntity
8
2
62
256
6
ByLayer
370
-1
48
1
60
0
100
AcDbLine
10
47.559782
20
-12.4375
30
0
11
47.954739
21
-9.437499
31
0
39
0
210
0
220
0
230
1
0
LINE
5
138
100
AcDbEntity
8
2
62
256
6
ByLayer
370
-1
48
1
60
0
100
AcDbLine
10
47.164824
20
-9.437501
30
0
11
47.954739
21
-9.437499
31
0
39
0
210
0
220
0
230
1
0
LINE
5
139
100
AcDbEntity
8
2
62
256
6
ByLayer
370
-1
48
1
60
0
100
AcDbLine
10
47.559782
20
19.9125
30
0
11
47.954739
21
16.912501
31
0
39
0
210
0
220
0
230
1
0
LINE
5
13A
100
AcDbEntity
8
2
62
256
6
ByLayer
370
-1
48
1
60
0
100
AcDbLine
10
47.559782
20
19.9125
30
0
11
47.164824
21
16.912499
31
0
39
0
210
0
220
0
230
1
0
LINE
5
13B
100
AcDbEntity
8
2
62
256
6
ByLayer
370
-1
48
1
60
0
100
AcDbLine
10
47.954739
20
16.912501
30
0
11
47.164824
21
16.912499
31
0
39
0
210
0
220
0
230
1
0
MTEXT
5
275
100
AcDbEntity
8
SK6
62
256
6
ByLayer
370
-1
48
1
60
0
100
AcDbMText
10
-83.883864
20
-2.41537
30
0
210
0
220
0
230
1
1
\W00.772;\fsimplex.shx,bigfont.shx;266RFGZ2525-22 
40
3.5
41
0
44
1.084337
50
0
71
7
72
5
7
DEFAULT
0
MTEXT
5
29B
100
AcDbEntity
8
2
62
256
6
ByLayer
370
-1
48
1
60
0
100
AcDbMText
10
15.150943
20
30.7875
30
0
210
0
220
0
230
1
1
\W00.656;\fsimplex.shx,bigfont.shx;33 
40
4.5
41
0
44
1.084337
50
0
71
7
72
5
7
DEFAULT
0
MTEXT
5
29C
100
AcDbEntity
8
SK2
62
256
6
ByLayer
370
-1
48
1
60
0
100
AcDbMText
10
-44.396139
20
40.7875
30
0
210
0
220
0
230
1
1
\W00.573;\fsimplex.shx,bigfont.shx;151 
40
4.5
41
0
44
1.084337
50
0
71
7
72
5
7
DEFAULT
0
MTEXT
5
29D
100
AcDbEntity
8
2
62
256
6
ByLayer
370
-1
48
1
60
0
100
AcDbMText
10
46.434782
20
2.233553
30
0
210
0
220
0
230
1
1
\W00.656;\fsimplex.shx,bigfont.shx;32 
40
4.5
41
0
44
1.084337
50
89.9999999999999
71
7
72
5
7
DEFAULT
0
DIMENSION
5
2AB
100
AcDbEntity
8
SK2
62
256
6
ByLayer
370
-3
48
1
60
0
100
AcDbDimension
2
DimnDraft3D1
10
-127.790218
20
-12.4375
30
0
11
-127.790218
21
-2.628947
31
0
70
32
71
5
72
1
41
1
210
0
220
0
230
1
3
Standard
100
AcDbAlignedDimension
13
-119.540218
23
12.4375
33
0
14
-119.540218
24
-12.4375
34
0
50
90
100
AcDbRotatedDimension
1001
ACAD
1000
DSTYLE
1002
{
1070
    74
1070
     0
1070
   279
1070
     0
1070
   172
1070
     1
1070
   173
1070
     1
1070
   340
1005
276
1070
   271
1070
     3
1070
   272
1070
     3
1070
    77
1070
     1
1070
    73
1070
     0
1070
   171
1070
     4
1070
   274
1070
     4
1070
   177
1070
     2
1070
   176
1070
     2
1070
   178
1070
     7
1070
    78
1070
     8
1070
    41
1041
3.0
1070
   147
1041
2.25
1070
    42
1041
1.5
1070
    44
1041
3.0
1070
   140
1041
4.5
1070
   343
1005
2AC
1070
   344
1005
2AC
1002
}
0
ENDSEC
0
SECTION
2
OBJECTS
0
DICTIONARY
5
2e2
330
0
100
AcDbDictionary
280
0
281
1
3
ACAD_GROUP
350
2e3
3
ACAD_MLINESTYLE
350
2e4
0
DICTIONARY
5
2e3
330
0
100
AcDbDictionary
280
0
281
1
0
DICTIONARY
5
2e4
330
0
100
AcDbDictionary
280
0
281
1
3
Standard
350
18
0
MLINESTYLE
5
18
330
2e4
100
AcDbMlineStyle
2
Standard
70
0
3

62
256
51
90
52
90
71
2
49
-0.5
62
256
6
ByLayer
49
0.5
62
256
6
ByLayer
0
RASTERVARIABLES
5
2d1
330

100
AcDbRasterVariables
90
0
70
1
71
1
72
1
0
ENDSEC
0
EOF
