0
SECTION
2
HEADER
9
$ACADVER
1
AC1015
9
$DWGCODEPAGE
3
ANSI_1252
9
$HANDSEED
5
321
9
$ANGBASE
50
0
9
$ANGDIR
70
0
9
$ATTMODE
70
1
9
$AUNITS
70
0
9
$AUPREC
70
0
9
$CECOLOR
62
256
9
$CELTSCALE
40
1
9
$CELTYPE
6
ByLayer
9
$CELWEIGHT
370
-1
9
$CLAYER
8
0
9
$CMLJUST
70
0
9
$CMLSCALE
40
1
9
$CMLSTYLE
2
Standard
9
$DIMSTYLE
2
Standard
9
$TEXTSIZE
40
0.2
9
$TEXTSTYLE
7
Standard
9
$LUNITS
70
2
9
$LUPREC
70
4
9
$EXTNAMES
290
1
9
$INSUNITS
70
4
9
$LTSCALE
40
1
9
$LWDISPLAY
290
0
9
$PDMODE
70
0
9
$PDSIZE
40
0
9
$PLINEGEN
70
0
0
ENDSEC
0
SECTION
2
CLASSES
0
CLASS
1
RASTERVARIABLES
2
AcDbRasterVariables
3
ISM
90
0
280
0
281
0
0
ENDSEC
0
SECTION
2
TABLES
0
TABLE
2
VPORT
5
317
100
AcDbSymbolTable
0
VPORT
5
1
100
AcDbSymbolTableRecord
100
AcDbViewportTableRecord
2
*Active
70
0
10
0
20
0
11
1
21
1
12
-1
22
1
13
0
23
0
14
0.5
24
0.5
15
10
25
10
16
0
26
0
36
1
17
0
27
0
37
0
0
ENDTAB
0
TABLE
2
LTYPE
5
318
100
AcDbSymbolTable
0
LTYPE
5
14
100
AcDbSymbolTableRecord
100
AcDbLinetypeTableRecord
70
0
2
ByBlock
3

72
65
73
0
40
0
0
LTYPE
5
15
100
AcDbSymbolTableRecord
100
AcDbLinetypeTableRecord
70
0
2
ByLayer
3

72
65
73
0
40
0
0
LTYPE
5
16
100
AcDbSymbolTableRecord
100
AcDbLinetypeTableRecord
70
0
2
CONTINUOUS
3
Solid line
72
65
73
0
40
0
0
LTYPE
5
3B
100
AcDbSymbolTableRecord
100
AcDbLinetypeTableRecord
70
0
2
DASHED
3
__ __ __ __ __ __ __ __ __
72
65
73
2
40
25.72
49
12.86
74
0
49
-12.86
74
0
0
LTYPE
5
3C
100
AcDbSymbolTableRecord
100
AcDbLinetypeTableRecord
70
0
2
HIDDEN
3
_ _ _ _ _ _ _ _ _ _ _ _ _ _ _
72
65
73
2
40
0.5
49
0.25
74
0
49
-0.25
74
0
0
LTYPE
5
3D
100
AcDbSymbolTableRecord
100
AcDbLinetypeTableRecord
70
0
2
PHANTOM
3
____ _ _ ____ _ _ _____ _ _ ____
72
65
73
6
40
50.5
49
18
74
0
49
-6.5
74
0
49
6.5
74
0
49
-6.5
74
0
49
6.5
74
0
49
-6.5
74
0
0
LTYPE
5
3E
100
AcDbSymbolTableRecord
100
AcDbLinetypeTableRecord
70
0
2
CENTER
3
____ _ ____ _ ____ _ ____
72
65
73
4
40
47.5
49
22
74
0
49
-8.5
74
0
49
8.5
74
0
49
-8.5
74
0
0
LTYPE
5
3F
100
AcDbSymbolTableRecord
100
AcDbLinetypeTableRecord
70
0
2
DOT
3
.........................
72
65
73
2
40
10
49
0
74
0
49
-10
74
0
0
LTYPE
5
40
100
AcDbSymbolTableRecord
100
AcDbLinetypeTableRecord
70
0
2
DASHDOT
3
_._._._._._._._._._._._._._._._.
72
65
73
4
40
70
49
31
74
0
49
-13
74
0
49
13
74
0
49
-13
74
0
0
ENDTAB
0
TABLE
2
LAYER
5
319
100
AcDbSymbolTable
0
LAYER
5
10
100
AcDbSymbolTableRecord
100
AcDbLayerTableRecord
2
0
70
0
62
7
6
CONTINUOUS
290
1
370
-3
390
0
0
LAYER
5
42
100
AcDbSymbolTableRecord
100
AcDbLayerTableRecord
2
80
70
0
62
-6
6
CONTINUOUS
290
1
370
-3
390
0
0
LAYER
5
44
100
AcDbSymbolTableRecord
100
AcDbLayerTableRecord
2
81
70
0
62
-3
6
CONTINUOUS
290
1
370
-3
390
0
0
LAYER
5
46
100
AcDbSymbolTableRecord
100
AcDbLayerTableRecord
2
2
70
0
62
7
6
CONTINUOUS
290
1
370
-3
390
0
0
LAYER
5
4A
100
AcDbSymbolTableRecord
100
AcDbLayerTableRecord
2
1
70
0
62
4
6
CONTINUOUS
290
1
370
-3
390
0
0
LAYER
5
304
100
AcDbSymbolTableRecord
100
AcDbLayerTableRecord
2
SK1
70
0
62
4
6
CONTINUOUS
290
1
370
-3
390
0
0
LAYER
5
305
100
AcDbSymbolTableRecord
100
AcDbLayerTableRecord
2
SK2
70
0
62
7
6
CONTINUOUS
290
1
370
-3
390
0
0
LAYER
5
306
100
AcDbSymbolTableRecord
100
AcDbLayerTableRecord
2
SK6
70
0
62
5
6
CONTINUOUS
290
1
370
-3
390
0
0
ENDTAB
0
TABLE
2
STYLE
5
31a
100
AcDbSymbolTable
0
STYLE
5
11
100
AcDbSymbolTableRecord
100
AcDbTextStyleTableRecord
2
Standard
3
txt
70
0
71
0
40
0
41
1
42
0
50
0
0
STYLE
5
2A8
100
AcDbSymbolTableRecord
100
AcDbTextStyleTableRecord
2
DEFAULT
3
simplex.shx
70
0
71
0
40
0
41
1
42
0
50
0
0
STYLE
5
2CB
100
AcDbSymbolTableRecord
100
AcDbTextStyleTableRecord
2
DWGDirectTextStyle
3
SIMPLEX
70
0
71
0
40
0
41
1
42
0
50
0
0
ENDTAB
0
TABLE
2
DIMSTYLE
5
31b
100
AcDbSymbolTable
100
AcDbDimStyleTable
0
DIMSTYLE
105
27
100
AcDbSymbolTableRecord
100
AcDbDimStyleTableRecord
2
Standard
70
0
3
<>
41
0.18
42
0.0625
44
0.18
140
0.18
147
0.09
73
0
74
0
77
1
271
2
275
0
278
52
280
0
340
11
0
ENDTAB
0
TABLE
2
VIEW
5
31c
100
AcDbSymbolTable
0
ENDTAB
0
TABLE
2
UCS
5
31d
100
AcDbSymbolTable
0
ENDTAB
0
TABLE
2
APPID
5
31e
100
AcDbSymbolTable
0
APPID
5
12
100
AcDbSymbolTableRecord
100
AcDbRegAppTableRecord
2
ACAD
70
0
0
ENDTAB
0
TABLE
2
BLOCK_RECORD
5
31f
100
AcDbSymbolTable
0
BLOCK_RECORD
5
1F
100
AcDbSymbolTableRecord
100
AcDbBlockTableRecord
2
*Model_Space
340
0
70
0
0
BLOCK_RECORD
5
1B
100
AcDbSymbolTableRecord
100
AcDbBlockTableRecord
2
*Paper_Space
340
0
70
0
0
BLOCK_RECORD
5
23
100
AcDbSymbolTableRecord
100
AcDbBlockTableRecord
2
*Paper_Space0
340
0
70
0
0
BLOCK_RECORD
5
2D0
100
AcDbSymbolTableRecord
100
AcDbBlockTableRecord
2
DimnDraft3D1
340
0
70
0
0
BLOCK_RECORD
5
2DE
100
AcDbSymbolTableRecord
100
AcDbBlockTableRecord
2
_CLOSED
340
0
70
0
0
ENDTAB
0
ENDSEC
0
SECTION
2
BLOCKS
0
BLOCK
5
20
100
AcDbEntity
8
0
100
AcDbBlockBegin
2
*Model_Space
70
0
10
0
20
0
30
0
3
*Model_Space
0
ENDBLK
5
21
100
AcDbEntity
8
0
100
AcDbBlockEnd
0
BLOCK
5
1C
100
AcDbEntity
8
0
100
AcDbBlockBegin
2
*Paper_Space
70
0
10
0
20
0
30
0
3
*Paper_Space
0
ENDBLK
5
1D
100
AcDbEntity
8
0
100
AcDbBlockEnd
0
BLOCK
5
24
100
AcDbEntity
8
0
100
AcDbBlockBegin
2
*Paper_Space0
70
0
10
0
20
0
30
0
3
*Paper_Space0
0
ENDBLK
5
25
100
AcDbEntity
8
0
100
AcDbBlockEnd
0
BLOCK
5
2DB
100
AcDbEntity
8
0
100
AcDbBlockBegin
2
DimnDraft3D1
70
0
10
0
20
0
30
0
3
DimnDraft3D1
0
MTEXT
5
2D1
100
AcDbEntity
8
SK2
62
256
6
ByLayer
370
-1
48
1
60
0
100
AcDbMText
10
-135.525602
20
-1.503947
30
0
210
0
220
0
230
1
1
\W01.000;\fsimplex.shx,bigfont.shx;25 
40
4.5
41
0
44
1.084337
50
90
71
7
72
5
7
DEFAULT
0
LINE
5
2D2
100
AcDbEntity
8
SK2
62
256
6
ByLayer
370
-1
48
1
60
0
100
AcDbLine
10
-126.150602
20
12.4375
30
0
11
-137.400602
21
12.4375
31
0
39
0
210
0
220
0
230
1
0
LINE
5
2D3
100
AcDbEntity
8
SK2
62
256
6
ByLayer
370
-1
48
1
60
0
100
AcDbLine
10
-126.150602
20
-12.4375
30
0
11
-137.400602
21
-12.4375
31
0
39
0
210
0
220
0
230
1
0
LINE
5
2D4
100
AcDbEntity
8
SK2
62
256
6
ByLayer
370
-1
48
1
60
0
100
AcDbLine
10
-134.400602
20
12.4375
30
0
11
-134.400602
21
-12.4375
31
0
39
0
210
0
220
0
230
1
0
LINE
5
2D5
100
AcDbEntity
8
SK2
62
256
6
ByLayer
370
-1
48
1
60
0
100
AcDbLine
10
-134.400602
20
12.4375
30
0
11
-134.005644
21
9.437501
31
0
39
0
210
0
220
0
230
1
0
LINE
5
2D6
100
AcDbEntity
8
SK2
62
256
6
ByLayer
370
-1
48
1
60
0
100
AcDbLine
10
-134.400602
20
12.4375
30
0
11
-134.795559
21
9.437499
31
0
39
0
210
0
220
0
230
1
0
LINE
5
2D7
100
AcDbEntity
8
SK2
62
256
6
ByLayer
370
-1
48
1
60
0
100
AcDbLine
10
-134.005644
20
9.437501
30
0
11
-134.795559
21
9.437499
31
0
39
0
210
0
220
0
230
1
0
LINE
5
2D8
100
AcDbEntity
8
SK2
62
256
6
ByLayer
370
-1
48
1
60
0
100
AcDbLine
10
-134.400602
20
-12.4375
30
0
11
-134.795559
21
-9.437501
31
0
39
0
210
0
220
0
230
1
0
LINE
5
2D9
100
AcDbEntity
8
SK2
62
256
6
ByLayer
370
-1
48
1
60
0
100
AcDbLine
10
-134.400602
20
-12.4375
30
0
11
-134.005644
21
-9.437499
31
0
39
0
210
0
220
0
230
1
0
LINE
5
2DA
100
AcDbEntity
8
SK2
62
256
6
ByLayer
370
-1
48
1
60
0
100
AcDbLine
10
-134.795559
20
-9.437501
30
0
11
-134.005644
21
-9.437499
31
0
39
0
210
0
220
0
230
1
0
ENDBLK
5
2DC
100
AcDbEntity
8
0
100
AcDbBlockEnd
0
BLOCK
5
2DF
100
AcDbEntity
8
0
100
AcDbBlockBegin
2
_CLOSED
70
0
10
0
20
0
30
0
3
_CLOSED
0
LINE
5
2E1
100
AcDbEntity
8
0
62
256
6
ByLayer
370
-2
48
1
60
0
100
AcDbLine
10
-1
20
0.166667
30
0
11
0
21
0
31
0
39
0
210
0
220
0
230
1
0
LINE
5
2E2
100
AcDbEntity
8
0
62
256
6
ByLayer
370
-2
48
1
60
0
100
AcDbLine
10
0
20
0
30
0
11
-1
21
-0.166667
31
0
39
0
210
0
220
0
230
1
0
LINE
5
2E3
100
AcDbEntity
8
0
62
256
6
ByLayer
370
-2
48
1
60
0
100
AcDbLine
10
-1
20
0.166667
30
0
11
-1
21
-0.166667
31
0
39
0
210
0
220
0
230
1
0
LINE
5
2E4
100
AcDbEntity
8
0
62
256
6
ByLayer
370
-2
48
1
60
0
100
AcDbLine
10
0
20
0
30
0
11
-1
21
0
31
0
39
0
210
0
220
0
230
1
0
ENDBLK
5
2E0
100
AcDbEntity
8
0
100
AcDbBlockEnd
0
ENDSEC
0
SECTION
2
ENTITIES
0
ELLIPSE
5
183
100
AcDbEntity
8
1
62
256
6
ByLayer
370
-1
48
1
60
0
100
AcDbEllipse
10
17.928267
20
7.652327
30
0
11
0.16304765868951
21
-1.64706928828702
31
0
210
0
220
0
230
1
40
0.984662
41
-2.22535375667783
42
-1.09139848419505
0
ELLIPSE
5
184
100
AcDbEntity
8
1
62
256
6
ByLayer
370
-1
48
1
60
0
100
AcDbEllipse
10
17.594322
20
8.120606
30
0
11
-0.197022175593584
21
1.99027190663094
31
0
210
0
220
0
230
1
40
0.984662
41
-2.47092466409964
42
-1.81584635951601
0
ELLIPSE
5
185
100
AcDbEntity
8
1
62
256
6
ByLayer
370
-1
48
1
60
0
100
AcDbEllipse
10
12.664483
20
17.992249
30
0
11
-1.08030563153322
21
2.62885183837878
31
0
210
0
220
0
230
1
40
0.404754
41
1.881874896881
42
2.16448789913125
0
ELLIPSE
5
186
100
AcDbEntity
8
1
62
256
6
ByLayer
370
-1
48
1
60
0
100
AcDbEllipse
10
16.129403
20
11.930967
30
0
11
-1.08030563167706
21
2.6288518397971
31
0
210
0
220
0
230
1
40
0.404754
41
1.59926189499736
42
1.88187489713212
0
ELLIPSE
5
187
100
AcDbEntity
8
1
62
256
6
ByLayer
370
-1
48
1
60
0
100
AcDbEllipse
10
17.172419
20
8.078841
30
0
11
-0.208520514880059
21
2.10642543902311
31
0
210
0
220
0
230
1
40
0.984662
41
-2.54289838283159
42
-1.88241829184335
0
ELLIPSE
5
188
100
AcDbEntity
8
1
62
256
6
ByLayer
370
-1
48
1
60
0
100
AcDbEllipse
10
18.176558
20
6.95243
30
0
11
-0.162543294864706
21
1.64197432297053
31
0
210
0
220
0
230
1
40
0.984662
41
1.59653494625935
42
-1.67604617152063
0
ELLIPSE
5
189
100
AcDbEntity
8
1
62
256
6
ByLayer
370
-1
48
1
60
0
100
AcDbEllipse
10
17.351851
20
6.87079
30
0
11
-0.162543294864706
21
1.64197432297053
31
0
210
0
220
0
230
1
40
0.984662
41
-2.10373381372524
42
-1.78265846637357
0
ELLIPSE
5
18A
100
AcDbEntity
8
1
62
256
6
ByLayer
370
-1
48
1
60
0
100
AcDbEllipse
10
16.929948
20
6.829025
30
0
11
-0.162543294864706
21
1.64197432297053
31
0
210
0
220
0
230
1
40
0.984662
41
-1.89698289101566
42
-1.40825361869242
0
ELLIPSE
5
18B
100
AcDbEntity
8
1
62
256
6
ByLayer
370
-1
48
1
60
0
100
AcDbEllipse
10
16.912586
20
6.827306
30
0
11
-0.162543294864706
21
1.64197432297053
31
0
210
0
220
0
230
1
40
0.984662
41
-2.74000629123781
42
-1.4082655127356
0
ELLIPSE
5
18C
100
AcDbEntity
8
1
62
256
6
ByLayer
370
-1
48
1
60
0
100
AcDbEllipse
10
23.36557
20
7.466104
30
0
11
-4.60966553509825
21
-1.73358190524844
31
0
210
0
220
0
230
1
40
0.221124
41
-0.774110590101977
42
-0.36136553315893
0
ELLIPSE
5
18D
100
AcDbEntity
8
1
62
256
6
ByLayer
370
-1
48
1
60
0
100
AcDbEllipse
10
19.869377
20
7.120023
30
0
11
-6.1740553609673
21
-2.17795535655394
31
0
210
0
220
0
230
1
40
0.084928
41
1.37127942752973
42
1.38622186580589
0
ELLIPSE
5
18E
100
AcDbEntity
8
1
62
256
6
ByLayer
370
-1
48
1
60
0
100
AcDbEllipse
10
18.473684
20
15.139185
30
0
11
-0.268442714246232
21
2.71174547278441
31
0
210
0
220
0
230
1
40
0.984662
41
0
42
-3.14154120612534
0
ELLIPSE
5
18F
100
AcDbEntity
8
1
62
256
6
ByLayer
370
-1
48
1
60
0
100
AcDbEllipse
10
17.691721
20
16.418844
30
0
11
-0.334789202943224
21
-0.198289421907408
31
0
210
0
220
0
230
1
40
0.494673
41
0.152897912345033
42
0.815285064497101
0
ELLIPSE
5
190
100
AcDbEntity
8
1
62
256
6
ByLayer
370
-1
48
1
60
0
100
AcDbEllipse
10
18.430365
20
13.651278
30
0
11
-0.388113116813978
21
0.00038045030797836
31
0
210
0
220
0
230
1
40
0.497203
41
2.27217074989534
42
-3.08247600625923
0
ELLIPSE
5
191
100
AcDbEntity
8
1
62
256
6
ByLayer
370
-1
48
1
60
0
100
AcDbEllipse
10
18.421511
20
16.61764
30
0
11
-0.388113116813979
21
0.000380450307981291
31
0
210
0
220
0
230
1
40
0.497203
41
3.08641908149613
42
-1.68583207080387
0
ELLIPSE
5
192
100
AcDbEntity
8
1
62
256
6
ByLayer
370
-1
48
1
60
0
100
AcDbEllipse
10
19.160154
20
13.850073
30
0
11
-0.334789202943546
21
-0.198289421907991
31
0
210
0
220
0
230
1
40
0.494673
41
-2.32630559314668
42
-1.57842127978576
0
ELLIPSE
5
193
100
AcDbEntity
8
1
62
256
6
ByLayer
370
-1
48
1
60
0
100
AcDbEllipse
10
19.152487
20
16.418844
30
0
11
-0.335790509927341
21
0.198599298572975
31
0
210
0
220
0
230
1
40
0.492091
41
1.58029449206881
42
2.55058598128578
0
ELLIPSE
5
194
100
AcDbEntity
8
1
62
256
6
ByLayer
370
-1
48
1
60
0
100
AcDbEllipse
10
19.693297
20
14.392868
30
0
11
-0.191488483430404
21
-0.342136907191923
31
0
210
0
220
0
230
1
40
0.487198
41
0.934133529178679
42
-3.09379216279855
0
ELLIPSE
5
195
100
AcDbEntity
8
1
62
256
6
ByLayer
370
-1
48
1
60
0
100
AcDbEllipse
10
19.688869
20
15.876049
30
0
11
-0.193857669878152
21
0.341952608842206
31
0
210
0
220
0
230
1
40
0.484716
41
3.09182378148335
42
-0.897947826113439
0
ELLIPSE
5
196
100
AcDbEntity
8
1
62
256
6
ByLayer
370
-1
48
1
60
0
100
AcDbEllipse
10
18.425938
20
15.134459
30
0
11
0.127108856584222
21
-1.28402392056319
31
0
210
0
220
0
230
1
40
0.984662
41
-1.36444026834921
42
-0.767325323208081
0
ELLIPSE
5
197
100
AcDbEntity
8
1
62
256
6
ByLayer
370
-1
48
1
60
0
100
AcDbEllipse
10
18.425938
20
15.134459
30
0
11
-0.1271088565842
21
1.28402392056295
31
0
210
0
220
0
230
1
40
0.984662
41
0.533818252294073
42
1.13559682605504
0
ELLIPSE
5
198
100
AcDbEntity
8
1
62
256
6
ByLayer
370
-1
48
1
60
0
100
AcDbEllipse
10
18.425938
20
15.134459
30
0
11
-0.1271088565842
21
1.28402392056295
31
0
210
0
220
0
230
1
40
0.984662
41
-0.620766087096147
42
0.107609258492596
0
ELLIPSE
5
199
100
AcDbEntity
8
1
62
256
6
ByLayer
370
-1
48
1
60
0
100
AcDbEllipse
10
18.425938
20
15.134459
30
0
11
-0.1271088565842
21
1.28402392056295
31
0
210
0
220
0
230
1
40
0.984662
41
2.89058537899368
42
-2.71516118948916
0
ELLIPSE
5
19A
100
AcDbEntity
8
1
62
256
6
ByLayer
370
-1
48
1
60
0
100
AcDbEllipse
10
11.629233
20
18.946078
30
0
11
-3.09999952421012
21
0.00171752643496112
31
0
210
0
220
0
230
1
40
0.053315
41
1.31009576894824
42
1.42377473616324
0
ELLIPSE
5
19B
100
AcDbEntity
8
1
62
256
6
ByLayer
370
-1
48
1
60
0
100
AcDbEllipse
10
11.393897
20
19.009639
30
0
11
0.0180802375823416
21
-0.199181085971952
31
0
210
0
220
0
230
1
40
0.984685
41
3.14158796552855
42
-2.70713969510981
0
ELLIPSE
5
19C
100
AcDbEntity
8
1
62
256
6
ByLayer
370
-1
48
1
60
0
100
AcDbEllipse
10
18.482403
20
15.135469
30
0
11
-0.272104028280549
21
2.9976362646461
31
0
210
0
220
0
230
1
40
0.984685
41
-0.0919249144870147
42
0
0
ELLIPSE
5
19D
100
AcDbEntity
8
1
62
256
6
ByLayer
370
-1
48
1
60
0
100
AcDbEllipse
10
18.482403
20
15.135469
30
0
11
-0.272104028280549
21
2.9976362646461
31
0
210
0
220
0
230
1
40
0.984685
41
0
42
0.378891176427946
0
ELLIPSE
5
19E
100
AcDbEntity
8
1
62
256
6
ByLayer
370
-1
48
1
60
0
100
AcDbEllipse
10
18.482403
20
15.135469
30
0
11
-0.272104028280549
21
2.9976362646461
31
0
210
0
220
0
230
1
40
0.984685
41
2.76257471391442
42
-0.0919249144870165
0
ELLIPSE
5
19F
100
AcDbEntity
8
1
62
256
6
ByLayer
370
-1
48
1
60
0
100
AcDbEllipse
10
15.003271
20
19.644724
30
0
11
0.0180802375823416
21
-0.199181085971952
31
0
210
0
220
0
230
1
40
0.984685
41
-3.14158718612353
42
-2.70713969510979
0
ELLIPSE
5
1A0
100
AcDbEntity
8
1
62
256
6
ByLayer
370
-1
48
1
60
0
100
AcDbEllipse
10
13.154722
20
19.276368
30
0
11
-0.0117521544285259
21
0.129467705881769
31
0
210
0
220
0
230
1
40
0.984685
41
-1.01564222326476E-05
42
0.434452958479982
0
ELLIPSE
5
1A1
100
AcDbEntity
8
1
62
256
6
ByLayer
370
-1
48
1
60
0
100
AcDbEllipse
10
17.843526
20
7.393909
30
0
11
0.0180802375823416
21
-0.199181085971952
31
0
210
0
220
0
230
1
40
0.984685
41
-0.612744592716714
42
-1.19043038551452E-05
0
ELLIPSE
5
1A2
100
AcDbEntity
8
1
62
256
6
ByLayer
370
-1
48
1
60
0
100
AcDbEllipse
10
17.285074
20
8.48538
30
0
11
0.0117521544285219
21
-0.129467705881769
31
0
210
0
220
0
230
1
40
0.984685
41
-0.612744592716288
42
-1.07325117975946E-05
0
ELLIPSE
5
1A3
100
AcDbEntity
8
1
62
256
6
ByLayer
370
-1
48
1
60
0
100
AcDbEllipse
10
18.438737
20
15.131505
30
0
11
-0.264066187850115
21
2.90908732946141
31
0
210
0
220
0
230
1
40
0.984685
41
-0.091924741853268
42
0
0
ELLIPSE
5
1A4
100
AcDbEntity
8
1
62
256
6
ByLayer
370
-1
48
1
60
0
100
AcDbEllipse
10
18.438737
20
15.131505
30
0
11
-0.264066187850115
21
2.90908732946141
31
0
210
0
220
0
230
1
40
0.984685
41
0
42
0.77011756199547
0
ELLIPSE
5
1A5
100
AcDbEntity
8
1
62
256
6
ByLayer
370
-1
48
1
60
0
100
AcDbEllipse
10
18.438737
20
15.131505
30
0
11
-0.264066187850115
21
2.90908732946141
31
0
210
0
220
0
230
1
40
0.984685
41
2.37134805682969
42
-2.21606450544834
0
ELLIPSE
5
1A6
100
AcDbEntity
8
1
62
256
6
ByLayer
370
-1
48
1
60
0
100
AcDbEllipse
10
18.438737
20
15.131505
30
0
11
-0.264066187850115
21
2.90908732946141
31
0
210
0
220
0
230
1
40
0.984685
41
-0.880494727721679
42
-0.0919247418532611
0
ELLIPSE
5
1A7
100
AcDbEntity
8
1
62
256
6
ByLayer
370
-1
48
1
60
0
100
AcDbEllipse
10
19.36076
20
8.285391
30
0
11
-0.138398498626081
21
0.213648907270893
31
0
210
0
220
0
230
1
40
0.952315
41
-1.92630059604856
42
-1.62136333106748
0
ELLIPSE
5
1A8
100
AcDbEntity
8
1
62
256
6
ByLayer
370
-1
48
1
60
0
100
AcDbEllipse
10
14.361511
20
19.321006
30
0
11
-0.161057566694986
21
0.0288747067392589
31
0
210
0
220
0
230
1
40
0.77681
41
2.0001387094547
42
2.34494700016041
0
ELLIPSE
5
1A9
100
AcDbEntity
8
1
62
256
6
ByLayer
370
-1
48
1
60
0
100
AcDbEllipse
10
23.992248
20
18.544077
30
0
11
-0.165766666325404
21
0.285344374984618
31
0
210
0
220
0
230
1
40
0.007779
41
1.58422822348678
42
1.93329407388804
0
ELLIPSE
5
1AA
100
AcDbEntity
8
1
62
256
6
ByLayer
370
-1
48
1
60
0
100
AcDbEllipse
10
24.504221
20
17.210304
30
0
11
-0.132004968935322
21
-0.000359883474432084
31
0
210
0
220
0
230
1
40
0.984689
41
2.1010599431172
42
-3.14158197035384
0
ELLIPSE
5
1AB
100
AcDbEntity
8
1
62
256
6
ByLayer
370
-1
48
1
60
0
100
AcDbEllipse
10
21.859205
20
19.910893
30
0
11
-0.176125829999186
21
-0.000349642820022432
31
0
210
0
220
0
230
1
40
0.013275
41
-2.75421869629412
42
-1.71923844999255
0
ELLIPSE
5
1AC
100
AcDbEntity
8
1
62
256
6
ByLayer
370
-1
48
1
60
0
100
AcDbEllipse
10
23.806864
20
19.703004
30
0
11
-0.203084567547612
21
-0.000553665724213862
31
0
210
0
220
0
230
1
40
0.984689
41
-2.10103857107302
42
-1.57078563779501
0
ELLIPSE
5
1AD
100
AcDbEntity
8
1
62
256
6
ByLayer
370
-1
48
1
60
0
100
AcDbEllipse
10
18.794774
20
19.035537
30
0
11
0.135500750613123
21
-0.0643393082281762
31
0
210
0
220
0
230
1
40
0.089727
41
1.42014369360352
42
2.12893318312565
0
ELLIPSE
5
1AE
100
AcDbEntity
8
1
62
256
6
ByLayer
370
-1
48
1
60
0
100
AcDbEllipse
10
13.817589
20
19.336538
30
0
11
-0.0393851344850608
21
-0.124684027161943
31
0
210
0
220
0
230
1
40
0.960533
41
2.91784637244253
42
-2.3247955410971
0
ELLIPSE
5
1AF
100
AcDbEntity
8
1
62
256
6
ByLayer
370
-1
48
1
60
0
100
AcDbEllipse
10
25.156998
20
18.920159
30
0
11
-1.20875914139139
21
0.275308271940314
31
0
210
0
220
0
230
1
40
0.044146
41
-1.62751893175731
42
-1.45992325483082
0
ELLIPSE
5
1B0
100
AcDbEntity
8
1
62
256
6
ByLayer
370
-1
48
1
60
0
100
AcDbEllipse
10
17.662361
20
19.910893
30
0
11
-0.150100271716967
21
-0.000410293029369955
31
0
210
0
220
0
230
1
40
0.015511
41
-2.45402146291908
42
-1.74523197159041
0
ELLIPSE
5
1B1
100
AcDbEntity
8
1
62
256
6
ByLayer
370
-1
48
1
60
0
100
AcDbEllipse
10
12.297791
20
17.872931
30
0
11
0.118305764501749
21
0.225396863522226
31
0
210
0
220
0
230
1
40
0.956983
41
-2.98914578897242
42
-2.68420852399136
0
ELLIPSE
5
1B2
100
AcDbEntity
8
1
62
256
6
ByLayer
370
-1
48
1
60
0
100
AcDbEllipse
10
16.222472
20
10.332521
30
0
11
0.0180802375823416
21
-0.199181085971952
31
0
210
0
220
0
230
1
40
0.984685
41
-1.13634336831491
42
-0.612744592716668
0
ELLIPSE
5
1B3
100
AcDbEntity
8
1
62
256
6
ByLayer
370
-1
48
1
60
0
100
AcDbEllipse
10
12.373426
20
18.563634
30
0
11
-0.32985002043205
21
0.00994806619280051
31
0
210
0
220
0
230
1
40
0.131594
41
-1.30688997975213
42
-0.957824129353186
0
ELLIPSE
5
1B4
100
AcDbEntity
8
1
62
256
6
ByLayer
370
-1
48
1
60
0
100
AcDbEllipse
10
24.502379
20
17.883282
30
0
11
-0.132004968919942
21
-0.000359882936077607
31
0
210
0
220
0
230
1
40
0.984689
41
-3.14158196634545
42
-2.18886228932006
0
ELLIPSE
5
1B5
100
AcDbEntity
8
1
62
256
6
ByLayer
370
-1
48
1
60
0
100
AcDbEllipse
10
23.696465
20
18.769823
30
0
11
-0.491325860446364
21
-0.830376881104745
31
0
210
0
220
0
230
1
40
0.342013
41
-3.13698302547764
42
-2.31470180314111
0
ELLIPSE
5
1B6
100
AcDbEntity
8
1
62
256
6
ByLayer
370
-1
48
1
60
0
100
AcDbEllipse
10
18.794653
20
8.683011
30
0
11
-0.02082150685074
21
-0.329342473502074
31
0
210
0
220
0
230
1
40
0.570502
41
-2.20304709528558
42
-1.3807658729506
0
ELLIPSE
5
1B7
100
AcDbEntity
8
1
62
256
6
ByLayer
370
-1
48
1
60
0
100
AcDbEllipse
10
24.610221
20
18.184268
30
0
11
-0.132004968948571
21
-0.000359883254312945
31
0
210
0
220
0
230
1
40
0.984689
41
-1.04053270877547
42
1.06848740638757E-05
0
ELLIPSE
5
1B8
100
AcDbEntity
8
1
62
256
6
ByLayer
370
-1
48
1
60
0
100
AcDbEllipse
10
19.414538
20
8.320227
30
0
11
0.168459357975664
21
-0.283763008002148
31
0
210
0
220
0
230
1
40
0.304906
41
-1.55887814206456
42
-1.20981229166565
0
ELLIPSE
5
1B9
100
AcDbEntity
8
1
62
256
6
ByLayer
370
-1
48
1
60
0
100
AcDbEllipse
10
23.989215
20
19.266434
30
0
11
-0.254558441227157
21
3.11733884545897E-17
31
0
210
0
220
0
230
1
40
0.99988
41
-0.839157347883413
42
-0.534219985807037
0
ELLIPSE
5
1BA
100
AcDbEntity
8
1
62
256
6
ByLayer
370
-1
48
1
60
0
100
AcDbEllipse
10
23.099968
20
19.184407
30
0
11
0.272189295186314
21
0.168264635577348
31
0
210
0
220
0
230
1
40
0.078857
41
1.7274084225611
42
2.76238866899408
0
ELLIPSE
5
1BB
100
AcDbEntity
8
1
62
256
6
ByLayer
370
-1
48
1
60
0
100
AcDbEllipse
10
23.695737
20
19.035765
30
0
11
-0.495864210025407
21
0.827675111840255
31
0
210
0
220
0
230
1
40
0.342013
41
2.31470168143109
42
3.13698290375806
0
ELLIPSE
5
1BC
100
AcDbEntity
8
1
62
256
6
ByLayer
370
-1
48
1
60
0
100
AcDbEllipse
10
19.816645
20
8.221714
30
0
11
-0.0823724029304056
21
0.183198314619418
31
0
210
0
220
0
230
1
40
0.958693
41
-3.03303518325378
42
-2.50278225007623
0
ELLIPSE
5
1BD
100
AcDbEntity
8
1
62
256
6
ByLayer
370
-1
48
1
60
0
100
AcDbEllipse
10
17.94794
20
8.54555
30
0
11
-0.0535420620252903
21
0.119078904469144
31
0
210
0
220
0
230
1
40
0.958693
41
2.20960672931546
42
-3.12085890091759
0
ELLIPSE
5
1BE
100
AcDbEntity
8
1
62
256
6
ByLayer
370
-1
48
1
60
0
100
AcDbEllipse
10
19.070757
20
8.784163
30
0
11
-0.485450528822627
21
0.833793599923884
31
0
210
0
220
0
230
1
40
0.325762
41
-3.13882244233692
42
-2.31654122000044
0
ELLIPSE
5
1BF
100
AcDbEntity
8
1
62
256
6
ByLayer
370
-1
48
1
60
0
100
AcDbEllipse
10
12.46764
20
16.358894
30
0
11
-0.18980954912347
21
0.325785750400208
31
0
210
0
220
0
230
1
40
0.134321
41
1.50813151141282
42
2.54311175778432
0
ELLIPSE
5
1C0
100
AcDbEntity
8
1
62
256
6
ByLayer
370
-1
48
1
60
0
100
AcDbEllipse
10
19.297963
20
8.651191
30
0
11
-0.931731499533279
21
0.000583048783686924
31
0
210
0
220
0
230
1
40
0.349309
41
-0.809560664679666
42
0.0127205576556555
0
ELLIPSE
5
1C1
100
AcDbEntity
8
1
62
256
6
ByLayer
370
-1
48
1
60
0
100
AcDbEllipse
10
12.351741
20
17.844613
30
0
11
0.0155171404431576
21
-0.329634977440907
31
0
210
0
220
0
230
1
40
0.571905
41
-1.7230627385904
42
-0.90078151625514
0
ELLIPSE
5
1C2
100
AcDbEntity
8
1
62
256
6
ByLayer
370
-1
48
1
60
0
100
AcDbEllipse
10
18.378606
20
18.527089
30
0
11
0.0367863585044564
21
0.145419269108264
31
0
210
0
220
0
230
1
40
0.164735
41
-1.51290410519044
42
-1.33837117999108
0
ELLIPSE
5
1C3
100
AcDbEntity
8
1
62
256
6
ByLayer
370
-1
48
1
60
0
100
AcDbEllipse
10
18.743909
20
7.61871
30
0
11
-0.748650557784255
21
-0.868263562148647
31
0
210
0
220
0
230
1
40
0.006448
41
-1.45645606480096
42
-1.28886029320401
0
ELLIPSE
5
1C4
100
AcDbEntity
8
1
62
256
6
ByLayer
370
-1
48
1
60
0
100
AcDbEllipse
10
18.657341
20
15.151349
30
0
11
-0.278473250631773
21
3.06780285504269
31
0
210
0
220
0
230
1
40
0.984685
41
0
42
6.28318530717959
0
ELLIPSE
5
1C5
100
AcDbEntity
8
1
62
256
6
ByLayer
370
-1
48
1
60
0
100
AcDbEllipse
10
22.794754
20
17.534471
30
0
11
-2.44476096610151
21
-1.42021439818093
31
0
210
0
220
0
230
1
40
0.300609
41
-3.13729904528178
42
-2.96970336968222
0
ELLIPSE
5
1C6
100
AcDbEntity
8
1
62
256
6
ByLayer
370
-1
48
1
60
0
100
AcDbEllipse
10
15.876792
20
13.245877
30
0
11
-0.144249644291543
21
-0.0411344152962373
31
0
210
0
220
0
230
1
40
0.032944
41
1.56840483871189
42
1.74293776391149
0
ELLIPSE
5
1C7
100
AcDbEntity
8
1
62
256
6
ByLayer
370
-1
48
1
60
0
100
AcDbEllipse
10
17.372987
20
8.882039
30
0
11
-0.0535420619907226
21
0.11907890449425
31
0
210
0
220
0
230
1
40
0.958693
41
1.16906333599065
42
2.20960672963611
0
ELLIPSE
5
1C8
100
AcDbEntity
8
1
62
256
6
ByLayer
370
-1
48
1
60
0
100
AcDbEllipse
10
19.202319
20
8.685218
30
0
11
-0.285282473313296
21
-0.165873175710386
31
0
210
0
220
0
230
1
40
0.015422
41
1.26110651584048
42
2.14212784184968
0
ELLIPSE
5
1C9
100
AcDbEntity
8
1
62
256
6
ByLayer
370
-1
48
1
60
0
100
AcDbEllipse
10
23.991201
20
18.540865
30
0
11
-0.254558441227157
21
3.11733884545897E-17
31
0
210
0
220
0
230
1
40
0.99988
41
0.539694073108168
42
0.844631240838872
0
ELLIPSE
5
1CA
100
AcDbEntity
8
1
62
256
6
ByLayer
370
-1
48
1
60
0
100
AcDbEllipse
10
22.067022
20
14.125832
30
0
11
0.108836897204719
21
-0.103220781855446
31
0
210
0
220
0
230
1
40
0.131791
41
1.28087309252958
42
1.45540601772885
0
ELLIPSE
5
1CB
100
AcDbEntity
8
1
62
256
6
ByLayer
370
-1
48
1
60
0
100
AcDbEllipse
10
23.992248
20
18.544077
30
0
11
0.282591938850261
21
0.170416537040424
31
0
210
0
220
0
230
1
40
0.354474
41
-2.4061566181727
42
-1.58387539583759
0
ELLIPSE
5
1CC
100
AcDbEntity
8
1
62
256
6
ByLayer
370
-1
48
1
60
0
100
AcDbEllipse
10
24.159778
20
16.189427
30
0
11
-0.000561880958622816
21
0.28303669778342
31
0
210
0
220
0
230
1
40
0.092036
41
-1.56262635437653
42
-0.527646107690222
0
ELLIPSE
5
1CD
100
AcDbEntity
8
1
62
256
6
ByLayer
370
-1
48
1
60
0
100
AcDbEllipse
10
18.426956
20
10.169949
30
0
11
-0.111418399277317
21
2.78797895164582
31
0
210
0
220
0
230
1
40
0.293981
41
3.13168124239848
42
-2.98390838989565
0
ELLIPSE
5
1CE
100
AcDbEntity
8
1
62
256
6
ByLayer
370
-1
48
1
60
0
100
AcDbEllipse
10
24.97916
20
18.91058
30
0
11
0.00183525231900484
21
-0.329994896701336
31
0
210
0
220
0
230
1
40
0.179002
41
1.25431002652261
42
1.85572942283345
0
ELLIPSE
5
1CF
100
AcDbEntity
8
1
62
256
6
ByLayer
370
-1
48
1
60
0
100
AcDbEllipse
10
12.008828
20
17.498494
30
0
11
-0.0605925144994474
21
-0.191821580249354
31
0
210
0
220
0
230
1
40
0.960533
41
-1.2842521478647
42
-0.753999214701294
0
ELLIPSE
5
1D0
100
AcDbEntity
8
1
62
256
6
ByLayer
370
-1
48
1
60
0
100
AcDbEllipse
10
16.71012
20
8.821869
30
0
11
-0.0117521544285259
21
0.129467705881769
31
0
210
0
220
0
230
1
40
0.984685
41
1.48830466720289
42
2.52884806087352
0
ELLIPSE
5
1D1
100
AcDbEntity
8
1
62
256
6
ByLayer
370
-1
48
1
60
0
100
AcDbEllipse
10
23.991005
20
15.408243
30
0
11
0.0180802375823416
21
-0.199181085971952
31
0
210
0
220
0
230
1
40
0.984685
41
0.958051734078326
42
1.48165050967664
0
ELLIPSE
5
1D2
100
AcDbEntity
8
1
62
256
6
ByLayer
370
-1
48
1
60
0
100
AcDbEllipse
10
17.489524
20
8.242369
30
0
11
-0.0117521544285259
21
0.129467705881768
31
0
210
0
220
0
230
1
40
0.984685
41
-1.65328798638685
42
-0.612744592716729
0
ELLIPSE
5
1D3
100
AcDbEntity
8
1
62
256
6
ByLayer
370
-1
48
1
60
0
100
AcDbEllipse
10
12.244516
20
16.74939
30
0
11
-0.162018972073839
21
0.275952627615931
31
0
210
0
220
0
230
1
40
0.158144
41
1.32187722636314
42
1.49641015156247
0
ELLIPSE
5
1D4
100
AcDbEntity
8
1
62
256
6
ByLayer
370
-1
48
1
60
0
100
AcDbEllipse
10
19.773417
20
9.1377
30
0
11
0.0113395985135239
21
-0.319799020488731
31
0
210
0
220
0
230
1
40
0.174084
41
-2.59617841502439
42
-1.56119816859217
0
ELLIPSE
5
1D5
100
AcDbEntity
8
1
62
256
6
ByLayer
370
-1
48
1
60
0
100
AcDbEllipse
10
13.244477
20
19.00005
30
0
11
-0.0393851345328526
21
-0.124684027135863
31
0
210
0
220
0
230
1
40
0.960533
41
-2.32479554068682
42
-1.37207586374037
0
ELLIPSE
5
1D6
100
AcDbEntity
8
1
62
256
6
ByLayer
370
-1
48
1
60
0
100
AcDbEllipse
10
16.76784
20
9.765199
30
0
11
-0.243081776436478
21
0.140924866108191
31
0
210
0
220
0
230
1
40
0.053924
41
-2.68181905540642
42
-1.6468388089622
0
ELLIPSE
5
1D7
100
AcDbEntity
8
1
62
256
6
ByLayer
370
-1
48
1
60
0
100
AcDbEllipse
10
12.854899
20
17.868299
30
0
11
-0.931737083164712
21
0.00318186460311621
31
0
210
0
220
0
230
1
40
0.351013
41
-0.00938637575765591
42
0.812894846588123
0
ELLIPSE
5
1D8
100
AcDbEntity
8
1
62
256
6
ByLayer
370
-1
48
1
60
0
100
AcDbEllipse
10
19.414538
20
8.320227
30
0
11
0.265139820720223
21
0.19647105503979
31
0
210
0
220
0
230
1
40
0.340178
41
-1.89623830500423
42
-1.07395708266934
0
ELLIPSE
5
1D9
100
AcDbEntity
8
1
62
256
6
ByLayer
370
-1
48
1
60
0
100
AcDbEllipse
10
22.653882
20
19.906007
30
0
11
-0.375735103991528
21
-0.000745904682580511
31
0
210
0
220
0
230
1
40
0.013275
41
0.387373957278845
42
1.42235420360486
0
ELLIPSE
5
1DA
100
AcDbEntity
8
1
62
256
6
ByLayer
370
-1
48
1
60
0
100
AcDbEllipse
10
12.987948
20
18.971563
30
0
11
-0.0393851345300687
21
-0.124684027137562
31
0
210
0
220
0
230
1
40
0.960533
41
0.816797112882801
42
1.76951678982301
0
ELLIPSE
5
1DB
100
AcDbEntity
8
1
62
256
6
ByLayer
370
-1
48
1
60
0
100
AcDbEllipse
10
21.638494
20
13.673988
30
0
11
0.108836897204719
21
-0.103220781855446
31
0
210
0
220
0
230
1
40
0.131791
41
1.28087309252928
42
1.45540601772869
0
ELLIPSE
5
1DC
100
AcDbEntity
8
1
62
256
6
ByLayer
370
-1
48
1
60
0
100
AcDbEllipse
10
23.992248
20
18.544077
30
0
11
-0.283086776769785
21
-0.169593268787691
31
0
210
0
220
0
230
1
40
0.013326
41
0.681816525924664
42
1.562837851933
0
ELLIPSE
5
1DD
100
AcDbEntity
8
1
62
256
6
ByLayer
370
-1
48
1
60
0
100
AcDbEllipse
10
12.969639
20
18.207398
30
0
11
0.286191286725686
21
-0.164300174687358
31
0
210
0
220
0
230
1
40
0.011457
41
-1.86495659313734
42
-0.983935267127346
0
ELLIPSE
5
1DE
100
AcDbEntity
8
1
62
256
6
ByLayer
370
-1
48
1
60
0
100
AcDbEllipse
10
12.373426
20
18.563634
30
0
11
-0.295887399852021
21
-0.14611860459507
31
0
210
0
220
0
230
1
40
0.410668
41
-1.6971796623979
42
-1.09576026608707
0
ELLIPSE
5
1DF
100
AcDbEntity
8
1
62
256
6
ByLayer
370
-1
48
1
60
0
100
AcDbEllipse
10
18.155667
20
8.302837
30
0
11
-0.0535420619935381
21
0.119078904491343
31
0
210
0
220
0
230
1
40
0.958693
41
-1.97252931763423
42
-0.931985923975711
0
ELLIPSE
5
1E0
100
AcDbEntity
8
1
62
256
6
ByLayer
370
-1
48
1
60
0
100
AcDbEllipse
10
15.23401
20
13.358803
30
0
11
-0.0109765333732292
21
0.1495978466259
31
0
210
0
220
0
230
1
40
0.174315
41
-2.27657293682735
42
-1.5677834473041
0
ELLIPSE
5
1E1
100
AcDbEntity
8
1
62
256
6
ByLayer
370
-1
48
1
60
0
100
AcDbEllipse
10
12.947757
20
15.617713
30
0
11
-0.0889732261424682
21
0.152712070479748
31
0
210
0
220
0
230
1
40
0.134321
41
-1.63346114228744
42
-0.598480895801663
0
ELLIPSE
5
1E2
100
AcDbEntity
8
1
62
256
6
ByLayer
370
-1
48
1
60
0
100
AcDbEllipse
10
17.777896
20
18.679049
30
0
11
0.0367863585044564
21
0.145419269108264
31
0
210
0
220
0
230
1
40
0.164735
41
-1.51290410519046
42
-1.33837117999108
0
ELLIPSE
5
1E3
100
AcDbEntity
8
1
62
256
6
ByLayer
370
-1
48
1
60
0
100
AcDbEllipse
10
19.773417
20
9.1377
30
0
11
0.00572482928562402
21
0.319948787042005
31
0
210
0
220
0
230
1
40
0.256832
41
0.556928889643557
42
1.74207351478793
0
ELLIPSE
5
1E4
100
AcDbEntity
8
1
62
256
6
ByLayer
370
-1
48
1
60
0
100
AcDbEllipse
10
23.775264
20
18.90627
30
0
11
0.283086776769786
21
0.169593268787689
31
0
210
0
220
0
230
1
40
0.013326
41
-2.45977612766817
42
-1.57875480165686
0
ELLIPSE
5
1E5
100
AcDbEntity
8
1
62
256
6
ByLayer
370
-1
48
1
60
0
100
AcDbEllipse
10
12.295098
20
18.935508
30
0
11
-0.289730900870856
21
1.1456044544244
31
0
210
0
220
0
230
1
40
0.218276
41
1.37589550819078
42
1.54349118072218
0
ELLIPSE
5
1E6
100
AcDbEntity
8
1
62
256
6
ByLayer
370
-1
48
1
60
0
100
AcDbEllipse
10
12.373426
20
18.563634
30
0
11
-0.169262396137934
21
-0.283284735299389
31
0
210
0
220
0
230
1
40
0.289738
41
-1.90384570816419
42
-1.55477985776538
0
ELLIPSE
5
1E7
100
AcDbEntity
8
1
62
256
6
ByLayer
370
-1
48
1
60
0
100
AcDbEllipse
10
23.775264
20
18.90627
30
0
11
0.284010899060889
21
-0.168041093827152
31
0
210
0
220
0
230
1
40
0.013348
41
-2.44389568253505
42
-1.56287435652419
0
ELLIPSE
5
1E8
100
AcDbEntity
8
1
62
256
6
ByLayer
370
-1
48
1
60
0
100
AcDbEllipse
10
18.794653
20
8.683011
30
0
11
0.329788829487308
21
0.0118037259113892
31
0
210
0
220
0
230
1
40
0.162283
41
-2.18480282662807
42
-1.8357369762292
0
ELLIPSE
5
1E9
100
AcDbEntity
8
1
62
256
6
ByLayer
370
-1
48
1
60
0
100
AcDbEllipse
10
23.099968
20
19.184407
30
0
11
-0.278191912985564
21
-0.15814316156392
31
0
210
0
220
0
230
1
40
0.013504
41
0.377999582706063
42
1.5631442078508
0
ELLIPSE
5
1EA
100
AcDbEntity
8
1
62
256
6
ByLayer
370
-1
48
1
60
0
100
AcDbEllipse
10
23.990262
20
19.269646
30
0
11
-0.284491903543768
21
0.167225467013979
31
0
210
0
220
0
230
1
40
0.329409
41
-1.57461717098191
42
-0.752335948646926
0
ELLIPSE
5
1EB
100
AcDbEntity
8
1
62
256
6
ByLayer
370
-1
48
1
60
0
100
AcDbEllipse
10
12.859035
20
17.11019
30
0
11
0.273970542679925
21
-0.165348546239958
31
0
210
0
220
0
230
1
40
0.018074
41
-1.86463385082723
42
-0.679489225682517
0
ELLIPSE
5
1EC
100
AcDbEntity
8
1
62
256
6
ByLayer
370
-1
48
1
60
0
100
AcDbEllipse
10
16.048974
20
12.642073
30
0
11
-0.144249644291543
21
-0.0411344152962373
31
0
210
0
220
0
230
1
40
0.032944
41
1.56840483871208
42
1.74293776391155
0
ELLIPSE
5
1ED
100
AcDbEntity
8
1
62
256
6
ByLayer
370
-1
48
1
60
0
100
AcDbEllipse
10
12.915689
20
18.235715
30
0
11
0.118305764501749
21
0.225396863522226
31
0
210
0
220
0
230
1
40
0.956983
41
-1.61029446388622
42
-1.30535719890512
0
ELLIPSE
5
1EE
100
AcDbEntity
8
1
62
256
6
ByLayer
370
-1
48
1
60
0
100
AcDbEllipse
10
12.859035
20
17.11019
30
0
11
-0.283797838351281
21
0.14784717429542
31
0
210
0
220
0
230
1
40
0.095227
41
1.42356277204934
42
2.45854301848233
0
ELLIPSE
5
1EF
100
AcDbEntity
8
1
62
256
6
ByLayer
370
-1
48
1
60
0
100
AcDbEllipse
10
12.351741
20
17.844613
30
0
11
0.00274347164032986
21
0.329988595808035
31
0
210
0
220
0
230
1
40
0.26032
41
1.43770026579281
42
2.31872159180219
0
ELLIPSE
5
1F0
100
AcDbEntity
8
1
62
256
6
ByLayer
370
-1
48
1
60
0
100
AcDbEllipse
10
24.36851
20
16.952897
30
0
11
-0.276792282483075
21
-0.160605130402757
31
0
210
0
220
0
230
1
40
0.074719
41
-1.56380547493329
42
-0.767263538800994
0
ELLIPSE
5
1F1
100
AcDbEntity
8
1
62
256
6
ByLayer
370
-1
48
1
60
0
100
AcDbEllipse
10
24.619692
20
18.908581
30
0
11
-0.165766666325404
21
0.285344374984618
31
0
210
0
220
0
230
1
40
0.007779
41
1.58422822348696
42
1.93329407388796
0
ELLIPSE
5
1F2
100
AcDbEntity
8
1
62
256
6
ByLayer
370
-1
48
1
60
0
100
AcDbEllipse
10
12.759422
20
17.841224
30
0
11
-0.286191286725688
21
0.164300174687355
31
0
210
0
220
0
230
1
40
0.011457
41
1.27663606045026
42
2.15765738646242
0
ELLIPSE
5
1F3
100
AcDbEntity
8
1
62
256
6
ByLayer
370
-1
48
1
60
0
100
AcDbEllipse
10
18.743909
20
7.618711
30
0
11
-0.289490851869389
21
-1.13451431776876
31
0
210
0
220
0
230
1
40
0.214503
41
-1.51916835372521
42
-1.35157267590403
0
ELLIPSE
5
1F4
100
AcDbEntity
8
1
62
256
6
ByLayer
370
-1
48
1
60
0
100
AcDbEllipse
10
20.389911
20
8.7769
30
0
11
-0.16163248582614
21
-0.276179180108969
31
0
210
0
220
0
230
1
40
0.142623
41
-1.46932086986304
42
-1.29478794466356
0
ELLIPSE
5
1F5
100
AcDbEntity
8
1
62
256
6
ByLayer
370
-1
48
1
60
0
100
AcDbEllipse
10
19.148542
20
8.650382
30
0
11
-0.138398498626081
21
0.213648907270893
31
0
210
0
220
0
230
1
40
0.952315
41
-1.6213633310675
42
-0.547449270962454
0
ELLIPSE
5
1F6
100
AcDbEntity
8
1
62
256
6
ByLayer
370
-1
48
1
60
0
100
AcDbEllipse
10
25.173189
20
18.894406
30
0
11
-0.203084567603035
21
-0.000553666731146729
31
0
210
0
220
0
230
1
40
0.984689
41
2.10105994388505
42
-3.14158196961453
0
ELLIPSE
5
1F7
100
AcDbEntity
8
1
62
256
6
ByLayer
370
-1
48
1
60
0
100
AcDbEllipse
10
19.202319
20
8.685218
30
0
11
0.00178662304630283
21
-0.329995163567726
31
0
210
0
220
0
230
1
40
0.260526
41
-2.28656926783166
42
-1.40554794182254
0
ELLIPSE
5
1F8
100
AcDbEntity
8
1
62
256
6
ByLayer
370
-1
48
1
60
0
100
AcDbEllipse
10
22.787277
20
20.266164
30
0
11
-2.45249889450302
21
1.40681163412763
31
0
210
0
220
0
230
1
40
0.300608
41
2.96970347936952
42
3.13729915434568
0
ELLIPSE
5
1F9
100
AcDbEntity
8
1
62
256
6
ByLayer
370
-1
48
1
60
0
100
AcDbEllipse
10
18.106297
20
8.331731
30
0
11
-0.0535420619686878
21
0.11907890450837
31
0
210
0
220
0
230
1
40
0.958693
41
-0.931985923728688
42
0.0207337531663356
0
ELLIPSE
5
1FA
100
AcDbEntity
8
1
62
256
6
ByLayer
370
-1
48
1
60
0
100
AcDbEllipse
10
22.687074
20
13.919302
30
0
11
-0.0805518628637626
21
-0.126536150522993
31
0
210
0
220
0
230
1
40
0.138793
41
0.968744266590825
42
1.6775337561126
0
ELLIPSE
5
1FB
100
AcDbEntity
8
1
62
256
6
ByLayer
370
-1
48
1
60
0
100
AcDbEllipse
10
18.50546
20
7.468354
30
0
11
-0.082372403077846
21
0.183198314594471
31
0
210
0
220
0
230
1
40
0.958693
41
1.16906333588268
42
2.20960672955459
0
ELLIPSE
5
1FC
100
AcDbEntity
8
1
62
256
6
ByLayer
370
-1
48
1
60
0
100
AcDbEllipse
10
21.865108
20
13.052613
30
0
11
-0.124592254826947
21
-0.0835270617053963
31
0
210
0
220
0
230
1
40
0.084588
41
1.72439265866673
42
2.43318214819056
0
ELLIPSE
5
1FD
100
AcDbEntity
8
1
62
256
6
ByLayer
370
-1
48
1
60
0
100
AcDbEllipse
10
12.705472
20
17.869541
30
0
11
0.118305764501749
21
0.225396863522226
31
0
210
0
220
0
230
1
40
0.956983
41
-2.68420852399141
42
-1.61029446388615
0
ELLIPSE
5
1FE
100
AcDbEntity
8
1
62
256
6
ByLayer
370
-1
48
1
60
0
100
AcDbEllipse
10
14.185279
20
19.30768
30
0
11
-0.279747322383529
21
0.155773091072239
31
0
210
0
220
0
230
1
40
0.099584
41
1.2734786374208
42
2.07002057389473
0
ELLIPSE
5
1FF
100
AcDbEntity
8
1
62
256
6
ByLayer
370
-1
48
1
60
0
100
AcDbEllipse
10
18.740876
20
8.648175
30
0
11
-0.138398498626081
21
0.213648907270893
31
0
210
0
220
0
230
1
40
0.952315
41
-0.547449270962291
42
-0.242512005981445
0
ELLIPSE
5
200
100
AcDbEntity
8
1
62
256
6
ByLayer
370
-1
48
1
60
0
100
AcDbEllipse
10
12.628421
20
17.735328
30
0
11
-0.480039673580976
21
-0.836978963694436
31
0
210
0
220
0
230
1
40
0.327324
41
2.31347030483296
42
3.13575152717746
0
ELLIPSE
5
201
100
AcDbEntity
8
1
62
256
6
ByLayer
370
-1
48
1
60
0
100
AcDbEllipse
10
21.08693
20
9.918348
30
0
11
-0.0885856203293531
21
-0.152801635019079
31
0
210
0
220
0
230
1
40
0.121299
41
0.621456720740518
42
1.65643696722728
0
ELLIPSE
5
202
100
AcDbEntity
8
1
62
256
6
ByLayer
370
-1
48
1
60
0
100
AcDbEllipse
10
17.822286
20
7.40634
30
0
11
0.0180802375823416
21
-0.199181085971952
31
0
210
0
220
0
230
1
40
0.984685
41
-1.65328798638697
42
-0.612744592716466
0
ELLIPSE
5
203
100
AcDbEntity
8
1
62
256
6
ByLayer
370
-1
48
1
60
0
100
AcDbEllipse
10
20.610897
20
9.167396
30
0
11
-0.188982656705404
21
-0.32597682137972
31
0
210
0
220
0
230
1
40
0.121299
41
-2.52013593284677
42
-1.48515568637607
0
ELLIPSE
5
204
100
AcDbEntity
8
1
62
256
6
ByLayer
370
-1
48
1
60
0
100
AcDbEllipse
10
12.859035
20
17.11019
30
0
11
0.162018972073848
21
-0.275952627615925
31
0
210
0
220
0
230
1
40
0.158144
41
-1.81971542722673
42
-1.6451825020273
0
ELLIPSE
5
205
100
AcDbEntity
8
1
62
256
6
ByLayer
370
-1
48
1
60
0
100
AcDbEllipse
10
18.820265
20
7.96743
30
0
11
0.329788829487308
21
0.0118037259113892
31
0
210
0
220
0
230
1
40
0.162283
41
-2.18480282662791
42
-1.83573697622912
0
ELLIPSE
5
206
100
AcDbEntity
8
1
62
256
6
ByLayer
370
-1
48
1
60
0
100
AcDbEllipse
10
12.077071
20
19.071653
30
0
11
-0.0605925146178088
21
-0.191821580235595
31
0
210
0
220
0
230
1
40
0.960533
41
2.91784637257442
42
-2.32479554095062
0
ELLIPSE
5
207
100
AcDbEntity
8
1
62
256
6
ByLayer
370
-1
48
1
60
0
100
AcDbEllipse
10
22.404949
20
12.247365
30
0
11
-0.083718767506484
21
-0.143968152818404
31
0
210
0
220
0
230
1
40
0.128583
41
1.66180577824245
42
2.37059526805649
0
ELLIPSE
5
208
100
AcDbEntity
8
1
62
256
6
ByLayer
370
-1
48
1
60
0
100
AcDbEllipse
10
17.642544
20
19.327014
30
0
11
0.149913678706951
21
-0.00508811719096793
31
0
210
0
220
0
230
1
40
0.021972
41
0.688140091617033
42
1.39692958113948
0
ELLIPSE
5
209
100
AcDbEntity
8
1
62
256
6
ByLayer
370
-1
48
1
60
0
100
AcDbEllipse
10
18.674379
20
7.672722
30
0
11
-0.295747720360011
21
0.146401113048559
31
0
210
0
220
0
230
1
40
0.435879
41
1.11094647285994
42
1.71236586917077
0
ELLIPSE
5
20A
100
AcDbEntity
8
1
62
256
6
ByLayer
370
-1
48
1
60
0
100
AcDbEllipse
10
12.759422
20
17.841224
30
0
11
0.00274347164032986
21
0.329988595808035
31
0
210
0
220
0
230
1
40
0.26032
41
1.43770026579285
42
2.31872159180195
0
ELLIPSE
5
20B
100
AcDbEntity
8
1
62
256
6
ByLayer
370
-1
48
1
60
0
100
AcDbEllipse
10
17.111448
20
9.368739
30
0
11
-0.10461357467142
21
-0.108175544224282
31
0
210
0
220
0
230
1
40
0.746721
41
2.89770941709669
42
-3.04066759864232
0
ELLIPSE
5
20C
100
AcDbEntity
8
1
62
256
6
ByLayer
370
-1
48
1
60
0
100
AcDbEllipse
10
12.055899
20
19.059222
30
0
11
-0.0605925146178482
21
-0.191821580232379
31
0
210
0
220
0
230
1
40
0.960533
41
-2.32479554093066
42
-1.28425214727454
0
ELLIPSE
5
20D
100
AcDbEntity
8
1
62
256
6
ByLayer
370
-1
48
1
60
0
100
AcDbEllipse
10
18.820265
20
7.96743
30
0
11
0.168459357975664
21
-0.283763008002148
31
0
210
0
220
0
230
1
40
0.304906
41
-1.55887814206458
42
-1.2098122916658
0
ELLIPSE
5
20E
100
AcDbEntity
8
1
62
256
6
ByLayer
370
-1
48
1
60
0
100
AcDbEllipse
10
23.774217
20
18.903058
30
0
11
-0.254558441227157
21
3.11733884545897E-17
31
0
210
0
220
0
230
1
40
0.99988
41
-0.534219985806955
42
0.539694073108218
0
ELLIPSE
5
20F
100
AcDbEntity
8
1
62
256
6
ByLayer
370
-1
48
1
60
0
100
AcDbEllipse
10
14.318546
20
17.710434
30
0
11
-2.32235940349132
21
1.38920876522372
31
0
210
0
220
0
230
1
40
0.314059
41
0.00587611183432915
42
0.173471786565711
0
ELLIPSE
5
210
100
AcDbEntity
8
1
62
256
6
ByLayer
370
-1
48
1
60
0
100
AcDbEllipse
10
11.372724
20
18.997208
30
0
11
0.0180802375823416
21
-0.199181085971952
31
0
210
0
220
0
230
1
40
0.984685
41
-2.70713969510953
42
-1.66659630143952
0
ELLIPSE
5
211
100
AcDbEntity
8
1
62
256
6
ByLayer
370
-1
48
1
60
0
100
AcDbEllipse
10
18.820265
20
7.96743
30
0
11
0.29574772036001
21
-0.14640111304856
31
0
210
0
220
0
230
1
40
0.435879
41
-2.03064618072981
42
-1.42922678441889
0
ELLIPSE
5
212
100
AcDbEntity
8
1
62
256
6
ByLayer
370
-1
48
1
60
0
100
AcDbEllipse
10
15.758547
20
19.713282
30
0
11
0.0180802375823416
21
-0.199181085971952
31
0
210
0
220
0
230
1
40
0.984685
41
3.05244683647144
42
-2.70713969510994
0
ELLIPSE
5
213
100
AcDbEntity
8
1
62
256
6
ByLayer
370
-1
48
1
60
0
100
AcDbEllipse
10
24.619692
20
18.908581
30
0
11
-0.00183525231900503
21
0.329994896701336
31
0
210
0
220
0
230
1
40
0.179002
41
-1.88728262706719
42
-1.28586323075634
0
ELLIPSE
5
214
100
AcDbEntity
8
1
62
256
6
ByLayer
370
-1
48
1
60
0
100
AcDbEllipse
10
23.175251
20
13.608532
30
0
11
-0.0758145711508083
21
-0.129549340919468
31
0
210
0
220
0
230
1
40
0.142526
41
0.963409593776978
42
1.67219908325459
0
ELLIPSE
5
215
100
AcDbEntity
8
1
62
256
6
ByLayer
370
-1
48
1
60
0
100
AcDbEllipse
10
19.210416
20
19.910893
30
0
11
-0.166222918343964
21
-0.000370480983721403
31
0
210
0
220
0
230
1
40
0.014047
41
-1.72815699286408
42
-1.01936750134264
0
ELLIPSE
5
216
100
AcDbEntity
8
1
62
256
6
ByLayer
370
-1
48
1
60
0
100
AcDbEllipse
10
15.05628
20
11.927528
30
0
11
-0.0759965875514382
21
0.129443220897604
31
0
210
0
220
0
230
1
40
0.158036
41
-1.64512853872831
42
-0.936339048783368
0
ELLIPSE
5
217
100
AcDbEntity
8
1
62
256
6
ByLayer
370
-1
48
1
60
0
100
AcDbEllipse
10
24.61038
20
18.12648
30
0
11
-0.132004968937506
21
-0.000359883228949101
31
0
210
0
220
0
230
1
40
0.984689
41
1.06850645405273E-05
42
0.95273036201366
0
ELLIPSE
5
218
100
AcDbEntity
8
1
62
256
6
ByLayer
370
-1
48
1
60
0
100
AcDbEllipse
10
25.173121
20
18.919268
30
0
11
-0.203084567605201
21
-0.0005536666537843
31
0
210
0
220
0
230
1
40
0.984689
41
-3.14158196924065
42
-2.10103857556745
0
ELLIPSE
5
219
100
AcDbEntity
8
1
62
256
6
ByLayer
370
-1
48
1
60
0
100
AcDbEllipse
10
19.414538
20
8.320227
30
0
11
-0.285282473313296
21
-0.165873175710386
31
0
210
0
220
0
230
1
40
0.015422
41
1.26110651583995
42
2.14212784185173
0
ELLIPSE
5
21A
100
AcDbEntity
8
1
62
256
6
ByLayer
370
-1
48
1
60
0
100
AcDbEllipse
10
12.295098
20
18.935509
30
0
11
-0.75317515983375
21
0.876144319850666
31
0
210
0
220
0
230
1
40
0.022981
41
1.30829856940711
42
1.47589426388839
0
ELLIPSE
5
21B
100
AcDbEntity
8
1
62
256
6
ByLayer
370
-1
48
1
60
0
100
AcDbEllipse
10
23.099968
20
19.184407
30
0
11
-0.319998801299914
21
-0.000875880481829768
31
0
210
0
220
0
230
1
40
0.015521
41
1.39624215860619
42
1.57077508380584
0
ELLIPSE
5
21C
100
AcDbEntity
8
1
62
256
6
ByLayer
370
-1
48
1
60
0
100
AcDbEllipse
10
23.990262
20
19.269646
30
0
11
0.284010899060889
21
-0.168041093827152
31
0
210
0
220
0
230
1
40
0.013348
41
-2.44389568253201
42
-1.56287435652415
0
ELLIPSE
5
21D
100
AcDbEntity
8
1
62
256
6
ByLayer
370
-1
48
1
60
0
100
AcDbEllipse
10
24.619692
20
18.908581
30
0
11
0.164202282649773
21
0.286247463521695
31
0
210
0
220
0
230
1
40
0.007742
41
-1.58424946263749
42
-1.23518361224042
0
ELLIPSE
5
21E
100
AcDbEntity
8
1
62
256
6
ByLayer
370
-1
48
1
60
0
100
AcDbEllipse
10
14.966274
20
19.492327
30
0
11
-0.242365818395929
21
-0.141207362990162
31
0
210
0
220
0
230
1
40
0.0396
41
0.620384819660845
42
1.6553650660004
0
ELLIPSE
5
21F
100
AcDbEntity
8
1
62
256
6
ByLayer
370
-1
48
1
60
0
100
AcDbEllipse
10
18.526701
20
7.455923
30
0
11
-0.0823724030675713
21
0.18319831460074
31
0
210
0
220
0
230
1
40
0.958693
41
2.20960672961529
42
-3.03303518389729
0
ELLIPSE
5
220
100
AcDbEntity
8
1
62
256
6
ByLayer
370
-1
48
1
60
0
100
AcDbEllipse
10
14.278526
20
13.288696
30
0
11
-0.0840311247249996
21
0.143872957336482
31
0
210
0
220
0
230
1
40
0.142448
41
-2.34621774087846
42
-1.63742825087102
0
ELLIPSE
5
221
100
AcDbEntity
8
1
62
256
6
ByLayer
370
-1
48
1
60
0
100
AcDbEllipse
10
11.99222
20
16.344587
30
0
11
-0.0938360337508395
21
-2.80143479436327
31
0
210
0
220
0
230
1
40
0.29273
41
2.98112326018931
42
-3.13446637233968
0
ELLIPSE
5
222
100
AcDbEntity
8
1
62
256
6
ByLayer
370
-1
48
1
60
0
100
AcDbEllipse
10
15.564274
20
12.200638
30
0
11
-0.0710291567746825
21
0.132116838018012
31
0
210
0
220
0
230
1
40
0.160766
41
-1.63918504400242
42
-0.930395554479481
0
ELLIPSE
5
223
100
AcDbEntity
8
1
62
256
6
ByLayer
370
-1
48
1
60
0
100
AcDbEllipse
10
18.794653
20
8.683011
30
0
11
-0.00178662304630258
21
0.329995163567726
31
0
210
0
220
0
230
1
40
0.260526
41
0.855023385758129
42
1.73604471176725
0
ELLIPSE
5
224
100
AcDbEntity
8
1
62
256
6
ByLayer
370
-1
48
1
60
0
100
AcDbEllipse
10
17.292817
20
9.182085
30
0
11
-0.00204550558956654
21
0.320084952875655
31
0
210
0
220
0
230
1
40
0.17433
41
0.941297790867295
42
1.73783972718327
0
ELLIPSE
5
225
100
AcDbEntity
8
1
62
256
6
ByLayer
370
-1
48
1
60
0
100
AcDbEllipse
10
12.225915
20
18.862341
30
0
11
0.295887399852021
21
0.146118604595069
31
0
210
0
220
0
230
1
40
0.410668
41
1.44441299119173
42
2.04583238750264
0
ELLIPSE
5
226
100
AcDbEntity
8
1
62
256
6
ByLayer
370
-1
48
1
60
0
100
AcDbEllipse
10
12.351741
20
17.844613
30
0
11
-0.32985002043205
21
0.00994806619280051
31
0
210
0
220
0
230
1
40
0.131594
41
-1.30688997975233
42
-0.957824129353281
0
ELLIPSE
5
227
100
AcDbEntity
8
1
62
256
6
ByLayer
370
-1
48
1
60
0
100
AcDbEllipse
10
12.969639
20
18.207398
30
0
11
-0.267449075294889
21
0.19331578343195
31
0
210
0
220
0
230
1
40
0.316515
41
-2.0870456469628
42
-1.26476442462777
0
ELLIPSE
5
228
100
AcDbEntity
8
1
62
256
6
ByLayer
370
-1
48
1
60
0
100
AcDbEllipse
10
12.938736
20
18.942669
30
0
11
-0.0393851345234333
21
-0.124684027140099
31
0
210
0
220
0
230
1
40
0.960533
41
-0.223746280838811
42
0.816797112840779
0
ELLIPSE
5
229
100
AcDbEntity
8
1
62
256
6
ByLayer
370
-1
48
1
60
0
100
AcDbEllipse
10
25.156998
20
18.920159
30
0
11
-1.20713079982021
21
-0.289513308730983
31
0
210
0
220
0
230
1
40
0.065395
41
1.45461119762815
42
1.62220686986782
0
ELLIPSE
5
22A
100
AcDbEntity
8
1
62
256
6
ByLayer
370
-1
48
1
60
0
100
AcDbEllipse
10
12.969639
20
18.207398
30
0
11
-0.169262396137934
21
-0.283284735299389
31
0
210
0
220
0
230
1
40
0.289738
41
-1.90384570816412
42
-1.55477985776529
0
ELLIPSE
5
22B
100
AcDbEntity
8
1
62
256
6
ByLayer
370
-1
48
1
60
0
100
AcDbEllipse
10
11.629843
20
20.044513
30
0
11
1.40969978363824
21
-0.00078103129527339
31
0
210
0
220
0
230
1
40
0.053315
41
0.698069240706575
42
1.74526679190273
0
ELLIPSE
5
22C
100
AcDbEntity
8
1
62
256
6
ByLayer
370
-1
48
1
60
0
100
AcDbEllipse
10
11.629843
20
20.044513
30
0
11
1.40969978363824
21
-0.00078103129527339
31
0
210
0
220
0
230
1
40
0.053315
41
1.74526679190273
42
2.7924643430998
0
ELLIPSE
5
22D
100
AcDbEntity
8
1
62
256
6
ByLayer
370
-1
48
1
60
0
100
AcDbEllipse
10
11.629843
20
20.044513
30
0
11
1.40969978363824
21
-0.00078103129527339
31
0
210
0
220
0
230
1
40
0.053315
41
-1.39632586168704
42
-0.349128310489991
0
ELLIPSE
5
22E
100
AcDbEntity
8
1
62
256
6
ByLayer
370
-1
48
1
60
0
100
AcDbEllipse
10
11.629843
20
20.044513
30
0
11
1.40969978363824
21
-0.00078103129527339
31
0
210
0
220
0
230
1
40
0.053315
41
2.7924643430998
42
-2.4435234128831
0
ELLIPSE
5
22F
100
AcDbEntity
8
1
62
256
6
ByLayer
370
-1
48
1
60
0
100
AcDbEllipse
10
11.629843
20
20.044513
30
0
11
1.40969978363824
21
-0.00078103129527339
31
0
210
0
220
0
230
1
40
0.053315
41
-2.4435234128831
42
-1.39632586168704
0
ELLIPSE
5
230
100
AcDbEntity
8
1
62
256
6
ByLayer
370
-1
48
1
60
0
100
AcDbEllipse
10
11.629843
20
20.044513
30
0
11
1.40969978363824
21
-0.00078103129527339
31
0
210
0
220
0
230
1
40
0.053315
41
-0.349128310489991
42
0.698069240706575
0
ELLIPSE
5
231
100
AcDbEntity
8
1
62
256
6
ByLayer
370
-1
48
1
60
0
100
AcDbEllipse
10
20.760759
20
8.804102
30
0
11
-2.31605434133025
21
-1.373694577898
31
0
210
0
220
0
230
1
40
0.315635
41
-0.170580785656526
42
-0.00298511014000251
0
ELLIPSE
5
232
100
AcDbEntity
8
1
62
256
6
ByLayer
370
-1
48
1
60
0
100
AcDbEllipse
10
24.218956
20
16.738874
30
0
11
-0.0456617363004329
21
0.124163624962382
31
0
210
0
220
0
230
1
40
0.697969
41
0.951900383404473
42
1.29670867369292
0
ELLIPSE
5
233
100
AcDbEntity
8
1
62
256
6
ByLayer
370
-1
48
1
60
0
100
AcDbEllipse
10
23.990262
20
19.269646
30
0
11
0.164202282649773
21
0.286247463521695
31
0
210
0
220
0
230
1
40
0.007742
41
-1.58424946263749
42
-1.23518361223519
0
ELLIPSE
5
234
100
AcDbEntity
8
1
62
256
6
ByLayer
370
-1
48
1
60
0
100
AcDbEllipse
10
23.097993
20
19.906007
30
0
11
0.319998801299914
21
0.000875880481822916
31
0
210
0
220
0
230
1
40
0.015521
41
-1.74535049498348
42
-1.57081756978404
0
ELLIPSE
5
235
100
AcDbEntity
8
1
62
256
6
ByLayer
370
-1
48
1
60
0
100
AcDbEllipse
10
16.449542
20
9.308656
30
0
11
-0.011752154428526
21
0.129467705881769
31
0
210
0
220
0
230
1
40
0.984685
41
-1.65328798638688
42
-0.612744592716288
0
ELLIPSE
5
236
100
AcDbEntity
8
1
62
256
6
ByLayer
370
-1
48
1
60
0
100
AcDbEllipse
10
19.773417
20
9.1377
30
0
11
0.161632485826126
21
0.276179180108978
31
0
210
0
220
0
230
1
40
0.142623
41
1.67227178372678
42
1.84680470892627
0
ELLIPSE
5
237
100
AcDbEntity
8
1
62
256
6
ByLayer
370
-1
48
1
60
0
100
AcDbEllipse
10
11.629843
20
20.044513
30
0
11
-1.69999973908296
21
0.000941869335301257
31
0
210
0
220
0
230
1
40
0.053315
41
0
42
6.28318530717959
0
ELLIPSE
5
238
100
AcDbEntity
8
1
62
256
6
ByLayer
370
-1
48
1
60
0
100
AcDbEllipse
10
19.886703
20
15.134459
30
0
11
-0.00153284668270448
21
0.394041092526982
31
0
210
0
220
0
230
1
40
0.482349
41
0.158646496807466
42
1.56891995825508
0
ELLIPSE
5
239
100
AcDbEntity
8
1
62
256
6
ByLayer
370
-1
48
1
60
0
100
AcDbEllipse
10
19.152487
20
16.418844
30
0
11
-0.335790509924051
21
0.198599298572561
31
0
210
0
220
0
230
1
40
0.492091
41
0.17002103060886
42
1.58029449207665
0
ELLIPSE
5
23A
100
AcDbEntity
8
1
62
256
6
ByLayer
370
-1
48
1
60
0
100
AcDbEllipse
10
19.886703
20
15.134459
30
0
11
-0.00153284667878662
21
0.394041092525168
31
0
210
0
220
0
230
1
40
0.482349
41
1.56891995827774
42
2.97919341973034
0
ELLIPSE
5
23B
100
AcDbEntity
8
1
62
256
6
ByLayer
370
-1
48
1
60
0
100
AcDbEllipse
10
18.425938
20
15.134459
30
0
11
-0.1271088565842
21
1.28402392056295
31
0
210
0
220
0
230
1
40
0.984662
41
-2.71516118948933
42
-1.66796363829264
0
ELLIPSE
5
23C
100
AcDbEntity
8
1
62
256
6
ByLayer
370
-1
48
1
60
0
100
AcDbEllipse
10
18.425938
20
15.134459
30
0
11
-0.1271088565842
21
1.28402392056295
31
0
210
0
220
0
230
1
40
0.984662
41
-1.66796363829279
42
-0.620766087096072
0
ELLIPSE
5
23D
100
AcDbEntity
8
1
62
256
6
ByLayer
370
-1
48
1
60
0
100
AcDbEllipse
10
18.699393
20
15.161529
30
0
11
0.16514398758256
21
-1.66824591213826
31
0
210
0
220
0
230
1
40
0.984662
41
1.99722779089552
42
3.04442534209183
0
ELLIPSE
5
23E
100
AcDbEntity
8
1
62
256
6
ByLayer
370
-1
48
1
60
0
100
AcDbEllipse
10
18.699393
20
15.161529
30
0
11
0.16514398758256
21
-1.66824591213826
31
0
210
0
220
0
230
1
40
0.984662
41
-1.14436486269432
42
-0.0971673114979616
0
ELLIPSE
5
23F
100
AcDbEntity
8
1
62
256
6
ByLayer
370
-1
48
1
60
0
100
AcDbEllipse
10
18.699393
20
15.161529
30
0
11
0.16514398758256
21
-1.66824591213826
31
0
210
0
220
0
230
1
40
0.984662
41
3.04442534209183
42
-2.19156241389088
0
ELLIPSE
5
240
100
AcDbEntity
8
1
62
256
6
ByLayer
370
-1
48
1
60
0
100
AcDbEllipse
10
18.699393
20
15.161529
30
0
11
0.16514398758256
21
-1.66824591213826
31
0
210
0
220
0
230
1
40
0.984662
41
-0.0971673114979616
42
0.950030239698899
0
ELLIPSE
5
241
100
AcDbEntity
8
1
62
256
6
ByLayer
370
-1
48
1
60
0
100
AcDbEllipse
10
18.699393
20
15.161529
30
0
11
0.16514398758256
21
-1.66824591213826
31
0
210
0
220
0
230
1
40
0.984662
41
-2.19156241389088
42
-1.14436486269432
0
ELLIPSE
5
242
100
AcDbEntity
8
1
62
256
6
ByLayer
370
-1
48
1
60
0
100
AcDbEllipse
10
18.699393
20
15.161529
30
0
11
0.16514398758256
21
-1.66824591213826
31
0
210
0
220
0
230
1
40
0.984662
41
0.950030239698897
42
1.99722779089552
0
ELLIPSE
5
243
100
AcDbEntity
8
1
62
256
6
ByLayer
370
-1
48
1
60
0
100
AcDbEllipse
10
18.688735
20
15.160474
30
0
11
-0.268442714246236
21
2.71174547278445
31
0
210
0
220
0
230
1
40
0.984662
41
0
42
6.28318530717959
0
ELLIPSE
5
244
100
AcDbEntity
8
1
62
256
6
ByLayer
370
-1
48
1
60
0
100
AcDbEllipse
10
18.699393
20
15.161529
30
0
11
-0.177319958034207
21
1.79124471596767
31
0
210
0
220
0
230
1
40
0.984662
41
0
42
6.28318530717959
0
ELLIPSE
5
245
100
AcDbEntity
8
1
62
256
6
ByLayer
370
-1
48
1
60
0
100
AcDbEllipse
10
19.160154
20
13.850073
30
0
11
-0.334789202945661
21
-0.198289421907713
31
0
210
0
220
0
230
1
40
0.494673
41
-1.57842127977819
42
-0.168147818323343
0
ELLIPSE
5
246
100
AcDbEntity
8
1
62
256
6
ByLayer
370
-1
48
1
60
0
100
AcDbEllipse
10
22.475699
20
12.765262
30
0
11
-3.30643715532042E-16
21
-1.8
31
0
210
0
220
0
230
1
40
0.173648
41
0.527406108412239
42
0.754298911171547
0
ELLIPSE
5
247
100
AcDbEntity
8
1
62
256
6
ByLayer
370
-1
48
1
60
0
100
AcDbEllipse
10
22.651421
20
12.574075
30
0
11
-4.59227382683391E-17
21
-0.25
31
0
210
0
220
0
230
1
40
0.173648
41
-1.09015436395412
42
-0.502338150264358
0
ELLIPSE
5
248
100
AcDbEntity
8
1
62
256
6
ByLayer
370
-1
48
1
60
0
100
AcDbEllipse
10
22.659362
20
11.933149
30
0
11
-4.59227382683391E-17
21
-0.25
31
0
210
0
220
0
230
1
40
0.173648
41
1.58333030586883
42
2.41236170056625
0
ELLIPSE
5
249
100
AcDbEntity
8
1
62
256
6
ByLayer
370
-1
48
1
60
0
100
AcDbEllipse
10
22.480026
20
10.777334
30
0
11
-3.30643715532042E-16
21
-1.8
31
0
210
0
220
0
230
1
40
0.173648
41
2.41236170056614
42
2.63925450332536
0
ELLIPSE
5
24A
100
AcDbEntity
8
1
62
256
6
ByLayer
370
-1
48
1
60
0
100
AcDbEllipse
10
22.654861
20
10.993825
30
0
11
-4.59227382683391E-17
21
-0.25
31
0
210
0
220
0
230
1
40
0.173648
41
-2.61418654517731
42
-2.03075104594623
0
ELLIPSE
5
24B
100
AcDbEntity
8
1
62
256
6
ByLayer
370
-1
48
1
60
0
100
AcDbEllipse
10
22.66001
20
11.635696
30
0
11
-4.59227382683391E-17
21
-0.25
31
0
210
0
220
0
230
1
40
0.173648
41
0.754298911171498
42
1.58333030586883
0
ELLIPSE
5
24C
100
AcDbEntity
8
SK1
62
256
6
ByLayer
370
-1
48
1
60
0
100
AcDbEllipse
10
0.2804
20
-12.40912
30
0
11
-1.60000000000013
21
1.61702248813191E-15
31
0
210
0
220
0
230
1
40
0.004364
41
-0.174506879417332
42
1.3946363889912
0
POINT
5
41
100
AcDbEntity
8
80
62
256
6
ByLayer
370
-1
48
1
60
0
100
AcDbPoint
10
0
20
0
30
0
39
0
210
0
220
0
230
1
50
360
0
POINT
5
43
100
AcDbEntity
8
81
62
256
6
ByLayer
370
-1
48
1
60
0
100
AcDbPoint
10
26.699398
20
19.9125
30
0
39
0
210
0
220
0
230
1
50
360
0
POINT
5
45
100
AcDbEntity
8
2
62
256
6
ByLayer
370
-1
48
1
60
0
100
AcDbPoint
10
26.699398
20
19.9125
30
0
39
0
210
0
220
0
230
1
50
360
0
POINT
5
47
100
AcDbEntity
8
2
62
256
6
ByLayer
370
-1
48
1
60
0
100
AcDbPoint
10
26.743198
20
19.911017
30
0
39
0
210
0
220
0
230
1
50
360
0
POINT
5
48
100
AcDbEntity
8
2
62
256
6
ByLayer
370
-1
48
1
60
0
100
AcDbPoint
10
25.376231
20
18.907392
30
0
39
0
210
0
220
0
230
1
50
360
0
SPLINE
5
24D
100
AcDbEntity
8
1
62
256
6
ByLayer
370
-1
48
1
60
0
100
AcDbSpline
70
4
71
1
72
4
73
2
40
0
40
0
40
1
40
1
41
1
10
21.7981232566242
20
10.4735791710432
30
0
41
1
10
22.3064658132128
20
10.6390320278425
30
0
0
SPLINE
5
24E
100
AcDbEntity
8
1
62
256
6
ByLayer
370
-1
48
1
60
0
100
AcDbSpline
70
4
71
3
72
11
73
7
40
0
40
0
40
0
40
0
40
0.272100272278094
40
0.573412813852866
40
0.858599056893774
40
1
40
1
40
1
40
1
41
1
10
8.8902271881071
20
19.3523497039567
30
0
41
1
10
8.97622725734092
20
19.4337886193916
30
0
41
1
10
9.16244068168345
20
19.5991221455719
30
0
41
1
10
9.46934396448597
20
19.8124589116034
30
0
41
1
10
9.74498587093996
20
19.9690928930812
30
0
41
1
10
9.9152067187882
20
20.0420171192107
30
0
41
1
10
9.9724915035433
20
20.0644920051208
30
0
0
SPLINE
5
24F
100
AcDbEntity
8
1
62
256
6
ByLayer
370
-1
48
1
60
0
100
AcDbSpline
70
4
71
3
72
10
73
6
40
0
40
0
40
0
40
0
40
0.0186599778930621
40
0.519020063560344
40
1
40
1
40
1
40
1
41
1
10
13.5243463613455
20
19.9548818551705
30
0
41
1
10
13.5295257723062
20
19.9526873544156
30
0
41
1
10
13.673284902655
20
19.891090085057
30
0
41
1
10
13.9257669213439
20
19.7208319721825
30
0
41
1
10
14.1590706070877
20
19.5399657982443
30
0
41
1
10
14.2684546190266
20
19.444681544714
30
0
0
SPLINE
5
250
100
AcDbEntity
8
1
62
256
6
ByLayer
370
-1
48
1
60
0
100
AcDbSpline
70
4
71
3
72
8
73
4
40
0
40
0
40
0
40
0
40
1
40
1
40
1
40
1
41
1
10
18.5135709281878
20
6.45449344089315
30
0
41
1
10
18.6684416641072
20
6.5313421351494
30
0
41
1
10
18.819292771853
20
6.60721321952266
30
0
41
1
10
18.9666708514537
20
6.68198654327298
30
0
0
SPLINE
5
251
100
AcDbEntity
8
1
62
256
6
ByLayer
370
-1
48
1
60
0
100
AcDbSpline
70
4
71
3
72
14
73
10
40
0
40
0
40
0
40
0
40
0.250000000910922
40
0.250000000910922
40
0.50000000179661
40
0.50000000179661
40
0.900000296045533
40
0.900000296045533
40
1
40
1
40
1
40
1
41
1
10
0.0008126992903783
20
-12.4159943589606
30
0
41
1
10
0.0008942673778449
20
-12.4159944223321
30
0
41
1
10
0.0009758354656242
20
-12.4159944853444
30
0
41
1
10
0.0011389716409838
20
-12.4159946115625
30
0
41
1
10
0.0012205397287062
20
-12.4159946746442
30
0
41
1
10
0.0014326168523269
20
-12.4159948385877
30
0
41
1
10
0.0015631258882536
20
-12.4159949394263
30
0
41
1
10
0.0017262620627037
20
-12.4159950653282
30
0
41
1
10
0.0017588892011133
20
-12.4159950905272
30
0
41
1
10
0.0017915163395799
20
-12.4159951156225
30
0
0
SPLINE
5
252
100
AcDbEntity
8
1
62
256
6
ByLayer
370
-1
48
1
60
0
100
AcDbSpline
70
4
71
1
72
5
73
3
40
0
40
0
40
0.879898084306006
40
1
40
1
41
1.08358774580744
10
16.3257551488412
20
7.35906229770362
30
0
41
1.08358774580744
10
16.7863651023335
20
7.49187870942536
30
0
41
1.08358774580744
10
16.8492361765963
20
7.51000751975906
30
0
0
SPLINE
5
253
100
AcDbEntity
8
1
62
256
6
ByLayer
370
-1
48
1
60
0
100
AcDbSpline
70
4
71
2
72
6
73
3
40
0
40
0
40
0
40
1
40
1
40
1
41
0.973497289157286
10
21.7986152156671
20
10.4737538504855
30
0
41
1.01271682324434
10
21.720124259252
20
10.4460063060324
30
0
41
1.08358774580744
10
21.6369330934499
20
10.4460063060324
30
0
0
SPLINE
5
254
100
AcDbEntity
8
1
62
256
6
ByLayer
370
-1
48
1
60
0
100
AcDbSpline
70
4
71
3
72
14
73
10
40
0
40
0
40
0
40
0
40
0.447435525515252
40
0.447435525515252
40
0.682968574430016
40
0.682968574430016
40
0.918614987173126
40
0.918614987173126
40
1
40
1
40
1
40
1
41
1
10
10.3061491276152
20
20.0709567386352
30
0
41
1
10
10.2961414547792
20
20.0694967381459
30
0
41
1
10
10.2879483635678
20
20.0673935209114
30
0
41
1
10
10.2786341160622
20
20.0630984512387
30
0
41
1
10
10.2759962791245
20
20.0614120724331
30
0
41
1
10
10.2720401776458
20
20.0575677085932
30
0
41
1
10
10.2707171087127
20
20.0554059212661
30
0
41
1
10
10.2699869900482
20
20.0521021779145
30
0
41
1
10
10.2698922748365
20
20.0512184496385
30
0
41
1
10
10.2698980676549
20
20.0502953090786
30
0
0
SPLINE
5
255
100
AcDbEntity
8
1
62
256
6
ByLayer
370
-1
48
1
60
0
100
AcDbSpline
70
4
71
3
72
20
73
16
40
0
40
0
40
0
40
0
40
0.0608157493555935
40
0.0608157493555935
40
0.214920488749271
40
0.214920488749271
40
0.368561615651638
40
0.368561615651638
40
0.521997789163086
40
0.521997789163086
40
0.675335255652545
40
0.675335255652545
40
0.983339895799476
40
0.983339895799476
40
1
40
1
40
1
40
1
41
1
10
12.8301687674737
20
20.0481307988589
30
0
41
1
10
12.8301928877694
20
20.0500504571401
30
0
41
1
10
12.829956492497
20
20.0518624786427
30
0
41
1
10
12.8283214076753
20
20.0579300920902
30
0
41
1
10
12.8256954649638
20
20.0616998185229
30
0
41
1
10
12.8184227721949
20
20.0683249285551
30
0
41
1
10
12.813756769624
20
20.071202280471
30
0
41
1
10
12.8029071184217
20
20.0762870630684
30
0
41
1
10
12.7967037754346
20
20.0785031331505
30
0
41
1
10
12.7830802588761
20
20.0824109429616
30
0
41
1
10
12.775643353384
20
20.0841068633069
30
0
41
1
10
12.751753539977
20
20.0885436996915
30
0
41
1
10
12.7336823419326
20
20.0906504193825
30
0
41
1
10
12.7129168000675
20
20.0920812327781
30
0
41
1
10
12.7118435354862
20
20.0921525956529
30
0
41
1
10
12.7107652952095
20
20.0922217140914
30
0
0
SPLINE
5
256
100
AcDbEntity
8
1
62
256
6
ByLayer
370
-1
48
1
60
0
100
AcDbSpline
70
4
71
3
72
10
73
6
40
0
40
0
40
0
40
0
40
0.87085674608732
40
0.87085674608732
40
1
40
1
40
1
40
1
41
1
10
11.0996842916988
20
20.0172210545435
30
0
41
1
10
11.1042227170705
20
20.0094386949181
30
0
41
1
10
11.1065114310673
20
20.0016182674848
30
0
41
1
10
11.1070982402769
20
19.9931209551339
30
0
41
1
10
11.1071362341012
20
19.9920343947083
30
0
41
1
10
11.1071382255881
20
19.9909543244784
30
0
0
SPLINE
5
257
100
AcDbEntity
8
1
62
256
6
ByLayer
370
-1
48
1
60
0
100
AcDbSpline
70
4
71
3
72
10
73
6
40
0
40
0
40
0
40
0
40
0.680481829738968
40
0.680481829738968
40
1
40
1
40
1
40
1
41
1
10
12.3514453214487
20
20.0106918036536
30
0
41
1
10
12.3436764468395
20
20.0030154374553
30
0
41
1
10
12.3339021655886
20
19.9954318482635
30
0
41
1
10
12.3181665619045
20
19.9850375658322
30
0
41
1
10
12.3129133616298
20
19.9818075429847
30
0
41
1
10
12.3074720299719
20
19.9786672369441
30
0
0
SPLINE
5
258
100
AcDbEntity
8
1
62
256
6
ByLayer
370
-1
48
1
60
0
100
AcDbSpline
70
4
71
3
72
12
73
8
40
0
40
0
40
0
40
0
40
0.190335113103269
40
0.190335113103269
40
0.838836721110052
40
0.838836721110052
40
1
40
1
40
1
40
1
41
1
10
11.7716673806683
20
19.9704279032476
30
0
41
1
10
11.768115734015
20
19.9733329036708
30
0
41
1
10
11.7647800144155
20
19.9763304822825
30
0
41
1
10
11.751325837258
20
19.9898060220055
30
0
41
1
10
11.7436123502501
20
20.0014995690327
30
0
41
1
10
11.7406431241318
20
20.0166735060559
30
0
41
1
10
11.7403826213223
20
20.0197788637256
30
0
41
1
10
11.7405062494784
20
20.0228880975366
30
0
0
SPLINE
5
259
100
AcDbEntity
8
1
62
256
6
ByLayer
370
-1
48
1
60
0
100
AcDbSpline
70
4
71
3
72
22
73
18
40
0
40
0
40
0
40
0
40
0.153101873520372
40
0.153101873520372
40
0.442621285364936
40
0.442621285364936
40
0.707385074439676
40
0.707385074439676
40
0.843532608240134
40
0.843532608240134
40
0.926352665771263
40
0.926352665771263
40
0.963706736955234
40
0.963706736955234
40
0.97786395536066
40
0.97786395536066
40
1
40
1
40
1
40
1
41
1
10
15.4823619931781
20
13.2892516737483
30
0
41
1
10
15.5033580806993
20
13.2911103540835
30
0
41
1
10
15.5243741353426
20
13.292758476291
30
0
41
1
10
15.5851646057903
20
13.2967427324795
30
0
41
1
10
15.6250155731825
20
13.2984431723968
30
0
41
1
10
15.7012576805561
20
13.2983625747205
30
0
41
1
10
15.7378165356936
20
13.297060555914
30
0
41
1
10
15.7924199228209
20
13.2894895157391
30
0
41
1
10
15.8109866668662
20
13.2859628680177
30
0
41
1
10
15.8395042616978
20
13.2763196603379
30
0
41
1
10
15.8501971491948
20
13.2717086666763
30
0
41
1
10
15.8636357649793
20
13.2620249158456
30
0
41
1
10
15.8675685294481
20
13.2585067774776
30
0
41
1
10
15.8720193967522
20
13.2528927322965
30
0
41
1
10
15.8731516172248
20
13.2512532184162
30
0
41
1
10
15.8757077870356
20
13.2468758907033
30
0
41
1
10
15.8769551379324
20
13.2439978325365
30
0
41
1
10
15.8778023966075
20
13.2410266765925
30
0
0
SPLINE
5
25A
100
AcDbEntity
8
1
62
256
6
ByLayer
370
-1
48
1
60
0
100
AcDbSpline
70
4
71
3
72
8
73
4
40
0
40
0
40
0
40
0
40
1
40
1
40
1
40
1
41
1
10
15.6155187444904
20
13.365415536243
30
0
41
1
10
15.4973245659294
20
13.37439962608
30
0
41
1
10
15.3782222970034
20
13.3698379644938
30
0
41
1
10
15.2600537157981
20
13.3611675096408
30
0
0
SPLINE
5
25B
100
AcDbEntity
8
1
62
256
6
ByLayer
370
-1
48
1
60
0
100
AcDbSpline
70
4
71
3
72
22
73
18
40
0
40
0
40
0
40
0
40
0.0236324717630026
40
0.0236324717630026
40
0.0629814022064269
40
0.0629814022064269
40
0.0762359204463836
40
0.0762359204463836
40
0.134099172814614
40
0.134099172814614
40
0.28887750428751
40
0.28887750428751
40
0.442933094377602
40
0.442933094377602
40
0.668543354429522
40
0.668543354429522
40
1
40
1
40
1
40
1
41
1
10
22.1111719170908
20
14.1100683510743
30
0
41
1
10
22.1146108505673
20
14.1136943926771
30
0
41
1
10
22.11889337378
20
14.116580509848
30
0
41
1
10
22.1309105303489
20
14.1219103218329
30
0
41
1
10
22.1393010270633
20
14.1231382777083
30
0
41
1
10
22.1502292751617
20
14.123369243463
30
0
41
1
10
22.1530143717238
20
14.123304666988
30
0
41
1
10
22.1678447463328
20
14.1224439636427
30
0
41
1
10
22.1798013966979
20
14.1200205455536
30
0
41
1
10
22.2226057761442
20
14.1086130688466
30
0
41
1
10
22.2524389583774
20
14.0954830424022
30
0
41
1
10
22.3103707996467
20
14.0671517664869
30
0
41
1
10
22.338600977032
20
14.0515076685365
30
0
41
1
10
22.4070787162898
20
14.0112020974034
30
0
41
1
10
22.4468692166684
20
13.9856420251549
30
0
41
1
10
22.5437334851491
20
13.9205324231837
30
0
41
1
10
22.6001976586436
20
13.8799641563899
30
0
41
1
10
22.655929414004
20
13.8384256491598
30
0
0
SPLINE
5
25C
100
AcDbEntity
8
1
62
256
6
ByLayer
370
-1
48
1
60
0
100
AcDbSpline
70
4
71
3
72
18
73
14
40
0
40
0
40
0
40
0
40
0.0414544517088124
40
0.0414544517088124
40
0.132910922468122
40
0.132910922468122
40
0.26317773154006
40
0.26317773154006
40
0.458562667326528
40
0.458562667326528
40
0.817425847463278
40
0.817425847463278
40
1
40
1
40
1
40
1
41
1
10
21.6645376899367
20
13.67635202996
30
0
41
1
10
21.6614046495577
20
13.6730485247208
30
0
41
1
10
21.6585493619804
20
13.6694510279618
30
0
41
1
10
21.6505042062255
20
13.6573512125785
30
0
41
1
10
21.6464853290635
20
13.6479244543428
30
0
41
1
10
21.6400194861669
20
13.6245528199959
30
0
41
1
10
21.6387309655304
20
13.6100520633064
30
0
41
1
10
21.6390812965271
20
13.5743657601414
30
0
41
1
10
21.642415599018
20
13.5529441658756
30
0
41
1
10
21.6557917846781
20
13.4937093661164
30
0
41
1
10
21.6692227134391
20
13.4564516467777
30
0
41
1
10
21.6920748291486
20
13.401739946929
30
0
41
1
10
21.7003207131625
20
13.3834816527301
30
0
41
1
10
21.7089405050183
20
13.3654155362336
30
0
0
SPLINE
5
25D
100
AcDbEntity
8
1
62
256
6
ByLayer
370
-1
48
1
60
0
100
AcDbSpline
70
4
71
3
72
18
73
14
40
0
40
0
40
0
40
0
40
0.041454451708752
40
0.041454451708752
40
0.13291092246809
40
0.13291092246809
40
0.263177731540006
40
0.263177731540006
40
0.458562667326526
40
0.458562667326526
40
0.81742584746327
40
0.81742584746327
40
1
40
1
40
1
40
1
41
1
10
18.4046499250792
20
18.5294529042793
30
0
41
1
10
18.409041812966
20
18.5283418990919
30
0
41
1
10
18.4135449251837
20
18.5276214034926
30
0
41
1
10
18.4279077787238
20
18.5265682780668
30
0
41
1
10
18.4379677357987
20
18.5277252675144
30
0
41
1
10
18.461151780109
20
18.5336695756177
30
0
41
1
10
18.4741680123741
20
18.5397520897172
30
0
41
1
10
18.5044317445689
20
18.5578173927634
30
0
41
1
10
18.5210287829256
20
18.5714084067863
30
0
41
1
10
18.5648346601553
20
18.6126446055983
30
0
41
1
10
18.5898670006496
20
18.6429932907068
30
0
41
1
10
18.625053988573
20
18.6903107833324
30
0
41
1
10
18.6364851804153
20
18.7066463962702
30
0
41
1
10
18.6475645945122
20
18.7232151510687
30
0
0
SPLINE
5
25E
100
AcDbEntity
8
1
62
256
6
ByLayer
370
-1
48
1
60
0
100
AcDbSpline
70
4
71
3
72
8
73
4
40
0
40
0
40
0
40
0
40
1
40
1
40
1
40
1
41
1
10
18.6430881819262
20
18.8744368571003
30
0
41
1
10
18.6459178413147
20
18.8259684323835
30
0
41
1
10
18.6474246500298
20
18.7743432004351
30
0
41
1
10
18.6475645944932
20
18.7232151510835
30
0
0
SPLINE
5
25F
100
AcDbEntity
8
1
62
256
6
ByLayer
370
-1
48
1
60
0
100
AcDbSpline
70
4
71
3
72
22
73
18
40
0
40
0
40
0
40
0
40
0.023632471762972
40
0.023632471762972
40
0.0629814022064178
40
0.0629814022064178
40
0.0762359204463504
40
0.0762359204463504
40
0.134099172814607
40
0.134099172814607
40
0.288877504287532
40
0.288877504287532
40
0.442933094377627
40
0.442933094377627
40
0.668543354429543
40
0.668543354429543
40
1
40
1
40
1
40
1
41
1
10
16.049983926015
20
12.6372226795764
30
0
41
1
10
16.051365680577
20
12.6323771602559
30
0
41
1
10
16.0516805619054
20
12.6271502165798
30
0
41
1
10
16.0501751882617
20
12.6138546326581
30
0
41
1
10
16.0469728809042
20
12.6058067315125
30
0
41
1
10
16.0416213647681
20
12.5960025756833
30
0
41
1
10
16.0401510117631
20
12.5935651069029
30
0
41
1
10
16.0318755866992
20
12.5808418475787
30
0
41
1
10
16.0237114818734
20
12.5714407591703
30
0
41
1
10
15.9921271434199
20
12.5391383105977
30
0
41
1
10
15.9656447466224
20
12.5191901216616
30
0
41
1
10
15.9117729444384
20
12.4818570462895
30
0
41
1
10
15.8839346584369
20
12.464574934955
30
0
41
1
10
15.8143719726928
20
12.4238209626942
30
0
41
1
10
15.7721038629319
20
12.4011991196674
30
0
41
1
10
15.6667144679257
20
12.3475579325136
30
0
41
1
10
15.6030226874646
20
12.3175829335136
30
0
41
1
10
15.5388638228262
20
12.2887365741784
30
0
0
SPLINE
5
260
100
AcDbEntity
8
1
62
256
6
ByLayer
370
-1
48
1
60
0
100
AcDbSpline
70
4
71
3
72
20
73
16
40
0
40
0
40
0
40
0
40
0.31485919264875
40
0.31485919264875
40
0.531558880441056
40
0.531558880441056
40
0.682135903694814
40
0.682135903694814
40
0.839619845966498
40
0.839619845966498
40
0.903112673775987
40
0.903112673775987
40
0.9679021282098
40
0.9679021282098
40
1
40
1
40
1
40
1
41
1
10
17.6685879285387
20
19.3293781306323
30
0
41
1
10
17.6661299534973
20
19.2569576130215
30
0
41
1
10
17.6654674212188
20
19.1844044725195
30
0
41
1
10
17.6696017940325
20
19.0621168398826
30
0
41
1
10
17.6727423090866
20
19.0122453961505
30
0
41
1
10
17.6824363132362
20
18.9282588960886
30
0
41
1
10
17.6876466492521
20
18.8938994405615
30
0
41
1
10
17.7027928976936
20
18.8247626608724
30
0
41
1
10
17.7127613313441
20
18.789493027342
30
0
41
1
10
17.7346936327861
20
18.7438105523762
30
0
41
1
10
17.7420524732498
20
18.7310107902375
30
0
41
1
10
17.7599273365455
20
18.707781534293
30
0
41
1
10
17.7708467189389
20
18.6970868423054
30
0
41
1
10
17.7899117809285
20
18.6860819994132
30
0
41
1
10
17.7968266725142
20
18.6832124728158
30
0
41
1
10
17.8039401737759
20
18.6814129877182
30
0
0
SPLINE
5
261
100
AcDbEntity
8
1
62
256
6
ByLayer
370
-1
48
1
60
0
100
AcDbSpline
70
4
71
3
72
10
73
6
40
0
40
0
40
0
40
0
40
0.736240194588453
40
0.736240194588453
40
1
40
1
40
1
40
1
41
1
10
14.408160481812
20
19.1952304175787
30
0
41
1
10
14.3850280109508
20
19.1913952690794
30
0
41
1
10
14.3593268814237
20
19.1914470722542
30
0
41
1
10
14.3242172355903
20
19.2007509682506
30
0
41
1
10
14.3147760547218
20
19.2041638724329
30
0
41
1
10
14.3055872369554
20
19.2086460210471
30
0
0
SPLINE
5
262
100
AcDbEntity
8
1
62
256
6
ByLayer
370
-1
48
1
60
0
100
AcDbSpline
70
4
71
3
72
14
73
10
40
0
40
0
40
0
40
0
40
0.233926408286287
40
0.233926408286287
40
0.467719442169521
40
0.467719442169521
40
0.701444004412102
40
0.701444004412102
40
1
40
1
40
1
40
1
41
1
10
14.422768818746
20
13.0242736852967
30
0
41
1
10
14.4274960298208
20
13.0127696678217
30
0
41
1
10
14.4328703206518
20
13.0004846523895
30
0
41
1
10
14.4446525714601
20
12.9749173960117
30
0
41
1
10
14.4511010056759
20
12.9615462895848
30
0
41
1
10
14.4648241573415
20
12.9341985022784
30
0
41
1
10
14.4721443067652
20
12.9201307119917
30
0
41
1
10
14.4894947618166
20
12.8878677488671
30
0
41
1
10
14.4998069117528
20
12.8694359463466
30
0
41
1
10
14.5103857412472
20
12.8512088634162
30
0
0
SPLINE
5
263
100
AcDbEntity
8
1
62
256
6
ByLayer
370
-1
48
1
60
0
100
AcDbSpline
70
4
71
3
72
8
73
4
40
0
40
0
40
0
40
0
40
1
40
1
40
1
40
1
41
1
10
15.260976931751
20
13.2632267888128
30
0
41
1
10
15.3345523706873
20
13.2736308444865
30
0
41
1
10
15.4083524744079
20
13.2826999751518
30
0
41
1
10
15.4823619932004
20
13.2892516737503
30
0
0
SPLINE
5
264
100
AcDbEntity
8
1
62
256
6
ByLayer
370
-1
48
1
60
0
100
AcDbSpline
70
4
71
3
72
10
73
6
40
0
40
0
40
0
40
0
40
0.736240194588442
40
0.736240194588442
40
1
40
1
40
1
40
1
41
1
10
24.1218780704473
20
16.7849469883642
30
0
41
1
10
24.1238209560103
20
16.8027106734289
30
0
41
1
10
24.1304855667515
20
16.8208716874984
30
0
41
1
10
24.1485426426917
20
16.8418124534959
30
0
41
1
10
24.1542769813032
20
16.847058490185
30
0
41
1
10
24.1609408461053
20
16.8516477425988
30
0
0
SPLINE
5
265
100
AcDbEntity
8
1
62
256
6
ByLayer
370
-1
48
1
60
0
100
AcDbSpline
70
4
71
3
72
14
73
10
40
0
40
0
40
0
40
0
40
0.249103078948823
40
0.249103078948823
40
0.498160925944211
40
0.498160925944211
40
0.745586162481426
40
0.745586162481426
40
1
40
1
40
1
40
1
41
1
10
22.9564885315244
20
13.2427965424112
30
0
41
1
10
22.9654626186635
20
13.2584302920862
30
0
41
1
10
22.9747026204537
20
13.2740852252229
30
0
41
1
10
22.9933186775002
20
13.3047824830348
30
0
41
1
10
23.0027592378228
20
13.3199314369491
30
0
41
1
10
23.0214592849626
20
13.3491254145687
30
0
41
1
10
23.0307822745217
20
13.3632749824118
30
0
41
1
10
23.0493203485771
20
13.3905903571992
30
0
41
1
10
23.0585904975874
20
13.4038136739792
30
0
41
1
10
23.067535920043
20
13.4161285916377
30
0
0
SPLINE
5
266
100
AcDbEntity
8
1
62
256
6
ByLayer
370
-1
48
1
60
0
100
AcDbSpline
70
4
71
3
72
8
73
4
40
0
40
0
40
0
40
0
40
1
40
1
40
1
40
1
41
1
10
18.6475645944932
20
18.7232151510834
30
0
41
1
10
18.7140404845027
20
18.8226267907122
30
0
41
1
10
18.7694139647369
20
18.9296423686739
30
0
41
1
10
18.8208181253645
20
19.0379012626765
30
0
0
SPLINE
5
267
100
AcDbEntity
8
1
62
256
6
ByLayer
370
-1
48
1
60
0
100
AcDbSpline
70
4
71
3
72
8
73
4
40
0
40
0
40
0
40
0
40
1
40
1
40
1
40
1
41
1
10
18.72790890562
20
19.0799246983835
30
0
41
1
10
18.7012254604781
20
19.0107573942425
30
0
41
1
10
18.6732872460859
20
18.9420601393564
30
0
41
1
10
18.6430881819262
20
18.8744368571003
30
0
0
SPLINE
5
268
100
AcDbEntity
8
1
62
256
6
ByLayer
370
-1
48
1
60
0
100
AcDbSpline
70
4
71
3
72
8
73
4
40
0
40
0
40
0
40
0
40
1
40
1
40
1
40
1
41
1
10
21.9643199496892
20
13.1091865674519
30
0
41
1
10
21.9196517905225
20
13.168151679757
30
0
41
1
10
21.8760046274379
20
13.2279808410214
30
0
41
1
10
21.834389202021
20
13.2892516737669
30
0
0
SPLINE
5
269
100
AcDbEntity
8
1
62
256
6
ByLayer
370
-1
48
1
60
0
100
AcDbSpline
70
4
71
3
72
22
73
18
40
0
40
0
40
0
40
0
40
0.0236324717630028
40
0.0236324717630028
40
0.0629814022064406
40
0.0629814022064406
40
0.0762359204463808
40
0.0762359204463808
40
0.134099172814637
40
0.134099172814637
40
0.288877504287529
40
0.288877504287529
40
0.44293309437762
40
0.44293309437762
40
0.668543354429525
40
0.668543354429525
40
1
40
1
40
1
40
1
41
1
10
17.8096810006667
20
18.7066474455065
30
0
41
1
10
17.8048603126283
20
18.7078669232243
30
0
41
1
10
17.8002291787089
20
18.7102046880172
30
0
41
1
10
17.7895654155027
20
18.7181566642687
30
0
41
1
10
17.7842194794058
20
18.7249622904156
30
0
41
1
10
17.7784088962161
20
18.7345142531444
30
0
41
1
10
17.7770319942069
20
18.737010656099
30
0
41
1
10
17.7701353246637
20
18.7505635998658
30
0
41
1
10
17.7660313521866
20
18.7623598372483
30
0
41
1
10
17.7536393261232
20
18.8059633780867
30
0
41
1
10
17.7493634207151
20
18.8389576176781
30
0
41
1
10
17.7434459980974
20
18.904453368943
30
0
41
1
10
17.7421098094922
20
18.9372938616649
30
0
41
1
10
17.7408526368658
20
19.0181408041997
30
0
41
1
10
17.7419225957108
20
19.0661949430045
30
0
41
1
10
17.7469556094879
20
19.1846287430548
30
0
41
1
10
17.7520884836566
20
19.2549818639536
30
0
41
1
10
17.7584125502299
20
19.3251758313099
30
0
0
SPLINE
5
26A
100
AcDbEntity
8
1
62
256
6
ByLayer
370
-1
48
1
60
0
100
AcDbSpline
70
4
71
3
72
14
73
10
40
0
40
0
40
0
40
0
40
0.233926408286285
40
0.233926408286285
40
0.467719442169608
40
0.467719442169608
40
0.701444004412188
40
0.701444004412188
40
1
40
1
40
1
40
1
41
1
10
18.9038528511152
20
19.9103024152394
30
0
41
1
10
18.8891955131738
20
19.9101431082632
30
0
41
1
10
18.8738211616944
20
19.9100011321173
30
0
41
1
10
18.8423337831923
20
19.9097572101902
30
0
41
1
10
18.826110906319
20
19.9096543753499
30
0
41
1
10
18.7933858818302
20
19.90949015116
30
0
41
1
10
18.7767744659534
20
19.909428189943
30
0
41
1
10
18.739157511206
20
19.9093346288772
30
0
41
1
10
18.7180078684916
20
19.9093156833746
30
0
41
1
10
18.6974181354365
20
19.9093298460099
30
0
0
SPLINE
5
26B
100
AcDbEntity
8
1
62
256
6
ByLayer
370
-1
48
1
60
0
100
AcDbSpline
70
4
71
3
72
18
73
14
40
0
40
0
40
0
40
0
40
0.0414544517087685
40
0.0414544517087685
40
0.132910922468088
40
0.132910922468088
40
0.263177731540067
40
0.263177731540067
40
0.458562667326513
40
0.458562667326513
40
0.81742584746328
40
0.81742584746328
40
1
40
1
40
1
40
1
41
1
10
15.902836229008
20
13.2482412893301
30
0
41
1
10
15.9015773815002
20
13.2526557997567
30
0
41
1
10
15.8999295568597
20
13.256973792115
30
0
41
1
10
15.8936118590746
20
13.2701267329241
30
0
41
1
10
15.8875707791618
20
13.2783965017122
30
0
41
1
10
15.870852577748
20
13.2958238279558
30
0
41
1
10
15.8591248661194
20
13.3042420705457
30
0
41
1
10
15.8285108029279
20
13.3218630706646
30
0
41
1
10
15.8085794620803
20
13.3296936509074
30
0
41
1
10
15.7513973991905
20
13.3476922518547
30
0
41
1
10
15.7129341299351
20
13.3546012860849
30
0
41
1
10
15.6548950263022
20
13.361995493308
30
0
41
1
10
15.635217950446
20
13.3639181745691
30
0
41
1
10
15.6155187444934
20
13.3654155362671
30
0
0
SPLINE
5
26C
100
AcDbEntity
8
1
62
256
6
ByLayer
370
-1
48
1
60
0
100
AcDbSpline
70
4
71
3
72
14
73
10
40
0
40
0
40
0
40
0
40
0.314392366702155
40
0.314392366702155
40
0.632200716155386
40
0.632200716155386
40
0.91251319620216
40
0.91251319620216
40
1
40
1
40
1
40
1
41
1
10
12.0802092458879
20
19.1461466756122
30
0
41
1
10
12.0694094004891
20
19.1462454250453
30
0
41
1
10
12.0583717649898
20
19.1448188038591
30
0
41
1
10
12.0374692316039
20
19.138094314236
30
0
41
1
10
12.0273574054561
20
19.1326094137107
30
0
41
1
10
12.0110161553926
20
19.1192513101973
30
0
41
1
10
12.0042651809732
20
19.1116142785713
30
0
41
1
10
11.9968933306468
20
19.1007431142965
30
0
41
1
10
11.9952283087191
20
19.0980651065485
30
0
41
1
10
11.99366255701
20
19.0953328613372
30
0
0
SPLINE
5
26D
100
AcDbEntity
8
1
62
256
6
ByLayer
370
-1
48
1
60
0
100
AcDbSpline
70
4
71
3
72
22
73
18
40
0
40
0
40
0
40
0
40
0.153101873520358
40
0.153101873520358
40
0.442621285364901
40
0.442621285364901
40
0.707385074439679
40
0.707385074439679
40
0.843532608240161
40
0.843532608240161
40
0.926352665771243
40
0.926352665771243
40
0.963706736955241
40
0.963706736955241
40
0.977863955360655
40
0.977863955360655
40
1
40
1
40
1
40
1
41
1
10
21.8343892020336
20
13.2892516737485
30
0
41
1
10
21.8225831380495
20
13.3066338671177
30
0
41
1
10
21.810945823213
20
13.3241387758613
30
0
41
1
10
21.7779479566358
20
13.3751645354895
30
0
41
1
10
21.7570890302272
20
13.4090700248923
30
0
41
1
10
21.7200099148845
20
13.4756037504744
30
0
41
1
10
21.7033016058406
20
13.508138870112
30
0
41
1
10
21.6831204579201
20
13.5595440264252
30
0
41
1
10
21.6770662693092
20
13.5774991377123
30
0
41
1
10
21.6713539784117
20
13.6071890267724
30
0
41
1
10
21.6700566529589
20
13.6188187244864
30
0
41
1
10
21.6717264230321
20
13.6353776221883
30
0
41
1
10
21.672795749117
20
13.6405653810584
30
0
41
1
10
21.6753913409705
20
13.6472521713546
30
0
41
1
10
21.6762310233923
20
13.6490587912765
30
0
41
1
10
21.6787003261875
20
13.653475200731
30
0
41
1
10
21.6805350238756
20
13.6560010359778
30
0
41
1
10
21.6826436951993
20
13.6582244375059
30
0
0
SPLINE
5
26E
100
AcDbEntity
8
1
62
256
6
ByLayer
370
-1
48
1
60
0
100
AcDbSpline
70
4
71
3
72
14
73
10
40
0
40
0
40
0
40
0
40
0.233926408286306
40
0.233926408286306
40
0.467719442169526
40
0.467719442169526
40
0.701444004412115
40
0.701444004412115
40
1
40
1
40
1
40
1
41
1
10
22.547747565023
20
12.5106057345014
30
0
41
1
10
22.5524126720496
20
12.5217911380239
30
0
41
1
10
22.5577204885621
20
12.5337922011643
30
0
41
1
10
22.5693641125113
20
12.558871613688
30
0
41
1
10
22.5757399125793
20
12.5720370504344
30
0
41
1
10
22.5893142539852
20
12.5990563893608
30
0
41
1
10
22.5965577316698
20
12.6130002572136
30
0
41
1
10
22.6137320826154
20
12.6450760982067
30
0
41
1
10
22.6239434355361
20
12.6634700097219
30
0
41
1
10
22.6344224074629
20
12.6817254179229
30
0
0
SPLINE
5
26F
100
AcDbEntity
8
1
62
256
6
ByLayer
370
-1
48
1
60
0
100
AcDbSpline
70
4
71
3
72
20
73
16
40
0
40
0
40
0
40
0
40
0.31485919264875
40
0.31485919264875
40
0.531558880441062
40
0.531558880441062
40
0.682135903694807
40
0.682135903694807
40
0.839619845966525
40
0.839619845966525
40
0.903112673776015
40
0.903112673776015
40
0.967902128209816
40
0.967902128209816
40
1
40
1
40
1
40
1
41
1
10
22.7131182792311
20
13.921665898277
30
0
41
1
10
22.6525680209989
20
13.9602116899525
30
0
41
1
10
22.5910112376602
20
13.9972454224959
30
0
41
1
10
22.4846449664753
20
14.0550482934417
30
0
41
1
10
22.4405428700974
20
14.0773426612791
30
0
41
1
10
22.364080304408
20
14.1110143361548
30
0
41
1
10
22.3321797111844
20
14.1236954332768
30
0
41
1
10
22.265670675538
20
14.1451124815192
30
0
41
1
10
22.230626120203
20
14.1540671770309
30
0
41
1
10
22.1807464678334
20
14.1577338118142
30
0
41
1
10
22.1661668033887
20
14.1576940461227
30
0
41
1
10
22.1374582757061
20
14.1536476413141
30
0
41
1
10
22.122902494425
20
14.1494195751516
30
0
41
1
10
22.1040289246938
20
14.1381850301709
30
0
41
1
10
22.0981404691122
20
14.1335466012248
30
0
41
1
10
22.0930659118229
20
14.1281959435365
30
0
0
SPLINE
5
270
100
AcDbEntity
8
1
62
256
6
ByLayer
370
-1
48
1
60
0
100
AcDbSpline
70
4
71
3
72
14
73
10
40
0
40
0
40
0
40
0
40
0.249103078948837
40
0.249103078948837
40
0.498160925944156
40
0.498160925944156
40
0.745586162481356
40
0.745586162481356
40
1
40
1
40
1
40
1
41
1
10
18.0646026677718
20
19.9097651277439
30
0
41
1
10
18.0469698255524
20
19.9097772564837
30
0
41
1
10
18.0296082023914
20
19.9098136830408
30
0
41
1
10
17.9961430866479
20
19.9099327283792
30
0
41
1
10
17.979923165304
20
19.9100157454389
30
0
41
1
10
17.9492547817675
20
19.910224232106
30
0
41
1
10
17.9346924688131
20
19.9103501169919
30
0
41
1
10
17.9072086381828
20
19.9106448333624
30
0
41
1
10
17.8942479036757
20
19.9108158196503
30
0
41
1
10
17.8825404981718
20
19.9110049243194
30
0
0
SPLINE
5
271
100
AcDbEntity
8
1
62
256
6
ByLayer
370
-1
48
1
60
0
100
AcDbSpline
70
4
71
3
72
8
73
4
40
0
40
0
40
0
40
0
40
1
40
1
40
1
40
1
41
1
10
21.7089405050403
20
13.3654155362429
30
0
41
1
10
21.7606587935918
20
13.2570198067772
30
0
41
1
10
21.8243875822835
20
13.1545658904016
30
0
41
1
10
21.8911520028613
20
13.054977451252
30
0
0
SPLINE
5
272
100
AcDbEntity
8
1
62
256
6
ByLayer
370
-1
48
1
60
0
100
AcDbSpline
70
4
71
3
72
10
73
6
40
0
40
0
40
0
40
0
40
0.638746828356592
40
0.638746828356592
40
1
40
1
40
1
40
1
41
1
10
15.4823619931899
20
13.2892516737381
30
0
41
1
10
15.3601676216458
20
13.2212097051621
30
0
41
1
10
15.2371598907614
20
13.1520525460075
30
0
41
1
10
15.0446528290113
20
13.0430928105364
30
0
41
1
10
14.974998726555
20
13.0035132493119
30
0
41
1
10
14.9054120070357
20
12.9638214123954
30
0
0
SPLINE
5
273
100
AcDbEntity
8
1
62
256
6
ByLayer
370
-1
48
1
60
0
100
AcDbSpline
70
4
71
3
72
10
73
6
40
0
40
0
40
0
40
0
40
0.388885978132902
40
0.388885978132902
40
1
40
1
40
1
40
1
41
1
10
21.7089405050403
20
13.365415536243
30
0
41
1
10
21.7259997075621
20
13.3554317231666
30
0
41
1
10
21.7428684913558
20
13.3454119769481
30
0
41
1
10
21.7852905203556
20
13.3198655482121
30
0
41
1
10
21.8105623699275
20
13.3043120632845
30
0
41
1
10
21.8343892020335
20
13.2892516737484
30
0
0
SPLINE
5
274
100
AcDbEntity
8
1
62
256
6
ByLayer
370
-1
48
1
60
0
100
AcDbSpline
70
4
71
3
72
10
73
6
40
0
40
0
40
0
40
0
40
0.638746828356571
40
0.638746828356571
40
1
40
1
40
1
40
1
41
1
10
21.8343892020354
20
13.2892516737644
30
0
41
1
10
21.9420374509429
20
13.2212097051884
30
0
41
1
10
22.0530751267824
20
13.1520525460075
30
0
41
1
10
22.2297904029304
20
13.0430928105364
30
0
41
1
10
22.2943564729328
20
13.0035132493119
30
0
41
1
10
22.3594677408742
20
12.9638214123954
30
0
0
SPLINE
5
275
100
AcDbEntity
8
1
62
256
6
ByLayer
370
-1
48
1
60
0
100
AcDbSpline
70
4
71
3
72
20
73
16
40
0
40
0
40
0
40
0
40
0.314859192648773
40
0.314859192648773
40
0.531558880441054
40
0.531558880441054
40
0.682135903694809
40
0.682135903694809
40
0.83961984596651
40
0.83961984596651
40
0.903112673776005
40
0.903112673776005
40
0.967902128209794
40
0.967902128209794
40
1
40
1
40
1
40
1
41
1
10
15.5903176362541
20
12.2030021946601
30
0
41
1
10
15.6533258695278
20
12.2368769205954
30
0
41
1
10
15.7155451851449
20
12.272396328554
30
0
41
1
10
15.8177770835161
20
12.3368810902451
30
0
41
1
10
15.8587386648398
20
12.3644581661398
30
0
41
1
10
15.9255072263796
20
12.414772991326
30
0
41
1
10
15.9521974835874
20
12.436451349731
30
0
41
1
10
16.0035602707922
20
12.4841710811778
30
0
41
1
10
16.0286363924768
20
12.5104860191964
30
0
41
1
10
16.0565837434044
20
12.552501859379
30
0
41
1
10
16.0638045673854
20
12.5653413872092
30
0
41
1
10
16.0746382317724
20
12.5926170479622
30
0
41
1
10
16.07827463066
20
12.6075398061124
30
0
41
1
10
16.0780831384015
20
12.6297791939854
30
0
41
1
10
16.0770567023975
20
12.6372871495288
30
0
41
1
10
16.0750177584251
20
12.6444372923147
30
0
0
SPLINE
5
276
100
AcDbEntity
8
1
62
256
6
ByLayer
370
-1
48
1
60
0
100
AcDbSpline
70
4
71
3
72
12
73
8
40
0
40
0
40
0
40
0
40
0.197891272102656
40
0.197891272102656
40
0.598376100017378
40
0.598376100017378
40
1
40
1
40
1
40
1
41
1
10
18.643088181935
20
18.8744368571186
30
0
41
1
10
18.6406619106921
20
18.9159957618957
30
0
41
1
10
18.6383633667019
20
18.957807241704
30
0
41
1
10
18.6317486846002
20
19.0847997521583
30
0
41
1
10
18.6277697552682
20
19.1705999837498
30
0
41
1
10
18.6205677692145
20
19.3434251122705
30
0
41
1
10
18.6173460501069
20
19.4305215744537
30
0
41
1
10
18.6145002076585
20
19.5179938477127
30
0
0
SPLINE
5
277
100
AcDbEntity
8
1
62
256
6
ByLayer
370
-1
48
1
60
0
100
AcDbSpline
70
4
71
3
72
22
73
18
40
0
40
0
40
0
40
0
40
0.153101873520354
40
0.153101873520354
40
0.44262128536492
40
0.44262128536492
40
0.707385074439716
40
0.707385074439716
40
0.843532608240187
40
0.843532608240187
40
0.926352665771241
40
0.926352665771241
40
0.963706736955301
40
0.963706736955301
40
0.977863955360684
40
0.977863955360684
40
1
40
1
40
1
40
1
41
1
10
18.6430881819353
20
18.8744368571207
30
0
41
1
10
18.6345208759389
20
18.8552525092707
30
0
41
1
10
18.6257632940175
20
18.8361558625997
30
0
41
1
10
18.5997598045787
20
18.7813082498236
30
0
41
1
10
18.5819316381258
20
18.7458079687278
30
0
41
1
10
18.5449651078688
20
18.6795542199474
30
0
41
1
10
18.5261561405872
20
18.6484156662079
30
0
41
1
10
18.4932416652191
20
18.6047184141111
30
0
41
1
10
18.4812336644533
20
18.5903357504175
30
0
41
1
10
18.459168310745
20
18.5703562364384
30
0
41
1
10
18.4500419463918
20
18.5633619682312
30
0
41
1
10
18.435239981126
20
18.5565146360347
30
0
41
1
10
18.4303219523494
20
18.5548526460608
30
0
41
1
10
18.4233572672871
20
18.5537873238146
30
0
41
1
10
18.4214044359088
20
18.5536219489491
30
0
41
1
10
18.4164164899913
20
18.5535862736124
30
0
41
1
10
18.4133466819648
20
18.5539396076429
30
0
41
1
10
18.4103907519659
20
18.5546873620589
30
0
0
SPLINE
5
278
100
AcDbEntity
8
1
62
256
6
ByLayer
370
-1
48
1
60
0
100
AcDbSpline
70
4
71
3
72
14
73
10
40
0
40
0
40
0
40
0
40
0.314392366702135
40
0.314392366702135
40
0.632200716155333
40
0.632200716155333
40
0.912513196201948
40
0.912513196201948
40
1
40
1
40
1
40
1
41
1
10
18.4434207653742
20
7.4325961278042
30
0
41
1
10
18.4490353707494
20
7.42292253185119
30
0
41
1
10
18.4560118249302
20
7.41382650066492
30
0
41
1
10
18.472484390875
20
7.39868283284775
30
0
41
1
10
18.4822623135575
20
7.39251198264259
30
0
41
1
10
18.5017069630801
20
7.38486546955875
30
0
41
1
10
18.5114572579859
20
7.38280288668153
30
0
41
1
10
18.5241565204493
20
7.3818608885702
30
0
41
1
10
18.5272052613851
20
7.38176334208052
30
0
41
1
10
18.5302456229699
20
7.38178231352913
30
0
0
SPLINE
5
279
100
AcDbEntity
8
1
62
256
6
ByLayer
370
-1
48
1
60
0
100
AcDbSpline
70
4
71
3
72
14
73
10
40
0
40
0
40
0
40
0
40
0.249103078948825
40
0.249103078948825
40
0.498160925944176
40
0.498160925944176
40
0.745586162481402
40
0.745586162481402
40
1
40
1
40
1
40
1
41
1
10
14.8355209392558
20
12.291008302396
30
0
41
1
10
14.8445805434206
20
12.2753988102006
30
0
41
1
10
14.8539060451878
20
12.259816730178
30
0
41
1
10
14.8726894957331
20
12.229357563043
30
0
41
1
10
14.8822125311148
20
12.214374643248
30
0
41
1
10
14.9010712527602
20
12.1855976389627
30
0
41
1
10
14.9104710117955
20
12.1716998408913
30
0
41
1
10
14.9291570043256
20
12.1449738988449
30
0
41
1
10
14.9384986053632
20
12.1320925546408
30
0
41
1
10
14.9475104078356
20
12.1201558463204
30
0
0
SPLINE
5
27A
100
AcDbEntity
8
1
62
256
6
ByLayer
370
-1
48
1
60
0
100
AcDbSpline
70
4
71
3
72
10
73
6
40
0
40
0
40
0
40
0
40
0.736240194588486
40
0.736240194588486
40
1
40
1
40
1
40
1
41
1
10
17.2324711443468
20
9.45485061846514
30
0
41
1
10
17.2403600965543
20
9.43971474534425
30
0
41
1
10
17.246366545719
20
9.42031915136531
30
0
41
1
10
17.2478942468049
20
9.38866525257012
30
0
41
1
10
17.2476409758951
20
9.37964684088564
30
0
41
1
10
17.2465080095565
20
9.3702434000472
30
0
0
SPLINE
5
27B
100
AcDbEntity
8
1
62
256
6
ByLayer
370
-1
48
1
60
0
100
AcDbSpline
70
4
71
3
72
24
73
20
40
0
40
0
40
0
40
0
40
0.104000448201673
40
0.104000448201673
40
0.192499055460777
40
0.192499055460777
40
0.328500518746302
40
0.328500518746302
40
0.438682575664815
40
0.438682575664815
40
0.548533158171229
40
0.548533158171229
40
0.658237202769211
40
0.658237202769211
40
0.767870673660319
40
0.767870673660319
40
0.988088331633628
40
0.988088331633628
40
1
40
1
40
1
40
1
41
1
10
10.5841810705934
20
20.0075339171852
30
0
41
1
10
10.5728477431017
20
20.0149859964982
30
0
41
1
10
10.5599274176716
20
20.0222294420783
30
0
41
1
10
10.5356968061298
20
20.0338755919425
30
0
41
1
10
10.5241613564346
20
20.0386925668402
30
0
41
1
10
10.4959830658827
20
20.0491293336793
30
0
41
1
10
10.4794127073993
20
20.054032582968
30
0
41
1
10
10.4517667198431
20
20.0609545393401
30
0
41
1
10
10.4400152417466
20
20.0634013246498
30
0
41
1
10
10.4179848177585
20
20.0673280829101
30
0
41
1
10
10.4076318919799
20
20.068821443169
30
0
41
1
10
10.3881992434648
20
20.0711141929649
30
0
41
1
10
10.3790836335902
20
20.0719170975942
30
0
41
1
10
10.3619961588817
20
20.0729905736417
30
0
41
1
10
10.3540037978015
20
20.0732618896848
30
0
41
1
10
10.3315935097781
20
20.0734221009618
30
0
41
1
10
10.3186970018582
20
20.0726661802222
30
0
41
1
10
10.3073030989041
20
20.0711220520158
30
0
41
1
10
10.3067230552248
20
20.0710404678502
30
0
41
1
10
10.3061491276152
20
20.0709567386352
30
0
0
SPLINE
5
27C
100
AcDbEntity
8
1
62
256
6
ByLayer
370
-1
48
1
60
0
100
AcDbSpline
70
4
71
3
72
8
73
4
40
0
40
0
40
0
40
0
40
1
40
1
40
1
40
1
41
1
10
11.0922449755212
20
20.0299781475581
30
0
41
1
10
11.0947247283435
20
20.0257256947319
30
0
41
1
10
11.0972045000911
20
20.0214733289574
30
0
41
1
10
11.0996842916988
20
20.0172210545435
30
0
0
SPLINE
5
27D
100
AcDbEntity
8
1
62
256
6
ByLayer
370
-1
48
1
60
0
100
AcDbSpline
70
4
71
3
72
8
73
4
40
0
40
0
40
0
40
0
40
1
40
1
40
1
40
1
41
1
10
12.3641799402542
20
20.0232751538889
30
0
41
1
10
12.3599351000665
20
20.0190806148747
30
0
41
1
10
12.3556902276618
20
20.0148861633528
30
0
41
1
10
12.3514453214488
20
20.0106918036536
30
0
0
SPLINE
5
27E
100
AcDbEntity
8
1
62
256
6
ByLayer
370
-1
48
1
60
0
100
AcDbSpline
70
4
71
3
72
10
73
6
40
0
40
0
40
0
40
0
40
0.388885978132954
40
0.388885978132954
40
1
40
1
40
1
40
1
41
1
10
15.6155187444905
20
13.365415536243
30
0
41
1
10
15.5985141960922
20
13.3554317231666
30
0
41
1
10
15.5812641463505
20
13.3454119769481
30
0
41
1
10
15.5368538359104
20
13.3198655482121
30
0
41
1
10
15.5094084598382
20
13.3043120632845
30
0
41
1
10
15.4823619931781
20
13.2892516737484
30
0
0
SPLINE
5
27F
100
AcDbEntity
8
1
62
256
6
ByLayer
370
-1
48
1
60
0
100
AcDbSpline
70
4
71
3
72
14
73
10
40
0
40
0
40
0
40
0
40
0.314392366702126
40
0.314392366702126
40
0.632200716155299
40
0.632200716155299
40
0.912513196202084
40
0.912513196202084
40
1
40
1
40
1
40
1
41
1
10
25.2379374790258
20
18.856199694226
30
0
41
1
10
25.2436409799392
20
18.865821584771
30
0
41
1
10
25.2481088962936
20
18.8763811576474
30
0
41
1
10
25.2529853615416
20
18.8982898449723
30
0
41
1
10
25.2533556432637
20
18.9099488978613
30
0
41
1
10
25.2499493386349
20
18.9309260188888
30
0
41
1
10
25.246654386071
20
18.9405987980218
30
0
41
1
10
25.2408003963022
20
18.9523641614483
30
0
41
1
10
25.2392798266102
20
18.9551272933575
30
0
41
1
10
25.2376593103081
20
18.957827322776
30
0
0
SPLINE
5
280
100
AcDbEntity
8
1
62
256
6
ByLayer
370
-1
48
1
60
0
100
AcDbSpline
70
4
71
3
72
8
73
4
40
0
40
0
40
0
40
0
40
1
40
1
40
1
40
1
41
1
10
11.7405062494784
20
20.0228880975366
30
0
41
1
10
11.7406762585178
20
20.0271638051897
30
0
41
1
10
11.7408462662698
20
20.0314396040163
30
0
41
1
10
11.7410162727949
20
20.0357154897165
30
0
0
SPLINE
5
281
100
AcDbEntity
8
1
62
256
6
ByLayer
370
-1
48
1
60
0
100
AcDbSpline
70
4
71
3
72
22
73
18
40
0
40
0
40
0
40
0
40
0.208266363442926
40
0.208266363442926
40
0.317899168105698
40
0.317899168105698
40
0.427584739862174
40
0.427584739862174
40
0.537377253733423
40
0.537377253733423
40
0.647402228731568
40
0.647402228731568
40
0.811583680502483
40
0.811583680502483
40
0.906636022131736
40
0.906636022131736
40
1
40
1
40
1
40
1
41
1
10
12.7107652952095
20
20.0922217140914
30
0
41
1
10
12.6919638370687
20
20.0934269439976
30
0
41
1
10
12.6716051100126
20
20.0939669968889
30
0
41
1
10
12.6384504713374
20
20.0936066752536
30
0
41
1
10
12.6265974959393
20
20.0932634482696
30
0
41
1
10
12.602130828107
20
20.0920548824516
30
0
41
1
10
12.58948978306
20
20.0911887231107
30
0
41
1
10
12.5634537617257
20
20.0887935517073
30
0
41
1
10
12.5500157742125
20
20.0872613784749
30
0
41
1
10
12.5224294835032
20
20.0833064956734
30
0
41
1
10
12.5082027730048
20
20.0808729220762
30
0
41
1
10
12.4723875178534
20
20.0733099232121
30
0
41
1
10
12.4498858952663
20
20.0673007825732
30
0
41
1
10
12.4160816254216
20
20.0545496618733
30
0
41
1
10
12.4037847949415
20
20.049031499293
30
0
41
1
10
12.3819516212255
20
20.0369092812099
30
0
41
1
10
12.3721243011982
20
20.0301656588199
30
0
41
1
10
12.3641799402548
20
20.0232751538911
30
0
0
SPLINE
5
282
100
AcDbEntity
8
1
62
256
6
ByLayer
370
-1
48
1
60
0
100
AcDbSpline
70
4
71
3
72
22
73
18
40
0
40
0
40
0
40
0
40
0.208266363444159
40
0.208266363444159
40
0.317899168106761
40
0.317899168106761
40
0.427584739862976
40
0.427584739862976
40
0.537377253734054
40
0.537377253734054
40
0.647402228731908
40
0.647402228731908
40
0.811583680502702
40
0.811583680502702
40
0.906636022131788
40
0.906636022131788
40
1
40
1
40
1
40
1
41
1
10
11.3861251729155
20
20.118665758943
30
0
41
1
10
11.3573160419384
20
20.11841098836
30
0
41
1
10
11.3287645573308
20
20.1174500541825
30
0
41
1
10
11.2862967639976
20
20.1147671667208
30
0
41
1
10
11.2718064375429
20
20.113614538115
30
0
41
1
10
11.2433848974501
20
20.1107802500446
30
0
41
1
10
11.2294215279002
20
20.1090959410274
30
0
41
1
10
11.202301522988
20
20.1050652535525
30
0
41
1
10
11.1890998629227
20
20.1027130053099
30
0
41
1
10
11.1639270860437
20
20.0971329407164
30
0
41
1
10
11.1518862806709
20
20.0938896973313
30
0
41
1
10
11.1246036556156
20
20.0843800100449
30
0
41
1
10
11.1101422232902
20
20.0772288581883
30
0
41
1
10
11.095152966335
20
20.0629658322831
30
0
41
1
10
11.0912791032149
20
20.0569454403914
30
0
41
1
10
11.0883375194076
20
20.0440505761757
30
0
41
1
10
11.0891864110579
20
20.0370249033828
30
0
41
1
10
11.0922449755209
20
20.0299781475604
30
0
0
SPLINE
5
283
100
AcDbEntity
8
1
62
256
6
ByLayer
370
-1
48
1
60
0
100
AcDbSpline
70
4
71
3
72
24
73
20
40
0
40
0
40
0
40
0
40
0.104000448201808
40
0.104000448201808
40
0.192499055461039
40
0.192499055461039
40
0.328500518746832
40
0.328500518746832
40
0.438682575665656
40
0.438682575665656
40
0.548533158172268
40
0.548533158172268
40
0.658237202770492
40
0.658237202770492
40
0.767870673661821
40
0.767870673661821
40
0.988088331635584
40
0.988088331635584
40
1
40
1
40
1
40
1
41
1
10
11.7410162727949
20
20.0357154897165
30
0
41
1
10
11.7400666349156
20
20.0435401655996
30
0
41
1
10
11.7361592430608
20
20.051296857111
30
0
41
1
10
11.7242598388459
20
20.0640487298773
30
0
41
1
10
11.7168690430289
20
20.0694461623201
30
0
41
1
10
11.6953975997813
20
20.0814078923068
30
0
41
1
10
11.6795760815087
20
20.0873079839477
30
0
41
1
10
11.6493108683373
20
20.0960142559984
30
0
41
1
10
11.6349318054441
20
20.0992669335157
30
0
41
1
10
11.6056258959305
20
20.1047780968706
30
0
41
1
10
11.5906058075964
20
20.107055128577
30
0
41
1
10
11.5603215419753
20
20.1108843599603
30
0
41
1
10
11.5450017799739
20
20.1124429014584
30
0
41
1
10
11.5142894430271
20
20.1149953415812
30
0
41
1
10
11.4988596385881
20
20.1159917710469
30
0
41
1
10
11.4525582581518
20
20.1182803141322
30
0
41
1
10
11.4215901386029
20
20.1188846255571
30
0
41
1
10
11.3894306501831
20
20.1186926147266
30
0
41
1
10
11.3877773408015
20
20.1186803697196
30
0
41
1
10
11.3861251729155
20
20.118665758943
30
0
0
SPLINE
5
284
100
AcDbEntity
8
1
62
256
6
ByLayer
370
-1
48
1
60
0
100
AcDbSpline
70
4
71
3
72
8
73
4
40
0
40
0
40
0
40
0
40
1
40
1
40
1
40
1
41
1
10
10.601587071359
20
19.9952171124154
30
0
41
1
10
10.595785025457
20
19.9993226229281
30
0
41
1
10
10.5899830259294
20
20.0034282259727
30
0
41
1
10
10.5841810705934
20
20.0075339171852
30
0
0
SPLINE
5
285
100
AcDbEntity
8
1
62
256
6
ByLayer
370
-1
48
1
60
0
100
AcDbSpline
70
4
71
3
72
30
73
26
40
0
40
0
40
0
40
0
40
0.0511772287529306
40
0.0511772287529306
40
0.135075241067669
40
0.135075241067669
40
0.27183478065206
40
0.27183478065206
40
0.469061266910282
40
0.469061266910282
40
0.500636061959847
40
0.500636061959847
40
0.599800502489185
40
0.599800502489185
40
0.697557955314494
40
0.697557955314494
40
0.781333785463083
40
0.781333785463083
40
0.847844869822049
40
0.847844869822049
40
0.899113486931107
40
0.899113486931107
40
0.939077913069112
40
0.939077913069112
40
1
40
1
40
1
40
1
41
1
10
19.7322376262144
20
14.0966279818318
30
0
41
1
10
19.72067351408
20
14.1056782544697
30
0
41
1
10
19.7072250092972
20
14.1127745529371
30
0
41
1
10
19.6701165262799
20
14.1267011222069
30
0
41
1
10
19.6447839924659
20
14.1309136273389
30
0
41
1
10
19.5783443715906
20
14.1343385729396
30
0
41
1
10
19.5358202581291
20
14.1290352785044
30
0
41
1
10
19.4358427366137
20
14.1059302368248
30
0
41
1
10
19.3778804982117
20
14.0831079724034
30
0
41
1
10
19.3162412552714
20
14.0501114828401
30
0
41
1
10
19.3077470242258
20
14.0453465015306
30
0
41
1
10
19.2731515971994
20
14.0250321478246
30
0
41
1
10
19.248008176479
20
14.008084826547
30
0
41
1
10
19.2012543436897
20
13.9718526256431
30
0
41
1
10
19.1794387319048
20
13.9524860137502
30
0
41
1
10
19.1426920450131
20
13.9142979135659
30
0
41
1
10
19.1271085051397
20
13.8956794148326
30
0
41
1
10
19.1027489970468
20
13.8607100798512
30
0
41
1
10
19.0931661339441
20
13.8445858060198
30
0
41
1
10
19.0792766391539
20
13.8150976487316
30
0
41
1
10
19.0742318496464
20
13.8018704701682
30
0
41
1
10
19.0677622881031
20
13.7778951909178
30
0
41
1
10
19.0657723071925
20
13.7671810030679
30
0
41
1
10
19.0635925232789
20
13.740162875033
30
0
41
1
10
19.0648808075898
20
13.7234296835435
30
0
41
1
10
19.0698100439655
20
13.7076520573495
30
0
0
SPLINE
5
286
100
AcDbEntity
8
1
62
256
6
ByLayer
370
-1
48
1
60
0
100
AcDbSpline
70
4
71
3
72
30
73
26
40
0
40
0
40
0
40
0
40
0.0515194889309518
40
0.0515194889309518
40
0.0928771460762657
40
0.0928771460762657
40
0.148185150442103
40
0.148185150442103
40
0.203338923043168
40
0.203338923043168
40
0.287955708682514
40
0.287955708682514
40
0.372427214532411
40
0.372427214532411
40
0.435367147735086
40
0.435367147735086
40
0.49897102078291
40
0.49897102078291
40
0.701334348038958
40
0.701334348038958
40
0.838887327921312
40
0.838887327921312
40
0.925006664597128
40
0.925006664597128
40
1
40
1
40
1
40
1
41
1
10
18.3030127589543
20
13.7076520573495
30
0
41
1
10
18.3043495192248
20
13.721037216245
30
0
41
1
10
18.3030732199505
20
13.7351092394712
30
0
41
1
10
18.297451126954
20
13.7600915924297
30
0
41
1
10
18.293735476415
20
13.7712442834424
30
0
41
1
10
18.2830701552823
20
13.7967893681812
30
0
41
1
10
18.2754069230953
20
13.8111450819576
30
0
41
1
10
18.2580948296792
20
13.838916839886
30
0
41
1
10
18.2483903091909
20
13.852428941449
30
0
41
1
10
18.2220149213142
20
13.8855245606581
30
0
41
1
10
18.2042732597602
20
13.9046651819919
30
0
41
1
10
18.1667085770453
20
13.9408929035549
30
0
41
1
10
18.1467573306899
20
13.9581002132734
30
0
41
1
10
18.1106732216981
20
13.9863756637948
30
0
41
1
10
18.0948026211305
20
13.9979334479273
30
0
41
1
10
18.0622855400559
20
14.0200039500752
30
0
41
1
10
18.0455892754317
20
14.0305335024521
30
0
41
1
10
17.9755097669036
20
14.0715402739716
30
0
41
1
10
17.919239274324
20
14.0970464773477
30
0
41
1
10
17.8260141283174
20
14.1247319943552
30
0
41
1
10
17.7877373958522
20
14.132028707646
30
0
41
1
10
17.7284492385327
20
14.1330139704252
30
0
41
1
10
17.7058999282561
20
14.1307264438089
30
0
41
1
10
17.6676647011703
20
14.118749313828
30
0
41
1
10
17.6509571835218
20
14.1097653479132
30
0
41
1
10
17.6382629967345
20
14.096627981832
30
0
0
SPLINE
5
287
100
AcDbEntity
8
1
62
256
6
ByLayer
370
-1
48
1
60
0
100
AcDbSpline
70
4
71
3
72
24
73
20
40
0
40
0
40
0
40
0
40
0.0974021566269428
40
0.0974021566269428
40
0.180354031075227
40
0.180354031075227
40
0.307542616517046
40
0.307542616517046
40
0.41210911700947
40
0.41210911700947
40
0.516348967690707
40
0.516348967690707
40
0.620446917153293
40
0.620446917153293
40
0.724476829459856
40
0.724476829459856
40
0.933310901385996
40
0.933310901385996
40
1
40
1
40
1
40
1
41
1
10
19.0759943392019
20
13.6878573566553
30
0
41
1
10
19.0790125483007
20
13.6741444537593
30
0
41
1
10
19.078891417196
20
13.6596813633234
30
0
41
1
10
19.0728548269542
20
13.6344377902348
30
0
41
1
10
19.06778438867
20
13.6231306802422
30
0
41
1
10
19.0511036592422
20
13.5969764469809
30
0
41
1
10
19.0372893217339
20
13.5829384491082
30
0
41
1
10
19.0092757462903
20
13.560948145199
30
0
41
1
10
18.9953557043726
20
13.5521682938371
30
0
41
1
10
18.9663321622149
20
13.5366784287171
30
0
41
1
10
18.9511376895424
20
13.5299146420641
30
0
41
1
10
18.9200298133044
20
13.5180554740023
30
0
41
1
10
18.9040612136393
20
13.5129391023361
30
0
41
1
10
18.8716683044431
20
13.5041248715619
30
0
41
1
10
18.855207185358
20
13.5004174798976
30
0
41
1
10
18.8053216048265
20
13.4911762406687
30
0
41
1
10
18.7713177310974
20
13.4875010374789
30
0
41
1
10
18.7262808221671
20
13.4856052646862
30
0
41
1
10
18.7153437606453
20
13.4853763613957
30
0
41
1
10
18.704396632193
20
13.4853763613957
30
0
0
SPLINE
5
288
100
AcDbEntity
8
1
62
256
6
ByLayer
370
-1
48
1
60
0
100
AcDbSpline
70
4
71
3
72
8
73
4
40
0
40
0
40
0
40
0
40
1
40
1
40
1
40
1
41
1
10
18.301035930223
20
13.6878573566553
30
0
41
1
10
18.3016948545676
20
13.6944555526142
30
0
41
1
10
18.3023537972261
20
13.7010537856691
30
0
41
1
10
18.3030127589542
20
13.7076520573496
30
0
0
SPLINE
5
289
100
AcDbEntity
8
1
62
256
6
ByLayer
370
-1
48
1
60
0
100
AcDbSpline
70
4
71
3
72
22
73
18
40
0
40
0
40
0
40
0
40
0.142057608739222
40
0.142057608739222
40
0.351004812993011
40
0.351004812993011
40
0.487763342942101
40
0.487763342942101
40
0.591529353509618
40
0.591529353509618
40
0.758694969227209
40
0.758694969227209
40
0.858776631809032
40
0.858776631809032
40
0.960359919517517
40
0.960359919517517
40
1
40
1
40
1
40
1
41
1
10
18.704396632193
20
13.4853763613957
30
0
41
1
10
18.6811036353429
20
13.4853763613957
30
0
41
1
10
18.657727465683
20
13.4864095046007
30
0
41
1
10
18.6001557651374
20
13.4915895768104
30
0
41
1
10
18.5658635260164
20
13.4969693250059
30
0
41
1
10
18.5101202808137
20
13.5103112526874
30
0
41
1
10
18.4882270435202
20
13.5167704248998
30
0
41
1
10
18.4506352217134
20
13.5305929342549
30
0
41
1
10
18.4346552484148
20
13.5373870811317
30
0
41
1
10
18.3945120743164
20
13.5575628892681
30
0
41
1
10
18.3706492449545
20
13.5727058241131
30
0
41
1
10
18.3384485985236
20
13.6020541936745
30
0
41
1
10
18.3275475367209
20
13.6144671494718
30
0
41
1
10
18.3107528233848
20
13.6412444005163
30
0
41
1
10
18.3047876424864
20
13.6560623084006
30
0
41
1
10
18.3014051282393
20
13.6763815355162
30
0
41
1
10
18.3009658877195
20
13.6821693599752
30
0
41
1
10
18.3010359302231
20
13.6878573566553
30
0
0
SPLINE
5
28A
100
AcDbEntity
8
1
62
256
6
ByLayer
370
-1
48
1
60
0
100
AcDbSpline
70
4
71
3
72
22
73
18
40
0
40
0
40
0
40
0
40
0.0973712659846237
40
0.0973712659846237
40
0.180296832630629
40
0.180296832630629
40
0.307445080802873
40
0.307445080802873
40
0.411978418514669
40
0.411978418514669
40
0.516185210010825
40
0.516185210010825
40
0.620250145291602
40
0.620250145291602
40
0.829289859625684
40
0.829289859625684
40
1
40
1
40
1
40
1
41
1
10
20.132424133608
20
15.5554034538931
30
0
41
1
10
20.1464015847055
20
15.5610641901462
30
0
41
1
10
20.1594329740882
20
15.5698519947864
30
0
41
1
10
20.1791707371686
20
15.5901720674892
30
0
41
1
10
20.1867905294912
20
15.6012986211138
30
0
41
1
10
20.2018715757336
20
15.6312925393988
30
0
41
1
10
20.20746989488
20
15.651572043138
30
0
41
1
10
20.2129913180086
20
15.6888645766082
30
0
41
1
10
20.2138014638369
20
15.7061246048317
30
0
41
1
10
20.2129666807362
20
15.7404665479792
30
0
41
1
10
20.2113236685485
20
15.7576588985681
30
0
41
1
10
20.2061865440945
20
15.7917105675476
30
0
41
1
10
20.2026831765239
20
15.8086301093627
30
0
41
1
10
20.1899192009775
20
15.8588571778792
30
0
41
1
10
20.1783907915147
20
15.8917453268171
30
0
41
1
10
20.1534545971372
20
15.9495761986427
30
0
41
1
10
20.1407119203962
20
15.9749893664273
30
0
41
1
10
20.1266404872609
20
15.9996049215111
30
0
0
SPLINE
5
28B
100
AcDbEntity
8
1
62
256
6
ByLayer
370
-1
48
1
60
0
100
AcDbSpline
70
4
71
3
72
8
73
4
40
0
40
0
40
0
40
0
40
1
40
1
40
1
40
1
41
1
10
19.0611406575919
20
16.6119769775261
30
0
41
1
10
19.0631622913816
20
16.6187101436465
30
0
41
1
10
19.065183929167
20
16.6254432734247
30
0
41
1
10
19.067205570789
20
16.6321763682995
30
0
0
SPLINE
5
28C
100
AcDbEntity
8
1
62
256
6
ByLayer
370
-1
48
1
60
0
100
AcDbSpline
70
4
71
3
72
24
73
20
40
0
40
0
40
0
40
0
40
0.0380198325515696
40
0.0380198325515696
40
0.246834654674912
40
0.246834654674912
40
0.404726505663406
40
0.404726505663406
40
0.52615063796299
40
0.52615063796299
40
0.621531995503866
40
0.621531995503866
40
0.776890538332255
40
0.776890538332255
40
0.873684213898111
40
0.873684213898111
40
0.971746172255113
40
0.971746172255113
40
1
40
1
40
1
40
1
41
1
10
20.1266404872609
20
15.9996049215111
30
0
41
1
10
20.1235030394219
20
16.0050933475554
30
0
41
1
10
20.1202977133864
20
16.0105443801089
30
0
41
1
10
20.0990852921887
20
16.0456250952159
30
0
41
1
10
20.0791047954508
20
16.0741990310798
30
0
41
1
10
20.0405471269922
20
16.121445909428
30
0
41
1
10
20.0227413312995
20
16.140919417207
30
0
41
1
10
19.9890517726904
20
16.1729970587727
30
0
41
1
10
19.9736175749561
20
16.1862000566654
30
0
41
1
10
19.94462554891
20
16.2077567655823
30
0
41
1
10
19.9313258403504
20
16.2165776133903
30
0
41
1
10
19.8951923272535
20
16.2370700304356
30
0
41
1
10
19.8710547743326
20
16.2474199362763
30
0
41
1
10
19.8306874413877
20
16.2562061365571
30
0
41
1
10
19.8145807435027
20
16.2576434442927
30
0
41
1
10
19.7833848849876
20
16.2549867242841
30
0
41
1
10
19.7678893835754
20
16.2506901647656
30
0
41
1
10
19.7504029654895
20
16.2415927967414
30
0
41
1
10
19.7465725971658
20
16.2392937521706
30
0
41
1
10
19.7429109964608
20
16.2367897768836
30
0
0
SPLINE
5
28D
100
AcDbEntity
8
1
62
256
6
ByLayer
370
-1
48
1
60
0
100
AcDbSpline
70
4
71
3
72
34
73
30
40
0
40
0
40
0
40
0
40
0.0514465755209528
40
0.0514465755209528
40
0.135786144735334
40
0.135786144735334
40
0.203131635218757
40
0.203131635218757
40
0.270315608874947
40
0.270315608874947
40
0.337431278535764
40
0.337431278535764
40
0.404515897625318
40
0.404515897625318
40
0.499929883690827
40
0.499929883690827
40
0.599210771748112
40
0.599210771748112
40
0.697083019894188
40
0.697083019894188
40
0.780957226922719
40
0.780957226922719
40
0.847546414393239
40
0.847546414393239
40
0.89887523558033
40
0.89887523558033
40
0.980803570703498
40
0.980803570703498
40
1
40
1
40
1
40
1
41
1
10
19.7258904198116
20
16.2230010530435
30
0
41
1
10
19.7143811544862
20
16.2136771354876
30
0
41
1
10
19.7009758301345
20
16.2063075886572
30
0
41
1
10
19.6639525115543
20
16.1917032808446
30
0
41
1
10
19.6386462935103
20
16.1870997587168
30
0
41
1
10
19.5929913391292
20
16.1841220198888
30
0
41
1
10
19.5722989165612
20
16.1846759729933
30
0
41
1
10
19.5311853136826
20
16.1885632830706
30
0
41
1
10
19.5106280764341
20
16.1919088217665
30
0
41
1
10
19.4700115848592
20
16.200801637433
30
0
41
1
10
19.4498630071058
20
16.2063693465932
30
0
41
1
10
19.4102434443205
20
16.2193538737636
30
0
41
1
10
19.3907039183404
20
16.2267938255504
30
0
41
1
10
19.3444365470928
20
16.2467571802518
30
0
41
1
10
19.3179994836828
20
16.2601633553397
30
0
41
1
10
19.2663896038701
20
16.2903626902678
30
0
41
1
10
19.2411448368329
20
16.3073673259717
30
0
41
1
10
19.1941740246223
20
16.3438252455906
30
0
41
1
10
19.1722422945654
20
16.3633593328586
30
0
41
1
10
19.1352664020716
20
16.4019572372741
30
0
41
1
10
19.119571025372
20
16.420805113599
30
0
41
1
10
19.0950013165066
20
16.4562549888839
30
0
41
1
10
19.0853214805513
20
16.4726175209729
30
0
41
1
10
19.0712545546875
20
16.5025704205286
30
0
41
1
10
19.06613014869
20
16.5160155053013
30
0
41
1
10
19.0565495912483
20
16.5513422114225
30
0
41
1
10
19.0540865919338
20
16.5742508469847
30
0
41
1
10
19.0584171164448
20
16.6015854914762
30
0
41
1
10
19.0595943757874
20
16.6068269981822
30
0
41
1
10
19.0611406575918
20
16.6119769775261
30
0
0
SPLINE
5
28E
100
AcDbEntity
8
1
62
256
6
ByLayer
370
-1
48
1
60
0
100
AcDbSpline
70
4
71
3
72
34
73
30
40
0
40
0
40
0
40
0
40
0.0514465755209157
40
0.0514465755209157
40
0.135786144735359
40
0.135786144735359
40
0.203131635218791
40
0.203131635218791
40
0.270315608874978
40
0.270315608874978
40
0.3374312785358
40
0.3374312785358
40
0.404515897625361
40
0.404515897625361
40
0.499929883690812
40
0.499929883690812
40
0.599210771748131
40
0.599210771748131
40
0.697083019894222
40
0.697083019894222
40
0.780957226922726
40
0.780957226922726
40
0.847546414393231
40
0.847546414393231
40
0.898875235580366
40
0.898875235580366
40
0.980803570703542
40
0.980803570703542
40
1
40
1
40
1
40
1
41
1
10
18.2943433725806
20
16.6119769775262
30
0
41
1
10
18.2957608588609
20
16.5983181737127
30
0
41
1
10
18.2945693849816
20
16.5839729021234
30
0
41
1
10
18.2866027753923
20
16.5469207698132
30
0
41
1
10
18.2767834563431
20
16.5239955705694
30
0
41
1
10
18.2547672664211
20
16.4849700920138
30
0
41
1
10
18.2432517550923
20
16.4681165167789
30
0
41
1
10
18.2181416938047
20
16.4358230359496
30
0
41
1
10
18.204464486531
20
16.4202761208664
30
0
41
1
10
18.1756325298006
20
16.3905106706048
30
0
41
1
10
18.1604136048861
20
16.3762271464195
30
0
41
1
10
18.1288884930341
20
16.3489689444037
30
0
41
1
10
18.1125272021297
20
16.3359474392094
30
0
41
1
10
18.0719552944062
20
16.306051238892
30
0
41
1
10
18.0472136747631
20
16.2897665204331
30
0
41
1
10
17.9957840844909
20
16.2595671855051
30
0
41
1
10
17.9688929118462
20
16.2456772559907
30
0
41
1
10
17.9151013931975
20
16.2217562775659
30
0
41
1
10
17.8880270647174
20
16.2115888871892
30
0
41
1
10
17.8379272116693
20
16.1967598573927
30
0
41
1
10
17.8147235840828
20
16.1914713931388
30
0
41
1
10
17.7736892847797
20
16.1856717409893
30
0
41
1
10
17.7556239768051
20
16.1843860473494
30
0
41
1
10
17.7244555926878
20
16.1851243387766
30
0
41
1
10
17.7110842852328
20
16.1864629730356
30
0
41
1
10
17.6779570117658
20
16.1932904872858
30
0
41
1
10
17.6584108246576
20
16.2009144801834
30
0
41
1
10
17.6388137358551
20
16.2162477645924
30
0
41
1
10
17.635233713864
20
16.2194855195116
30
0
41
1
10
17.6319157903317
20
16.2230010530438
30
0
0
SPLINE
5
28F
100
AcDbEntity
8
1
62
256
6
ByLayer
370
-1
48
1
60
0
100
AcDbSpline
70
4
71
3
72
8
73
4
40
0
40
0
40
0
40
0
40
1
40
1
40
1
40
1
41
1
10
17.2334569158552
20
15.5554034538934
30
0
41
1
10
17.2391477848018
20
15.553199127157
30
0
41
1
10
17.2448386992388
20
15.5509947899762
30
0
41
1
10
17.2505296610421
20
15.5487904419204
30
0
0
SPLINE
5
290
100
AcDbEntity
8
1
62
256
6
ByLayer
370
-1
48
1
60
0
100
AcDbSpline
70
4
71
3
72
34
73
30
40
0
40
0
40
0
40
0
40
0.0514465755208983
40
0.0514465755208983
40
0.135786144735343
40
0.135786144735343
40
0.203131635218782
40
0.203131635218782
40
0.27031560887498
40
0.27031560887498
40
0.337431278535804
40
0.337431278535804
40
0.404515897625366
40
0.404515897625366
40
0.499929883690818
40
0.499929883690818
40
0.599210771748098
40
0.599210771748098
40
0.697083019894178
40
0.697083019894178
40
0.78095722692269
40
0.78095722692269
40
0.847546414393209
40
0.847546414393209
40
0.898875235580306
40
0.898875235580306
40
0.980803570703457
40
0.980803570703457
40
1
40
1
40
1
40
1
41
1
10
17.2505296610421
20
15.5487904419204
30
0
41
1
10
17.262074264189
20
15.5443187332039
30
0
41
1
10
17.2729079691556
20
15.5372063842635
30
0
41
1
10
17.2985415000763
20
15.5144196904945
30
0
41
1
10
17.3120534179818
20
15.4959025048806
30
0
41
1
10
17.3325433759329
20
15.4595430566339
30
0
41
1
10
17.3404408976179
20
15.4420088782058
30
0
41
1
10
17.354152904917
20
15.4056012423791
30
0
41
1
10
17.3600129632627
20
15.3866078189642
30
0
41
1
10
17.370017936877
20
15.3477733896566
30
0
41
1
10
17.3741840491529
20
15.3278465714513
30
0
41
1
10
17.3810120614803
20
15.2874784742245
30
0
41
1
10
17.3836852178075
20
15.2669670181887
30
0
41
1
10
17.3884764120476
20
15.2170179472094
30
0
41
1
10
17.3899044668889
20
15.1873005841396
30
0
41
1
10
17.3900847564294
20
15.1269019142836
30
0
41
1
10
17.3887278392822
20
15.0960360062784
30
0
41
1
10
17.3830472116589
20
15.0357699675922
30
0
41
1
10
17.3787505117496
20
15.0061522276342
30
0
41
1
10
17.3676964244117
20
14.9529301955379
30
0
41
1
10
17.3613467329066
20
14.9289085437556
30
0
41
1
10
17.3473092953094
20
14.887899286473
30
0
41
1
10
17.3401272378675
20
14.8703701898729
30
0
41
1
10
17.3253731384229
20
14.8413879528781
30
0
41
1
10
17.318226855729
20
14.8293904554691
30
0
41
1
10
17.2976979023201
20
14.8011899997427
30
0
41
1
10
17.2826927936785
20
14.7861110715206
30
0
41
1
10
17.2614318864499
20
14.7743736955865
30
0
41
1
10
17.2571949146232
20
14.7724214505866
30
0
41
1
10
17.252851841013
20
14.7708385929556
30
0
0
SPLINE
5
291
100
AcDbEntity
8
1
62
256
6
ByLayer
370
-1
48
1
60
0
100
AcDbSpline
70
4
71
3
72
24
73
20
40
0
40
0
40
0
40
0
40
0.0380198325515566
40
0.0380198325515566
40
0.24683465467487
40
0.24683465467487
40
0.404726505663335
40
0.404726505663335
40
0.526150637962908
40
0.526150637962908
40
0.621531995503736
40
0.621531995503736
40
0.776890538332225
40
0.776890538332225
40
0.873684213898152
40
0.873684213898152
40
0.971746172255191
40
0.971746172255191
40
1
40
1
40
1
40
1
41
1
10
17.2671428733308
20
15.9996049215108
30
0
41
1
10
17.2640381913064
20
15.9941164954665
30
0
41
1
10
17.2609933332167
20
15.9885898369894
30
0
41
1
10
17.2416508297224
20
15.9525274751343
30
0
41
1
10
17.227069085761
20
15.9208630641418
30
0
41
1
10
17.2053170438013
20
15.8638440746562
30
0
41
1
10
17.1971692743628
20
15.8387266562836
30
0
41
1
10
17.1855674592898
20
15.7936904693436
30
0
41
1
10
17.1814466410267
20
15.7738368697119
30
0
41
1
10
17.176268817734
20
15.7382510581595
30
0
41
1
10
17.1747372690126
20
15.7224887393334
30
0
41
1
10
17.1732864491283
20
15.6815079139393
30
0
41
1
10
17.1749276090167
20
15.6559028128173
30
0
41
1
10
17.1841881802335
20
15.6176675738733
30
0
41
1
10
17.1894629109775
20
15.6035254107136
30
0
41
1
10
17.203785608574
20
15.5790866172764
30
0
41
1
10
17.2131451197715
20
15.5685635924757
30
0
41
1
10
17.2268899274683
20
15.559005109286
30
0
41
1
10
17.2301301811193
20
15.5570783171806
30
0
41
1
10
17.2334569158551
20
15.5554034538933
30
0
0
SPLINE
5
292
100
AcDbEntity
8
1
62
256
6
ByLayer
370
-1
48
1
60
0
100
AcDbSpline
70
4
71
3
72
8
73
4
40
0
40
0
40
0
40
0
40
1
40
1
40
1
40
1
41
1
10
17.625330504551
20
14.0832439480713
30
0
41
1
10
17.6296412967191
20
14.0877052667517
30
0
41
1
10
17.633952126924
20
14.0921666109875
30
0
41
1
10
17.6382629967345
20
14.0966279818321
30
0
0
SPLINE
5
293
100
AcDbEntity
8
1
62
256
6
ByLayer
370
-1
48
1
60
0
100
AcDbSpline
70
4
71
3
72
34
73
30
40
0
40
0
40
0
40
0
40
0.0514465755209422
40
0.0514465755209422
40
0.135786144735395
40
0.135786144735395
40
0.203131635218857
40
0.203131635218857
40
0.270315608875093
40
0.270315608875093
40
0.337431278535936
40
0.337431278535936
40
0.404515897625528
40
0.404515897625528
40
0.499929883690837
40
0.499929883690837
40
0.599210771748122
40
0.599210771748122
40
0.697083019894209
40
0.697083019894209
40
0.780957226922717
40
0.780957226922717
40
0.847546414393228
40
0.847546414393228
40
0.898875235580324
40
0.898875235580324
40
0.980803570703525
40
0.980803570703525
40
1
40
1
40
1
40
1
41
1
10
20.113623755504
20
14.7708385929552
30
0
41
1
10
20.0993148554395
20
14.7750366567537
30
0
41
1
10
20.0857208594614
20
14.7818757573312
30
0
41
1
10
20.0532409724003
20
14.8039847125574
30
0
41
1
10
20.0357790923162
20
14.8221108811755
30
0
41
1
10
20.008991521349
20
14.8578469123839
30
0
41
1
10
19.9985352205555
20
14.8751277906347
30
0
41
1
10
19.9802401446728
20
14.9110817366212
30
0
41
1
10
19.9723401430687
20
14.9298732207646
30
0
41
1
10
19.9587760469942
20
14.9683553233133
30
0
41
1
10
19.9530828535922
20
14.9881309717991
30
0
41
1
10
19.943721964053
20
15.0282483329445
30
0
41
1
10
19.9400386502288
20
15.048659790871
30
0
41
1
10
19.9334389174207
20
15.098429829929
30
0
41
1
10
19.9314760847283
20
15.1280942539529
30
0
41
1
10
19.9312957951878
20
15.1884929238089
30
0
41
1
10
19.9332316892557
20
15.2194161462404
30
0
41
1
10
19.9411924745084
20
15.2799079036414
30
0
41
1
10
19.9471809714456
20
15.309693118973
30
0
41
1
10
19.9623748052163
20
15.3633249553005
30
0
41
1
10
19.9710416154851
20
15.387575984676
30
0
41
1
10
19.9899333587633
20
15.4290657822623
30
0
41
1
10
19.9995222453598
20
15.4468331371198
30
0
41
1
10
20.0189710624225
20
15.4762801163821
30
0
41
1
10
20.0283185826434
20
15.4884955200004
30
0
41
1
10
20.054883061285
20
15.5172934480161
30
0
41
1
10
20.0740443282308
20
15.5327838051231
30
0
41
1
10
20.1006386476294
20
15.5450491493541
30
0
41
1
10
20.1059162384699
20
15.5471044079279
30
0
41
1
10
20.1113015755331
20
15.5487904419201
30
0
0
SPLINE
5
294
100
AcDbEntity
8
1
62
256
6
ByLayer
370
-1
48
1
60
0
100
AcDbSpline
70
4
71
3
72
8
73
4
40
0
40
0
40
0
40
0
40
1
40
1
40
1
40
1
41
1
10
17.252851841013
20
14.7708385929557
30
0
41
1
10
17.247173636473
20
14.7687691393398
30
0
41
1
10
17.2414954792277
20
14.7666996988822
30
0
41
1
10
17.2358173674038
20
14.7646302710619
30
0
0
SPLINE
5
295
100
AcDbEntity
8
1
62
256
6
ByLayer
370
-1
48
1
60
0
100
AcDbSpline
70
4
71
3
72
22
73
18
40
0
40
0
40
0
40
0
40
0.0973712659846351
40
0.0973712659846351
40
0.180296832630619
40
0.180296832630619
40
0.307445080802873
40
0.307445080802873
40
0.411978418514652
40
0.411978418514652
40
0.516185210010772
40
0.516185210010772
40
0.620250145291575
40
0.620250145291575
40
0.829289859625634
40
0.829289859625634
40
1
40
1
40
1
40
1
41
1
10
17.6189021876868
20
16.2367897768839
30
0
41
1
10
17.6092435942734
20
16.2452527623656
30
0
41
1
10
17.5973772536451
20
16.2513358984026
30
0
41
1
10
17.5737118713216
20
16.2569308687925
30
0
41
1
10
17.5619118478632
20
16.2573960120561
30
0
41
1
10
17.5321147875811
20
16.2541865465048
30
0
41
1
10
17.5136656882003
20
16.24825626837
30
0
41
1
10
17.4815632439752
20
16.2334187380094
30
0
41
1
10
17.4673715223407
20
16.2251141436427
30
0
41
1
10
17.440098688561
20
16.2065617149516
30
0
41
1
10
17.4269276911751
20
16.1962582058779
30
0
41
1
10
17.4016047721863
20
16.1742792488468
30
0
41
1
10
17.3894078944578
20
16.1625648975565
30
0
41
1
10
17.3541837587967
20
16.1258057283629
30
0
41
1
10
17.3324404172469
20
16.0990739401261
30
0
41
1
10
17.296217348478
20
16.0481209520826
30
0
41
1
10
17.2810673520008
20
16.0242204765947
30
0
41
1
10
17.2671428733308
20
15.9996049215108
30
0
0
SPLINE
5
296
100
AcDbEntity
8
1
62
256
6
ByLayer
370
-1
48
1
60
0
100
AcDbSpline
70
4
71
3
72
24
73
20
40
0
40
0
40
0
40
0
40
0.0380198325518865
40
0.0380198325518865
40
0.246834654675187
40
0.246834654675187
40
0.404726505663585
40
0.404726505663585
40
0.526150637963137
40
0.526150637963137
40
0.621531995503946
40
0.621531995503946
40
0.776890538332357
40
0.776890538332357
40
0.873684213898227
40
0.873684213898227
40
0.971746172255256
40
0.971746172255256
40
1
40
1
40
1
40
1
41
1
10
17.2721461745958
20
14.3234525481007
30
0
41
1
10
17.2752836224348
20
14.3179641220563
30
0
41
1
10
17.2784811478457
20
14.3125123172988
30
0
41
1
10
17.2995921811289
20
14.2774215655392
30
0
41
1
10
17.3192566257821
20
14.24881634286
30
0
41
1
10
17.3567678666876
20
14.2014658759357
30
0
41
1
10
17.373960642112
20
14.1819316836912
30
0
41
1
10
17.4061723652072
20
14.1497077473568
30
0
41
1
10
17.4208299890155
20
14.136427874398
30
0
41
1
10
17.4481056344252
20
14.1147012565124
30
0
41
1
10
17.460533160981
20
14.1057940691468
30
0
41
1
10
17.4939795371104
20
14.085035645447
30
0
41
1
10
17.5160220622864
20
14.0744783473787
30
0
41
1
10
17.551935398135
20
14.0652512343789
30
0
41
1
10
17.5660322678523
20
14.0636149685428
30
0
41
1
10
17.5926620944532
20
14.0658196852152
30
0
41
1
10
17.6055189095762
20
14.0698550343375
30
0
41
1
10
17.6194712931303
20
14.0786025591217
30
0
41
1
10
17.6224874870637
20
14.080821006459
30
0
41
1
10
17.6253305045511
20
14.0832439480712
30
0
0
SPLINE
5
297
100
AcDbEntity
8
1
62
256
6
ByLayer
370
-1
48
1
60
0
100
AcDbSpline
70
4
71
3
72
22
73
18
40
0
40
0
40
0
40
0
40
0.097371265984636
40
0.097371265984636
40
0.180296832630673
40
0.180296832630673
40
0.307445080802949
40
0.307445080802949
40
0.411978418514783
40
0.411978418514783
40
0.516185210010967
40
0.516185210010967
40
0.620250145291796
40
0.620250145291796
40
0.829289859625928
40
0.829289859625928
40
1
40
1
40
1
40
1
41
1
10
17.2358173674039
20
14.7646302710617
30
0
41
1
10
17.224606580148
20
14.7592434140345
30
0
41
1
10
17.2143218625546
20
14.7507275095552
30
0
41
1
10
17.1991061213601
20
14.7308550835218
30
0
41
1
10
17.1934028825142
20
14.7199182544943
30
0
41
1
10
17.1825660560131
20
14.6903444825241
30
0
41
1
10
17.1790637033375
20
14.6702724639394
30
0
41
1
10
17.1766718019175
20
14.6332897299361
30
0
41
1
10
17.1770441182699
20
14.6161467567092
30
0
41
1
10
17.1798968930142
20
14.5820045797859
30
0
41
1
10
17.1823820885101
20
14.5648955991059
30
0
41
1
10
17.1889573265395
20
14.5309862927174
30
0
41
1
10
17.1930588456526
20
14.5141259634742
30
0
41
1
10
17.2073403198224
20
14.4640491160803
30
0
41
1
10
17.2195188164136
20
14.4312253209525
30
0
41
1
10
17.2451774229287
20
14.3734659625773
30
0
41
1
10
17.2580747414605
20
14.3480681031845
30
0
41
1
10
17.2721461745958
20
14.3234525481007
30
0
0
SPLINE
5
298
100
AcDbEntity
8
1
62
256
6
ByLayer
370
-1
48
1
60
0
100
AcDbSpline
70
4
71
3
72
24
73
20
40
0
40
0
40
0
40
0
40
0.0380198325523686
40
0.0380198325523686
40
0.24683465467536
40
0.24683465467536
40
0.404726505663712
40
0.404726505663712
40
0.526150637963249
40
0.526150637963249
40
0.621531995504002
40
0.621531995504002
40
0.776890538332345
40
0.776890538332345
40
0.873684213898177
40
0.873684213898177
40
0.97174617225516
40
0.97174617225516
40
1
40
1
40
1
40
1
41
1
10
18.6943900296637
20
16.837681108216
30
0
41
1
10
18.6881478998004
20
16.837681108216
30
0
41
1
10
18.6819016159873
20
16.8376058683944
30
0
41
1
10
18.6413973852524
20
16.8366292399726
30
0
41
1
10
18.6069931705954
20
16.8335544082517
30
0
41
1
10
18.5472066739537
20
16.8238340914023
30
0
41
1
10
18.5215596189566
20
16.8182205230415
30
0
41
1
10
18.4770071630315
20
16.8053351250515
30
0
41
1
10
18.4578404339971
20
16.7987229608456
30
0
41
1
10
18.4245287749766
20
16.7847788126945
30
0
41
1
10
18.4101336086975
20
16.7778805114551
30
0
41
1
10
18.3738928441999
20
16.7575251064336
30
0
41
1
10
18.3524439650398
20
16.7423736072661
30
0
41
1
10
18.3235642018598
20
16.7131450249624
30
0
41
1
10
18.3137371488028
20
16.7005396485885
30
0
41
1
10
18.2991470038412
20
16.6736701368108
30
0
41
1
10
18.2943303567711
20
16.6589811576898
30
0
41
1
10
18.2923557636479
20
16.6405002280958
30
0
41
1
10
18.2921727361704
20
16.6363146900364
30
0
41
1
10
18.29224716181
20
16.6321763682995
30
0
0
SPLINE
5
299
100
AcDbEntity
8
1
62
256
6
ByLayer
370
-1
48
1
60
0
100
AcDbSpline
70
4
71
3
72
22
73
18
40
0
40
0
40
0
40
0
40
0.0973712659847072
40
0.0973712659847072
40
0.180296832630777
40
0.180296832630777
40
0.307445080803177
40
0.307445080803177
40
0.41197841851505
40
0.41197841851505
40
0.516185210011307
40
0.516185210011307
40
0.62025014529219
40
0.62025014529219
40
0.829289859626385
40
0.829289859626385
40
1
40
1
40
1
40
1
41
1
10
19.0672055707889
20
16.6321763682995
30
0
41
1
10
19.0701410965521
20
16.6461631504215
30
0
41
1
10
19.0699328094119
20
16.6608981410182
30
0
41
1
10
19.0637441792258
20
16.6865893607762
30
0
41
1
10
19.0586056713517
20
16.6980861953659
30
0
41
1
10
19.0417675474413
20
16.7246605749421
30
0
41
1
10
19.0278687839715
20
16.7389060579693
30
0
41
1
10
18.9997230020207
20
16.7612061613454
30
0
41
1
10
18.9857501951242
20
16.770103067704
30
0
41
1
10
18.9566335824219
20
16.7857926990482
30
0
41
1
10
18.9413984811943
20
16.792639855609
30
0
41
1
10
18.9102193809637
20
16.8046413862618
30
0
41
1
10
18.8942200598934
20
16.8098169705008
30
0
41
1
10
18.8454731993742
20
16.8232097592623
30
0
41
1
10
18.8118764047975
20
16.8293339430583
30
0
41
1
10
18.7503559355824
20
16.8361760701152
30
0
41
1
10
18.722385941469
20
16.837681108216
30
0
41
1
10
18.6943900296637
20
16.837681108216
30
0
0
SPLINE
5
29A
100
AcDbEntity
8
1
62
256
6
ByLayer
370
-1
48
1
60
0
100
AcDbSpline
70
4
71
3
72
24
73
20
40
0
40
0
40
0
40
0
40
0.0380198325513572
40
0.0380198325513572
40
0.246834654674616
40
0.246834654674616
40
0.40472650566311
40
0.40472650566311
40
0.526150637962708
40
0.526150637962708
40
0.621531995503577
40
0.621531995503577
40
0.776890538332083
40
0.776890538332083
40
0.873684213898009
40
0.873684213898009
40
0.971746172255064
40
0.971746172255064
40
1
40
1
40
1
40
1
41
1
10
20.1316437885259
20
14.3234525481009
30
0
41
1
10
20.1347484705502
20
14.3289409741452
30
0
41
1
10
20.1377855280154
20
14.3344668604182
30
0
41
1
10
20.157026643595
20
14.3705191856208
30
0
41
1
10
20.1712923354719
20
14.402152309798
30
0
41
1
10
20.1919979498785
20
14.4590677107074
30
0
41
1
10
20.1995326990487
20
14.4841244446145
30
0
41
1
10
20.2096566786077
20
14.5290143367859
30
0
41
1
10
20.2130009229448
20
14.5487910613514
30
0
41
1
10
20.2164623656011
20
14.5842069639352
30
0
41
1
10
20.2171217323187
20
14.5998829432037
30
0
41
1
10
20.2158854152357
20
14.6405977619433
30
0
41
1
10
20.2121492276024
20
14.6659954708377
30
0
41
1
10
20.1984346592893
20
14.7037897970626
30
0
41
1
10
20.1911501003776
20
14.7177330021218
30
0
41
1
10
20.1722613708669
20
14.7417197922229
30
0
41
1
10
20.1602631733801
20
14.7519816066273
30
0
41
1
10
20.1429843311514
20
14.7611902465772
30
0
41
1
10
20.1389299031103
20
14.763036441449
30
0
41
1
10
20.1347845851567
20
14.7646302710615
30
0
0
SPLINE
5
29B
100
AcDbEntity
8
1
62
256
6
ByLayer
370
-1
48
1
60
0
100
AcDbSpline
70
4
71
3
72
8
73
4
40
0
40
0
40
0
40
0
40
1
40
1
40
1
40
1
41
1
10
19.0698100439655
20
13.7076520573495
30
0
41
1
10
19.0718714719891
20
13.701053785669
30
0
41
1
10
19.0739329037845
20
13.6944555526141
30
0
41
1
10
19.0759943392017
20
13.6878573566553
30
0
0
SPLINE
5
29C
100
AcDbEntity
8
1
62
256
6
ByLayer
370
-1
48
1
60
0
100
AcDbSpline
70
4
71
3
72
8
73
4
40
0
40
0
40
0
40
0
40
1
40
1
40
1
40
1
41
1
10
18.2922471618101
20
16.6321763682995
30
0
41
1
10
18.29294587995
20
16.6254432734247
30
0
41
1
10
18.2936446166187
20
16.6187101436465
30
0
41
1
10
18.2943433725806
20
16.6119769775262
30
0
0
SPLINE
5
29D
100
AcDbEntity
8
1
62
256
6
ByLayer
370
-1
48
1
60
0
100
AcDbSpline
70
4
71
3
72
8
73
4
40
0
40
0
40
0
40
0
40
1
40
1
40
1
40
1
41
1
10
17.6319157903318
20
16.2230010530439
30
0
41
1
10
17.6275778835507
20
16.2275973183285
30
0
41
1
10
17.6232400165274
20
16.2321935592875
30
0
41
1
10
17.6189021876868
20
16.2367897768839
30
0
0
SPLINE
5
29E
100
AcDbEntity
8
1
62
256
6
ByLayer
370
-1
48
1
60
0
100
AcDbSpline
70
4
71
3
72
8
73
4
40
0
40
0
40
0
40
0
40
1
40
1
40
1
40
1
41
1
10
19.7429109964609
20
16.2367897768835
30
0
41
1
10
19.7372374870155
20
16.2321935592871
30
0
41
1
10
19.7315639616838
20
16.2275973183281
30
0
41
1
10
19.7258904198116
20
16.2230010530435
30
0
0
SPLINE
5
29F
100
AcDbEntity
8
1
62
256
6
ByLayer
370
-1
48
1
60
0
100
AcDbSpline
70
4
71
3
72
22
73
18
40
0
40
0
40
0
40
0
40
0.0973712659845929
40
0.0973712659845929
40
0.180296832630567
40
0.180296832630567
40
0.307445080802812
40
0.307445080802812
40
0.411978418514631
40
0.411978418514631
40
0.516185210010768
40
0.516185210010768
40
0.620250145291482
40
0.620250145291482
40
0.829289859625484
40
0.829289859625484
40
1
40
1
40
1
40
1
41
1
10
19.7493393133251
20
14.083243948071
30
0
41
1
10
19.7617645705801
20
14.0750548418152
30
0
41
1
10
19.7763775829976
20
14.069243605939
30
0
41
1
10
19.8045649872071
20
14.0640962822185
30
0
41
1
10
19.8182815641423
20
14.0638208635519
30
0
41
1
10
19.8523228441657
20
14.0674504754181
30
0
41
1
10
19.8728679100172
20
14.0735882387074
30
0
41
1
10
19.908099875951
20
14.0887355685349
30
0
41
1
10
19.9234740597661
20
14.0971572178981
30
0
41
1
10
19.9527648851894
20
14.1159094128136
30
0
41
1
10
19.9667780658836
20
14.1262962917961
30
0
41
1
10
19.9935390984477
20
14.1484176114182
30
0
41
1
10
20.0063341277186
20
14.1601911752803
30
0
41
1
10
20.0430757620032
20
14.1971005655966
30
0
41
1
10
20.0654691906813
20
14.2238967076436
30
0
41
1
10
20.1024146715878
20
14.2749212091374
30
0
41
1
10
20.1177193098558
20
14.298836993017
30
0
41
1
10
20.1316437885259
20
14.3234525481009
30
0
0
SPLINE
5
2A0
100
AcDbEntity
8
1
62
256
6
ByLayer
370
-1
48
1
60
0
100
AcDbSpline
70
4
71
3
72
8
73
4
40
0
40
0
40
0
40
0
40
1
40
1
40
1
40
1
41
1
10
20.1113015755331
20
15.5487904419199
30
0
41
1
10
20.1183424521347
20
15.5509947899757
30
0
41
1
10
20.1253833045069
20
15.5531991271566
30
0
41
1
10
20.1324241336081
20
15.555403453893
30
0
0
SPLINE
5
2A1
100
AcDbEntity
8
1
62
256
6
ByLayer
370
-1
48
1
60
0
100
AcDbSpline
70
4
71
3
72
8
73
4
40
0
40
0
40
0
40
0
40
1
40
1
40
1
40
1
41
1
10
20.1347845851567
20
14.7646302710614
30
0
41
1
10
20.1277309989328
20
14.7666996988818
30
0
41
1
10
20.120677389369
20
14.7687691393394
30
0
41
1
10
20.113623755504
20
14.7708385929552
30
0
0
SPLINE
5
2A2
100
AcDbEntity
8
1
62
256
6
ByLayer
370
-1
48
1
60
0
100
AcDbSpline
70
4
71
3
72
8
73
4
40
0
40
0
40
0
40
0
40
1
40
1
40
1
40
1
41
1
10
19.7322376262143
20
14.0966279818317
30
0
41
1
10
19.737938205057
20
14.0921666109871
30
0
41
1
10
19.7436387672072
20
14.0877052667513
30
0
41
1
10
19.7493393133251
20
14.0832439480709
30
0
0
SPLINE
5
2A3
100
AcDbEntity
8
1
62
256
6
ByLayer
370
-1
48
1
60
0
100
AcDbSpline
70
4
71
3
72
12
73
8
40
0
40
0
40
0
40
0
40
0.404644073901373
40
0.404644073901373
40
0.809285947755717
40
0.809285947755717
40
1
40
1
40
1
40
1
41
1
10
22.1419124947729
20
10.6103645394535
30
0
41
1
10
22.1970162522349
20
10.6103645394535
30
0
41
1
10
22.2528588889994
20
10.6200248735898
30
0
41
1
10
22.356772747112
20
10.6570649671647
30
0
41
1
10
22.4062769044033
20
10.6849552873753
30
0
41
1
10
22.4697006094825
20
10.7365615267005
30
0
41
1
10
22.4889117024505
20
10.7549469176893
30
0
41
1
10
22.5064967719893
20
10.7747102138994
30
0
0
SPLINE
5
2A4
100
AcDbEntity
8
1
62
256
6
ByLayer
370
-1
48
1
60
0
100
AcDbSpline
70
4
71
3
72
8
73
4
40
0
40
0
40
0
40
0
40
1
40
1
40
1
40
1
41
1
10
22.6159601741297
20
11.1048018958012
30
0
41
1
10
22.6159320339901
20
11.1044747761004
30
0
41
1
10
22.6159037199939
20
11.1041473005457
30
0
41
1
10
22.6158752303872
20
11.1038194745343
30
0
0
SPLINE
5
2A5
100
AcDbEntity
8
1
62
256
6
ByLayer
370
-1
48
1
60
0
100
AcDbSpline
70
4
71
3
72
10
73
6
40
0
40
0
40
0
40
0
40
0.638091248905458
40
0.638091248905458
40
1
40
1
40
1
40
1
41
1
10
22.5629415402829
20
10.8782378881457
30
0
41
1
10
22.5510416434287
20
10.8501862033024
30
0
41
1
10
22.5379210807517
20
10.8253979150585
30
0
41
1
10
22.5189299822368
20
10.7936215777802
30
0
41
1
10
22.5122741444278
20
10.7833728456193
30
0
41
1
10
22.5064967719873
20
10.7747102138975
30
0
0
SPLINE
5
2A6
100
AcDbEntity
8
1
62
256
6
ByLayer
370
-1
48
1
60
0
100
AcDbSpline
70
4
71
3
72
10
73
6
40
0
40
0
40
0
40
0
40
0.722254617258789
40
0.722254617258789
40
1
40
1
40
1
40
1
41
1
10
22.5629415402829
20
10.8782378881457
30
0
41
1
10
22.5878044089832
20
10.9281432816088
30
0
41
1
10
22.6045140084586
20
10.9831146728319
30
0
41
1
10
22.6144798375644
20
11.0601972177824
30
0
41
1
10
22.6158817075812
20
11.0820301695046
30
0
41
1
10
22.6158752303873
20
11.1038194745332
30
0
0
LINE
5
49
100
AcDbEntity
8
1
62
256
6
ByLayer
370
-1
48
1
60
0
100
AcDbLine
10
11.107129
20
19.975017
30
0
11
11.107138
21
19.991182
31
0
39
0
210
0
220
0
230
1
0
LINE
5
4B
100
AcDbEntity
8
1
62
256
6
ByLayer
370
-1
48
1
60
0
100
AcDbLine
10
18.420293
20
17.872219
30
0
11
18.205241
21
17.850931
31
0
39
0
210
0
220
0
230
1
0
LINE
5
4C
100
AcDbEntity
8
1
62
256
6
ByLayer
370
-1
48
1
60
0
100
AcDbLine
10
18.742127
20
12.42744
30
0
11
18.957178
21
12.448728
31
0
39
0
210
0
220
0
230
1
0
LINE
5
4D
100
AcDbEntity
8
1
62
256
6
ByLayer
370
-1
48
1
60
0
100
AcDbLine
10
17.72216
20
14.131523
30
0
11
17.475007
21
14.107057
31
0
39
0
210
0
220
0
230
1
0
LINE
5
4E
100
AcDbEntity
8
1
62
256
6
ByLayer
370
-1
48
1
60
0
100
AcDbLine
10
17.533565
20
16.162333
30
0
11
17.776224
21
16.186354
31
0
39
0
210
0
220
0
230
1
0
LINE
5
4F
100
AcDbEntity
8
1
62
256
6
ByLayer
370
-1
48
1
60
0
100
AcDbLine
10
19.561322
20
14.130641
30
0
11
19.31831
21
14.106585
31
0
39
0
210
0
220
0
230
1
0
LINE
5
50
100
AcDbEntity
8
1
62
256
6
ByLayer
370
-1
48
1
60
0
100
AcDbLine
10
19.376869
20
16.161861
30
0
11
19.62392
21
16.186317
31
0
39
0
210
0
220
0
230
1
0
LINE
5
51
100
AcDbEntity
8
1
62
256
6
ByLayer
370
-1
48
1
60
0
100
AcDbLine
10
12.064545
20
19.271338
30
0
11
11.375816
21
19.20882
31
0
39
0
210
0
220
0
230
1
0
LINE
5
52
100
AcDbEntity
8
1
62
256
6
ByLayer
370
-1
48
1
60
0
100
AcDbLine
10
15.740467
20
19.912463
30
0
11
14.985191
21
19.843905
31
0
39
0
210
0
220
0
230
1
0
LINE
5
53
100
AcDbEntity
8
1
62
256
6
ByLayer
370
-1
48
1
60
0
100
AcDbLine
10
13.809447
20
19.466334
30
0
11
13.14297
21
19.405836
31
0
39
0
210
0
220
0
230
1
0
LINE
5
54
100
AcDbEntity
8
1
62
256
6
ByLayer
370
-1
48
1
60
0
100
AcDbLine
10
17.861606
20
7.194728
30
0
11
18.54979
21
7.257196
31
0
39
0
210
0
220
0
230
1
0
LINE
5
55
100
AcDbEntity
8
1
62
256
6
ByLayer
370
-1
48
1
60
0
100
AcDbLine
10
17.296826
20
8.355912
30
0
11
17.962948
21
8.416378
31
0
39
0
210
0
220
0
230
1
0
LINE
5
56
100
AcDbEntity
8
80
62
256
6
ByLayer
370
-1
48
1
60
0
100
AcDbLine
10
0
20
0
30
0
11
-5
21
0
31
0
39
0
210
0
220
0
230
1
0
LINE
5
57
100
AcDbEntity
8
81
62
256
6
ByLayer
370
-1
48
1
60
0
100
AcDbLine
10
26.699398
20
19.9125
30
0
11
31.699398
21
19.9125
31
0
39
0
210
0
220
0
230
1
0
LINE
5
58
100
AcDbEntity
8
1
62
256
6
ByLayer
370
-1
48
1
60
0
100
AcDbLine
10
5.40465
20
-12.420152
30
0
11
23.206363
21
4.511742
31
0
39
0
210
0
220
0
230
1
0
LINE
5
59
100
AcDbEntity
8
1
62
256
6
ByLayer
370
-1
48
1
60
0
100
AcDbLine
10
11.982181
20
16.771324
30
0
11
10.515565
21
19.336916
31
0
39
0
210
0
220
0
230
1
0
LINE
5
5A
100
AcDbEntity
8
1
62
256
6
ByLayer
370
-1
48
1
60
0
100
AcDbLine
10
15.447101
20
10.710042
30
0
11
16.568
21
8.749221
31
0
39
0
210
0
220
0
230
1
0
LINE
5
5B
100
AcDbEntity
8
1
62
256
6
ByLayer
370
-1
48
1
60
0
100
AcDbLine
10
6.913099
20
19.350599
30
0
11
0.002604
21
12.440104
31
0
39
0
210
0
220
0
230
1
0
LINE
5
5C
100
AcDbEntity
8
1
62
256
6
ByLayer
370
-1
48
1
60
0
100
AcDbLine
10
6.913099
20
19.350599
30
0
11
10.394197
21
19.350599
31
0
39
0
210
0
220
0
230
1
0
LINE
5
5D
100
AcDbEntity
8
1
62
256
6
ByLayer
370
-1
48
1
60
0
100
AcDbLine
10
0.002604
20
-12.415996
30
0
11
5.40465
21
-12.420152
31
0
39
0
210
0
220
0
230
1
0
LINE
5
5E
100
AcDbEntity
8
1
62
256
6
ByLayer
370
-1
48
1
60
0
100
AcDbLine
10
21.227042
20
10.122269
30
0
11
21.728749
21
10.346108
31
0
39
0
210
0
220
0
230
1
0
LINE
5
5F
100
AcDbEntity
8
1
62
256
6
ByLayer
370
-1
48
1
60
0
100
AcDbLine
10
21.728749
20
10.346108
30
0
11
23.188947
21
10.346108
31
0
39
0
210
0
220
0
230
1
0
LINE
5
60
100
AcDbEntity
8
1
62
256
6
ByLayer
370
-1
48
1
60
0
100
AcDbLine
10
0
20
12.4375
30
0
11
0.002604
21
12.440104
31
0
39
0
210
0
220
0
230
1
0
LINE
5
61
100
AcDbEntity
8
1
62
256
6
ByLayer
370
-1
48
1
60
0
100
AcDbLine
10
19.801477
20
6.939096
30
0
11
21.728749
21
10.346108
31
0
39
0
210
0
220
0
230
1
0
LINE
5
62
100
AcDbEntity
8
1
62
256
6
ByLayer
370
-1
48
1
60
0
100
AcDbLine
10
10.515565
20
19.336916
30
0
11
10.394197
21
19.350599
31
0
39
0
210
0
220
0
230
1
0
LINE
5
63
100
AcDbEntity
8
1
62
256
6
ByLayer
370
-1
48
1
60
0
100
AcDbLine
10
16.566209
20
8.553725
30
0
11
16.568
21
8.749221
31
0
39
0
210
0
220
0
230
1
0
LINE
5
64
100
AcDbEntity
8
1
62
256
6
ByLayer
370
-1
48
1
60
0
100
AcDbLine
10
5.31301
20
-12.507314
30
0
11
5.40465
21
-12.420152
31
0
39
0
210
0
220
0
230
1
0
LINE
5
65
100
AcDbEntity
8
1
62
256
6
ByLayer
370
-1
48
1
60
0
100
AcDbLine
10
16.566209
20
8.553725
30
0
11
10.394197
21
19.350599
31
0
39
0
210
0
220
0
230
1
0
LINE
5
66
100
AcDbEntity
8
1
62
256
6
ByLayer
370
-1
48
1
60
0
100
AcDbLine
10
0
20
-12.415994
30
0
11
0
21
12.4375
31
0
39
0
210
0
220
0
230
1
0
LINE
5
67
100
AcDbEntity
8
1
62
256
6
ByLayer
370
-1
48
1
60
0
100
AcDbLine
10
16.542394
20
8.527712
30
0
11
16.566209
21
8.553725
31
0
39
0
210
0
220
0
230
1
0
LINE
5
68
100
AcDbEntity
8
1
62
256
6
ByLayer
370
-1
48
1
60
0
100
AcDbLine
10
5.31301
20
-12.507314
30
0
11
0
21
-12.507314
31
0
39
0
210
0
220
0
230
1
0
LINE
5
69
100
AcDbEntity
8
1
62
256
6
ByLayer
370
-1
48
1
60
0
100
AcDbLine
10
21.941449
20
10.520271
30
0
11
21.941969
21
10.3462
31
0
39
0
210
0
220
0
230
1
0
LINE
5
6A
100
AcDbEntity
8
1
62
256
6
ByLayer
370
-1
48
1
60
0
100
AcDbLine
10
23.206363
20
4.511742
30
0
11
23.188947
21
10.346108
31
0
39
0
210
0
220
0
230
1
0
LINE
5
6B
100
AcDbEntity
8
1
62
256
6
ByLayer
370
-1
48
1
60
0
100
AcDbLine
10
12.386872
20
16.159169
30
0
11
15.096543
21
11.419064
31
0
39
0
210
0
220
0
230
1
0
LINE
5
6C
100
AcDbEntity
8
1
62
256
6
ByLayer
370
-1
48
1
60
0
100
AcDbLine
10
0
20
-12.507314
30
0
11
0
21
-12.415994
31
0
39
0
210
0
220
0
230
1
0
LINE
5
6D
100
AcDbEntity
8
1
62
256
6
ByLayer
370
-1
48
1
60
0
100
AcDbLine
10
18.855166
20
6.183827
30
0
11
19.90586
21
8.041234
31
0
39
0
210
0
220
0
230
1
0
LINE
5
6E
100
AcDbEntity
8
1
62
256
6
ByLayer
370
-1
48
1
60
0
100
AcDbLine
10
21.339079
20
10.320281
30
0
11
21.670837
21
10.320281
31
0
39
0
210
0
220
0
230
1
0
LINE
5
6F
100
AcDbEntity
8
1
62
256
6
ByLayer
370
-1
48
1
60
0
100
AcDbLine
10
0.002604
20
-12.415996
30
0
11
0.002604
21
12.440104
31
0
39
0
210
0
220
0
230
1
0
LINE
5
70
100
AcDbEntity
8
1
62
256
6
ByLayer
370
-1
48
1
60
0
100
AcDbLine
10
16.414769
20
8.271448
30
0
11
16.849236
21
7.510008
31
0
39
0
210
0
220
0
230
1
0
LINE
5
71
100
AcDbEntity
8
1
62
256
6
ByLayer
370
-1
48
1
60
0
100
AcDbLine
10
22.703418
20
11.63883
30
0
11
22.085183
21
11.63883
31
0
39
0
210
0
220
0
230
1
0
LINE
5
72
100
AcDbEntity
8
1
62
256
6
ByLayer
370
-1
48
1
60
0
100
AcDbLine
10
22.702771
20
11.936282
30
0
11
22.253601
21
11.936282
31
0
39
0
210
0
220
0
230
1
0
LINE
5
73
100
AcDbEntity
8
1
62
256
6
ByLayer
370
-1
48
1
60
0
100
AcDbLine
10
22.689737
20
11.453508
30
0
11
21.980375
21
11.453508
31
0
39
0
210
0
220
0
230
1
0
LINE
5
74
100
AcDbEntity
8
1
62
256
6
ByLayer
370
-1
48
1
60
0
100
AcDbLine
10
22.633012
20
11.209854
30
0
11
21.842416
21
11.209854
31
0
39
0
210
0
220
0
230
1
0
LINE
5
75
100
AcDbEntity
8
1
62
256
6
ByLayer
370
-1
48
1
60
0
100
AcDbLine
10
22.615876
20
11.103819
30
0
11
21.782505
21
11.103819
31
0
39
0
210
0
220
0
230
1
0
LINE
5
76
100
AcDbEntity
8
1
62
256
6
ByLayer
370
-1
48
1
60
0
100
AcDbLine
10
21.503244
20
10.610365
30
0
11
22.141912
21
10.610365
31
0
39
0
210
0
220
0
230
1
0
LINE
5
77
100
AcDbEntity
8
1
62
256
6
ByLayer
370
-1
48
1
60
0
100
AcDbLine
10
16.849236
20
7.510008
30
0
11
17.624374
21
7.510008
31
0
39
0
210
0
220
0
230
1
0
LINE
5
78
100
AcDbEntity
8
1
62
256
6
ByLayer
370
-1
48
1
60
0
100
AcDbLine
10
22.506497
20
10.77471
30
0
11
21.596218
21
10.77471
31
0
39
0
210
0
220
0
230
1
0
LINE
5
79
100
AcDbEntity
8
1
62
256
6
ByLayer
370
-1
48
1
60
0
100
AcDbLine
10
22.562942
20
10.878238
30
0
11
21.654825
21
10.878238
31
0
39
0
210
0
220
0
230
1
0
LINE
5
7A
100
AcDbEntity
8
1
62
256
6
ByLayer
370
-1
48
1
60
0
100
AcDbLine
10
22.688288
20
12.11957
30
0
11
22.35732
21
12.11957
31
0
39
0
210
0
220
0
230
1
0
LINE
5
7B
100
AcDbEntity
8
1
62
256
6
ByLayer
370
-1
48
1
60
0
100
AcDbLine
10
17.634511
20
7.346464
30
0
11
16.327307
21
7.346464
31
0
39
0
210
0
220
0
230
1
0
LINE
5
7C
100
AcDbEntity
8
1
62
256
6
ByLayer
370
-1
48
1
60
0
100
AcDbLine
10
22.630519
20
12.35496
30
0
11
22.482791
21
12.35496
31
0
39
0
210
0
220
0
230
1
0
LINE
5
7D
100
AcDbEntity
8
1
62
256
6
ByLayer
370
-1
48
1
60
0
100
AcDbLine
10
22.612928
20
12.458488
30
0
11
22.526002
21
12.458488
31
0
39
0
210
0
220
0
230
1
0
LINE
5
7E
100
AcDbEntity
8
1
62
256
6
ByLayer
370
-1
48
1
60
0
100
AcDbLine
10
21.636933
20
10.446006
30
0
11
21.410235
21
10.446006
31
0
39
0
210
0
220
0
230
1
0
LINE
5
7F
100
AcDbEntity
8
1
62
256
6
ByLayer
370
-1
48
1
60
0
100
AcDbLine
10
22.612928
20
12.458488
30
0
11
22.612528
21
12.64227
31
0
39
0
210
0
220
0
230
1
0
LINE
5
80
100
AcDbEntity
8
1
62
256
6
ByLayer
370
-1
48
1
60
0
100
AcDbLine
10
17.527503
20
14.07356
30
0
11
17.625331
21
14.083244
31
0
39
0
210
0
220
0
230
1
0
LINE
5
81
100
AcDbEntity
8
1
62
256
6
ByLayer
370
-1
48
1
60
0
100
AcDbLine
10
17.463436
20
16.2214
30
0
11
17.618902
21
16.23679
31
0
39
0
210
0
220
0
230
1
0
LINE
5
82
100
AcDbEntity
8
1
62
256
6
ByLayer
370
-1
48
1
60
0
100
AcDbLine
10
17.505395
20
14.083475
30
0
11
17.638263
21
14.096628
31
0
39
0
210
0
220
0
230
1
0
LINE
5
83
100
AcDbEntity
8
1
62
256
6
ByLayer
370
-1
48
1
60
0
100
AcDbLine
10
17.438231
20
16.203828
30
0
11
17.631916
21
16.223001
31
0
39
0
210
0
220
0
230
1
0
LINE
5
84
100
AcDbEntity
8
1
62
256
6
ByLayer
370
-1
48
1
60
0
100
AcDbLine
10
10.584174
20
19.994739
30
0
11
10.584181
21
20.007534
31
0
39
0
210
0
220
0
230
1
0
LINE
5
85
100
AcDbEntity
8
1
62
256
6
ByLayer
370
-1
48
1
60
0
100
AcDbLine
10
12.364156
20
19.979904
30
0
11
12.36418
21
20.023275
31
0
39
0
210
0
220
0
230
1
0
LINE
5
86
100
AcDbEntity
8
1
62
256
6
ByLayer
370
-1
48
1
60
0
100
AcDbLine
10
10.601586
20
19.993721
30
0
11
10.601587
21
19.995217
31
0
39
0
210
0
220
0
230
1
0
LINE
5
87
100
AcDbEntity
8
1
62
256
6
ByLayer
370
-1
48
1
60
0
100
AcDbLine
10
12.351428
20
19.979512
30
0
11
12.351445
21
20.010692
31
0
39
0
210
0
220
0
230
1
0
LINE
5
88
100
AcDbEntity
8
1
62
256
6
ByLayer
370
-1
48
1
60
0
100
AcDbLine
10
11.740477
20
19.969505
30
0
11
11.740506
21
20.022888
31
0
39
0
210
0
220
0
230
1
0
LINE
5
89
100
AcDbEntity
8
1
62
256
6
ByLayer
370
-1
48
1
60
0
100
AcDbLine
10
15.736443
20
10.203874
30
0
11
16.052172
21
10.232533
31
0
39
0
210
0
220
0
230
1
0
LINE
5
8A
100
AcDbEntity
8
1
62
256
6
ByLayer
370
-1
48
1
60
0
100
AcDbLine
10
11.838528
20
17.398507
30
0
11
11.634247
21
17.379963
31
0
39
0
210
0
220
0
230
1
0
LINE
5
8B
100
AcDbEntity
8
1
62
256
6
ByLayer
370
-1
48
1
60
0
100
AcDbLine
10
11.172667
20
18.187442
30
0
11
11.175763
21
18.998539
31
0
39
0
210
0
220
0
230
1
0
LINE
5
8C
100
AcDbEntity
8
1
62
256
6
ByLayer
370
-1
48
1
60
0
100
AcDbLine
10
11.577874
20
17.478585
30
0
11
11.814964
21
17.500106
31
0
39
0
210
0
220
0
230
1
0
LINE
5
8D
100
AcDbEntity
8
1
62
256
6
ByLayer
370
-1
48
1
60
0
100
AcDbLine
10
14.45807
20
19.211363
30
0
11
14.329686
21
19.199709
31
0
39
0
210
0
220
0
230
1
0
LINE
5
8E
100
AcDbEntity
8
1
62
256
6
ByLayer
370
-1
48
1
60
0
100
AcDbLine
10
14.078174
20
19.332858
30
0
11
14.904316
21
19.817907
31
0
39
0
210
0
220
0
230
1
0
LINE
5
8F
100
AcDbEntity
8
1
62
256
6
ByLayer
370
-1
48
1
60
0
100
AcDbLine
10
16.124465
20
10.159337
30
0
11
15.779788
21
10.12805
31
0
39
0
210
0
220
0
230
1
0
LINE
5
90
100
AcDbEntity
8
1
62
256
6
ByLayer
370
-1
48
1
60
0
100
AcDbLine
10
16.513246
20
9.421226
30
0
11
16.018227
21
9.710933
31
0
39
0
210
0
220
0
230
1
0
LINE
5
91
100
AcDbEntity
8
1
62
256
6
ByLayer
370
-1
48
1
60
0
100
AcDbLine
10
12.999077
20
18.829738
30
0
11
12.893162
21
18.820124
31
0
39
0
210
0
220
0
230
1
0
LINE
5
92
100
AcDbEntity
8
1
62
256
6
ByLayer
370
-1
48
1
60
0
100
AcDbLine
10
13.048289
20
18.858632
30
0
11
12.854431
21
18.841035
31
0
39
0
210
0
220
0
230
1
0
LINE
5
93
100
AcDbEntity
8
1
62
256
6
ByLayer
370
-1
48
1
60
0
100
AcDbLine
10
12.51729
20
19.052449
30
0
11
12.509224
21
19.047295
31
0
39
0
210
0
220
0
230
1
0
LINE
5
94
100
AcDbEntity
8
1
62
256
6
ByLayer
370
-1
48
1
60
0
100
AcDbLine
10
13.119296
20
19.012521
30
0
11
12.640215
21
18.969034
31
0
39
0
210
0
220
0
230
1
0
LINE
5
95
100
AcDbEntity
8
1
62
256
6
ByLayer
370
-1
48
1
60
0
100
AcDbLine
10
13.11313
20
18.959091
30
0
11
12.717027
21
18.923136
31
0
39
0
210
0
220
0
230
1
0
LINE
5
96
100
AcDbEntity
8
1
62
256
6
ByLayer
370
-1
48
1
60
0
100
AcDbLine
10
18.166021
20
8.443939
30
0
11
18.008126
21
8.429606
31
0
39
0
210
0
220
0
230
1
0
LINE
5
97
100
AcDbEntity
8
1
62
256
6
ByLayer
370
-1
48
1
60
0
100
AcDbLine
10
17.553229
20
8.354938
30
0
11
17.51736
21
8.375931
31
0
39
0
210
0
220
0
230
1
0
LINE
5
98
100
AcDbEntity
8
SK1
62
256
6
ByLayer
370
-1
48
1
60
0
100
AcDbLine
10
-1.295293
20
12.4375
30
0
11
0
21
12.4375
31
0
39
0
210
0
220
0
230
1
0
LINE
5
9A
100
AcDbEntity
8
SK1
62
256
6
ByLayer
370
-1
48
1
60
0
100
AcDbLine
10
-1.295299
20
-12.407908
30
0
11
-7.880638
21
-12.328962
31
0
39
0
210
0
220
0
230
1
0
LINE
5
9B
100
AcDbEntity
8
1
62
256
6
ByLayer
370
-1
48
1
60
0
100
AcDbLine
10
24.634384
20
17.883643
30
0
11
24.636226
21
17.210665
31
0
39
0
210
0
220
0
230
1
0
LINE
5
9C
100
AcDbEntity
8
1
62
256
6
ByLayer
370
-1
48
1
60
0
100
AcDbLine
10
18.697418
20
19.90933
30
0
11
18.064603
21
19.909765
31
0
39
0
210
0
220
0
230
1
0
LINE
5
9D
100
AcDbEntity
8
1
62
256
6
ByLayer
370
-1
48
1
60
0
100
AcDbLine
10
22.305991
20
19.903432
30
0
11
22.022279
21
19.9121
31
0
39
0
210
0
220
0
230
1
0
LINE
5
9E
100
AcDbEntity
8
1
62
256
6
ByLayer
370
-1
48
1
60
0
100
AcDbLine
10
17.207391
20
9.484235
30
0
11
16.513246
21
9.421226
31
0
39
0
210
0
220
0
230
1
0
LINE
5
9F
100
AcDbEntity
8
1
62
256
6
ByLayer
370
-1
48
1
60
0
100
AcDbLine
10
12.51729
20
19.052449
30
0
11
13.090402
21
19.388937
31
0
39
0
210
0
220
0
230
1
0
LINE
5
A0
100
AcDbEntity
8
1
62
256
6
ByLayer
370
-1
48
1
60
0
100
AcDbLine
10
19.734841
20
9.410076
30
0
11
17.232471
21
9.454851
31
0
39
0
210
0
220
0
230
1
0
LINE
5
A1
100
AcDbEntity
8
1
62
256
6
ByLayer
370
-1
48
1
60
0
100
AcDbLine
10
21.885249
20
19.913257
30
0
11
19.23646
21
19.913257
31
0
39
0
210
0
220
0
230
1
0
LINE
5
A2
100
AcDbEntity
8
1
62
256
6
ByLayer
370
-1
48
1
60
0
100
AcDbLine
10
14.351985
20
13.196531
30
0
11
15.260977
21
13.263227
31
0
39
0
210
0
220
0
230
1
0
LINE
5
A3
100
AcDbEntity
8
1
62
256
6
ByLayer
370
-1
48
1
60
0
100
AcDbLine
10
17.238133
20
9.128514
30
0
11
19.69147
21
9.084616
31
0
39
0
210
0
220
0
230
1
0
LINE
5
A4
100
AcDbEntity
8
1
62
256
6
ByLayer
370
-1
48
1
60
0
100
AcDbLine
10
23.099974
20
19.179441
30
0
11
23.097999
21
19.901041
31
0
39
0
210
0
220
0
230
1
0
LINE
5
A5
100
AcDbEntity
8
1
62
256
6
ByLayer
370
-1
48
1
60
0
100
AcDbLine
10
14.088493
20
19.326679
30
0
11
12.776825
21
17.15334
31
0
39
0
210
0
220
0
230
1
0
LINE
5
A6
100
AcDbEntity
8
1
62
256
6
ByLayer
370
-1
48
1
60
0
100
AcDbLine
10
22.956489
20
13.242797
30
0
11
22.111172
21
14.110068
31
0
39
0
210
0
220
0
230
1
0
LINE
5
A7
100
AcDbEntity
8
1
62
256
6
ByLayer
370
-1
48
1
60
0
100
AcDbLine
10
18.606212
20
8.632467
30
0
11
18.631824
21
7.916886
31
0
39
0
210
0
220
0
230
1
0
LINE
5
A8
100
AcDbEntity
8
1
62
256
6
ByLayer
370
-1
48
1
60
0
100
AcDbLine
10
17.24698
20
8.881357
30
0
11
17.238133
21
9.128514
31
0
39
0
210
0
220
0
230
1
0
LINE
5
A9
100
AcDbEntity
8
1
62
256
6
ByLayer
370
-1
48
1
60
0
100
AcDbLine
10
18.215391
20
8.415045
30
0
11
18.166021
21
8.443939
31
0
39
0
210
0
220
0
230
1
0
LINE
5
AA
100
AcDbEntity
8
1
62
256
6
ByLayer
370
-1
48
1
60
0
100
AcDbLine
10
15.082324
20
11.929893
30
0
11
16.052172
21
10.232533
31
0
39
0
210
0
220
0
230
1
0
LINE
5
AB
100
AcDbEntity
8
1
62
256
6
ByLayer
370
-1
48
1
60
0
100
AcDbLine
10
12.599806
20
16.075368
30
0
11
12.885804
21
15.750616
31
0
39
0
210
0
220
0
230
1
0
LINE
5
AC
100
AcDbEntity
8
1
62
256
6
ByLayer
370
-1
48
1
60
0
100
AcDbLine
10
17.80394
20
18.681413
30
0
11
18.40465
21
18.529453
31
0
39
0
210
0
220
0
230
1
0
LINE
5
AD
100
AcDbEntity
8
1
62
256
6
ByLayer
370
-1
48
1
60
0
100
AcDbLine
10
13.070277
20
16.978454
30
0
11
14.40816
21
19.19523
31
0
39
0
210
0
220
0
230
1
0
LINE
5
AE
100
AcDbEntity
8
1
62
256
6
ByLayer
370
-1
48
1
60
0
100
AcDbLine
10
16.5821
20
8.821004
30
0
11
16.577562
21
9.309521
31
0
39
0
210
0
220
0
230
1
0
LINE
5
AF
100
AcDbEntity
8
1
62
256
6
ByLayer
370
-1
48
1
60
0
100
AcDbLine
10
25.1313
20
18.753983
30
0
11
24.190291
21
18.207317
31
0
39
0
210
0
220
0
230
1
0
LINE
5
B0
100
AcDbEntity
8
1
62
256
6
ByLayer
370
-1
48
1
60
0
100
AcDbLine
10
24.675864
20
19.001656
30
0
11
24.046435
21
19.36272
31
0
39
0
210
0
220
0
230
1
0
LINE
5
B1
100
AcDbEntity
8
1
62
256
6
ByLayer
370
-1
48
1
60
0
100
AcDbLine
10
19.69147
20
9.084616
30
0
11
20.307964
21
8.723816
31
0
39
0
210
0
220
0
230
1
0
LINE
5
B2
100
AcDbEntity
8
1
62
256
6
ByLayer
370
-1
48
1
60
0
100
AcDbLine
10
18.665697
20
7.421702
30
0
11
18.652933
21
7.524445
31
0
39
0
210
0
220
0
230
1
0
LINE
5
B3
100
AcDbEntity
8
1
62
256
6
ByLayer
370
-1
48
1
60
0
100
AcDbLine
10
17.24698
20
8.881357
30
0
11
16.5821
21
8.821004
31
0
39
0
210
0
220
0
230
1
0
LINE
5
B4
100
AcDbEntity
8
1
62
256
6
ByLayer
370
-1
48
1
60
0
100
AcDbLine
10
14.772323
20
19.371854
30
0
11
12.885804
21
15.750616
31
0
39
0
210
0
220
0
230
1
0
LINE
5
B5
100
AcDbEntity
8
1
62
256
6
ByLayer
370
-1
48
1
60
0
100
AcDbLine
10
18.413576
20
7.295726
30
0
11
17.724279
21
7.233156
31
0
39
0
210
0
220
0
230
1
0
LINE
5
B6
100
AcDbEntity
8
1
62
256
6
ByLayer
370
-1
48
1
60
0
100
AcDbLine
10
23.201295
20
13.610896
30
0
11
22.713118
21
13.921666
31
0
39
0
210
0
220
0
230
1
0
LINE
5
B7
100
AcDbEntity
8
1
62
256
6
ByLayer
370
-1
48
1
60
0
100
AcDbLine
10
22.655929
20
13.838426
30
0
11
23.147144
21
13.525723
31
0
39
0
210
0
220
0
230
1
0
LINE
5
B8
100
AcDbEntity
8
1
62
256
6
ByLayer
370
-1
48
1
60
0
100
AcDbLine
10
18.903853
20
19.910302
30
0
11
18.727909
21
19.079925
31
0
39
0
210
0
220
0
230
1
0
LINE
5
B9
100
AcDbEntity
8
1
62
256
6
ByLayer
370
-1
48
1
60
0
100
AcDbLine
10
24.619699
20
18.903459
30
0
11
23.992255
21
18.538955
31
0
39
0
210
0
220
0
230
1
0
LINE
5
BA
100
AcDbEntity
8
1
62
256
6
ByLayer
370
-1
48
1
60
0
100
AcDbLine
10
22.598321
20
19.900964
30
0
11
23.042432
21
19.900964
31
0
39
0
210
0
220
0
230
1
0
LINE
5
BB
100
AcDbEntity
8
1
62
256
6
ByLayer
370
-1
48
1
60
0
100
AcDbLine
10
18.434817
20
7.283295
30
0
11
18.413576
21
7.295726
31
0
39
0
210
0
220
0
230
1
0
LINE
5
BC
100
AcDbEntity
8
1
62
256
6
ByLayer
370
-1
48
1
60
0
100
AcDbLine
10
12.916333
20
17.747513
30
0
11
13.12655
21
18.113686
31
0
39
0
210
0
220
0
230
1
0
LINE
5
BD
100
AcDbEntity
8
1
62
256
6
ByLayer
370
-1
48
1
60
0
100
AcDbLine
10
13.757248
20
19.449469
30
0
11
13.090402
21
19.388937
31
0
39
0
210
0
220
0
230
1
0
LINE
5
BE
100
AcDbEntity
8
1
62
256
6
ByLayer
370
-1
48
1
60
0
100
AcDbLine
10
12.973801
20
15.620077
30
0
11
14.992318
21
19.494692
31
0
39
0
210
0
220
0
230
1
0
LINE
5
BF
100
AcDbEntity
8
1
62
256
6
ByLayer
370
-1
48
1
60
0
100
AcDbLine
10
17.221369
20
8.372811
30
0
11
16.646416
21
8.709299
31
0
39
0
210
0
220
0
230
1
0
LINE
5
C0
100
AcDbEntity
8
1
62
256
6
ByLayer
370
-1
48
1
60
0
100
AcDbLine
10
22.477894
20
12.343119
30
0
11
22.547748
21
12.510606
31
0
39
0
210
0
220
0
230
1
0
LINE
5
C1
100
AcDbEntity
8
1
62
256
6
ByLayer
370
-1
48
1
60
0
100
AcDbLine
10
25.035333
20
19.003655
30
0
11
24.675864
21
19.001656
31
0
39
0
210
0
220
0
230
1
0
LINE
5
C2
100
AcDbEntity
8
1
62
256
6
ByLayer
370
-1
48
1
60
0
100
AcDbLine
10
25.276371
20
18.722172
30
0
11
24.543153
21
18.29622
31
0
39
0
210
0
220
0
230
1
0
LINE
5
C3
100
AcDbEntity
8
1
62
256
6
ByLayer
370
-1
48
1
60
0
100
AcDbLine
10
16.075018
20
12.644437
30
0
11
15.902836
21
13.248241
31
0
39
0
210
0
220
0
230
1
0
LINE
5
C4
100
AcDbEntity
8
1
62
256
6
ByLayer
370
-1
48
1
60
0
100
AcDbLine
10
21.112974
20
9.920712
30
0
11
22.430993
21
12.249729
31
0
39
0
210
0
220
0
230
1
0
LINE
5
C5
100
AcDbEntity
8
1
62
256
6
ByLayer
370
-1
48
1
60
0
100
AcDbLine
10
14.94751
20
12.120156
30
0
11
15.027709
21
12.013928
31
0
39
0
210
0
220
0
230
1
0
LINE
5
C6
100
AcDbEntity
8
1
62
256
6
ByLayer
370
-1
48
1
60
0
100
AcDbLine
10
15.260054
20
13.361168
30
0
11
14.30457
21
13.29106
31
0
39
0
210
0
220
0
230
1
0
LINE
5
C7
100
AcDbEntity
8
1
62
256
6
ByLayer
370
-1
48
1
60
0
100
AcDbLine
10
11.955736
20
18.952903
30
0
11
12.037223
21
18.903568
31
0
39
0
210
0
220
0
230
1
0
LINE
5
C8
100
AcDbEntity
8
1
62
256
6
ByLayer
370
-1
48
1
60
0
100
AcDbLine
10
18.820818
20
19.037901
30
0
11
19.23646
21
19.913257
31
0
39
0
210
0
220
0
230
1
0
LINE
5
C9
100
AcDbEntity
8
1
62
256
6
ByLayer
370
-1
48
1
60
0
100
AcDbLine
10
19.123327
20
19.912688
30
0
11
18.727909
21
19.079925
31
0
39
0
210
0
220
0
230
1
0
LINE
5
CA
100
AcDbEntity
8
1
62
256
6
ByLayer
370
-1
48
1
60
0
100
AcDbLine
10
23.042432
20
19.900964
30
0
11
23.044407
21
19.179364
31
0
39
0
210
0
220
0
230
1
0
LINE
5
CB
100
AcDbEntity
8
1
62
256
6
ByLayer
370
-1
48
1
60
0
100
AcDbLine
10
22.359468
20
12.963821
30
0
11
21.682644
21
13.658224
31
0
39
0
210
0
220
0
230
1
0
LINE
5
CC
100
AcDbEntity
8
1
62
256
6
ByLayer
370
-1
48
1
60
0
100
AcDbLine
10
14.905412
20
12.963821
30
0
11
15.877802
21
13.241027
31
0
39
0
210
0
220
0
230
1
0
LINE
5
CD
100
AcDbEntity
8
1
62
256
6
ByLayer
370
-1
48
1
60
0
100
AcDbLine
10
18.311603
20
7.467304
30
0
11
18.281674
21
8.303519
31
0
39
0
210
0
220
0
230
1
0
LINE
5
CE
100
AcDbEntity
8
1
62
256
6
ByLayer
370
-1
48
1
60
0
100
AcDbLine
10
11.814964
20
17.500106
30
0
11
11.862035
21
19.060833
31
0
39
0
210
0
220
0
230
1
0
LINE
5
CF
100
AcDbEntity
8
1
62
256
6
ByLayer
370
-1
48
1
60
0
100
AcDbLine
10
12.599806
20
16.075368
30
0
11
13.070277
21
16.978454
31
0
39
0
210
0
220
0
230
1
0
LINE
5
D0
100
AcDbEntity
8
1
62
256
6
ByLayer
370
-1
48
1
60
0
100
AcDbLine
10
22.634422
20
12.681725
30
0
11
22.359468
21
12.963821
31
0
39
0
210
0
220
0
230
1
0
LINE
5
D1
100
AcDbEntity
8
1
62
256
6
ByLayer
370
-1
48
1
60
0
100
AcDbLine
10
17.88254
20
19.911005
30
0
11
17.758413
21
19.325176
31
0
39
0
210
0
220
0
230
1
0
LINE
5
D2
100
AcDbEntity
8
1
62
256
6
ByLayer
370
-1
48
1
60
0
100
AcDbLine
10
18.434817
20
7.283295
30
0
11
17.745519
21
7.220725
31
0
39
0
210
0
220
0
230
1
0
LINE
5
D3
100
AcDbEntity
8
1
62
256
6
ByLayer
370
-1
48
1
60
0
100
AcDbLine
10
12.674643
20
17.885723
30
0
11
12.266962
21
17.889112
31
0
39
0
210
0
220
0
230
1
0
LINE
5
D4
100
AcDbEntity
8
1
62
256
6
ByLayer
370
-1
48
1
60
0
100
AcDbLine
10
17.888216
20
8.433342
30
0
11
17.221369
21
8.372811
31
0
39
0
210
0
220
0
230
1
0
LINE
5
D5
100
AcDbEntity
8
1
62
256
6
ByLayer
370
-1
48
1
60
0
100
AcDbLine
10
11.963067
20
19.232961
30
0
11
11.98424
21
19.245392
31
0
39
0
210
0
220
0
230
1
0
LINE
5
D6
100
AcDbEntity
8
1
62
256
6
ByLayer
370
-1
48
1
60
0
100
AcDbLine
10
12.288647
20
18.608133
30
0
11
12.88486
21
18.251896
31
0
39
0
210
0
220
0
230
1
0
LINE
5
D7
100
AcDbEntity
8
1
62
256
6
ByLayer
370
-1
48
1
60
0
100
AcDbLine
10
18.366304
20
8.647634
30
0
11
18.606212
21
8.632467
31
0
39
0
210
0
220
0
230
1
0
LINE
5
D8
100
AcDbEntity
8
1
62
256
6
ByLayer
370
-1
48
1
60
0
100
AcDbLine
10
12.184734
20
18.604861
30
0
11
12.163049
21
17.88584
31
0
39
0
210
0
220
0
230
1
0
LINE
5
D9
100
AcDbEntity
8
1
62
256
6
ByLayer
370
-1
48
1
60
0
100
AcDbLine
10
24.046435
20
19.36272
30
0
11
24.186476
21
19.600966
31
0
39
0
210
0
220
0
230
1
0
LINE
5
DA
100
AcDbEntity
8
1
62
256
6
ByLayer
370
-1
48
1
60
0
100
AcDbLine
10
23.556891
20
18.772216
30
0
11
23.773876
21
18.410023
31
0
39
0
210
0
220
0
230
1
0
LINE
5
DB
100
AcDbEntity
8
1
62
256
6
ByLayer
370
-1
48
1
60
0
100
AcDbLine
10
12.947407
20
18.346358
30
0
11
12.351194
21
18.702595
31
0
39
0
210
0
220
0
230
1
0
LINE
5
DC
100
AcDbEntity
8
1
62
256
6
ByLayer
370
-1
48
1
60
0
100
AcDbLine
10
24.354575
20
16.972455
30
0
11
23.099974
21
19.179441
31
0
39
0
210
0
220
0
230
1
0
LINE
5
DD
100
AcDbEntity
8
1
62
256
6
ByLayer
370
-1
48
1
60
0
100
AcDbLine
10
23.067536
20
13.416129
30
0
11
22.655929
21
13.838426
31
0
39
0
210
0
220
0
230
1
0
LINE
5
DE
100
AcDbEntity
8
1
62
256
6
ByLayer
370
-1
48
1
60
0
100
AcDbLine
10
24.12317
20
16.741801
30
0
11
24.172408
21
16.433995
31
0
39
0
210
0
220
0
230
1
0
LINE
5
DF
100
AcDbEntity
8
1
62
256
6
ByLayer
370
-1
48
1
60
0
100
AcDbLine
10
24.676399
20
18.806189
30
0
11
25.035868
21
18.808189
31
0
39
0
210
0
220
0
230
1
0
LINE
5
E0
100
AcDbEntity
8
1
62
256
6
ByLayer
370
-1
48
1
60
0
100
AcDbLine
10
20.555336
20
9.162352
30
0
11
20.33435
21
8.771856
31
0
39
0
210
0
220
0
230
1
0
LINE
5
E1
100
AcDbEntity
8
1
62
256
6
ByLayer
370
-1
48
1
60
0
100
AcDbLine
10
22.547748
20
12.510606
30
0
11
21.96432
21
13.109187
31
0
39
0
210
0
220
0
230
1
0
LINE
5
E2
100
AcDbEntity
8
1
62
256
6
ByLayer
370
-1
48
1
60
0
100
AcDbLine
10
12.215881
20
19.105641
30
0
11
13.110053
21
18.571375
31
0
39
0
210
0
220
0
230
1
0
LINE
5
E3
100
AcDbEntity
8
1
62
256
6
ByLayer
370
-1
48
1
60
0
100
AcDbLine
10
18.064603
20
19.909765
30
0
11
17.809681
21
18.706647
31
0
39
0
210
0
220
0
230
1
0
LINE
5
E4
100
AcDbEntity
8
1
62
256
6
ByLayer
370
-1
48
1
60
0
100
AcDbLine
10
25.376205
20
18.919823
30
0
11
25.376273
21
18.894961
31
0
39
0
210
0
220
0
230
1
0
LINE
5
E5
100
AcDbEntity
8
1
62
256
6
ByLayer
370
-1
48
1
60
0
100
AcDbLine
10
19.33003
20
8.265485
30
0
11
18.735758
21
7.912688
31
0
39
0
210
0
220
0
230
1
0
LINE
5
E6
100
AcDbEntity
8
1
62
256
6
ByLayer
370
-1
48
1
60
0
100
AcDbLine
10
24.571289
20
17.098352
30
0
11
24.354575
21
16.972455
31
0
39
0
210
0
220
0
230
1
0
LINE
5
E7
100
AcDbEntity
8
1
62
256
6
ByLayer
370
-1
48
1
60
0
100
AcDbLine
10
18.652933
20
7.524445
30
0
11
18.798819
21
7.819153
31
0
39
0
210
0
220
0
230
1
0
LINE
5
E8
100
AcDbEntity
8
1
62
256
6
ByLayer
370
-1
48
1
60
0
100
AcDbLine
10
11.862035
20
19.060833
30
0
11
11.175763
21
18.998539
31
0
39
0
210
0
220
0
230
1
0
LINE
5
E9
100
AcDbEntity
8
1
62
256
6
ByLayer
370
-1
48
1
60
0
100
AcDbLine
10
17.313262
20
8.769831
30
0
11
16.646416
21
8.709299
31
0
39
0
210
0
220
0
230
1
0
LINE
5
EA
100
AcDbEntity
8
1
62
256
6
ByLayer
370
-1
48
1
60
0
100
AcDbLine
10
22.634422
20
12.681725
30
0
11
22.956489
21
13.242797
31
0
39
0
210
0
220
0
230
1
0
LINE
5
EB
100
AcDbEntity
8
1
62
256
6
ByLayer
370
-1
48
1
60
0
100
AcDbLine
10
23.909102
20
19.875799
30
0
11
25.275359
21
19.092063
31
0
39
0
210
0
220
0
230
1
0
LINE
5
EC
100
AcDbEntity
8
1
62
256
6
ByLayer
370
-1
48
1
60
0
100
AcDbLine
10
23.992255
20
18.538955
30
0
11
23.775271
21
18.901148
31
0
39
0
210
0
220
0
230
1
0
LINE
5
ED
100
AcDbEntity
8
1
62
256
6
ByLayer
370
-1
48
1
60
0
100
AcDbLine
10
17.246508
20
9.370243
30
0
11
16.577562
21
9.309521
31
0
39
0
210
0
220
0
230
1
0
LINE
5
EE
100
AcDbEntity
8
1
62
256
6
ByLayer
370
-1
48
1
60
0
100
AcDbLine
10
11.963067
20
19.232961
30
0
11
11.273769
21
19.170391
31
0
39
0
210
0
220
0
230
1
0
LINE
5
EF
100
AcDbEntity
8
1
62
256
6
ByLayer
370
-1
48
1
60
0
100
AcDbLine
10
18.798819
20
7.819153
30
0
11
19.393092
21
8.17195
31
0
39
0
210
0
220
0
230
1
0
LINE
5
F0
100
AcDbEntity
8
1
62
256
6
ByLayer
370
-1
48
1
60
0
100
AcDbLine
10
23.067536
20
13.416129
30
0
11
23.147144
21
13.525723
31
0
39
0
210
0
220
0
230
1
0
LINE
5
F1
100
AcDbEntity
8
1
62
256
6
ByLayer
370
-1
48
1
60
0
100
AcDbLine
10
19.123327
20
19.912688
30
0
11
18.903853
21
19.910302
31
0
39
0
210
0
220
0
230
1
0
LINE
5
F2
100
AcDbEntity
8
1
62
256
6
ByLayer
370
-1
48
1
60
0
100
AcDbLine
10
20.741524
20
9.445771
30
0
11
21.025698
21
9.787859
31
0
39
0
210
0
220
0
230
1
0
LINE
5
F3
100
AcDbEntity
8
1
62
256
6
ByLayer
370
-1
48
1
60
0
100
AcDbLine
10
24.534177
20
18.020335
30
0
11
24.578581
21
17.989427
31
0
39
0
210
0
220
0
230
1
0
LINE
5
F4
100
AcDbEntity
8
1
62
256
6
ByLayer
370
-1
48
1
60
0
100
AcDbLine
10
23.806316
20
19.902979
30
0
11
23.097999
21
19.901041
31
0
39
0
210
0
220
0
230
1
0
LINE
5
F5
100
AcDbEntity
8
1
62
256
6
ByLayer
370
-1
48
1
60
0
100
AcDbLine
10
19.393092
20
8.17195
30
0
11
19.556958
21
7.95081
31
0
39
0
210
0
220
0
230
1
0
LINE
5
F6
100
AcDbEntity
8
1
62
256
6
ByLayer
370
-1
48
1
60
0
100
AcDbLine
10
25.035868
20
18.808189
30
0
11
25.1313
21
18.753983
31
0
39
0
210
0
220
0
230
1
0
LINE
5
F7
100
AcDbEntity
8
1
62
256
6
ByLayer
370
-1
48
1
60
0
100
AcDbLine
10
22.305991
20
19.903432
30
0
11
22.842203
21
19.036042
31
0
39
0
210
0
220
0
230
1
0
LINE
5
F8
100
AcDbEntity
8
1
62
256
6
ByLayer
370
-1
48
1
60
0
100
AcDbLine
10
18.697418
20
19.90933
30
0
11
18.6145
21
19.517994
31
0
39
0
210
0
220
0
230
1
0
LINE
5
F9
100
AcDbEntity
8
1
62
256
6
ByLayer
370
-1
48
1
60
0
100
AcDbLine
10
14.992318
20
19.494692
30
0
11
15.659592
21
19.886466
31
0
39
0
210
0
220
0
230
1
0
LINE
5
FA
100
AcDbEntity
8
1
62
256
6
ByLayer
370
-1
48
1
60
0
100
AcDbLine
10
18.050399
20
8.44972
30
0
11
18.003838
21
8.427561
31
0
39
0
210
0
220
0
230
1
0
LINE
5
FB
100
AcDbEntity
8
1
62
256
6
ByLayer
370
-1
48
1
60
0
100
AcDbLine
10
19.987493
20
8.121726
30
0
11
20.307964
21
8.723816
31
0
39
0
210
0
220
0
230
1
0
LINE
5
FC
100
AcDbEntity
8
1
62
256
6
ByLayer
370
-1
48
1
60
0
100
AcDbLine
10
14.351985
20
13.196531
30
0
11
14.422769
21
13.024274
31
0
39
0
210
0
220
0
230
1
0
LINE
5
FD
100
AcDbEntity
8
1
62
256
6
ByLayer
370
-1
48
1
60
0
100
AcDbLine
10
14.94751
20
12.120156
30
0
11
15.538864
21
12.288737
31
0
39
0
210
0
220
0
230
1
0
LINE
5
FE
100
AcDbEntity
8
1
62
256
6
ByLayer
370
-1
48
1
60
0
100
AcDbLine
10
13.882565
20
19.44972
30
0
11
14.088493
21
19.326679
31
0
39
0
210
0
220
0
230
1
0
LINE
5
FF
100
AcDbEntity
8
1
62
256
6
ByLayer
370
-1
48
1
60
0
100
AcDbLine
10
17.688405
20
19.913257
30
0
11
17.668588
21
19.329378
31
0
39
0
210
0
220
0
230
1
0
LINE
5
100
100
AcDbEntity
8
1
62
256
6
ByLayer
370
-1
48
1
60
0
100
AcDbLine
10
17.758413
20
19.325176
30
0
11
17.778353
21
19.912688
31
0
39
0
210
0
220
0
230
1
0
LINE
5
101
100
AcDbEntity
8
1
62
256
6
ByLayer
370
-1
48
1
60
0
100
AcDbLine
10
14.510386
20
12.851209
30
0
11
14.905412
21
12.963821
31
0
39
0
210
0
220
0
230
1
0
LINE
5
102
100
AcDbEntity
8
1
62
256
6
ByLayer
370
-1
48
1
60
0
100
AcDbLine
10
12.188955
20
16.744346
30
0
11
12.803474
21
17.105146
31
0
39
0
210
0
220
0
230
1
0
LINE
5
103
100
AcDbEntity
8
1
62
256
6
ByLayer
370
-1
48
1
60
0
100
AcDbLine
10
14.510386
20
12.851209
30
0
11
14.835521
21
12.291008
31
0
39
0
210
0
220
0
230
1
0
LINE
5
104
100
AcDbEntity
8
1
62
256
6
ByLayer
370
-1
48
1
60
0
100
AcDbLine
10
17.207391
20
9.484235
30
0
11
16.989051
21
9.644726
31
0
39
0
210
0
220
0
230
1
0
LINE
5
105
100
AcDbEntity
8
1
62
256
6
ByLayer
370
-1
48
1
60
0
100
AcDbLine
10
18.215391
20
8.415045
30
0
11
17.553229
21
8.354938
31
0
39
0
210
0
220
0
230
1
0
LINE
5
106
100
AcDbEntity
8
1
62
256
6
ByLayer
370
-1
48
1
60
0
100
AcDbLine
10
16.793884
20
9.767563
30
0
11
16.124465
21
10.159337
31
0
39
0
210
0
220
0
230
1
0
LINE
5
107
100
AcDbEntity
8
1
62
256
6
ByLayer
370
-1
48
1
60
0
100
AcDbLine
10
12.999077
20
18.829738
30
0
11
13.048289
21
18.858632
31
0
39
0
210
0
220
0
230
1
0
LINE
5
108
100
AcDbEntity
8
1
62
256
6
ByLayer
370
-1
48
1
60
0
100
AcDbLine
10
17.688405
20
19.913257
30
0
11
15.758
21
19.913257
31
0
39
0
210
0
220
0
230
1
0
LINE
5
109
100
AcDbEntity
8
1
62
256
6
ByLayer
370
-1
48
1
60
0
100
AcDbLine
10
24.186476
20
19.600966
30
0
11
25.130464
21
19.059459
31
0
39
0
210
0
220
0
230
1
0
LINE
5
10A
100
AcDbEntity
8
1
62
256
6
ByLayer
370
-1
48
1
60
0
100
AcDbLine
10
14.835521
20
12.291008
30
0
11
16.049984
21
12.637223
31
0
39
0
210
0
220
0
230
1
0
LINE
5
10B
100
AcDbEntity
8
1
62
256
6
ByLayer
370
-1
48
1
60
0
100
AcDbLine
10
12.266962
20
17.889112
30
0
11
12.288647
21
18.608133
31
0
39
0
210
0
220
0
230
1
0
LINE
5
10C
100
AcDbEntity
8
1
62
256
6
ByLayer
370
-1
48
1
60
0
100
AcDbLine
10
12.803474
20
17.105146
30
0
11
12.41208
21
16.35385
31
0
39
0
210
0
220
0
230
1
0
LINE
5
10D
100
AcDbEntity
8
1
62
256
6
ByLayer
370
-1
48
1
60
0
100
AcDbLine
10
21.885249
20
19.913257
30
0
11
24.185822
21
16.191791
31
0
39
0
210
0
220
0
230
1
0
LINE
5
10E
100
AcDbEntity
8
1
62
256
6
ByLayer
370
-1
48
1
60
0
100
AcDbLine
10
12.776825
20
17.15334
30
0
11
12.162306
21
16.79254
31
0
39
0
210
0
220
0
230
1
0
LINE
5
10F
100
AcDbEntity
8
1
62
256
6
ByLayer
370
-1
48
1
60
0
100
AcDbLine
10
24.172408
20
16.433995
30
0
11
22.022279
21
19.9121
31
0
39
0
210
0
220
0
230
1
0
LINE
5
110
100
AcDbEntity
8
1
62
256
6
ByLayer
370
-1
48
1
60
0
100
AcDbLine
10
24.048956
20
18.441685
30
0
11
24.676399
21
18.806189
31
0
39
0
210
0
220
0
230
1
0
LINE
5
111
100
AcDbEntity
8
1
62
256
6
ByLayer
370
-1
48
1
60
0
100
AcDbLine
10
14.45807
20
19.211363
30
0
11
14.772323
21
19.371854
31
0
39
0
210
0
220
0
230
1
0
LINE
5
112
100
AcDbEntity
8
1
62
256
6
ByLayer
370
-1
48
1
60
0
100
AcDbLine
10
11.838528
20
17.398507
30
0
11
12.162306
21
16.79254
31
0
39
0
210
0
220
0
230
1
0
LINE
5
113
100
AcDbEntity
8
1
62
256
6
ByLayer
370
-1
48
1
60
0
100
AcDbLine
10
17.888216
20
8.433342
30
0
11
17.313262
21
8.769831
31
0
39
0
210
0
220
0
230
1
0
LINE
5
114
100
AcDbEntity
8
1
62
256
6
ByLayer
370
-1
48
1
60
0
100
AcDbLine
10
19.556958
20
7.95081
30
0
11
18.665697
21
7.421702
31
0
39
0
210
0
220
0
230
1
0
LINE
5
115
100
AcDbEntity
8
1
62
256
6
ByLayer
370
-1
48
1
60
0
100
AcDbLine
10
12.41208
20
16.35385
30
0
11
12.188955
21
16.744346
31
0
39
0
210
0
220
0
230
1
0
LINE
5
116
100
AcDbEntity
8
1
62
256
6
ByLayer
370
-1
48
1
60
0
100
AcDbLine
10
20.33435
20
8.771856
30
0
11
19.717856
21
9.132656
31
0
39
0
210
0
220
0
230
1
0
LINE
5
117
100
AcDbEntity
8
1
62
256
6
ByLayer
370
-1
48
1
60
0
100
AcDbLine
10
18.735758
20
7.912688
30
0
11
18.710146
21
8.628269
31
0
39
0
210
0
220
0
230
1
0
LINE
5
118
100
AcDbEntity
8
1
62
256
6
ByLayer
370
-1
48
1
60
0
100
AcDbLine
10
18.281674
20
8.303519
30
0
11
17.617544
21
8.243234
31
0
39
0
210
0
220
0
230
1
0
LINE
5
119
100
AcDbEntity
8
1
62
256
6
ByLayer
370
-1
48
1
60
0
100
AcDbLine
10
18.6145
20
19.517994
30
0
11
18.410391
21
18.554687
31
0
39
0
210
0
220
0
230
1
0
LINE
5
11A
100
AcDbEntity
8
1
62
256
6
ByLayer
370
-1
48
1
60
0
100
AcDbLine
10
13.110053
20
18.571375
30
0
11
12.947407
21
18.346358
31
0
39
0
210
0
220
0
230
1
0
LINE
5
11B
100
AcDbEntity
8
1
62
256
6
ByLayer
370
-1
48
1
60
0
100
AcDbLine
10
24.190291
20
18.207317
30
0
11
24.048956
21
18.441685
31
0
39
0
210
0
220
0
230
1
0
LINE
5
11C
100
AcDbEntity
8
1
62
256
6
ByLayer
370
-1
48
1
60
0
100
AcDbLine
10
18.311603
20
7.467304
30
0
11
17.625332
21
7.405009
31
0
39
0
210
0
220
0
230
1
0
LINE
5
11D
100
AcDbEntity
8
1
62
256
6
ByLayer
370
-1
48
1
60
0
100
AcDbLine
10
15.538864
20
12.288737
30
0
11
15.027709
21
12.013928
31
0
39
0
210
0
220
0
230
1
0
LINE
5
11E
100
AcDbEntity
8
1
62
256
6
ByLayer
370
-1
48
1
60
0
100
AcDbLine
10
13.11313
20
18.959091
30
0
11
13.119296
21
19.012521
31
0
39
0
210
0
220
0
230
1
0
LINE
5
11F
100
AcDbEntity
8
1
62
256
6
ByLayer
370
-1
48
1
60
0
100
AcDbLine
10
18.404716
20
7.57444
30
0
11
18.366304
21
8.647634
31
0
39
0
210
0
220
0
230
1
0
LINE
5
120
100
AcDbEntity
8
1
62
256
6
ByLayer
370
-1
48
1
60
0
100
AcDbLine
10
12.203684
20
19.001301
30
0
11
12.215881
21
19.105641
31
0
39
0
210
0
220
0
230
1
0
LINE
5
121
100
AcDbEntity
8
1
62
256
6
ByLayer
370
-1
48
1
60
0
100
AcDbLine
10
19.136273
20
8.90141
30
0
11
18.728607
21
8.899203
31
0
39
0
210
0
220
0
230
1
0
LINE
5
122
100
AcDbEntity
8
1
62
256
6
ByLayer
370
-1
48
1
60
0
100
AcDbLine
10
15.877802
20
13.241027
30
0
11
16.049984
21
12.637223
31
0
39
0
210
0
220
0
230
1
0
LINE
5
123
100
AcDbEntity
8
1
62
256
6
ByLayer
370
-1
48
1
60
0
100
AcDbLine
10
15.082324
20
11.929893
30
0
11
15.590318
21
12.203002
31
0
39
0
210
0
220
0
230
1
0
LINE
5
124
100
AcDbEntity
8
1
62
256
6
ByLayer
370
-1
48
1
60
0
100
AcDbLine
10
19.570957
20
8.406223
30
0
11
19.358738
21
8.771214
31
0
39
0
210
0
220
0
230
1
0
LINE
5
125
100
AcDbEntity
8
1
62
256
6
ByLayer
370
-1
48
1
60
0
100
AcDbLine
10
18.631824
20
7.916886
30
0
11
18.485938
21
7.622178
31
0
39
0
210
0
220
0
230
1
0
LINE
5
126
100
AcDbEntity
8
1
62
256
6
ByLayer
370
-1
48
1
60
0
100
AcDbLine
10
17.745519
20
7.220725
30
0
11
17.724279
21
7.233156
31
0
39
0
210
0
220
0
230
1
0
LINE
5
127
100
AcDbEntity
8
1
62
256
6
ByLayer
370
-1
48
1
60
0
100
AcDbLine
10
23.775271
20
18.901148
30
0
11
23.990269
21
19.264524
31
0
39
0
210
0
220
0
230
1
0
LINE
5
128
100
AcDbEntity
8
1
62
256
6
ByLayer
370
-1
48
1
60
0
100
AcDbLine
10
12.351194
20
18.702595
30
0
11
12.203684
21
19.001301
31
0
39
0
210
0
220
0
230
1
0
LINE
5
129
100
AcDbEntity
8
1
62
256
6
ByLayer
370
-1
48
1
60
0
100
AcDbLine
10
19.117812
20
8.630476
30
0
11
19.33003
21
8.265485
31
0
39
0
210
0
220
0
230
1
0
LINE
5
12A
100
AcDbEntity
8
1
62
256
6
ByLayer
370
-1
48
1
60
0
100
AcDbLine
10
18.485938
20
7.622178
30
0
11
18.404716
21
7.57444
31
0
39
0
210
0
220
0
230
1
0
LINE
5
12B
100
AcDbEntity
8
1
62
256
6
ByLayer
370
-1
48
1
60
0
100
AcDbLine
10
12.037223
20
18.903568
30
0
11
12.184734
21
18.604861
31
0
39
0
210
0
220
0
230
1
0
LINE
5
12C
100
AcDbEntity
8
1
62
256
6
ByLayer
370
-1
48
1
60
0
100
AcDbLine
10
24.185822
20
16.191791
30
0
11
24.187966
21
15.408243
31
0
39
0
210
0
220
0
230
1
0
LINE
5
12D
100
AcDbEntity
8
1
62
256
6
ByLayer
370
-1
48
1
60
0
100
AcDbLine
10
12.177036
20
19.245779
30
0
11
12.873759
21
18.829487
31
0
39
0
210
0
220
0
230
1
0
LINE
5
12E
100
AcDbEntity
8
1
62
256
6
ByLayer
370
-1
48
1
60
0
100
AcDbLine
10
11.273769
20
19.170391
30
0
11
11.294942
21
19.182822
31
0
39
0
210
0
220
0
230
1
0
LINE
5
12F
100
AcDbEntity
8
1
62
256
6
ByLayer
370
-1
48
1
60
0
100
AcDbLine
10
11.98424
20
19.245392
30
0
11
11.294942
21
19.182822
31
0
39
0
210
0
220
0
230
1
0
LINE
5
130
100
AcDbEntity
8
1
62
256
6
ByLayer
370
-1
48
1
60
0
100
AcDbLine
10
13.184136
20
19.11298
30
0
11
12.51729
21
19.052449
31
0
39
0
210
0
220
0
230
1
0
LINE
5
131
100
AcDbEntity
8
1
62
256
6
ByLayer
370
-1
48
1
60
0
100
AcDbLine
10
18.710146
20
8.628269
30
0
11
19.117812
21
8.630476
31
0
39
0
210
0
220
0
230
1
0
LINE
5
132
100
AcDbEntity
8
1
62
256
6
ByLayer
370
-1
48
1
60
0
100
AcDbLine
10
23.771177
20
19.395984
30
0
11
23.556178
21
19.032609
31
0
39
0
210
0
220
0
230
1
0
LINE
5
133
100
AcDbEntity
8
1
62
256
6
ByLayer
370
-1
48
1
60
0
100
AcDbLine
10
21.682644
20
13.658224
30
0
11
22.111172
21
14.110068
31
0
39
0
210
0
220
0
230
1
0
LINE
5
134
100
AcDbEntity
8
1
62
256
6
ByLayer
370
-1
48
1
60
0
100
AcDbLine
10
22.093066
20
14.128196
30
0
11
21.664538
21
13.676352
31
0
39
0
210
0
220
0
230
1
0
LINE
5
135
100
AcDbEntity
8
1
62
256
6
ByLayer
370
-1
48
1
60
0
100
AcDbLine
10
22.842203
20
19.036042
30
0
11
24.121878
21
16.784947
31
0
39
0
210
0
220
0
230
1
0
LINE
5
136
100
AcDbEntity
8
1
62
256
6
ByLayer
370
-1
48
1
60
0
100
AcDbLine
10
17.88254
20
19.911005
30
0
11
17.778353
21
19.912688
31
0
39
0
210
0
220
0
230
1
0
LINE
5
137
100
AcDbEntity
8
1
62
256
6
ByLayer
370
-1
48
1
60
0
100
AcDbLine
10
21.891152
20
13.054977
30
0
11
22.430993
21
12.249729
31
0
39
0
210
0
220
0
230
1
0
LINE
5
138
100
AcDbEntity
8
1
62
256
6
ByLayer
370
-1
48
1
60
0
100
AcDbLine
10
22.477894
20
12.343119
30
0
11
21.96432
21
13.109187
31
0
39
0
210
0
220
0
230
1
0
LINE
5
139
100
AcDbEntity
8
1
62
256
6
ByLayer
370
-1
48
1
60
0
100
AcDbLine
10
19.717856
20
9.132656
30
0
11
20.555336
21
9.162352
31
0
39
0
210
0
220
0
230
1
0
LINE
5
13A
100
AcDbEntity
8
1
62
256
6
ByLayer
370
-1
48
1
60
0
100
AcDbLine
10
19.917561
20
8.04815
30
0
11
18.627617
21
7.282359
31
0
39
0
210
0
220
0
230
1
0
LINE
5
13B
100
AcDbEntity
8
1
62
256
6
ByLayer
370
-1
48
1
60
0
100
AcDbLine
10
12.88486
20
18.251896
30
0
11
12.674643
21
17.885723
31
0
39
0
210
0
220
0
230
1
0
LINE
5
13C
100
AcDbEntity
8
1
62
256
6
ByLayer
370
-1
48
1
60
0
100
AcDbLine
10
21.112974
20
9.920712
30
0
11
16.793884
21
9.767563
31
0
39
0
210
0
220
0
230
1
0
LINE
5
13D
100
AcDbEntity
8
1
62
256
6
ByLayer
370
-1
48
1
60
0
100
AcDbLine
10
18.410391
20
18.554687
30
0
11
17.809681
21
18.706647
31
0
39
0
210
0
220
0
230
1
0
LINE
5
13E
100
AcDbEntity
8
1
62
256
6
ByLayer
370
-1
48
1
60
0
100
AcDbLine
10
15.659592
20
19.886466
30
0
11
14.904316
21
19.817907
31
0
39
0
210
0
220
0
230
1
0
LINE
5
13F
100
AcDbEntity
8
1
62
256
6
ByLayer
370
-1
48
1
60
0
100
AcDbLine
10
20.741524
20
9.445771
30
0
11
19.734841
21
9.410076
31
0
39
0
210
0
220
0
230
1
0
LINE
5
140
100
AcDbEntity
8
1
62
256
6
ByLayer
370
-1
48
1
60
0
100
AcDbLine
10
23.990269
20
19.264524
30
0
11
24.619699
21
18.903459
31
0
39
0
210
0
220
0
230
1
0
LINE
5
141
100
AcDbEntity
8
1
62
256
6
ByLayer
370
-1
48
1
60
0
100
AcDbLine
10
12.973801
20
15.620077
30
0
11
14.30457
21
13.29106
31
0
39
0
210
0
220
0
230
1
0
LINE
5
142
100
AcDbEntity
8
1
62
256
6
ByLayer
370
-1
48
1
60
0
100
AcDbLine
10
16.989051
20
9.644726
30
0
11
21.025698
21
9.787859
31
0
39
0
210
0
220
0
230
1
0
LINE
5
143
100
AcDbEntity
8
1
62
256
6
ByLayer
370
-1
48
1
60
0
100
AcDbLine
10
12.163049
20
17.88584
30
0
11
11.923213
21
17.87455
31
0
39
0
210
0
220
0
230
1
0
LINE
5
144
100
AcDbEntity
8
1
62
256
6
ByLayer
370
-1
48
1
60
0
100
AcDbLine
10
13.184136
20
19.11298
30
0
11
13.757248
21
19.449469
31
0
39
0
210
0
220
0
230
1
0
LINE
5
145
100
AcDbEntity
8
1
62
256
6
ByLayer
370
-1
48
1
60
0
100
AcDbLine
10
14.422769
20
13.024274
30
0
11
15.260977
21
13.263227
31
0
39
0
210
0
220
0
230
1
0
LINE
5
146
100
AcDbEntity
8
1
62
256
6
ByLayer
370
-1
48
1
60
0
100
AcDbLine
10
11.923213
20
17.87455
30
0
11
11.955736
21
18.952903
31
0
39
0
210
0
220
0
230
1
0
LINE
5
147
100
AcDbEntity
8
1
62
256
6
ByLayer
370
-1
48
1
60
0
100
AcDbLine
10
25.130464
20
19.059459
30
0
11
25.035333
21
19.003655
31
0
39
0
210
0
220
0
230
1
0
LINE
5
148
100
AcDbEntity
8
1
62
256
6
ByLayer
370
-1
48
1
60
0
100
AcDbLine
10
17.625332
20
7.405009
30
0
11
17.617544
21
8.243234
31
0
39
0
210
0
220
0
230
1
0
LINE
5
149
100
AcDbEntity
8
1
62
256
6
ByLayer
370
-1
48
1
60
0
100
AcDbLine
10
12.2869
20
17.620705
30
0
11
12.694581
21
17.617316
31
0
39
0
210
0
220
0
230
1
0
LINE
5
14A
100
AcDbEntity
8
1
62
256
6
ByLayer
370
-1
48
1
60
0
100
AcDbLine
10
24.478216
20
18.183907
30
0
11
24.478375
21
18.126119
31
0
39
0
210
0
220
0
230
1
0
LINE
5
14B
100
AcDbEntity
8
1
62
256
6
ByLayer
370
-1
48
1
60
0
100
AcDbLine
10
23.044407
20
19.179364
30
0
11
22.598321
21
19.900964
31
0
39
0
210
0
220
0
230
1
0
LINE
5
14C
100
AcDbEntity
8
1
62
256
6
ByLayer
370
-1
48
1
60
0
100
AcDbLine
10
23.201295
20
13.610896
30
0
11
24.161852
21
15.308256
31
0
39
0
210
0
220
0
230
1
0
LINE
5
14D
100
AcDbEntity
8
1
62
256
6
ByLayer
370
-1
48
1
60
0
100
AcDbLine
10
19.855163
20
15.523435
30
0
11
20.111302
21
15.54879
31
0
39
0
210
0
220
0
230
1
0
LINE
5
14E
100
AcDbEntity
8
1
62
256
6
ByLayer
370
-1
48
1
60
0
100
AcDbLine
10
18.809023
20
16.606618
30
0
11
18.805002
21
16.586621
31
0
39
0
210
0
220
0
230
1
0
LINE
5
14F
100
AcDbEntity
8
1
62
256
6
ByLayer
370
-1
48
1
60
0
100
AcDbLine
10
19.876602
20
14.739072
30
0
11
20.134785
21
14.76463
31
0
39
0
210
0
220
0
230
1
0
LINE
5
150
100
AcDbEntity
8
1
62
256
6
ByLayer
370
-1
48
1
60
0
100
AcDbLine
10
19.857485
20
14.745483
30
0
11
20.113624
21
14.770839
31
0
39
0
210
0
220
0
230
1
0
LINE
5
151
100
AcDbEntity
8
1
62
256
6
ByLayer
370
-1
48
1
60
0
100
AcDbLine
10
19.874241
20
15.529845
30
0
11
20.132424
21
15.555403
31
0
39
0
210
0
220
0
230
1
0
LINE
5
152
100
AcDbEntity
8
1
62
256
6
ByLayer
370
-1
48
1
60
0
100
AcDbLine
10
19.874241
20
15.529845
30
0
11
19.855163
21
15.523435
31
0
39
0
210
0
220
0
230
1
0
LINE
5
153
100
AcDbEntity
8
1
62
256
6
ByLayer
370
-1
48
1
60
0
100
AcDbLine
10
18.809023
20
16.606618
30
0
11
19.067206
21
16.632176
31
0
39
0
210
0
220
0
230
1
0
LINE
5
154
100
AcDbEntity
8
1
62
256
6
ByLayer
370
-1
48
1
60
0
100
AcDbLine
10
19.857485
20
14.745483
30
0
11
19.876602
21
14.739072
31
0
39
0
210
0
220
0
230
1
0
LINE
5
155
100
AcDbEntity
8
1
62
256
6
ByLayer
370
-1
48
1
60
0
100
AcDbLine
10
18.805002
20
16.586621
30
0
11
19.061141
21
16.611977
31
0
39
0
210
0
220
0
230
1
0
LINE
5
156
100
AcDbEntity
8
1
62
256
6
ByLayer
370
-1
48
1
60
0
100
AcDbLine
10
18.813671
20
13.682296
30
0
11
19.06981
21
13.707652
31
0
39
0
210
0
220
0
230
1
0
LINE
5
157
100
AcDbEntity
8
1
62
256
6
ByLayer
370
-1
48
1
60
0
100
AcDbLine
10
18.817811
20
13.662299
30
0
11
19.075994
21
13.687857
31
0
39
0
210
0
220
0
230
1
0
LINE
5
158
100
AcDbEntity
8
1
62
256
6
ByLayer
370
-1
48
1
60
0
100
AcDbLine
10
18.813671
20
13.682296
30
0
11
18.817811
21
13.662299
31
0
39
0
210
0
220
0
230
1
0
LINE
5
159
100
AcDbEntity
8
1
62
256
6
ByLayer
370
-1
48
1
60
0
100
AcDbLine
10
21.636933
20
10.446006
30
0
11
22.141912
21
10.610365
31
0
39
0
210
0
220
0
230
1
0
LINE
5
15A
100
AcDbEntity
8
1
62
256
6
ByLayer
370
-1
48
1
60
0
100
AcDbLine
10
22.702771
20
11.936282
30
0
11
22.703418
21
11.63883
31
0
39
0
210
0
220
0
230
1
0
LINE
5
15B
100
AcDbEntity
8
SK1
62
256
6
ByLayer
370
-1
48
1
60
0
100
AcDbLine
10
0
20
-12.507314
30
0
11
-1.147965
21
-12.507314
31
0
39
0
210
0
220
0
230
1
0
LINE
5
15C
100
AcDbEntity
8
SK1
62
256
6
ByLayer
370
-1
48
1
60
0
100
AcDbLine
10
0
20
-12.507314
30
0
11
0
21
-12.415994
31
0
39
0
210
0
220
0
230
1
0
LINE
5
15D
100
AcDbEntity
8
SK1
62
256
6
ByLayer
370
-1
48
1
60
0
100
AcDbLine
10
-124.650602
20
-12.4375
30
0
11
-17.147965
21
-12.4375
31
0
39
0
210
0
220
0
230
1
0
LINE
5
15E
100
AcDbEntity
8
SK1
62
256
6
ByLayer
370
-1
48
1
60
0
100
AcDbLine
10
-8.037971
20
12.4375
30
0
11
-124.650602
21
12.4375
31
0
39
0
210
0
220
0
230
1
0
LINE
5
15F
100
AcDbEntity
8
SK1
62
256
6
ByLayer
370
-1
48
1
60
0
100
AcDbLine
10
-17.147965
20
-12.4375
30
0
11
-1.147965
21
-12.507314
31
0
39
0
210
0
220
0
230
1
0
LINE
5
160
100
AcDbEntity
8
SK1
62
256
6
ByLayer
370
-1
48
1
60
0
100
AcDbLine
10
-1.295299
20
-12.407908
30
0
11
-1.295299
21
12.4375
31
0
39
0
210
0
220
0
230
1
0
LINE
5
161
100
AcDbEntity
8
SK1
62
256
6
ByLayer
370
-1
48
1
60
0
100
AcDbLine
10
0
20
-12.415994
30
0
11
0
21
12.4375
31
0
39
0
210
0
220
0
230
1
0
LINE
5
162
100
AcDbEntity
8
SK1
62
256
6
ByLayer
370
-1
48
1
60
0
100
AcDbLine
10
-7.880638
20
-12.328962
30
0
11
-8.037971
21
12.4375
31
0
39
0
210
0
220
0
230
1
0
LINE
5
163
100
AcDbEntity
8
SK1
62
256
6
ByLayer
370
-1
48
1
60
0
100
AcDbLine
10
-8.037971
20
12.4375
30
0
11
-1.295299
21
12.4375
31
0
39
0
210
0
220
0
230
1
0
LINE
5
164
100
AcDbEntity
8
SK1
62
256
6
ByLayer
370
-1
48
1
60
0
100
AcDbLine
10
-124.650602
20
12.4375
30
0
11
-124.650602
21
-12.328962
31
0
39
0
210
0
220
0
230
1
0
LINE
5
165
100
AcDbEntity
8
SK1
62
256
6
ByLayer
370
-1
48
1
60
0
100
AcDbLine
10
-124.650602
20
-12.328962
30
0
11
-124.650602
21
-12.4375
31
0
39
0
210
0
220
0
230
1
0
LINE
5
166
100
AcDbEntity
8
SK1
62
256
6
ByLayer
370
-1
48
1
60
0
100
AcDbLine
10
-124.650602
20
-12.328962
30
0
11
-7.880638
21
-12.328962
31
0
39
0
210
0
220
0
230
1
0
LINE
5
167
100
AcDbEntity
8
2
62
256
6
ByLayer
370
-1
48
1
60
0
100
AcDbLine
10
0
20
29.6625
30
0
11
26.699398
21
29.6625
31
0
39
0
210
0
220
0
230
1
0
LINE
5
168
100
AcDbEntity
8
2
62
256
6
ByLayer
370
-1
48
1
60
0
100
AcDbLine
10
26.699398
20
27.5875
30
0
11
26.699398
21
32.6625
31
0
39
0
210
0
220
0
230
1
0
LINE
5
169
100
AcDbEntity
8
2
62
256
6
ByLayer
370
-1
48
1
60
0
100
AcDbLine
10
0
20
13.9375
30
0
11
0
21
32.6625
31
0
39
0
210
0
220
0
230
1
0
LINE
5
16A
100
AcDbEntity
8
2
62
256
6
ByLayer
370
-1
48
1
60
0
100
AcDbLine
10
26.699398
20
29.6625
30
0
11
23.699399
21
29.267543
31
0
39
0
210
0
220
0
230
1
0
LINE
5
16B
100
AcDbEntity
8
2
62
256
6
ByLayer
370
-1
48
1
60
0
100
AcDbLine
10
26.699398
20
29.6625
30
0
11
23.699397
21
30.057457
31
0
39
0
210
0
220
0
230
1
0
LINE
5
16C
100
AcDbEntity
8
2
62
256
6
ByLayer
370
-1
48
1
60
0
100
AcDbLine
10
23.699399
20
29.267543
30
0
11
23.699397
21
30.057457
31
0
39
0
210
0
220
0
230
1
0
LINE
5
16D
100
AcDbEntity
8
2
62
256
6
ByLayer
370
-1
48
1
60
0
100
AcDbLine
10
0
20
29.6625
30
0
11
2.999999
21
30.057457
31
0
39
0
210
0
220
0
230
1
0
LINE
5
16E
100
AcDbEntity
8
2
62
256
6
ByLayer
370
-1
48
1
60
0
100
AcDbLine
10
0
20
29.6625
30
0
11
3.000001
21
29.267543
31
0
39
0
210
0
220
0
230
1
0
LINE
5
16F
100
AcDbEntity
8
2
62
256
6
ByLayer
370
-1
48
1
60
0
100
AcDbLine
10
2.999999
20
30.057457
30
0
11
3.000001
21
29.267543
31
0
39
0
210
0
220
0
230
1
0
LINE
5
170
100
AcDbEntity
8
SK2
62
256
6
ByLayer
370
-1
48
1
60
0
100
AcDbLine
10
26.699398
20
39.6625
30
0
11
-124.650602
21
39.6625
31
0
39
0
210
0
220
0
230
1
0
LINE
5
172
100
AcDbEntity
8
SK2
62
256
6
ByLayer
370
-1
48
1
60
0
100
AcDbLine
10
-124.650602
20
13.9375
30
0
11
-124.650602
21
42.6625
31
0
39
0
210
0
220
0
230
1
0
LINE
5
173
100
AcDbEntity
8
SK2
62
256
6
ByLayer
370
-1
48
1
60
0
100
AcDbLine
10
26.699398
20
27.5875
30
0
11
26.699398
21
42.6625
31
0
39
0
210
0
220
0
230
1
0
LINE
5
174
100
AcDbEntity
8
SK2
62
256
6
ByLayer
370
-1
48
1
60
0
100
AcDbLine
10
-124.650602
20
39.6625
30
0
11
-121.650603
21
40.057457
31
0
39
0
210
0
220
0
230
1
0
LINE
5
175
100
AcDbEntity
8
SK2
62
256
6
ByLayer
370
-1
48
1
60
0
100
AcDbLine
10
-124.650602
20
39.6625
30
0
11
-121.650601
21
39.267543
31
0
39
0
210
0
220
0
230
1
0
LINE
5
176
100
AcDbEntity
8
SK2
62
256
6
ByLayer
370
-1
48
1
60
0
100
AcDbLine
10
-121.650603
20
40.057457
30
0
11
-121.650601
21
39.267543
31
0
39
0
210
0
220
0
230
1
0
LINE
5
177
100
AcDbEntity
8
SK2
62
256
6
ByLayer
370
-1
48
1
60
0
100
AcDbLine
10
26.699398
20
39.6625
30
0
11
23.699399
21
39.267543
31
0
39
0
210
0
220
0
230
1
0
LINE
5
178
100
AcDbEntity
8
SK2
62
256
6
ByLayer
370
-1
48
1
60
0
100
AcDbLine
10
26.699398
20
39.6625
30
0
11
23.699397
21
40.057457
31
0
39
0
210
0
220
0
230
1
0
LINE
5
179
100
AcDbEntity
8
SK2
62
256
6
ByLayer
370
-1
48
1
60
0
100
AcDbLine
10
23.699399
20
39.267543
30
0
11
23.699397
21
40.057457
31
0
39
0
210
0
220
0
230
1
0
LINE
5
17A
100
AcDbEntity
8
2
62
256
6
ByLayer
370
-1
48
1
60
0
100
AcDbLine
10
40.949398
20
19.9125
30
0
11
40.949398
21
-12.4375
31
0
39
0
210
0
220
0
230
1
0
LINE
5
17B
100
AcDbEntity
8
2
62
256
6
ByLayer
370
-1
48
1
60
0
100
AcDbLine
10
1.5
20
-12.4375
30
0
11
43.949398
21
-12.4375
31
0
39
0
210
0
220
0
230
1
0
LINE
5
17C
100
AcDbEntity
8
2
62
256
6
ByLayer
370
-1
48
1
60
0
100
AcDbLine
10
34.374398
20
19.9125
30
0
11
43.949398
21
19.9125
31
0
39
0
210
0
220
0
230
1
0
LINE
5
17D
100
AcDbEntity
8
2
62
256
6
ByLayer
370
-1
48
1
60
0
100
AcDbLine
10
40.949398
20
-12.4375
30
0
11
40.554441
21
-9.437501
31
0
39
0
210
0
220
0
230
1
0
LINE
5
17E
100
AcDbEntity
8
2
62
256
6
ByLayer
370
-1
48
1
60
0
100
AcDbLine
10
40.949398
20
-12.4375
30
0
11
41.344356
21
-9.437499
31
0
39
0
210
0
220
0
230
1
0
LINE
5
17F
100
AcDbEntity
8
2
62
256
6
ByLayer
370
-1
48
1
60
0
100
AcDbLine
10
40.554441
20
-9.437501
30
0
11
41.344356
21
-9.437499
31
0
39
0
210
0
220
0
230
1
0
LINE
5
180
100
AcDbEntity
8
2
62
256
6
ByLayer
370
-1
48
1
60
0
100
AcDbLine
10
40.949398
20
19.9125
30
0
11
41.344356
21
16.912501
31
0
39
0
210
0
220
0
230
1
0
LINE
5
181
100
AcDbEntity
8
2
62
256
6
ByLayer
370
-1
48
1
60
0
100
AcDbLine
10
40.949398
20
19.9125
30
0
11
40.554441
21
16.912499
31
0
39
0
210
0
220
0
230
1
0
LINE
5
182
100
AcDbEntity
8
2
62
256
6
ByLayer
370
-1
48
1
60
0
100
AcDbLine
10
41.344356
20
16.912501
30
0
11
40.554441
21
16.912499
31
0
39
0
210
0
220
0
230
1
0
MTEXT
5
2A7
100
AcDbEntity
8
SK6
62
256
6
ByLayer
370
-1
48
1
60
0
100
AcDbMText
10
-87.44139
20
-2.29858
30
0
210
0
220
0
230
1
1
\W00.754;\fsimplex.shx,bigfont.shx;266RFGZ2525-16 
40
3.5
41
0
44
1.084337
50
0
71
7
72
5
7
DEFAULT
0
MTEXT
5
2CD
100
AcDbEntity
8
2
62
256
6
ByLayer
370
-1
48
1
60
0
100
AcDbMText
10
11.845752
20
30.7875
30
0
210
0
220
0
230
1
1
\W00.656;\fsimplex.shx,bigfont.shx;27 
40
4.5
41
0
44
1.084337
50
0
71
7
72
5
7
DEFAULT
0
MTEXT
5
2CE
100
AcDbEntity
8
SK2
62
256
6
ByLayer
370
-1
48
1
60
0
100
AcDbMText
10
-51.006523
20
40.7875
30
0
210
0
220
0
230
1
1
\W00.573;\fsimplex.shx,bigfont.shx;151 
40
4.5
41
0
44
1.084337
50
0
71
7
72
5
7
DEFAULT
0
MTEXT
5
2CF
100
AcDbEntity
8
2
62
256
6
ByLayer
370
-1
48
1
60
0
100
AcDbMText
10
39.824398
20
2.233553
30
0
210
0
220
0
230
1
1
\W00.656;\fsimplex.shx,bigfont.shx;32 
40
4.5
41
0
44
1.084337
50
89.9999999999999
71
7
72
5
7
DEFAULT
0
DIMENSION
5
2DD
100
AcDbEntity
8
SK2
62
256
6
ByLayer
370
-3
48
1
60
0
100
AcDbDimension
2
DimnDraft3D1
10
-134.400602
20
-12.4375
30
0
11
-134.400602
21
-2.628947
31
0
70
32
71
5
72
1
41
1
210
0
220
0
230
1
3
Standard
100
AcDbAlignedDimension
13
-126.150602
23
12.4375
33
0
14
-126.150602
24
-12.4375
34
0
50
90
100
AcDbRotatedDimension
1001
ACAD
1000
DSTYLE
1002
{
1070
    74
1070
     0
1070
   279
1070
     0
1070
   172
1070
     1
1070
   173
1070
     1
1070
   340
1005
2A8
1070
   271
1070
     3
1070
   272
1070
     3
1070
    77
1070
     1
1070
    73
1070
     0
1070
   171
1070
     4
1070
   274
1070
     4
1070
   177
1070
     2
1070
   176
1070
     2
1070
   178
1070
     7
1070
    78
1070
     8
1070
    41
1041
3.0
1070
   147
1041
2.25
1070
    42
1041
1.5
1070
    44
1041
3.0
1070
   140
1041
4.5
1070
   343
1005
2DE
1070
   344
1005
2DE
1002
}
0
ENDSEC
0
SECTION
2
OBJECTS
0
DICTIONARY
5
314
330
0
100
AcDbDictionary
280
0
281
1
3
ACAD_GROUP
350
315
3
ACAD_MLINESTYLE
350
316
0
DICTIONARY
5
315
330
0
100
AcDbDictionary
280
0
281
1
0
DICTIONARY
5
316
330
0
100
AcDbDictionary
280
0
281
1
3
Standard
350
18
0
MLINESTYLE
5
18
330
316
100
AcDbMlineStyle
2
Standard
70
0
3

62
256
51
90
52
90
71
2
49
-0.5
62
256
6
ByLayer
49
0.5
62
256
6
ByLayer
0
RASTERVARIABLES
5
303
330

100
AcDbRasterVariables
90
0
70
1
71
1
72
1
0
ENDSEC
0
EOF
