0
SECTION
2
HEADER
9
$ACADVER
1
AC1015
9
$DWGCODEPAGE
3
ANSI_1252
9
$HANDSEED
5
313
9
$ANGBASE
50
0
9
$ANGDIR
70
0
9
$ATTMODE
70
1
9
$AUNITS
70
0
9
$AUPREC
70
0
9
$CECOLOR
62
256
9
$CELTSCALE
40
1
9
$CELTYPE
6
ByLayer
9
$CELWEIGHT
370
-1
9
$CLAYER
8
0
9
$CMLJUST
70
0
9
$CMLSCALE
40
1
9
$CMLSTYLE
2
Standard
9
$DIMSTYLE
2
Standard
9
$TEXTSIZE
40
0.2
9
$TEXTSTYLE
7
Standard
9
$LUNITS
70
2
9
$LUPREC
70
4
9
$EXTNAMES
290
1
9
$INSUNITS
70
4
9
$LTSCALE
40
1
9
$LWDISPLAY
290
0
9
$PDMODE
70
0
9
$PDSIZE
40
0
9
$PLINEGEN
70
0
0
ENDSEC
0
SECTION
2
CLASSES
0
CLASS
1
RASTERVARIABLES
2
AcDbRasterVariables
3
ISM
90
0
280
0
281
0
0
ENDSEC
0
SECTION
2
TABLES
0
TABLE
2
VPORT
5
309
100
AcDbSymbolTable
0
VPORT
5
1
100
AcDbSymbolTableRecord
100
AcDbViewportTableRecord
2
*Active
70
0
10
0
20
0
11
1
21
1
12
-1
22
1
13
0
23
0
14
0.5
24
0.5
15
10
25
10
16
0
26
0
36
1
17
0
27
0
37
0
0
ENDTAB
0
TABLE
2
LTYPE
5
30a
100
AcDbSymbolTable
0
LTYPE
5
14
100
AcDbSymbolTableRecord
100
AcDbLinetypeTableRecord
70
0
2
ByBlock
3

72
65
73
0
40
0
0
LTYPE
5
15
100
AcDbSymbolTableRecord
100
AcDbLinetypeTableRecord
70
0
2
ByLayer
3

72
65
73
0
40
0
0
LTYPE
5
16
100
AcDbSymbolTableRecord
100
AcDbLinetypeTableRecord
70
0
2
CONTINUOUS
3
Solid line
72
65
73
0
40
0
0
LTYPE
5
3B
100
AcDbSymbolTableRecord
100
AcDbLinetypeTableRecord
70
0
2
DASHED
3
__ __ __ __ __ __ __ __ __
72
65
73
2
40
25.72
49
12.86
74
0
49
-12.86
74
0
0
LTYPE
5
3C
100
AcDbSymbolTableRecord
100
AcDbLinetypeTableRecord
70
0
2
HIDDEN
3
_ _ _ _ _ _ _ _ _ _ _ _ _ _ _
72
65
73
2
40
0.5
49
0.25
74
0
49
-0.25
74
0
0
LTYPE
5
3D
100
AcDbSymbolTableRecord
100
AcDbLinetypeTableRecord
70
0
2
PHANTOM
3
____ _ _ ____ _ _ _____ _ _ ____
72
65
73
6
40
50.5
49
18
74
0
49
-6.5
74
0
49
6.5
74
0
49
-6.5
74
0
49
6.5
74
0
49
-6.5
74
0
0
LTYPE
5
3E
100
AcDbSymbolTableRecord
100
AcDbLinetypeTableRecord
70
0
2
CENTER
3
____ _ ____ _ ____ _ ____
72
65
73
4
40
47.5
49
22
74
0
49
-8.5
74
0
49
8.5
74
0
49
-8.5
74
0
0
LTYPE
5
3F
100
AcDbSymbolTableRecord
100
AcDbLinetypeTableRecord
70
0
2
DOT
3
.........................
72
65
73
2
40
10
49
0
74
0
49
-10
74
0
0
LTYPE
5
40
100
AcDbSymbolTableRecord
100
AcDbLinetypeTableRecord
70
0
2
DASHDOT
3
_._._._._._._._._._._._._._._._.
72
65
73
4
40
70
49
31
74
0
49
-13
74
0
49
13
74
0
49
-13
74
0
0
ENDTAB
0
TABLE
2
LAYER
5
30b
100
AcDbSymbolTable
0
LAYER
5
10
100
AcDbSymbolTableRecord
100
AcDbLayerTableRecord
2
0
70
0
62
7
6
CONTINUOUS
290
1
370
-3
390
0
0
LAYER
5
42
100
AcDbSymbolTableRecord
100
AcDbLayerTableRecord
2
80
70
0
62
-6
6
CONTINUOUS
290
1
370
-3
390
0
0
LAYER
5
44
100
AcDbSymbolTableRecord
100
AcDbLayerTableRecord
2
81
70
0
62
-3
6
CONTINUOUS
290
1
370
-3
390
0
0
LAYER
5
46
100
AcDbSymbolTableRecord
100
AcDbLayerTableRecord
2
2
70
0
62
7
6
CONTINUOUS
290
1
370
-3
390
0
0
LAYER
5
4A
100
AcDbSymbolTableRecord
100
AcDbLayerTableRecord
2
1
70
0
62
4
6
CONTINUOUS
290
1
370
-3
390
0
0
LAYER
5
2f6
100
AcDbSymbolTableRecord
100
AcDbLayerTableRecord
2
SK1
70
0
62
4
6
CONTINUOUS
290
1
370
-3
390
0
0
LAYER
5
2f7
100
AcDbSymbolTableRecord
100
AcDbLayerTableRecord
2
SK2
70
0
62
7
6
CONTINUOUS
290
1
370
-3
390
0
0
LAYER
5
2f8
100
AcDbSymbolTableRecord
100
AcDbLayerTableRecord
2
SK6
70
0
62
5
6
CONTINUOUS
290
1
370
-3
390
0
0
ENDTAB
0
TABLE
2
STYLE
5
30c
100
AcDbSymbolTable
0
STYLE
5
11
100
AcDbSymbolTableRecord
100
AcDbTextStyleTableRecord
2
Standard
3
txt
70
0
71
0
40
0
41
1
42
0
50
0
0
STYLE
5
29A
100
AcDbSymbolTableRecord
100
AcDbTextStyleTableRecord
2
DEFAULT
3
simplex.shx
70
0
71
0
40
0
41
1
42
0
50
0
0
STYLE
5
2BD
100
AcDbSymbolTableRecord
100
AcDbTextStyleTableRecord
2
DWGDirectTextStyle
3
SIMPLEX
70
0
71
0
40
0
41
1
42
0
50
0
0
ENDTAB
0
TABLE
2
DIMSTYLE
5
30d
100
AcDbSymbolTable
100
AcDbDimStyleTable
0
DIMSTYLE
105
27
100
AcDbSymbolTableRecord
100
AcDbDimStyleTableRecord
2
Standard
70
0
3
<>
41
0.18
42
0.0625
44
0.18
140
0.18
147
0.09
73
0
74
0
77
1
271
2
275
0
278
52
280
0
340
11
0
ENDTAB
0
TABLE
2
VIEW
5
30e
100
AcDbSymbolTable
0
ENDTAB
0
TABLE
2
UCS
5
30f
100
AcDbSymbolTable
0
ENDTAB
0
TABLE
2
APPID
5
310
100
AcDbSymbolTable
0
APPID
5
12
100
AcDbSymbolTableRecord
100
AcDbRegAppTableRecord
2
ACAD
70
0
0
ENDTAB
0
TABLE
2
BLOCK_RECORD
5
311
100
AcDbSymbolTable
0
BLOCK_RECORD
5
1F
100
AcDbSymbolTableRecord
100
AcDbBlockTableRecord
2
*Model_Space
340
0
70
0
0
BLOCK_RECORD
5
1B
100
AcDbSymbolTableRecord
100
AcDbBlockTableRecord
2
*Paper_Space
340
0
70
0
0
BLOCK_RECORD
5
23
100
AcDbSymbolTableRecord
100
AcDbBlockTableRecord
2
*Paper_Space0
340
0
70
0
0
BLOCK_RECORD
5
2C2
100
AcDbSymbolTableRecord
100
AcDbBlockTableRecord
2
DimnDraft3D1
340
0
70
0
0
BLOCK_RECORD
5
2D0
100
AcDbSymbolTableRecord
100
AcDbBlockTableRecord
2
_CLOSED
340
0
70
0
0
ENDTAB
0
ENDSEC
0
SECTION
2
BLOCKS
0
BLOCK
5
20
100
AcDbEntity
8
0
100
AcDbBlockBegin
2
*Model_Space
70
0
10
0
20
0
30
0
3
*Model_Space
0
ENDBLK
5
21
100
AcDbEntity
8
0
100
AcDbBlockEnd
0
BLOCK
5
1C
100
AcDbEntity
8
0
100
AcDbBlockBegin
2
*Paper_Space
70
0
10
0
20
0
30
0
3
*Paper_Space
0
ENDBLK
5
1D
100
AcDbEntity
8
0
100
AcDbBlockEnd
0
BLOCK
5
24
100
AcDbEntity
8
0
100
AcDbBlockBegin
2
*Paper_Space0
70
0
10
0
20
0
30
0
3
*Paper_Space0
0
ENDBLK
5
25
100
AcDbEntity
8
0
100
AcDbBlockEnd
0
BLOCK
5
2CD
100
AcDbEntity
8
0
100
AcDbBlockBegin
2
DimnDraft3D1
70
0
10
0
20
0
30
0
3
DimnDraft3D1
0
MTEXT
5
2C3
100
AcDbEntity
8
SK2
62
256
6
ByLayer
370
-1
48
1
60
0
100
AcDbMText
10
-135.525602
20
-1.503947
30
0
210
0
220
0
230
1
1
\W01.000;\fsimplex.shx,bigfont.shx;25 
40
4.5
41
0
44
1.084337
50
90
71
7
72
5
7
DEFAULT
0
LINE
5
2C4
100
AcDbEntity
8
SK2
62
256
6
ByLayer
370
-1
48
1
60
0
100
AcDbLine
10
-126.150602
20
12.4375
30
0
11
-137.400602
21
12.4375
31
0
39
0
210
0
220
0
230
1
0
LINE
5
2C5
100
AcDbEntity
8
SK2
62
256
6
ByLayer
370
-1
48
1
60
0
100
AcDbLine
10
-126.150602
20
-12.4375
30
0
11
-137.400602
21
-12.4375
31
0
39
0
210
0
220
0
230
1
0
LINE
5
2C6
100
AcDbEntity
8
SK2
62
256
6
ByLayer
370
-1
48
1
60
0
100
AcDbLine
10
-134.400602
20
12.4375
30
0
11
-134.400602
21
-12.4375
31
0
39
0
210
0
220
0
230
1
0
LINE
5
2C7
100
AcDbEntity
8
SK2
62
256
6
ByLayer
370
-1
48
1
60
0
100
AcDbLine
10
-134.400602
20
12.4375
30
0
11
-134.005644
21
9.437501
31
0
39
0
210
0
220
0
230
1
0
LINE
5
2C8
100
AcDbEntity
8
SK2
62
256
6
ByLayer
370
-1
48
1
60
0
100
AcDbLine
10
-134.400602
20
12.4375
30
0
11
-134.795559
21
9.437499
31
0
39
0
210
0
220
0
230
1
0
LINE
5
2C9
100
AcDbEntity
8
SK2
62
256
6
ByLayer
370
-1
48
1
60
0
100
AcDbLine
10
-134.005644
20
9.437501
30
0
11
-134.795559
21
9.437499
31
0
39
0
210
0
220
0
230
1
0
LINE
5
2CA
100
AcDbEntity
8
SK2
62
256
6
ByLayer
370
-1
48
1
60
0
100
AcDbLine
10
-134.400602
20
-12.4375
30
0
11
-134.795559
21
-9.437501
31
0
39
0
210
0
220
0
230
1
0
LINE
5
2CB
100
AcDbEntity
8
SK2
62
256
6
ByLayer
370
-1
48
1
60
0
100
AcDbLine
10
-134.400602
20
-12.4375
30
0
11
-134.005644
21
-9.437499
31
0
39
0
210
0
220
0
230
1
0
LINE
5
2CC
100
AcDbEntity
8
SK2
62
256
6
ByLayer
370
-1
48
1
60
0
100
AcDbLine
10
-134.795559
20
-9.437501
30
0
11
-134.005644
21
-9.437499
31
0
39
0
210
0
220
0
230
1
0
ENDBLK
5
2CE
100
AcDbEntity
8
0
100
AcDbBlockEnd
0
BLOCK
5
2D1
100
AcDbEntity
8
0
100
AcDbBlockBegin
2
_CLOSED
70
0
10
0
20
0
30
0
3
_CLOSED
0
LINE
5
2D3
100
AcDbEntity
8
0
62
256
6
ByLayer
370
-2
48
1
60
0
100
AcDbLine
10
-1
20
0.166667
30
0
11
0
21
0
31
0
39
0
210
0
220
0
230
1
0
LINE
5
2D4
100
AcDbEntity
8
0
62
256
6
ByLayer
370
-2
48
1
60
0
100
AcDbLine
10
0
20
0
30
0
11
-1
21
-0.166667
31
0
39
0
210
0
220
0
230
1
0
LINE
5
2D5
100
AcDbEntity
8
0
62
256
6
ByLayer
370
-2
48
1
60
0
100
AcDbLine
10
-1
20
0.166667
30
0
11
-1
21
-0.166667
31
0
39
0
210
0
220
0
230
1
0
LINE
5
2D6
100
AcDbEntity
8
0
62
256
6
ByLayer
370
-2
48
1
60
0
100
AcDbLine
10
0
20
0
30
0
11
-1
21
0
31
0
39
0
210
0
220
0
230
1
0
ENDBLK
5
2D2
100
AcDbEntity
8
0
100
AcDbBlockEnd
0
ENDSEC
0
SECTION
2
ENTITIES
0
ELLIPSE
5
177
100
AcDbEntity
8
1
62
256
6
ByLayer
370
-1
48
1
60
0
100
AcDbEllipse
10
16.912586
20
6.827306
30
0
11
-0.16254329486471
21
1.64197432297053
31
0
210
0
220
0
230
1
40
0.984662
41
-2.74088988484877
42
-1.40826551273561
0
ELLIPSE
5
178
100
AcDbEntity
8
1
62
256
6
ByLayer
370
-1
48
1
60
0
100
AcDbEllipse
10
18.173953
20
6.952173
30
0
11
0.162543294864706
21
-1.64197432297053
31
0
210
0
220
0
230
1
40
0.984662
41
-1.54406122909877
42
1.46466002425772
0
ELLIPSE
5
179
100
AcDbEntity
8
1
62
256
6
ByLayer
370
-1
48
1
60
0
100
AcDbEllipse
10
16.929948
20
6.829025
30
0
11
-0.16254329486471
21
1.64197432297053
31
0
210
0
220
0
230
1
40
0.984662
41
-1.89698289101564
42
-1.4082536186924
0
ELLIPSE
5
17A
100
AcDbEntity
8
1
62
256
6
ByLayer
370
-1
48
1
60
0
100
AcDbEllipse
10
16.129403
20
11.930967
30
0
11
-1.08030563101418
21
2.62885183704104
31
0
210
0
220
0
230
1
40
0.404754
41
1.59926189464508
42
1.88187489705274
0
ELLIPSE
5
17B
100
AcDbEntity
8
1
62
256
6
ByLayer
370
-1
48
1
60
0
100
AcDbEllipse
10
17.594322
20
8.120606
30
0
11
-0.197022175593589
21
1.99027190663094
31
0
210
0
220
0
230
1
40
0.984662
41
-2.47092466409964
42
-1.81584635951601
0
ELLIPSE
5
17C
100
AcDbEntity
8
1
62
256
6
ByLayer
370
-1
48
1
60
0
100
AcDbEllipse
10
17.172419
20
8.078841
30
0
11
-0.208520514880064
21
2.10642543902311
31
0
210
0
220
0
230
1
40
0.984662
41
-2.54289838283158
42
-1.88241829184334
0
ELLIPSE
5
17D
100
AcDbEntity
8
1
62
256
6
ByLayer
370
-1
48
1
60
0
100
AcDbEllipse
10
17.925662
20
7.652069
30
0
11
-0.163118636092517
21
1.64778628540055
31
0
210
0
220
0
230
1
40
0.984662
41
0.916196749458697
42
2.05108691089142
0
ELLIPSE
5
17E
100
AcDbEntity
8
1
62
256
6
ByLayer
370
-1
48
1
60
0
100
AcDbEllipse
10
12.664483
20
17.992249
30
0
11
-1.08030563166658
21
2.62885184019314
31
0
210
0
220
0
230
1
40
0.404754
41
1.88187489724844
42
2.1644878993553
0
ELLIPSE
5
17F
100
AcDbEntity
8
1
62
256
6
ByLayer
370
-1
48
1
60
0
100
AcDbEllipse
10
23.36557
20
7.466104
30
0
11
-4.60966553567398
21
-1.73358190538333
31
0
210
0
220
0
230
1
40
0.221124
41
-0.77322413224127
42
-0.361365533138938
0
ELLIPSE
5
180
100
AcDbEntity
8
1
62
256
6
ByLayer
370
-1
48
1
60
0
100
AcDbEllipse
10
17.351851
20
6.87079
30
0
11
0.162543294864706
21
-1.64197432297053
31
0
210
0
220
0
230
1
40
0.984662
41
1.03785883986455
42
1.35893418721623
0
ELLIPSE
5
181
100
AcDbEntity
8
1
62
256
6
ByLayer
370
-1
48
1
60
0
100
AcDbEllipse
10
19.869533
20
7.120169
30
0
11
-6.17455063501948
21
-2.17814747920328
31
0
210
0
220
0
230
1
40
0.084934
41
1.37126514953944
42
1.38620641857366
0
ELLIPSE
5
182
100
AcDbEntity
8
1
62
256
6
ByLayer
370
-1
48
1
60
0
100
AcDbEllipse
10
18.473684
20
15.139185
30
0
11
-0.268442714246291
21
2.71174547278495
31
0
210
0
220
0
230
1
40
0.984662
41
0
42
-3.14154120612597
0
ELLIPSE
5
183
100
AcDbEntity
8
1
62
256
6
ByLayer
370
-1
48
1
60
0
100
AcDbEllipse
10
17.691721
20
16.418844
30
0
11
-0.334789202943233
21
-0.198289421907536
31
0
210
0
220
0
230
1
40
0.494673
41
0.152897912345788
42
0.815285064497193
0
ELLIPSE
5
184
100
AcDbEntity
8
1
62
256
6
ByLayer
370
-1
48
1
60
0
100
AcDbEllipse
10
18.430365
20
13.651278
30
0
11
-0.388113116813994
21
0.000380450308006642
31
0
210
0
220
0
230
1
40
0.497203
41
2.27217074989546
42
-3.08247600625902
0
ELLIPSE
5
185
100
AcDbEntity
8
1
62
256
6
ByLayer
370
-1
48
1
60
0
100
AcDbEllipse
10
18.421511
20
16.61764
30
0
11
-0.388113116813995
21
0.000380450307984581
31
0
210
0
220
0
230
1
40
0.497203
41
3.08641908149606
42
-1.68583207080393
0
ELLIPSE
5
186
100
AcDbEntity
8
1
62
256
6
ByLayer
370
-1
48
1
60
0
100
AcDbEllipse
10
19.160154
20
13.850073
30
0
11
-0.334789202944048
21
-0.19828942190883
31
0
210
0
220
0
230
1
40
0.494673
41
-2.3263055931483
42
-1.57842127978859
0
ELLIPSE
5
187
100
AcDbEntity
8
1
62
256
6
ByLayer
370
-1
48
1
60
0
100
AcDbEllipse
10
19.152487
20
16.418844
30
0
11
-0.335790509925942
21
0.198599298570716
31
0
210
0
220
0
230
1
40
0.492091
41
1.58029449206153
42
2.55058598128284
0
ELLIPSE
5
188
100
AcDbEntity
8
1
62
256
6
ByLayer
370
-1
48
1
60
0
100
AcDbEllipse
10
19.693297
20
14.392868
30
0
11
-0.191488483430397
21
-0.342136907191937
31
0
210
0
220
0
230
1
40
0.487198
41
0.934133529178617
42
-3.09379216279874
0
ELLIPSE
5
189
100
AcDbEntity
8
1
62
256
6
ByLayer
370
-1
48
1
60
0
100
AcDbEllipse
10
19.688869
20
15.876049
30
0
11
-0.193857669878155
21
0.341952608842199
31
0
210
0
220
0
230
1
40
0.484716
41
3.09182378148288
42
-0.897947826113512
0
ELLIPSE
5
18A
100
AcDbEntity
8
1
62
256
6
ByLayer
370
-1
48
1
60
0
100
AcDbEllipse
10
18.425938
20
15.134459
30
0
11
0.127108856584171
21
-1.28402392056265
31
0
210
0
220
0
230
1
40
0.984662
41
-1.36444026834917
42
-0.767325323207791
0
ELLIPSE
5
18B
100
AcDbEntity
8
1
62
256
6
ByLayer
370
-1
48
1
60
0
100
AcDbEllipse
10
18.425938
20
15.134459
30
0
11
-0.127108856584204
21
1.28402392056295
31
0
210
0
220
0
230
1
40
0.984662
41
0.533818252293986
42
1.13559682605495
0
ELLIPSE
5
18C
100
AcDbEntity
8
1
62
256
6
ByLayer
370
-1
48
1
60
0
100
AcDbEllipse
10
18.425938
20
15.134459
30
0
11
-0.127108856584204
21
1.28402392056295
31
0
210
0
220
0
230
1
40
0.984662
41
-0.620766087096267
42
0.107609258492475
0
ELLIPSE
5
18D
100
AcDbEntity
8
1
62
256
6
ByLayer
370
-1
48
1
60
0
100
AcDbEllipse
10
18.425938
20
15.134459
30
0
11
-0.127108856584204
21
1.28402392056295
31
0
210
0
220
0
230
1
40
0.984662
41
2.89058537899368
42
-2.71516118948916
0
ELLIPSE
5
18E
100
AcDbEntity
8
1
62
256
6
ByLayer
370
-1
48
1
60
0
100
AcDbEllipse
10
11.630707
20
18.946077
30
0
11
-3.09999952421012
21
0.00171752643496112
31
0
210
0
220
0
230
1
40
0.053315
41
1.30960334009263
42
1.42329373851754
0
ELLIPSE
5
18F
100
AcDbEntity
8
1
62
256
6
ByLayer
370
-1
48
1
60
0
100
AcDbEllipse
10
11.393897
20
19.009639
30
0
11
0.0180802375823416
21
-0.199181085971952
31
0
210
0
220
0
230
1
40
0.984685
41
3.14158796552841
42
-2.70713969510994
0
ELLIPSE
5
190
100
AcDbEntity
8
1
62
256
6
ByLayer
370
-1
48
1
60
0
100
AcDbEllipse
10
18.482403
20
15.135469
30
0
11
-0.272104028280549
21
2.9976362646461
31
0
210
0
220
0
230
1
40
0.984685
41
-0.0919249144870147
42
0
0
ELLIPSE
5
191
100
AcDbEntity
8
1
62
256
6
ByLayer
370
-1
48
1
60
0
100
AcDbEllipse
10
18.482403
20
15.135469
30
0
11
-0.272104028280549
21
2.9976362646461
31
0
210
0
220
0
230
1
40
0.984685
41
0
42
0.378891176427946
0
ELLIPSE
5
192
100
AcDbEntity
8
1
62
256
6
ByLayer
370
-1
48
1
60
0
100
AcDbEllipse
10
18.482403
20
15.135469
30
0
11
-0.272104028280549
21
2.9976362646461
31
0
210
0
220
0
230
1
40
0.984685
41
2.76257471391442
42
-0.0919249144870165
0
ELLIPSE
5
193
100
AcDbEntity
8
1
62
256
6
ByLayer
370
-1
48
1
60
0
100
AcDbEllipse
10
15.003271
20
19.644724
30
0
11
0.0180802375823416
21
-0.199181085971952
31
0
210
0
220
0
230
1
40
0.984685
41
-3.14158718612355
42
-2.7071396951098
0
ELLIPSE
5
194
100
AcDbEntity
8
1
62
256
6
ByLayer
370
-1
48
1
60
0
100
AcDbEllipse
10
13.154722
20
19.276368
30
0
11
-0.0117521544285259
21
0.129467705881769
31
0
210
0
220
0
230
1
40
0.984685
41
-1.01564220383723E-05
42
0.434452958480167
0
ELLIPSE
5
195
100
AcDbEntity
8
1
62
256
6
ByLayer
370
-1
48
1
60
0
100
AcDbEllipse
10
17.843526
20
7.393909
30
0
11
0.0180802375823416
21
-0.199181085971952
31
0
210
0
220
0
230
1
40
0.984685
41
-0.612744592716624
42
-1.19043037694559E-05
0
ELLIPSE
5
196
100
AcDbEntity
8
1
62
256
6
ByLayer
370
-1
48
1
60
0
100
AcDbEllipse
10
17.285074
20
8.48538
30
0
11
0.0117521544285219
21
-0.129467705881769
31
0
210
0
220
0
230
1
40
0.984685
41
-0.612744592716288
42
-1.07325118114714E-05
0
ELLIPSE
5
197
100
AcDbEntity
8
1
62
256
6
ByLayer
370
-1
48
1
60
0
100
AcDbEllipse
10
18.438737
20
15.131505
30
0
11
-0.264066187850115
21
2.90908732946141
31
0
210
0
220
0
230
1
40
0.984685
41
-0.091924741853268
42
0
0
ELLIPSE
5
198
100
AcDbEntity
8
1
62
256
6
ByLayer
370
-1
48
1
60
0
100
AcDbEllipse
10
18.438737
20
15.131505
30
0
11
-0.264066187850115
21
2.90908732946141
31
0
210
0
220
0
230
1
40
0.984685
41
0
42
0.77011756199547
0
ELLIPSE
5
199
100
AcDbEntity
8
1
62
256
6
ByLayer
370
-1
48
1
60
0
100
AcDbEllipse
10
18.438737
20
15.131505
30
0
11
-0.264066187850115
21
2.90908732946141
31
0
210
0
220
0
230
1
40
0.984685
41
2.37134805682969
42
-2.21606450544834
0
ELLIPSE
5
19A
100
AcDbEntity
8
1
62
256
6
ByLayer
370
-1
48
1
60
0
100
AcDbEllipse
10
18.438737
20
15.131505
30
0
11
-0.264066187850115
21
2.90908732946141
31
0
210
0
220
0
230
1
40
0.984685
41
-0.880494727721679
42
-0.0919247418532611
0
ELLIPSE
5
19B
100
AcDbEntity
8
1
62
256
6
ByLayer
370
-1
48
1
60
0
100
AcDbEllipse
10
19.36076
20
8.285391
30
0
11
-0.138398498626081
21
0.213648907270893
31
0
210
0
220
0
230
1
40
0.952315
41
-1.92630059604858
42
-1.6213633310675
0
ELLIPSE
5
19C
100
AcDbEntity
8
1
62
256
6
ByLayer
370
-1
48
1
60
0
100
AcDbEllipse
10
14.361511
20
19.321006
30
0
11
-0.161057566527313
21
0.0288747063854638
31
0
210
0
220
0
230
1
40
0.77681
41
2.00013870724
42
2.34494699830517
0
ELLIPSE
5
19D
100
AcDbEntity
8
1
62
256
6
ByLayer
370
-1
48
1
60
0
100
AcDbEllipse
10
23.992248
20
18.544077
30
0
11
-0.165766666325404
21
0.285344374984618
31
0
210
0
220
0
230
1
40
0.007779
41
1.58422822348678
42
1.93329407388798
0
ELLIPSE
5
19E
100
AcDbEntity
8
1
62
256
6
ByLayer
370
-1
48
1
60
0
100
AcDbEllipse
10
24.504221
20
17.210304
30
0
11
-0.132004968945697
21
-0.000359883301175257
31
0
210
0
220
0
230
1
40
0.984689
41
2.10105994445278
42
-3.14158196906361
0
ELLIPSE
5
19F
100
AcDbEntity
8
1
62
256
6
ByLayer
370
-1
48
1
60
0
100
AcDbEllipse
10
21.859205
20
19.910893
30
0
11
-0.176125829998007
21
-0.00034964282000836
31
0
210
0
220
0
230
1
40
0.013275
41
-2.75421869629629
42
-1.71923844998796
0
ELLIPSE
5
1A0
100
AcDbEntity
8
1
62
256
6
ByLayer
370
-1
48
1
60
0
100
AcDbEllipse
10
23.806864
20
19.703004
30
0
11
-0.20308456756709
21
-0.000553666038925138
31
0
210
0
220
0
230
1
40
0.984689
41
-2.10103857259569
42
-1.57078563936874
0
ELLIPSE
5
1A1
100
AcDbEntity
8
1
62
256
6
ByLayer
370
-1
48
1
60
0
100
AcDbEllipse
10
18.794774
20
19.035537
30
0
11
0.135500750613123
21
-0.0643393082281762
31
0
210
0
220
0
230
1
40
0.089727
41
1.42014369360298
42
2.12893318312727
0
ELLIPSE
5
1A2
100
AcDbEntity
8
1
62
256
6
ByLayer
370
-1
48
1
60
0
100
AcDbEllipse
10
13.817589
20
19.336538
30
0
11
-0.0393851345006912
21
-0.124684027152778
31
0
210
0
220
0
230
1
40
0.960533
41
2.91784637256841
42
-2.32479554095398
0
ELLIPSE
5
1A3
100
AcDbEntity
8
1
62
256
6
ByLayer
370
-1
48
1
60
0
100
AcDbEllipse
10
25.156998
20
18.920159
30
0
11
-1.20875910904107
21
0.275308264475613
31
0
210
0
220
0
230
1
40
0.044146
41
-1.627518934999
42
-1.4599232535782
0
ELLIPSE
5
1A4
100
AcDbEntity
8
1
62
256
6
ByLayer
370
-1
48
1
60
0
100
AcDbEllipse
10
17.662361
20
19.910893
30
0
11
-0.150100272380615
21
-0.00041029303871981
31
0
210
0
220
0
230
1
40
0.015511
41
-2.45402146326845
42
-1.74523197450597
0
ELLIPSE
5
1A5
100
AcDbEntity
8
1
62
256
6
ByLayer
370
-1
48
1
60
0
100
AcDbEllipse
10
12.297791
20
17.872931
30
0
11
0.118305764501749
21
0.225396863522226
31
0
210
0
220
0
230
1
40
0.956983
41
-2.9891457889723
42
-2.68420852399132
0
ELLIPSE
5
1A6
100
AcDbEntity
8
1
62
256
6
ByLayer
370
-1
48
1
60
0
100
AcDbEllipse
10
16.222472
20
10.332521
30
0
11
0.0180802375823416
21
-0.199181085971952
31
0
210
0
220
0
230
1
40
0.984685
41
-1.13634336831491
42
-0.612744592716628
0
ELLIPSE
5
1A7
100
AcDbEntity
8
1
62
256
6
ByLayer
370
-1
48
1
60
0
100
AcDbEllipse
10
12.373426
20
18.563634
30
0
11
-0.32985002043205
21
0.00994806619280051
31
0
210
0
220
0
230
1
40
0.131594
41
-1.30688997975205
42
-0.957824129353186
0
ELLIPSE
5
1A8
100
AcDbEntity
8
1
62
256
6
ByLayer
370
-1
48
1
60
0
100
AcDbEllipse
10
24.502379
20
17.883282
30
0
11
-0.132004968952602
21
-0.000359883488506953
31
0
210
0
220
0
230
1
40
0.984689
41
-3.14158197045699
42
-2.18886229357351
0
ELLIPSE
5
1A9
100
AcDbEntity
8
1
62
256
6
ByLayer
370
-1
48
1
60
0
100
AcDbEllipse
10
23.696465
20
18.769823
30
0
11
-0.491325860450308
21
-0.830376881112492
31
0
210
0
220
0
230
1
40
0.342013
41
-3.13698302547812
42
-2.31470180314527
0
ELLIPSE
5
1AA
100
AcDbEntity
8
1
62
256
6
ByLayer
370
-1
48
1
60
0
100
AcDbEllipse
10
18.794653
20
8.683011
30
0
11
-0.02082150685074
21
-0.329342473502074
31
0
210
0
220
0
230
1
40
0.570502
41
-2.20304709528556
42
-1.38076587295059
0
ELLIPSE
5
1AB
100
AcDbEntity
8
1
62
256
6
ByLayer
370
-1
48
1
60
0
100
AcDbEllipse
10
24.610221
20
18.184268
30
0
11
-0.132004968937705
21
-0.000359883440388863
31
0
210
0
220
0
230
1
40
0.984689
41
-1.04053271020841
42
1.06834894598877E-05
0
ELLIPSE
5
1AC
100
AcDbEntity
8
1
62
256
6
ByLayer
370
-1
48
1
60
0
100
AcDbEllipse
10
19.414538
20
8.320227
30
0
11
0.168459357975664
21
-0.283763008002148
31
0
210
0
220
0
230
1
40
0.304906
41
-1.55887814206456
42
-1.20981229166563
0
ELLIPSE
5
1AD
100
AcDbEntity
8
1
62
256
6
ByLayer
370
-1
48
1
60
0
100
AcDbEllipse
10
23.991339
20
19.266437
30
0
11
-0.254558441227157
21
3.11733884545897E-17
31
0
210
0
220
0
230
1
40
0.99988
41
-0.839157347883483
42
-0.534219985807087
0
ELLIPSE
5
1AE
100
AcDbEntity
8
1
62
256
6
ByLayer
370
-1
48
1
60
0
100
AcDbEllipse
10
23.099968
20
19.184407
30
0
11
0.272189295186314
21
0.168264635577348
31
0
210
0
220
0
230
1
40
0.078857
41
1.72740842256113
42
2.76238866899378
0
ELLIPSE
5
1AF
100
AcDbEntity
8
1
62
256
6
ByLayer
370
-1
48
1
60
0
100
AcDbEllipse
10
23.695737
20
19.035765
30
0
11
-0.495864210031247
21
0.827675111854534
31
0
210
0
220
0
230
1
40
0.342013
41
2.31470168143885
42
3.13698290375879
0
ELLIPSE
5
1B0
100
AcDbEntity
8
1
62
256
6
ByLayer
370
-1
48
1
60
0
100
AcDbEllipse
10
19.816645
20
8.221714
30
0
11
-0.0823724031324232
21
0.183198314591403
31
0
210
0
220
0
230
1
40
0.958693
41
-3.03303518420328
42
-2.50278225110485
0
ELLIPSE
5
1B1
100
AcDbEntity
8
1
62
256
6
ByLayer
370
-1
48
1
60
0
100
AcDbEllipse
10
17.94794
20
8.54555
30
0
11
-0.0535420619917878
21
0.119078904491852
31
0
210
0
220
0
230
1
40
0.958693
41
2.20960672963511
42
-3.12085890062709
0
ELLIPSE
5
1B2
100
AcDbEntity
8
1
62
256
6
ByLayer
370
-1
48
1
60
0
100
AcDbEllipse
10
19.070757
20
8.784163
30
0
11
-0.485450528806167
21
0.833793599905198
31
0
210
0
220
0
230
1
40
0.325762
41
-3.13882244233613
42
-2.31654121998773
0
ELLIPSE
5
1B3
100
AcDbEntity
8
1
62
256
6
ByLayer
370
-1
48
1
60
0
100
AcDbEllipse
10
12.46764
20
16.358894
30
0
11
-0.189809549105463
21
0.325785750360256
31
0
210
0
220
0
230
1
40
0.134321
41
1.50813151131124
42
2.54311175778793
0
ELLIPSE
5
1B4
100
AcDbEntity
8
1
62
256
6
ByLayer
370
-1
48
1
60
0
100
AcDbEllipse
10
19.297963
20
8.651191
30
0
11
-0.931731499539827
21
0.000583048784721314
31
0
210
0
220
0
230
1
40
0.349309
41
-0.809560664676271
42
0.0127205576558881
0
ELLIPSE
5
1B5
100
AcDbEntity
8
1
62
256
6
ByLayer
370
-1
48
1
60
0
100
AcDbEllipse
10
12.351741
20
17.844613
30
0
11
0.0155171404431576
21
-0.329634977440907
31
0
210
0
220
0
230
1
40
0.571905
41
-1.72306273859039
42
-0.900781516255145
0
ELLIPSE
5
1B6
100
AcDbEntity
8
1
62
256
6
ByLayer
370
-1
48
1
60
0
100
AcDbEllipse
10
18.378606
20
18.527089
30
0
11
0.0367863585044564
21
0.145419269108264
31
0
210
0
220
0
230
1
40
0.164735
41
-1.51290410519039
42
-1.33837117999089
0
ELLIPSE
5
1B7
100
AcDbEntity
8
1
62
256
6
ByLayer
370
-1
48
1
60
0
100
AcDbEllipse
10
18.743909
20
7.61871
30
0
11
-0.748650455641375
21
-0.86826344423376
31
0
210
0
220
0
230
1
40
0.006448
41
-1.45645609865906
42
-1.28886030497252
0
ELLIPSE
5
1B8
100
AcDbEntity
8
1
62
256
6
ByLayer
370
-1
48
1
60
0
100
AcDbEllipse
10
18.657341
20
15.151349
30
0
11
-0.278473250631773
21
3.06780285504269
31
0
210
0
220
0
230
1
40
0.984685
41
0
42
6.28318530717959
0
ELLIPSE
5
1B9
100
AcDbEntity
8
1
62
256
6
ByLayer
370
-1
48
1
60
0
100
AcDbEllipse
10
22.794754
20
17.534471
30
0
11
-2.44476096710086
21
-1.42021439881513
31
0
210
0
220
0
230
1
40
0.300609
41
-3.13729904528746
42
-2.96970336972318
0
ELLIPSE
5
1BA
100
AcDbEntity
8
1
62
256
6
ByLayer
370
-1
48
1
60
0
100
AcDbEllipse
10
15.876792
20
13.245877
30
0
11
-0.144249644291543
21
-0.0411344152962373
31
0
210
0
220
0
230
1
40
0.032944
41
1.56840483871227
42
1.74293776391126
0
ELLIPSE
5
1BB
100
AcDbEntity
8
1
62
256
6
ByLayer
370
-1
48
1
60
0
100
AcDbEllipse
10
17.372987
20
8.882039
30
0
11
-0.0535420619946328
21
0.119078904488095
31
0
210
0
220
0
230
1
40
0.958693
41
1.16906333592855
42
2.20960672960903
0
ELLIPSE
5
1BC
100
AcDbEntity
8
1
62
256
6
ByLayer
370
-1
48
1
60
0
100
AcDbEllipse
10
19.202319
20
8.685218
30
0
11
-0.285282473313296
21
-0.165873175710386
31
0
210
0
220
0
230
1
40
0.015422
41
1.26110651584099
42
2.14212784185034
0
ELLIPSE
5
1BD
100
AcDbEntity
8
1
62
256
6
ByLayer
370
-1
48
1
60
0
100
AcDbEllipse
10
23.993325
20
18.540868
30
0
11
-0.254558441227157
21
3.11733884545897E-17
31
0
210
0
220
0
230
1
40
0.99988
41
0.53969407310818
42
0.844631240838872
0
ELLIPSE
5
1BE
100
AcDbEntity
8
1
62
256
6
ByLayer
370
-1
48
1
60
0
100
AcDbEllipse
10
22.067022
20
14.125832
30
0
11
0.108836897204719
21
-0.103220781855446
31
0
210
0
220
0
230
1
40
0.131791
41
1.28087309252979
42
1.45540601772885
0
ELLIPSE
5
1BF
100
AcDbEntity
8
1
62
256
6
ByLayer
370
-1
48
1
60
0
100
AcDbEllipse
10
23.992248
20
18.544077
30
0
11
0.282591938850261
21
0.170416537040424
31
0
210
0
220
0
230
1
40
0.354474
41
-2.40615661817255
42
-1.58387539583767
0
ELLIPSE
5
1C0
100
AcDbEntity
8
1
62
256
6
ByLayer
370
-1
48
1
60
0
100
AcDbEllipse
10
24.159778
20
16.189427
30
0
11
-0.000561880950373613
21
0.283036697897406
31
0
210
0
220
0
230
1
40
0.092036
41
-1.56262635402694
42
-0.527646107683178
0
ELLIPSE
5
1C1
100
AcDbEntity
8
1
62
256
6
ByLayer
370
-1
48
1
60
0
100
AcDbEllipse
10
18.426956
20
10.169949
30
0
11
-0.111418399449945
21
2.78797895430802
31
0
210
0
220
0
230
1
40
0.293981
41
3.13168124239639
42
-2.98390838997814
0
ELLIPSE
5
1C2
100
AcDbEntity
8
1
62
256
6
ByLayer
370
-1
48
1
60
0
100
AcDbEllipse
10
24.97916
20
18.91058
30
0
11
0.00183525231900484
21
-0.329994896701336
31
0
210
0
220
0
230
1
40
0.179002
41
1.25431002652259
42
1.85572942283346
0
ELLIPSE
5
1C3
100
AcDbEntity
8
1
62
256
6
ByLayer
370
-1
48
1
60
0
100
AcDbEllipse
10
12.008828
20
17.498494
30
0
11
-0.0605925156281733
21
-0.191821580028562
31
0
210
0
220
0
230
1
40
0.960533
41
-1.28425214205221
42
-0.753999209165547
0
ELLIPSE
5
1C4
100
AcDbEntity
8
1
62
256
6
ByLayer
370
-1
48
1
60
0
100
AcDbEllipse
10
16.71012
20
8.821869
30
0
11
-0.0117521544285259
21
0.129467705881769
31
0
210
0
220
0
230
1
40
0.984685
41
1.48830466720292
42
2.52884806087352
0
ELLIPSE
5
1C5
100
AcDbEntity
8
1
62
256
6
ByLayer
370
-1
48
1
60
0
100
AcDbEllipse
10
23.991005
20
15.408243
30
0
11
0.0180802375823416
21
-0.199181085971952
31
0
210
0
220
0
230
1
40
0.984685
41
0.958051734078345
42
1.48165050967664
0
ELLIPSE
5
1C6
100
AcDbEntity
8
1
62
256
6
ByLayer
370
-1
48
1
60
0
100
AcDbEllipse
10
17.489524
20
8.242369
30
0
11
-0.0117521544285259
21
0.129467705881768
31
0
210
0
220
0
230
1
40
0.984685
41
-1.6532879863869
42
-0.61274459271674
0
ELLIPSE
5
1C7
100
AcDbEntity
8
1
62
256
6
ByLayer
370
-1
48
1
60
0
100
AcDbEllipse
10
12.244516
20
16.74939
30
0
11
-0.162018972073839
21
0.275952627615931
31
0
210
0
220
0
230
1
40
0.158144
41
1.32187722636306
42
1.49641015156247
0
ELLIPSE
5
1C8
100
AcDbEntity
8
1
62
256
6
ByLayer
370
-1
48
1
60
0
100
AcDbEllipse
10
19.773417
20
9.1377
30
0
11
0.0113395985135239
21
-0.319799020488731
31
0
210
0
220
0
230
1
40
0.174084
41
-2.59617841502439
42
-1.56119816859218
0
ELLIPSE
5
1C9
100
AcDbEntity
8
1
62
256
6
ByLayer
370
-1
48
1
60
0
100
AcDbEllipse
10
13.244477
20
19.00005
30
0
11
-0.0393851345460955
21
-0.124684027129832
31
0
210
0
220
0
230
1
40
0.960533
41
-2.32479554058061
42
-1.37207586362211
0
ELLIPSE
5
1CA
100
AcDbEntity
8
1
62
256
6
ByLayer
370
-1
48
1
60
0
100
AcDbEllipse
10
16.76784
20
9.765199
30
0
11
-0.243081776514445
21
0.140924866148986
31
0
210
0
220
0
230
1
40
0.053924
41
-2.68181905540397
42
-1.64683880921887
0
ELLIPSE
5
1CB
100
AcDbEntity
8
1
62
256
6
ByLayer
370
-1
48
1
60
0
100
AcDbEllipse
10
12.854899
20
17.868299
30
0
11
-0.931737083211541
21
0.00318186459539198
31
0
210
0
220
0
230
1
40
0.351013
41
-0.00938637575947656
42
0.812894846563469
0
ELLIPSE
5
1CC
100
AcDbEntity
8
1
62
256
6
ByLayer
370
-1
48
1
60
0
100
AcDbEllipse
10
19.414538
20
8.320227
30
0
11
0.265139820720223
21
0.19647105503979
31
0
210
0
220
0
230
1
40
0.340178
41
-1.89623830500416
42
-1.07395708266914
0
ELLIPSE
5
1CD
100
AcDbEntity
8
1
62
256
6
ByLayer
370
-1
48
1
60
0
100
AcDbEllipse
10
22.653882
20
19.906007
30
0
11
-0.375735103983676
21
-0.000745904682488168
31
0
210
0
220
0
230
1
40
0.013275
41
0.387373957271218
42
1.42235420361851
0
ELLIPSE
5
1CE
100
AcDbEntity
8
1
62
256
6
ByLayer
370
-1
48
1
60
0
100
AcDbEllipse
10
12.987948
20
18.971563
30
0
11
-0.0393851344792919
21
-0.124684027161992
31
0
210
0
220
0
230
1
40
0.960533
41
0.816797112484931
42
1.76951678936705
0
ELLIPSE
5
1CF
100
AcDbEntity
8
1
62
256
6
ByLayer
370
-1
48
1
60
0
100
AcDbEllipse
10
21.638494
20
13.673988
30
0
11
0.108836897204719
21
-0.103220781855446
31
0
210
0
220
0
230
1
40
0.131791
41
1.28087309252949
42
1.45540601772888
0
ELLIPSE
5
1D0
100
AcDbEntity
8
1
62
256
6
ByLayer
370
-1
48
1
60
0
100
AcDbEllipse
10
23.992248
20
18.544077
30
0
11
-0.283086776769785
21
-0.169593268787691
31
0
210
0
220
0
230
1
40
0.013326
41
0.681816525919486
42
1.56283785193291
0
ELLIPSE
5
1D1
100
AcDbEntity
8
1
62
256
6
ByLayer
370
-1
48
1
60
0
100
AcDbEllipse
10
12.969639
20
18.207398
30
0
11
0.286191286725686
21
-0.164300174687358
31
0
210
0
220
0
230
1
40
0.011457
41
-1.86495659313816
42
-0.983935267129202
0
ELLIPSE
5
1D2
100
AcDbEntity
8
1
62
256
6
ByLayer
370
-1
48
1
60
0
100
AcDbEllipse
10
12.373426
20
18.563634
30
0
11
-0.295887399852021
21
-0.14611860459507
31
0
210
0
220
0
230
1
40
0.410668
41
-1.69717966239789
42
-1.09576026608709
0
ELLIPSE
5
1D3
100
AcDbEntity
8
1
62
256
6
ByLayer
370
-1
48
1
60
0
100
AcDbEllipse
10
18.155667
20
8.302837
30
0
11
-0.0535420620111504
21
0.119078904477686
31
0
210
0
220
0
230
1
40
0.958693
41
-1.97252931782433
42
-0.931985924121146
0
ELLIPSE
5
1D4
100
AcDbEntity
8
1
62
256
6
ByLayer
370
-1
48
1
60
0
100
AcDbEllipse
10
15.23401
20
13.358803
30
0
11
-0.0109765333732292
21
0.1495978466259
31
0
210
0
220
0
230
1
40
0.174315
41
-2.27657293682743
42
-1.56778344730412
0
ELLIPSE
5
1D5
100
AcDbEntity
8
1
62
256
6
ByLayer
370
-1
48
1
60
0
100
AcDbEllipse
10
12.947757
20
15.617713
30
0
11
-0.0889732261468193
21
0.152712070489386
31
0
210
0
220
0
230
1
40
0.134321
41
-1.63346114223657
42
-0.598480895805996
0
ELLIPSE
5
1D6
100
AcDbEntity
8
1
62
256
6
ByLayer
370
-1
48
1
60
0
100
AcDbEllipse
10
17.777896
20
18.679049
30
0
11
0.0367863585044564
21
0.145419269108264
31
0
210
0
220
0
230
1
40
0.164735
41
-1.51290410519046
42
-1.33837117999089
0
ELLIPSE
5
1D7
100
AcDbEntity
8
1
62
256
6
ByLayer
370
-1
48
1
60
0
100
AcDbEllipse
10
19.773417
20
9.1377
30
0
11
0.00572482928562402
21
0.319948787042005
31
0
210
0
220
0
230
1
40
0.256832
41
0.556928889643841
42
1.74207351478786
0
ELLIPSE
5
1D8
100
AcDbEntity
8
1
62
256
6
ByLayer
370
-1
48
1
60
0
100
AcDbEllipse
10
23.775264
20
18.90627
30
0
11
0.283086776769786
21
0.169593268787689
31
0
210
0
220
0
230
1
40
0.013326
41
-2.45977612766818
42
-1.57875480165697
0
ELLIPSE
5
1D9
100
AcDbEntity
8
1
62
256
6
ByLayer
370
-1
48
1
60
0
100
AcDbEllipse
10
12.295098
20
18.935508
30
0
11
-0.289730894781953
21
1.14560443523327
31
0
210
0
220
0
230
1
40
0.218276
41
1.37589550958872
42
1.54349118492896
0
ELLIPSE
5
1DA
100
AcDbEntity
8
1
62
256
6
ByLayer
370
-1
48
1
60
0
100
AcDbEllipse
10
12.373426
20
18.563634
30
0
11
-0.169262396137934
21
-0.283284735299389
31
0
210
0
220
0
230
1
40
0.289738
41
-1.90384570816408
42
-1.55477985776529
0
ELLIPSE
5
1DB
100
AcDbEntity
8
1
62
256
6
ByLayer
370
-1
48
1
60
0
100
AcDbEllipse
10
23.775264
20
18.90627
30
0
11
0.284010899060889
21
-0.168041093827152
31
0
210
0
220
0
230
1
40
0.013348
41
-2.44389568253505
42
-1.56287435652419
0
ELLIPSE
5
1DC
100
AcDbEntity
8
1
62
256
6
ByLayer
370
-1
48
1
60
0
100
AcDbEllipse
10
18.794653
20
8.683011
30
0
11
0.329788829487308
21
0.0118037259113892
31
0
210
0
220
0
230
1
40
0.162283
41
-2.18480282662807
42
-1.83573697622921
0
ELLIPSE
5
1DD
100
AcDbEntity
8
1
62
256
6
ByLayer
370
-1
48
1
60
0
100
AcDbEllipse
10
23.099968
20
19.184407
30
0
11
-0.278191912985564
21
-0.15814316156392
31
0
210
0
220
0
230
1
40
0.013504
41
0.377999582704297
42
1.56314420785059
0
ELLIPSE
5
1DE
100
AcDbEntity
8
1
62
256
6
ByLayer
370
-1
48
1
60
0
100
AcDbEllipse
10
23.990262
20
19.269646
30
0
11
-0.284491903543768
21
0.167225467013979
31
0
210
0
220
0
230
1
40
0.329409
41
-1.57461717098191
42
-0.752335948646972
0
ELLIPSE
5
1DF
100
AcDbEntity
8
1
62
256
6
ByLayer
370
-1
48
1
60
0
100
AcDbEllipse
10
12.859035
20
17.11019
30
0
11
0.273970542679925
21
-0.165348546239958
31
0
210
0
220
0
230
1
40
0.018074
41
-1.86463385082604
42
-0.679489225680882
0
ELLIPSE
5
1E0
100
AcDbEntity
8
1
62
256
6
ByLayer
370
-1
48
1
60
0
100
AcDbEllipse
10
16.048974
20
12.642073
30
0
11
-0.144249644291543
21
-0.0411344152962373
31
0
210
0
220
0
230
1
40
0.032944
41
1.56840483871208
42
1.74293776391134
0
ELLIPSE
5
1E1
100
AcDbEntity
8
1
62
256
6
ByLayer
370
-1
48
1
60
0
100
AcDbEllipse
10
12.915689
20
18.235715
30
0
11
0.118305764501749
21
0.225396863522226
31
0
210
0
220
0
230
1
40
0.956983
41
-1.6102944638862
42
-1.3053571989051
0
ELLIPSE
5
1E2
100
AcDbEntity
8
1
62
256
6
ByLayer
370
-1
48
1
60
0
100
AcDbEllipse
10
12.859035
20
17.11019
30
0
11
-0.283797838351281
21
0.14784717429542
31
0
210
0
220
0
230
1
40
0.095227
41
1.42356277204919
42
2.45854301848202
0
ELLIPSE
5
1E3
100
AcDbEntity
8
1
62
256
6
ByLayer
370
-1
48
1
60
0
100
AcDbEllipse
10
12.351741
20
17.844613
30
0
11
0.00274347164032986
21
0.329988595808035
31
0
210
0
220
0
230
1
40
0.26032
41
1.43770026579281
42
2.31872159180243
0
ELLIPSE
5
1E4
100
AcDbEntity
8
1
62
256
6
ByLayer
370
-1
48
1
60
0
100
AcDbEllipse
10
24.36851
20
16.952897
30
0
11
-0.276792282432072
21
-0.160605130376163
31
0
210
0
220
0
230
1
40
0.074719
41
-1.56380547503945
42
-0.767263538769399
0
ELLIPSE
5
1E5
100
AcDbEntity
8
1
62
256
6
ByLayer
370
-1
48
1
60
0
100
AcDbEllipse
10
24.619692
20
18.908581
30
0
11
-0.165766666325404
21
0.285344374984618
31
0
210
0
220
0
230
1
40
0.007779
41
1.58422822348669
42
1.93329407388797
0
ELLIPSE
5
1E6
100
AcDbEntity
8
1
62
256
6
ByLayer
370
-1
48
1
60
0
100
AcDbEllipse
10
12.759422
20
17.841224
30
0
11
-0.286191286725688
21
0.164300174687355
31
0
210
0
220
0
230
1
40
0.011457
41
1.27663606045156
42
2.15765738646056
0
ELLIPSE
5
1E7
100
AcDbEntity
8
1
62
256
6
ByLayer
370
-1
48
1
60
0
100
AcDbEllipse
10
18.743909
20
7.618711
30
0
11
-0.289490844201994
21
-1.13451429411329
31
0
210
0
220
0
230
1
40
0.214503
41
-1.519168358984
42
-1.35157267767609
0
ELLIPSE
5
1E8
100
AcDbEntity
8
1
62
256
6
ByLayer
370
-1
48
1
60
0
100
AcDbEllipse
10
20.389911
20
8.7769
30
0
11
-0.16163248582614
21
-0.276179180108969
31
0
210
0
220
0
230
1
40
0.142623
41
-1.46932086986307
42
-1.2947879446636
0
ELLIPSE
5
1E9
100
AcDbEntity
8
1
62
256
6
ByLayer
370
-1
48
1
60
0
100
AcDbEllipse
10
19.148542
20
8.650382
30
0
11
-0.138398498626081
21
0.213648907270893
31
0
210
0
220
0
230
1
40
0.952315
41
-1.62136333106752
42
-0.547449270962291
0
ELLIPSE
5
1EA
100
AcDbEntity
8
1
62
256
6
ByLayer
370
-1
48
1
60
0
100
AcDbEllipse
10
25.173189
20
18.894406
30
0
11
-0.203084567605185
21
-0.00055366667545967
31
0
210
0
220
0
230
1
40
0.984689
41
2.10105994416072
42
-3.14158196934606
0
ELLIPSE
5
1EB
100
AcDbEntity
8
1
62
256
6
ByLayer
370
-1
48
1
60
0
100
AcDbEllipse
10
19.202319
20
8.685218
30
0
11
0.00178662304630283
21
-0.329995163567726
31
0
210
0
220
0
230
1
40
0.260526
41
-2.28656926783188
42
-1.40554794182248
0
ELLIPSE
5
1EC
100
AcDbEntity
8
1
62
256
6
ByLayer
370
-1
48
1
60
0
100
AcDbEllipse
10
22.787277
20
20.266164
30
0
11
-2.4524988910264
21
1.40681163204412
31
0
210
0
220
0
230
1
40
0.300608
41
2.9697034792378
42
3.13729915433428
0
ELLIPSE
5
1ED
100
AcDbEntity
8
1
62
256
6
ByLayer
370
-1
48
1
60
0
100
AcDbEllipse
10
18.106297
20
8.331731
30
0
11
-0.0535420619579008
21
0.11907890451521
31
0
210
0
220
0
230
1
40
0.958693
41
-0.931985923628885
42
0.0207337532582848
0
ELLIPSE
5
1EE
100
AcDbEntity
8
1
62
256
6
ByLayer
370
-1
48
1
60
0
100
AcDbEllipse
10
22.687074
20
13.919302
30
0
11
-0.0805518628637626
21
-0.126536150522993
31
0
210
0
220
0
230
1
40
0.138793
41
0.968744266589823
42
1.67753375611269
0
ELLIPSE
5
1EF
100
AcDbEntity
8
1
62
256
6
ByLayer
370
-1
48
1
60
0
100
AcDbEllipse
10
18.50546
20
7.468354
30
0
11
-0.0823724030775347
21
0.183198314591584
31
0
210
0
220
0
230
1
40
0.958693
41
1.16906333587208
42
2.20960672956013
0
ELLIPSE
5
1F0
100
AcDbEntity
8
1
62
256
6
ByLayer
370
-1
48
1
60
0
100
AcDbEllipse
10
21.865108
20
13.052613
30
0
11
-0.124592254826947
21
-0.0835270617053963
31
0
210
0
220
0
230
1
40
0.084588
41
1.72439265866673
42
2.43318214818908
0
ELLIPSE
5
1F1
100
AcDbEntity
8
1
62
256
6
ByLayer
370
-1
48
1
60
0
100
AcDbEllipse
10
12.705472
20
17.869541
30
0
11
0.118305764501749
21
0.225396863522226
31
0
210
0
220
0
230
1
40
0.956983
41
-2.68420852399141
42
-1.6102944638861
0
ELLIPSE
5
1F2
100
AcDbEntity
8
1
62
256
6
ByLayer
370
-1
48
1
60
0
100
AcDbEllipse
10
14.185279
20
19.30768
30
0
11
-0.279747322340476
21
0.155773091047776
31
0
210
0
220
0
230
1
40
0.099584
41
1.27347863735944
42
2.07002057396397
0
ELLIPSE
5
1F3
100
AcDbEntity
8
1
62
256
6
ByLayer
370
-1
48
1
60
0
100
AcDbEllipse
10
18.740876
20
8.648175
30
0
11
-0.138398498626081
21
0.213648907270893
31
0
210
0
220
0
230
1
40
0.952315
41
-0.547449270962552
42
-0.242512005981484
0
ELLIPSE
5
1F4
100
AcDbEntity
8
1
62
256
6
ByLayer
370
-1
48
1
60
0
100
AcDbEllipse
10
12.628421
20
17.735328
30
0
11
-0.480039673584085
21
-0.836978963698224
31
0
210
0
220
0
230
1
40
0.327324
41
2.31347030483541
42
3.13575152717757
0
ELLIPSE
5
1F5
100
AcDbEntity
8
1
62
256
6
ByLayer
370
-1
48
1
60
0
100
AcDbEllipse
10
21.08693
20
9.918348
30
0
11
-0.0885856203269545
21
-0.152801635013912
31
0
210
0
220
0
230
1
40
0.121299
41
0.621456720732316
42
1.65643696725175
0
ELLIPSE
5
1F6
100
AcDbEntity
8
1
62
256
6
ByLayer
370
-1
48
1
60
0
100
AcDbEllipse
10
17.822286
20
7.40634
30
0
11
0.0180802375823416
21
-0.199181085971952
31
0
210
0
220
0
230
1
40
0.984685
41
-1.65328798638689
42
-0.612744592716466
0
ELLIPSE
5
1F7
100
AcDbEntity
8
1
62
256
6
ByLayer
370
-1
48
1
60
0
100
AcDbEllipse
10
20.610897
20
9.167396
30
0
11
-0.188982656705598
21
-0.325976821380187
31
0
210
0
220
0
230
1
40
0.121299
41
-2.52013593284802
42
-1.48515568637803
0
ELLIPSE
5
1F8
100
AcDbEntity
8
1
62
256
6
ByLayer
370
-1
48
1
60
0
100
AcDbEllipse
10
12.859035
20
17.11019
30
0
11
0.162018972073848
21
-0.275952627615925
31
0
210
0
220
0
230
1
40
0.158144
41
-1.81971542722679
42
-1.6451825020273
0
ELLIPSE
5
1F9
100
AcDbEntity
8
1
62
256
6
ByLayer
370
-1
48
1
60
0
100
AcDbEllipse
10
18.820265
20
7.96743
30
0
11
0.329788829487308
21
0.0118037259113892
31
0
210
0
220
0
230
1
40
0.162283
41
-2.1848028266279
42
-1.83573697622913
0
ELLIPSE
5
1FA
100
AcDbEntity
8
1
62
256
6
ByLayer
370
-1
48
1
60
0
100
AcDbEllipse
10
12.077071
20
19.071653
30
0
11
-0.0605925146394246
21
-0.191821580222247
31
0
210
0
220
0
230
1
40
0.960533
41
2.9178463726883
42
-2.32479554081952
0
ELLIPSE
5
1FB
100
AcDbEntity
8
1
62
256
6
ByLayer
370
-1
48
1
60
0
100
AcDbEllipse
10
22.404949
20
12.247365
30
0
11
-0.0837187675343551
21
-0.1439681528565
31
0
210
0
220
0
230
1
40
0.128583
41
1.66180577846776
42
2.37059526812354
0
ELLIPSE
5
1FC
100
AcDbEntity
8
1
62
256
6
ByLayer
370
-1
48
1
60
0
100
AcDbEllipse
10
17.642544
20
19.327014
30
0
11
0.149913678706951
21
-0.00508811719096793
31
0
210
0
220
0
230
1
40
0.021972
41
0.688140091617033
42
1.39692958113948
0
ELLIPSE
5
1FD
100
AcDbEntity
8
1
62
256
6
ByLayer
370
-1
48
1
60
0
100
AcDbEllipse
10
18.674379
20
7.672722
30
0
11
-0.295747720360011
21
0.146401113048559
31
0
210
0
220
0
230
1
40
0.435879
41
1.11094647285998
42
1.7123658691708
0
ELLIPSE
5
1FE
100
AcDbEntity
8
1
62
256
6
ByLayer
370
-1
48
1
60
0
100
AcDbEllipse
10
12.759422
20
17.841224
30
0
11
0.00274347164032986
21
0.329988595808035
31
0
210
0
220
0
230
1
40
0.26032
41
1.4377002657928
42
2.31872159180243
0
ELLIPSE
5
1FF
100
AcDbEntity
8
1
62
256
6
ByLayer
370
-1
48
1
60
0
100
AcDbEllipse
10
17.111448
20
9.368739
30
0
11
-0.104613575694122
21
-0.108175545071766
31
0
210
0
220
0
230
1
40
0.746721
41
2.89770941889558
42
-3.04066759835911
0
ELLIPSE
5
200
100
AcDbEntity
8
1
62
256
6
ByLayer
370
-1
48
1
60
0
100
AcDbEllipse
10
12.055899
20
19.059222
30
0
11
-0.0605925146221001
21
-0.191821580229662
31
0
210
0
220
0
230
1
40
0.960533
41
-2.32479554091089
42
-1.28425214724738
0
ELLIPSE
5
201
100
AcDbEntity
8
1
62
256
6
ByLayer
370
-1
48
1
60
0
100
AcDbEllipse
10
18.820265
20
7.96743
30
0
11
0.168459357975664
21
-0.283763008002148
31
0
210
0
220
0
230
1
40
0.304906
41
-1.5588781420646
42
-1.20981229166568
0
ELLIPSE
5
202
100
AcDbEntity
8
1
62
256
6
ByLayer
370
-1
48
1
60
0
100
AcDbEllipse
10
23.77634
20
18.903061
30
0
11
-0.254558441227157
21
3.11733884545897E-17
31
0
210
0
220
0
230
1
40
0.99988
41
-0.534219985807017
42
0.539694073108261
0
ELLIPSE
5
203
100
AcDbEntity
8
1
62
256
6
ByLayer
370
-1
48
1
60
0
100
AcDbEllipse
10
14.318546
20
17.710434
30
0
11
-2.32235939890654
21
1.38920876266866
31
0
210
0
220
0
230
1
40
0.314059
41
0.0058761118581237
42
0.173471786752951
0
ELLIPSE
5
204
100
AcDbEntity
8
1
62
256
6
ByLayer
370
-1
48
1
60
0
100
AcDbEllipse
10
11.372724
20
18.997208
30
0
11
0.0180802375823416
21
-0.199181085971952
31
0
210
0
220
0
230
1
40
0.984685
41
-2.7071396951098
42
-1.66659630143952
0
ELLIPSE
5
205
100
AcDbEntity
8
1
62
256
6
ByLayer
370
-1
48
1
60
0
100
AcDbEllipse
10
18.820265
20
7.96743
30
0
11
0.29574772036001
21
-0.14640111304856
31
0
210
0
220
0
230
1
40
0.435879
41
-2.03064618072977
42
-1.42922678441881
0
ELLIPSE
5
206
100
AcDbEntity
8
1
62
256
6
ByLayer
370
-1
48
1
60
0
100
AcDbEllipse
10
15.758547
20
19.713282
30
0
11
0.0180802375823416
21
-0.199181085971952
31
0
210
0
220
0
230
1
40
0.984685
41
3.05244683647129
42
-2.70713969510994
0
ELLIPSE
5
207
100
AcDbEntity
8
1
62
256
6
ByLayer
370
-1
48
1
60
0
100
AcDbEllipse
10
24.619692
20
18.908581
30
0
11
-0.00183525231900503
21
0.329994896701336
31
0
210
0
220
0
230
1
40
0.179002
41
-1.88728262706719
42
-1.28586323075634
0
ELLIPSE
5
208
100
AcDbEntity
8
1
62
256
6
ByLayer
370
-1
48
1
60
0
100
AcDbEllipse
10
23.175251
20
13.608532
30
0
11
-0.0758145711040857
21
-0.12954934082495
31
0
210
0
220
0
230
1
40
0.142526
41
0.963409593710835
42
1.67219908367451
0
ELLIPSE
5
209
100
AcDbEntity
8
1
62
256
6
ByLayer
370
-1
48
1
60
0
100
AcDbEllipse
10
19.210416
20
19.910893
30
0
11
-0.166222918353831
21
-0.000370480983688031
31
0
210
0
220
0
230
1
40
0.014047
41
-1.72815699283112
42
-1.01936750135269
0
ELLIPSE
5
20A
100
AcDbEntity
8
1
62
256
6
ByLayer
370
-1
48
1
60
0
100
AcDbEllipse
10
15.05628
20
11.927528
30
0
11
-0.0759965875712599
21
0.129443220940715
31
0
210
0
220
0
230
1
40
0.158036
41
-1.64512853850361
42
-0.936339048766946
0
ELLIPSE
5
20B
100
AcDbEntity
8
1
62
256
6
ByLayer
370
-1
48
1
60
0
100
AcDbEllipse
10
24.61038
20
18.12648
30
0
11
-0.132004968947015
21
-0.000359883386192905
31
0
210
0
220
0
230
1
40
0.984689
41
1.06838922214731E-05
42
0.952730360802063
0
ELLIPSE
5
20C
100
AcDbEntity
8
1
62
256
6
ByLayer
370
-1
48
1
60
0
100
AcDbEllipse
10
25.173121
20
18.919268
30
0
11
-0.203084567605554
21
-0.000553666656806211
31
0
210
0
220
0
230
1
40
0.984689
41
-3.14158196925529
42
-2.10103857558329
0
ELLIPSE
5
20D
100
AcDbEntity
8
1
62
256
6
ByLayer
370
-1
48
1
60
0
100
AcDbEllipse
10
19.414538
20
8.320227
30
0
11
-0.285282473313296
21
-0.165873175710386
31
0
210
0
220
0
230
1
40
0.015422
41
1.26110651584091
42
2.14212784185177
0
ELLIPSE
5
20E
100
AcDbEntity
8
1
62
256
6
ByLayer
370
-1
48
1
60
0
100
AcDbEllipse
10
12.295098
20
18.935508
30
0
11
-0.753175250569726
21
0.876144423710691
31
0
210
0
220
0
230
1
40
0.022981
41
1.30829855785167
42
1.47589423292588
0
ELLIPSE
5
20F
100
AcDbEntity
8
1
62
256
6
ByLayer
370
-1
48
1
60
0
100
AcDbEllipse
10
23.099968
20
19.184407
30
0
11
-0.319998801299914
21
-0.000875880481829768
31
0
210
0
220
0
230
1
40
0.015521
41
1.39624215860619
42
1.57077508380575
0
ELLIPSE
5
210
100
AcDbEntity
8
1
62
256
6
ByLayer
370
-1
48
1
60
0
100
AcDbEllipse
10
23.990262
20
19.269646
30
0
11
0.284010899060889
21
-0.168041093827152
31
0
210
0
220
0
230
1
40
0.013348
41
-2.443895682532
42
-1.56287435652431
0
ELLIPSE
5
211
100
AcDbEntity
8
1
62
256
6
ByLayer
370
-1
48
1
60
0
100
AcDbEllipse
10
24.619692
20
18.908581
30
0
11
0.164202282649773
21
0.286247463521695
31
0
210
0
220
0
230
1
40
0.007742
41
-1.58424946263728
42
-1.23518361224046
0
ELLIPSE
5
212
100
AcDbEntity
8
1
62
256
6
ByLayer
370
-1
48
1
60
0
100
AcDbEllipse
10
14.966274
20
19.492327
30
0
11
-0.242365818382972
21
-0.141207362981909
31
0
210
0
220
0
230
1
40
0.0396
41
0.620384819683806
42
1.65536506606316
0
ELLIPSE
5
213
100
AcDbEntity
8
1
62
256
6
ByLayer
370
-1
48
1
60
0
100
AcDbEllipse
10
18.526701
20
7.455923
30
0
11
-0.0823724030801216
21
0.183198314591348
31
0
210
0
220
0
230
1
40
0.958693
41
2.20960672953372
42
-3.03303518396923
0
ELLIPSE
5
214
100
AcDbEntity
8
1
62
256
6
ByLayer
370
-1
48
1
60
0
100
AcDbEllipse
10
14.278526
20
13.288696
30
0
11
-0.0840311246994389
21
0.143872957301091
31
0
210
0
220
0
230
1
40
0.142448
41
-2.34621774087223
42
-1.6374282507
0
ELLIPSE
5
215
100
AcDbEntity
8
1
62
256
6
ByLayer
370
-1
48
1
60
0
100
AcDbEllipse
10
11.99222
20
16.344587
30
0
11
-0.0938360334749925
21
-2.80143478941424
31
0
210
0
220
0
230
1
40
0.29273
41
2.98112326003566
42
-3.13446637234471
0
ELLIPSE
5
216
100
AcDbEntity
8
1
62
256
6
ByLayer
370
-1
48
1
60
0
100
AcDbEllipse
10
15.564274
20
12.200638
30
0
11
-0.0710291567746825
21
0.132116838018012
31
0
210
0
220
0
230
1
40
0.160766
41
-1.63918504400245
42
-0.930395554480331
0
ELLIPSE
5
217
100
AcDbEntity
8
1
62
256
6
ByLayer
370
-1
48
1
60
0
100
AcDbEllipse
10
18.794653
20
8.683011
30
0
11
-0.00178662304630258
21
0.329995163567726
31
0
210
0
220
0
230
1
40
0.260526
41
0.855023385758129
42
1.73604471176725
0
ELLIPSE
5
218
100
AcDbEntity
8
1
62
256
6
ByLayer
370
-1
48
1
60
0
100
AcDbEllipse
10
17.292817
20
9.182085
30
0
11
-0.00204550559440392
21
0.320084952903686
31
0
210
0
220
0
230
1
40
0.17433
41
0.941297790827175
42
1.73783972708281
0
ELLIPSE
5
219
100
AcDbEntity
8
1
62
256
6
ByLayer
370
-1
48
1
60
0
100
AcDbEllipse
10
12.225915
20
18.862341
30
0
11
0.295887399852021
21
0.146118604595069
31
0
210
0
220
0
230
1
40
0.410668
41
1.44441299119173
42
2.04583238750264
0
ELLIPSE
5
21A
100
AcDbEntity
8
1
62
256
6
ByLayer
370
-1
48
1
60
0
100
AcDbEllipse
10
12.351741
20
17.844613
30
0
11
-0.32985002043205
21
0.00994806619280051
31
0
210
0
220
0
230
1
40
0.131594
41
-1.30688997975226
42
-0.957824129353317
0
ELLIPSE
5
21B
100
AcDbEntity
8
1
62
256
6
ByLayer
370
-1
48
1
60
0
100
AcDbEllipse
10
12.969639
20
18.207398
30
0
11
-0.267449075294889
21
0.19331578343195
31
0
210
0
220
0
230
1
40
0.316515
41
-2.08704564696273
42
-1.2647644246278
0
ELLIPSE
5
21C
100
AcDbEntity
8
1
62
256
6
ByLayer
370
-1
48
1
60
0
100
AcDbEllipse
10
12.938736
20
18.942669
30
0
11
-0.0393851345448768
21
-0.124684027125867
31
0
210
0
220
0
230
1
40
0.960533
41
-0.223746280663084
42
0.816797113045969
0
ELLIPSE
5
21D
100
AcDbEntity
8
1
62
256
6
ByLayer
370
-1
48
1
60
0
100
AcDbEllipse
10
25.156998
20
18.920159
30
0
11
-1.20713076964211
21
-0.289513301318593
31
0
210
0
220
0
230
1
40
0.065395
41
1.45461119680855
42
1.62220687324652
0
ELLIPSE
5
21E
100
AcDbEntity
8
1
62
256
6
ByLayer
370
-1
48
1
60
0
100
AcDbEllipse
10
12.969639
20
18.207398
30
0
11
-0.169262396137934
21
-0.283284735299389
31
0
210
0
220
0
230
1
40
0.289738
41
-1.90384570816418
42
-1.55477985776534
0
ELLIPSE
5
21F
100
AcDbEntity
8
1
62
256
6
ByLayer
370
-1
48
1
60
0
100
AcDbEllipse
10
11.631318
20
20.044512
30
0
11
1.40969978363826
21
-0.000781031295273402
31
0
210
0
220
0
230
1
40
0.053315
41
0.698069240706499
42
1.74526679190283
0
ELLIPSE
5
220
100
AcDbEntity
8
1
62
256
6
ByLayer
370
-1
48
1
60
0
100
AcDbEllipse
10
11.631318
20
20.044512
30
0
11
1.40969978363826
21
-0.000781031295273402
31
0
210
0
220
0
230
1
40
0.053315
41
1.74526679190283
42
2.79246434309971
0
ELLIPSE
5
221
100
AcDbEntity
8
1
62
256
6
ByLayer
370
-1
48
1
60
0
100
AcDbEllipse
10
11.631318
20
20.044512
30
0
11
1.40969978363826
21
-0.000781031295273402
31
0
210
0
220
0
230
1
40
0.053315
41
-1.39632586168696
42
-0.349128310490187
0
ELLIPSE
5
222
100
AcDbEntity
8
1
62
256
6
ByLayer
370
-1
48
1
60
0
100
AcDbEllipse
10
11.631318
20
20.044512
30
0
11
1.40969978363826
21
-0.000781031295273402
31
0
210
0
220
0
230
1
40
0.053315
41
2.79246434309971
42
-2.44352341288336
0
ELLIPSE
5
223
100
AcDbEntity
8
1
62
256
6
ByLayer
370
-1
48
1
60
0
100
AcDbEllipse
10
11.631318
20
20.044512
30
0
11
1.40969978363826
21
-0.000781031295273402
31
0
210
0
220
0
230
1
40
0.053315
41
-2.44352341288336
42
-1.39632586168696
0
ELLIPSE
5
224
100
AcDbEntity
8
1
62
256
6
ByLayer
370
-1
48
1
60
0
100
AcDbEllipse
10
11.631318
20
20.044512
30
0
11
1.40969978363826
21
-0.000781031295273402
31
0
210
0
220
0
230
1
40
0.053315
41
-0.349128310490187
42
0.698069240706499
0
ELLIPSE
5
225
100
AcDbEntity
8
1
62
256
6
ByLayer
370
-1
48
1
60
0
100
AcDbEllipse
10
20.760759
20
8.804102
30
0
11
-2.31605437340339
21
-1.37369459556519
31
0
210
0
220
0
230
1
40
0.315635
41
-0.170580784357861
42
-0.00298510998532591
0
ELLIPSE
5
226
100
AcDbEntity
8
1
62
256
6
ByLayer
370
-1
48
1
60
0
100
AcDbEllipse
10
24.218956
20
16.738874
30
0
11
-0.0456617356659593
21
0.124163624621443
31
0
210
0
220
0
230
1
40
0.697969
41
0.951900386572753
42
1.29670867807121
0
ELLIPSE
5
227
100
AcDbEntity
8
1
62
256
6
ByLayer
370
-1
48
1
60
0
100
AcDbEllipse
10
23.990262
20
19.269646
30
0
11
0.164202282649773
21
0.286247463521695
31
0
210
0
220
0
230
1
40
0.007742
41
-1.58424946263743
42
-1.23518361223751
0
ELLIPSE
5
228
100
AcDbEntity
8
1
62
256
6
ByLayer
370
-1
48
1
60
0
100
AcDbEllipse
10
23.097993
20
19.906007
30
0
11
0.319998801299914
21
0.000875880481822916
31
0
210
0
220
0
230
1
40
0.015521
41
-1.74535049498365
42
-1.57081756978404
0
ELLIPSE
5
229
100
AcDbEntity
8
1
62
256
6
ByLayer
370
-1
48
1
60
0
100
AcDbEllipse
10
16.449542
20
9.308656
30
0
11
-0.011752154428526
21
0.129467705881769
31
0
210
0
220
0
230
1
40
0.984685
41
-1.65328798638696
42
-0.612744592716315
0
ELLIPSE
5
22A
100
AcDbEntity
8
1
62
256
6
ByLayer
370
-1
48
1
60
0
100
AcDbEllipse
10
19.773417
20
9.1377
30
0
11
0.161632485826126
21
0.276179180108978
31
0
210
0
220
0
230
1
40
0.142623
41
1.67227178372672
42
1.84680470892611
0
ELLIPSE
5
22B
100
AcDbEntity
8
1
62
256
6
ByLayer
370
-1
48
1
60
0
100
AcDbEllipse
10
11.631318
20
20.044512
30
0
11
-1.69999973908299
21
0.000941869335301274
31
0
210
0
220
0
230
1
40
0.053315
41
0
42
6.28318530717959
0
ELLIPSE
5
22C
100
AcDbEntity
8
1
62
256
6
ByLayer
370
-1
48
1
60
0
100
AcDbEllipse
10
19.886703
20
15.134459
30
0
11
-0.00153284668230946
21
0.394041092526044
31
0
210
0
220
0
230
1
40
0.482349
41
0.158646496808386
42
1.56891995825797
0
ELLIPSE
5
22D
100
AcDbEntity
8
1
62
256
6
ByLayer
370
-1
48
1
60
0
100
AcDbEllipse
10
19.152487
20
16.418844
30
0
11
-0.335790509928518
21
0.198599298572716
31
0
210
0
220
0
230
1
40
0.492091
41
0.170021030607358
42
1.58029449206413
0
ELLIPSE
5
22E
100
AcDbEntity
8
1
62
256
6
ByLayer
370
-1
48
1
60
0
100
AcDbEllipse
10
19.886703
20
15.134459
30
0
11
-0.00153284668164822
21
0.394041092520165
31
0
210
0
220
0
230
1
40
0.482349
41
1.56891995826204
42
2.97919341972866
0
ELLIPSE
5
22F
100
AcDbEntity
8
1
62
256
6
ByLayer
370
-1
48
1
60
0
100
AcDbEllipse
10
18.425938
20
15.134459
30
0
11
-0.127108856584204
21
1.28402392056295
31
0
210
0
220
0
230
1
40
0.984662
41
-2.7151611894894
42
-1.66796363829266
0
ELLIPSE
5
230
100
AcDbEntity
8
1
62
256
6
ByLayer
370
-1
48
1
60
0
100
AcDbEllipse
10
18.425938
20
15.134459
30
0
11
-0.127108856584204
21
1.28402392056295
31
0
210
0
220
0
230
1
40
0.984662
41
-1.66796363829288
42
-0.620766087096152
0
ELLIPSE
5
231
100
AcDbEntity
8
1
62
256
6
ByLayer
370
-1
48
1
60
0
100
AcDbEllipse
10
18.699393
20
15.161529
30
0
11
0.165143987582511
21
-1.66824591213774
31
0
210
0
220
0
230
1
40
0.984662
41
1.99722779089521
42
3.04442534209253
0
ELLIPSE
5
232
100
AcDbEntity
8
1
62
256
6
ByLayer
370
-1
48
1
60
0
100
AcDbEllipse
10
18.699393
20
15.161529
30
0
11
0.165143987582511
21
-1.66824591213774
31
0
210
0
220
0
230
1
40
0.984662
41
-1.14436486269461
42
-0.0971673114973681
0
ELLIPSE
5
233
100
AcDbEntity
8
1
62
256
6
ByLayer
370
-1
48
1
60
0
100
AcDbEllipse
10
18.699393
20
15.161529
30
0
11
0.165143987582511
21
-1.66824591213774
31
0
210
0
220
0
230
1
40
0.984662
41
3.04442534209253
42
-2.1915624138912
0
ELLIPSE
5
234
100
AcDbEntity
8
1
62
256
6
ByLayer
370
-1
48
1
60
0
100
AcDbEllipse
10
18.699393
20
15.161529
30
0
11
0.165143987582511
21
-1.66824591213774
31
0
210
0
220
0
230
1
40
0.984662
41
-0.0971673114973681
42
0.950030239698593
0
ELLIPSE
5
235
100
AcDbEntity
8
1
62
256
6
ByLayer
370
-1
48
1
60
0
100
AcDbEllipse
10
18.699393
20
15.161529
30
0
11
0.165143987582511
21
-1.66824591213774
31
0
210
0
220
0
230
1
40
0.984662
41
-2.1915624138912
42
-1.14436486269461
0
ELLIPSE
5
236
100
AcDbEntity
8
1
62
256
6
ByLayer
370
-1
48
1
60
0
100
AcDbEllipse
10
18.699393
20
15.161529
30
0
11
0.165143987582511
21
-1.66824591213774
31
0
210
0
220
0
230
1
40
0.984662
41
0.950030239698593
42
1.99722779089521
0
ELLIPSE
5
237
100
AcDbEntity
8
1
62
256
6
ByLayer
370
-1
48
1
60
0
100
AcDbEllipse
10
18.688735
20
15.160474
30
0
11
-0.268442714246296
21
2.71174547278499
31
0
210
0
220
0
230
1
40
0.984662
41
0
42
6.28318530717959
0
ELLIPSE
5
238
100
AcDbEntity
8
1
62
256
6
ByLayer
370
-1
48
1
60
0
100
AcDbEllipse
10
18.699393
20
15.161529
30
0
11
-0.177319958034264
21
1.7912447159682
31
0
210
0
220
0
230
1
40
0.984662
41
0
42
6.28318530717959
0
ELLIPSE
5
239
100
AcDbEntity
8
1
62
256
6
ByLayer
370
-1
48
1
60
0
100
AcDbEllipse
10
19.160154
20
13.850073
30
0
11
-0.334789202943389
21
-0.198289421907616
31
0
210
0
220
0
230
1
40
0.494673
41
-1.57842127978492
42
-0.168147818325398
0
ELLIPSE
5
23A
100
AcDbEntity
8
1
62
256
6
ByLayer
370
-1
48
1
60
0
100
AcDbEllipse
10
22.475699
20
12.765262
30
0
11
-3.30643715532042E-16
21
-1.8
31
0
210
0
220
0
230
1
40
0.173648
41
0.527406108412319
42
0.754298911171547
0
ELLIPSE
5
23B
100
AcDbEntity
8
1
62
256
6
ByLayer
370
-1
48
1
60
0
100
AcDbEllipse
10
22.651421
20
12.574075
30
0
11
-4.59227382683391E-17
21
-0.25
31
0
210
0
220
0
230
1
40
0.173648
41
-1.09015436395412
42
-0.502338150264358
0
ELLIPSE
5
23C
100
AcDbEntity
8
1
62
256
6
ByLayer
370
-1
48
1
60
0
100
AcDbEllipse
10
22.659362
20
11.933149
30
0
11
-4.59227382683391E-17
21
-0.25
31
0
210
0
220
0
230
1
40
0.173648
41
1.58333030586882
42
2.41236170056576
0
ELLIPSE
5
23D
100
AcDbEntity
8
1
62
256
6
ByLayer
370
-1
48
1
60
0
100
AcDbEllipse
10
22.480026
20
10.777334
30
0
11
-3.30643715532042E-16
21
-1.8
31
0
210
0
220
0
230
1
40
0.173648
41
2.41236170056614
42
2.63925450332544
0
ELLIPSE
5
23E
100
AcDbEntity
8
1
62
256
6
ByLayer
370
-1
48
1
60
0
100
AcDbEllipse
10
22.654861
20
10.993825
30
0
11
-4.59227382683391E-17
21
-0.25
31
0
210
0
220
0
230
1
40
0.173648
41
-2.61418654517788
42
-2.03075104594623
0
ELLIPSE
5
23F
100
AcDbEntity
8
1
62
256
6
ByLayer
370
-1
48
1
60
0
100
AcDbEllipse
10
22.66001
20
11.635696
30
0
11
-4.59227382683391E-17
21
-0.25
31
0
210
0
220
0
230
1
40
0.173648
41
0.754298911171498
42
1.58333030586882
0
POINT
5
41
100
AcDbEntity
8
80
62
256
6
ByLayer
370
-1
48
1
60
0
100
AcDbPoint
10
0
20
0
30
0
39
0
210
0
220
0
230
1
50
360
0
POINT
5
43
100
AcDbEntity
8
81
62
256
6
ByLayer
370
-1
48
1
60
0
100
AcDbPoint
10
26.699398
20
19.9125
30
0
39
0
210
0
220
0
230
1
50
360
0
POINT
5
45
100
AcDbEntity
8
2
62
256
6
ByLayer
370
-1
48
1
60
0
100
AcDbPoint
10
26.699398
20
19.9125
30
0
39
0
210
0
220
0
230
1
50
360
0
POINT
5
47
100
AcDbEntity
8
2
62
256
6
ByLayer
370
-1
48
1
60
0
100
AcDbPoint
10
26.743198
20
19.911017
30
0
39
0
210
0
220
0
230
1
50
360
0
POINT
5
48
100
AcDbEntity
8
2
62
256
6
ByLayer
370
-1
48
1
60
0
100
AcDbPoint
10
25.376231
20
18.907392
30
0
39
0
210
0
220
0
230
1
50
360
0
SPLINE
5
240
100
AcDbEntity
8
1
62
256
6
ByLayer
370
-1
48
1
60
0
100
AcDbSpline
70
4
71
1
72
4
73
2
40
0
40
0
40
1
40
1
41
1
10
21.7981232566242
20
10.4735791710432
30
0
41
1
10
22.3064658132128
20
10.6390320278425
30
0
0
SPLINE
5
241
100
AcDbEntity
8
1
62
256
6
ByLayer
370
-1
48
1
60
0
100
AcDbSpline
70
4
71
3
72
11
73
7
40
0
40
0
40
0
40
0
40
0.272322054107023
40
0.573542789565835
40
0.858642139969978
40
1
40
1
40
1
40
1
41
1
10
8.88993821031823
20
19.3520760329278
30
0
41
1
10
8.97602931043599
20
19.4336128568858
30
0
41
1
10
9.16233173904794
20
19.5990464166017
30
0
41
1
10
9.46934396448523
20
19.812458911603
30
0
41
1
10
9.74498587093936
20
19.9690928930809
30
0
41
1
10
9.91520671878794
20
20.0420171192106
30
0
41
1
10
9.97249150354321
20
20.0644920051208
30
0
0
SPLINE
5
242
100
AcDbEntity
8
1
62
256
6
ByLayer
370
-1
48
1
60
0
100
AcDbSpline
70
4
71
3
72
10
73
6
40
0
40
0
40
0
40
0
40
0.0186599778929915
40
0.519020063560002
40
1
40
1
40
1
40
1
41
1
10
13.5243463613454
20
19.9548818551705
30
0
41
1
10
13.5295257723061
20
19.9526873544156
30
0
41
1
10
13.6732849026544
20
19.891090085057
30
0
41
1
10
13.9257669213443
20
19.7208319721824
30
0
41
1
10
14.1590706070879
20
19.5399657982441
30
0
41
1
10
14.2684546190269
20
19.4446815447137
30
0
0
SPLINE
5
243
100
AcDbEntity
8
1
62
256
6
ByLayer
370
-1
48
1
60
0
100
AcDbSpline
70
4
71
3
72
8
73
4
40
0
40
0
40
0
40
0
40
1
40
1
40
1
40
1
41
1
10
18.5135709281878
20
6.45449344089315
30
0
41
1
10
18.6684416641071
20
6.5313421351494
30
0
41
1
10
18.819292771853
20
6.60721321952266
30
0
41
1
10
18.9666708514536
20
6.68198654327298
30
0
0
SPLINE
5
244
100
AcDbEntity
8
1
62
256
6
ByLayer
370
-1
48
1
60
0
100
AcDbSpline
70
4
71
1
72
5
73
3
40
0
40
0
40
0.732656031434775
40
1
40
1
41
1.08358774580744
10
16.3393579360746
20
7.36298464757049
30
0
41
1.08358774580744
10
16.7129233042902
20
7.47070184163831
30
0
41
1.08358774580744
10
16.8492361765963
20
7.51000751975906
30
0
0
SPLINE
5
245
100
AcDbEntity
8
1
62
256
6
ByLayer
370
-1
48
1
60
0
100
AcDbSpline
70
4
71
2
72
6
73
3
40
0
40
0
40
0
40
1
40
1
40
1
41
0.973497289157299
10
21.7986152156671
20
10.4737538504855
30
0
41
1.01271682324435
10
21.7201242592519
20
10.4460063060324
30
0
41
1.08358774580744
10
21.6369330934498
20
10.4460063060324
30
0
0
SPLINE
5
246
100
AcDbEntity
8
1
62
256
6
ByLayer
370
-1
48
1
60
0
100
AcDbSpline
70
4
71
3
72
14
73
10
40
0
40
0
40
0
40
0
40
0.447435525517219
40
0.447435525517219
40
0.682968574432452
40
0.682968574432452
40
0.918614987176024
40
0.918614987176024
40
1
40
1
40
1
40
1
41
1
10
10.306149127615
20
20.0709567386353
30
0
41
1
10
10.2961414547791
20
20.069496738146
30
0
41
1
10
10.2879483635676
20
20.0673935209114
30
0
41
1
10
10.278634116062
20
20.0630984512387
30
0
41
1
10
10.2759962791242
20
20.0614120724332
30
0
41
1
10
10.2720401776456
20
20.0575677085933
30
0
41
1
10
10.2707171087125
20
20.0554059212662
30
0
41
1
10
10.269986990048
20
20.0521021779146
30
0
41
1
10
10.2698922748364
20
20.0512184496386
30
0
41
1
10
10.2698980676547
20
20.0502953090788
30
0
0
SPLINE
5
247
100
AcDbEntity
8
1
62
256
6
ByLayer
370
-1
48
1
60
0
100
AcDbSpline
70
4
71
3
72
20
73
16
40
0
40
0
40
0
40
0
40
0.0608157493569864
40
0.0608157493569864
40
0.21492048875045
40
0.21492048875045
40
0.368561615652613
40
0.368561615652613
40
0.521997789163872
40
0.521997789163872
40
0.675335255653118
40
0.675335255653118
40
0.983339895799677
40
0.983339895799677
40
1
40
1
40
1
40
1
41
1
10
12.8301687674738
20
20.0481307988588
30
0
41
1
10
12.8301928877695
20
20.0500504571401
30
0
41
1
10
12.8299564924971
20
20.0518624786427
30
0
41
1
10
12.8283214076754
20
20.0579300920902
30
0
41
1
10
12.8256954649639
20
20.061699818523
30
0
41
1
10
12.818422772195
20
20.0683249285552
30
0
41
1
10
12.8137567696241
20
20.0712022804711
30
0
41
1
10
12.8029071184218
20
20.0762870630685
30
0
41
1
10
12.7967037754347
20
20.0785031331506
30
0
41
1
10
12.7830802588762
20
20.0824109429617
30
0
41
1
10
12.7756433533841
20
20.084106863307
30
0
41
1
10
12.7517535399771
20
20.0885436996916
30
0
41
1
10
12.7336823419328
20
20.0906504193825
30
0
41
1
10
12.7129168000676
20
20.0920812327782
30
0
41
1
10
12.7118435354863
20
20.092152595653
30
0
41
1
10
12.7107652952097
20
20.0922217140914
30
0
0
SPLINE
5
248
100
AcDbEntity
8
1
62
256
6
ByLayer
370
-1
48
1
60
0
100
AcDbSpline
70
4
71
3
72
10
73
6
40
0
40
0
40
0
40
0
40
0.870856746086477
40
0.870856746086477
40
1
40
1
40
1
40
1
41
1
10
11.0996842916988
20
20.0172210545436
30
0
41
1
10
11.1042227170705
20
20.0094386949182
30
0
41
1
10
11.1065114310673
20
20.0016182674849
30
0
41
1
10
11.1070982402769
20
19.993120955134
30
0
41
1
10
11.1071362341012
20
19.9920343947084
30
0
41
1
10
11.1071382255882
20
19.9909543244784
30
0
0
SPLINE
5
249
100
AcDbEntity
8
1
62
256
6
ByLayer
370
-1
48
1
60
0
100
AcDbSpline
70
4
71
3
72
10
73
6
40
0
40
0
40
0
40
0
40
0.680481829737542
40
0.680481829737542
40
1
40
1
40
1
40
1
41
1
10
12.3514453214488
20
20.0106918036537
30
0
41
1
10
12.3436764468396
20
20.0030154374554
30
0
41
1
10
12.3339021655887
20
19.9954318482635
30
0
41
1
10
12.3181665619046
20
19.9850375658323
30
0
41
1
10
12.3129133616299
20
19.9818075429847
30
0
41
1
10
12.307472029972
20
19.9786672369441
30
0
0
SPLINE
5
24A
100
AcDbEntity
8
1
62
256
6
ByLayer
370
-1
48
1
60
0
100
AcDbSpline
70
4
71
3
72
12
73
8
40
0
40
0
40
0
40
0
40
0.190335113103414
40
0.190335113103414
40
0.838836721110309
40
0.838836721110309
40
1
40
1
40
1
40
1
41
1
10
11.7716673806682
20
19.9704279032476
30
0
41
1
10
11.7681157340149
20
19.9733329036708
30
0
41
1
10
11.7647800144154
20
19.9763304822825
30
0
41
1
10
11.7513258372579
20
19.9898060220056
30
0
41
1
10
11.74361235025
20
20.0014995690328
30
0
41
1
10
11.7406431241316
20
20.016673506056
30
0
41
1
10
11.7403826213221
20
20.0197788637257
30
0
41
1
10
11.7405062494782
20
20.0228880975367
30
0
0
SPLINE
5
24B
100
AcDbEntity
8
1
62
256
6
ByLayer
370
-1
48
1
60
0
100
AcDbSpline
70
4
71
3
72
22
73
18
40
0
40
0
40
0
40
0
40
0.153101873520372
40
0.153101873520372
40
0.442621285364936
40
0.442621285364936
40
0.707385074439676
40
0.707385074439676
40
0.843532608240134
40
0.843532608240134
40
0.926352665771263
40
0.926352665771263
40
0.963706736955234
40
0.963706736955234
40
0.97786395536066
40
0.97786395536066
40
1
40
1
40
1
40
1
41
1
10
15.4823619931781
20
13.2892516737483
30
0
41
1
10
15.5033580806993
20
13.2911103540835
30
0
41
1
10
15.5243741353425
20
13.292758476291
30
0
41
1
10
15.5851646057903
20
13.2967427324795
30
0
41
1
10
15.6250155731824
20
13.2984431723968
30
0
41
1
10
15.701257680556
20
13.2983625747205
30
0
41
1
10
15.7378165356935
20
13.297060555914
30
0
41
1
10
15.7924199228208
20
13.2894895157391
30
0
41
1
10
15.8109866668662
20
13.2859628680177
30
0
41
1
10
15.8395042616977
20
13.2763196603379
30
0
41
1
10
15.8501971491948
20
13.2717086666763
30
0
41
1
10
15.8636357649793
20
13.2620249158456
30
0
41
1
10
15.867568529448
20
13.2585067774776
30
0
41
1
10
15.8720193967522
20
13.2528927322965
30
0
41
1
10
15.8731516172247
20
13.2512532184162
30
0
41
1
10
15.8757077870355
20
13.2468758907033
30
0
41
1
10
15.8769551379323
20
13.2439978325365
30
0
41
1
10
15.8778023966075
20
13.2410266765925
30
0
0
SPLINE
5
24C
100
AcDbEntity
8
1
62
256
6
ByLayer
370
-1
48
1
60
0
100
AcDbSpline
70
4
71
3
72
8
73
4
40
0
40
0
40
0
40
0
40
1
40
1
40
1
40
1
41
1
10
15.6155187444903
20
13.365415536243
30
0
41
1
10
15.4973245659293
20
13.37439962608
30
0
41
1
10
15.3782222970033
20
13.3698379644938
30
0
41
1
10
15.260053715798
20
13.3611675096408
30
0
0
SPLINE
5
24D
100
AcDbEntity
8
1
62
256
6
ByLayer
370
-1
48
1
60
0
100
AcDbSpline
70
4
71
3
72
22
73
18
40
0
40
0
40
0
40
0
40
0.0236324717630026
40
0.0236324717630026
40
0.0629814022064269
40
0.0629814022064269
40
0.0762359204463836
40
0.0762359204463836
40
0.134099172814614
40
0.134099172814614
40
0.28887750428751
40
0.28887750428751
40
0.442933094377602
40
0.442933094377602
40
0.668543354429522
40
0.668543354429522
40
1
40
1
40
1
40
1
41
1
10
22.1111719170908
20
14.1100683510743
30
0
41
1
10
22.1146108505673
20
14.1136943926771
30
0
41
1
10
22.1188933737799
20
14.116580509848
30
0
41
1
10
22.1309105303488
20
14.1219103218329
30
0
41
1
10
22.1393010270632
20
14.1231382777083
30
0
41
1
10
22.1502292751616
20
14.123369243463
30
0
41
1
10
22.1530143717237
20
14.123304666988
30
0
41
1
10
22.1678447463328
20
14.1224439636427
30
0
41
1
10
22.1798013966979
20
14.1200205455536
30
0
41
1
10
22.2226057761442
20
14.1086130688466
30
0
41
1
10
22.2524389583773
20
14.0954830424022
30
0
41
1
10
22.3103707996467
20
14.0671517664869
30
0
41
1
10
22.3386009770319
20
14.0515076685365
30
0
41
1
10
22.4070787162898
20
14.0112020974034
30
0
41
1
10
22.4468692166683
20
13.9856420251549
30
0
41
1
10
22.543733485149
20
13.9205324231837
30
0
41
1
10
22.6001976586435
20
13.8799641563899
30
0
41
1
10
22.655929414004
20
13.8384256491598
30
0
0
SPLINE
5
24E
100
AcDbEntity
8
1
62
256
6
ByLayer
370
-1
48
1
60
0
100
AcDbSpline
70
4
71
3
72
18
73
14
40
0
40
0
40
0
40
0
40
0.0414544517088124
40
0.0414544517088124
40
0.132910922468122
40
0.132910922468122
40
0.26317773154006
40
0.26317773154006
40
0.458562667326528
40
0.458562667326528
40
0.817425847463278
40
0.817425847463278
40
1
40
1
40
1
40
1
41
1
10
21.6645376899366
20
13.67635202996
30
0
41
1
10
21.6614046495577
20
13.6730485247208
30
0
41
1
10
21.6585493619804
20
13.6694510279618
30
0
41
1
10
21.6505042062254
20
13.6573512125785
30
0
41
1
10
21.6464853290634
20
13.6479244543428
30
0
41
1
10
21.6400194861668
20
13.6245528199959
30
0
41
1
10
21.6387309655304
20
13.6100520633064
30
0
41
1
10
21.6390812965271
20
13.5743657601414
30
0
41
1
10
21.6424155990179
20
13.5529441658756
30
0
41
1
10
21.655791784678
20
13.4937093661164
30
0
41
1
10
21.6692227134391
20
13.4564516467777
30
0
41
1
10
21.6920748291486
20
13.401739946929
30
0
41
1
10
21.7003207131624
20
13.3834816527301
30
0
41
1
10
21.7089405050183
20
13.3654155362336
30
0
0
SPLINE
5
24F
100
AcDbEntity
8
1
62
256
6
ByLayer
370
-1
48
1
60
0
100
AcDbSpline
70
4
71
3
72
18
73
14
40
0
40
0
40
0
40
0
40
0.041454451708752
40
0.041454451708752
40
0.13291092246809
40
0.13291092246809
40
0.263177731540006
40
0.263177731540006
40
0.458562667326526
40
0.458562667326526
40
0.81742584746327
40
0.81742584746327
40
1
40
1
40
1
40
1
41
1
10
18.4046499250792
20
18.5294529042793
30
0
41
1
10
18.4090418129659
20
18.5283418990919
30
0
41
1
10
18.4135449251837
20
18.5276214034926
30
0
41
1
10
18.4279077787238
20
18.5265682780668
30
0
41
1
10
18.4379677357986
20
18.5277252675144
30
0
41
1
10
18.461151780109
20
18.5336695756177
30
0
41
1
10
18.474168012374
20
18.5397520897172
30
0
41
1
10
18.5044317445688
20
18.5578173927634
30
0
41
1
10
18.5210287829255
20
18.5714084067863
30
0
41
1
10
18.5648346601553
20
18.6126446055983
30
0
41
1
10
18.5898670006496
20
18.6429932907068
30
0
41
1
10
18.625053988573
20
18.6903107833324
30
0
41
1
10
18.6364851804153
20
18.7066463962702
30
0
41
1
10
18.6475645945122
20
18.7232151510687
30
0
0
SPLINE
5
250
100
AcDbEntity
8
1
62
256
6
ByLayer
370
-1
48
1
60
0
100
AcDbSpline
70
4
71
3
72
8
73
4
40
0
40
0
40
0
40
0
40
1
40
1
40
1
40
1
41
1
10
18.6430881819262
20
18.8744368571003
30
0
41
1
10
18.6459178413146
20
18.8259684323835
30
0
41
1
10
18.6474246500298
20
18.7743432004351
30
0
41
1
10
18.6475645944931
20
18.7232151510835
30
0
0
SPLINE
5
251
100
AcDbEntity
8
1
62
256
6
ByLayer
370
-1
48
1
60
0
100
AcDbSpline
70
4
71
3
72
22
73
18
40
0
40
0
40
0
40
0
40
0.023632471762972
40
0.023632471762972
40
0.0629814022064178
40
0.0629814022064178
40
0.0762359204463504
40
0.0762359204463504
40
0.134099172814607
40
0.134099172814607
40
0.288877504287532
40
0.288877504287532
40
0.442933094377627
40
0.442933094377627
40
0.668543354429543
40
0.668543354429543
40
1
40
1
40
1
40
1
41
1
10
16.049983926015
20
12.6372226795764
30
0
41
1
10
16.0513656805769
20
12.6323771602559
30
0
41
1
10
16.0516805619053
20
12.6271502165798
30
0
41
1
10
16.0501751882616
20
12.6138546326581
30
0
41
1
10
16.0469728809041
20
12.6058067315125
30
0
41
1
10
16.0416213647681
20
12.5960025756833
30
0
41
1
10
16.040151011763
20
12.5935651069029
30
0
41
1
10
16.0318755866992
20
12.5808418475787
30
0
41
1
10
16.0237114818733
20
12.5714407591703
30
0
41
1
10
15.9921271434198
20
12.5391383105977
30
0
41
1
10
15.9656447466224
20
12.5191901216616
30
0
41
1
10
15.9117729444383
20
12.4818570462895
30
0
41
1
10
15.8839346584369
20
12.464574934955
30
0
41
1
10
15.8143719726927
20
12.4238209626942
30
0
41
1
10
15.7721038629319
20
12.4011991196674
30
0
41
1
10
15.6667144679257
20
12.3475579325136
30
0
41
1
10
15.6030226874646
20
12.3175829335136
30
0
41
1
10
15.5388638228262
20
12.2887365741784
30
0
0
SPLINE
5
252
100
AcDbEntity
8
1
62
256
6
ByLayer
370
-1
48
1
60
0
100
AcDbSpline
70
4
71
3
72
20
73
16
40
0
40
0
40
0
40
0
40
0.31485919264875
40
0.31485919264875
40
0.531558880441056
40
0.531558880441056
40
0.682135903694814
40
0.682135903694814
40
0.839619845966498
40
0.839619845966498
40
0.903112673775987
40
0.903112673775987
40
0.9679021282098
40
0.9679021282098
40
1
40
1
40
1
40
1
41
1
10
17.6685879285387
20
19.3293781306323
30
0
41
1
10
17.6661299534972
20
19.2569576130215
30
0
41
1
10
17.6654674212187
20
19.1844044725195
30
0
41
1
10
17.6696017940324
20
19.0621168398826
30
0
41
1
10
17.6727423090865
20
19.0122453961505
30
0
41
1
10
17.6824363132362
20
18.9282588960886
30
0
41
1
10
17.687646649252
20
18.8938994405615
30
0
41
1
10
17.7027928976936
20
18.8247626608724
30
0
41
1
10
17.7127613313441
20
18.789493027342
30
0
41
1
10
17.7346936327861
20
18.7438105523762
30
0
41
1
10
17.7420524732498
20
18.7310107902375
30
0
41
1
10
17.7599273365454
20
18.707781534293
30
0
41
1
10
17.7708467189388
20
18.6970868423054
30
0
41
1
10
17.7899117809285
20
18.6860819994132
30
0
41
1
10
17.7968266725142
20
18.6832124728158
30
0
41
1
10
17.8039401737759
20
18.6814129877182
30
0
0
SPLINE
5
253
100
AcDbEntity
8
1
62
256
6
ByLayer
370
-1
48
1
60
0
100
AcDbSpline
70
4
71
3
72
10
73
6
40
0
40
0
40
0
40
0
40
0.736240194588453
40
0.736240194588453
40
1
40
1
40
1
40
1
41
1
10
14.4081604818119
20
19.1952304175787
30
0
41
1
10
14.3850280109507
20
19.1913952690794
30
0
41
1
10
14.3593268814237
20
19.1914470722542
30
0
41
1
10
14.3242172355903
20
19.2007509682506
30
0
41
1
10
14.3147760547218
20
19.2041638724329
30
0
41
1
10
14.3055872369554
20
19.2086460210471
30
0
0
SPLINE
5
254
100
AcDbEntity
8
1
62
256
6
ByLayer
370
-1
48
1
60
0
100
AcDbSpline
70
4
71
3
72
14
73
10
40
0
40
0
40
0
40
0
40
0.233926408286287
40
0.233926408286287
40
0.467719442169521
40
0.467719442169521
40
0.701444004412102
40
0.701444004412102
40
1
40
1
40
1
40
1
41
1
10
14.422768818746
20
13.0242736852967
30
0
41
1
10
14.4274960298208
20
13.0127696678217
30
0
41
1
10
14.4328703206518
20
13.0004846523895
30
0
41
1
10
14.44465257146
20
12.9749173960117
30
0
41
1
10
14.4511010056759
20
12.9615462895848
30
0
41
1
10
14.4648241573415
20
12.9341985022784
30
0
41
1
10
14.4721443067652
20
12.9201307119917
30
0
41
1
10
14.4894947618166
20
12.8878677488671
30
0
41
1
10
14.4998069117528
20
12.8694359463466
30
0
41
1
10
14.5103857412472
20
12.8512088634162
30
0
0
SPLINE
5
255
100
AcDbEntity
8
1
62
256
6
ByLayer
370
-1
48
1
60
0
100
AcDbSpline
70
4
71
3
72
8
73
4
40
0
40
0
40
0
40
0
40
1
40
1
40
1
40
1
41
1
10
15.2609769317509
20
13.2632267888128
30
0
41
1
10
15.3345523706872
20
13.2736308444865
30
0
41
1
10
15.4083524744078
20
13.2826999751518
30
0
41
1
10
15.4823619932004
20
13.2892516737503
30
0
0
SPLINE
5
256
100
AcDbEntity
8
1
62
256
6
ByLayer
370
-1
48
1
60
0
100
AcDbSpline
70
4
71
3
72
10
73
6
40
0
40
0
40
0
40
0
40
0.736240194588442
40
0.736240194588442
40
1
40
1
40
1
40
1
41
1
10
24.1218780704472
20
16.7849469883642
30
0
41
1
10
24.1238209560103
20
16.8027106734289
30
0
41
1
10
24.1304855667515
20
16.8208716874984
30
0
41
1
10
24.1485426426916
20
16.8418124534959
30
0
41
1
10
24.1542769813031
20
16.847058490185
30
0
41
1
10
24.1609408461052
20
16.8516477425988
30
0
0
SPLINE
5
257
100
AcDbEntity
8
1
62
256
6
ByLayer
370
-1
48
1
60
0
100
AcDbSpline
70
4
71
3
72
14
73
10
40
0
40
0
40
0
40
0
40
0.249103078948823
40
0.249103078948823
40
0.498160925944211
40
0.498160925944211
40
0.745586162481426
40
0.745586162481426
40
1
40
1
40
1
40
1
41
1
10
22.9564885315243
20
13.2427965424112
30
0
41
1
10
22.9654626186634
20
13.2584302920862
30
0
41
1
10
22.9747026204536
20
13.2740852252229
30
0
41
1
10
22.9933186775002
20
13.3047824830348
30
0
41
1
10
23.0027592378228
20
13.3199314369491
30
0
41
1
10
23.0214592849626
20
13.3491254145687
30
0
41
1
10
23.0307822745216
20
13.3632749824118
30
0
41
1
10
23.049320348577
20
13.3905903571992
30
0
41
1
10
23.0585904975874
20
13.4038136739792
30
0
41
1
10
23.0675359200429
20
13.4161285916377
30
0
0
SPLINE
5
258
100
AcDbEntity
8
1
62
256
6
ByLayer
370
-1
48
1
60
0
100
AcDbSpline
70
4
71
3
72
8
73
4
40
0
40
0
40
0
40
0
40
1
40
1
40
1
40
1
41
1
10
18.6475645944931
20
18.7232151510834
30
0
41
1
10
18.7140404845027
20
18.8226267907122
30
0
41
1
10
18.7694139647369
20
18.9296423686739
30
0
41
1
10
18.8208181253644
20
19.0379012626765
30
0
0
SPLINE
5
259
100
AcDbEntity
8
1
62
256
6
ByLayer
370
-1
48
1
60
0
100
AcDbSpline
70
4
71
3
72
8
73
4
40
0
40
0
40
0
40
0
40
1
40
1
40
1
40
1
41
1
10
18.72790890562
20
19.0799246983835
30
0
41
1
10
18.7012254604781
20
19.0107573942425
30
0
41
1
10
18.6732872460858
20
18.9420601393564
30
0
41
1
10
18.6430881819262
20
18.8744368571003
30
0
0
SPLINE
5
25A
100
AcDbEntity
8
1
62
256
6
ByLayer
370
-1
48
1
60
0
100
AcDbSpline
70
4
71
3
72
8
73
4
40
0
40
0
40
0
40
0
40
1
40
1
40
1
40
1
41
1
10
21.9643199496892
20
13.1091865674519
30
0
41
1
10
21.9196517905225
20
13.168151679757
30
0
41
1
10
21.8760046274379
20
13.2279808410214
30
0
41
1
10
21.834389202021
20
13.2892516737669
30
0
0
SPLINE
5
25B
100
AcDbEntity
8
1
62
256
6
ByLayer
370
-1
48
1
60
0
100
AcDbSpline
70
4
71
3
72
22
73
18
40
0
40
0
40
0
40
0
40
0.0236324717630028
40
0.0236324717630028
40
0.0629814022064406
40
0.0629814022064406
40
0.0762359204463808
40
0.0762359204463808
40
0.134099172814637
40
0.134099172814637
40
0.288877504287529
40
0.288877504287529
40
0.44293309437762
40
0.44293309437762
40
0.668543354429525
40
0.668543354429525
40
1
40
1
40
1
40
1
41
1
10
17.8096810006667
20
18.7066474455065
30
0
41
1
10
17.8048603126283
20
18.7078669232243
30
0
41
1
10
17.8002291787088
20
18.7102046880172
30
0
41
1
10
17.7895654155026
20
18.7181566642687
30
0
41
1
10
17.7842194794057
20
18.7249622904156
30
0
41
1
10
17.7784088962161
20
18.7345142531444
30
0
41
1
10
17.7770319942068
20
18.737010656099
30
0
41
1
10
17.7701353246637
20
18.7505635998658
30
0
41
1
10
17.7660313521865
20
18.7623598372483
30
0
41
1
10
17.7536393261231
20
18.8059633780867
30
0
41
1
10
17.749363420715
20
18.8389576176781
30
0
41
1
10
17.7434459980974
20
18.904453368943
30
0
41
1
10
17.7421098094922
20
18.9372938616649
30
0
41
1
10
17.7408526368658
20
19.0181408041997
30
0
41
1
10
17.7419225957107
20
19.0661949430045
30
0
41
1
10
17.7469556094878
20
19.1846287430548
30
0
41
1
10
17.7520884836566
20
19.2549818639536
30
0
41
1
10
17.7584125502299
20
19.3251758313099
30
0
0
SPLINE
5
25C
100
AcDbEntity
8
1
62
256
6
ByLayer
370
-1
48
1
60
0
100
AcDbSpline
70
4
71
3
72
14
73
10
40
0
40
0
40
0
40
0
40
0.233926408286285
40
0.233926408286285
40
0.467719442169608
40
0.467719442169608
40
0.701444004412188
40
0.701444004412188
40
1
40
1
40
1
40
1
41
1
10
18.9038528511151
20
19.9103024152394
30
0
41
1
10
18.8891955131737
20
19.9101431082632
30
0
41
1
10
18.8738211616943
20
19.9100011321173
30
0
41
1
10
18.8423337831922
20
19.9097572101902
30
0
41
1
10
18.826110906319
20
19.9096543753499
30
0
41
1
10
18.7933858818302
20
19.90949015116
30
0
41
1
10
18.7767744659534
20
19.909428189943
30
0
41
1
10
18.7391575112059
20
19.9093346288772
30
0
41
1
10
18.7180078684916
20
19.9093156833746
30
0
41
1
10
18.6974181354364
20
19.9093298460099
30
0
0
SPLINE
5
25D
100
AcDbEntity
8
1
62
256
6
ByLayer
370
-1
48
1
60
0
100
AcDbSpline
70
4
71
3
72
18
73
14
40
0
40
0
40
0
40
0
40
0.0414544517087685
40
0.0414544517087685
40
0.132910922468088
40
0.132910922468088
40
0.263177731540067
40
0.263177731540067
40
0.458562667326513
40
0.458562667326513
40
0.81742584746328
40
0.81742584746328
40
1
40
1
40
1
40
1
41
1
10
15.902836229008
20
13.2482412893301
30
0
41
1
10
15.9015773815002
20
13.2526557997567
30
0
41
1
10
15.8999295568597
20
13.256973792115
30
0
41
1
10
15.8936118590746
20
13.2701267329241
30
0
41
1
10
15.8875707791617
20
13.2783965017122
30
0
41
1
10
15.8708525777479
20
13.2958238279558
30
0
41
1
10
15.8591248661193
20
13.3042420705457
30
0
41
1
10
15.8285108029278
20
13.3218630706646
30
0
41
1
10
15.8085794620802
20
13.3296936509074
30
0
41
1
10
15.7513973991905
20
13.3476922518547
30
0
41
1
10
15.7129341299351
20
13.3546012860849
30
0
41
1
10
15.6548950263022
20
13.361995493308
30
0
41
1
10
15.635217950446
20
13.3639181745691
30
0
41
1
10
15.6155187444933
20
13.3654155362671
30
0
0
SPLINE
5
25E
100
AcDbEntity
8
1
62
256
6
ByLayer
370
-1
48
1
60
0
100
AcDbSpline
70
4
71
3
72
14
73
10
40
0
40
0
40
0
40
0
40
0.314392366702155
40
0.314392366702155
40
0.632200716155386
40
0.632200716155386
40
0.91251319620216
40
0.91251319620216
40
1
40
1
40
1
40
1
41
1
10
12.0802092458879
20
19.1461466756122
30
0
41
1
10
12.0694094004891
20
19.1462454250453
30
0
41
1
10
12.0583717649897
20
19.1448188038591
30
0
41
1
10
12.0374692316039
20
19.138094314236
30
0
41
1
10
12.0273574054561
20
19.1326094137107
30
0
41
1
10
12.0110161553926
20
19.1192513101973
30
0
41
1
10
12.0042651809731
20
19.1116142785713
30
0
41
1
10
11.9968933306467
20
19.1007431142965
30
0
41
1
10
11.995228308719
20
19.0980651065485
30
0
41
1
10
11.99366255701
20
19.0953328613372
30
0
0
SPLINE
5
25F
100
AcDbEntity
8
1
62
256
6
ByLayer
370
-1
48
1
60
0
100
AcDbSpline
70
4
71
3
72
22
73
18
40
0
40
0
40
0
40
0
40
0.153101873520358
40
0.153101873520358
40
0.442621285364901
40
0.442621285364901
40
0.707385074439679
40
0.707385074439679
40
0.843532608240161
40
0.843532608240161
40
0.926352665771243
40
0.926352665771243
40
0.963706736955241
40
0.963706736955241
40
0.977863955360655
40
0.977863955360655
40
1
40
1
40
1
40
1
41
1
10
21.8343892020335
20
13.2892516737485
30
0
41
1
10
21.8225831380494
20
13.3066338671177
30
0
41
1
10
21.8109458232129
20
13.3241387758613
30
0
41
1
10
21.7779479566357
20
13.3751645354895
30
0
41
1
10
21.7570890302271
20
13.4090700248923
30
0
41
1
10
21.7200099148845
20
13.4756037504744
30
0
41
1
10
21.7033016058406
20
13.508138870112
30
0
41
1
10
21.68312045792
20
13.5595440264252
30
0
41
1
10
21.6770662693091
20
13.5774991377123
30
0
41
1
10
21.6713539784117
20
13.6071890267724
30
0
41
1
10
21.6700566529588
20
13.6188187244864
30
0
41
1
10
21.671726423032
20
13.6353776221883
30
0
41
1
10
21.6727957491169
20
13.6405653810584
30
0
41
1
10
21.6753913409704
20
13.6472521713546
30
0
41
1
10
21.6762310233922
20
13.6490587912765
30
0
41
1
10
21.6787003261875
20
13.653475200731
30
0
41
1
10
21.6805350238756
20
13.6560010359778
30
0
41
1
10
21.6826436951993
20
13.6582244375059
30
0
0
SPLINE
5
260
100
AcDbEntity
8
1
62
256
6
ByLayer
370
-1
48
1
60
0
100
AcDbSpline
70
4
71
3
72
14
73
10
40
0
40
0
40
0
40
0
40
0.233926408286306
40
0.233926408286306
40
0.467719442169526
40
0.467719442169526
40
0.701444004412115
40
0.701444004412115
40
1
40
1
40
1
40
1
41
1
10
22.5477475650229
20
12.5106057345014
30
0
41
1
10
22.5524126720495
20
12.5217911380239
30
0
41
1
10
22.5577204885621
20
12.5337922011643
30
0
41
1
10
22.5693641125112
20
12.558871613688
30
0
41
1
10
22.5757399125793
20
12.5720370504344
30
0
41
1
10
22.5893142539852
20
12.5990563893608
30
0
41
1
10
22.5965577316697
20
12.6130002572136
30
0
41
1
10
22.6137320826153
20
12.6450760982067
30
0
41
1
10
22.623943435536
20
12.6634700097219
30
0
41
1
10
22.6344224074629
20
12.6817254179229
30
0
0
SPLINE
5
261
100
AcDbEntity
8
1
62
256
6
ByLayer
370
-1
48
1
60
0
100
AcDbSpline
70
4
71
3
72
20
73
16
40
0
40
0
40
0
40
0
40
0.31485919264875
40
0.31485919264875
40
0.531558880441062
40
0.531558880441062
40
0.682135903694807
40
0.682135903694807
40
0.839619845966525
40
0.839619845966525
40
0.903112673776015
40
0.903112673776015
40
0.967902128209816
40
0.967902128209816
40
1
40
1
40
1
40
1
41
1
10
22.713118279231
20
13.921665898277
30
0
41
1
10
22.6525680209988
20
13.9602116899525
30
0
41
1
10
22.5910112376602
20
13.9972454224959
30
0
41
1
10
22.4846449664753
20
14.0550482934417
30
0
41
1
10
22.4405428700974
20
14.0773426612791
30
0
41
1
10
22.364080304408
20
14.1110143361548
30
0
41
1
10
22.3321797111843
20
14.1236954332768
30
0
41
1
10
22.265670675538
20
14.1451124815192
30
0
41
1
10
22.2306261202029
20
14.1540671770309
30
0
41
1
10
22.1807464678333
20
14.1577338118142
30
0
41
1
10
22.1661668033886
20
14.1576940461227
30
0
41
1
10
22.137458275706
20
14.1536476413141
30
0
41
1
10
22.122902494425
20
14.1494195751516
30
0
41
1
10
22.1040289246938
20
14.1381850301709
30
0
41
1
10
22.0981404691121
20
14.1335466012248
30
0
41
1
10
22.0930659118228
20
14.1281959435365
30
0
0
SPLINE
5
262
100
AcDbEntity
8
1
62
256
6
ByLayer
370
-1
48
1
60
0
100
AcDbSpline
70
4
71
3
72
14
73
10
40
0
40
0
40
0
40
0
40
0.249103078948837
40
0.249103078948837
40
0.498160925944156
40
0.498160925944156
40
0.745586162481356
40
0.745586162481356
40
1
40
1
40
1
40
1
41
1
10
18.0646026677717
20
19.9097651277439
30
0
41
1
10
18.0469698255524
20
19.9097772564837
30
0
41
1
10
18.0296082023914
20
19.9098136830408
30
0
41
1
10
17.9961430866479
20
19.9099327283792
30
0
41
1
10
17.9799231653039
20
19.9100157454389
30
0
41
1
10
17.9492547817675
20
19.910224232106
30
0
41
1
10
17.934692468813
20
19.9103501169919
30
0
41
1
10
17.9072086381827
20
19.9106448333624
30
0
41
1
10
17.8942479036757
20
19.9108158196503
30
0
41
1
10
17.8825404981717
20
19.9110049243194
30
0
0
SPLINE
5
263
100
AcDbEntity
8
1
62
256
6
ByLayer
370
-1
48
1
60
0
100
AcDbSpline
70
4
71
3
72
8
73
4
40
0
40
0
40
0
40
0
40
1
40
1
40
1
40
1
41
1
10
21.7089405050403
20
13.3654155362429
30
0
41
1
10
21.7606587935917
20
13.2570198067772
30
0
41
1
10
21.8243875822835
20
13.1545658904016
30
0
41
1
10
21.8911520028613
20
13.054977451252
30
0
0
SPLINE
5
264
100
AcDbEntity
8
1
62
256
6
ByLayer
370
-1
48
1
60
0
100
AcDbSpline
70
4
71
3
72
10
73
6
40
0
40
0
40
0
40
0
40
0.638746828356592
40
0.638746828356592
40
1
40
1
40
1
40
1
41
1
10
15.4823619931899
20
13.2892516737381
30
0
41
1
10
15.3601676216458
20
13.2212097051621
30
0
41
1
10
15.2371598907614
20
13.1520525460075
30
0
41
1
10
15.0446528290112
20
13.0430928105364
30
0
41
1
10
14.974998726555
20
13.0035132493119
30
0
41
1
10
14.9054120070357
20
12.9638214123954
30
0
0
SPLINE
5
265
100
AcDbEntity
8
1
62
256
6
ByLayer
370
-1
48
1
60
0
100
AcDbSpline
70
4
71
3
72
10
73
6
40
0
40
0
40
0
40
0
40
0.388885978132902
40
0.388885978132902
40
1
40
1
40
1
40
1
41
1
10
21.7089405050402
20
13.365415536243
30
0
41
1
10
21.7259997075621
20
13.3554317231666
30
0
41
1
10
21.7428684913557
20
13.3454119769481
30
0
41
1
10
21.7852905203555
20
13.3198655482121
30
0
41
1
10
21.8105623699275
20
13.3043120632845
30
0
41
1
10
21.8343892020335
20
13.2892516737484
30
0
0
SPLINE
5
266
100
AcDbEntity
8
1
62
256
6
ByLayer
370
-1
48
1
60
0
100
AcDbSpline
70
4
71
3
72
10
73
6
40
0
40
0
40
0
40
0
40
0.638746828356571
40
0.638746828356571
40
1
40
1
40
1
40
1
41
1
10
21.8343892020353
20
13.2892516737644
30
0
41
1
10
21.9420374509429
20
13.2212097051884
30
0
41
1
10
22.0530751267824
20
13.1520525460075
30
0
41
1
10
22.2297904029303
20
13.0430928105364
30
0
41
1
10
22.2943564729327
20
13.0035132493119
30
0
41
1
10
22.3594677408742
20
12.9638214123954
30
0
0
SPLINE
5
267
100
AcDbEntity
8
1
62
256
6
ByLayer
370
-1
48
1
60
0
100
AcDbSpline
70
4
71
3
72
20
73
16
40
0
40
0
40
0
40
0
40
0.314859192648773
40
0.314859192648773
40
0.531558880441054
40
0.531558880441054
40
0.682135903694809
40
0.682135903694809
40
0.83961984596651
40
0.83961984596651
40
0.903112673776005
40
0.903112673776005
40
0.967902128209794
40
0.967902128209794
40
1
40
1
40
1
40
1
41
1
10
15.590317636254
20
12.2030021946601
30
0
41
1
10
15.6533258695277
20
12.2368769205954
30
0
41
1
10
15.7155451851449
20
12.272396328554
30
0
41
1
10
15.817777083516
20
12.3368810902451
30
0
41
1
10
15.8587386648398
20
12.3644581661398
30
0
41
1
10
15.9255072263795
20
12.414772991326
30
0
41
1
10
15.9521974835874
20
12.436451349731
30
0
41
1
10
16.0035602707922
20
12.4841710811778
30
0
41
1
10
16.0286363924767
20
12.5104860191964
30
0
41
1
10
16.0565837434044
20
12.552501859379
30
0
41
1
10
16.0638045673853
20
12.5653413872092
30
0
41
1
10
16.0746382317723
20
12.5926170479622
30
0
41
1
10
16.0782746306599
20
12.6075398061124
30
0
41
1
10
16.0780831384015
20
12.6297791939854
30
0
41
1
10
16.0770567023974
20
12.6372871495288
30
0
41
1
10
16.075017758425
20
12.6444372923147
30
0
0
SPLINE
5
268
100
AcDbEntity
8
1
62
256
6
ByLayer
370
-1
48
1
60
0
100
AcDbSpline
70
4
71
3
72
12
73
8
40
0
40
0
40
0
40
0
40
0.197891272102656
40
0.197891272102656
40
0.598376100017378
40
0.598376100017378
40
1
40
1
40
1
40
1
41
1
10
18.6430881819349
20
18.8744368571186
30
0
41
1
10
18.6406619106921
20
18.9159957618957
30
0
41
1
10
18.6383633667019
20
18.957807241704
30
0
41
1
10
18.6317486846001
20
19.0847997521583
30
0
41
1
10
18.6277697552682
20
19.1705999837498
30
0
41
1
10
18.6205677692145
20
19.3434251122705
30
0
41
1
10
18.6173460501069
20
19.4305215744537
30
0
41
1
10
18.6145002076585
20
19.5179938477127
30
0
0
SPLINE
5
269
100
AcDbEntity
8
1
62
256
6
ByLayer
370
-1
48
1
60
0
100
AcDbSpline
70
4
71
3
72
22
73
18
40
0
40
0
40
0
40
0
40
0.153101873520354
40
0.153101873520354
40
0.44262128536492
40
0.44262128536492
40
0.707385074439716
40
0.707385074439716
40
0.843532608240187
40
0.843532608240187
40
0.926352665771241
40
0.926352665771241
40
0.963706736955301
40
0.963706736955301
40
0.977863955360684
40
0.977863955360684
40
1
40
1
40
1
40
1
41
1
10
18.6430881819353
20
18.8744368571207
30
0
41
1
10
18.6345208759389
20
18.8552525092707
30
0
41
1
10
18.6257632940174
20
18.8361558625997
30
0
41
1
10
18.5997598045787
20
18.7813082498236
30
0
41
1
10
18.5819316381257
20
18.7458079687278
30
0
41
1
10
18.5449651078687
20
18.6795542199474
30
0
41
1
10
18.5261561405872
20
18.6484156662079
30
0
41
1
10
18.493241665219
20
18.6047184141111
30
0
41
1
10
18.4812336644532
20
18.5903357504175
30
0
41
1
10
18.4591683107449
20
18.5703562364384
30
0
41
1
10
18.4500419463917
20
18.5633619682312
30
0
41
1
10
18.4352399811259
20
18.5565146360347
30
0
41
1
10
18.4303219523494
20
18.5548526460608
30
0
41
1
10
18.423357267287
20
18.5537873238146
30
0
41
1
10
18.4214044359087
20
18.5536219489491
30
0
41
1
10
18.4164164899913
20
18.5535862736124
30
0
41
1
10
18.4133466819647
20
18.5539396076429
30
0
41
1
10
18.4103907519659
20
18.5546873620589
30
0
0
SPLINE
5
26A
100
AcDbEntity
8
1
62
256
6
ByLayer
370
-1
48
1
60
0
100
AcDbSpline
70
4
71
3
72
14
73
10
40
0
40
0
40
0
40
0
40
0.314392366702135
40
0.314392366702135
40
0.632200716155333
40
0.632200716155333
40
0.912513196201948
40
0.912513196201948
40
1
40
1
40
1
40
1
41
1
10
18.4434207653742
20
7.4325961278042
30
0
41
1
10
18.4490353707494
20
7.42292253185119
30
0
41
1
10
18.4560118249302
20
7.41382650066492
30
0
41
1
10
18.4724843908749
20
7.39868283284775
30
0
41
1
10
18.4822623135575
20
7.39251198264259
30
0
41
1
10
18.5017069630801
20
7.38486546955875
30
0
41
1
10
18.5114572579859
20
7.38280288668153
30
0
41
1
10
18.5241565204492
20
7.3818608885702
30
0
41
1
10
18.5272052613851
20
7.38176334208052
30
0
41
1
10
18.5302456229698
20
7.38178231352913
30
0
0
SPLINE
5
26B
100
AcDbEntity
8
1
62
256
6
ByLayer
370
-1
48
1
60
0
100
AcDbSpline
70
4
71
3
72
14
73
10
40
0
40
0
40
0
40
0
40
0.249103078948825
40
0.249103078948825
40
0.498160925944176
40
0.498160925944176
40
0.745586162481402
40
0.745586162481402
40
1
40
1
40
1
40
1
41
1
10
14.8355209392557
20
12.291008302396
30
0
41
1
10
14.8445805434206
20
12.2753988102006
30
0
41
1
10
14.8539060451877
20
12.259816730178
30
0
41
1
10
14.872689495733
20
12.229357563043
30
0
41
1
10
14.8822125311148
20
12.214374643248
30
0
41
1
10
14.9010712527601
20
12.1855976389627
30
0
41
1
10
14.9104710117954
20
12.1716998408913
30
0
41
1
10
14.9291570043255
20
12.1449738988449
30
0
41
1
10
14.9384986053631
20
12.1320925546408
30
0
41
1
10
14.9475104078355
20
12.1201558463204
30
0
0
SPLINE
5
26C
100
AcDbEntity
8
1
62
256
6
ByLayer
370
-1
48
1
60
0
100
AcDbSpline
70
4
71
3
72
10
73
6
40
0
40
0
40
0
40
0
40
0.736240194588486
40
0.736240194588486
40
1
40
1
40
1
40
1
41
1
10
17.2324711443467
20
9.45485061846514
30
0
41
1
10
17.2403600965542
20
9.43971474534425
30
0
41
1
10
17.2463665457189
20
9.42031915136531
30
0
41
1
10
17.2478942468048
20
9.38866525257012
30
0
41
1
10
17.247640975895
20
9.37964684088564
30
0
41
1
10
17.2465080095565
20
9.3702434000472
30
0
0
SPLINE
5
26D
100
AcDbEntity
8
1
62
256
6
ByLayer
370
-1
48
1
60
0
100
AcDbSpline
70
4
71
3
72
24
73
20
40
0
40
0
40
0
40
0
40
0.104000448201651
40
0.104000448201651
40
0.192499055460769
40
0.192499055460769
40
0.328500518746395
40
0.328500518746395
40
0.438682575665085
40
0.438682575665085
40
0.548533158171566
40
0.548533158171566
40
0.658237202769603
40
0.658237202769603
40
0.767870673660723
40
0.767870673660723
40
0.988088331634114
40
0.988088331634114
40
1
40
1
40
1
40
1
41
1
10
10.5841810705932
20
20.0075339171853
30
0
41
1
10
10.5728477431016
20
20.0149859964983
30
0
41
1
10
10.5599274176715
20
20.0222294420784
30
0
41
1
10
10.5356968061297
20
20.0338755919426
30
0
41
1
10
10.5241613564344
20
20.0386925668403
30
0
41
1
10
10.4959830658825
20
20.0491293336794
30
0
41
1
10
10.4794127073992
20
20.0540325829682
30
0
41
1
10
10.4517667198428
20
20.0609545393402
30
0
41
1
10
10.4400152417464
20
20.0634013246498
30
0
41
1
10
10.4179848177583
20
20.0673280829102
30
0
41
1
10
10.4076318919797
20
20.0688214431691
30
0
41
1
10
10.3881992434646
20
20.071114192965
30
0
41
1
10
10.37908363359
20
20.0719170975943
30
0
41
1
10
10.3619961588815
20
20.0729905736417
30
0
41
1
10
10.3540037978013
20
20.0732618896849
30
0
41
1
10
10.3315935097779
20
20.0734221009619
30
0
41
1
10
10.318697001858
20
20.0726661802223
30
0
41
1
10
10.3073030989039
20
20.0711220520159
30
0
41
1
10
10.3067230552246
20
20.0710404678503
30
0
41
1
10
10.306149127615
20
20.0709567386353
30
0
0
SPLINE
5
26E
100
AcDbEntity
8
1
62
256
6
ByLayer
370
-1
48
1
60
0
100
AcDbSpline
70
4
71
3
72
8
73
4
40
0
40
0
40
0
40
0
40
1
40
1
40
1
40
1
41
1
10
11.0922449755211
20
20.0299781475582
30
0
41
1
10
11.0947247283434
20
20.0257256947319
30
0
41
1
10
11.097204500091
20
20.0214733289575
30
0
41
1
10
11.0996842916988
20
20.0172210545436
30
0
0
SPLINE
5
26F
100
AcDbEntity
8
1
62
256
6
ByLayer
370
-1
48
1
60
0
100
AcDbSpline
70
4
71
3
72
8
73
4
40
0
40
0
40
0
40
0
40
1
40
1
40
1
40
1
41
1
10
12.3641799402542
20
20.0232751538889
30
0
41
1
10
12.3599351000666
20
20.0190806148747
30
0
41
1
10
12.3556902276618
20
20.0148861633529
30
0
41
1
10
12.3514453214488
20
20.0106918036537
30
0
0
SPLINE
5
270
100
AcDbEntity
8
1
62
256
6
ByLayer
370
-1
48
1
60
0
100
AcDbSpline
70
4
71
3
72
10
73
6
40
0
40
0
40
0
40
0
40
0.388885978132954
40
0.388885978132954
40
1
40
1
40
1
40
1
41
1
10
15.6155187444904
20
13.365415536243
30
0
41
1
10
15.5985141960921
20
13.3554317231666
30
0
41
1
10
15.5812641463505
20
13.3454119769481
30
0
41
1
10
15.5368538359103
20
13.3198655482121
30
0
41
1
10
15.5094084598381
20
13.3043120632845
30
0
41
1
10
15.482361993178
20
13.2892516737484
30
0
0
SPLINE
5
271
100
AcDbEntity
8
1
62
256
6
ByLayer
370
-1
48
1
60
0
100
AcDbSpline
70
4
71
3
72
14
73
10
40
0
40
0
40
0
40
0
40
0.314392366702126
40
0.314392366702126
40
0.632200716155299
40
0.632200716155299
40
0.912513196202084
40
0.912513196202084
40
1
40
1
40
1
40
1
41
1
10
25.2379374790258
20
18.856199694226
30
0
41
1
10
25.2436409799392
20
18.865821584771
30
0
41
1
10
25.2481088962936
20
18.8763811576474
30
0
41
1
10
25.2529853615415
20
18.8982898449723
30
0
41
1
10
25.2533556432637
20
18.9099488978613
30
0
41
1
10
25.2499493386348
20
18.9309260188888
30
0
41
1
10
25.2466543860709
20
18.9405987980218
30
0
41
1
10
25.2408003963021
20
18.9523641614483
30
0
41
1
10
25.2392798266102
20
18.9551272933575
30
0
41
1
10
25.237659310308
20
18.957827322776
30
0
0
SPLINE
5
272
100
AcDbEntity
8
1
62
256
6
ByLayer
370
-1
48
1
60
0
100
AcDbSpline
70
4
71
3
72
8
73
4
40
0
40
0
40
0
40
0
40
1
40
1
40
1
40
1
41
1
10
11.7405062494783
20
20.0228880975367
30
0
41
1
10
11.7406762585177
20
20.0271638051898
30
0
41
1
10
11.7408462662697
20
20.0314396040164
30
0
41
1
10
11.7410162727949
20
20.0357154897166
30
0
0
SPLINE
5
273
100
AcDbEntity
8
1
62
256
6
ByLayer
370
-1
48
1
60
0
100
AcDbSpline
70
4
71
3
72
22
73
18
40
0
40
0
40
0
40
0
40
0.208266363443072
40
0.208266363443072
40
0.317899168105871
40
0.317899168105871
40
0.427584739862331
40
0.427584739862331
40
0.537377253733559
40
0.537377253733559
40
0.647402228731684
40
0.647402228731684
40
0.811583680502529
40
0.811583680502529
40
0.906636022131675
40
0.906636022131675
40
1
40
1
40
1
40
1
41
1
10
12.7107652952097
20
20.0922217140914
30
0
41
1
10
12.6919638370688
20
20.0934269439977
30
0
41
1
10
12.6716051100127
20
20.093966996889
30
0
41
1
10
12.6384504713375
20
20.0936066752536
30
0
41
1
10
12.6265974959394
20
20.0932634482697
30
0
41
1
10
12.6021308281071
20
20.0920548824517
30
0
41
1
10
12.5894897830601
20
20.0911887231108
30
0
41
1
10
12.5634537617258
20
20.0887935517074
30
0
41
1
10
12.5500157742125
20
20.087261378475
30
0
41
1
10
12.5224294835033
20
20.0833064956735
30
0
41
1
10
12.5082027730049
20
20.0808729220762
30
0
41
1
10
12.4723875178535
20
20.0733099232122
30
0
41
1
10
12.4498858952664
20
20.0673007825732
30
0
41
1
10
12.4160816254217
20
20.0545496618733
30
0
41
1
10
12.4037847949417
20
20.049031499293
30
0
41
1
10
12.3819516212256
20
20.0369092812099
30
0
41
1
10
12.3721243011983
20
20.0301656588199
30
0
41
1
10
12.3641799402549
20
20.0232751538911
30
0
0
SPLINE
5
274
100
AcDbEntity
8
1
62
256
6
ByLayer
370
-1
48
1
60
0
100
AcDbSpline
70
4
71
3
72
22
73
18
40
0
40
0
40
0
40
0
40
0.20826636344359
40
0.20826636344359
40
0.317899168106254
40
0.317899168106254
40
0.42758473986258
40
0.42758473986258
40
0.537377253733731
40
0.537377253733731
40
0.64740222873166
40
0.64740222873166
40
0.81158368050257
40
0.81158368050257
40
0.906636022131681
40
0.906636022131681
40
1
40
1
40
1
40
1
41
1
10
11.3861251729153
20
20.1186657589431
30
0
41
1
10
11.3573160419383
20
20.11841098836
30
0
41
1
10
11.3287645573308
20
20.1174500541825
30
0
41
1
10
11.2862967639976
20
20.1147671667208
30
0
41
1
10
11.271806437543
20
20.1136145381151
30
0
41
1
10
11.2433848974501
20
20.1107802500447
30
0
41
1
10
11.2294215279003
20
20.1090959410275
30
0
41
1
10
11.2023015229881
20
20.1050652535526
30
0
41
1
10
11.1890998629228
20
20.1027130053099
30
0
41
1
10
11.1639270860437
20
20.0971329407164
30
0
41
1
10
11.1518862806709
20
20.0938896973314
30
0
41
1
10
11.1246036556156
20
20.0843800100449
30
0
41
1
10
11.1101422232903
20
20.0772288581883
30
0
41
1
10
11.095152966335
20
20.0629658322832
30
0
41
1
10
11.091279103215
20
20.0569454403915
30
0
41
1
10
11.0883375194077
20
20.0440505761758
30
0
41
1
10
11.0891864110579
20
20.0370249033829
30
0
41
1
10
11.0922449755209
20
20.0299781475605
30
0
0
SPLINE
5
275
100
AcDbEntity
8
1
62
256
6
ByLayer
370
-1
48
1
60
0
100
AcDbSpline
70
4
71
3
72
24
73
20
40
0
40
0
40
0
40
0
40
0.104000448201732
40
0.104000448201732
40
0.192499055460905
40
0.192499055460905
40
0.328500518746681
40
0.328500518746681
40
0.438682575665435
40
0.438682575665435
40
0.548533158171918
40
0.548533158171918
40
0.65823720277008
40
0.65823720277008
40
0.767870673661278
40
0.767870673661278
40
0.988088331634912
40
0.988088331634912
40
1
40
1
40
1
40
1
41
1
10
11.7410162727949
20
20.0357154897166
30
0
41
1
10
11.7400666349156
20
20.0435401655997
30
0
41
1
10
11.7361592430609
20
20.0512968571111
30
0
41
1
10
11.7242598388459
20
20.0640487298774
30
0
41
1
10
11.716869043029
20
20.0694461623202
30
0
41
1
10
11.6953975997813
20
20.0814078923069
30
0
41
1
10
11.6795760815088
20
20.0873079839478
30
0
41
1
10
11.6493108683373
20
20.0960142559985
30
0
41
1
10
11.6349318054441
20
20.0992669335158
30
0
41
1
10
11.6056258959305
20
20.1047780968706
30
0
41
1
10
11.5906058075965
20
20.1070551285771
30
0
41
1
10
11.5603215419754
20
20.1108843599604
30
0
41
1
10
11.545001779974
20
20.1124429014585
30
0
41
1
10
11.5142894430271
20
20.1149953415813
30
0
41
1
10
11.4988596385882
20
20.115991771047
30
0
41
1
10
11.4525582581519
20
20.1182803141322
30
0
41
1
10
11.421590138603
20
20.1188846255571
30
0
41
1
10
11.389430650183
20
20.1186926147267
30
0
41
1
10
11.3877773408013
20
20.1186803697197
30
0
41
1
10
11.3861251729153
20
20.1186657589431
30
0
0
SPLINE
5
276
100
AcDbEntity
8
1
62
256
6
ByLayer
370
-1
48
1
60
0
100
AcDbSpline
70
4
71
3
72
8
73
4
40
0
40
0
40
0
40
0
40
1
40
1
40
1
40
1
41
1
10
10.6015870713588
20
19.9952171124155
30
0
41
1
10
10.5957850254568
20
19.9993226229282
30
0
41
1
10
10.5899830259292
20
20.0034282259728
30
0
41
1
10
10.5841810705932
20
20.0075339171853
30
0
0
SPLINE
5
277
100
AcDbEntity
8
1
62
256
6
ByLayer
370
-1
48
1
60
0
100
AcDbSpline
70
4
71
3
72
30
73
26
40
0
40
0
40
0
40
0
40
0.0511772287529402
40
0.0511772287529402
40
0.13507524106807
40
0.13507524106807
40
0.271834780653085
40
0.271834780653085
40
0.469061266911885
40
0.469061266911885
40
0.50063606195947
40
0.50063606195947
40
0.599800502488889
40
0.599800502488889
40
0.697557955314251
40
0.697557955314251
40
0.781333785462905
40
0.781333785462905
40
0.847844869821928
40
0.847844869821928
40
0.899113486931034
40
0.899113486931034
40
0.939077913069082
40
0.939077913069082
40
1
40
1
40
1
40
1
41
1
10
19.732237626214
20
14.0966279818323
30
0
41
1
10
19.7206735140796
20
14.1056782544702
30
0
41
1
10
19.7072250092967
20
14.1127745529373
30
0
41
1
10
19.6701165262793
20
14.1267011222071
30
0
41
1
10
19.6447839924651
20
14.130913627339
30
0
41
1
10
19.5783443715895
20
14.1343385729396
30
0
41
1
10
19.5358202581279
20
14.1290352785042
30
0
41
1
10
19.4358427366122
20
14.1059302368243
30
0
41
1
10
19.3778804982102
20
14.0831079724028
30
0
41
1
10
19.3162412552703
20
14.0501114828396
30
0
41
1
10
19.3077470242254
20
14.0453465015303
30
0
41
1
10
19.2731515971995
20
14.0250321478246
30
0
41
1
10
19.248008176479
20
14.008084826547
30
0
41
1
10
19.2012543436898
20
13.9718526256431
30
0
41
1
10
19.1794387319049
20
13.9524860137502
30
0
41
1
10
19.1426920450131
20
13.914297913566
30
0
41
1
10
19.1271085051397
20
13.8956794148327
30
0
41
1
10
19.1027489970467
20
13.8607100798513
30
0
41
1
10
19.0931661339441
20
13.8445858060199
30
0
41
1
10
19.0792766391538
20
13.8150976487317
30
0
41
1
10
19.0742318496464
20
13.8018704701682
30
0
41
1
10
19.0677622881031
20
13.7778951909178
30
0
41
1
10
19.0657723071925
20
13.7671810030679
30
0
41
1
10
19.0635925232789
20
13.740162875033
30
0
41
1
10
19.0648808075898
20
13.7234296835435
30
0
41
1
10
19.0698100439654
20
13.7076520573495
30
0
0
SPLINE
5
278
100
AcDbEntity
8
1
62
256
6
ByLayer
370
-1
48
1
60
0
100
AcDbSpline
70
4
71
3
72
30
73
26
40
0
40
0
40
0
40
0
40
0.0515194889309101
40
0.0515194889309101
40
0.0928771460762082
40
0.0928771460762082
40
0.148185150442041
40
0.148185150442041
40
0.203338923043073
40
0.203338923043073
40
0.287955708682403
40
0.287955708682403
40
0.372427214532278
40
0.372427214532278
40
0.43536714773485
40
0.43536714773485
40
0.498971020782635
40
0.498971020782635
40
0.701334348038591
40
0.701334348038591
40
0.838887327920863
40
0.838887327920863
40
0.925006664596553
40
0.925006664596553
40
1
40
1
40
1
40
1
41
1
10
18.3030127589542
20
13.7076520573496
30
0
41
1
10
18.3043495192248
20
13.721037216245
30
0
41
1
10
18.3030732199504
20
13.7351092394712
30
0
41
1
10
18.2974511269539
20
13.7600915924297
30
0
41
1
10
18.2937354764149
20
13.7712442834424
30
0
41
1
10
18.2830701552822
20
13.7967893681812
30
0
41
1
10
18.2754069230952
20
13.8111450819576
30
0
41
1
10
18.2580948296791
20
13.838916839886
30
0
41
1
10
18.2483903091908
20
13.852428941449
30
0
41
1
10
18.2220149213141
20
13.8855245606582
30
0
41
1
10
18.2042732597601
20
13.9046651819919
30
0
41
1
10
18.1667085770451
20
13.9408929035549
30
0
41
1
10
18.1467573306897
20
13.9581002132734
30
0
41
1
10
18.110673221698
20
13.9863756637948
30
0
41
1
10
18.0948026211304
20
13.9979334479273
30
0
41
1
10
18.0622855400558
20
14.0200039500752
30
0
41
1
10
18.0455892754316
20
14.0305335024522
30
0
41
1
10
17.9755097669035
20
14.0715402739716
30
0
41
1
10
17.9192392743239
20
14.0970464773477
30
0
41
1
10
17.8260141283172
20
14.1247319943552
30
0
41
1
10
17.7877373958521
20
14.132028707646
30
0
41
1
10
17.7284492385326
20
14.1330139704252
30
0
41
1
10
17.705899928256
20
14.1307264438089
30
0
41
1
10
17.6676647011701
20
14.118749313828
30
0
41
1
10
17.6509571835215
20
14.1097653479131
30
0
41
1
10
17.6382629967341
20
14.0966279818317
30
0
0
SPLINE
5
279
100
AcDbEntity
8
1
62
256
6
ByLayer
370
-1
48
1
60
0
100
AcDbSpline
70
4
71
3
72
24
73
20
40
0
40
0
40
0
40
0
40
0.0974021566270267
40
0.0974021566270267
40
0.18035403107539
40
0.18035403107539
40
0.307542616517307
40
0.307542616517307
40
0.412109117009759
40
0.412109117009759
40
0.516348967691024
40
0.516348967691024
40
0.620446917153592
40
0.620446917153592
40
0.724476829460183
40
0.724476829460183
40
0.933310901386446
40
0.933310901386446
40
1
40
1
40
1
40
1
41
1
10
19.0759943392019
20
13.6878573566553
30
0
41
1
10
19.0790125483007
20
13.6741444537593
30
0
41
1
10
19.078891417196
20
13.6596813633234
30
0
41
1
10
19.0728548269542
20
13.6344377902348
30
0
41
1
10
19.06778438867
20
13.6231306802422
30
0
41
1
10
19.0511036592422
20
13.5969764469809
30
0
41
1
10
19.0372893217339
20
13.5829384491082
30
0
41
1
10
19.0092757462903
20
13.560948145199
30
0
41
1
10
18.9953557043726
20
13.5521682938371
30
0
41
1
10
18.9663321622149
20
13.5366784287171
30
0
41
1
10
18.9511376895425
20
13.5299146420641
30
0
41
1
10
18.9200298133045
20
13.5180554740023
30
0
41
1
10
18.9040612136394
20
13.5129391023361
30
0
41
1
10
18.8716683044432
20
13.5041248715619
30
0
41
1
10
18.8552071853582
20
13.5004174798976
30
0
41
1
10
18.8053216048266
20
13.4911762406687
30
0
41
1
10
18.7713177310976
20
13.4875010374789
30
0
41
1
10
18.7262808221674
20
13.4856052646862
30
0
41
1
10
18.7153437606456
20
13.4853763613957
30
0
41
1
10
18.7043966321934
20
13.4853763613957
30
0
0
SPLINE
5
27A
100
AcDbEntity
8
1
62
256
6
ByLayer
370
-1
48
1
60
0
100
AcDbSpline
70
4
71
3
72
8
73
4
40
0
40
0
40
0
40
0
40
1
40
1
40
1
40
1
41
1
10
18.3010359302229
20
13.6878573566553
30
0
41
1
10
18.3016948545676
20
13.6944555526142
30
0
41
1
10
18.3023537972261
20
13.7010537856691
30
0
41
1
10
18.3030127589542
20
13.7076520573496
30
0
0
SPLINE
5
27B
100
AcDbEntity
8
1
62
256
6
ByLayer
370
-1
48
1
60
0
100
AcDbSpline
70
4
71
3
72
22
73
18
40
0
40
0
40
0
40
0
40
0.142057608739486
40
0.142057608739486
40
0.35100481299296
40
0.35100481299296
40
0.487763342942086
40
0.487763342942086
40
0.591529353509603
40
0.591529353509603
40
0.75869496922726
40
0.75869496922726
40
0.858776631808987
40
0.858776631808987
40
0.960359919517439
40
0.960359919517439
40
1
40
1
40
1
40
1
41
1
10
18.7043966321934
20
13.4853763613957
30
0
41
1
10
18.6811036353433
20
13.4853763613957
30
0
41
1
10
18.6577274656833
20
13.4864095046007
30
0
41
1
10
18.6001557651377
20
13.4915895768103
30
0
41
1
10
18.5658635260167
20
13.4969693250059
30
0
41
1
10
18.510120280814
20
13.5103112526873
30
0
41
1
10
18.4882270435205
20
13.5167704248997
30
0
41
1
10
18.4506352217136
20
13.5305929342548
30
0
41
1
10
18.434655248415
20
13.5373870811316
30
0
41
1
10
18.3945120743165
20
13.557562889268
30
0
41
1
10
18.3706492449546
20
13.572705824113
30
0
41
1
10
18.3384485985236
20
13.6020541936744
30
0
41
1
10
18.327547536721
20
13.6144671494717
30
0
41
1
10
18.3107528233848
20
13.6412444005163
30
0
41
1
10
18.3047876424864
20
13.6560623084005
30
0
41
1
10
18.3014051282393
20
13.6763815355161
30
0
41
1
10
18.3009658877195
20
13.6821693599752
30
0
41
1
10
18.301035930223
20
13.6878573566553
30
0
0
SPLINE
5
27C
100
AcDbEntity
8
1
62
256
6
ByLayer
370
-1
48
1
60
0
100
AcDbSpline
70
4
71
3
72
22
73
18
40
0
40
0
40
0
40
0
40
0.0973712659847776
40
0.0973712659847776
40
0.180296832630962
40
0.180296832630962
40
0.307445080803466
40
0.307445080803466
40
0.411978418515505
40
0.411978418515505
40
0.516185210011884
40
0.516185210011884
40
0.620250145292885
40
0.620250145292885
40
0.829289859627398
40
0.829289859627398
40
1
40
1
40
1
40
1
41
1
10
20.1324241336072
20
15.5554034538936
30
0
41
1
10
20.1464015847046
20
15.5610641901468
30
0
41
1
10
20.1594329740873
20
15.5698519947869
30
0
41
1
10
20.1791707371678
20
15.5901720674897
30
0
41
1
10
20.1867905294904
20
15.6012986211143
30
0
41
1
10
20.2018715757328
20
15.6312925393993
30
0
41
1
10
20.2074698948792
20
15.6515720431385
30
0
41
1
10
20.2129913180078
20
15.6888645766087
30
0
41
1
10
20.2138014638361
20
15.7061246048322
30
0
41
1
10
20.2129666807353
20
15.7404665479797
30
0
41
1
10
20.2113236685477
20
15.7576588985686
30
0
41
1
10
20.2061865440936
20
15.7917105675481
30
0
41
1
10
20.2026831765231
20
15.8086301093632
30
0
41
1
10
20.1899192009767
20
15.8588571778797
30
0
41
1
10
20.1783907915138
20
15.8917453268176
30
0
41
1
10
20.1534545971365
20
15.9495761986428
30
0
41
1
10
20.1407119203957
20
15.9749893664271
30
0
41
1
10
20.1266404872606
20
15.9996049215106
30
0
0
SPLINE
5
27D
100
AcDbEntity
8
1
62
256
6
ByLayer
370
-1
48
1
60
0
100
AcDbSpline
70
4
71
3
72
8
73
4
40
0
40
0
40
0
40
0
40
1
40
1
40
1
40
1
41
1
10
19.0611406575907
20
16.6119769775261
30
0
41
1
10
19.0631622913805
20
16.6187101436465
30
0
41
1
10
19.0651839291658
20
16.6254432734247
30
0
41
1
10
19.0672055707878
20
16.6321763682995
30
0
0
SPLINE
5
27E
100
AcDbEntity
8
1
62
256
6
ByLayer
370
-1
48
1
60
0
100
AcDbSpline
70
4
71
3
72
24
73
20
40
0
40
0
40
0
40
0
40
0.0380198325535895
40
0.0380198325535895
40
0.246834654676411
40
0.246834654676411
40
0.404726505664489
40
0.404726505664489
40
0.52615063796381
40
0.52615063796381
40
0.62153199550449
40
0.62153199550449
40
0.77689053833257
40
0.77689053833257
40
0.873684213898329
40
0.873684213898329
40
0.97174617225518
40
0.97174617225518
40
1
40
1
40
1
40
1
41
1
10
20.1266404872606
20
15.9996049215106
30
0
41
1
10
20.1235030394215
20
16.0050933475553
30
0
41
1
10
20.1202977133858
20
16.010544380109
30
0
41
1
10
20.0990852921879
20
16.0456250952164
30
0
41
1
10
20.07910479545
20
16.0741990310804
30
0
41
1
10
20.0405471269915
20
16.1214459094284
30
0
41
1
10
20.0227413312988
20
16.1409194172074
30
0
41
1
10
19.9890517726896
20
16.1729970587731
30
0
41
1
10
19.9736175749554
20
16.1862000566659
30
0
41
1
10
19.9446255489093
20
16.2077567655828
30
0
41
1
10
19.9313258403497
20
16.2165776133908
30
0
41
1
10
19.8951923272528
20
16.2370700304361
30
0
41
1
10
19.8710547743319
20
16.2474199362768
30
0
41
1
10
19.8306874413869
20
16.2562061365576
30
0
41
1
10
19.814580743502
20
16.2576434442932
30
0
41
1
10
19.7833848849868
20
16.2549867242846
30
0
41
1
10
19.7678893835746
20
16.2506901647661
30
0
41
1
10
19.7504029654887
20
16.241592796742
30
0
41
1
10
19.7465725971651
20
16.2392937521711
30
0
41
1
10
19.74291099646
20
16.2367897768841
30
0
0
SPLINE
5
27F
100
AcDbEntity
8
1
62
256
6
ByLayer
370
-1
48
1
60
0
100
AcDbSpline
70
4
71
3
72
34
73
30
40
0
40
0
40
0
40
0
40
0.0514465755209428
40
0.0514465755209428
40
0.135786144735386
40
0.135786144735386
40
0.203131635218837
40
0.203131635218837
40
0.270315608875058
40
0.270315608875058
40
0.337431278535932
40
0.337431278535932
40
0.404515897625516
40
0.404515897625516
40
0.499929883691117
40
0.499929883691117
40
0.599210771748282
40
0.599210771748282
40
0.697083019894324
40
0.697083019894324
40
0.78095722692282
40
0.78095722692282
40
0.847546414393306
40
0.847546414393306
40
0.898875235580378
40
0.898875235580378
40
0.980803570703541
40
0.980803570703541
40
1
40
1
40
1
40
1
41
1
10
19.7258904198107
20
16.223001053044
30
0
41
1
10
19.7143811544854
20
16.2136771354881
30
0
41
1
10
19.7009758301337
20
16.2063075886578
30
0
41
1
10
19.6639525115535
20
16.1917032808451
30
0
41
1
10
19.6386462935095
20
16.1870997587173
30
0
41
1
10
19.5929913391284
20
16.1841220198892
30
0
41
1
10
19.5722989165604
20
16.1846759729938
30
0
41
1
10
19.5311853136818
20
16.1885632830711
30
0
41
1
10
19.5106280764333
20
16.191908821767
30
0
41
1
10
19.4700115848583
20
16.2008016374335
30
0
41
1
10
19.4498630071049
20
16.2063693465938
30
0
41
1
10
19.4102434443197
20
16.2193538737641
30
0
41
1
10
19.3907039183395
20
16.2267938255509
30
0
41
1
10
19.344436547092
20
16.2467571802523
30
0
41
1
10
19.3179994836819
20
16.2601633553403
30
0
41
1
10
19.2663896038692
20
16.2903626902683
30
0
41
1
10
19.2411448368318
20
16.3073673259718
30
0
41
1
10
19.1941740246212
20
16.3438252455906
30
0
41
1
10
19.1722422945642
20
16.3633593328586
30
0
41
1
10
19.1352664020705
20
16.4019572372741
30
0
41
1
10
19.1195710253709
20
16.4208051135991
30
0
41
1
10
19.0950013165055
20
16.456254988884
30
0
41
1
10
19.0853214805502
20
16.4726175209729
30
0
41
1
10
19.0712545546864
20
16.5025704205287
30
0
41
1
10
19.0661301486889
20
16.5160155053014
30
0
41
1
10
19.0565495912472
20
16.5513422114225
30
0
41
1
10
19.0540865919328
20
16.5742508469847
30
0
41
1
10
19.0584171164437
20
16.6015854914763
30
0
41
1
10
19.0595943757863
20
16.6068269981823
30
0
41
1
10
19.0611406575906
20
16.6119769775261
30
0
0
SPLINE
5
280
100
AcDbEntity
8
1
62
256
6
ByLayer
370
-1
48
1
60
0
100
AcDbSpline
70
4
71
3
72
34
73
30
40
0
40
0
40
0
40
0
40
0.05144657552095
40
0.05144657552095
40
0.13578614473542
40
0.13578614473542
40
0.203131635218883
40
0.203131635218883
40
0.270315608875148
40
0.270315608875148
40
0.337431278536018
40
0.337431278536018
40
0.40451589762562
40
0.40451589762562
40
0.499929883691042
40
0.499929883691042
40
0.599210771748199
40
0.599210771748199
40
0.697083019894269
40
0.697083019894269
40
0.780957226922747
40
0.780957226922747
40
0.847546414393229
40
0.847546414393229
40
0.898875235580328
40
0.898875235580328
40
0.980803570703504
40
0.980803570703504
40
1
40
1
40
1
40
1
41
1
10
18.2943433725796
20
16.6119769775262
30
0
41
1
10
18.2957608588598
20
16.5983181737127
30
0
41
1
10
18.2945693849805
20
16.5839729021234
30
0
41
1
10
18.2866027753912
20
16.5469207698132
30
0
41
1
10
18.276783456342
20
16.5239955705694
30
0
41
1
10
18.2547672664201
20
16.4849700920138
30
0
41
1
10
18.2432517550912
20
16.4681165167789
30
0
41
1
10
18.2181416938035
20
16.4358230359496
30
0
41
1
10
18.2044644865299
20
16.4202761208664
30
0
41
1
10
18.1756325297994
20
16.3905106706048
30
0
41
1
10
18.1604136048849
20
16.3762271464195
30
0
41
1
10
18.1288884930329
20
16.3489689444036
30
0
41
1
10
18.1125272021285
20
16.3359474392094
30
0
41
1
10
18.0719552944051
20
16.306051238892
30
0
41
1
10
18.047213674762
20
16.2897665204331
30
0
41
1
10
17.9957840844898
20
16.2595671855052
30
0
41
1
10
17.9688929118454
20
16.2456772559903
30
0
41
1
10
17.9151013931968
20
16.2217562775655
30
0
41
1
10
17.8880270647165
20
16.2115888871888
30
0
41
1
10
17.8379272116685
20
16.1967598573923
30
0
41
1
10
17.814723584082
20
16.1914713931384
30
0
41
1
10
17.7736892847788
20
16.1856717409889
30
0
41
1
10
17.7556239768043
20
16.184386047349
30
0
41
1
10
17.7244555926869
20
16.1851243387761
30
0
41
1
10
17.711084285232
20
16.1864629730353
30
0
41
1
10
17.677957011765
20
16.1932904872853
30
0
41
1
10
17.6584108246569
20
16.2009144801831
30
0
41
1
10
17.6388137358542
20
16.216247764592
30
0
41
1
10
17.6352337138632
20
16.2194855195112
30
0
41
1
10
17.6319157903309
20
16.2230010530434
30
0
0
SPLINE
5
281
100
AcDbEntity
8
1
62
256
6
ByLayer
370
-1
48
1
60
0
100
AcDbSpline
70
4
71
3
72
8
73
4
40
0
40
0
40
0
40
0
40
1
40
1
40
1
40
1
41
1
10
17.2334569158544
20
15.555403453893
30
0
41
1
10
17.239147784801
20
15.5531991271566
30
0
41
1
10
17.2448386992379
20
15.5509947899758
30
0
41
1
10
17.2505296610413
20
15.54879044192
30
0
0
SPLINE
5
282
100
AcDbEntity
8
1
62
256
6
ByLayer
370
-1
48
1
60
0
100
AcDbSpline
70
4
71
3
72
34
73
30
40
0
40
0
40
0
40
0
40
0.0514465755209381
40
0.0514465755209381
40
0.135786144735401
40
0.135786144735401
40
0.203131635218862
40
0.203131635218862
40
0.270315608875084
40
0.270315608875084
40
0.337431278535923
40
0.337431278535923
40
0.404515897625506
40
0.404515897625506
40
0.499929883691088
40
0.499929883691088
40
0.599210771748255
40
0.599210771748255
40
0.697083019894303
40
0.697083019894303
40
0.780957226922785
40
0.780957226922785
40
0.847546414393276
40
0.847546414393276
40
0.898875235580353
40
0.898875235580353
40
0.980803570703514
40
0.980803570703514
40
1
40
1
40
1
40
1
41
1
10
17.2505296610413
20
15.54879044192
30
0
41
1
10
17.2620742641881
20
15.5443187332035
30
0
41
1
10
17.2729079691548
20
15.537206384263
30
0
41
1
10
17.2985415000754
20
15.5144196904941
30
0
41
1
10
17.312053417981
20
15.4959025048801
30
0
41
1
10
17.332543375932
20
15.4595430566334
30
0
41
1
10
17.340440897617
20
15.4420088782053
30
0
41
1
10
17.3541529049161
20
15.4056012423786
30
0
41
1
10
17.3600129632618
20
15.3866078189637
30
0
41
1
10
17.3700179368762
20
15.3477733896562
30
0
41
1
10
17.3741840491521
20
15.3278465714509
30
0
41
1
10
17.3810120614794
20
15.2874784742241
30
0
41
1
10
17.3836852178066
20
15.2669670181883
30
0
41
1
10
17.3884764120467
20
15.217017947209
30
0
41
1
10
17.389904466888
20
15.1873005841391
30
0
41
1
10
17.3900847564286
20
15.1269019142831
30
0
41
1
10
17.3887278392819
20
15.0960360062779
30
0
41
1
10
17.3830472116586
20
15.0357699675917
30
0
41
1
10
17.3787505117492
20
15.0061522276338
30
0
41
1
10
17.3676964244113
20
14.9529301955374
30
0
41
1
10
17.3613467329063
20
14.9289085437552
30
0
41
1
10
17.3473092953091
20
14.8878992864725
30
0
41
1
10
17.3401272378672
20
14.8703701898725
30
0
41
1
10
17.3253731384226
20
14.8413879528777
30
0
41
1
10
17.3182268557287
20
14.8293904554687
30
0
41
1
10
17.2976979023198
20
14.8011899997422
30
0
41
1
10
17.2826927936781
20
14.7861110715202
30
0
41
1
10
17.2614318864496
20
14.774373695586
30
0
41
1
10
17.2571949146229
20
14.7724214505862
30
0
41
1
10
17.2528518410128
20
14.7708385929552
30
0
0
SPLINE
5
283
100
AcDbEntity
8
1
62
256
6
ByLayer
370
-1
48
1
60
0
100
AcDbSpline
70
4
71
3
72
24
73
20
40
0
40
0
40
0
40
0
40
0.0380198325542849
40
0.0380198325542849
40
0.246834654677237
40
0.246834654677237
40
0.404726505665183
40
0.404726505665183
40
0.526150637964354
40
0.526150637964354
40
0.621531995504888
40
0.621531995504888
40
0.776890538332866
40
0.776890538332866
40
0.873684213898536
40
0.873684213898536
40
0.971746172255321
40
0.971746172255321
40
1
40
1
40
1
40
1
41
1
10
17.2671428733305
20
15.9996049215114
30
0
41
1
10
17.264038191306
20
15.9941164954666
30
0
41
1
10
17.260993333216
20
15.9885898369891
30
0
41
1
10
17.2416508297214
20
15.9525274751336
30
0
41
1
10
17.22706908576
20
15.9208630641411
30
0
41
1
10
17.2053170438003
20
15.8638440746555
30
0
41
1
10
17.1971692743618
20
15.8387266562829
30
0
41
1
10
17.1855674592889
20
15.793690469343
30
0
41
1
10
17.1814466410258
20
15.7738368697113
30
0
41
1
10
17.1762688177332
20
15.7382510581589
30
0
41
1
10
17.1747372690118
20
15.7224887393328
30
0
41
1
10
17.1732864491274
20
15.6815079139387
30
0
41
1
10
17.1749276090158
20
15.6559028128167
30
0
41
1
10
17.1841881802326
20
15.6176675738728
30
0
41
1
10
17.1894629109767
20
15.6035254107131
30
0
41
1
10
17.2037856085732
20
15.5790866172759
30
0
41
1
10
17.2131451197707
20
15.5685635924752
30
0
41
1
10
17.2268899274675
20
15.5590051092855
30
0
41
1
10
17.2301301811185
20
15.5570783171802
30
0
41
1
10
17.2334569158543
20
15.5554034538929
30
0
0
SPLINE
5
284
100
AcDbEntity
8
1
62
256
6
ByLayer
370
-1
48
1
60
0
100
AcDbSpline
70
4
71
3
72
8
73
4
40
0
40
0
40
0
40
0
40
1
40
1
40
1
40
1
41
1
10
17.6253305045507
20
14.0832439480708
30
0
41
1
10
17.6296412967188
20
14.0877052667513
30
0
41
1
10
17.6339521269237
20
14.092166610987
30
0
41
1
10
17.6382629967342
20
14.0966279818317
30
0
0
SPLINE
5
285
100
AcDbEntity
8
1
62
256
6
ByLayer
370
-1
48
1
60
0
100
AcDbSpline
70
4
71
3
72
34
73
30
40
0
40
0
40
0
40
0
40
0.0514465755209178
40
0.0514465755209178
40
0.135786144735434
40
0.135786144735434
40
0.2031316352189
40
0.2031316352189
40
0.270315608875148
40
0.270315608875148
40
0.337431278535992
40
0.337431278535992
40
0.404515897625591
40
0.404515897625591
40
0.499929883690696
40
0.499929883690696
40
0.599210771748233
40
0.599210771748233
40
0.697083019894274
40
0.697083019894274
40
0.780957226922757
40
0.780957226922757
40
0.847546414393245
40
0.847546414393245
40
0.898875235580348
40
0.898875235580348
40
0.980803570703496
40
0.980803570703496
40
1
40
1
40
1
40
1
41
1
10
20.1136237555037
20
14.7708385929557
30
0
41
1
10
20.0993148554393
20
14.7750366567542
30
0
41
1
10
20.0857208594611
20
14.7818757573317
30
0
41
1
10
20.0532409724
20
14.8039847125579
30
0
41
1
10
20.0357790923159
20
14.822110881176
30
0
41
1
10
20.0089915213487
20
14.8578469123844
30
0
41
1
10
19.9985352205552
20
14.8751277906351
30
0
41
1
10
19.9802401446725
20
14.9110817366217
30
0
41
1
10
19.9723401430684
20
14.9298732207651
30
0
41
1
10
19.958776046994
20
14.9683553233137
30
0
41
1
10
19.953082853592
20
14.9881309717995
30
0
41
1
10
19.9437219640528
20
15.028248332945
30
0
41
1
10
19.9400386502286
20
15.0486597908714
30
0
41
1
10
19.9334389174205
20
15.0984298299293
30
0
41
1
10
19.9314760847281
20
15.1280942539532
30
0
41
1
10
19.9312957951875
20
15.1884929238092
30
0
41
1
10
19.9332316892549
20
15.2194161462408
30
0
41
1
10
19.9411924745076
20
15.2799079036419
30
0
41
1
10
19.9471809714447
20
15.3096931189735
30
0
41
1
10
19.9623748052154
20
15.363324955301
30
0
41
1
10
19.9710416154842
20
15.3875759846765
30
0
41
1
10
19.9899333587624
20
15.4290657822627
30
0
41
1
10
19.999522245359
20
15.4468331371202
30
0
41
1
10
20.0189710624216
20
15.4762801163826
30
0
41
1
10
20.0283185826426
20
15.4884955200009
30
0
41
1
10
20.0548830612842
20
15.5172934480166
30
0
41
1
10
20.07404432823
20
15.5327838051234
30
0
41
1
10
20.1006386476285
20
15.5450491493546
30
0
41
1
10
20.1059162384691
20
15.5471044079283
30
0
41
1
10
20.1113015755322
20
15.5487904419205
30
0
0
SPLINE
5
286
100
AcDbEntity
8
1
62
256
6
ByLayer
370
-1
48
1
60
0
100
AcDbSpline
70
4
71
3
72
8
73
4
40
0
40
0
40
0
40
0
40
1
40
1
40
1
40
1
41
1
10
17.2528518410126
20
14.7708385929552
30
0
41
1
10
17.2471736364727
20
14.7687691393393
30
0
41
1
10
17.2414954792274
20
14.7666996988817
30
0
41
1
10
17.2358173674035
20
14.7646302710614
30
0
0
SPLINE
5
287
100
AcDbEntity
8
1
62
256
6
ByLayer
370
-1
48
1
60
0
100
AcDbSpline
70
4
71
3
72
22
73
18
40
0
40
0
40
0
40
0
40
0.0973712659848532
40
0.0973712659848532
40
0.180296832631033
40
0.180296832631033
40
0.30744508080357
40
0.30744508080357
40
0.411978418515697
40
0.411978418515697
40
0.516185210012171
40
0.516185210012171
40
0.620250145293264
40
0.620250145293264
40
0.829289859627931
40
0.829289859627931
40
1
40
1
40
1
40
1
41
1
10
17.6189021876859
20
16.2367897768834
30
0
41
1
10
17.6092435942725
20
16.2452527623651
30
0
41
1
10
17.5973772536443
20
16.2513358984022
30
0
41
1
10
17.5737118713207
20
16.256930868792
30
0
41
1
10
17.5619118478623
20
16.2573960120556
30
0
41
1
10
17.5321147875802
20
16.2541865465043
30
0
41
1
10
17.5136656881994
20
16.2482562683695
30
0
41
1
10
17.4815632439742
20
16.2334187380089
30
0
41
1
10
17.4673715223398
20
16.2251141436423
30
0
41
1
10
17.44009868856
20
16.2065617149511
30
0
41
1
10
17.4269276911741
20
16.1962582058774
30
0
41
1
10
17.4016047721853
20
16.1742792488463
30
0
41
1
10
17.3894078944568
20
16.162564897556
30
0
41
1
10
17.3541837587957
20
16.1258057283623
30
0
41
1
10
17.332440417246
20
16.0990739401255
30
0
41
1
10
17.2962173484773
20
16.0481209520823
30
0
41
1
10
17.2810673520004
20
16.0242204765948
30
0
41
1
10
17.2671428733305
20
15.9996049215114
30
0
0
SPLINE
5
288
100
AcDbEntity
8
1
62
256
6
ByLayer
370
-1
48
1
60
0
100
AcDbSpline
70
4
71
3
72
24
73
20
40
0
40
0
40
0
40
0
40
0.0380198325541341
40
0.0380198325541341
40
0.246834654677038
40
0.246834654677038
40
0.4047265056651
40
0.4047265056651
40
0.526150637964331
40
0.526150637964331
40
0.621531995504859
40
0.621531995504859
40
0.776890538332891
40
0.776890538332891
40
0.873684213898538
40
0.873684213898538
40
0.971746172255329
40
0.971746172255329
40
1
40
1
40
1
40
1
41
1
10
17.272146174595
20
14.3234525481011
30
0
41
1
10
17.2752836224341
20
14.3179641220564
30
0
41
1
10
17.2784811478453
20
14.3125123172985
30
0
41
1
10
17.2995921811286
20
14.2774215655386
30
0
41
1
10
17.3192566257819
20
14.2488163428595
30
0
41
1
10
17.3567678666874
20
14.2014658759352
30
0
41
1
10
17.3739606421118
20
14.1819316836906
30
0
41
1
10
17.406172365207
20
14.1497077473563
30
0
41
1
10
17.4208299890153
20
14.1364278743975
30
0
41
1
10
17.448105634425
20
14.1147012565119
30
0
41
1
10
17.4605331609807
20
14.1057940691463
30
0
41
1
10
17.4939795371102
20
14.0850356454465
30
0
41
1
10
17.5160220622861
20
14.0744783473782
30
0
41
1
10
17.5519353981348
20
14.0652512343784
30
0
41
1
10
17.566032267852
20
14.0636149685423
30
0
41
1
10
17.592662094453
20
14.0658196852148
30
0
41
1
10
17.6055189095759
20
14.069855034337
30
0
41
1
10
17.61947129313
20
14.0786025591212
30
0
41
1
10
17.6224874870634
20
14.0808210064586
30
0
41
1
10
17.6253305045508
20
14.0832439480708
30
0
0
SPLINE
5
289
100
AcDbEntity
8
1
62
256
6
ByLayer
370
-1
48
1
60
0
100
AcDbSpline
70
4
71
3
72
22
73
18
40
0
40
0
40
0
40
0
40
0.0973712659848809
40
0.0973712659848809
40
0.180296832631055
40
0.180296832631055
40
0.307445080803619
40
0.307445080803619
40
0.411978418515718
40
0.411978418515718
40
0.516185210012148
40
0.516185210012148
40
0.620250145293221
40
0.620250145293221
40
0.829289859627832
40
0.829289859627832
40
1
40
1
40
1
40
1
41
1
10
17.2358173674035
20
14.7646302710613
30
0
41
1
10
17.2246065801477
20
14.759243414034
30
0
41
1
10
17.2143218625542
20
14.7507275095547
30
0
41
1
10
17.1991061213598
20
14.7308550835213
30
0
41
1
10
17.1934028825139
20
14.7199182544938
30
0
41
1
10
17.1825660560128
20
14.6903444825236
30
0
41
1
10
17.1790637033372
20
14.6702724639389
30
0
41
1
10
17.1766718019172
20
14.6332897299355
30
0
41
1
10
17.1770441182695
20
14.6161467567087
30
0
41
1
10
17.1798968930139
20
14.5820045797854
30
0
41
1
10
17.1823820885098
20
14.5648955991054
30
0
41
1
10
17.1889573265392
20
14.5309862927169
30
0
41
1
10
17.1930588456523
20
14.5141259634736
30
0
41
1
10
17.2073403198221
20
14.4640491160797
30
0
41
1
10
17.2195188164133
20
14.4312253209519
30
0
41
1
10
17.2451774229282
20
14.3734659625771
30
0
41
1
10
17.2580747414598
20
14.3480681031846
30
0
41
1
10
17.272146174595
20
14.3234525481011
30
0
0
SPLINE
5
28A
100
AcDbEntity
8
1
62
256
6
ByLayer
370
-1
48
1
60
0
100
AcDbSpline
70
4
71
3
72
24
73
20
40
0
40
0
40
0
40
0
40
0.0380198325515063
40
0.0380198325515063
40
0.246834654674906
40
0.246834654674906
40
0.404726505663402
40
0.404726505663402
40
0.526150637962869
40
0.526150637962869
40
0.621531995503658
40
0.621531995503658
40
0.776890538332132
40
0.776890538332132
40
0.873684213898065
40
0.873684213898065
40
0.97174617225511
40
0.97174617225511
40
1
40
1
40
1
40
1
41
1
10
18.6943900296621
20
16.8376811082161
30
0
41
1
10
18.6881478997989
20
16.8376811082161
30
0
41
1
10
18.6819016159859
20
16.8376058683944
30
0
41
1
10
18.6413973852512
20
16.8366292399726
30
0
41
1
10
18.6069931705941
20
16.8335544082517
30
0
41
1
10
18.5472066739524
20
16.8238340914023
30
0
41
1
10
18.5215596189554
20
16.8182205230415
30
0
41
1
10
18.4770071630303
20
16.8053351250515
30
0
41
1
10
18.4578404339959
20
16.7987229608456
30
0
41
1
10
18.4245287749754
20
16.7847788126945
30
0
41
1
10
18.4101336086963
20
16.7778805114551
30
0
41
1
10
18.3738928441988
20
16.7575251064336
30
0
41
1
10
18.3524439650387
20
16.7423736072661
30
0
41
1
10
18.3235642018587
20
16.7131450249624
30
0
41
1
10
18.3137371488017
20
16.7005396485886
30
0
41
1
10
18.2991470038401
20
16.6736701368109
30
0
41
1
10
18.29433035677
20
16.6589811576898
30
0
41
1
10
18.2923557636468
20
16.6405002280959
30
0
41
1
10
18.2921727361693
20
16.6363146900364
30
0
41
1
10
18.2922471618089
20
16.6321763682995
30
0
0
SPLINE
5
28B
100
AcDbEntity
8
1
62
256
6
ByLayer
370
-1
48
1
60
0
100
AcDbSpline
70
4
71
3
72
22
73
18
40
0
40
0
40
0
40
0
40
0.0973712659845892
40
0.0973712659845892
40
0.180296832630555
40
0.180296832630555
40
0.307445080802825
40
0.307445080802825
40
0.411978418514577
40
0.411978418514577
40
0.516185210010721
40
0.516185210010721
40
0.62025014529149
40
0.62025014529149
40
0.829289859625561
40
0.829289859625561
40
1
40
1
40
1
40
1
41
1
10
19.0672055707877
20
16.6321763682995
30
0
41
1
10
19.070141096551
20
16.6461631504215
30
0
41
1
10
19.0699328094108
20
16.6608981410183
30
0
41
1
10
19.0637441792247
20
16.6865893607762
30
0
41
1
10
19.0586056713506
20
16.6980861953659
30
0
41
1
10
19.0417675474402
20
16.7246605749422
30
0
41
1
10
19.0278687839704
20
16.7389060579694
30
0
41
1
10
18.9997230020196
20
16.7612061613455
30
0
41
1
10
18.9857501951231
20
16.770103067704
30
0
41
1
10
18.9566335824208
20
16.7857926990482
30
0
41
1
10
18.9413984811932
20
16.7926398556091
30
0
41
1
10
18.9102193809626
20
16.8046413862619
30
0
41
1
10
18.8942200598923
20
16.8098169705008
30
0
41
1
10
18.8454731993731
20
16.8232097592624
30
0
41
1
10
18.8118764047963
20
16.8293339430584
30
0
41
1
10
18.7503559355811
20
16.8361760701153
30
0
41
1
10
18.7223859414676
20
16.8376811082161
30
0
41
1
10
18.6943900296621
20
16.8376811082161
30
0
0
SPLINE
5
28C
100
AcDbEntity
8
1
62
256
6
ByLayer
370
-1
48
1
60
0
100
AcDbSpline
70
4
71
3
72
24
73
20
40
0
40
0
40
0
40
0
40
0.0380198325537352
40
0.0380198325537352
40
0.246834654676621
40
0.246834654676621
40
0.404726505664676
40
0.404726505664676
40
0.526150637963942
40
0.526150637963942
40
0.621531995504548
40
0.621531995504548
40
0.776890538332648
40
0.776890538332648
40
0.873684213898364
40
0.873684213898364
40
0.971746172255201
40
0.971746172255201
40
1
40
1
40
1
40
1
41
1
10
20.1316437885251
20
14.3234525481005
30
0
41
1
10
20.1347484705496
20
14.3289409741451
30
0
41
1
10
20.137785528015
20
14.3344668604185
30
0
41
1
10
20.1570266435948
20
14.3705191856215
30
0
41
1
10
20.1712923354717
20
14.4021523097987
30
0
41
1
10
20.1919979498783
20
14.4590677107081
30
0
41
1
10
20.1995326990485
20
14.4841244446152
30
0
41
1
10
20.2096566786074
20
14.5290143367865
30
0
41
1
10
20.2130009229446
20
14.548791061352
30
0
41
1
10
20.2164623656009
20
14.5842069639357
30
0
41
1
10
20.2171217323185
20
14.5998829432043
30
0
41
1
10
20.2158854152354
20
14.6405977619439
30
0
41
1
10
20.2121492276021
20
14.6659954708383
30
0
41
1
10
20.198434659289
20
14.7037897970632
30
0
41
1
10
20.1911501003773
20
14.7177330021223
30
0
41
1
10
20.1722613708666
20
14.7417197922234
30
0
41
1
10
20.1602631733799
20
14.7519816066278
30
0
41
1
10
20.1429843311512
20
14.7611902465777
30
0
41
1
10
20.13892990311
20
14.7630364414495
30
0
41
1
10
20.1347845851565
20
14.764630271062
30
0
0
SPLINE
5
28D
100
AcDbEntity
8
1
62
256
6
ByLayer
370
-1
48
1
60
0
100
AcDbSpline
70
4
71
3
72
8
73
4
40
0
40
0
40
0
40
0
40
1
40
1
40
1
40
1
41
1
10
19.0698100439654
20
13.7076520573495
30
0
41
1
10
19.0718714719891
20
13.7010537856691
30
0
41
1
10
19.0739329037845
20
13.6944555526141
30
0
41
1
10
19.0759943392017
20
13.6878573566553
30
0
0
SPLINE
5
28E
100
AcDbEntity
8
1
62
256
6
ByLayer
370
-1
48
1
60
0
100
AcDbSpline
70
4
71
3
72
8
73
4
40
0
40
0
40
0
40
0
40
1
40
1
40
1
40
1
41
1
10
18.2922471618091
20
16.6321763682995
30
0
41
1
10
18.2929458799489
20
16.6254432734247
30
0
41
1
10
18.2936446166176
20
16.6187101436466
30
0
41
1
10
18.2943433725796
20
16.6119769775262
30
0
0
SPLINE
5
28F
100
AcDbEntity
8
1
62
256
6
ByLayer
370
-1
48
1
60
0
100
AcDbSpline
70
4
71
3
72
8
73
4
40
0
40
0
40
0
40
0
40
1
40
1
40
1
40
1
41
1
10
17.6319157903309
20
16.2230010530435
30
0
41
1
10
17.6275778835499
20
16.227597318328
30
0
41
1
10
17.6232400165265
20
16.2321935592871
30
0
41
1
10
17.6189021876859
20
16.2367897768835
30
0
0
SPLINE
5
290
100
AcDbEntity
8
1
62
256
6
ByLayer
370
-1
48
1
60
0
100
AcDbSpline
70
4
71
3
72
8
73
4
40
0
40
0
40
0
40
0
40
1
40
1
40
1
40
1
41
1
10
19.7429109964601
20
16.236789776884
30
0
41
1
10
19.7372374870147
20
16.2321935592876
30
0
41
1
10
19.731563961683
20
16.2275973183286
30
0
41
1
10
19.7258904198107
20
16.223001053044
30
0
0
SPLINE
5
291
100
AcDbEntity
8
1
62
256
6
ByLayer
370
-1
48
1
60
0
100
AcDbSpline
70
4
71
3
72
22
73
18
40
0
40
0
40
0
40
0
40
0.0973712659848024
40
0.0973712659848024
40
0.180296832631007
40
0.180296832631007
40
0.307445080803479
40
0.307445080803479
40
0.411978418515545
40
0.411978418515545
40
0.516185210011943
40
0.516185210011943
40
0.620250145292969
40
0.620250145292969
40
0.829289859627518
40
0.829289859627518
40
1
40
1
40
1
40
1
41
1
10
19.7493393133248
20
14.0832439480714
30
0
41
1
10
19.7617645705799
20
14.0750548418156
30
0
41
1
10
19.7763775829973
20
14.0692436059395
30
0
41
1
10
19.8045649872068
20
14.064096282219
30
0
41
1
10
19.818281564142
20
14.0638208635525
30
0
41
1
10
19.8523228441654
20
14.0674504754186
30
0
41
1
10
19.8728679100169
20
14.0735882387079
30
0
41
1
10
19.9080998759507
20
14.0887355685354
30
0
41
1
10
19.9234740597658
20
14.0971572178987
30
0
41
1
10
19.9527648851892
20
14.1159094128141
30
0
41
1
10
19.9667780658833
20
14.1262962917967
30
0
41
1
10
19.9935390984475
20
14.1484176114188
30
0
41
1
10
20.0063341277184
20
14.1601911752809
30
0
41
1
10
20.0430757620029
20
14.1971005655972
30
0
41
1
10
20.065469190681
20
14.2238967076441
30
0
41
1
10
20.1024146715873
20
14.2749212091376
30
0
41
1
10
20.1177193098552
20
14.298836993017
30
0
41
1
10
20.1316437885251
20
14.3234525481005
30
0
0
SPLINE
5
292
100
AcDbEntity
8
1
62
256
6
ByLayer
370
-1
48
1
60
0
100
AcDbSpline
70
4
71
3
72
8
73
4
40
0
40
0
40
0
40
0
40
1
40
1
40
1
40
1
41
1
10
20.1113015755322
20
15.5487904419205
30
0
41
1
10
20.1183424521339
20
15.5509947899763
30
0
41
1
10
20.125383304506
20
15.5531991271571
30
0
41
1
10
20.1324241336072
20
15.5554034538935
30
0
0
SPLINE
5
293
100
AcDbEntity
8
1
62
256
6
ByLayer
370
-1
48
1
60
0
100
AcDbSpline
70
4
71
3
72
8
73
4
40
0
40
0
40
0
40
0
40
1
40
1
40
1
40
1
41
1
10
20.1347845851564
20
14.7646302710619
30
0
41
1
10
20.1277309989325
20
14.7666996988823
30
0
41
1
10
20.1206773893687
20
14.7687691393399
30
0
41
1
10
20.1136237555037
20
14.7708385929557
30
0
0
SPLINE
5
294
100
AcDbEntity
8
1
62
256
6
ByLayer
370
-1
48
1
60
0
100
AcDbSpline
70
4
71
3
72
8
73
4
40
0
40
0
40
0
40
0
40
1
40
1
40
1
40
1
41
1
10
19.732237626214
20
14.0966279818322
30
0
41
1
10
19.7379382050568
20
14.0921666109876
30
0
41
1
10
19.7436387672069
20
14.0877052667518
30
0
41
1
10
19.7493393133248
20
14.0832439480714
30
0
0
SPLINE
5
295
100
AcDbEntity
8
1
62
256
6
ByLayer
370
-1
48
1
60
0
100
AcDbSpline
70
4
71
3
72
12
73
8
40
0
40
0
40
0
40
0
40
0.40464407390137
40
0.40464407390137
40
0.809285947755716
40
0.809285947755716
40
1
40
1
40
1
40
1
41
1
10
22.1419124947728
20
10.6103645394535
30
0
41
1
10
22.1970162522348
20
10.6103645394535
30
0
41
1
10
22.2528588889994
20
10.6200248735899
30
0
41
1
10
22.3567727471119
20
10.6570649671647
30
0
41
1
10
22.4062769044032
20
10.6849552873753
30
0
41
1
10
22.4697006094825
20
10.7365615267005
30
0
41
1
10
22.4889117024505
20
10.7549469176893
30
0
41
1
10
22.5064967719893
20
10.7747102138994
30
0
0
SPLINE
5
296
100
AcDbEntity
8
1
62
256
6
ByLayer
370
-1
48
1
60
0
100
AcDbSpline
70
4
71
3
72
8
73
4
40
0
40
0
40
0
40
0
40
1
40
1
40
1
40
1
41
1
10
22.6159601741296
20
11.1048018958012
30
0
41
1
10
22.61593203399
20
11.1044747761004
30
0
41
1
10
22.6159037199938
20
11.1041473005457
30
0
41
1
10
22.6158752303872
20
11.1038194745343
30
0
0
SPLINE
5
297
100
AcDbEntity
8
1
62
256
6
ByLayer
370
-1
48
1
60
0
100
AcDbSpline
70
4
71
3
72
10
73
6
40
0
40
0
40
0
40
0
40
0.638091248905458
40
0.638091248905458
40
1
40
1
40
1
40
1
41
1
10
22.5629415402829
20
10.8782378881457
30
0
41
1
10
22.5510416434286
20
10.8501862033024
30
0
41
1
10
22.5379210807516
20
10.8253979150585
30
0
41
1
10
22.5189299822368
20
10.7936215777802
30
0
41
1
10
22.5122741444277
20
10.7833728456193
30
0
41
1
10
22.5064967719872
20
10.7747102138975
30
0
0
SPLINE
5
298
100
AcDbEntity
8
1
62
256
6
ByLayer
370
-1
48
1
60
0
100
AcDbSpline
70
4
71
3
72
10
73
6
40
0
40
0
40
0
40
0
40
0.722254617258786
40
0.722254617258786
40
1
40
1
40
1
40
1
41
1
10
22.5629415402829
20
10.8782378881457
30
0
41
1
10
22.5878044089831
20
10.9281432816088
30
0
41
1
10
22.6045140084586
20
10.9831146728319
30
0
41
1
10
22.6144798375644
20
11.0601972177824
30
0
41
1
10
22.6158817075811
20
11.0820301695046
30
0
41
1
10
22.6158752303872
20
11.1038194745332
30
0
0
LINE
5
49
100
AcDbEntity
8
1
62
256
6
ByLayer
370
-1
48
1
60
0
100
AcDbLine
10
12.064545
20
19.271338
30
0
11
11.375816
21
19.20882
31
0
39
0
210
0
220
0
230
1
0
LINE
5
4B
100
AcDbEntity
8
1
62
256
6
ByLayer
370
-1
48
1
60
0
100
AcDbLine
10
15.740467
20
19.912463
30
0
11
14.985191
21
19.843905
31
0
39
0
210
0
220
0
230
1
0
LINE
5
4C
100
AcDbEntity
8
1
62
256
6
ByLayer
370
-1
48
1
60
0
100
AcDbLine
10
13.809447
20
19.466334
30
0
11
13.14297
21
19.405836
31
0
39
0
210
0
220
0
230
1
0
LINE
5
4D
100
AcDbEntity
8
1
62
256
6
ByLayer
370
-1
48
1
60
0
100
AcDbLine
10
17.861606
20
7.194728
30
0
11
18.54979
21
7.257196
31
0
39
0
210
0
220
0
230
1
0
LINE
5
4E
100
AcDbEntity
8
1
62
256
6
ByLayer
370
-1
48
1
60
0
100
AcDbLine
10
17.296826
20
8.355912
30
0
11
17.962948
21
8.416378
31
0
39
0
210
0
220
0
230
1
0
LINE
5
4F
100
AcDbEntity
8
1
62
256
6
ByLayer
370
-1
48
1
60
0
100
AcDbLine
10
11.107129
20
19.975017
30
0
11
11.107138
21
19.991182
31
0
39
0
210
0
220
0
230
1
0
LINE
5
50
100
AcDbEntity
8
1
62
256
6
ByLayer
370
-1
48
1
60
0
100
AcDbLine
10
18.420293
20
17.872219
30
0
11
18.205241
21
17.850931
31
0
39
0
210
0
220
0
230
1
0
LINE
5
51
100
AcDbEntity
8
1
62
256
6
ByLayer
370
-1
48
1
60
0
100
AcDbLine
10
18.742127
20
12.42744
30
0
11
18.957178
21
12.448728
31
0
39
0
210
0
220
0
230
1
0
LINE
5
52
100
AcDbEntity
8
1
62
256
6
ByLayer
370
-1
48
1
60
0
100
AcDbLine
10
17.72216
20
14.131523
30
0
11
17.475007
21
14.107057
31
0
39
0
210
0
220
0
230
1
0
LINE
5
53
100
AcDbEntity
8
1
62
256
6
ByLayer
370
-1
48
1
60
0
100
AcDbLine
10
17.533565
20
16.162333
30
0
11
17.776224
21
16.186354
31
0
39
0
210
0
220
0
230
1
0
LINE
5
54
100
AcDbEntity
8
1
62
256
6
ByLayer
370
-1
48
1
60
0
100
AcDbLine
10
19.561322
20
14.130641
30
0
11
19.31831
21
14.106585
31
0
39
0
210
0
220
0
230
1
0
LINE
5
55
100
AcDbEntity
8
1
62
256
6
ByLayer
370
-1
48
1
60
0
100
AcDbLine
10
19.376869
20
16.161861
30
0
11
19.62392
21
16.186317
31
0
39
0
210
0
220
0
230
1
0
LINE
5
56
100
AcDbEntity
8
80
62
256
6
ByLayer
370
-1
48
1
60
0
100
AcDbLine
10
0
20
0
30
0
11
-5
21
0
31
0
39
0
210
0
220
0
230
1
0
LINE
5
57
100
AcDbEntity
8
81
62
256
6
ByLayer
370
-1
48
1
60
0
100
AcDbLine
10
26.699398
20
19.9125
30
0
11
31.699398
21
19.9125
31
0
39
0
210
0
220
0
230
1
0
LINE
5
58
100
AcDbEntity
8
1
62
256
6
ByLayer
370
-1
48
1
60
0
100
AcDbLine
10
21.726557
20
10.34513
30
0
11
19.798865
21
6.937376
31
0
39
0
210
0
220
0
230
1
0
LINE
5
59
100
AcDbEntity
8
1
62
256
6
ByLayer
370
-1
48
1
60
0
100
AcDbLine
10
15.447101
20
10.710042
30
0
11
16.568
21
8.749221
31
0
39
0
210
0
220
0
230
1
0
LINE
5
5A
100
AcDbEntity
8
1
62
256
6
ByLayer
370
-1
48
1
60
0
100
AcDbLine
10
5.579834
20
-12.455741
30
0
11
4.390205
21
-12.456656
31
0
39
0
210
0
220
0
230
1
0
LINE
5
5B
100
AcDbEntity
8
1
62
256
6
ByLayer
370
-1
48
1
60
0
100
AcDbLine
10
0
20
-12.4375
30
0
11
4.390205
21
-12.456656
31
0
39
0
210
0
220
0
230
1
0
LINE
5
5C
100
AcDbEntity
8
1
62
256
6
ByLayer
370
-1
48
1
60
0
100
AcDbLine
10
3.96202
20
16.39952
30
0
11
0
21
12.4375
31
0
39
0
210
0
220
0
230
1
0
LINE
5
5D
100
AcDbEntity
8
1
62
256
6
ByLayer
370
-1
48
1
60
0
100
AcDbLine
10
21.941972
20
10.345142
30
0
11
21.941449
21
10.520271
31
0
39
0
210
0
220
0
230
1
0
LINE
5
5E
100
AcDbEntity
8
1
62
256
6
ByLayer
370
-1
48
1
60
0
100
AcDbLine
10
10.515565
20
19.336916
30
0
11
10.396484
21
19.350341
31
0
39
0
210
0
220
0
230
1
0
LINE
5
5F
100
AcDbEntity
8
1
62
256
6
ByLayer
370
-1
48
1
60
0
100
AcDbLine
10
23.203694
20
4.533202
30
0
11
23.186345
21
10.34513
31
0
39
0
210
0
220
0
230
1
0
LINE
5
60
100
AcDbEntity
8
1
62
256
6
ByLayer
370
-1
48
1
60
0
100
AcDbLine
10
23.186345
20
10.34513
30
0
11
21.726557
21
10.34513
31
0
39
0
210
0
220
0
230
1
0
LINE
5
61
100
AcDbEntity
8
1
62
256
6
ByLayer
370
-1
48
1
60
0
100
AcDbLine
10
4.390205
20
-12.456656
30
0
11
3.96202
21
16.39952
31
0
39
0
210
0
220
0
230
1
0
LINE
5
62
100
AcDbEntity
8
1
62
256
6
ByLayer
370
-1
48
1
60
0
100
AcDbLine
10
23.203694
20
4.533202
30
0
11
5.579834
21
-12.455741
31
0
39
0
210
0
220
0
230
1
0
LINE
5
63
100
AcDbEntity
8
1
62
256
6
ByLayer
370
-1
48
1
60
0
100
AcDbLine
10
10.396484
20
19.350341
30
0
11
6.912841
21
19.350341
31
0
39
0
210
0
220
0
230
1
0
LINE
5
64
100
AcDbEntity
8
1
62
256
6
ByLayer
370
-1
48
1
60
0
100
AcDbLine
10
16.566243
20
8.557408
30
0
11
16.568
21
8.749221
31
0
39
0
210
0
220
0
230
1
0
LINE
5
65
100
AcDbEntity
8
1
62
256
6
ByLayer
370
-1
48
1
60
0
100
AcDbLine
10
21.339079
20
10.320281
30
0
11
21.670837
21
10.320281
31
0
39
0
210
0
220
0
230
1
0
LINE
5
66
100
AcDbEntity
8
1
62
256
6
ByLayer
370
-1
48
1
60
0
100
AcDbLine
10
21.227039
20
10.122268
30
0
11
21.726557
21
10.34513
31
0
39
0
210
0
220
0
230
1
0
LINE
5
67
100
AcDbEntity
8
1
62
256
6
ByLayer
370
-1
48
1
60
0
100
AcDbLine
10
3.96202
20
16.39952
30
0
11
6.912841
21
19.350341
31
0
39
0
210
0
220
0
230
1
0
LINE
5
68
100
AcDbEntity
8
1
62
256
6
ByLayer
370
-1
48
1
60
0
100
AcDbLine
10
0
20
-12.4375
30
0
11
0
21
12.4375
31
0
39
0
210
0
220
0
230
1
0
LINE
5
69
100
AcDbEntity
8
1
62
256
6
ByLayer
370
-1
48
1
60
0
100
AcDbLine
10
12.386872
20
16.159169
30
0
11
15.096543
21
11.419064
31
0
39
0
210
0
220
0
230
1
0
LINE
5
6A
100
AcDbEntity
8
1
62
256
6
ByLayer
370
-1
48
1
60
0
100
AcDbLine
10
18.855166
20
6.183827
30
0
11
19.90586
21
8.041234
31
0
39
0
210
0
220
0
230
1
0
LINE
5
6B
100
AcDbEntity
8
1
62
256
6
ByLayer
370
-1
48
1
60
0
100
AcDbLine
10
10.396484
20
19.350341
30
0
11
16.566243
21
8.557408
31
0
39
0
210
0
220
0
230
1
0
LINE
5
6C
100
AcDbEntity
8
1
62
256
6
ByLayer
370
-1
48
1
60
0
100
AcDbLine
10
16.566243
20
8.557408
30
0
11
16.539223
21
8.527894
31
0
39
0
210
0
220
0
230
1
0
LINE
5
6D
100
AcDbEntity
8
1
62
256
6
ByLayer
370
-1
48
1
60
0
100
AcDbLine
10
11.982181
20
16.771324
30
0
11
10.515565
21
19.336916
31
0
39
0
210
0
220
0
230
1
0
LINE
5
6E
100
AcDbEntity
8
1
62
256
6
ByLayer
370
-1
48
1
60
0
100
AcDbLine
10
16.412848
20
8.274815
30
0
11
16.849236
21
7.510008
31
0
39
0
210
0
220
0
230
1
0
LINE
5
6F
100
AcDbEntity
8
1
62
256
6
ByLayer
370
-1
48
1
60
0
100
AcDbLine
10
22.703418
20
11.63883
30
0
11
22.085183
21
11.63883
31
0
39
0
210
0
220
0
230
1
0
LINE
5
70
100
AcDbEntity
8
1
62
256
6
ByLayer
370
-1
48
1
60
0
100
AcDbLine
10
22.702771
20
11.936282
30
0
11
22.253601
21
11.936282
31
0
39
0
210
0
220
0
230
1
0
LINE
5
71
100
AcDbEntity
8
1
62
256
6
ByLayer
370
-1
48
1
60
0
100
AcDbLine
10
22.689737
20
11.453508
30
0
11
21.980375
21
11.453508
31
0
39
0
210
0
220
0
230
1
0
LINE
5
72
100
AcDbEntity
8
1
62
256
6
ByLayer
370
-1
48
1
60
0
100
AcDbLine
10
22.633012
20
11.209854
30
0
11
21.842416
21
11.209854
31
0
39
0
210
0
220
0
230
1
0
LINE
5
73
100
AcDbEntity
8
1
62
256
6
ByLayer
370
-1
48
1
60
0
100
AcDbLine
10
22.615876
20
11.103819
30
0
11
21.782505
21
11.103819
31
0
39
0
210
0
220
0
230
1
0
LINE
5
74
100
AcDbEntity
8
1
62
256
6
ByLayer
370
-1
48
1
60
0
100
AcDbLine
10
21.503244
20
10.610365
30
0
11
22.141912
21
10.610365
31
0
39
0
210
0
220
0
230
1
0
LINE
5
75
100
AcDbEntity
8
1
62
256
6
ByLayer
370
-1
48
1
60
0
100
AcDbLine
10
16.849236
20
7.510008
30
0
11
17.624374
21
7.510008
31
0
39
0
210
0
220
0
230
1
0
LINE
5
76
100
AcDbEntity
8
1
62
256
6
ByLayer
370
-1
48
1
60
0
100
AcDbLine
10
22.506497
20
10.77471
30
0
11
21.596218
21
10.77471
31
0
39
0
210
0
220
0
230
1
0
LINE
5
77
100
AcDbEntity
8
1
62
256
6
ByLayer
370
-1
48
1
60
0
100
AcDbLine
10
22.562942
20
10.878238
30
0
11
21.654825
21
10.878238
31
0
39
0
210
0
220
0
230
1
0
LINE
5
78
100
AcDbEntity
8
1
62
256
6
ByLayer
370
-1
48
1
60
0
100
AcDbLine
10
22.688288
20
12.11957
30
0
11
22.35732
21
12.11957
31
0
39
0
210
0
220
0
230
1
0
LINE
5
79
100
AcDbEntity
8
1
62
256
6
ByLayer
370
-1
48
1
60
0
100
AcDbLine
10
17.634511
20
7.346464
30
0
11
16.323928
21
7.346464
31
0
39
0
210
0
220
0
230
1
0
LINE
5
7A
100
AcDbEntity
8
1
62
256
6
ByLayer
370
-1
48
1
60
0
100
AcDbLine
10
22.630519
20
12.35496
30
0
11
22.482791
21
12.35496
31
0
39
0
210
0
220
0
230
1
0
LINE
5
7B
100
AcDbEntity
8
1
62
256
6
ByLayer
370
-1
48
1
60
0
100
AcDbLine
10
22.612928
20
12.458488
30
0
11
22.526002
21
12.458488
31
0
39
0
210
0
220
0
230
1
0
LINE
5
7C
100
AcDbEntity
8
1
62
256
6
ByLayer
370
-1
48
1
60
0
100
AcDbLine
10
21.636933
20
10.446006
30
0
11
21.410235
21
10.446006
31
0
39
0
210
0
220
0
230
1
0
LINE
5
7D
100
AcDbEntity
8
1
62
256
6
ByLayer
370
-1
48
1
60
0
100
AcDbLine
10
22.612928
20
12.458488
30
0
11
22.612528
21
12.64227
31
0
39
0
210
0
220
0
230
1
0
LINE
5
7E
100
AcDbEntity
8
1
62
256
6
ByLayer
370
-1
48
1
60
0
100
AcDbLine
10
17.527503
20
14.07356
30
0
11
17.625331
21
14.083244
31
0
39
0
210
0
220
0
230
1
0
LINE
5
7F
100
AcDbEntity
8
1
62
256
6
ByLayer
370
-1
48
1
60
0
100
AcDbLine
10
17.463436
20
16.2214
30
0
11
17.618902
21
16.23679
31
0
39
0
210
0
220
0
230
1
0
LINE
5
80
100
AcDbEntity
8
1
62
256
6
ByLayer
370
-1
48
1
60
0
100
AcDbLine
10
17.505395
20
14.083475
30
0
11
17.638263
21
14.096628
31
0
39
0
210
0
220
0
230
1
0
LINE
5
81
100
AcDbEntity
8
1
62
256
6
ByLayer
370
-1
48
1
60
0
100
AcDbLine
10
17.438231
20
16.203828
30
0
11
17.631916
21
16.223001
31
0
39
0
210
0
220
0
230
1
0
LINE
5
82
100
AcDbEntity
8
1
62
256
6
ByLayer
370
-1
48
1
60
0
100
AcDbLine
10
10.584174
20
19.994739
30
0
11
10.584181
21
20.007534
31
0
39
0
210
0
220
0
230
1
0
LINE
5
83
100
AcDbEntity
8
1
62
256
6
ByLayer
370
-1
48
1
60
0
100
AcDbLine
10
12.364156
20
19.979904
30
0
11
12.36418
21
20.023275
31
0
39
0
210
0
220
0
230
1
0
LINE
5
84
100
AcDbEntity
8
1
62
256
6
ByLayer
370
-1
48
1
60
0
100
AcDbLine
10
10.601586
20
19.993721
30
0
11
10.601587
21
19.995217
31
0
39
0
210
0
220
0
230
1
0
LINE
5
85
100
AcDbEntity
8
1
62
256
6
ByLayer
370
-1
48
1
60
0
100
AcDbLine
10
12.351428
20
19.979512
30
0
11
12.351445
21
20.010692
31
0
39
0
210
0
220
0
230
1
0
LINE
5
86
100
AcDbEntity
8
1
62
256
6
ByLayer
370
-1
48
1
60
0
100
AcDbLine
10
11.740477
20
19.969505
30
0
11
11.740506
21
20.022888
31
0
39
0
210
0
220
0
230
1
0
LINE
5
87
100
AcDbEntity
8
1
62
256
6
ByLayer
370
-1
48
1
60
0
100
AcDbLine
10
15.736443
20
10.203874
30
0
11
16.052172
21
10.232533
31
0
39
0
210
0
220
0
230
1
0
LINE
5
88
100
AcDbEntity
8
1
62
256
6
ByLayer
370
-1
48
1
60
0
100
AcDbLine
10
11.838528
20
17.398507
30
0
11
11.634247
21
17.379963
31
0
39
0
210
0
220
0
230
1
0
LINE
5
89
100
AcDbEntity
8
1
62
256
6
ByLayer
370
-1
48
1
60
0
100
AcDbLine
10
11.172667
20
18.187442
30
0
11
11.175763
21
18.998539
31
0
39
0
210
0
220
0
230
1
0
LINE
5
8A
100
AcDbEntity
8
1
62
256
6
ByLayer
370
-1
48
1
60
0
100
AcDbLine
10
11.577874
20
17.478585
30
0
11
11.814964
21
17.500106
31
0
39
0
210
0
220
0
230
1
0
LINE
5
8B
100
AcDbEntity
8
1
62
256
6
ByLayer
370
-1
48
1
60
0
100
AcDbLine
10
14.45807
20
19.211363
30
0
11
14.329686
21
19.199709
31
0
39
0
210
0
220
0
230
1
0
LINE
5
8C
100
AcDbEntity
8
1
62
256
6
ByLayer
370
-1
48
1
60
0
100
AcDbLine
10
14.078174
20
19.332858
30
0
11
14.904316
21
19.817907
31
0
39
0
210
0
220
0
230
1
0
LINE
5
8D
100
AcDbEntity
8
1
62
256
6
ByLayer
370
-1
48
1
60
0
100
AcDbLine
10
16.124465
20
10.159337
30
0
11
15.779788
21
10.12805
31
0
39
0
210
0
220
0
230
1
0
LINE
5
8E
100
AcDbEntity
8
1
62
256
6
ByLayer
370
-1
48
1
60
0
100
AcDbLine
10
16.513246
20
9.421226
30
0
11
16.018227
21
9.710933
31
0
39
0
210
0
220
0
230
1
0
LINE
5
8F
100
AcDbEntity
8
1
62
256
6
ByLayer
370
-1
48
1
60
0
100
AcDbLine
10
12.999077
20
18.829738
30
0
11
12.893162
21
18.820124
31
0
39
0
210
0
220
0
230
1
0
LINE
5
90
100
AcDbEntity
8
1
62
256
6
ByLayer
370
-1
48
1
60
0
100
AcDbLine
10
13.048289
20
18.858632
30
0
11
12.854431
21
18.841035
31
0
39
0
210
0
220
0
230
1
0
LINE
5
91
100
AcDbEntity
8
1
62
256
6
ByLayer
370
-1
48
1
60
0
100
AcDbLine
10
12.51729
20
19.052449
30
0
11
12.509224
21
19.047295
31
0
39
0
210
0
220
0
230
1
0
LINE
5
92
100
AcDbEntity
8
1
62
256
6
ByLayer
370
-1
48
1
60
0
100
AcDbLine
10
13.119296
20
19.012521
30
0
11
12.640215
21
18.969034
31
0
39
0
210
0
220
0
230
1
0
LINE
5
93
100
AcDbEntity
8
1
62
256
6
ByLayer
370
-1
48
1
60
0
100
AcDbLine
10
13.11313
20
18.959091
30
0
11
12.717027
21
18.923136
31
0
39
0
210
0
220
0
230
1
0
LINE
5
94
100
AcDbEntity
8
1
62
256
6
ByLayer
370
-1
48
1
60
0
100
AcDbLine
10
18.166021
20
8.443939
30
0
11
18.008126
21
8.429606
31
0
39
0
210
0
220
0
230
1
0
LINE
5
95
100
AcDbEntity
8
1
62
256
6
ByLayer
370
-1
48
1
60
0
100
AcDbLine
10
17.553229
20
8.354938
30
0
11
17.51736
21
8.375931
31
0
39
0
210
0
220
0
230
1
0
LINE
5
96
100
AcDbEntity
8
1
62
256
6
ByLayer
370
-1
48
1
60
0
100
AcDbLine
10
24.634384
20
17.883643
30
0
11
24.636226
21
17.210665
31
0
39
0
210
0
220
0
230
1
0
LINE
5
97
100
AcDbEntity
8
1
62
256
6
ByLayer
370
-1
48
1
60
0
100
AcDbLine
10
18.697418
20
19.90933
30
0
11
18.064603
21
19.909765
31
0
39
0
210
0
220
0
230
1
0
LINE
5
98
100
AcDbEntity
8
1
62
256
6
ByLayer
370
-1
48
1
60
0
100
AcDbLine
10
22.305991
20
19.903432
30
0
11
22.022279
21
19.9121
31
0
39
0
210
0
220
0
230
1
0
LINE
5
99
100
AcDbEntity
8
1
62
256
6
ByLayer
370
-1
48
1
60
0
100
AcDbLine
10
17.207391
20
9.484235
30
0
11
16.513246
21
9.421226
31
0
39
0
210
0
220
0
230
1
0
LINE
5
9A
100
AcDbEntity
8
1
62
256
6
ByLayer
370
-1
48
1
60
0
100
AcDbLine
10
12.51729
20
19.052449
30
0
11
13.090402
21
19.388937
31
0
39
0
210
0
220
0
230
1
0
LINE
5
9B
100
AcDbEntity
8
1
62
256
6
ByLayer
370
-1
48
1
60
0
100
AcDbLine
10
19.734841
20
9.410076
30
0
11
17.232471
21
9.454851
31
0
39
0
210
0
220
0
230
1
0
LINE
5
9C
100
AcDbEntity
8
1
62
256
6
ByLayer
370
-1
48
1
60
0
100
AcDbLine
10
21.885249
20
19.913257
30
0
11
19.23646
21
19.913257
31
0
39
0
210
0
220
0
230
1
0
LINE
5
9D
100
AcDbEntity
8
1
62
256
6
ByLayer
370
-1
48
1
60
0
100
AcDbLine
10
14.351985
20
13.196531
30
0
11
15.260977
21
13.263227
31
0
39
0
210
0
220
0
230
1
0
LINE
5
9E
100
AcDbEntity
8
1
62
256
6
ByLayer
370
-1
48
1
60
0
100
AcDbLine
10
17.238133
20
9.128514
30
0
11
19.69147
21
9.084616
31
0
39
0
210
0
220
0
230
1
0
LINE
5
9F
100
AcDbEntity
8
1
62
256
6
ByLayer
370
-1
48
1
60
0
100
AcDbLine
10
23.099974
20
19.179441
30
0
11
23.097999
21
19.901041
31
0
39
0
210
0
220
0
230
1
0
LINE
5
A0
100
AcDbEntity
8
1
62
256
6
ByLayer
370
-1
48
1
60
0
100
AcDbLine
10
14.088493
20
19.326679
30
0
11
12.776825
21
17.15334
31
0
39
0
210
0
220
0
230
1
0
LINE
5
A1
100
AcDbEntity
8
1
62
256
6
ByLayer
370
-1
48
1
60
0
100
AcDbLine
10
22.956489
20
13.242797
30
0
11
22.111172
21
14.110068
31
0
39
0
210
0
220
0
230
1
0
LINE
5
A2
100
AcDbEntity
8
1
62
256
6
ByLayer
370
-1
48
1
60
0
100
AcDbLine
10
18.606212
20
8.632467
30
0
11
18.631824
21
7.916886
31
0
39
0
210
0
220
0
230
1
0
LINE
5
A3
100
AcDbEntity
8
1
62
256
6
ByLayer
370
-1
48
1
60
0
100
AcDbLine
10
17.24698
20
8.881357
30
0
11
17.238133
21
9.128514
31
0
39
0
210
0
220
0
230
1
0
LINE
5
A4
100
AcDbEntity
8
1
62
256
6
ByLayer
370
-1
48
1
60
0
100
AcDbLine
10
18.215391
20
8.415045
30
0
11
18.166021
21
8.443939
31
0
39
0
210
0
220
0
230
1
0
LINE
5
A5
100
AcDbEntity
8
1
62
256
6
ByLayer
370
-1
48
1
60
0
100
AcDbLine
10
15.082324
20
11.929893
30
0
11
16.052172
21
10.232533
31
0
39
0
210
0
220
0
230
1
0
LINE
5
A6
100
AcDbEntity
8
1
62
256
6
ByLayer
370
-1
48
1
60
0
100
AcDbLine
10
12.599806
20
16.075368
30
0
11
12.885804
21
15.750616
31
0
39
0
210
0
220
0
230
1
0
LINE
5
A7
100
AcDbEntity
8
1
62
256
6
ByLayer
370
-1
48
1
60
0
100
AcDbLine
10
17.80394
20
18.681413
30
0
11
18.40465
21
18.529453
31
0
39
0
210
0
220
0
230
1
0
LINE
5
A8
100
AcDbEntity
8
1
62
256
6
ByLayer
370
-1
48
1
60
0
100
AcDbLine
10
13.070277
20
16.978454
30
0
11
14.40816
21
19.19523
31
0
39
0
210
0
220
0
230
1
0
LINE
5
A9
100
AcDbEntity
8
1
62
256
6
ByLayer
370
-1
48
1
60
0
100
AcDbLine
10
16.5821
20
8.821004
30
0
11
16.577562
21
9.309521
31
0
39
0
210
0
220
0
230
1
0
LINE
5
AA
100
AcDbEntity
8
1
62
256
6
ByLayer
370
-1
48
1
60
0
100
AcDbLine
10
25.1313
20
18.753983
30
0
11
24.190291
21
18.207317
31
0
39
0
210
0
220
0
230
1
0
LINE
5
AB
100
AcDbEntity
8
1
62
256
6
ByLayer
370
-1
48
1
60
0
100
AcDbLine
10
24.675864
20
19.001656
30
0
11
24.046435
21
19.36272
31
0
39
0
210
0
220
0
230
1
0
LINE
5
AC
100
AcDbEntity
8
1
62
256
6
ByLayer
370
-1
48
1
60
0
100
AcDbLine
10
19.69147
20
9.084616
30
0
11
20.307964
21
8.723816
31
0
39
0
210
0
220
0
230
1
0
LINE
5
AD
100
AcDbEntity
8
1
62
256
6
ByLayer
370
-1
48
1
60
0
100
AcDbLine
10
18.665697
20
7.421702
30
0
11
18.652933
21
7.524445
31
0
39
0
210
0
220
0
230
1
0
LINE
5
AE
100
AcDbEntity
8
1
62
256
6
ByLayer
370
-1
48
1
60
0
100
AcDbLine
10
17.24698
20
8.881357
30
0
11
16.5821
21
8.821004
31
0
39
0
210
0
220
0
230
1
0
LINE
5
AF
100
AcDbEntity
8
1
62
256
6
ByLayer
370
-1
48
1
60
0
100
AcDbLine
10
14.772323
20
19.371854
30
0
11
12.885804
21
15.750616
31
0
39
0
210
0
220
0
230
1
0
LINE
5
B0
100
AcDbEntity
8
1
62
256
6
ByLayer
370
-1
48
1
60
0
100
AcDbLine
10
18.413576
20
7.295726
30
0
11
17.724279
21
7.233156
31
0
39
0
210
0
220
0
230
1
0
LINE
5
B1
100
AcDbEntity
8
1
62
256
6
ByLayer
370
-1
48
1
60
0
100
AcDbLine
10
23.201295
20
13.610896
30
0
11
22.713118
21
13.921666
31
0
39
0
210
0
220
0
230
1
0
LINE
5
B2
100
AcDbEntity
8
1
62
256
6
ByLayer
370
-1
48
1
60
0
100
AcDbLine
10
22.655929
20
13.838426
30
0
11
23.147144
21
13.525723
31
0
39
0
210
0
220
0
230
1
0
LINE
5
B3
100
AcDbEntity
8
1
62
256
6
ByLayer
370
-1
48
1
60
0
100
AcDbLine
10
18.903853
20
19.910302
30
0
11
18.727909
21
19.079925
31
0
39
0
210
0
220
0
230
1
0
LINE
5
B4
100
AcDbEntity
8
1
62
256
6
ByLayer
370
-1
48
1
60
0
100
AcDbLine
10
24.619699
20
18.903459
30
0
11
23.992255
21
18.538955
31
0
39
0
210
0
220
0
230
1
0
LINE
5
B5
100
AcDbEntity
8
1
62
256
6
ByLayer
370
-1
48
1
60
0
100
AcDbLine
10
22.598321
20
19.900964
30
0
11
23.042432
21
19.900964
31
0
39
0
210
0
220
0
230
1
0
LINE
5
B6
100
AcDbEntity
8
1
62
256
6
ByLayer
370
-1
48
1
60
0
100
AcDbLine
10
18.434817
20
7.283295
30
0
11
18.413576
21
7.295726
31
0
39
0
210
0
220
0
230
1
0
LINE
5
B7
100
AcDbEntity
8
1
62
256
6
ByLayer
370
-1
48
1
60
0
100
AcDbLine
10
12.916333
20
17.747513
30
0
11
13.12655
21
18.113686
31
0
39
0
210
0
220
0
230
1
0
LINE
5
B8
100
AcDbEntity
8
1
62
256
6
ByLayer
370
-1
48
1
60
0
100
AcDbLine
10
13.757248
20
19.449469
30
0
11
13.090402
21
19.388937
31
0
39
0
210
0
220
0
230
1
0
LINE
5
B9
100
AcDbEntity
8
1
62
256
6
ByLayer
370
-1
48
1
60
0
100
AcDbLine
10
12.973801
20
15.620077
30
0
11
14.992318
21
19.494692
31
0
39
0
210
0
220
0
230
1
0
LINE
5
BA
100
AcDbEntity
8
1
62
256
6
ByLayer
370
-1
48
1
60
0
100
AcDbLine
10
17.221369
20
8.372811
30
0
11
16.646416
21
8.709299
31
0
39
0
210
0
220
0
230
1
0
LINE
5
BB
100
AcDbEntity
8
1
62
256
6
ByLayer
370
-1
48
1
60
0
100
AcDbLine
10
22.477894
20
12.343119
30
0
11
22.547748
21
12.510606
31
0
39
0
210
0
220
0
230
1
0
LINE
5
BC
100
AcDbEntity
8
1
62
256
6
ByLayer
370
-1
48
1
60
0
100
AcDbLine
10
25.035333
20
19.003655
30
0
11
24.675864
21
19.001656
31
0
39
0
210
0
220
0
230
1
0
LINE
5
BD
100
AcDbEntity
8
1
62
256
6
ByLayer
370
-1
48
1
60
0
100
AcDbLine
10
25.276371
20
18.722172
30
0
11
24.543153
21
18.29622
31
0
39
0
210
0
220
0
230
1
0
LINE
5
BE
100
AcDbEntity
8
1
62
256
6
ByLayer
370
-1
48
1
60
0
100
AcDbLine
10
16.075018
20
12.644437
30
0
11
15.902836
21
13.248241
31
0
39
0
210
0
220
0
230
1
0
LINE
5
BF
100
AcDbEntity
8
1
62
256
6
ByLayer
370
-1
48
1
60
0
100
AcDbLine
10
21.112974
20
9.920712
30
0
11
22.430993
21
12.249729
31
0
39
0
210
0
220
0
230
1
0
LINE
5
C0
100
AcDbEntity
8
1
62
256
6
ByLayer
370
-1
48
1
60
0
100
AcDbLine
10
14.94751
20
12.120156
30
0
11
15.027709
21
12.013928
31
0
39
0
210
0
220
0
230
1
0
LINE
5
C1
100
AcDbEntity
8
1
62
256
6
ByLayer
370
-1
48
1
60
0
100
AcDbLine
10
15.260054
20
13.361168
30
0
11
14.30457
21
13.29106
31
0
39
0
210
0
220
0
230
1
0
LINE
5
C2
100
AcDbEntity
8
1
62
256
6
ByLayer
370
-1
48
1
60
0
100
AcDbLine
10
11.955736
20
18.952903
30
0
11
12.037223
21
18.903568
31
0
39
0
210
0
220
0
230
1
0
LINE
5
C3
100
AcDbEntity
8
1
62
256
6
ByLayer
370
-1
48
1
60
0
100
AcDbLine
10
18.820818
20
19.037901
30
0
11
19.23646
21
19.913257
31
0
39
0
210
0
220
0
230
1
0
LINE
5
C4
100
AcDbEntity
8
1
62
256
6
ByLayer
370
-1
48
1
60
0
100
AcDbLine
10
19.123327
20
19.912688
30
0
11
18.727909
21
19.079925
31
0
39
0
210
0
220
0
230
1
0
LINE
5
C5
100
AcDbEntity
8
1
62
256
6
ByLayer
370
-1
48
1
60
0
100
AcDbLine
10
23.042432
20
19.900964
30
0
11
23.044407
21
19.179364
31
0
39
0
210
0
220
0
230
1
0
LINE
5
C6
100
AcDbEntity
8
1
62
256
6
ByLayer
370
-1
48
1
60
0
100
AcDbLine
10
22.359468
20
12.963821
30
0
11
21.682644
21
13.658224
31
0
39
0
210
0
220
0
230
1
0
LINE
5
C7
100
AcDbEntity
8
1
62
256
6
ByLayer
370
-1
48
1
60
0
100
AcDbLine
10
14.905412
20
12.963821
30
0
11
15.877802
21
13.241027
31
0
39
0
210
0
220
0
230
1
0
LINE
5
C8
100
AcDbEntity
8
1
62
256
6
ByLayer
370
-1
48
1
60
0
100
AcDbLine
10
18.311603
20
7.467304
30
0
11
18.281674
21
8.303519
31
0
39
0
210
0
220
0
230
1
0
LINE
5
C9
100
AcDbEntity
8
1
62
256
6
ByLayer
370
-1
48
1
60
0
100
AcDbLine
10
11.814964
20
17.500106
30
0
11
11.862035
21
19.060833
31
0
39
0
210
0
220
0
230
1
0
LINE
5
CA
100
AcDbEntity
8
1
62
256
6
ByLayer
370
-1
48
1
60
0
100
AcDbLine
10
12.599806
20
16.075368
30
0
11
13.070277
21
16.978454
31
0
39
0
210
0
220
0
230
1
0
LINE
5
CB
100
AcDbEntity
8
1
62
256
6
ByLayer
370
-1
48
1
60
0
100
AcDbLine
10
22.634422
20
12.681725
30
0
11
22.359468
21
12.963821
31
0
39
0
210
0
220
0
230
1
0
LINE
5
CC
100
AcDbEntity
8
1
62
256
6
ByLayer
370
-1
48
1
60
0
100
AcDbLine
10
17.88254
20
19.911005
30
0
11
17.758413
21
19.325176
31
0
39
0
210
0
220
0
230
1
0
LINE
5
CD
100
AcDbEntity
8
1
62
256
6
ByLayer
370
-1
48
1
60
0
100
AcDbLine
10
18.434817
20
7.283295
30
0
11
17.745519
21
7.220725
31
0
39
0
210
0
220
0
230
1
0
LINE
5
CE
100
AcDbEntity
8
1
62
256
6
ByLayer
370
-1
48
1
60
0
100
AcDbLine
10
12.674643
20
17.885723
30
0
11
12.266962
21
17.889112
31
0
39
0
210
0
220
0
230
1
0
LINE
5
CF
100
AcDbEntity
8
1
62
256
6
ByLayer
370
-1
48
1
60
0
100
AcDbLine
10
17.888216
20
8.433342
30
0
11
17.221369
21
8.372811
31
0
39
0
210
0
220
0
230
1
0
LINE
5
D0
100
AcDbEntity
8
1
62
256
6
ByLayer
370
-1
48
1
60
0
100
AcDbLine
10
11.963067
20
19.232961
30
0
11
11.98424
21
19.245392
31
0
39
0
210
0
220
0
230
1
0
LINE
5
D1
100
AcDbEntity
8
1
62
256
6
ByLayer
370
-1
48
1
60
0
100
AcDbLine
10
12.288647
20
18.608133
30
0
11
12.88486
21
18.251896
31
0
39
0
210
0
220
0
230
1
0
LINE
5
D2
100
AcDbEntity
8
1
62
256
6
ByLayer
370
-1
48
1
60
0
100
AcDbLine
10
18.366304
20
8.647634
30
0
11
18.606212
21
8.632467
31
0
39
0
210
0
220
0
230
1
0
LINE
5
D3
100
AcDbEntity
8
1
62
256
6
ByLayer
370
-1
48
1
60
0
100
AcDbLine
10
12.184734
20
18.604861
30
0
11
12.163049
21
17.88584
31
0
39
0
210
0
220
0
230
1
0
LINE
5
D4
100
AcDbEntity
8
1
62
256
6
ByLayer
370
-1
48
1
60
0
100
AcDbLine
10
24.046435
20
19.36272
30
0
11
24.186476
21
19.600966
31
0
39
0
210
0
220
0
230
1
0
LINE
5
D5
100
AcDbEntity
8
1
62
256
6
ByLayer
370
-1
48
1
60
0
100
AcDbLine
10
23.556891
20
18.772216
30
0
11
23.773876
21
18.410023
31
0
39
0
210
0
220
0
230
1
0
LINE
5
D6
100
AcDbEntity
8
1
62
256
6
ByLayer
370
-1
48
1
60
0
100
AcDbLine
10
12.947407
20
18.346358
30
0
11
12.351194
21
18.702595
31
0
39
0
210
0
220
0
230
1
0
LINE
5
D7
100
AcDbEntity
8
1
62
256
6
ByLayer
370
-1
48
1
60
0
100
AcDbLine
10
24.354575
20
16.972455
30
0
11
23.099974
21
19.179441
31
0
39
0
210
0
220
0
230
1
0
LINE
5
D8
100
AcDbEntity
8
1
62
256
6
ByLayer
370
-1
48
1
60
0
100
AcDbLine
10
23.067536
20
13.416129
30
0
11
22.655929
21
13.838426
31
0
39
0
210
0
220
0
230
1
0
LINE
5
D9
100
AcDbEntity
8
1
62
256
6
ByLayer
370
-1
48
1
60
0
100
AcDbLine
10
24.12317
20
16.741801
30
0
11
24.172408
21
16.433995
31
0
39
0
210
0
220
0
230
1
0
LINE
5
DA
100
AcDbEntity
8
1
62
256
6
ByLayer
370
-1
48
1
60
0
100
AcDbLine
10
24.676399
20
18.806189
30
0
11
25.035868
21
18.808189
31
0
39
0
210
0
220
0
230
1
0
LINE
5
DB
100
AcDbEntity
8
1
62
256
6
ByLayer
370
-1
48
1
60
0
100
AcDbLine
10
20.555336
20
9.162352
30
0
11
20.33435
21
8.771856
31
0
39
0
210
0
220
0
230
1
0
LINE
5
DC
100
AcDbEntity
8
1
62
256
6
ByLayer
370
-1
48
1
60
0
100
AcDbLine
10
22.547748
20
12.510606
30
0
11
21.96432
21
13.109187
31
0
39
0
210
0
220
0
230
1
0
LINE
5
DD
100
AcDbEntity
8
1
62
256
6
ByLayer
370
-1
48
1
60
0
100
AcDbLine
10
12.215881
20
19.105641
30
0
11
13.110053
21
18.571375
31
0
39
0
210
0
220
0
230
1
0
LINE
5
DE
100
AcDbEntity
8
1
62
256
6
ByLayer
370
-1
48
1
60
0
100
AcDbLine
10
18.064603
20
19.909765
30
0
11
17.809681
21
18.706647
31
0
39
0
210
0
220
0
230
1
0
LINE
5
DF
100
AcDbEntity
8
1
62
256
6
ByLayer
370
-1
48
1
60
0
100
AcDbLine
10
25.376205
20
18.919823
30
0
11
25.376273
21
18.894961
31
0
39
0
210
0
220
0
230
1
0
LINE
5
E0
100
AcDbEntity
8
1
62
256
6
ByLayer
370
-1
48
1
60
0
100
AcDbLine
10
19.33003
20
8.265485
30
0
11
18.735758
21
7.912688
31
0
39
0
210
0
220
0
230
1
0
LINE
5
E1
100
AcDbEntity
8
1
62
256
6
ByLayer
370
-1
48
1
60
0
100
AcDbLine
10
24.571289
20
17.098352
30
0
11
24.354575
21
16.972455
31
0
39
0
210
0
220
0
230
1
0
LINE
5
E2
100
AcDbEntity
8
1
62
256
6
ByLayer
370
-1
48
1
60
0
100
AcDbLine
10
18.652933
20
7.524445
30
0
11
18.798819
21
7.819153
31
0
39
0
210
0
220
0
230
1
0
LINE
5
E3
100
AcDbEntity
8
1
62
256
6
ByLayer
370
-1
48
1
60
0
100
AcDbLine
10
11.862035
20
19.060833
30
0
11
11.175763
21
18.998539
31
0
39
0
210
0
220
0
230
1
0
LINE
5
E4
100
AcDbEntity
8
1
62
256
6
ByLayer
370
-1
48
1
60
0
100
AcDbLine
10
17.313262
20
8.769831
30
0
11
16.646416
21
8.709299
31
0
39
0
210
0
220
0
230
1
0
LINE
5
E5
100
AcDbEntity
8
1
62
256
6
ByLayer
370
-1
48
1
60
0
100
AcDbLine
10
22.634422
20
12.681725
30
0
11
22.956489
21
13.242797
31
0
39
0
210
0
220
0
230
1
0
LINE
5
E6
100
AcDbEntity
8
1
62
256
6
ByLayer
370
-1
48
1
60
0
100
AcDbLine
10
23.909102
20
19.875799
30
0
11
25.275359
21
19.092063
31
0
39
0
210
0
220
0
230
1
0
LINE
5
E7
100
AcDbEntity
8
1
62
256
6
ByLayer
370
-1
48
1
60
0
100
AcDbLine
10
23.992255
20
18.538955
30
0
11
23.775271
21
18.901148
31
0
39
0
210
0
220
0
230
1
0
LINE
5
E8
100
AcDbEntity
8
1
62
256
6
ByLayer
370
-1
48
1
60
0
100
AcDbLine
10
17.246508
20
9.370243
30
0
11
16.577562
21
9.309521
31
0
39
0
210
0
220
0
230
1
0
LINE
5
E9
100
AcDbEntity
8
1
62
256
6
ByLayer
370
-1
48
1
60
0
100
AcDbLine
10
11.963067
20
19.232961
30
0
11
11.273769
21
19.170391
31
0
39
0
210
0
220
0
230
1
0
LINE
5
EA
100
AcDbEntity
8
1
62
256
6
ByLayer
370
-1
48
1
60
0
100
AcDbLine
10
18.798819
20
7.819153
30
0
11
19.393092
21
8.17195
31
0
39
0
210
0
220
0
230
1
0
LINE
5
EB
100
AcDbEntity
8
1
62
256
6
ByLayer
370
-1
48
1
60
0
100
AcDbLine
10
23.067536
20
13.416129
30
0
11
23.147144
21
13.525723
31
0
39
0
210
0
220
0
230
1
0
LINE
5
EC
100
AcDbEntity
8
1
62
256
6
ByLayer
370
-1
48
1
60
0
100
AcDbLine
10
19.123327
20
19.912688
30
0
11
18.903853
21
19.910302
31
0
39
0
210
0
220
0
230
1
0
LINE
5
ED
100
AcDbEntity
8
1
62
256
6
ByLayer
370
-1
48
1
60
0
100
AcDbLine
10
20.741524
20
9.445771
30
0
11
21.025698
21
9.787859
31
0
39
0
210
0
220
0
230
1
0
LINE
5
EE
100
AcDbEntity
8
1
62
256
6
ByLayer
370
-1
48
1
60
0
100
AcDbLine
10
24.534177
20
18.020335
30
0
11
24.578581
21
17.989427
31
0
39
0
210
0
220
0
230
1
0
LINE
5
EF
100
AcDbEntity
8
1
62
256
6
ByLayer
370
-1
48
1
60
0
100
AcDbLine
10
23.806316
20
19.902979
30
0
11
23.097999
21
19.901041
31
0
39
0
210
0
220
0
230
1
0
LINE
5
F0
100
AcDbEntity
8
1
62
256
6
ByLayer
370
-1
48
1
60
0
100
AcDbLine
10
19.393092
20
8.17195
30
0
11
19.556958
21
7.95081
31
0
39
0
210
0
220
0
230
1
0
LINE
5
F1
100
AcDbEntity
8
1
62
256
6
ByLayer
370
-1
48
1
60
0
100
AcDbLine
10
25.035868
20
18.808189
30
0
11
25.1313
21
18.753983
31
0
39
0
210
0
220
0
230
1
0
LINE
5
F2
100
AcDbEntity
8
1
62
256
6
ByLayer
370
-1
48
1
60
0
100
AcDbLine
10
22.305991
20
19.903432
30
0
11
22.842203
21
19.036042
31
0
39
0
210
0
220
0
230
1
0
LINE
5
F3
100
AcDbEntity
8
1
62
256
6
ByLayer
370
-1
48
1
60
0
100
AcDbLine
10
18.697418
20
19.90933
30
0
11
18.6145
21
19.517994
31
0
39
0
210
0
220
0
230
1
0
LINE
5
F4
100
AcDbEntity
8
1
62
256
6
ByLayer
370
-1
48
1
60
0
100
AcDbLine
10
14.992318
20
19.494692
30
0
11
15.659592
21
19.886466
31
0
39
0
210
0
220
0
230
1
0
LINE
5
F5
100
AcDbEntity
8
1
62
256
6
ByLayer
370
-1
48
1
60
0
100
AcDbLine
10
18.050399
20
8.44972
30
0
11
18.003838
21
8.427561
31
0
39
0
210
0
220
0
230
1
0
LINE
5
F6
100
AcDbEntity
8
1
62
256
6
ByLayer
370
-1
48
1
60
0
100
AcDbLine
10
19.987493
20
8.121726
30
0
11
20.307964
21
8.723816
31
0
39
0
210
0
220
0
230
1
0
LINE
5
F7
100
AcDbEntity
8
1
62
256
6
ByLayer
370
-1
48
1
60
0
100
AcDbLine
10
14.351985
20
13.196531
30
0
11
14.422769
21
13.024274
31
0
39
0
210
0
220
0
230
1
0
LINE
5
F8
100
AcDbEntity
8
1
62
256
6
ByLayer
370
-1
48
1
60
0
100
AcDbLine
10
14.94751
20
12.120156
30
0
11
15.538864
21
12.288737
31
0
39
0
210
0
220
0
230
1
0
LINE
5
F9
100
AcDbEntity
8
1
62
256
6
ByLayer
370
-1
48
1
60
0
100
AcDbLine
10
13.882565
20
19.44972
30
0
11
14.088493
21
19.326679
31
0
39
0
210
0
220
0
230
1
0
LINE
5
FA
100
AcDbEntity
8
1
62
256
6
ByLayer
370
-1
48
1
60
0
100
AcDbLine
10
17.688405
20
19.913257
30
0
11
17.668588
21
19.329378
31
0
39
0
210
0
220
0
230
1
0
LINE
5
FB
100
AcDbEntity
8
1
62
256
6
ByLayer
370
-1
48
1
60
0
100
AcDbLine
10
17.758413
20
19.325176
30
0
11
17.778353
21
19.912688
31
0
39
0
210
0
220
0
230
1
0
LINE
5
FC
100
AcDbEntity
8
1
62
256
6
ByLayer
370
-1
48
1
60
0
100
AcDbLine
10
14.510386
20
12.851209
30
0
11
14.905412
21
12.963821
31
0
39
0
210
0
220
0
230
1
0
LINE
5
FD
100
AcDbEntity
8
1
62
256
6
ByLayer
370
-1
48
1
60
0
100
AcDbLine
10
12.188955
20
16.744346
30
0
11
12.803474
21
17.105146
31
0
39
0
210
0
220
0
230
1
0
LINE
5
FE
100
AcDbEntity
8
1
62
256
6
ByLayer
370
-1
48
1
60
0
100
AcDbLine
10
14.510386
20
12.851209
30
0
11
14.835521
21
12.291008
31
0
39
0
210
0
220
0
230
1
0
LINE
5
FF
100
AcDbEntity
8
1
62
256
6
ByLayer
370
-1
48
1
60
0
100
AcDbLine
10
17.207391
20
9.484235
30
0
11
16.989051
21
9.644726
31
0
39
0
210
0
220
0
230
1
0
LINE
5
100
100
AcDbEntity
8
1
62
256
6
ByLayer
370
-1
48
1
60
0
100
AcDbLine
10
18.215391
20
8.415045
30
0
11
17.553229
21
8.354938
31
0
39
0
210
0
220
0
230
1
0
LINE
5
101
100
AcDbEntity
8
1
62
256
6
ByLayer
370
-1
48
1
60
0
100
AcDbLine
10
16.793884
20
9.767563
30
0
11
16.124465
21
10.159337
31
0
39
0
210
0
220
0
230
1
0
LINE
5
102
100
AcDbEntity
8
1
62
256
6
ByLayer
370
-1
48
1
60
0
100
AcDbLine
10
12.999077
20
18.829738
30
0
11
13.048289
21
18.858632
31
0
39
0
210
0
220
0
230
1
0
LINE
5
103
100
AcDbEntity
8
1
62
256
6
ByLayer
370
-1
48
1
60
0
100
AcDbLine
10
17.688405
20
19.913257
30
0
11
15.758
21
19.913257
31
0
39
0
210
0
220
0
230
1
0
LINE
5
104
100
AcDbEntity
8
1
62
256
6
ByLayer
370
-1
48
1
60
0
100
AcDbLine
10
24.186476
20
19.600966
30
0
11
25.130464
21
19.059459
31
0
39
0
210
0
220
0
230
1
0
LINE
5
105
100
AcDbEntity
8
1
62
256
6
ByLayer
370
-1
48
1
60
0
100
AcDbLine
10
14.835521
20
12.291008
30
0
11
16.049984
21
12.637223
31
0
39
0
210
0
220
0
230
1
0
LINE
5
106
100
AcDbEntity
8
1
62
256
6
ByLayer
370
-1
48
1
60
0
100
AcDbLine
10
12.266962
20
17.889112
30
0
11
12.288647
21
18.608133
31
0
39
0
210
0
220
0
230
1
0
LINE
5
107
100
AcDbEntity
8
1
62
256
6
ByLayer
370
-1
48
1
60
0
100
AcDbLine
10
12.803474
20
17.105146
30
0
11
12.41208
21
16.35385
31
0
39
0
210
0
220
0
230
1
0
LINE
5
108
100
AcDbEntity
8
1
62
256
6
ByLayer
370
-1
48
1
60
0
100
AcDbLine
10
21.885249
20
19.913257
30
0
11
24.185822
21
16.191791
31
0
39
0
210
0
220
0
230
1
0
LINE
5
109
100
AcDbEntity
8
1
62
256
6
ByLayer
370
-1
48
1
60
0
100
AcDbLine
10
12.776825
20
17.15334
30
0
11
12.162306
21
16.79254
31
0
39
0
210
0
220
0
230
1
0
LINE
5
10A
100
AcDbEntity
8
1
62
256
6
ByLayer
370
-1
48
1
60
0
100
AcDbLine
10
24.172408
20
16.433995
30
0
11
22.022279
21
19.9121
31
0
39
0
210
0
220
0
230
1
0
LINE
5
10B
100
AcDbEntity
8
1
62
256
6
ByLayer
370
-1
48
1
60
0
100
AcDbLine
10
24.048956
20
18.441685
30
0
11
24.676399
21
18.806189
31
0
39
0
210
0
220
0
230
1
0
LINE
5
10C
100
AcDbEntity
8
1
62
256
6
ByLayer
370
-1
48
1
60
0
100
AcDbLine
10
14.45807
20
19.211363
30
0
11
14.772323
21
19.371854
31
0
39
0
210
0
220
0
230
1
0
LINE
5
10D
100
AcDbEntity
8
1
62
256
6
ByLayer
370
-1
48
1
60
0
100
AcDbLine
10
11.838528
20
17.398507
30
0
11
12.162306
21
16.79254
31
0
39
0
210
0
220
0
230
1
0
LINE
5
10E
100
AcDbEntity
8
1
62
256
6
ByLayer
370
-1
48
1
60
0
100
AcDbLine
10
17.888216
20
8.433342
30
0
11
17.313262
21
8.769831
31
0
39
0
210
0
220
0
230
1
0
LINE
5
10F
100
AcDbEntity
8
1
62
256
6
ByLayer
370
-1
48
1
60
0
100
AcDbLine
10
19.556958
20
7.95081
30
0
11
18.665697
21
7.421702
31
0
39
0
210
0
220
0
230
1
0
LINE
5
110
100
AcDbEntity
8
1
62
256
6
ByLayer
370
-1
48
1
60
0
100
AcDbLine
10
12.41208
20
16.35385
30
0
11
12.188955
21
16.744346
31
0
39
0
210
0
220
0
230
1
0
LINE
5
111
100
AcDbEntity
8
1
62
256
6
ByLayer
370
-1
48
1
60
0
100
AcDbLine
10
20.33435
20
8.771856
30
0
11
19.717856
21
9.132656
31
0
39
0
210
0
220
0
230
1
0
LINE
5
112
100
AcDbEntity
8
1
62
256
6
ByLayer
370
-1
48
1
60
0
100
AcDbLine
10
18.735758
20
7.912688
30
0
11
18.710146
21
8.628269
31
0
39
0
210
0
220
0
230
1
0
LINE
5
113
100
AcDbEntity
8
1
62
256
6
ByLayer
370
-1
48
1
60
0
100
AcDbLine
10
18.281674
20
8.303519
30
0
11
17.617544
21
8.243234
31
0
39
0
210
0
220
0
230
1
0
LINE
5
114
100
AcDbEntity
8
1
62
256
6
ByLayer
370
-1
48
1
60
0
100
AcDbLine
10
18.6145
20
19.517994
30
0
11
18.410391
21
18.554687
31
0
39
0
210
0
220
0
230
1
0
LINE
5
115
100
AcDbEntity
8
1
62
256
6
ByLayer
370
-1
48
1
60
0
100
AcDbLine
10
13.110053
20
18.571375
30
0
11
12.947407
21
18.346358
31
0
39
0
210
0
220
0
230
1
0
LINE
5
116
100
AcDbEntity
8
1
62
256
6
ByLayer
370
-1
48
1
60
0
100
AcDbLine
10
24.190291
20
18.207317
30
0
11
24.048956
21
18.441685
31
0
39
0
210
0
220
0
230
1
0
LINE
5
117
100
AcDbEntity
8
1
62
256
6
ByLayer
370
-1
48
1
60
0
100
AcDbLine
10
18.311603
20
7.467304
30
0
11
17.625332
21
7.405009
31
0
39
0
210
0
220
0
230
1
0
LINE
5
118
100
AcDbEntity
8
1
62
256
6
ByLayer
370
-1
48
1
60
0
100
AcDbLine
10
15.538864
20
12.288737
30
0
11
15.027709
21
12.013928
31
0
39
0
210
0
220
0
230
1
0
LINE
5
119
100
AcDbEntity
8
1
62
256
6
ByLayer
370
-1
48
1
60
0
100
AcDbLine
10
13.11313
20
18.959091
30
0
11
13.119296
21
19.012521
31
0
39
0
210
0
220
0
230
1
0
LINE
5
11A
100
AcDbEntity
8
1
62
256
6
ByLayer
370
-1
48
1
60
0
100
AcDbLine
10
18.404716
20
7.57444
30
0
11
18.366304
21
8.647634
31
0
39
0
210
0
220
0
230
1
0
LINE
5
11B
100
AcDbEntity
8
1
62
256
6
ByLayer
370
-1
48
1
60
0
100
AcDbLine
10
12.203684
20
19.001301
30
0
11
12.215881
21
19.105641
31
0
39
0
210
0
220
0
230
1
0
LINE
5
11C
100
AcDbEntity
8
1
62
256
6
ByLayer
370
-1
48
1
60
0
100
AcDbLine
10
19.136273
20
8.90141
30
0
11
18.728607
21
8.899203
31
0
39
0
210
0
220
0
230
1
0
LINE
5
11D
100
AcDbEntity
8
1
62
256
6
ByLayer
370
-1
48
1
60
0
100
AcDbLine
10
15.877802
20
13.241027
30
0
11
16.049984
21
12.637223
31
0
39
0
210
0
220
0
230
1
0
LINE
5
11E
100
AcDbEntity
8
1
62
256
6
ByLayer
370
-1
48
1
60
0
100
AcDbLine
10
15.082324
20
11.929893
30
0
11
15.590318
21
12.203002
31
0
39
0
210
0
220
0
230
1
0
LINE
5
11F
100
AcDbEntity
8
1
62
256
6
ByLayer
370
-1
48
1
60
0
100
AcDbLine
10
19.570957
20
8.406223
30
0
11
19.358738
21
8.771214
31
0
39
0
210
0
220
0
230
1
0
LINE
5
120
100
AcDbEntity
8
1
62
256
6
ByLayer
370
-1
48
1
60
0
100
AcDbLine
10
18.631824
20
7.916886
30
0
11
18.485938
21
7.622178
31
0
39
0
210
0
220
0
230
1
0
LINE
5
121
100
AcDbEntity
8
1
62
256
6
ByLayer
370
-1
48
1
60
0
100
AcDbLine
10
17.745519
20
7.220725
30
0
11
17.724279
21
7.233156
31
0
39
0
210
0
220
0
230
1
0
LINE
5
122
100
AcDbEntity
8
1
62
256
6
ByLayer
370
-1
48
1
60
0
100
AcDbLine
10
23.775271
20
18.901148
30
0
11
23.990269
21
19.264524
31
0
39
0
210
0
220
0
230
1
0
LINE
5
123
100
AcDbEntity
8
1
62
256
6
ByLayer
370
-1
48
1
60
0
100
AcDbLine
10
12.351194
20
18.702595
30
0
11
12.203684
21
19.001301
31
0
39
0
210
0
220
0
230
1
0
LINE
5
124
100
AcDbEntity
8
1
62
256
6
ByLayer
370
-1
48
1
60
0
100
AcDbLine
10
19.117812
20
8.630476
30
0
11
19.33003
21
8.265485
31
0
39
0
210
0
220
0
230
1
0
LINE
5
125
100
AcDbEntity
8
1
62
256
6
ByLayer
370
-1
48
1
60
0
100
AcDbLine
10
18.485938
20
7.622178
30
0
11
18.404716
21
7.57444
31
0
39
0
210
0
220
0
230
1
0
LINE
5
126
100
AcDbEntity
8
1
62
256
6
ByLayer
370
-1
48
1
60
0
100
AcDbLine
10
12.037223
20
18.903568
30
0
11
12.184734
21
18.604861
31
0
39
0
210
0
220
0
230
1
0
LINE
5
127
100
AcDbEntity
8
1
62
256
6
ByLayer
370
-1
48
1
60
0
100
AcDbLine
10
24.185822
20
16.191791
30
0
11
24.187966
21
15.408243
31
0
39
0
210
0
220
0
230
1
0
LINE
5
128
100
AcDbEntity
8
1
62
256
6
ByLayer
370
-1
48
1
60
0
100
AcDbLine
10
12.177036
20
19.245779
30
0
11
12.873759
21
18.829487
31
0
39
0
210
0
220
0
230
1
0
LINE
5
129
100
AcDbEntity
8
1
62
256
6
ByLayer
370
-1
48
1
60
0
100
AcDbLine
10
11.273769
20
19.170391
30
0
11
11.294942
21
19.182822
31
0
39
0
210
0
220
0
230
1
0
LINE
5
12A
100
AcDbEntity
8
1
62
256
6
ByLayer
370
-1
48
1
60
0
100
AcDbLine
10
11.98424
20
19.245392
30
0
11
11.294942
21
19.182822
31
0
39
0
210
0
220
0
230
1
0
LINE
5
12B
100
AcDbEntity
8
1
62
256
6
ByLayer
370
-1
48
1
60
0
100
AcDbLine
10
13.184136
20
19.11298
30
0
11
12.51729
21
19.052449
31
0
39
0
210
0
220
0
230
1
0
LINE
5
12C
100
AcDbEntity
8
1
62
256
6
ByLayer
370
-1
48
1
60
0
100
AcDbLine
10
18.710146
20
8.628269
30
0
11
19.117812
21
8.630476
31
0
39
0
210
0
220
0
230
1
0
LINE
5
12D
100
AcDbEntity
8
1
62
256
6
ByLayer
370
-1
48
1
60
0
100
AcDbLine
10
23.771177
20
19.395984
30
0
11
23.556178
21
19.032609
31
0
39
0
210
0
220
0
230
1
0
LINE
5
12E
100
AcDbEntity
8
1
62
256
6
ByLayer
370
-1
48
1
60
0
100
AcDbLine
10
21.682644
20
13.658224
30
0
11
22.111172
21
14.110068
31
0
39
0
210
0
220
0
230
1
0
LINE
5
12F
100
AcDbEntity
8
1
62
256
6
ByLayer
370
-1
48
1
60
0
100
AcDbLine
10
22.093066
20
14.128196
30
0
11
21.664538
21
13.676352
31
0
39
0
210
0
220
0
230
1
0
LINE
5
130
100
AcDbEntity
8
1
62
256
6
ByLayer
370
-1
48
1
60
0
100
AcDbLine
10
22.842203
20
19.036042
30
0
11
24.121878
21
16.784947
31
0
39
0
210
0
220
0
230
1
0
LINE
5
131
100
AcDbEntity
8
1
62
256
6
ByLayer
370
-1
48
1
60
0
100
AcDbLine
10
17.88254
20
19.911005
30
0
11
17.778353
21
19.912688
31
0
39
0
210
0
220
0
230
1
0
LINE
5
132
100
AcDbEntity
8
1
62
256
6
ByLayer
370
-1
48
1
60
0
100
AcDbLine
10
21.891152
20
13.054977
30
0
11
22.430993
21
12.249729
31
0
39
0
210
0
220
0
230
1
0
LINE
5
133
100
AcDbEntity
8
1
62
256
6
ByLayer
370
-1
48
1
60
0
100
AcDbLine
10
22.477894
20
12.343119
30
0
11
21.96432
21
13.109187
31
0
39
0
210
0
220
0
230
1
0
LINE
5
134
100
AcDbEntity
8
1
62
256
6
ByLayer
370
-1
48
1
60
0
100
AcDbLine
10
19.717856
20
9.132656
30
0
11
20.555336
21
9.162352
31
0
39
0
210
0
220
0
230
1
0
LINE
5
135
100
AcDbEntity
8
1
62
256
6
ByLayer
370
-1
48
1
60
0
100
AcDbLine
10
19.917561
20
8.04815
30
0
11
18.627617
21
7.282359
31
0
39
0
210
0
220
0
230
1
0
LINE
5
136
100
AcDbEntity
8
1
62
256
6
ByLayer
370
-1
48
1
60
0
100
AcDbLine
10
12.88486
20
18.251896
30
0
11
12.674643
21
17.885723
31
0
39
0
210
0
220
0
230
1
0
LINE
5
137
100
AcDbEntity
8
1
62
256
6
ByLayer
370
-1
48
1
60
0
100
AcDbLine
10
21.112974
20
9.920712
30
0
11
16.793884
21
9.767563
31
0
39
0
210
0
220
0
230
1
0
LINE
5
138
100
AcDbEntity
8
1
62
256
6
ByLayer
370
-1
48
1
60
0
100
AcDbLine
10
18.410391
20
18.554687
30
0
11
17.809681
21
18.706647
31
0
39
0
210
0
220
0
230
1
0
LINE
5
139
100
AcDbEntity
8
1
62
256
6
ByLayer
370
-1
48
1
60
0
100
AcDbLine
10
15.659592
20
19.886466
30
0
11
14.904316
21
19.817907
31
0
39
0
210
0
220
0
230
1
0
LINE
5
13A
100
AcDbEntity
8
1
62
256
6
ByLayer
370
-1
48
1
60
0
100
AcDbLine
10
20.741524
20
9.445771
30
0
11
19.734841
21
9.410076
31
0
39
0
210
0
220
0
230
1
0
LINE
5
13B
100
AcDbEntity
8
1
62
256
6
ByLayer
370
-1
48
1
60
0
100
AcDbLine
10
23.990269
20
19.264524
30
0
11
24.619699
21
18.903459
31
0
39
0
210
0
220
0
230
1
0
LINE
5
13C
100
AcDbEntity
8
1
62
256
6
ByLayer
370
-1
48
1
60
0
100
AcDbLine
10
12.973801
20
15.620077
30
0
11
14.30457
21
13.29106
31
0
39
0
210
0
220
0
230
1
0
LINE
5
13D
100
AcDbEntity
8
1
62
256
6
ByLayer
370
-1
48
1
60
0
100
AcDbLine
10
16.989051
20
9.644726
30
0
11
21.025698
21
9.787859
31
0
39
0
210
0
220
0
230
1
0
LINE
5
13E
100
AcDbEntity
8
1
62
256
6
ByLayer
370
-1
48
1
60
0
100
AcDbLine
10
12.163049
20
17.88584
30
0
11
11.923213
21
17.87455
31
0
39
0
210
0
220
0
230
1
0
LINE
5
13F
100
AcDbEntity
8
1
62
256
6
ByLayer
370
-1
48
1
60
0
100
AcDbLine
10
13.184136
20
19.11298
30
0
11
13.757248
21
19.449469
31
0
39
0
210
0
220
0
230
1
0
LINE
5
140
100
AcDbEntity
8
1
62
256
6
ByLayer
370
-1
48
1
60
0
100
AcDbLine
10
14.422769
20
13.024274
30
0
11
15.260977
21
13.263227
31
0
39
0
210
0
220
0
230
1
0
LINE
5
141
100
AcDbEntity
8
1
62
256
6
ByLayer
370
-1
48
1
60
0
100
AcDbLine
10
11.923213
20
17.87455
30
0
11
11.955736
21
18.952903
31
0
39
0
210
0
220
0
230
1
0
LINE
5
142
100
AcDbEntity
8
1
62
256
6
ByLayer
370
-1
48
1
60
0
100
AcDbLine
10
25.130464
20
19.059459
30
0
11
25.035333
21
19.003655
31
0
39
0
210
0
220
0
230
1
0
LINE
5
143
100
AcDbEntity
8
1
62
256
6
ByLayer
370
-1
48
1
60
0
100
AcDbLine
10
17.625332
20
7.405009
30
0
11
17.617544
21
8.243234
31
0
39
0
210
0
220
0
230
1
0
LINE
5
144
100
AcDbEntity
8
1
62
256
6
ByLayer
370
-1
48
1
60
0
100
AcDbLine
10
12.2869
20
17.620705
30
0
11
12.694581
21
17.617316
31
0
39
0
210
0
220
0
230
1
0
LINE
5
145
100
AcDbEntity
8
1
62
256
6
ByLayer
370
-1
48
1
60
0
100
AcDbLine
10
24.478216
20
18.183907
30
0
11
24.478375
21
18.126119
31
0
39
0
210
0
220
0
230
1
0
LINE
5
146
100
AcDbEntity
8
1
62
256
6
ByLayer
370
-1
48
1
60
0
100
AcDbLine
10
23.044407
20
19.179364
30
0
11
22.598321
21
19.900964
31
0
39
0
210
0
220
0
230
1
0
LINE
5
147
100
AcDbEntity
8
1
62
256
6
ByLayer
370
-1
48
1
60
0
100
AcDbLine
10
23.201295
20
13.610896
30
0
11
24.161852
21
15.308256
31
0
39
0
210
0
220
0
230
1
0
LINE
5
148
100
AcDbEntity
8
1
62
256
6
ByLayer
370
-1
48
1
60
0
100
AcDbLine
10
19.855163
20
15.523435
30
0
11
20.111302
21
15.54879
31
0
39
0
210
0
220
0
230
1
0
LINE
5
149
100
AcDbEntity
8
1
62
256
6
ByLayer
370
-1
48
1
60
0
100
AcDbLine
10
18.809023
20
16.606618
30
0
11
18.805002
21
16.586621
31
0
39
0
210
0
220
0
230
1
0
LINE
5
14A
100
AcDbEntity
8
1
62
256
6
ByLayer
370
-1
48
1
60
0
100
AcDbLine
10
19.876602
20
14.739072
30
0
11
20.134785
21
14.76463
31
0
39
0
210
0
220
0
230
1
0
LINE
5
14B
100
AcDbEntity
8
1
62
256
6
ByLayer
370
-1
48
1
60
0
100
AcDbLine
10
19.857485
20
14.745483
30
0
11
20.113624
21
14.770839
31
0
39
0
210
0
220
0
230
1
0
LINE
5
14C
100
AcDbEntity
8
1
62
256
6
ByLayer
370
-1
48
1
60
0
100
AcDbLine
10
19.874241
20
15.529845
30
0
11
20.132424
21
15.555403
31
0
39
0
210
0
220
0
230
1
0
LINE
5
14D
100
AcDbEntity
8
1
62
256
6
ByLayer
370
-1
48
1
60
0
100
AcDbLine
10
19.874241
20
15.529845
30
0
11
19.855163
21
15.523435
31
0
39
0
210
0
220
0
230
1
0
LINE
5
14E
100
AcDbEntity
8
1
62
256
6
ByLayer
370
-1
48
1
60
0
100
AcDbLine
10
18.809023
20
16.606618
30
0
11
19.067206
21
16.632176
31
0
39
0
210
0
220
0
230
1
0
LINE
5
14F
100
AcDbEntity
8
1
62
256
6
ByLayer
370
-1
48
1
60
0
100
AcDbLine
10
19.857485
20
14.745483
30
0
11
19.876602
21
14.739072
31
0
39
0
210
0
220
0
230
1
0
LINE
5
150
100
AcDbEntity
8
1
62
256
6
ByLayer
370
-1
48
1
60
0
100
AcDbLine
10
18.805002
20
16.586621
30
0
11
19.061141
21
16.611977
31
0
39
0
210
0
220
0
230
1
0
LINE
5
151
100
AcDbEntity
8
1
62
256
6
ByLayer
370
-1
48
1
60
0
100
AcDbLine
10
18.813671
20
13.682296
30
0
11
19.06981
21
13.707652
31
0
39
0
210
0
220
0
230
1
0
LINE
5
152
100
AcDbEntity
8
1
62
256
6
ByLayer
370
-1
48
1
60
0
100
AcDbLine
10
18.817811
20
13.662299
30
0
11
19.075994
21
13.687857
31
0
39
0
210
0
220
0
230
1
0
LINE
5
153
100
AcDbEntity
8
1
62
256
6
ByLayer
370
-1
48
1
60
0
100
AcDbLine
10
18.813671
20
13.682296
30
0
11
18.817811
21
13.662299
31
0
39
0
210
0
220
0
230
1
0
LINE
5
154
100
AcDbEntity
8
1
62
256
6
ByLayer
370
-1
48
1
60
0
100
AcDbLine
10
21.636933
20
10.446006
30
0
11
22.141912
21
10.610365
31
0
39
0
210
0
220
0
230
1
0
LINE
5
155
100
AcDbEntity
8
1
62
256
6
ByLayer
370
-1
48
1
60
0
100
AcDbLine
10
22.702771
20
11.936282
30
0
11
22.703418
21
11.63883
31
0
39
0
210
0
220
0
230
1
0
LINE
5
156
100
AcDbEntity
8
SK1
62
256
6
ByLayer
370
-1
48
1
60
0
100
AcDbLine
10
0
20
12.4375
30
0
11
0
21
-12.4375
31
0
39
0
210
0
220
0
230
1
0
LINE
5
158
100
AcDbEntity
8
SK1
62
256
6
ByLayer
370
-1
48
1
60
0
100
AcDbLine
10
0
20
12.4375
30
0
11
-124.650602
21
12.4375
31
0
39
0
210
0
220
0
230
1
0
LINE
5
159
100
AcDbEntity
8
SK1
62
256
6
ByLayer
370
-1
48
1
60
0
100
AcDbLine
10
-124.650602
20
-12.4375
30
0
11
0
21
-12.4375
31
0
39
0
210
0
220
0
230
1
0
LINE
5
15A
100
AcDbEntity
8
SK1
62
256
6
ByLayer
370
-1
48
1
60
0
100
AcDbLine
10
-124.650602
20
12.4375
30
0
11
-124.650602
21
-12.4375
31
0
39
0
210
0
220
0
230
1
0
LINE
5
15B
100
AcDbEntity
8
2
62
256
6
ByLayer
370
-1
48
1
60
0
100
AcDbLine
10
0
20
29.6625
30
0
11
26.699398
21
29.6625
31
0
39
0
210
0
220
0
230
1
0
LINE
5
15C
100
AcDbEntity
8
2
62
256
6
ByLayer
370
-1
48
1
60
0
100
AcDbLine
10
26.699398
20
27.5875
30
0
11
26.699398
21
32.6625
31
0
39
0
210
0
220
0
230
1
0
LINE
5
15D
100
AcDbEntity
8
2
62
256
6
ByLayer
370
-1
48
1
60
0
100
AcDbLine
10
0
20
13.9375
30
0
11
0
21
32.6625
31
0
39
0
210
0
220
0
230
1
0
LINE
5
15E
100
AcDbEntity
8
2
62
256
6
ByLayer
370
-1
48
1
60
0
100
AcDbLine
10
26.699398
20
29.6625
30
0
11
23.699399
21
29.267543
31
0
39
0
210
0
220
0
230
1
0
LINE
5
15F
100
AcDbEntity
8
2
62
256
6
ByLayer
370
-1
48
1
60
0
100
AcDbLine
10
26.699398
20
29.6625
30
0
11
23.699397
21
30.057457
31
0
39
0
210
0
220
0
230
1
0
LINE
5
160
100
AcDbEntity
8
2
62
256
6
ByLayer
370
-1
48
1
60
0
100
AcDbLine
10
23.699399
20
29.267543
30
0
11
23.699397
21
30.057457
31
0
39
0
210
0
220
0
230
1
0
LINE
5
161
100
AcDbEntity
8
2
62
256
6
ByLayer
370
-1
48
1
60
0
100
AcDbLine
10
0
20
29.6625
30
0
11
2.999999
21
30.057457
31
0
39
0
210
0
220
0
230
1
0
LINE
5
162
100
AcDbEntity
8
2
62
256
6
ByLayer
370
-1
48
1
60
0
100
AcDbLine
10
0
20
29.6625
30
0
11
3.000001
21
29.267543
31
0
39
0
210
0
220
0
230
1
0
LINE
5
163
100
AcDbEntity
8
2
62
256
6
ByLayer
370
-1
48
1
60
0
100
AcDbLine
10
2.999999
20
30.057457
30
0
11
3.000001
21
29.267543
31
0
39
0
210
0
220
0
230
1
0
LINE
5
164
100
AcDbEntity
8
SK2
62
256
6
ByLayer
370
-1
48
1
60
0
100
AcDbLine
10
26.699398
20
39.6625
30
0
11
-124.650602
21
39.6625
31
0
39
0
210
0
220
0
230
1
0
LINE
5
166
100
AcDbEntity
8
SK2
62
256
6
ByLayer
370
-1
48
1
60
0
100
AcDbLine
10
-124.650602
20
13.9375
30
0
11
-124.650602
21
42.6625
31
0
39
0
210
0
220
0
230
1
0
LINE
5
167
100
AcDbEntity
8
SK2
62
256
6
ByLayer
370
-1
48
1
60
0
100
AcDbLine
10
26.699398
20
27.5875
30
0
11
26.699398
21
42.6625
31
0
39
0
210
0
220
0
230
1
0
LINE
5
168
100
AcDbEntity
8
SK2
62
256
6
ByLayer
370
-1
48
1
60
0
100
AcDbLine
10
-124.650602
20
39.6625
30
0
11
-121.650603
21
40.057457
31
0
39
0
210
0
220
0
230
1
0
LINE
5
169
100
AcDbEntity
8
SK2
62
256
6
ByLayer
370
-1
48
1
60
0
100
AcDbLine
10
-124.650602
20
39.6625
30
0
11
-121.650601
21
39.267543
31
0
39
0
210
0
220
0
230
1
0
LINE
5
16A
100
AcDbEntity
8
SK2
62
256
6
ByLayer
370
-1
48
1
60
0
100
AcDbLine
10
-121.650603
20
40.057457
30
0
11
-121.650601
21
39.267543
31
0
39
0
210
0
220
0
230
1
0
LINE
5
16B
100
AcDbEntity
8
SK2
62
256
6
ByLayer
370
-1
48
1
60
0
100
AcDbLine
10
26.699398
20
39.6625
30
0
11
23.699399
21
39.267543
31
0
39
0
210
0
220
0
230
1
0
LINE
5
16C
100
AcDbEntity
8
SK2
62
256
6
ByLayer
370
-1
48
1
60
0
100
AcDbLine
10
26.699398
20
39.6625
30
0
11
23.699397
21
40.057457
31
0
39
0
210
0
220
0
230
1
0
LINE
5
16D
100
AcDbEntity
8
SK2
62
256
6
ByLayer
370
-1
48
1
60
0
100
AcDbLine
10
23.699399
20
39.267543
30
0
11
23.699397
21
40.057457
31
0
39
0
210
0
220
0
230
1
0
LINE
5
16E
100
AcDbEntity
8
2
62
256
6
ByLayer
370
-1
48
1
60
0
100
AcDbLine
10
40.949398
20
19.9125
30
0
11
40.949398
21
-12.4375
31
0
39
0
210
0
220
0
230
1
0
LINE
5
16F
100
AcDbEntity
8
2
62
256
6
ByLayer
370
-1
48
1
60
0
100
AcDbLine
10
1.5
20
-12.4375
30
0
11
43.949398
21
-12.4375
31
0
39
0
210
0
220
0
230
1
0
LINE
5
170
100
AcDbEntity
8
2
62
256
6
ByLayer
370
-1
48
1
60
0
100
AcDbLine
10
34.374398
20
19.9125
30
0
11
43.949398
21
19.9125
31
0
39
0
210
0
220
0
230
1
0
LINE
5
171
100
AcDbEntity
8
2
62
256
6
ByLayer
370
-1
48
1
60
0
100
AcDbLine
10
40.949398
20
-12.4375
30
0
11
40.554441
21
-9.437501
31
0
39
0
210
0
220
0
230
1
0
LINE
5
172
100
AcDbEntity
8
2
62
256
6
ByLayer
370
-1
48
1
60
0
100
AcDbLine
10
40.949398
20
-12.4375
30
0
11
41.344356
21
-9.437499
31
0
39
0
210
0
220
0
230
1
0
LINE
5
173
100
AcDbEntity
8
2
62
256
6
ByLayer
370
-1
48
1
60
0
100
AcDbLine
10
40.554441
20
-9.437501
30
0
11
41.344356
21
-9.437499
31
0
39
0
210
0
220
0
230
1
0
LINE
5
174
100
AcDbEntity
8
2
62
256
6
ByLayer
370
-1
48
1
60
0
100
AcDbLine
10
40.949398
20
19.9125
30
0
11
41.344356
21
16.912501
31
0
39
0
210
0
220
0
230
1
0
LINE
5
175
100
AcDbEntity
8
2
62
256
6
ByLayer
370
-1
48
1
60
0
100
AcDbLine
10
40.949398
20
19.9125
30
0
11
40.554441
21
16.912499
31
0
39
0
210
0
220
0
230
1
0
LINE
5
176
100
AcDbEntity
8
2
62
256
6
ByLayer
370
-1
48
1
60
0
100
AcDbLine
10
41.344356
20
16.912501
30
0
11
40.554441
21
16.912499
31
0
39
0
210
0
220
0
230
1
0
MTEXT
5
299
100
AcDbEntity
8
SK6
62
256
6
ByLayer
370
-1
48
1
60
0
100
AcDbMText
10
-81.725401
20
-2.273251
30
0
210
0
220
0
230
1
1
\W00.722;\fsimplex.shx,bigfont.shx;266RFG-2525-16 
40
3.5
41
0
44
1.084337
50
0
71
7
72
5
7
DEFAULT
0
MTEXT
5
2BF
100
AcDbEntity
8
2
62
256
6
ByLayer
370
-1
48
1
60
0
100
AcDbMText
10
11.845752
20
30.7875
30
0
210
0
220
0
230
1
1
\W00.656;\fsimplex.shx,bigfont.shx;27 
40
4.5
41
0
44
1.084337
50
0
71
7
72
5
7
DEFAULT
0
MTEXT
5
2C0
100
AcDbEntity
8
SK2
62
256
6
ByLayer
370
-1
48
1
60
0
100
AcDbMText
10
-51.006523
20
40.7875
30
0
210
0
220
0
230
1
1
\W00.573;\fsimplex.shx,bigfont.shx;151 
40
4.5
41
0
44
1.084337
50
0
71
7
72
5
7
DEFAULT
0
MTEXT
5
2C1
100
AcDbEntity
8
2
62
256
6
ByLayer
370
-1
48
1
60
0
100
AcDbMText
10
39.824398
20
2.233553
30
0
210
0
220
0
230
1
1
\W00.656;\fsimplex.shx,bigfont.shx;32 
40
4.5
41
0
44
1.084337
50
89.9999999999999
71
7
72
5
7
DEFAULT
0
DIMENSION
5
2CF
100
AcDbEntity
8
SK2
62
256
6
ByLayer
370
-3
48
1
60
0
100
AcDbDimension
2
DimnDraft3D1
10
-134.400602
20
-12.4375
30
0
11
-134.400602
21
-2.628947
31
0
70
32
71
5
72
1
41
1
210
0
220
0
230
1
3
Standard
100
AcDbAlignedDimension
13
-126.150602
23
12.4375
33
0
14
-126.150602
24
-12.4375
34
0
50
90
100
AcDbRotatedDimension
1001
ACAD
1000
DSTYLE
1002
{
1070
    74
1070
     0
1070
   279
1070
     0
1070
   172
1070
     1
1070
   173
1070
     1
1070
   340
1005
29A
1070
   271
1070
     3
1070
   272
1070
     3
1070
    77
1070
     1
1070
    73
1070
     0
1070
   171
1070
     4
1070
   274
1070
     4
1070
   177
1070
     2
1070
   176
1070
     2
1070
   178
1070
     7
1070
    78
1070
     8
1070
    41
1041
3.0
1070
   147
1041
2.25
1070
    42
1041
1.5
1070
    44
1041
3.0
1070
   140
1041
4.5
1070
   343
1005
2D0
1070
   344
1005
2D0
1002
}
0
ENDSEC
0
SECTION
2
OBJECTS
0
DICTIONARY
5
306
330
0
100
AcDbDictionary
280
0
281
1
3
ACAD_GROUP
350
307
3
ACAD_MLINESTYLE
350
308
0
DICTIONARY
5
307
330
0
100
AcDbDictionary
280
0
281
1
0
DICTIONARY
5
308
330
0
100
AcDbDictionary
280
0
281
1
3
Standard
350
18
0
MLINESTYLE
5
18
330
308
100
AcDbMlineStyle
2
Standard
70
0
3

62
256
51
90
52
90
71
2
49
-0.5
62
256
6
ByLayer
49
0.5
62
256
6
ByLayer
0
RASTERVARIABLES
5
2f5
330

100
AcDbRasterVariables
90
0
70
1
71
1
72
1
0
ENDSEC
0
EOF
