0
SECTION
2
HEADER
9
$ACADVER
1
AC1015
9
$DWGCODEPAGE
3
ANSI_1252
9
$HANDSEED
5
2f3
9
$ANGBASE
50
0
9
$ANGDIR
70
0
9
$ATTMODE
70
1
9
$AUNITS
70
0
9
$AUPREC
70
0
9
$CECOLOR
62
256
9
$CELTSCALE
40
1
9
$CELTYPE
6
ByLayer
9
$CELWEIGHT
370
-1
9
$CLAYER
8
0
9
$CMLJUST
70
0
9
$CMLSCALE
40
1
9
$CMLSTYLE
2
Standard
9
$DIMSTYLE
2
Standard
9
$TEXTSIZE
40
0.2
9
$TEXTSTYLE
7
Standard
9
$LUNITS
70
2
9
$LUPREC
70
4
9
$EXTNAMES
290
1
9
$INSUNITS
70
4
9
$LTSCALE
40
1
9
$LWDISPLAY
290
0
9
$PDMODE
70
0
9
$PDSIZE
40
0
9
$PLINEGEN
70
0
0
ENDSEC
0
SECTION
2
CLASSES
0
CLASS
1
RASTERVARIABLES
2
AcDbRasterVariables
3
ISM
90
0
280
0
281
0
0
ENDSEC
0
SECTION
2
TABLES
0
TABLE
2
VPORT
5
2e9
100
AcDbSymbolTable
0
VPORT
5
1
100
AcDbSymbolTableRecord
100
AcDbViewportTableRecord
2
*Active
70
0
10
0
20
0
11
1
21
1
12
-1
22
1
13
0
23
0
14
0.5
24
0.5
15
10
25
10
16
0
26
0
36
1
17
0
27
0
37
0
0
ENDTAB
0
TABLE
2
LTYPE
5
2ea
100
AcDbSymbolTable
0
LTYPE
5
14
100
AcDbSymbolTableRecord
100
AcDbLinetypeTableRecord
70
0
2
ByBlock
3

72
65
73
0
40
0
0
LTYPE
5
15
100
AcDbSymbolTableRecord
100
AcDbLinetypeTableRecord
70
0
2
ByLayer
3

72
65
73
0
40
0
0
LTYPE
5
16
100
AcDbSymbolTableRecord
100
AcDbLinetypeTableRecord
70
0
2
CONTINUOUS
3
Solid line
72
65
73
0
40
0
0
LTYPE
5
3B
100
AcDbSymbolTableRecord
100
AcDbLinetypeTableRecord
70
0
2
DASHED
3
__ __ __ __ __ __ __ __ __
72
65
73
2
40
25.72
49
12.86
74
0
49
-12.86
74
0
0
LTYPE
5
3C
100
AcDbSymbolTableRecord
100
AcDbLinetypeTableRecord
70
0
2
HIDDEN
3
_ _ _ _ _ _ _ _ _ _ _ _ _ _ _
72
65
73
2
40
0.5
49
0.25
74
0
49
-0.25
74
0
0
LTYPE
5
3D
100
AcDbSymbolTableRecord
100
AcDbLinetypeTableRecord
70
0
2
PHANTOM
3
____ _ _ ____ _ _ _____ _ _ ____
72
65
73
6
40
50.5
49
18
74
0
49
-6.5
74
0
49
6.5
74
0
49
-6.5
74
0
49
6.5
74
0
49
-6.5
74
0
0
LTYPE
5
3E
100
AcDbSymbolTableRecord
100
AcDbLinetypeTableRecord
70
0
2
CENTER
3
____ _ ____ _ ____ _ ____
72
65
73
4
40
47.5
49
22
74
0
49
-8.5
74
0
49
8.5
74
0
49
-8.5
74
0
0
LTYPE
5
3F
100
AcDbSymbolTableRecord
100
AcDbLinetypeTableRecord
70
0
2
DOT
3
.........................
72
65
73
2
40
10
49
0
74
0
49
-10
74
0
0
LTYPE
5
40
100
AcDbSymbolTableRecord
100
AcDbLinetypeTableRecord
70
0
2
DASHDOT
3
_._._._._._._._._._._._._._._._.
72
65
73
4
40
70
49
31
74
0
49
-13
74
0
49
13
74
0
49
-13
74
0
0
ENDTAB
0
TABLE
2
LAYER
5
2eb
100
AcDbSymbolTable
0
LAYER
5
10
100
AcDbSymbolTableRecord
100
AcDbLayerTableRecord
2
0
70
0
62
7
6
CONTINUOUS
290
1
370
-3
390
0
0
LAYER
5
42
100
AcDbSymbolTableRecord
100
AcDbLayerTableRecord
2
2
70
0
62
7
6
CONTINUOUS
290
1
370
-3
390
0
0
LAYER
5
45
100
AcDbSymbolTableRecord
100
AcDbLayerTableRecord
2
81
70
0
62
-3
6
CONTINUOUS
290
1
370
-3
390
0
0
LAYER
5
47
100
AcDbSymbolTableRecord
100
AcDbLayerTableRecord
2
80
70
0
62
-6
6
CONTINUOUS
290
1
370
-3
390
0
0
LAYER
5
4A
100
AcDbSymbolTableRecord
100
AcDbLayerTableRecord
2
1
70
0
62
4
6
CONTINUOUS
290
1
370
-3
390
0
0
LAYER
5
2d6
100
AcDbSymbolTableRecord
100
AcDbLayerTableRecord
2
SK1
70
0
62
4
6
CONTINUOUS
290
1
370
-3
390
0
0
LAYER
5
2d7
100
AcDbSymbolTableRecord
100
AcDbLayerTableRecord
2
SK2
70
0
62
7
6
CONTINUOUS
290
1
370
-3
390
0
0
LAYER
5
2d8
100
AcDbSymbolTableRecord
100
AcDbLayerTableRecord
2
SK6
70
0
62
5
6
CONTINUOUS
290
1
370
-3
390
0
0
ENDTAB
0
TABLE
2
STYLE
5
2ec
100
AcDbSymbolTable
0
STYLE
5
11
100
AcDbSymbolTableRecord
100
AcDbTextStyleTableRecord
2
Standard
3
txt
70
0
71
0
40
0
41
1
42
0
50
0
0
STYLE
5
27A
100
AcDbSymbolTableRecord
100
AcDbTextStyleTableRecord
2
DEFAULT
3
simplex.shx
70
0
71
0
40
0
41
1
42
0
50
0
0
STYLE
5
29D
100
AcDbSymbolTableRecord
100
AcDbTextStyleTableRecord
2
DWGDirectTextStyle
3
SIMPLEX
70
0
71
0
40
0
41
1
42
0
50
0
0
ENDTAB
0
TABLE
2
DIMSTYLE
5
2ed
100
AcDbSymbolTable
100
AcDbDimStyleTable
0
DIMSTYLE
105
27
100
AcDbSymbolTableRecord
100
AcDbDimStyleTableRecord
2
Standard
70
0
3
<>
41
0.18
42
0.0625
44
0.18
140
0.18
147
0.09
73
0
74
0
77
1
271
2
275
0
278
52
280
0
340
11
0
ENDTAB
0
TABLE
2
VIEW
5
2ee
100
AcDbSymbolTable
0
ENDTAB
0
TABLE
2
UCS
5
2ef
100
AcDbSymbolTable
0
ENDTAB
0
TABLE
2
APPID
5
2f0
100
AcDbSymbolTable
0
APPID
5
12
100
AcDbSymbolTableRecord
100
AcDbRegAppTableRecord
2
ACAD
70
0
0
ENDTAB
0
TABLE
2
BLOCK_RECORD
5
2f1
100
AcDbSymbolTable
0
BLOCK_RECORD
5
1F
100
AcDbSymbolTableRecord
100
AcDbBlockTableRecord
2
*Model_Space
340
0
70
0
0
BLOCK_RECORD
5
1B
100
AcDbSymbolTableRecord
100
AcDbBlockTableRecord
2
*Paper_Space
340
0
70
0
0
BLOCK_RECORD
5
23
100
AcDbSymbolTableRecord
100
AcDbBlockTableRecord
2
*Paper_Space0
340
0
70
0
0
BLOCK_RECORD
5
2A2
100
AcDbSymbolTableRecord
100
AcDbBlockTableRecord
2
DimnDraft3D1
340
0
70
0
0
BLOCK_RECORD
5
2B0
100
AcDbSymbolTableRecord
100
AcDbBlockTableRecord
2
_CLOSED
340
0
70
0
0
ENDTAB
0
ENDSEC
0
SECTION
2
BLOCKS
0
BLOCK
5
20
100
AcDbEntity
8
0
100
AcDbBlockBegin
2
*Model_Space
70
0
10
0
20
0
30
0
3
*Model_Space
0
ENDBLK
5
21
100
AcDbEntity
8
0
100
AcDbBlockEnd
0
BLOCK
5
1C
100
AcDbEntity
8
0
100
AcDbBlockBegin
2
*Paper_Space
70
0
10
0
20
0
30
0
3
*Paper_Space
0
ENDBLK
5
1D
100
AcDbEntity
8
0
100
AcDbBlockEnd
0
BLOCK
5
24
100
AcDbEntity
8
0
100
AcDbBlockBegin
2
*Paper_Space0
70
0
10
0
20
0
30
0
3
*Paper_Space0
0
ENDBLK
5
25
100
AcDbEntity
8
0
100
AcDbBlockEnd
0
BLOCK
5
2AD
100
AcDbEntity
8
0
100
AcDbBlockBegin
2
DimnDraft3D1
70
0
10
0
20
0
30
0
3
DimnDraft3D1
0
MTEXT
5
2A3
100
AcDbEntity
8
SK2
62
256
6
ByLayer
370
-1
48
1
60
0
100
AcDbMText
10
-138.869199
20
-1.503947
30
0
210
0
220
0
230
1
1
\W01.000;\fsimplex.shx,bigfont.shx;25 
40
4.5
41
0
44
1.084337
50
90
71
7
72
5
7
DEFAULT
0
LINE
5
2A4
100
AcDbEntity
8
SK2
62
256
6
ByLayer
370
-1
48
1
60
0
100
AcDbLine
10
-129.494199
20
12.4375
30
0
11
-140.744199
21
12.4375
31
0
39
0
210
0
220
0
230
1
0
LINE
5
2A5
100
AcDbEntity
8
SK2
62
256
6
ByLayer
370
-1
48
1
60
0
100
AcDbLine
10
-129.494199
20
-12.4375
30
0
11
-140.744199
21
-12.4375
31
0
39
0
210
0
220
0
230
1
0
LINE
5
2A6
100
AcDbEntity
8
SK2
62
256
6
ByLayer
370
-1
48
1
60
0
100
AcDbLine
10
-137.744199
20
12.4375
30
0
11
-137.744199
21
-12.4375
31
0
39
0
210
0
220
0
230
1
0
LINE
5
2A7
100
AcDbEntity
8
SK2
62
256
6
ByLayer
370
-1
48
1
60
0
100
AcDbLine
10
-137.744199
20
12.4375
30
0
11
-137.349241
21
9.437501
31
0
39
0
210
0
220
0
230
1
0
LINE
5
2A8
100
AcDbEntity
8
SK2
62
256
6
ByLayer
370
-1
48
1
60
0
100
AcDbLine
10
-137.744199
20
12.4375
30
0
11
-138.139156
21
9.437499
31
0
39
0
210
0
220
0
230
1
0
LINE
5
2A9
100
AcDbEntity
8
SK2
62
256
6
ByLayer
370
-1
48
1
60
0
100
AcDbLine
10
-137.349241
20
9.437501
30
0
11
-138.139156
21
9.437499
31
0
39
0
210
0
220
0
230
1
0
LINE
5
2AA
100
AcDbEntity
8
SK2
62
256
6
ByLayer
370
-1
48
1
60
0
100
AcDbLine
10
-137.744199
20
-12.4375
30
0
11
-138.139156
21
-9.437501
31
0
39
0
210
0
220
0
230
1
0
LINE
5
2AB
100
AcDbEntity
8
SK2
62
256
6
ByLayer
370
-1
48
1
60
0
100
AcDbLine
10
-137.744199
20
-12.4375
30
0
11
-137.349241
21
-9.437499
31
0
39
0
210
0
220
0
230
1
0
LINE
5
2AC
100
AcDbEntity
8
SK2
62
256
6
ByLayer
370
-1
48
1
60
0
100
AcDbLine
10
-138.139156
20
-9.437501
30
0
11
-137.349241
21
-9.437499
31
0
39
0
210
0
220
0
230
1
0
ENDBLK
5
2AE
100
AcDbEntity
8
0
100
AcDbBlockEnd
0
BLOCK
5
2B1
100
AcDbEntity
8
0
100
AcDbBlockBegin
2
_CLOSED
70
0
10
0
20
0
30
0
3
_CLOSED
0
LINE
5
2B3
100
AcDbEntity
8
0
62
256
6
ByLayer
370
-2
48
1
60
0
100
AcDbLine
10
-1
20
0.166667
30
0
11
0
21
0
31
0
39
0
210
0
220
0
230
1
0
LINE
5
2B4
100
AcDbEntity
8
0
62
256
6
ByLayer
370
-2
48
1
60
0
100
AcDbLine
10
0
20
0
30
0
11
-1
21
-0.166667
31
0
39
0
210
0
220
0
230
1
0
LINE
5
2B5
100
AcDbEntity
8
0
62
256
6
ByLayer
370
-2
48
1
60
0
100
AcDbLine
10
-1
20
0.166667
30
0
11
-1
21
-0.166667
31
0
39
0
210
0
220
0
230
1
0
LINE
5
2B6
100
AcDbEntity
8
0
62
256
6
ByLayer
370
-2
48
1
60
0
100
AcDbLine
10
0
20
0
30
0
11
-1
21
0
31
0
39
0
210
0
220
0
230
1
0
ENDBLK
5
2B2
100
AcDbEntity
8
0
100
AcDbBlockEnd
0
ENDSEC
0
SECTION
2
ENTITIES
0
ELLIPSE
5
164
100
AcDbEntity
8
1
62
256
6
ByLayer
370
-1
48
1
60
0
100
AcDbEllipse
10
13.260381
20
2.053289
30
0
11
-0.660755626022369
21
1.5769902265757
31
0
210
0
220
0
230
1
40
0.398781
41
-2.877948758187
42
-2.67750236134664
0
ELLIPSE
5
165
100
AcDbEntity
8
1
62
256
6
ByLayer
370
-1
48
1
60
0
100
AcDbEllipse
10
12.038104
20
1.922245
30
0
11
-0.17589297652933
21
1.640597958309
31
0
210
0
220
0
230
1
40
0.984637
41
-2.74154826337732
42
-1.67605762542806
0
ELLIPSE
5
166
100
AcDbEntity
8
1
62
256
6
ByLayer
370
-1
48
1
60
0
100
AcDbEllipse
10
12.477357
20
1.969338
30
0
11
-0.17589297652933
21
1.640597958309
31
0
210
0
220
0
230
1
40
0.984637
41
-2.66369769273186
42
-2.00968035900541
0
ELLIPSE
5
167
100
AcDbEntity
8
1
62
256
6
ByLayer
370
-1
48
1
60
0
100
AcDbEllipse
10
12.122876
20
1.931334
30
0
11
-7.40839211583394
21
-1.35677418892317
31
0
210
0
220
0
230
1
40
0.206678
41
1.70287293946363
42
1.80750030030096
0
ELLIPSE
5
168
100
AcDbEntity
8
1
62
256
6
ByLayer
370
-1
48
1
60
0
100
AcDbEllipse
10
12.99847
20
3.106952
30
0
11
-0.16316642090521
21
1.6483761740615
31
0
210
0
220
0
230
1
40
0.984661
41
0.688188761710411
42
2.09407219885419
0
ELLIPSE
5
169
100
AcDbEntity
8
1
62
256
6
ByLayer
370
-1
48
1
60
0
100
AcDbEllipse
10
11.977272
20
2.533446
30
0
11
-0.225646305867065
21
2.10465975395979
31
0
210
0
220
0
230
1
40
0.984637
41
-2.51293385636398
42
-2.00190252288009
0
ELLIPSE
5
16A
100
AcDbEntity
8
1
62
256
6
ByLayer
370
-1
48
1
60
0
100
AcDbEllipse
10
13.297046
20
2.05722
30
0
11
-0.162533016836169
21
1.64197701257282
31
0
210
0
220
0
230
1
40
0.984661
41
1.42097263516194
42
-2.75150159356902
0
ELLIPSE
5
16B
100
AcDbEntity
8
1
62
256
6
ByLayer
370
-1
48
1
60
0
100
AcDbEllipse
10
12.399164
20
2.578679
30
0
11
-0.213203607914339
21
1.98860358582909
31
0
210
0
220
0
230
1
40
0.984637
41
-2.28851603275343
42
-2.0548767145609
0
ELLIPSE
5
16C
100
AcDbEntity
8
1
62
256
6
ByLayer
370
-1
48
1
60
0
100
AcDbEllipse
10
12.055466
20
1.924106
30
0
11
-0.17589297652933
21
1.640597958309
31
0
210
0
220
0
230
1
40
0.984637
41
-2.29876619249655
42
-1.6626484686993
0
ELLIPSE
5
16D
100
AcDbEntity
8
1
62
256
6
ByLayer
370
-1
48
1
60
0
100
AcDbEllipse
10
12.055466
20
1.924106
30
0
11
-0.17589297652933
21
1.640597958309
31
0
210
0
220
0
230
1
40
0.984637
41
0.26813375501234
42
0.307652729844139
0
ELLIPSE
5
16E
100
AcDbEntity
8
1
62
256
6
ByLayer
370
-1
48
1
60
0
100
AcDbEllipse
10
15.128765
20
8.643579
30
0
11
-0.290489915783298
21
2.70947238569223
31
0
210
0
220
0
230
1
40
0.984637
41
0
42
-3.14151203830408
0
ELLIPSE
5
16F
100
AcDbEntity
8
1
62
256
6
ByLayer
370
-1
48
1
60
0
100
AcDbEllipse
10
14.346485
20
9.922813
30
0
11
-0.334749163352536
21
-0.198269006352796
31
0
210
0
220
0
230
1
40
0.494774
41
0.152990595418543
42
0.826042228556188
0
ELLIPSE
5
170
100
AcDbEntity
8
1
62
256
6
ByLayer
370
-1
48
1
60
0
100
AcDbEllipse
10
15.085815
20
7.155317
30
0
11
-0.388113182761362
21
0.000412013910131857
31
0
210
0
220
0
230
1
40
0.49719
41
2.27233441775505
42
-3.08231238522554
0
ELLIPSE
5
171
100
AcDbEntity
8
1
62
256
6
ByLayer
370
-1
48
1
60
0
100
AcDbEllipse
10
15.076225
20
10.121603
30
0
11
-0.38811318276135
21
0.000412013910118917
31
0
210
0
220
0
230
1
40
0.49719
41
3.0865827025292
42
-1.6602331691264
0
ELLIPSE
5
172
100
AcDbEntity
8
1
62
256
6
ByLayer
370
-1
48
1
60
0
100
AcDbEllipse
10
15.815555
20
7.354107
30
0
11
-0.334749163352817
21
-0.198269006353229
31
0
210
0
220
0
230
1
40
0.494774
41
-2.31554829324725
42
-1.57832859671061
0
ELLIPSE
5
173
100
AcDbEntity
8
1
62
256
6
ByLayer
370
-1
48
1
60
0
100
AcDbEllipse
10
15.807251
20
9.922813
30
0
11
-0.335833568588103
21
0.198604627908017
31
0
210
0
220
0
230
1
40
0.491978
41
1.58035745321966
42
2.55849278705421
0
ELLIPSE
5
174
100
AcDbEntity
8
1
62
256
6
ByLayer
370
-1
48
1
60
0
100
AcDbEllipse
10
16.348563
20
7.896889
30
0
11
-0.191392218429854
21
-0.342134594454296
31
0
210
0
220
0
230
1
40
0.487307
41
0.936763074552554
42
-3.09386107380853
0
ELLIPSE
5
175
100
AcDbEntity
8
1
62
256
6
ByLayer
370
-1
48
1
60
0
100
AcDbEllipse
10
16.343768
20
9.380032
30
0
11
-0.193958055348315
21
0.341934994911013
31
0
210
0
220
0
230
1
40
0.48462
41
3.0917293145124
42
-0.895650237031064
0
ELLIPSE
5
176
100
AcDbEntity
8
1
62
256
6
ByLayer
370
-1
48
1
60
0
100
AcDbEllipse
10
15.08102
20
8.63846
30
0
11
0.137548307645921
21
-1.28294760339755
31
0
210
0
220
0
230
1
40
0.984637
41
-1.37365937932444
42
-0.776838445829435
0
ELLIPSE
5
177
100
AcDbEntity
8
1
62
256
6
ByLayer
370
-1
48
1
60
0
100
AcDbEllipse
10
15.08102
20
8.63846
30
0
11
-0.137548307645936
21
1.28294760339764
31
0
210
0
220
0
230
1
40
0.984637
41
0.524075237274976
42
1.12580456093165
0
ELLIPSE
5
178
100
AcDbEntity
8
1
62
256
6
ByLayer
370
-1
48
1
60
0
100
AcDbEllipse
10
15.08102
20
8.63846
30
0
11
-0.137548307645936
21
1.28294760339764
31
0
210
0
220
0
230
1
40
0.984637
41
-0.628774861197639
42
0.101399777799952
0
ELLIPSE
5
179
100
AcDbEntity
8
1
62
256
6
ByLayer
370
-1
48
1
60
0
100
AcDbEllipse
10
15.08102
20
8.63846
30
0
11
-0.137548307645936
21
1.28294760339764
31
0
210
0
220
0
230
1
40
0.984637
41
2.88439321350826
42
-2.72316996359088
0
ELLIPSE
5
17A
100
AcDbEntity
8
1
62
256
6
ByLayer
370
-1
48
1
60
0
100
AcDbEllipse
10
8.048019
20
12.509226
30
0
11
0.0197022175593592
21
-0.199027190663094
31
0
210
0
220
0
230
1
40
0.984662
41
3.14157835546837
42
-2.7151611894894
0
ELLIPSE
5
17B
100
AcDbEntity
8
1
62
256
6
ByLayer
370
-1
48
1
60
0
100
AcDbEllipse
10
15.137485
20
8.639917
30
0
11
-0.29651450870287
21
2.99532017044199
31
0
210
0
220
0
230
1
40
0.984662
41
-0.100198039212818
42
0
0
ELLIPSE
5
17C
100
AcDbEntity
8
1
62
256
6
ByLayer
370
-1
48
1
60
0
100
AcDbEllipse
10
15.137485
20
8.639917
30
0
11
-0.29651450870287
21
2.99532017044199
31
0
210
0
220
0
230
1
40
0.984662
41
0
42
0.37851515357211
0
ELLIPSE
5
17D
100
AcDbEntity
8
1
62
256
6
ByLayer
370
-1
48
1
60
0
100
AcDbEllipse
10
15.137485
20
8.639917
30
0
11
-0.29651450870287
21
2.99532017044199
31
0
210
0
220
0
230
1
40
0.984662
41
2.76298405466847
42
-0.100197701860536
0
ELLIPSE
5
17E
100
AcDbEntity
8
1
62
256
6
ByLayer
370
-1
48
1
60
0
100
AcDbEllipse
10
11.657236
20
13.144296
30
0
11
0.0197022175593592
21
-0.199027190663094
31
0
210
0
220
0
230
1
40
0.984662
41
-3.14159171806155
42
-2.71516118948913
0
ELLIPSE
5
17F
100
AcDbEntity
8
1
62
256
6
ByLayer
370
-1
48
1
60
0
100
AcDbEllipse
10
9.808779
20
12.775949
30
0
11
-0.0128064414135825
21
0.129367673931012
31
0
210
0
220
0
230
1
40
0.984662
41
-8.82963158041071E-06
42
0.426431464100699
0
ELLIPSE
5
180
100
AcDbEntity
8
1
62
256
6
ByLayer
370
-1
48
1
60
0
100
AcDbEllipse
10
14.500527
20
0.893769
30
0
11
0.0197022175593592
21
-0.199027190663094
31
0
210
0
220
0
230
1
40
0.984662
41
-0.620766087095936
42
9.77236764403035E-07
0
ELLIPSE
5
181
100
AcDbEntity
8
1
62
256
6
ByLayer
370
-1
48
1
60
0
100
AcDbEllipse
10
13.941804
20
1.985215
30
0
11
0.0128064414135834
21
-0.129367673931011
31
0
210
0
220
0
230
1
40
0.984662
41
-0.620766087096091
42
-7.22549769165668E-06
0
ELLIPSE
5
182
100
AcDbEntity
8
1
62
256
6
ByLayer
370
-1
48
1
60
0
100
AcDbEllipse
10
15.09382
20
8.635595
30
0
11
-0.287755592778978
21
2.90683965172196
31
0
210
0
220
0
230
1
40
0.984662
41
-0.100197943764265
42
0
0
ELLIPSE
5
183
100
AcDbEntity
8
1
62
256
6
ByLayer
370
-1
48
1
60
0
100
AcDbEllipse
10
15.09382
20
8.635595
30
0
11
-0.287755592778978
21
2.90683965172196
31
0
210
0
220
0
230
1
40
0.984662
41
0
42
0.769349053293883
0
ELLIPSE
5
184
100
AcDbEntity
8
1
62
256
6
ByLayer
370
-1
48
1
60
0
100
AcDbEllipse
10
15.09382
20
8.635595
30
0
11
-0.287755592778978
21
2.90683965172196
31
0
210
0
220
0
230
1
40
0.984662
41
2.37215009881928
42
-2.21712767815688
0
ELLIPSE
5
185
100
AcDbEntity
8
1
62
256
6
ByLayer
370
-1
48
1
60
0
100
AcDbEllipse
10
15.09382
20
8.635595
30
0
11
-0.287755592778978
21
2.90683965172196
31
0
210
0
220
0
230
1
40
0.984662
41
-0.87939833750834
42
-0.100197943764263
0
ELLIPSE
5
186
100
AcDbEntity
8
1
62
256
6
ByLayer
370
-1
48
1
60
0
100
AcDbEllipse
10
8.284603
20
12.437889
30
0
11
-3.0999998546544
21
0.000949285361082735
31
0
210
0
220
0
230
1
40
0.051912
41
1.32960084900137
42
1.42335934629789
0
ELLIPSE
5
187
100
AcDbEntity
8
1
62
256
6
ByLayer
370
-1
48
1
60
0
100
AcDbEllipse
10
8.284941
20
13.536405
30
0
11
1.40969993390501
21
-0.000431679862411592
31
0
210
0
220
0
230
1
40
0.051912
41
0.698068635416402
42
1.74526618661221
0
ELLIPSE
5
188
100
AcDbEntity
8
1
62
256
6
ByLayer
370
-1
48
1
60
0
100
AcDbEllipse
10
8.284941
20
13.536405
30
0
11
1.40969993390501
21
-0.000431679862411592
31
0
210
0
220
0
230
1
40
0.051912
41
1.74526618661221
42
2.79246373780962
0
ELLIPSE
5
189
100
AcDbEntity
8
1
62
256
6
ByLayer
370
-1
48
1
60
0
100
AcDbEllipse
10
8.284941
20
13.536405
30
0
11
1.40969993390501
21
-0.000431679862411592
31
0
210
0
220
0
230
1
40
0.051912
41
-1.39632646697748
42
-0.349128915780248
0
ELLIPSE
5
18A
100
AcDbEntity
8
1
62
256
6
ByLayer
370
-1
48
1
60
0
100
AcDbEllipse
10
8.284941
20
13.536405
30
0
11
1.40969993390501
21
-0.000431679862411592
31
0
210
0
220
0
230
1
40
0.051912
41
2.79246373780962
42
-2.44352401817339
0
ELLIPSE
5
18B
100
AcDbEntity
8
1
62
256
6
ByLayer
370
-1
48
1
60
0
100
AcDbEllipse
10
8.284941
20
13.536405
30
0
11
1.40969993390501
21
-0.000431679862411592
31
0
210
0
220
0
230
1
40
0.051912
41
-2.44352401817339
42
-1.39632646697748
0
ELLIPSE
5
18C
100
AcDbEntity
8
1
62
256
6
ByLayer
370
-1
48
1
60
0
100
AcDbEllipse
10
8.284941
20
13.536405
30
0
11
1.40969993390501
21
-0.000431679862411592
31
0
210
0
220
0
230
1
40
0.051912
41
-0.349128915780248
42
0.698068635416402
0
ELLIPSE
5
18D
100
AcDbEntity
8
1
62
256
6
ByLayer
370
-1
48
1
60
0
100
AcDbEllipse
10
17.41741
20
2.308955
30
0
11
-2.31577439437366
21
-1.37295385878295
31
0
210
0
220
0
230
1
40
0.315702
41
-0.170441597404749
42
-0.00284592210421903
0
ELLIPSE
5
18E
100
AcDbEntity
8
1
62
256
6
ByLayer
370
-1
48
1
60
0
100
AcDbEllipse
10
20.873641
20
10.243955
30
0
11
-0.0461022227632401
21
0.123922179326785
31
0
210
0
220
0
230
1
40
0.697513
41
0.94716612419253
42
1.29197441489957
0
ELLIPSE
5
18F
100
AcDbEntity
8
1
62
256
6
ByLayer
370
-1
48
1
60
0
100
AcDbEllipse
10
20.64432
20
12.774844
30
0
11
0.164128524857489
21
0.286289761130405
31
0
210
0
220
0
230
1
40
0.008441
41
-1.58546855109478
42
-1.23640270069919
0
ELLIPSE
5
190
100
AcDbEntity
8
1
62
256
6
ByLayer
370
-1
48
1
60
0
100
AcDbEllipse
10
19.751892
20
13.411125
30
0
11
0.31999857438126
21
0.000955193153899787
31
0
210
0
220
0
230
1
40
0.016926
41
-1.74535451607717
42
-1.57082159087772
0
ELLIPSE
5
191
100
AcDbEntity
8
1
62
256
6
ByLayer
370
-1
48
1
60
0
100
AcDbEllipse
10
13.106068
20
2.808472
30
0
11
-0.0128064414135825
21
0.129367673931012
31
0
210
0
220
0
230
1
40
0.984662
41
-1.66130948076636
42
-0.620766087096028
0
ELLIPSE
5
192
100
AcDbEntity
8
1
62
256
6
ByLayer
370
-1
48
1
60
0
100
AcDbEllipse
10
16.429985
20
2.643071
30
0
11
0.161612197743497
21
0.276191052607641
31
0
210
0
220
0
230
1
40
0.141921
41
1.6734971105247
42
1.84803003572432
0
ELLIPSE
5
193
100
AcDbEntity
8
1
62
256
6
ByLayer
370
-1
48
1
60
0
100
AcDbEllipse
10
8.284941
20
13.536405
30
0
11
-1.69999992029434
21
0.000520575843174401
31
0
210
0
220
0
230
1
40
0.051912
41
0
42
6.28318530717959
0
ELLIPSE
5
194
100
AcDbEntity
8
1
62
256
6
ByLayer
370
-1
48
1
60
0
100
AcDbEllipse
10
16.017539
20
1.790553
30
0
11
-0.139234821942718
21
0.213104820120474
31
0
210
0
220
0
230
1
40
0.952081
41
-1.93015659300814
42
-1.62521932802713
0
ELLIPSE
5
195
100
AcDbEntity
8
1
62
256
6
ByLayer
370
-1
48
1
60
0
100
AcDbEllipse
10
11.015556
20
12.826027
30
0
11
-0.16113849914353
21
0.0281531776329024
31
0
210
0
220
0
230
1
40
0.776532
41
1.99680325242986
42
2.34161154327375
0
ELLIPSE
5
196
100
AcDbEntity
8
1
62
256
6
ByLayer
370
-1
48
1
60
0
100
AcDbEllipse
10
20.646486
20
12.049293
30
0
11
-0.165834547046438
21
0.285304929866104
31
0
210
0
220
0
230
1
40
0.008485
41
1.58544329244115
42
1.93450914283733
0
ELLIPSE
5
197
100
AcDbEntity
8
1
62
256
6
ByLayer
370
-1
48
1
60
0
100
AcDbEllipse
10
21.158788
20
10.715382
30
0
11
-0.132004876935596
21
-0.000392178523505217
31
0
210
0
220
0
230
1
40
0.984667
41
2.1010630965797
42
-3.14157881693177
0
ELLIPSE
5
198
100
AcDbEntity
8
1
62
256
6
ByLayer
370
-1
48
1
60
0
100
AcDbEllipse
10
18.513104
20
13.416453
30
0
11
-0.176125739432296
21
-0.000381298910155438
31
0
210
0
220
0
230
1
40
0.014477
41
-2.75422024574322
42
-1.7192399994304
0
ELLIPSE
5
199
100
AcDbEntity
8
1
62
256
6
ByLayer
370
-1
48
1
60
0
100
AcDbEllipse
10
20.460814
20
13.207852
30
0
11
-0.203084426039686
21
-0.000603351386801954
31
0
210
0
220
0
230
1
40
0.984667
41
-2.10103542235802
42
-1.57078248919435
0
ELLIPSE
5
19A
100
AcDbEntity
8
1
62
256
6
ByLayer
370
-1
48
1
60
0
100
AcDbEllipse
10
15.44889
20
12.541118
30
0
11
0.135513172663691
21
-0.0643131404506156
31
0
210
0
220
0
230
1
40
0.090991
41
1.42074880902423
42
2.1295382985467
0
ELLIPSE
5
19B
100
AcDbEntity
8
1
62
256
6
ByLayer
370
-1
48
1
60
0
100
AcDbEllipse
10
10.471629
20
12.841566
30
0
11
-0.0387255245128327
21
-0.12490030619526
31
0
210
0
220
0
230
1
40
0.960584
41
2.91260164389348
42
-2.33004026960101
0
ELLIPSE
5
19C
100
AcDbEntity
8
1
62
256
6
ByLayer
370
-1
48
1
60
0
100
AcDbEllipse
10
21.811142
20
12.42657
30
0
11
-1.20883011176249
21
0.274665728045056
31
0
210
0
220
0
230
1
40
0.04318
41
-1.62775116834974
42
-1.46015549746071
0
ELLIPSE
5
19D
100
AcDbEntity
8
1
62
256
6
ByLayer
370
-1
48
1
60
0
100
AcDbEllipse
10
14.316259
20
13.416453
30
0
11
-0.150100165997794
21
-0.00044744583880162
31
0
210
0
220
0
230
1
40
0.016915
41
-2.45402547089034
42
-1.74523598179834
0
ELLIPSE
5
19E
100
AcDbEntity
8
1
62
256
6
ByLayer
370
-1
48
1
60
0
100
AcDbEllipse
10
8.952194
20
11.377867
30
0
11
0.117321608038474
21
0.225910690953896
31
0
210
0
220
0
230
1
40
0.957172
41
-2.99344383251984
42
-2.68850656753888
0
ELLIPSE
5
19F
100
AcDbEntity
8
1
62
256
6
ByLayer
370
-1
48
1
60
0
100
AcDbEllipse
10
12.878744
20
3.83852
30
0
11
0.0197022175593592
21
-0.199027190663094
31
0
210
0
220
0
230
1
40
0.984662
41
-1.14436486269438
42
-0.620766087096182
0
ELLIPSE
5
1A0
100
AcDbEntity
8
1
62
256
6
ByLayer
370
-1
48
1
60
0
100
AcDbEllipse
10
9.027659
20
12.069006
30
0
11
-0.329852530264881
21
0.00986449582371019
31
0
210
0
220
0
230
1
40
0.130201
41
-1.30693253085106
42
-0.957866680452322
0
ELLIPSE
5
1A1
100
AcDbEntity
8
1
62
256
6
ByLayer
370
-1
48
1
60
0
100
AcDbEllipse
10
21.15678
20
11.388344
30
0
11
-0.132004876932183
21
-0.000392178484804489
31
0
210
0
220
0
230
1
40
0.984667
41
-3.14157881664273
42
-2.18885913970728
0
ELLIPSE
5
1A2
100
AcDbEntity
8
1
62
256
6
ByLayer
370
-1
48
1
60
0
100
AcDbEllipse
10
20.350646
20
12.274665
30
0
11
-0.4911222906046
21
-0.830478379930662
31
0
210
0
220
0
230
1
40
0.342017
41
-3.13697527937471
42
-2.31469405706543
0
ELLIPSE
5
1A3
100
AcDbEntity
8
1
62
256
6
ByLayer
370
-1
48
1
60
0
100
AcDbEllipse
10
15.451334
20
2.188459
30
0
11
-0.021060704819757
21
-0.329327263846307
31
0
210
0
220
0
230
1
40
0.570429
41
-2.20133955212112
42
-1.37905832978612
0
ELLIPSE
5
1A4
100
AcDbEntity
8
1
62
256
6
ByLayer
370
-1
48
1
60
0
100
AcDbEllipse
10
21.264548
20
11.68935
30
0
11
-0.132004876940119
21
-0.000392178455115273
31
0
210
0
220
0
230
1
40
0.984667
41
-1.04052955648135
42
1.3837167568867E-05
0
ELLIPSE
5
1A5
100
AcDbEntity
8
1
62
256
6
ByLayer
370
-1
48
1
60
0
100
AcDbEllipse
10
16.071308
20
1.825683
30
0
11
0.168419751761705
21
-0.283786516974513
31
0
210
0
220
0
230
1
40
0.305589
41
-1.55760914820953
42
-1.20854329781057
0
ELLIPSE
5
1A6
100
AcDbEntity
8
1
62
256
6
ByLayer
370
-1
48
1
60
0
100
AcDbEllipse
10
20.645598
20
12.771355
30
0
11
-0.254558441227157
21
3.11733884545897E-17
31
0
210
0
220
0
230
1
40
0.999857
41
-0.838909548964167
42
-0.533972158064218
0
ELLIPSE
5
1A7
100
AcDbEntity
8
1
62
256
6
ByLayer
370
-1
48
1
60
0
100
AcDbEllipse
10
19.754046
20
12.689542
30
0
11
0.272157358452951
21
0.168316286318086
31
0
210
0
220
0
230
1
40
0.077665
41
1.72814974096669
42
2.7631299873996
0
ELLIPSE
5
1A8
100
AcDbEntity
8
1
62
256
6
ByLayer
370
-1
48
1
60
0
100
AcDbEllipse
10
20.349852
20
12.540601
30
0
11
-0.496071482926331
21
0.827532009938852
31
0
210
0
220
0
230
1
40
0.342016
41
2.31469389916503
42
3.13697512151069
0
ELLIPSE
5
1A9
100
AcDbEntity
8
1
62
256
6
ByLayer
370
-1
48
1
60
0
100
AcDbEllipse
10
16.47344
20
1.726832
30
0
11
-0.0833186570466581
21
0.182756206666588
31
0
210
0
220
0
230
1
40
0.958576
41
-3.03817126857296
42
-2.50791833519644
0
ELLIPSE
5
1AA
100
AcDbEntity
8
1
62
256
6
ByLayer
370
-1
48
1
60
0
100
AcDbEllipse
10
14.604655
20
2.050832
30
0
11
-0.0541571276124592
21
0.118791534209599
31
0
210
0
220
0
230
1
40
0.958576
41
2.2044706409374
42
-3.12599498928831
0
ELLIPSE
5
1AB
100
AcDbEntity
8
1
62
256
6
ByLayer
370
-1
48
1
60
0
100
AcDbEllipse
10
15.727413
20
2.28924
30
0
11
-0.485696724093462
21
0.833628738591975
31
0
210
0
220
0
230
1
40
0.325694
41
-3.13896830808476
42
-2.31668708574829
0
ELLIPSE
5
1AC
100
AcDbEntity
8
1
62
256
6
ByLayer
370
-1
48
1
60
0
100
AcDbEllipse
10
9.122419
20
9.864095
30
0
11
-0.189844707154457
21
0.325776279170084
31
0
210
0
220
0
230
1
40
0.134911
41
1.50917053214394
42
2.54415077860636
0
ELLIPSE
5
1AD
100
AcDbEntity
8
1
62
256
6
ByLayer
370
-1
48
1
60
0
100
AcDbEllipse
10
15.954652
20
2.156271
30
0
11
-0.931731630001114
21
0.00075298903313874
31
0
210
0
220
0
230
1
40
0.349223
41
-0.809410479424168
42
0.0128707429207262
0
ELLIPSE
5
1AE
100
AcDbEntity
8
1
62
256
6
ByLayer
370
-1
48
1
60
0
100
AcDbEllipse
10
9.006151
20
11.349846
30
0
11
0.0152761950655649
21
-0.329646231381945
31
0
210
0
220
0
230
1
40
0.571959
41
-1.72135148365326
42
-0.899070261318264
0
ELLIPSE
5
1AF
100
AcDbEntity
8
1
62
256
6
ByLayer
370
-1
48
1
60
0
100
AcDbEllipse
10
15.032847
20
12.032681
30
0
11
0.0367833786735521
21
0.14542002287635
31
0
210
0
220
0
230
1
40
0.164395
41
-1.51152291065064
42
-1.33698998545091
0
ELLIPSE
5
1B0
100
AcDbEntity
8
1
62
256
6
ByLayer
370
-1
48
1
60
0
100
AcDbEllipse
10
15.400854
20
1.125387
30
0
11
-0.748440148673608
21
-0.86790570578364
31
0
210
0
220
0
230
1
40
0.005689
41
-1.45557215249182
42
-1.28797638818312
0
ELLIPSE
5
1B1
100
AcDbEntity
8
1
62
256
6
ByLayer
370
-1
48
1
60
0
100
AcDbEllipse
10
15.312419
20
8.657235
30
0
11
-0.303455114647687
21
3.06543254731199
31
0
210
0
220
0
230
1
40
0.984662
41
0
42
6.28318530717959
0
ELLIPSE
5
1B2
100
AcDbEntity
8
1
62
256
6
ByLayer
370
-1
48
1
60
0
100
AcDbEllipse
10
19.449241
20
11.039118
30
0
11
-2.44441178858546
21
-1.42078302700374
31
0
210
0
220
0
230
1
40
0.300605
41
-3.13729250397384
42
-2.96969682878073
0
ELLIPSE
5
1B3
100
AcDbEntity
8
1
62
256
6
ByLayer
370
-1
48
1
60
0
100
AcDbEllipse
10
12.532342
20
6.751594
30
0
11
-0.14423995968499
21
-0.041168362003757
31
0
210
0
220
0
230
1
40
0.031593
41
1.56879056625077
42
1.74332349145015
0
ELLIPSE
5
1B4
100
AcDbEntity
8
1
62
256
6
ByLayer
370
-1
48
1
60
0
100
AcDbEllipse
10
14.029618
20
2.387313
30
0
11
-0.0541571275764441
21
0.11879153423394
31
0
210
0
220
0
230
1
40
0.958576
41
1.16392724761024
42
2.20447064128451
0
ELLIPSE
5
1B5
100
AcDbEntity
8
1
62
256
6
ByLayer
370
-1
48
1
60
0
100
AcDbEllipse
10
15.858999
20
2.190613
30
0
11
-0.28523948360115
21
-0.165947090950547
31
0
210
0
220
0
230
1
40
0.016637
41
1.2603999120458
42
2.14142123805687
0
ELLIPSE
5
1B6
100
AcDbEntity
8
1
62
256
6
ByLayer
370
-1
48
1
60
0
100
AcDbEllipse
10
20.647765
20
12.045804
30
0
11
-0.254558441227157
21
3.11733884545897E-17
31
0
210
0
220
0
230
1
40
0.999857
41
0.539941900357832
42
0.844879039200705
0
ELLIPSE
5
1B7
100
AcDbEntity
8
1
62
256
6
ByLayer
370
-1
48
1
60
0
100
AcDbEllipse
10
18.722354
20
7.631528
30
0
11
0.108849151591522
21
-0.103207859186235
31
0
210
0
220
0
230
1
40
0.132802
41
1.28184863041164
42
1.45638155561098
0
ELLIPSE
5
1B8
100
AcDbEntity
8
1
62
256
6
ByLayer
370
-1
48
1
60
0
100
AcDbEllipse
10
20.646486
20
12.049293
30
0
11
0.28250268466973
21
0.170564454545475
31
0
210
0
220
0
230
1
40
0.355599
41
-2.40693323079854
42
-1.58465200846355
0
ELLIPSE
5
1B9
100
AcDbEntity
8
1
62
256
6
ByLayer
370
-1
48
1
60
0
100
AcDbEllipse
10
20.814598
20
9.695075
30
0
11
-0.000612742691582177
21
0.283031911599305
31
0
210
0
220
0
230
1
40
0.092039
41
-1.56188658520636
42
-0.526906338704369
0
ELLIPSE
5
1BA
100
AcDbEntity
8
1
62
256
6
ByLayer
370
-1
48
1
60
0
100
AcDbEllipse
10
15.083268
20
3.674769
30
0
11
-0.112213697363619
21
2.78730395289505
31
0
210
0
220
0
230
1
40
0.294044
41
3.13155367478181
42
-2.98403595738327
0
ELLIPSE
5
1BB
100
AcDbEntity
8
1
62
256
6
ByLayer
370
-1
48
1
60
0
100
AcDbEllipse
10
21.633307
20
12.416124
30
0
11
0.00200138935678976
21
-0.329993930914862
31
0
210
0
220
0
230
1
40
0.178994
41
1.25288170746903
42
1.8543011037802
0
ELLIPSE
5
1BC
100
AcDbEntity
8
1
62
256
6
ByLayer
370
-1
48
1
60
0
100
AcDbEllipse
10
8.663324
20
11.003394
30
0
11
-0.0595777302508365
21
-0.192154317187589
31
0
210
0
220
0
230
1
40
0.960584
41
-1.28949687476206
42
-0.759243941701151
0
ELLIPSE
5
1BD
100
AcDbEntity
8
1
62
256
6
ByLayer
370
-1
48
1
60
0
100
AcDbEllipse
10
13.366767
20
2.321696
30
0
11
-0.0128064414135825
21
0.129367673931012
31
0
210
0
220
0
230
1
40
0.984662
41
1.48028317282342
42
2.5208265664935
0
ELLIPSE
5
1BE
100
AcDbEntity
8
1
62
256
6
ByLayer
370
-1
48
1
60
0
100
AcDbEllipse
10
20.646019
20
8.914123
30
0
11
0.0197022175593592
21
-0.199027190663094
31
0
210
0
220
0
230
1
40
0.984662
41
0.950030239698852
42
1.47362901529718
0
ELLIPSE
5
1BF
100
AcDbEntity
8
1
62
256
6
ByLayer
370
-1
48
1
60
0
100
AcDbEllipse
10
14.146315
20
1.742209
30
0
11
-0.0128064414135824
21
0.129367673931011
31
0
210
0
220
0
230
1
40
0.984662
41
-1.66130948076642
42
-0.620766087096178
0
ELLIPSE
5
1C0
100
AcDbEntity
8
1
62
256
6
ByLayer
370
-1
48
1
60
0
100
AcDbEllipse
10
8.899198
20
10.254581
30
0
11
-0.162033669206488
21
0.2759439980204
31
0
210
0
220
0
230
1
40
0.158847
41
1.32310456266248
42
1.49763748786194
0
ELLIPSE
5
1C1
100
AcDbEntity
8
1
62
256
6
ByLayer
370
-1
48
1
60
0
100
AcDbEllipse
10
16.429985
20
2.643071
30
0
11
0.0113394317527843
21
-0.319799026401776
31
0
210
0
220
0
230
1
40
0.174133
41
-2.59475224021113
42
-1.55977199377876
0
ELLIPSE
5
1C2
100
AcDbEntity
8
1
62
256
6
ByLayer
370
-1
48
1
60
0
100
AcDbEllipse
10
9.898601
20
12.505085
30
0
11
-0.038725524527076
21
-0.124900306191248
31
0
210
0
220
0
230
1
40
0.960584
41
-2.33004026950235
42
-1.37732059255975
0
ELLIPSE
5
1C3
100
AcDbEntity
8
1
62
256
6
ByLayer
370
-1
48
1
60
0
100
AcDbEllipse
10
13.424253
20
3.270998
30
0
11
-0.243113751208706
21
0.140910408014898
31
0
210
0
220
0
230
1
40
0.05457
41
-2.68143408122423
42
-1.64645383471465
0
ELLIPSE
5
1C4
100
AcDbEntity
8
1
62
256
6
ByLayer
370
-1
48
1
60
0
100
AcDbEllipse
10
9.509304
20
11.373162
30
0
11
-0.931737718930575
21
0.00335270464269383
31
0
210
0
220
0
230
1
40
0.351081
41
-0.0092347847192729
42
0.813046437605374
0
ELLIPSE
5
1C5
100
AcDbEntity
8
1
62
256
6
ByLayer
370
-1
48
1
60
0
100
AcDbEllipse
10
16.071308
20
1.825683
30
0
11
0.265031506044517
21
0.196617142700669
31
0
210
0
220
0
230
1
40
0.341239
41
-1.89712853314559
42
-1.07484731081069
0
ELLIPSE
5
1C6
100
AcDbEntity
8
1
62
256
6
ByLayer
370
-1
48
1
60
0
100
AcDbEllipse
10
19.307782
20
13.411125
30
0
11
-0.375734910711076
21
-0.000813437673937084
31
0
210
0
220
0
230
1
40
0.014477
41
0.38737240784289
42
1.42235265432111
0
ELLIPSE
5
1C7
100
AcDbEntity
8
1
62
256
6
ByLayer
370
-1
48
1
60
0
100
AcDbEllipse
10
9.64208
20
12.476626
30
0
11
-0.0387255244935547
21
-0.124900306205579
31
0
210
0
220
0
230
1
40
0.960584
41
0.811552383817888
42
1.76427206073552
0
ELLIPSE
5
1C8
100
AcDbEntity
8
1
62
256
6
ByLayer
370
-1
48
1
60
0
100
AcDbEllipse
10
18.293938
20
7.179695
30
0
11
0.108849151591522
21
-0.103207859186235
31
0
210
0
220
0
230
1
40
0.132802
41
1.28184863041186
42
1.4563815556113
0
ELLIPSE
5
1C9
100
AcDbEntity
8
1
62
256
6
ByLayer
370
-1
48
1
60
0
100
AcDbEllipse
10
20.646486
20
12.049293
30
0
11
-0.283043037695041
21
-0.169666257141376
31
0
210
0
220
0
230
1
40
0.014531
41
0.681094103132171
42
1.5621154291429
0
ELLIPSE
5
1CA
100
AcDbEntity
8
1
62
256
6
ByLayer
370
-1
48
1
60
0
100
AcDbEllipse
10
9.62396
20
11.712621
30
0
11
0.286230603216352
21
-0.164231671069874
31
0
210
0
220
0
230
1
40
0.012676
41
-1.86425703091954
42
-0.983235704910365
0
ELLIPSE
5
1CB
100
AcDbEntity
8
1
62
256
6
ByLayer
370
-1
48
1
60
0
100
AcDbEllipse
10
9.027659
20
12.069006
30
0
11
-0.295892073361189
21
-0.146109140446505
31
0
210
0
220
0
230
1
40
0.409519
41
-1.69649744441248
42
-1.09507804810167
0
ELLIPSE
5
1CC
100
AcDbEntity
8
1
62
256
6
ByLayer
370
-1
48
1
60
0
100
AcDbEllipse
10
14.812442
20
1.808151
30
0
11
-0.0541571275650052
21
0.118791534244062
31
0
210
0
220
0
230
1
40
0.958576
41
-1.9776654058483
42
-0.93712201221276
0
ELLIPSE
5
1CD
100
AcDbEntity
8
1
62
256
6
ByLayer
370
-1
48
1
60
0
100
AcDbEllipse
10
11.889532
20
6.864517
30
0
11
-0.0109764751846191
21
0.149597850895397
31
0
210
0
220
0
230
1
40
0.174416
41
-2.27514962593702
42
-1.56636013641395
0
ELLIPSE
5
1CE
100
AcDbEntity
8
1
62
256
6
ByLayer
370
-1
48
1
60
0
100
AcDbEllipse
10
9.602719
20
9.123374
30
0
11
-0.0889897064710222
21
0.152707630843928
31
0
210
0
220
0
230
1
40
0.134911
41
-1.6324221215431
42
-0.597441874988877
0
ELLIPSE
5
1CF
100
AcDbEntity
8
1
62
256
6
ByLayer
370
-1
48
1
60
0
100
AcDbEllipse
10
12.123486
20
3.763755
30
0
11
0.0197022175593592
21
-0.199027190663094
31
0
210
0
220
0
230
1
40
0.984662
41
-1.14436486269424
42
-0.620766087095936
0
ELLIPSE
5
1D0
100
AcDbEntity
8
1
62
256
6
ByLayer
370
-1
48
1
60
0
100
AcDbEllipse
10
14.4321
20
12.184638
30
0
11
0.0367833786735521
21
0.14542002287635
31
0
210
0
220
0
230
1
40
0.164395
41
-1.51152291065081
42
-1.33698998545124
0
ELLIPSE
5
1D1
100
AcDbEntity
8
1
62
256
6
ByLayer
370
-1
48
1
60
0
100
AcDbEllipse
10
16.429985
20
2.643071
30
0
11
0.00576500800462803
21
0.319948065602383
31
0
210
0
220
0
230
1
40
0.256807
41
0.558382699456784
42
1.74352732460069
0
ELLIPSE
5
1D2
100
AcDbEntity
8
1
62
256
6
ByLayer
370
-1
48
1
60
0
100
AcDbEllipse
10
9.027659
20
12.069006
30
0
11
-0.169295514592364
21
-0.283264944422897
31
0
210
0
220
0
230
1
40
0.289048
41
-1.90258548364581
42
-1.55351963324692
0
ELLIPSE
5
1D3
100
AcDbEntity
8
1
62
256
6
ByLayer
370
-1
48
1
60
0
100
AcDbEllipse
10
20.429411
20
12.411424
30
0
11
0.284050851998542
21
-0.167973549938384
31
0
210
0
220
0
230
1
40
0.014557
41
-2.44318016918833
42
-1.56215884318396
0
ELLIPSE
5
1D4
100
AcDbEntity
8
1
62
256
6
ByLayer
370
-1
48
1
60
0
100
AcDbEllipse
10
15.451334
20
2.188459
30
0
11
0.329785795493604
21
0.0118881912270349
31
0
210
0
220
0
230
1
40
0.163668
41
-2.18485395513135
42
-1.83578810473244
0
ELLIPSE
5
1D5
100
AcDbEntity
8
1
62
256
6
ByLayer
370
-1
48
1
60
0
100
AcDbEllipse
10
19.754046
20
12.689542
30
0
11
-0.27815116708091
21
-0.158214816788844
31
0
210
0
220
0
230
1
40
0.014726
41
0.377304873152853
42
1.56244949829213
0
ELLIPSE
5
1D6
100
AcDbEntity
8
1
62
256
6
ByLayer
370
-1
48
1
60
0
100
AcDbEllipse
10
20.64432
20
12.774844
30
0
11
-0.28457475269051
21
0.167084440122756
31
0
210
0
220
0
230
1
40
0.328265
41
-1.57537090247437
42
-0.753089680139303
0
ELLIPSE
5
1D7
100
AcDbEntity
8
1
62
256
6
ByLayer
370
-1
48
1
60
0
100
AcDbEllipse
10
9.513627
20
10.615373
30
0
11
0.274009264363063
21
-0.165284370232679
31
0
210
0
220
0
230
1
40
0.019277
41
-1.86390773976952
42
-0.678763114629813
0
ELLIPSE
5
1D8
100
AcDbEntity
8
1
62
256
6
ByLayer
370
-1
48
1
60
0
100
AcDbEllipse
10
12.704673
20
6.147804
30
0
11
-0.14423995968499
21
-0.041168362003757
31
0
210
0
220
0
230
1
40
0.031593
41
1.56879056625077
42
1.74332349145035
0
ELLIPSE
5
1D9
100
AcDbEntity
8
1
62
256
6
ByLayer
370
-1
48
1
60
0
100
AcDbEllipse
10
9.570003
20
11.740643
30
0
11
0.117321608038474
21
0.225910690953896
31
0
210
0
220
0
230
1
40
0.957172
41
-1.61459250743375
42
-1.30965524245271
0
ELLIPSE
5
1DA
100
AcDbEntity
8
1
62
256
6
ByLayer
370
-1
48
1
60
0
100
AcDbEllipse
10
9.513627
20
10.615373
30
0
11
-0.283825226656983
21
0.147794589593503
31
0
210
0
220
0
230
1
40
0.096468
41
1.42421492745188
42
2.45919517388412
0
ELLIPSE
5
1DB
100
AcDbEntity
8
1
62
256
6
ByLayer
370
-1
48
1
60
0
100
AcDbEllipse
10
9.006151
20
11.349846
30
0
11
0.00278672453945476
21
0.329988233375588
31
0
210
0
220
0
230
1
40
0.260309
41
1.43915566762728
42
2.3201769936364
0
ELLIPSE
5
1DC
100
AcDbEntity
8
1
62
256
6
ByLayer
370
-1
48
1
60
0
100
AcDbEllipse
10
21.023141
20
10.458397
30
0
11
-0.276760933618593
21
-0.160658795893028
31
0
210
0
220
0
230
1
40
0.073503
41
-1.56309533867629
42
-0.766553402301611
0
ELLIPSE
5
1DD
100
AcDbEntity
8
1
62
256
6
ByLayer
370
-1
48
1
60
0
100
AcDbEllipse
10
21.273839
20
12.413944
30
0
11
-0.165834547046438
21
0.285304929866104
31
0
210
0
220
0
230
1
40
0.008485
41
1.58544329244121
42
1.93450914284078
0
ELLIPSE
5
1DE
100
AcDbEntity
8
1
62
256
6
ByLayer
370
-1
48
1
60
0
100
AcDbEllipse
10
9.413833
20
11.346403
30
0
11
-0.286230603216352
21
0.164231671069875
31
0
210
0
220
0
230
1
40
0.012676
41
1.27733562266918
42
2.15835694868327
0
ELLIPSE
5
1DF
100
AcDbEntity
8
1
62
256
6
ByLayer
370
-1
48
1
60
0
100
AcDbEllipse
10
15.400854
20
1.125387
30
0
11
-0.289480310379134
21
-1.13400220130211
31
0
210
0
220
0
230
1
40
0.21433
41
-1.51805605604341
42
-1.3504603777338
0
ELLIPSE
5
1E0
100
AcDbEntity
8
1
62
256
6
ByLayer
370
-1
48
1
60
0
100
AcDbEllipse
10
17.046568
20
2.282279
30
0
11
-0.161612197743506
21
-0.276191052607636
31
0
210
0
220
0
230
1
40
0.141921
41
-1.46809554306505
42
-1.29356261786571
0
ELLIPSE
5
1E1
100
AcDbEntity
8
1
62
256
6
ByLayer
370
-1
48
1
60
0
100
AcDbEllipse
10
15.80523
20
2.155482
30
0
11
-0.139234821942718
21
0.213104820120474
31
0
210
0
220
0
230
1
40
0.952081
41
-1.62521932802707
42
-0.551305267921898
0
ELLIPSE
5
1E2
100
AcDbEntity
8
1
62
256
6
ByLayer
370
-1
48
1
60
0
100
AcDbEllipse
10
20.43069
20
12.407935
30
0
11
-0.254558441227157
21
3.11733884545897E-17
31
0
210
0
220
0
230
1
40
0.999857
41
-0.533972158064337
42
0.539941900357933
0
ELLIPSE
5
1E3
100
AcDbEntity
8
1
62
256
6
ByLayer
370
-1
48
1
60
0
100
AcDbEllipse
10
10.972989
20
11.215077
30
0
11
-2.32265021665095
21
1.38987250313331
31
0
210
0
220
0
230
1
40
0.313983
41
0.005998708528006
42
0.173594383392616
0
ELLIPSE
5
1E4
100
AcDbEntity
8
1
62
256
6
ByLayer
370
-1
48
1
60
0
100
AcDbEllipse
10
8.02685
20
12.496795
30
0
11
0.0197022175593592
21
-0.199027190663094
31
0
210
0
220
0
230
1
40
0.984662
41
-2.7151611894894
42
-1.67461779581893
0
ELLIPSE
5
1E5
100
AcDbEntity
8
1
62
256
6
ByLayer
370
-1
48
1
60
0
100
AcDbEllipse
10
15.477123
20
1.47305
30
0
11
0.29573971933096
21
-0.146417274971382
31
0
210
0
220
0
230
1
40
0.437013
41
-2.02995322866213
42
-1.42853383235129
0
ELLIPSE
5
1E6
100
AcDbEntity
8
1
62
256
6
ByLayer
370
-1
48
1
60
0
100
AcDbEllipse
10
12.412494
20
13.219061
30
0
11
0.0197022175593592
21
-0.199027190663094
31
0
210
0
220
0
230
1
40
0.984662
41
3.04442534209234
42
-2.71516118948914
0
ELLIPSE
5
1E7
100
AcDbEntity
8
1
62
256
6
ByLayer
370
-1
48
1
60
0
100
AcDbEllipse
10
21.273839
20
12.413944
30
0
11
-0.00200138935678995
21
0.329993930914862
31
0
210
0
220
0
230
1
40
0.178994
41
-1.88871094612045
42
-1.28729154980988
0
ELLIPSE
5
1E8
100
AcDbEntity
8
1
62
256
6
ByLayer
370
-1
48
1
60
0
100
AcDbEllipse
10
19.830711
20
7.114241
30
0
11
-0.0758050237410566
21
-0.129554897807385
31
0
210
0
220
0
230
1
40
0.141824
41
0.96463408436571
42
1.67342357398954
0
ELLIPSE
5
1E9
100
AcDbEntity
8
1
62
256
6
ByLayer
370
-1
48
1
60
0
100
AcDbEllipse
10
15.864315
20
13.416453
30
0
11
-0.166222822968281
21
-0.000404025363094177
31
0
210
0
220
0
230
1
40
0.015318
41
-1.72815927823184
42
-1.0193697892533
0
ELLIPSE
5
1EA
100
AcDbEntity
8
1
62
256
6
ByLayer
370
-1
48
1
60
0
100
AcDbEllipse
10
11.712156
20
5.433276
30
0
11
-0.0760035166089627
21
0.129439174512213
31
0
210
0
220
0
230
1
40
0.158738
41
-1.64390206201059
42
-0.935112572810729
0
ELLIPSE
5
1EB
100
AcDbEntity
8
1
62
256
6
ByLayer
370
-1
48
1
60
0
100
AcDbEllipse
10
21.26472
20
11.631564
30
0
11
-0.132004876918792
21
-0.000392178266034169
31
0
210
0
220
0
230
1
40
0.984667
41
1.38385762731666E-05
42
0.952733515569229
0
ELLIPSE
5
1EC
100
AcDbEntity
8
1
62
256
6
ByLayer
370
-1
48
1
60
0
100
AcDbEllipse
10
21.827265
20
12.424472
30
0
11
-0.203084426055667
21
-0.000603351625216106
31
0
210
0
220
0
230
1
40
0.984667
41
-3.14157881717528
42
-2.10103542350947
0
ELLIPSE
5
1ED
100
AcDbEntity
8
1
62
256
6
ByLayer
370
-1
48
1
60
0
100
AcDbEllipse
10
16.071308
20
1.825683
30
0
11
-0.28523948360115
21
-0.165947090950547
31
0
210
0
220
0
230
1
40
0.016637
41
1.26039991204708
42
2.1414212380562
0
ELLIPSE
5
1EE
100
AcDbEntity
8
1
62
256
6
ByLayer
370
-1
48
1
60
0
100
AcDbEllipse
10
8.949238
20
12.441919
30
0
11
-0.753374491396721
21
0.876499806823323
31
0
210
0
220
0
230
1
40
0.023719
41
1.30917457945559
42
1.47677024924034
0
ELLIPSE
5
1EF
100
AcDbEntity
8
1
62
256
6
ByLayer
370
-1
48
1
60
0
100
AcDbEllipse
10
19.754046
20
12.689542
30
0
11
-0.31999857438126
21
-0.000955193153903755
31
0
210
0
220
0
230
1
40
0.016926
41
1.39623813751276
42
1.57077106271216
0
ELLIPSE
5
1F0
100
AcDbEntity
8
1
62
256
6
ByLayer
370
-1
48
1
60
0
100
AcDbEllipse
10
20.64432
20
12.774844
30
0
11
0.284050851998542
21
-0.167973549938384
31
0
210
0
220
0
230
1
40
0.014557
41
-2.4431801691927
42
-1.56215884318396
0
ELLIPSE
5
1F1
100
AcDbEntity
8
1
62
256
6
ByLayer
370
-1
48
1
60
0
100
AcDbEllipse
10
21.273839
20
12.413944
30
0
11
0.164128524857489
21
0.286289761130405
31
0
210
0
220
0
230
1
40
0.008441
41
-1.58546855109523
42
-1.23640270069581
0
ELLIPSE
5
1F2
100
AcDbEntity
8
1
62
256
6
ByLayer
370
-1
48
1
60
0
100
AcDbEllipse
10
11.620276
20
12.997897
30
0
11
-0.242332973105958
21
-0.141218484138081
31
0
210
0
220
0
230
1
40
0.03895
41
0.620771685076399
42
1.65575193159707
0
ELLIPSE
5
1F3
100
AcDbEntity
8
1
62
256
6
ByLayer
370
-1
48
1
60
0
100
AcDbEllipse
10
15.183686
20
0.961397
30
0
11
-0.0833186577850407
21
0.182756206532506
31
0
210
0
220
0
230
1
40
0.958576
41
2.20447064144239
42
-3.03817127208445
0
ELLIPSE
5
1F4
100
AcDbEntity
8
1
62
256
6
ByLayer
370
-1
48
1
60
0
100
AcDbEllipse
10
10.934066
20
6.794412
30
0
11
-0.0840441179156859
21
0.143868673214721
31
0
210
0
220
0
230
1
40
0.143076
41
-2.34511467074461
42
-1.63632518115228
0
ELLIPSE
5
1F5
100
AcDbEntity
8
1
62
256
6
ByLayer
370
-1
48
1
60
0
100
AcDbEllipse
10
8.647002
20
9.849262
30
0
11
-0.0930395423163231
21
-2.80197791411653
31
0
210
0
220
0
230
1
40
0.29268
41
2.98099856117392
42
-3.13459107103612
0
ELLIPSE
5
1F6
100
AcDbEntity
8
1
62
256
6
ByLayer
370
-1
48
1
60
0
100
AcDbEllipse
10
12.220083
20
5.706379
30
0
11
-0.0710352023429511
21
0.132113587598309
31
0
210
0
220
0
230
1
40
0.161422
41
-1.63793094324463
42
-0.929141453722354
0
ELLIPSE
5
1F7
100
AcDbEntity
8
1
62
256
6
ByLayer
370
-1
48
1
60
0
100
AcDbEllipse
10
15.451334
20
2.188459
30
0
11
-0.00174325584072282
21
0.329995395511928
31
0
210
0
220
0
230
1
40
0.260533
41
0.856478905314362
42
1.73750023132358
0
ELLIPSE
5
1F8
100
AcDbEntity
8
1
62
256
6
ByLayer
370
-1
48
1
60
0
100
AcDbEllipse
10
13.949374
20
2.687768
30
0
11
-0.00204490914584194
21
0.320085891095765
31
0
210
0
220
0
230
1
40
0.174338
41
0.942729820084749
42
1.73927175656488
0
ELLIPSE
5
1F9
100
AcDbEntity
8
1
62
256
6
ByLayer
370
-1
48
1
60
0
100
AcDbEllipse
10
8.880074
20
12.367886
30
0
11
0.295892073361189
21
0.146109140446505
31
0
210
0
220
0
230
1
40
0.409519
41
1.44509520917722
42
2.04651460548802
0
ELLIPSE
5
1FA
100
AcDbEntity
8
1
62
256
6
ByLayer
370
-1
48
1
60
0
100
AcDbEllipse
10
9.62396
20
11.712621
30
0
11
-0.169295514592364
21
-0.283264944422897
31
0
210
0
220
0
230
1
40
0.289048
41
-1.90258548364584
42
-1.55351963324688
0
ELLIPSE
5
1FB
100
AcDbEntity
8
1
62
256
6
ByLayer
370
-1
48
1
60
0
100
AcDbEllipse
10
9.006151
20
11.349846
30
0
11
-0.329852530264881
21
0.00986449582371019
31
0
210
0
220
0
230
1
40
0.130201
41
-1.30693253085097
42
-0.957866680452038
0
ELLIPSE
5
1FC
100
AcDbEntity
8
1
62
256
6
ByLayer
370
-1
48
1
60
0
100
AcDbEllipse
10
9.62396
20
11.712621
30
0
11
-0.267549920942348
21
0.193176188500921
31
0
210
0
220
0
230
1
40
0.315435
41
-2.08791300409338
42
-1.26563178175845
0
ELLIPSE
5
1FD
100
AcDbEntity
8
1
62
256
6
ByLayer
370
-1
48
1
60
0
100
AcDbEllipse
10
9.592875
20
12.447733
30
0
11
-0.0387255244984091
21
-0.12490030620343
31
0
210
0
220
0
230
1
40
0.960584
41
-0.228991009811655
42
0.811552383858161
0
ELLIPSE
5
1FE
100
AcDbEntity
8
1
62
256
6
ByLayer
370
-1
48
1
60
0
100
AcDbEllipse
10
21.811142
20
12.42657
30
0
11
-1.20705427326605
21
-0.290156911281208
31
0
210
0
220
0
230
1
40
0.066352
41
1.4543625805431
42
1.6219582475098
0
ELLIPSE
5
1FF
100
AcDbEntity
8
1
62
256
6
ByLayer
370
-1
48
1
60
0
100
AcDbEllipse
10
20.429411
20
12.411424
30
0
11
0.283043037695041
21
0.169666257141376
31
0
210
0
220
0
230
1
40
0.014531
41
-2.46049855045566
42
-1.57947722444707
0
ELLIPSE
5
200
100
AcDbEntity
8
1
62
256
6
ByLayer
370
-1
48
1
60
0
100
AcDbEllipse
10
8.949238
20
12.441919
30
0
11
-0.289742104467733
21
1.14609612453609
31
0
210
0
220
0
230
1
40
0.218444
41
1.37698550849014
42
1.54458117967638
0
ELLIPSE
5
201
100
AcDbEntity
8
1
62
256
6
ByLayer
370
-1
48
1
60
0
100
AcDbEllipse
10
21.827339
20
12.399611
30
0
11
-0.203084426060919
21
-0.000603351473427951
31
0
210
0
220
0
230
1
40
0.984667
41
2.10106309708689
42
-3.14157881644125
0
ELLIPSE
5
202
100
AcDbEntity
8
1
62
256
6
ByLayer
370
-1
48
1
60
0
100
AcDbEllipse
10
15.858999
20
2.190613
30
0
11
0.001743255840723
21
-0.329995395511928
31
0
210
0
220
0
230
1
40
0.260533
41
-2.28511374827544
42
-1.40409242226621
0
ELLIPSE
5
203
100
AcDbEntity
8
1
62
256
6
ByLayer
370
-1
48
1
60
0
100
AcDbEllipse
10
19.441087
20
13.770746
30
0
11
-2.45285015876801
21
1.40616694262213
31
0
210
0
220
0
230
1
40
0.300605
41
2.96969697042968
42
3.13729264536131
0
ELLIPSE
5
204
100
AcDbEntity
8
1
62
256
6
ByLayer
370
-1
48
1
60
0
100
AcDbEllipse
10
14.763064
20
1.837044
30
0
11
-0.0541571275830108
21
0.118791534229902
31
0
210
0
220
0
230
1
40
0.958576
41
-0.937122012369648
42
0.0155976645585936
0
ELLIPSE
5
205
100
AcDbEntity
8
1
62
256
6
ByLayer
370
-1
48
1
60
0
100
AcDbEllipse
10
19.342457
20
7.425003
30
0
11
-0.0805414741465826
21
-0.126542763294846
31
0
210
0
220
0
230
1
40
0.138046
41
0.969941273947591
42
1.67873076347048
0
ELLIPSE
5
206
100
AcDbEntity
8
1
62
256
6
ByLayer
370
-1
48
1
60
0
100
AcDbEllipse
10
15.162442
20
0.973827
30
0
11
-0.083318657800977
21
0.182756206521281
31
0
210
0
220
0
230
1
40
0.958576
41
1.16392724767543
42
2.20447064133212
0
ELLIPSE
5
207
100
AcDbEntity
8
1
62
256
6
ByLayer
370
-1
48
1
60
0
100
AcDbEllipse
10
18.520706
20
6.558335
30
0
11
-0.124577066842044
21
-0.0835497122498512
31
0
210
0
220
0
230
1
40
0.083425
41
1.72517806407869
42
2.43396755360191
0
ELLIPSE
5
208
100
AcDbEntity
8
1
62
256
6
ByLayer
370
-1
48
1
60
0
100
AcDbEllipse
10
9.359876
20
11.374424
30
0
11
0.117321608038474
21
0.225910690953896
31
0
210
0
220
0
230
1
40
0.957172
41
-2.68850656753885
42
-1.61459250743358
0
ELLIPSE
5
209
100
AcDbEntity
8
1
62
256
6
ByLayer
370
-1
48
1
60
0
100
AcDbEllipse
10
10.839327
20
12.813124
30
0
11
-0.279775169936054
21
0.155721789697142
31
0
210
0
220
0
230
1
40
0.100809
41
1.27416717397149
42
2.0707091102306
0
ELLIPSE
5
20A
100
AcDbEntity
8
1
62
256
6
ByLayer
370
-1
48
1
60
0
100
AcDbEllipse
10
15.397565
20
2.153329
30
0
11
-0.139234821942718
21
0.213104820120474
31
0
210
0
220
0
230
1
40
0.952081
41
-0.551305267921901
42
-0.246368002940988
0
ELLIPSE
5
20B
100
AcDbEntity
8
1
62
256
6
ByLayer
370
-1
48
1
60
0
100
AcDbEllipse
10
9.282858
20
11.240194
30
0
11
-0.479796040735373
21
-0.837102468419396
31
0
210
0
220
0
230
1
40
0.327398
41
2.31333810641547
42
3.13561932875539
0
ELLIPSE
5
20C
100
AcDbEntity
8
1
62
256
6
ByLayer
370
-1
48
1
60
0
100
AcDbEllipse
10
17.743304
20
3.424143
30
0
11
-0.0885670091664157
21
-0.15280530470088
31
0
210
0
220
0
230
1
40
0.12071
41
0.622497921383039
42
1.65747816774445
0
ELLIPSE
5
20D
100
AcDbEntity
8
1
62
256
6
ByLayer
370
-1
48
1
60
0
100
AcDbEllipse
10
14.479283
20
0.9062
30
0
11
0.0197022175593592
21
-0.199027190663094
31
0
210
0
220
0
230
1
40
0.984662
41
-1.6613094807664
42
-0.620766087096059
0
ELLIPSE
5
20E
100
AcDbEntity
8
1
62
256
6
ByLayer
370
-1
48
1
60
0
100
AcDbEllipse
10
17.267458
20
2.672766
30
0
11
-0.188942952874621
21
-0.325984649999761
31
0
210
0
220
0
230
1
40
0.12071
41
-2.51909473222524
42
-1.48411448577964
0
ELLIPSE
5
20F
100
AcDbEntity
8
1
62
256
6
ByLayer
370
-1
48
1
60
0
100
AcDbEllipse
10
9.513627
20
10.615373
30
0
11
0.162033669206493
21
-0.275943998020397
31
0
210
0
220
0
230
1
40
0.158847
41
-1.81848809092712
42
-1.64395516572782
0
ELLIPSE
5
210
100
AcDbEntity
8
1
62
256
6
ByLayer
370
-1
48
1
60
0
100
AcDbEllipse
10
15.477123
20
1.47305
30
0
11
0.329785795493604
21
0.0118881912270349
31
0
210
0
220
0
230
1
40
0.163668
41
-2.18485395513132
42
-1.83578810473242
0
ELLIPSE
5
211
100
AcDbEntity
8
1
62
256
6
ByLayer
370
-1
48
1
60
0
100
AcDbEllipse
10
8.731178
20
12.576854
30
0
11
-0.0595777300092145
21
-0.192154317231185
31
0
210
0
220
0
230
1
40
0.960584
41
2.91260164383715
42
-2.33004026966907
0
ELLIPSE
5
212
100
AcDbEntity
8
1
62
256
6
ByLayer
370
-1
48
1
60
0
100
AcDbEllipse
10
19.060747
20
5.753105
30
0
11
-0.083703482385147
21
-0.143972486642034
31
0
210
0
220
0
230
1
40
0.127956
41
1.662909842362
42
2.37169933086164
0
ELLIPSE
5
213
100
AcDbEntity
8
1
62
256
6
ByLayer
370
-1
48
1
60
0
100
AcDbEllipse
10
14.296587
20
12.832588
30
0
11
0.149914929437486
21
-0.0050511317299894
31
0
210
0
220
0
230
1
40
0.023376
41
0.688187598592385
42
1.39697708811461
0
ELLIPSE
5
214
100
AcDbEntity
8
1
62
256
6
ByLayer
370
-1
48
1
60
0
100
AcDbEllipse
10
15.33131
20
1.17853
30
0
11
-0.29573971933096
21
0.146417274971382
31
0
210
0
220
0
230
1
40
0.437013
41
1.11163942492754
42
1.71305882123848
0
ELLIPSE
5
215
100
AcDbEntity
8
1
62
256
6
ByLayer
370
-1
48
1
60
0
100
AcDbEllipse
10
9.413833
20
11.346403
30
0
11
0.00278672453945476
21
0.329988233375588
31
0
210
0
220
0
230
1
40
0.260309
41
1.43915566762727
42
2.3201769936364
0
ELLIPSE
5
216
100
AcDbEntity
8
1
62
256
6
ByLayer
370
-1
48
1
60
0
100
AcDbEllipse
10
13.767959
20
2.873994
30
0
11
-0.104265506069277
21
-0.108729639040767
31
0
210
0
220
0
230
1
40
0.746902
41
2.89374373979806
42
-3.0446332757361
0
ELLIPSE
5
217
100
AcDbEntity
8
1
62
256
6
ByLayer
370
-1
48
1
60
0
100
AcDbEllipse
10
16.541785
20
8.63846
30
0
11
-0.00166011276099857
21
0.394030905812318
31
0
210
0
220
0
230
1
40
0.48236
41
0.158490609533937
42
1.56876407099743
0
ELLIPSE
5
218
100
AcDbEntity
8
1
62
256
6
ByLayer
370
-1
48
1
60
0
100
AcDbEllipse
10
15.807251
20
9.922813
30
0
11
-0.335833568588339
21
0.198604627908495
31
0
210
0
220
0
230
1
40
0.491978
41
0.170083991761089
42
1.58035745322119
0
ELLIPSE
5
219
100
AcDbEntity
8
1
62
256
6
ByLayer
370
-1
48
1
60
0
100
AcDbEllipse
10
16.541785
20
8.63846
30
0
11
-0.00166011276118479
21
0.394030905814672
31
0
210
0
220
0
230
1
40
0.48236
41
1.56876407099696
42
2.97903753245374
0
ELLIPSE
5
21A
100
AcDbEntity
8
1
62
256
6
ByLayer
370
-1
48
1
60
0
100
AcDbEllipse
10
15.08102
20
8.63846
30
0
11
-0.137548307645936
21
1.28294760339764
31
0
210
0
220
0
230
1
40
0.984637
41
-2.72316996359089
42
-1.67597241239428
0
ELLIPSE
5
21B
100
AcDbEntity
8
1
62
256
6
ByLayer
370
-1
48
1
60
0
100
AcDbEllipse
10
15.08102
20
8.63846
30
0
11
-0.137548307645936
21
1.28294760339764
31
0
210
0
220
0
230
1
40
0.984637
41
-1.67597241239428
42
-0.628774861197687
0
ELLIPSE
5
21C
100
AcDbEntity
8
1
62
256
6
ByLayer
370
-1
48
1
60
0
100
AcDbEllipse
10
15.354469
20
8.667777
30
0
11
0.178707264153782
21
-1.66684752564187
31
0
210
0
220
0
230
1
40
0.984637
41
1.98921901679382
42
3.03641656799051
0
ELLIPSE
5
21D
100
AcDbEntity
8
1
62
256
6
ByLayer
370
-1
48
1
60
0
100
AcDbEllipse
10
15.354469
20
8.667777
30
0
11
0.178707264153782
21
-1.66684752564187
31
0
210
0
220
0
230
1
40
0.984637
41
-1.15237363679598
42
-0.10517608559923
0
ELLIPSE
5
21E
100
AcDbEntity
8
1
62
256
6
ByLayer
370
-1
48
1
60
0
100
AcDbEllipse
10
15.354469
20
8.667777
30
0
11
0.178707264153782
21
-1.66684752564187
31
0
210
0
220
0
230
1
40
0.984637
41
3.03641656799051
42
-2.19957118799259
0
ELLIPSE
5
21F
100
AcDbEntity
8
1
62
256
6
ByLayer
370
-1
48
1
60
0
100
AcDbEllipse
10
15.354469
20
8.667777
30
0
11
0.178707264153782
21
-1.66684752564187
31
0
210
0
220
0
230
1
40
0.984637
41
-0.10517608559923
42
0.942021465597201
0
ELLIPSE
5
220
100
AcDbEntity
8
1
62
256
6
ByLayer
370
-1
48
1
60
0
100
AcDbEllipse
10
15.354469
20
8.667777
30
0
11
0.178707264153782
21
-1.66684752564187
31
0
210
0
220
0
230
1
40
0.984637
41
-2.19957118799259
42
-1.15237363679598
0
ELLIPSE
5
221
100
AcDbEntity
8
1
62
256
6
ByLayer
370
-1
48
1
60
0
100
AcDbEllipse
10
15.354469
20
8.667777
30
0
11
0.178707264153782
21
-1.66684752564187
31
0
210
0
220
0
230
1
40
0.984637
41
0.942021465597201
42
1.98921901679382
0
ELLIPSE
5
222
100
AcDbEntity
8
1
62
256
6
ByLayer
370
-1
48
1
60
0
100
AcDbEllipse
10
15.343811
20
8.666635
30
0
11
-0.290489915783297
21
2.70947238569222
31
0
210
0
220
0
230
1
40
0.984637
41
0
42
6.28318530717959
0
ELLIPSE
5
223
100
AcDbEntity
8
1
62
256
6
ByLayer
370
-1
48
1
60
0
100
AcDbEllipse
10
15.354469
20
8.667777
30
0
11
-0.191883247122915
21
1.78974322724627
31
0
210
0
220
0
230
1
40
0.984637
41
0
42
6.28318530717959
0
ELLIPSE
5
224
100
AcDbEntity
8
1
62
256
6
ByLayer
370
-1
48
1
60
0
100
AcDbEllipse
10
15.815555
20
7.354107
30
0
11
-0.334749163351137
21
-0.198269006353529
31
0
210
0
220
0
230
1
40
0.494774
41
-1.57832859671691
42
-0.168055135252855
0
ELLIPSE
5
225
100
AcDbEntity
8
1
62
256
6
ByLayer
370
-1
48
1
60
0
100
AcDbEllipse
10
8.710008
20
12.564423
30
0
11
-0.0595777299984256
21
-0.192154317235685
31
0
210
0
220
0
230
1
40
0.960584
41
-2.33004026972804
42
-1.28949687605793
0
ELLIPSE
5
226
100
AcDbEntity
8
1
62
256
6
ByLayer
370
-1
48
1
60
0
100
AcDbEllipse
10
15.477123
20
1.47305
30
0
11
0.168419751761705
21
-0.283786516974513
31
0
210
0
220
0
230
1
40
0.305589
41
-1.55760914820957
42
-1.20854329781075
0
POINT
5
41
100
AcDbEntity
8
2
62
256
6
ByLayer
370
-1
48
1
60
0
100
AcDbPoint
10
23.397097
20
13.416588
30
0
39
0
210
0
220
0
230
1
50
360
0
POINT
5
43
100
AcDbEntity
8
2
62
256
6
ByLayer
370
-1
48
1
60
0
100
AcDbPoint
10
22.030378
20
12.412648
30
0
39
0
210
0
220
0
230
1
50
360
0
POINT
5
44
100
AcDbEntity
8
81
62
256
6
ByLayer
370
-1
48
1
60
0
100
AcDbPoint
10
23.355801
20
13.4125
30
0
39
0
210
0
220
0
230
1
50
360
0
POINT
5
46
100
AcDbEntity
8
80
62
256
6
ByLayer
370
-1
48
1
60
0
100
AcDbPoint
10
0
20
0
30
0
39
0
210
0
220
0
230
1
50
360
0
POINT
5
48
100
AcDbEntity
8
2
62
256
6
ByLayer
370
-1
48
1
60
0
100
AcDbPoint
10
23.355801
20
13.4125
30
0
39
0
210
0
220
0
230
1
50
360
0
SPLINE
5
227
100
AcDbEntity
8
1
62
256
6
ByLayer
370
-1
48
1
60
0
100
AcDbSpline
70
4
71
3
72
12
73
8
40
0
40
0
40
0
40
0
40
0.0459877480339796
40
0.365425292060208
40
0.669294631323245
40
0.955894825618003
40
1
40
1
40
1
40
1
41
1
10
5.56849595487458
20
12.8677179201413
30
0
41
1
10
5.58276178608298
20
12.8809787867638
30
0
41
1
10
5.69690569775429
20
12.9855075735751
30
0
41
1
10
5.91547109489957
20
13.1657718352784
30
0
41
1
10
6.24025176803971
20
13.3724302889382
30
0
41
1
10
6.47734784563732
20
13.5000125821246
30
0
41
1
10
6.60753759108258
20
13.550700170075
30
0
41
1
10
6.624989293808
20
13.5572697804263
30
0
0
SPLINE
5
228
100
AcDbEntity
8
1
62
256
6
ByLayer
370
-1
48
1
60
0
100
AcDbSpline
70
4
71
3
72
11
73
7
40
0
40
0
40
0
40
0
40
0.138774445899315
40
0.527132365625775
40
0.909049961471041
40
1
40
1
40
1
40
1
41
1
10
9.96364027377024
20
13.542873324727
30
0
41
1
10
10.0127981463781
20
13.5245531850757
30
0
41
1
10
10.19680033816
20
13.4496467482987
30
0
41
1
10
10.4932910155198
20
13.2735478230414
30
0
41
1
10
10.7551006490282
20
13.0812030984495
30
0
41
1
10
10.8910665755326
20
12.9653722541684
30
0
41
1
10
10.9168839443082
20
12.9427066962678
30
0
0
SPLINE
5
229
100
AcDbEntity
8
1
62
256
6
ByLayer
370
-1
48
1
60
0
100
AcDbSpline
70
4
71
3
72
8
73
4
40
0
40
0
40
0
40
0
40
1
40
1
40
1
40
1
41
1
10
13.378431363601
20
0.961816975199525
30
0
41
1
10
13.6222409306784
20
1.12456047667303
30
0
41
1
10
13.8278967387887
20
1.27979999265236
30
0
41
1
10
14.014396638425
20
1.42897678081451
30
0
0
SPLINE
5
22A
100
AcDbEntity
8
1
62
256
6
ByLayer
370
-1
48
1
60
0
100
AcDbSpline
70
4
71
3
72
14
73
10
40
0
40
0
40
0
40
0
40
0.447431724208242
40
0.447431724208242
40
0.682962772089897
40
0.682962772089897
40
0.918607182836782
40
0.918607182836782
40
1
40
1
40
1
40
1
41
1
10
6.9600097528849
20
13.5618444664636
30
0
41
1
10
6.95000243734737
20
13.5604205613207
30
0
41
1
10
6.94180986263515
20
13.558354896848
30
0
41
1
10
6.93249667210898
20
13.5541186421152
30
0
41
1
10
6.92985925048018
20
13.5524528877848
30
0
41
1
10
6.92590409642136
20
13.548650228348
30
0
41
1
10
6.92458156053553
20
13.5465095678255
30
0
41
1
10
6.92385223741559
20
13.5432343505464
30
0
41
1
10
6.92375774007786
20
13.5423578957273
30
0
41
1
10
6.92376378234133
20
13.5414420362041
30
0
0
SPLINE
5
22B
100
AcDbEntity
8
1
62
256
6
ByLayer
370
-1
48
1
60
0
100
AcDbSpline
70
4
71
3
72
20
73
16
40
0
40
0
40
0
40
0
40
0.0608143493744913
40
0.0608143493744913
40
0.214919318481968
40
0.214919318481968
40
0.368560674407025
40
0.368560674407025
40
0.521997076635684
40
0.521997076635684
40
0.675334771695207
40
0.675334771695207
40
0.983339870964382
40
0.983339870964382
40
1
40
1
40
1
40
1
41
1
10
9.48403500022346
20
13.5394242537171
30
0
41
1
10
9.48405863251153
20
13.5413357145598
30
0
41
1
10
9.48382178957843
20
13.5431394366326
30
0
41
1
10
9.48218521621263
20
13.549177625556
30
0
41
1
10
9.4795583420854
20
13.552925746813
30
0
41
1
10
9.47228401302527
20
13.5595078302393
30
0
41
1
10
9.46761730015263
20
13.5623636216991
30
0
41
1
10
9.45676639429433
20
13.5674056944701
30
0
41
1
10
9.45056250482196
20
13.5696005366159
30
0
41
1
10
9.43693802514989
20
13.5734664207982
30
0
41
1
10
9.42950070199993
20
13.5751415927107
30
0
41
1
10
9.40560979680831
20
13.5795170081678
30
0
41
1
10
9.38753808169548
20
13.5815837656651
30
0
41
1
10
9.36677219030065
20
13.5829741526948
30
0
41
1
10
9.3656989082935
20
13.583043440328
30
0
41
1
10
9.36462065114665
20
13.5831104880245
30
0
0
SPLINE
5
22C
100
AcDbEntity
8
1
62
256
6
ByLayer
370
-1
48
1
60
0
100
AcDbSpline
70
4
71
3
72
10
73
6
40
0
40
0
40
0
40
0
40
0.870848930806809
40
0.870848930806809
40
1
40
1
40
1
40
1
41
1
10
7.75355832262056
20
13.5073775060402
30
0
41
1
10
7.75809867427813
20
13.4996120034893
30
0
41
1
10
7.76038932388573
20
13.4918093037486
30
0
41
1
10
7.76097824141223
20
13.4833319045741
30
0
41
1
10
7.76101650420986
20
13.4822478395726
30
0
41
1
10
7.76101875815951
20
13.48117026451
30
0
0
SPLINE
5
22D
100
AcDbEntity
8
1
62
256
6
ByLayer
370
-1
48
1
60
0
100
AcDbSpline
70
4
71
3
72
10
73
6
40
0
40
0
40
0
40
0
40
0.771870081641147
40
0.771870081641147
40
1
40
1
40
1
40
1
41
1
10
9.00532091278086
20
13.5013120310626
30
0
41
1
10
8.99755393889487
20
13.4936468619219
30
0
41
1
10
8.98778153568995
20
13.4860719533663
30
0
41
1
10
8.97390500005909
20
13.4769124318644
30
0
41
1
10
8.97065541816181
20
13.4748623424658
30
0
41
1
10
8.96732333372273
20
13.4728461919844
30
0
0
SPLINE
5
22E
100
AcDbEntity
8
1
62
256
6
ByLayer
370
-1
48
1
60
0
100
AcDbSpline
70
4
71
3
72
12
73
8
40
0
40
0
40
0
40
0
40
0.120685773105801
40
0.120685773105801
40
0.824973064444345
40
0.824973064444345
40
1
40
1
40
1
40
1
41
1
10
8.42123307542892
20
13.4643751519175
30
0
41
1
10
8.41926803092602
20
13.466111066055
30
0
41
1
10
8.41738229837131
20
13.4678776937243
30
0
41
1
10
8.40520665188342
20
13.4800384185362
30
0
41
1
10
8.39749027084562
20
13.4917038015946
30
0
41
1
10
8.39451728901929
20
13.5068437600709
30
0
41
1
10
8.39425601758563
20
13.5099422910505
30
0
41
1
10
8.39437887614099
20
13.5130448278166
30
0
0
SPLINE
5
22F
100
AcDbEntity
8
1
62
256
6
ByLayer
370
-1
48
1
60
0
100
AcDbSpline
70
4
71
3
72
24
73
20
40
0
40
0
40
0
40
0
40
0.10400044820151
40
0.10400044820151
40
0.192499055460718
40
0.192499055460718
40
0.32850051874627
40
0.32850051874627
40
0.438682575664844
40
0.438682575664844
40
0.548533158171189
40
0.548533158171189
40
0.658237202769156
40
0.658237202769156
40
0.76787067366017
40
0.76787067366017
40
0.988088331633382
40
0.988088331633382
40
1
40
1
40
1
40
1
41
1
10
7.23805744678117
20
13.4981350162076
30
0
41
1
10
7.22672227398346
20
13.5055771769357
30
0
41
1
10
7.21380015455912
20
13.5128138120927
30
0
41
1
10
7.1895666579224
20
13.5244544742477
30
0
41
1
10
7.17803001462204
20
13.5292715869843
30
0
41
1
10
7.14984913724831
20
13.5397141450245
30
0
41
1
10
7.1332775627454
20
13.5446259001059
30
0
41
1
10
7.1056298574868
20
13.5515682403226
30
0
41
1
10
7.09387777173282
20
13.554026113934
30
0
41
1
10
7.07184637169925
20
13.5579774282772
30
0
41
1
10
7.06149307420637
20
13.5594843303925
30
0
41
1
10
7.04205985401018
20
13.5618058588424
30
0
41
1
10
7.03294404329128
20
13.5626240528059
30
0
41
1
10
7.01585629863993
20
13.5637293989102
30
0
41
1
10
7.00786386827187
20
13.5640173344976
30
0
41
1
10
6.98545353417063
20
13.5642290364381
30
0
41
1
10
6.97255720902504
20
13.5635097088379
30
0
41
1
10
6.9611636837235
20
13.5620056442679
30
0
41
1
10
6.96058366000386
20
13.5619261256554
30
0
41
1
10
6.9600097528849
20
13.5618444664636
30
0
0
SPLINE
5
230
100
AcDbEntity
8
1
62
256
6
ByLayer
370
-1
48
1
60
0
100
AcDbSpline
70
4
71
3
72
8
73
4
40
0
40
0
40
0
40
0
40
1
40
1
40
1
40
1
41
1
10
7.7461158488133
20
13.5201069672276
30
0
41
1
10
7.74859665420072
20
13.5158637249302
30
0
41
1
10
7.75107747849191
20
13.5116205697636
30
0
41
1
10
7.75355832262059
20
13.5073775060402
30
0
0
SPLINE
5
231
100
AcDbEntity
8
1
62
256
6
ByLayer
370
-1
48
1
60
0
100
AcDbSpline
70
4
71
3
72
8
73
4
40
0
40
0
40
0
40
0
40
1
40
1
40
1
40
1
41
1
10
9.01805241585856
20
13.5138770272823
30
0
41
1
10
9.01380861426881
20
13.509688606217
30
0
41
1
10
9.00956478044037
20
13.5055002726994
30
0
41
1
10
9.00532091278083
20
13.5013120310626
30
0
0
SPLINE
5
232
100
AcDbEntity
8
1
62
256
6
ByLayer
370
-1
48
1
60
0
100
AcDbSpline
70
4
71
3
72
10
73
6
40
0
40
0
40
0
40
0
40
0.388885978132888
40
0.388885978132888
40
1
40
1
40
1
40
1
41
1
10
12.2710390582077
20
6.87134345862538
30
0
41
1
10
12.2540369836483
20
6.86135988027337
30
0
41
1
10
12.2367894168711
20
6.85133857773079
30
0
41
1
10
12.1923854375353
20
6.82578400565845
30
0
41
1
10
12.1649439165325
20
6.81022160609564
30
0
41
1
10
12.1379011832915
20
6.7951480032292
30
0
0
SPLINE
5
233
100
AcDbEntity
8
1
62
256
6
ByLayer
370
-1
48
1
60
0
100
AcDbSpline
70
4
71
3
72
14
73
10
40
0
40
0
40
0
40
0
40
0.314392366702112
40
0.314392366702112
40
0.632200716155323
40
0.632200716155323
40
0.912513196202159
40
0.912513196202159
40
1
40
1
40
1
40
1
41
1
10
21.8920973304125
20
12.3614219077039
30
0
41
1
10
21.8977984469901
20
12.3710449919881
30
0
41
1
10
21.9022637467031
20
12.3816054309947
30
0
41
1
10
21.907134783156
20
12.4035148265701
30
0
41
1
10
21.9075021759279
20
12.4151737050198
30
0
41
1
10
21.9040906735865
20
12.4361495029514
30
0
41
1
10
21.9007933243537
20
12.4458212446864
30
0
41
1
10
21.8949364194835
20
12.4575848887621
30
0
41
1
10
21.8934151651755
20
12.4603475807591
30
0
41
1
10
21.8917939798961
20
12.4630471469375
30
0
0
SPLINE
5
234
100
AcDbEntity
8
1
62
256
6
ByLayer
370
-1
48
1
60
0
100
AcDbSpline
70
4
71
3
72
8
73
4
40
0
40
0
40
0
40
0
40
1
40
1
40
1
40
1
41
1
10
8.39437887614099
20
13.5130448278166
30
0
41
1
10
8.39454782685286
20
13.5173113259319
30
0
41
1
10
8.39471677625471
20
13.5215779153034
30
0
41
1
10
8.39488572440825
20
13.5258445916275
30
0
0
SPLINE
5
235
100
AcDbEntity
8
1
62
256
6
ByLayer
370
-1
48
1
60
0
100
AcDbSpline
70
4
71
3
72
22
73
18
40
0
40
0
40
0
40
0
40
0.208266363442196
40
0.208266363442196
40
0.317899168104998
40
0.317899168104998
40
0.427584739861464
40
0.427584739861464
40
0.537377253732652
40
0.537377253732652
40
0.64740222873081
40
0.64740222873081
40
0.811583680502113
40
0.811583680502113
40
0.90663602213142
40
0.90663602213142
40
1
40
1
40
1
40
1
41
1
10
9.36462065114665
20
13.5831104880245
30
0
41
1
10
9.34581889883802
20
13.5842796100512
30
0
41
1
10
9.32546004228226
20
13.5847848041694
30
0
41
1
10
9.29230549912393
20
13.5843741698797
30
0
41
1
10
9.28045261086444
20
13.5840140647796
30
0
41
1
10
9.25598624652122
20
13.5827730424244
30
0
41
1
10
9.2433454180327
20
13.5818912677958
30
0
41
1
10
9.21730999385295
20
13.5794665537007
30
0
41
1
10
9.20387238772534
20
13.5779204039565
30
0
41
1
10
9.17628708016204
20
13.5739399033076
30
0
41
1
10
9.16206097412461
20
13.5714946186106
30
0
41
1
10
9.12624759604836
20
13.563906954887
30
0
41
1
10
9.10374746384545
20
13.5578865794753
30
0
41
1
10
9.06994635434268
20
13.545129252854
30
0
41
1
10
9.0576508911663
20
13.5396113333948
30
0
41
1
10
9.03582072036409
20
13.5274957726187
30
0
41
1
10
9.0259950705277
20
13.5207585829584
30
0
41
1
10
9.01805241585916
20
13.5138770272846
30
0
0
SPLINE
5
236
100
AcDbEntity
8
1
62
256
6
ByLayer
370
-1
48
1
60
0
100
AcDbSpline
70
4
71
3
72
22
73
18
40
0
40
0
40
0
40
0
40
0.208266363444368
40
0.208266363444368
40
0.317899168106878
40
0.317899168106878
40
0.42758473986308
40
0.42758473986308
40
0.537377253734005
40
0.537377253734005
40
0.647402228731834
40
0.647402228731834
40
0.811583680502785
40
0.811583680502785
40
0.906636022131806
40
0.906636022131806
40
1
40
1
40
1
40
1
41
1
10
8.03997410084696
20
13.6085495768637
30
0
41
1
10
8.01116503300045
20
13.6082947937475
30
0
41
1
10
7.98261378616132
20
13.6073365982132
30
0
41
1
10
7.94014665654353
20
13.6046623592952
30
0
41
1
10
7.92565661522411
20
13.6035135420748
30
0
41
1
10
7.89723577626731
20
13.6006886663792
30
0
41
1
10
7.8832728233736
20
13.5990099685076
30
0
41
1
10
7.85615381557494
20
13.5949925345456
30
0
41
1
10
7.84295273741867
20
13.5926479503876
30
0
41
1
10
7.81778134101637
20
13.5870856077738
30
0
41
1
10
7.80574133802733
20
13.5838524746576
30
0
41
1
10
7.77846106581828
20
13.574371351838
30
0
41
1
10
7.76400140289712
20
13.5672408995029
30
0
41
1
10
7.74901567544163
20
13.5530158508256
30
0
41
1
10
7.74514330219046
20
13.5470108856898
30
0
41
1
10
7.74220490968386
20
13.5341474214897
30
0
41
1
10
7.74305554018554
20
13.5271380951229
30
0
41
1
10
7.74611584881302
20
13.5201069672299
30
0
0
SPLINE
5
237
100
AcDbEntity
8
1
62
256
6
ByLayer
370
-1
48
1
60
0
100
AcDbSpline
70
4
71
3
72
24
73
20
40
0
40
0
40
0
40
0
40
0.104000448201884
40
0.104000448201884
40
0.192499055461202
40
0.192499055461202
40
0.328500518747062
40
0.328500518747062
40
0.438682575665911
40
0.438682575665911
40
0.548533158172565
40
0.548533158172565
40
0.658237202770847
40
0.658237202770847
40
0.767870673662228
40
0.767870673662228
40
0.988088331636014
40
0.988088331636014
40
1
40
1
40
1
40
1
41
1
10
8.39488572440817
20
13.5258445916275
30
0
41
1
10
8.39393414981291
20
13.5336519632105
30
0
41
1
10
8.3900248382011
20
13.5413904368347
30
0
41
1
10
8.3781222781561
20
13.5541105934711
30
0
41
1
10
8.37073014667683
20
13.5594938518799
30
0
41
1
10
8.34925574351925
20
13.5714227980466
30
0
41
1
10
8.33343276545082
20
13.5773053318744
30
0
41
1
10
8.30316539833964
20
13.5859844113504
30
0
41
1
10
8.28878553080264
20
13.58922635223
30
0
41
1
10
8.25947825802425
20
13.5947186713012
30
0
41
1
10
8.24445760648206
20
13.5969875291649
30
0
41
1
10
8.21417239378238
20
13.6008025662747
30
0
41
1
10
8.19885224634245
20
13.6023550608819
30
0
41
1
10
8.16813927820004
20
13.6048972653375
30
0
41
1
10
8.15270922737841
20
13.6058894939308
30
0
41
1
10
8.10640728112034
20
13.60816793558
30
0
41
1
10
8.07543901225472
20
13.6087688225998
30
0
41
1
10
8.04327957145858
20
13.6085764432045
30
0
41
1
10
8.04162626511243
20
13.608564188359
30
0
41
1
10
8.03997410084696
20
13.6085495768637
30
0
0
SPLINE
5
238
100
AcDbEntity
8
1
62
256
6
ByLayer
370
-1
48
1
60
0
100
AcDbSpline
70
4
71
3
72
22
73
18
40
0
40
0
40
0
40
0
40
0.153101873520364
40
0.153101873520364
40
0.442621285364901
40
0.442621285364901
40
0.707385074439712
40
0.707385074439712
40
0.843532608240151
40
0.843532608240151
40
0.926352665771246
40
0.926352665771246
40
0.963706736955277
40
0.963706736955277
40
0.97786395536068
40
0.97786395536068
40
1
40
1
40
1
40
1
41
1
10
12.1379011832916
20
6.79514800322912
30
0
41
1
10
12.1588968100483
20
6.79700834601545
30
0
41
1
10
12.1799124561008
20
6.79865813135115
30
0
41
1
10
12.2407019387024
20
6.80264719576422
30
0
41
1
10
12.280552484356
20
6.80435078453931
30
0
41
1
10
12.356794610955
20
6.80427620672296
30
0
41
1
10
12.3933537883596
20
6.80297707229224
30
0
41
1
10
12.4479590509651
20
6.79541034115564
30
0
41
1
10
12.4665266686894
20
6.79188515874921
30
0
41
1
10
12.4950466527117
20
6.78224420513502
30
0
41
1
10
12.5057406826522
20
6.77763405744017
30
0
41
1
10
12.5191816978206
20
6.76795137382425
30
0
41
1
10
12.5231153340026
20
6.76443354848581
30
0
41
1
10
12.527567592355
20
6.758819859342
30
0
41
1
10
12.528700219068
20
6.75718043626051
30
0
41
1
10
12.5312574735021
20
6.75280331427814
30
0
41
1
10
12.5325055375342
20
6.74992535731317
30
0
41
1
10
12.5333535324172
20
6.74695427122251
30
0
0
SPLINE
5
239
100
AcDbEntity
8
1
62
256
6
ByLayer
370
-1
48
1
60
0
100
AcDbSpline
70
4
71
3
72
8
73
4
40
0
40
0
40
0
40
0
40
1
40
1
40
1
40
1
41
1
10
12.2710390582077
20
6.87134345862538
30
0
41
1
10
12.1528426535243
20
6.88032733724188
30
0
41
1
10
12.0337415149094
20
6.87576578290265
30
0
41
1
10
11.9155750821125
20
6.86709553189644
30
0
0
SPLINE
5
23A
100
AcDbEntity
8
1
62
256
6
ByLayer
370
-1
48
1
60
0
100
AcDbSpline
70
4
71
3
72
22
73
18
40
0
40
0
40
0
40
0
40
0.0236324717629685
40
0.0236324717629685
40
0.0629814022064465
40
0.0629814022064465
40
0.0762359204463546
40
0.0762359204463546
40
0.13409917281462
40
0.13409917281462
40
0.288877504287543
40
0.288877504287543
40
0.442933094377626
40
0.442933094377626
40
0.668543354429512
40
0.668543354429512
40
1
40
1
40
1
40
1
41
1
10
18.766507717438
20
7.61597551409861
30
0
41
1
10
18.7699457524359
20
7.61960147045124
30
0
41
1
10
18.7742275605236
20
7.62248742735488
30
0
41
1
10
18.7862433964968
20
7.62781669763078
30
0
41
1
10
18.7946335889957
20
7.62904419243466
30
0
41
1
10
18.8055617799437
20
7.62927451204314
30
0
41
1
10
18.8083468925279
20
7.62920976678186
30
0
41
1
10
18.8231774805223
20
7.62834814741225
30
0
41
1
10
18.8351347314797
20
7.62592393303731
30
0
41
1
10
18.8779419379251
20
7.6145135134683
30
0
41
1
10
18.9077783738954
20
7.60138126103186
30
0
41
1
10
18.9657172358596
20
7.57304556225594
30
0
41
1
10
18.9939512899376
20
7.55739924487796
30
0
41
1
10
19.0624390171051
20
7.5170882043054
30
0
41
1
10
19.1022358513631
20
7.49152487624258
30
0
41
1
10
19.1991162542098
20
7.42640723718267
30
0
41
1
10
19.255590480622
20
7.38583418492584
30
0
41
1
10
19.3113325293139
20
7.34429089227558
30
0
0
SPLINE
5
23B
100
AcDbEntity
8
1
62
256
6
ByLayer
370
-1
48
1
60
0
100
AcDbSpline
70
4
71
3
72
18
73
14
40
0
40
0
40
0
40
0
40
0.0414544517087743
40
0.0414544517087743
40
0.132910922468115
40
0.132910922468115
40
0.263177731540042
40
0.263177731540042
40
0.458562667326541
40
0.458562667326541
40
0.817425847463281
40
0.817425847463281
40
1
40
1
40
1
40
1
41
1
10
18.3199809582651
20
7.18227264206945
30
0
41
1
10
18.3168487364451
20
7.17896921449724
30
0
41
1
10
18.3139943402734
20
7.17537180231727
30
0
41
1
10
18.3059521826709
20
7.16327227140664
30
0
41
1
10
18.3019356413178
20
7.15384573479878
30
0
41
1
10
18.2954755895609
20
7.1304746499307
30
0
41
1
10
18.294190661994
20
7.11597423416134
30
0
41
1
10
18.2945498355201
20
7.08028876999921
30
0
41
1
10
18.29788944596
20
7.05886767936585
30
0
41
1
10
18.3112803091129
20
6.99963427224648
30
0
41
1
10
18.3247204697767
20
6.96237742885546
30
0
41
1
10
18.347586142223
20
6.9076670153062
30
0
41
1
10
18.3558365503676
20
6.88940915036898
30
0
41
1
10
18.3644608187356
20
6.87134345861594
30
0
0
SPLINE
5
23C
100
AcDbEntity
8
1
62
256
6
ByLayer
370
-1
48
1
60
0
100
AcDbSpline
70
4
71
3
72
18
73
14
40
0
40
0
40
0
40
0
40
0.0414544517087065
40
0.0414544517087065
40
0.132910922468083
40
0.132910922468083
40
0.263177731540032
40
0.263177731540032
40
0.458562667326493
40
0.458562667326493
40
0.817425847463264
40
0.817425847463264
40
1
40
1
40
1
40
1
41
1
10
15.0588906679689
20
12.0352594175525
30
0
41
1
10
15.063282831146
20
12.0341484384855
30
0
41
1
10
15.0677861218918
20
12.0334279598254
30
0
41
1
10
15.0821492363805
20
12.032374859159
30
0
41
1
10
15.0922089067708
20
12.0335318214053
30
0
41
1
10
15.115391478171
20
12.0394759897549
30
0
41
1
10
15.1284062032804
20
12.0455583608514
30
0
41
1
10
15.1586654591647
20
12.0636232391733
30
0
41
1
10
15.1752591298725
20
12.0772139336647
30
0
41
1
10
15.2190547893921
20
12.1184491629929
30
0
41
1
10
15.2440796099384
20
12.1487971345886
30
0
41
1
10
15.2792548732985
20
12.1961135147563
30
0
41
1
10
15.2906820174216
20
12.2124487436356
30
0
41
1
10
15.30175732603
20
12.2290171088944
30
0
0
SPLINE
5
23D
100
AcDbEntity
8
1
62
256
6
ByLayer
370
-1
48
1
60
0
100
AcDbSpline
70
4
71
3
72
8
73
4
40
0
40
0
40
0
40
0
40
1
40
1
40
1
40
1
41
1
10
15.2972434471147
20
12.3802018760757
30
0
41
1
10
15.3000851135043
20
12.3317567534125
30
0
41
1
10
15.3016047127857
20
12.2801439562147
30
0
41
1
10
15.301757326011
20
12.2290171089092
30
0
0
SPLINE
5
23E
100
AcDbEntity
8
1
62
256
6
ByLayer
370
-1
48
1
60
0
100
AcDbSpline
70
4
71
3
72
22
73
18
40
0
40
0
40
0
40
0
40
0.0236324717629874
40
0.0236324717629874
40
0.0629814022064251
40
0.0629814022064251
40
0.0762359204463668
40
0.0762359204463668
40
0.134099172814624
40
0.134099172814624
40
0.288877504287532
40
0.288877504287532
40
0.442933094377624
40
0.442933094377624
40
0.668543354429523
40
0.668543354429523
40
1
40
1
40
1
40
1
41
1
10
12.705684675378
20
6.1431644699413
30
0
41
1
10
12.7070676305867
20
6.13831906454138
30
0
41
1
10
12.7073838070847
20
6.13309215134007
30
0
41
1
10
12.7058817279384
20
6.11979646360177
30
0
41
1
10
12.7026814147834
20
6.11174831946474
30
0
41
1
10
12.6973323280492
20
6.10194375342002
30
0
41
1
10
12.6958625790333
20
6.0995061716412
30
0
41
1
10
12.6875903067178
20
6.08678227518729
30
0
41
1
10
12.6794285314461
20
6.07738055454163
30
0
41
1
10
12.6478521974516
20
6.04507565435819
30
0
41
1
10
12.6213747438295
20
6.02512539972858
30
0
41
1
10
12.5675121928508
20
5.98778811313269
30
0
41
1
10
12.5396781894172
20
5.97050382088114
30
0
41
1
10
12.4701256026897
20
5.929744389723
30
0
41
1
10
12.4278630987594
20
5.90711922180267
30
0
41
1
10
12.3224869964184
20
5.85346972793195
30
0
41
1
10
12.2588026440224
20
5.8234896944158
30
0
41
1
10
12.1946509277921
20
5.79463825126172
30
0
0
SPLINE
5
23F
100
AcDbEntity
8
1
62
256
6
ByLayer
370
-1
48
1
60
0
100
AcDbSpline
70
4
71
3
72
20
73
16
40
0
40
0
40
0
40
0
40
0.314859192648747
40
0.314859192648747
40
0.531558880441045
40
0.531558880441045
40
0.682135903694799
40
0.682135903694799
40
0.839619845966475
40
0.839619845966475
40
0.90311267377598
40
0.90311267377598
40
0.967902128209763
40
0.967902128209763
40
1
40
1
40
1
40
1
41
1
10
14.3226304619828
20
12.8351658372622
30
0
41
1
10
14.3201904316569
20
12.7627470222941
30
0
41
1
10
14.3195458769559
20
12.6901955875529
30
0
41
1
10
14.3237105508066
20
12.5679108299595
30
0
41
1
10
14.3268634232548
20
12.5180405587301
30
0
41
1
10
14.3365782379965
20
12.434056033233
30
0
41
1
10
14.3417970877689
20
12.3996973855139
30
0
41
1
10
14.3569604672651
20
12.3305622312652
30
0
41
1
10
14.3669376402006
20
12.2952934269416
30
0
41
1
10
14.3888812610731
20
12.2496120259937
30
0
41
1
10
14.3962432731255
20
12.2368125647838
30
0
41
1
10
14.4141238922815
20
12.2135838549707
30
0
41
1
10
14.4250459246588
20
12.2028894144207
30
0
41
1
10
14.4441137134831
20
12.1918848302578
30
0
41
1
10
14.4510293160944
20
12.1890153711245
30
0
41
1
10
14.4581432632414
20
12.1872159283336
30
0
0
SPLINE
5
240
100
AcDbEntity
8
1
62
256
6
ByLayer
370
-1
48
1
60
0
100
AcDbSpline
70
4
71
3
72
10
73
6
40
0
40
0
40
0
40
0
40
0.736240194588375
40
0.736240194588375
40
1
40
1
40
1
40
1
41
1
10
11.0622363261623
20
12.7004472417737
30
0
41
1
10
11.0391048101081
20
12.6965757417659
30
0
41
1
10
11.0134036721682
20
12.6965918433501
30
0
41
1
10
10.9782917262391
20
12.7058529848712
30
0
41
1
10
10.9688497010485
20
12.7092549587177
30
0
41
1
10
10.9596597739147
20
12.7137269798219
30
0
0
SPLINE
5
241
100
AcDbEntity
8
1
62
256
6
ByLayer
370
-1
48
1
60
0
100
AcDbSpline
70
4
71
3
72
14
73
10
40
0
40
0
40
0
40
0
40
0.233926408286261
40
0.233926408286261
40
0.467719442169573
40
0.467719442169573
40
0.701444004412101
40
0.701444004412101
40
1
40
1
40
1
40
1
41
1
10
11.0783736954343
20
6.52994206959053
30
0
41
1
10
11.083103758819
20
6.51842389724186
30
0
41
1
10
11.0884810952849
20
6.50612631461428
30
0
41
1
10
11.1002696840114
20
6.48053757206384
30
0
41
1
10
11.1067214325401
20
6.46715746824401
30
0
41
1
10
11.1204513624186
20
6.43979545330237
30
0
41
1
10
11.1277749983244
20
6.42572238313238
30
0
41
1
10
11.1451334487026
20
6.39345170651754
30
0
41
1
10
11.155450165975
20
6.37501862181171
30
0
41
1
10
11.1660335117076
20
6.356793249844
30
0
0
SPLINE
5
242
100
AcDbEntity
8
1
62
256
6
ByLayer
370
-1
48
1
60
0
100
AcDbSpline
70
4
71
3
72
8
73
4
40
0
40
0
40
0
40
0
40
1
40
1
40
1
40
1
41
1
10
11.9165225726914
20
6.76910555514229
30
0
41
1
10
11.9900954329042
20
6.77951545917384
30
0
41
1
10
12.0638932886788
20
6.78859044462621
30
0
41
1
10
12.1379011833139
20
6.79514800323111
30
0
0
SPLINE
5
243
100
AcDbEntity
8
1
62
256
6
ByLayer
370
-1
48
1
60
0
100
AcDbSpline
70
4
71
3
72
10
73
6
40
0
40
0
40
0
40
0
40
0.736240194588513
40
0.736240194588513
40
1
40
1
40
1
40
1
41
1
10
20.776551146797
20
10.2902204795318
30
0
41
1
10
20.7784896353008
20
10.3079473052886
30
0
41
1
10
20.7851497504388
20
10.3260721920109
30
0
41
1
10
20.8032016428419
20
10.3469699299443
30
0
41
1
10
20.8089346829086
20
10.3522049931998
30
0
41
1
10
20.8155974118046
20
10.3567841155855
30
0
0
SPLINE
5
244
100
AcDbEntity
8
1
62
256
6
ByLayer
370
-1
48
1
60
0
100
AcDbSpline
70
4
71
3
72
14
73
10
40
0
40
0
40
0
40
0
40
0.249103078948809
40
0.249103078948809
40
0.498160925944153
40
0.498160925944153
40
0.745586162481389
40
0.745586162481389
40
1
40
1
40
1
40
1
41
1
10
19.6120392675615
20
6.74841113742929
30
0
41
1
10
19.6210094807564
20
6.76404561781141
30
0
41
1
10
19.6302456030808
20
6.7797034813386
30
0
41
1
10
19.6488540524728
20
6.81041079706685
30
0
41
1
10
19.658290858181
20
6.82556691206449
30
0
41
1
10
19.6769836691531
20
6.85477908190745
30
0
41
1
10
19.6863031512497
20
6.86893971603644
30
0
41
1
10
19.7048344536595
20
6.89628113536361
30
0
41
1
10
19.7141013242126
20
6.90951962416418
30
0
41
1
10
19.7230436930951
20
6.92185137583002
30
0
0
SPLINE
5
245
100
AcDbEntity
8
1
62
256
6
ByLayer
370
-1
48
1
60
0
100
AcDbSpline
70
4
71
3
72
8
73
4
40
0
40
0
40
0
40
0
40
1
40
1
40
1
40
1
41
1
10
15.301757326011
20
12.2290171089091
30
0
41
1
10
15.3682085833108
20
12.3284264113203
30
0
41
1
10
15.4235555466935
20
12.4354394732922
30
0
41
1
10
15.4749328823946
20
12.5436958220738
30
0
0
SPLINE
5
246
100
AcDbEntity
8
1
62
256
6
ByLayer
370
-1
48
1
60
0
100
AcDbSpline
70
4
71
3
72
8
73
4
40
0
40
0
40
0
40
0
40
1
40
1
40
1
40
1
41
1
10
15.3820132562623
20
12.5856667112271
30
0
41
1
10
15.3553469489837
20
12.5165071262066
30
0
41
1
10
15.3274257559867
20
12.4478175544343
30
0
41
1
10
15.2972434471147
20
12.3802018760757
30
0
0
SPLINE
5
247
100
AcDbEntity
8
1
62
256
6
ByLayer
370
-1
48
1
60
0
100
AcDbSpline
70
4
71
3
72
8
73
4
40
0
40
0
40
0
40
0
40
1
40
1
40
1
40
1
41
1
10
18.6199037594807
20
6.61506895534424
30
0
41
1
10
18.5752209888908
20
6.67403877431241
30
0
41
1
10
18.5315590002877
20
6.73387259697012
30
0
41
1
10
18.4899283921344
20
6.79514800324776
30
0
0
SPLINE
5
248
100
AcDbEntity
8
1
62
256
6
ByLayer
370
-1
48
1
60
0
100
AcDbSpline
70
4
71
3
72
22
73
18
40
0
40
0
40
0
40
0
40
0.0236324717629576
40
0.0236324717629576
40
0.0629814022064202
40
0.0629814022064202
40
0.0762359204463623
40
0.0762359204463623
40
0.134099172814613
40
0.134099172814613
40
0.288877504287519
40
0.288877504287519
40
0.442933094377611
40
0.442933094377611
40
0.668543354429521
40
0.668543354429521
40
1
40
1
40
1
40
1
41
1
10
14.4638778378159
20
12.2124465406504
30
0
41
1
10
14.4590568476092
20
12.2136659896977
30
0
41
1
10
14.4544251344382
20
12.2160036071153
30
0
41
1
10
14.4437594009034
20
12.2239549800093
30
0
41
1
10
14.4384117785283
20
12.2307600139509
30
0
41
1
10
14.4325988285852
20
12.2403111113922
30
0
41
1
10
14.4312213080259
20
12.2428072853506
30
0
41
1
10
14.4243212803831
20
12.256358974221
30
0
41
1
10
14.4202143850813
20
12.2681540810064
30
0
41
1
10
14.4078115551139
20
12.3117533856462
30
0
41
1
10
14.4035274745432
20
12.3447443148409
30
0
41
1
10
14.3975938236935
20
12.4102334373246
30
0
41
1
10
14.3962494980284
20
12.443070570722
30
0
41
1
10
14.3949722935401
20
12.523909195461
30
0
41
1
10
14.3960303457697
20
12.5719583477444
30
0
41
1
10
14.401034014617
20
12.6903797955086
30
0
41
1
10
14.4061494570511
20
12.7607255231268
30
0
41
1
10
14.4124561313284
20
12.8309120781764
30
0
0
SPLINE
5
249
100
AcDbEntity
8
1
62
256
6
ByLayer
370
-1
48
1
60
0
100
AcDbSpline
70
4
71
3
72
14
73
10
40
0
40
0
40
0
40
0
40
0.233926408286268
40
0.233926408286268
40
0.467719442169476
40
0.467719442169476
40
0.701444004412114
40
0.701444004412114
40
1
40
1
40
1
40
1
41
1
10
15.5577514734035
20
13.4158089055434
30
0
41
1
10
15.5430941767232
20
13.4156351769736
30
0
41
1
10
15.5277198620162
20
13.4154803481434
30
0
41
1
10
15.4962325466908
20
13.4152143446794
30
0
41
1
10
15.4800096964521
20
13.4151022005025
30
0
41
1
10
15.447284714498
20
13.414923109578
30
0
41
1
10
15.4306733146694
20
13.4148555391937
30
0
41
1
10
15.3930563841546
20
13.414753508319
30
0
41
1
10
15.3719067463472
20
13.4147328477355
30
0
41
1
10
15.3513170096238
20
13.4147482924727
30
0
0
SPLINE
5
24A
100
AcDbEntity
8
1
62
256
6
ByLayer
370
-1
48
1
60
0
100
AcDbSpline
70
4
71
3
72
18
73
14
40
0
40
0
40
0
40
0
40
0.041454451708787
40
0.041454451708787
40
0.132910922468114
40
0.132910922468114
40
0.263177731540067
40
0.263177731540067
40
0.45856266732657
40
0.45856266732657
40
0.817425847463302
40
0.817425847463302
40
1
40
1
40
1
40
1
41
1
10
12.5583855767422
20
6.75417196653777
30
0
41
1
10
12.557125635385
20
6.75858637317697
30
0
41
1
10
12.555476740811
20
6.76290426401712
30
0
41
1
10
12.5491557839249
20
6.77605689559408
30
0
41
1
10
12.5431126548876
20
6.78432646995572
30
0
41
1
10
12.5263901352444
20
6.8017533864741
30
0
41
1
10
12.5146603377018
20
6.81017143114696
30
0
41
1
10
12.4840419082914
20
6.82779201698725
30
0
41
1
10
12.4641086271437
20
6.83562241312924
30
0
41
1
10
12.4069221044712
20
6.85362059092034
30
0
41
1
10
12.3684571232611
20
6.86052946271565
30
0
41
1
10
12.3104161874548
20
6.86792349609726
30
0
41
1
10
12.290738635187
20
6.86984613215512
30
0
41
1
10
12.2710390582107
20
6.87134345864945
30
0
0
SPLINE
5
24B
100
AcDbEntity
8
1
62
256
6
ByLayer
370
-1
48
1
60
0
100
AcDbSpline
70
4
71
3
72
14
73
10
40
0
40
0
40
0
40
0
40
0.314392366702037
40
0.314392366702037
40
0.632200716155229
40
0.632200716155229
40
0.912513196202077
40
0.912513196202077
40
1
40
1
40
1
40
1
41
1
10
8.73429725277146
20
12.6513620722912
30
0
41
1
10
8.72349738272814
20
12.6514622393572
30
0
41
1
10
8.71246010058601
20
12.6500367661027
30
0
41
1
10
8.69155923327602
20
12.6433136579105
30
0
41
1
10
8.68144876619175
20
12.6378289860087
30
0
41
1
10
8.66511082616836
20
12.6244703666378
30
0
41
1
10
8.65836174419084
20
12.6168327045761
30
0
41
1
10
8.65099258775427
20
12.6059603531467
30
0
41
1
10
8.64932822944309
20
12.6032820334103
30
0
41
1
10
8.64776315479287
20
12.6005494526745
30
0
0
SPLINE
5
24C
100
AcDbEntity
8
1
62
256
6
ByLayer
370
-1
48
1
60
0
100
AcDbSpline
70
4
71
3
72
22
73
18
40
0
40
0
40
0
40
0
40
0.153101873520346
40
0.153101873520346
40
0.442621285364888
40
0.442621285364888
40
0.707385074439659
40
0.707385074439659
40
0.843532608240133
40
0.843532608240133
40
0.926352665771209
40
0.926352665771209
40
0.963706736955243
40
0.963706736955243
40
0.977863955360644
40
0.977863955360644
40
1
40
1
40
1
40
1
41
1
10
18.489928392147
20
6.79514800322931
30
0
41
1
10
18.4781180209053
20
6.81253149408408
30
0
41
1
10
18.4664763684047
20
6.83003769315491
30
0
41
1
10
18.433465857804
20
6.88106715503829
30
0
41
1
10
18.4125985297298
20
6.91497503614198
30
0
41
1
10
18.3755029275846
20
6.9815132154479
30
0
41
1
10
18.3587865564736
20
7.01405042393313
30
0
41
1
10
18.3385926706162
20
7.06545850272477
30
0
41
1
10
18.3325340328274
20
7.0834145742798
30
0
41
1
10
18.3268143849706
20
7.11310579266475
30
0
41
1
10
18.3255141777621
20
7.12473595451871
30
0
41
1
10
18.3271798446854
20
7.14129530245759
30
0
41
1
10
18.3282478852931
20
7.14648316967711
30
0
41
1
10
18.3308418202328
20
7.15317002681186
30
0
41
1
10
18.3316810549948
20
7.15497665651225
30
0
41
1
10
18.3341492634575
20
7.15939306495207
30
0
41
1
10
18.3359833352774
20
7.16191887435249
30
0
41
1
10
18.3380914556756
20
7.16414222360723
30
0
0
SPLINE
5
24D
100
AcDbEntity
8
1
62
256
6
ByLayer
370
-1
48
1
60
0
100
AcDbSpline
70
4
71
3
72
14
73
10
40
0
40
0
40
0
40
0
40
0.23392640828628
40
0.23392640828628
40
0.46771944216954
40
0.46771944216954
40
0.701444004412136
40
0.701444004412136
40
1
40
1
40
1
40
1
41
1
10
19.2034797209074
20
6.01628619538644
30
0
41
1
10
19.2081420581464
20
6.02745691059556
30
0
41
1
10
19.2134469025687
20
6.03944483556279
30
0
41
1
10
19.2250843149529
20
6.06450157118513
30
0
41
1
10
19.2314568539773
20
6.07765738665117
30
0
41
1
10
19.2450245022396
20
6.10466121974389
30
0
41
1
10
19.2522645255384
20
6.11859914914527
30
0
41
1
10
19.2694309296225
20
6.15066576401057
30
0
41
1
10
19.2796377250209
20
6.16905752754946
30
0
41
1
10
19.2901121733732
20
6.18731378899156
30
0
0
SPLINE
5
24E
100
AcDbEntity
8
1
62
256
6
ByLayer
370
-1
48
1
60
0
100
AcDbSpline
70
4
71
3
72
20
73
16
40
0
40
0
40
0
40
0
40
0.314859192648758
40
0.314859192648758
40
0.53155888044108
40
0.53155888044108
40
0.682135903694838
40
0.682135903694838
40
0.839619845966541
40
0.839619845966541
40
0.903112673776023
40
0.903112673776023
40
0.967902128209806
40
0.967902128209806
40
1
40
1
40
1
40
1
41
1
10
19.3685007624709
20
7.42758074293428
30
0
41
1
10
19.3079409531709
20
7.46612562837896
30
0
41
1
10
19.2463749934301
20
7.50315849024065
30
0
41
1
10
19.1399943995627
20
7.56096000221197
30
0
41
1
10
19.0958867789756
20
7.58325384589762
30
0
41
1
10
19.0194158699514
20
7.61692472913529
30
0
41
1
10
18.9875121345426
20
7.62960552811842
30
0
41
1
10
18.9209977920736
20
7.65102207283519
30
0
41
1
10
18.8859510178996
20
7.6599765578176
30
0
41
1
10
18.836070456993
20
7.66364310639639
30
0
41
1
10
18.8214908024017
20
7.6636033416398
30
0
41
1
10
18.7927832773574
20
7.65955703196428
30
0
41
1
10
18.7782285437276
20
7.65532906520568
30
0
41
1
10
18.7593577577477
20
7.64409478435476
30
0
41
1
10
18.753470451499
20
7.63945646446047
30
0
41
1
10
18.7483972200223
20
7.63410593256887
30
0
0
SPLINE
5
24F
100
AcDbEntity
8
1
62
256
6
ByLayer
370
-1
48
1
60
0
100
AcDbSpline
70
4
71
3
72
14
73
10
40
0
40
0
40
0
40
0
40
0.249103078948866
40
0.249103078948866
40
0.498160925944217
40
0.498160925944217
40
0.745586162481363
40
0.745586162481363
40
1
40
1
40
1
40
1
41
1
10
14.7185014292196
20
13.4152229789861
30
0
41
1
10
14.7008685838589
20
13.4152362057051
30
0
41
1
10
14.6835069512632
20
13.4152759298516
30
0
41
1
10
14.6500418046866
20
13.4154057520155
30
0
41
1
10
14.6338218618409
20
13.4154962843662
30
0
41
1
10
14.6031534243056
20
13.4157236447202
30
0
41
1
10
14.5885910787466
20
13.4158609255957
30
0
41
1
10
14.5611071717836
20
13.4161823217752
30
0
41
1
10
14.5481463929905
20
13.4163687869506
30
0
41
1
10
14.5364389385078
20
13.416575010711
30
0
0
SPLINE
5
250
100
AcDbEntity
8
1
62
256
6
ByLayer
370
-1
48
1
60
0
100
AcDbSpline
70
4
71
3
72
8
73
4
40
0
40
0
40
0
40
0
40
1
40
1
40
1
40
1
41
1
10
18.3644608187576
20
6.87134345862529
30
0
41
1
10
18.4162059661413
20
6.76295027759758
30
0
41
1
10
18.4799601413733
20
6.66049876996493
30
0
41
1
10
18.5467492384691
20
6.56091267218949
30
0
0
SPLINE
5
251
100
AcDbEntity
8
1
62
256
6
ByLayer
370
-1
48
1
60
0
100
AcDbSpline
70
4
71
3
72
10
73
6
40
0
40
0
40
0
40
0
40
0.638746828356558
40
0.638746828356558
40
1
40
1
40
1
40
1
41
1
10
12.1379011833033
20
6.79514800321888
30
0
41
1
10
12.0157236791305
20
6.72704633758096
30
0
41
1
10
11.8927330906366
20
6.65784006690942
30
0
41
1
10
11.7002530358133
20
6.54881555792085
30
0
41
1
10
11.6306087432776
20
6.50921513155501
30
0
41
1
10
11.5610318611876
20
6.46950494655113
30
0
0
SPLINE
5
252
100
AcDbEntity
8
1
62
256
6
ByLayer
370
-1
48
1
60
0
100
AcDbSpline
70
4
71
3
72
20
73
16
40
0
40
0
40
0
40
0
40
0.314859192648779
40
0.314859192648779
40
0.531558880441082
40
0.531558880441082
40
0.682135903694834
40
0.682135903694834
40
0.839619845966518
40
0.839619845966518
40
0.903112673776014
40
0.903112673776014
40
0.967902128209804
40
0.967902128209804
40
1
40
1
40
1
40
1
41
1
10
12.2461259785225
20
5.70895744596328
30
0
41
1
10
12.3091258181484
20
5.74283137548673
30
0
41
1
10
12.3713363325902
20
5.77834994836621
30
0
41
1
10
12.4735522526069
20
5.84283319398827
30
0
41
1
10
12.5145070007458
20
5.87040962153202
30
0
41
1
10
12.5812630950283
20
5.92072326379147
30
0
41
1
10
12.6079479806648
20
5.94240111252742
30
0
41
1
10
12.6592989436375
20
5.99011972205935
30
0
41
1
10
12.684368544876
20
6.0164340414006
30
0
41
1
10
12.7123054849101
20
6.05844889376968
30
0
41
1
10
12.719523127449
20
6.07128811973618
30
0
41
1
10
12.7303500333373
20
6.09856313922475
30
0
41
1
10
12.7339827345899
20
6.11348554653335
30
0
41
1
10
12.7337857317455
20
6.13572441154716
30
0
41
1
10
12.7327574353828
20
6.14323219057479
30
0
41
1
10
12.7307167197126
20
6.15038216525724
30
0
0
SPLINE
5
253
100
AcDbEntity
8
1
62
256
6
ByLayer
370
-1
48
1
60
0
100
AcDbSpline
70
4
71
3
72
12
73
8
40
0
40
0
40
0
40
0
40
0.197891272102657
40
0.197891272102657
40
0.598376100017382
40
0.598376100017382
40
1
40
1
40
1
40
1
41
1
10
15.2972434471235
20
12.3802018760939
30
0
41
1
10
15.2948068805631
20
12.4217408006914
30
0
41
1
10
15.2924979785404
20
12.4635333496609
30
0
41
1
10
15.2858518359842
20
12.5904713747161
30
0
41
1
10
15.2818516504565
20
12.676238822128
30
0
41
1
10
15.2746068477848
20
12.8490045924211
30
0
41
1
10
15.2713635505205
20
12.9360744914751
30
0
41
1
10
15.2684960364114
20
13.0235232899866
30
0
0
SPLINE
5
254
100
AcDbEntity
8
1
62
256
6
ByLayer
370
-1
48
1
60
0
100
AcDbSpline
70
4
71
3
72
22
73
18
40
0
40
0
40
0
40
0
40
0.153101873520363
40
0.153101873520363
40
0.442621285364914
40
0.442621285364914
40
0.70738507443969
40
0.70738507443969
40
0.843532608240195
40
0.843532608240195
40
0.926352665771266
40
0.926352665771266
40
0.96370673695526
40
0.96370673695526
40
0.977863955360666
40
0.977863955360666
40
1
40
1
40
1
40
1
41
1
10
15.2972434471238
20
12.380201876096
30
0
41
1
10
15.288680894509
20
12.3610196854293
30
0
41
1
10
15.2799280442386
20
12.3419251896065
30
0
41
1
10
15.2539381446065
20
12.2870837682218
30
0
41
1
10
15.2361187741944
20
12.2515875105912
30
0
41
1
10
15.1991686598748
20
12.1853413374348
30
0
41
1
10
15.1803674079052
20
12.1542063695429
30
0
41
1
10
15.1474637595473
20
12.1105142758298
30
0
41
1
10
15.1354593224181
20
12.0961333326816
30
0
41
1
10
15.1133989190819
20
12.0761563157798
30
0
41
1
10
15.1042742877118
20
12.0691629495714
30
0
41
1
10
15.0894740190079
20
12.0623166179041
30
0
41
1
10
15.084556402019
20
12.0606548973206
30
0
41
1
10
15.0775919808997
20
12.0595898241691
30
0
41
1
10
15.0756391904923
20
12.0594245054446
30
0
41
1
10
15.070651253402
20
12.059388933764
30
0
41
1
10
15.0675813578204
20
12.0597422930246
30
0
41
1
10
15.0646252425393
20
12.0604900298606
30
0
0
SPLINE
5
255
100
AcDbEntity
8
1
62
256
6
ByLayer
370
-1
48
1
60
0
100
AcDbSpline
70
4
71
3
72
14
73
10
40
0
40
0
40
0
40
0
40
0.314392366702153
40
0.314392366702153
40
0.632200716155301
40
0.632200716155301
40
0.912513196202246
40
0.912513196202246
40
1
40
1
40
1
40
1
41
1
10
15.1004112139908
20
0.938086915932701
30
0
41
1
10
15.1060282161618
20
0.928414967365342
30
0
41
1
10
15.1130069240642
20
0.919320264422339
30
0
41
1
10
15.1294832422306
20
0.904178175975261
30
0
41
1
10
15.1392626939448
20
0.898007570520662
30
0
41
1
10
15.1587092382612
20
0.890360407296924
30
0
41
1
10
15.1684600443444
20
0.888297062925972
30
0
41
1
10
15.1811595403994
20
0.887353644220326
30
0
41
1
10
15.1842083055523
20
0.887255725074311
30
0
41
1
10
15.1872486624857
20
0.887274296315923
30
0
0
SPLINE
5
256
100
AcDbEntity
8
1
62
256
6
ByLayer
370
-1
48
1
60
0
100
AcDbSpline
70
4
71
3
72
14
73
10
40
0
40
0
40
0
40
0
40
0.249103078948785
40
0.249103078948785
40
0.498160925944181
40
0.498160925944181
40
0.745586162481424
40
0.745586162481424
40
1
40
1
40
1
40
1
41
1
10
11.4913075141103
20
5.79664527443308
30
0
41
1
10
11.5003709859366
20
5.78103724748902
30
0
41
1
10
11.5097003483002
20
5.76545883225481
30
0
41
1
10
11.5284913448337
20
5.73501116085441
30
0
41
1
10
11.5380180918264
20
5.72003611055817
30
0
41
1
10
11.5568839416418
20
5.6912786614231
30
0
41
1
10
11.5662871429303
20
5.67739258904521
30
0
41
1
10
11.5849797544408
20
5.65069396207707
30
0
41
1
10
11.5943245453636
20
5.6378284036272
30
0
41
1
10
11.6033393034514
20
5.6259090994821
30
0
0
SPLINE
5
257
100
AcDbEntity
8
1
62
256
6
ByLayer
370
-1
48
1
60
0
100
AcDbSpline
70
4
71
3
72
10
73
6
40
0
40
0
40
0
40
0
40
0.736240194588502
40
0.736240194588502
40
1
40
1
40
1
40
1
41
1
10
13.8889605083818
20
2.96029644387551
30
0
41
1
10
13.896853215546
20
2.94512448493188
30
0
41
1
10
13.9028644750704
20
2.92569364658036
30
0
41
1
10
13.9044000247864
20
2.89399795624814
30
0
41
1
10
13.9041489898478
20
2.88496890649429
30
0
41
1
10
13.9030183547821
20
2.8755556646031
30
0
0
SPLINE
5
258
100
AcDbEntity
8
1
62
256
6
ByLayer
370
-1
48
1
60
0
100
AcDbSpline
70
4
71
3
72
10
73
6
40
0
40
0
40
0
40
0
40
0.388885978133104
40
0.388885978133104
40
1
40
1
40
1
40
1
41
1
10
18.3644608187576
20
6.87134345862535
30
0
41
1
10
18.3815224951181
20
6.86135988027337
30
0
41
1
10
18.3983937618763
20
6.85133857773076
30
0
41
1
10
18.4408221219805
20
6.82578400565845
30
0
41
1
10
18.4660978266219
20
6.81022160609564
30
0
41
1
10
18.4899283921469
20
6.7951480032292
30
0
0
SPLINE
5
259
100
AcDbEntity
8
1
62
256
6
ByLayer
370
-1
48
1
60
0
100
AcDbSpline
70
4
71
3
72
10
73
6
40
0
40
0
40
0
40
0
40
0.638746828356573
40
0.638746828356573
40
1
40
1
40
1
40
1
41
1
10
18.4899283921488
20
6.79514800324523
30
0
41
1
10
18.5975935084275
20
6.72704633760731
30
0
41
1
10
18.7086483266574
20
6.65784006690942
30
0
41
1
10
18.8853906097323
20
6.54881555792085
30
0
41
1
10
18.9499664896553
20
6.50921513155498
30
0
41
1
10
19.0150875950261
20
6.46950494655113
30
0
0
SPLINE
5
25A
100
AcDbEntity
8
1
62
256
6
ByLayer
370
-1
48
1
60
0
100
AcDbSpline
70
4
71
1
72
5
73
3
40
0
40
0
40
0.884800837966258
40
1
40
1
41
1.06363569285907
10
12.3237934544852
20
1.94599972396773
30
0
41
1.06363569285907
10
12.8143491704961
20
2.09103263168045
30
0
41
1.06363569285907
10
12.8782184673938
20
2.10991560366569
30
0
0
SPLINE
5
25B
100
AcDbEntity
8
1
62
256
6
ByLayer
370
-1
48
1
60
0
100
AcDbSpline
70
4
71
3
72
30
73
26
40
0
40
0
40
0
40
0
40
0.0511772287528937
40
0.0511772287528937
40
0.135075241067856
40
0.135075241067856
40
0.271834780652688
40
0.271834780652688
40
0.469061266911275
40
0.469061266911275
40
0.500636061959715
40
0.500636061959715
40
0.599800502489127
40
0.599800502489127
40
0.697557955314448
40
0.697557955314448
40
0.781333785463058
40
0.781333785463058
40
0.847844869822073
40
0.847844869822073
40
0.899113486931133
40
0.899113486931133
40
0.939077913069154
40
0.939077913069154
40
1
40
1
40
1
40
1
41
1
10
16.3875767289
20
7.6027613204956
30
0
41
1
10
16.376010375654
20
7.61180000077158
30
0
41
1
10
16.3625601139224
20
7.61888477325974
30
0
41
1
10
16.3254481836003
20
7.63278284848775
30
0
41
1
10
16.3001146080031
20
7.63697901181152
30
0
41
1
10
16.2336741431435
20
7.64036621674637
30
0
41
1
10
16.191151346138
20
7.63504384094628
30
0
41
1
10
16.0911795541317
20
7.61190360831489
30
0
41
1
10
16.0332229722701
20
7.58906955961808
30
0
41
1
10
15.9715919057841
20
7.55607045641028
30
0
41
1
10
15.9630988554583
20
7.5513053554908
30
0
41
1
10
15.9285084620185
20
7.53099152076078
30
0
41
1
10
15.9033692402904
20
7.51404701201321
30
0
41
1
10
15.8566243841256
20
7.47782510810114
30
0
41
1
10
15.8348135702297
20
7.45846594419157
30
0
41
1
10
15.7980763436575
20
7.42029583380443
30
0
41
1
10
15.7824974159837
20
7.40168733399017
30
0
41
1
10
15.7581465702856
20
7.36673884338583
30
0
41
1
10
15.748567701306
20
7.35062487345905
30
0
41
1
10
15.7346855108398
20
7.32115676461819
30
0
41
1
10
15.7296439977042
20
7.30793897097305
30
0
41
1
10
15.723180374747
20
7.28398142885661
30
0
41
1
10
15.7211930476699
20
7.2732754116511
30
0
41
1
10
15.7190199558851
20
7.24627855963092
30
0
41
1
10
15.7203123847687
20
7.2295591645491
30
0
41
1
10
15.7252455289397
20
7.21379533327817
30
0
0
SPLINE
5
25C
100
AcDbEntity
8
1
62
256
6
ByLayer
370
-1
48
1
60
0
100
AcDbSpline
70
4
71
3
72
30
73
26
40
0
40
0
40
0
40
0
40
0.0515194889309654
40
0.0515194889309654
40
0.0928771460762819
40
0.0928771460762819
40
0.148185150442122
40
0.148185150442122
40
0.203338923043169
40
0.203338923043169
40
0.28795570868253
40
0.28795570868253
40
0.372427214532443
40
0.372427214532443
40
0.435367147735031
40
0.435367147735031
40
0.498971020782812
40
0.498971020782812
40
0.70133434803882
40
0.70133434803882
40
0.838887327921167
40
0.838887327921167
40
0.925006664596921
40
0.925006664596921
40
1
40
1
40
1
40
1
41
1
10
14.9584482439285
20
7.21379533327817
30
0
41
1
10
14.9597816889689
20
7.22716878906729
30
0
41
1
10
14.9585019042678
20
7.24122910810377
30
0
41
1
10
14.9528736234204
20
7.26619149715305
30
0
41
1
10
14.9491552104474
20
7.2773355705404
30
0
41
1
10
14.9384835619227
20
7.30286152261613
30
0
41
1
10
14.9308167738376
20
7.31720695522759
30
0
41
1
10
14.9134978012716
20
7.34495970479591
30
0
41
1
10
14.9037899337379
20
7.35846301153219
30
0
41
1
10
14.8774063476943
20
7.3915382393256
30
0
41
1
10
14.8596599446507
20
7.41066817044612
30
0
41
1
10
14.8220862873646
20
7.44687798054548
30
0
41
1
10
14.8021307781486
20
7.46407800822482
30
0
41
1
10
14.7660396640423
20
7.49234377739987
30
0
41
1
10
14.7501661999906
20
7.5038983770489
30
0
41
1
10
14.717643650664
20
7.52596443108899
30
0
41
1
10
14.7009447770992
20
7.53649273484385
30
0
41
1
10
14.6308551077199
20
7.5774984587531
30
0
41
1
10
14.5745782938691
20
7.60301388848023
30
0
41
1
10
14.4813462838179
20
7.63073095753577
30
0
41
1
10
14.4430677411525
20
7.63804512957768
30
0
41
1
10
14.383779335297
20
7.63906590562971
30
0
41
1
10
14.3612305898993
20
7.63679405732395
30
0
41
1
10
14.3229983266089
20
7.6248491501847
30
0
41
1
10
14.3062930330123
20
7.61588185911651
30
0
41
1
10
14.2936020994203
20
7.60276132049543
30
0
0
SPLINE
5
25D
100
AcDbEntity
8
1
62
256
6
ByLayer
370
-1
48
1
60
0
100
AcDbSpline
70
4
71
3
72
24
73
20
40
0
40
0
40
0
40
0
40
0.0974021566269992
40
0.0974021566269992
40
0.180354031075349
40
0.180354031075349
40
0.307542616517187
40
0.307542616517187
40
0.412109117009491
40
0.412109117009491
40
0.516348967690729
40
0.516348967690729
40
0.620446917153265
40
0.620446917153265
40
0.724476829459836
40
0.724476829459836
40
0.933310901385992
40
0.933310901385992
40
1
40
1
40
1
40
1
41
1
10
15.7314347269186
20
7.19401794015155
30
0
41
1
10
15.7344563324564
20
7.18031675846279
30
0
41
1
10
15.7343387836858
20
7.16586532623282
30
0
41
1
10
15.728308446113
20
7.14064098338139
30
0
41
1
10
15.7232408085819
20
7.12934203921432
30
0
41
1
10
15.7065665576121
20
7.10320591769903
30
0
41
1
10
15.6927556974379
20
7.08917689279892
30
0
41
1
10
15.664747569262
20
7.06720001289347
30
0
41
1
10
15.6508297022551
20
7.05842524570605
30
0
41
1
10
15.6218099972217
20
7.0429440701763
30
0
41
1
10
15.6066172000834
20
7.03618391765997
30
0
41
1
10
15.5755122616337
20
7.02433096315787
30
0
41
1
10
15.5595449294227
20
7.0192171805804
30
0
41
1
10
15.5271542037438
20
7.01040732622914
30
0
41
1
10
15.5106940030836
20
7.00670172583418
30
0
41
1
10
15.460810711873
20
6.99746489415026
30
0
41
1
10
15.4268077486078
20
6.99379136170262
30
0
41
1
10
15.3817713093196
20
6.9918964561283
30
0
41
1
10
15.3708343045043
20
6.9916676571423
30
0
41
1
10
15.359887176052
20
6.9916676571423
30
0
0
SPLINE
5
25E
100
AcDbEntity
8
1
62
256
6
ByLayer
370
-1
48
1
60
0
100
AcDbSpline
70
4
71
3
72
8
73
4
40
0
40
0
40
0
40
0
40
1
40
1
40
1
40
1
41
1
10
14.9564763179399
20
7.19401794015153
30
0
41
1
10
14.9571336080463
20
7.20061036682984
30
0
41
1
10
14.9577909164574
20
7.20720283069434
30
0
41
1
10
14.9584482439285
20
7.21379533327817
30
0
0
SPLINE
5
25F
100
AcDbEntity
8
1
62
256
6
ByLayer
370
-1
48
1
60
0
100
AcDbSpline
70
4
71
3
72
22
73
18
40
0
40
0
40
0
40
0
40
0.142057608739059
40
0.142057608739059
40
0.351004812992608
40
0.351004812992608
40
0.487763342941736
40
0.487763342941736
40
0.591529353509314
40
0.591529353509314
40
0.758694969227017
40
0.758694969227017
40
0.858776631808854
40
0.858776631808854
40
0.96035991951735
40
0.96035991951735
40
1
40
1
40
1
40
1
41
1
10
15.359887176052
20
6.9916676571423
30
0
41
1
10
15.336594179202
20
6.9916676571423
30
0
41
1
10
15.3132177535998
20
6.99270033182924
30
0
41
1
10
15.2556447697914
20
6.99787801264986
30
0
41
1
10
15.2213511979423
20
7.00325527217592
30
0
41
1
10
15.1656046475822
20
7.01659065741921
30
0
41
1
10
15.1437098101847
20
7.02304659606898
30
0
41
1
10
15.1061145642269
20
7.03686184718788
30
0
41
1
10
15.0901329078743
20
7.04365233504635
30
0
41
1
10
15.0499847358607
20
7.06381679757123
30
0
41
1
10
15.0261181553653
20
7.07895083678173
30
0
41
1
10
14.9939102391247
20
7.10828015191584
30
0
41
1
10
14.9830061025852
20
7.12068468784835
30
0
41
1
10
14.9662047565702
20
7.14744257224424
30
0
41
1
10
14.9602359053769
20
7.1622491560525
30
0
41
1
10
14.9568483583243
20
7.18255181405058
30
0
41
1
10
14.9564076842506
20
7.18833480532956
30
0
41
1
10
14.9564763179398
20
7.19401794015155
30
0
0
SPLINE
5
260
100
AcDbEntity
8
1
62
256
6
ByLayer
370
-1
48
1
60
0
100
AcDbSpline
70
4
71
3
72
22
73
18
40
0
40
0
40
0
40
0
40
0.0973712659847356
40
0.0973712659847356
40
0.180296832630745
40
0.180296832630745
40
0.307445080803062
40
0.307445080803062
40
0.411978418514893
40
0.411978418514893
40
0.516185210011057
40
0.516185210011057
40
0.620250145291856
40
0.620250145291856
40
0.829289859625955
40
0.829289859625955
40
1
40
1
40
1
40
1
41
1
10
16.7874017719481
20
9.06151632672294
30
0
41
1
10
16.8013778189929
20
9.06718828924019
30
0
41
1
10
16.8144070294933
20
9.07598715808987
30
0
41
1
10
16.8341397552678
20
9.09632529700394
30
0
41
1
10
16.8417567896245
20
9.10745944333561
30
0
41
1
10
16.8568304016713
20
9.13747003893582
30
0
41
1
10
16.8624236947994
20
9.15775763892981
30
0
41
1
10
16.8679358758147
20
9.19506208189031
30
0
41
1
10
16.8687417442697
20
9.21232652904092
30
0
41
1
10
16.8678984507329
20
9.24667588871304
30
0
41
1
10
16.8662511781147
20
9.26387126142518
30
0
41
1
10
16.8611056154453
20
9.29792797106873
30
0
41
1
10
16.8575980551663
20
9.31484953901554
30
0
41
1
10
16.8448216333474
20
9.36508156122866
30
0
41
1
10
16.8332850743729
20
9.39797154179749
30
0
41
1
10
16.8083345500216
20
9.45580390528889
30
0
41
1
10
16.7955855762075
20
9.48121705940861
30
0
41
1
10
16.7815080437138
20
9.50583198563265
30
0
0
SPLINE
5
261
100
AcDbEntity
8
1
62
256
6
ByLayer
370
-1
48
1
60
0
100
AcDbSpline
70
4
71
3
72
8
73
4
40
0
40
0
40
0
40
0
40
1
40
1
40
1
40
1
41
1
10
15.7158564952446
20
10.1180460559406
30
0
41
1
10
15.7178764599648
20
10.1247846505761
30
0
41
1
10
15.7198964286896
20
10.1315232089651
30
0
41
1
10
15.7219164012597
20
10.1382617325426
30
0
0
SPLINE
5
262
100
AcDbEntity
8
1
62
256
6
ByLayer
370
-1
48
1
60
0
100
AcDbSpline
70
4
71
3
72
24
73
20
40
0
40
0
40
0
40
0
40
0.0380198325518224
40
0.0380198325518224
40
0.246834654674804
40
0.246834654674804
40
0.404726505663241
40
0.404726505663241
40
0.526150637962815
40
0.526150637962815
40
0.621531995503655
40
0.621531995503655
40
0.77689053833215
40
0.77689053833215
40
0.873684213897986
40
0.873684213897986
40
0.971746172254965
40
0.971746172254965
40
1
40
1
40
1
40
1
41
1
10
16.7815080437138
20
9.50583198563265
30
0
41
1
10
16.7783692359268
20
9.51132027146284
30
0
41
1
10
16.7751625592128
20
9.51677113269719
30
0
41
1
10
16.7539414456016
20
9.55185053488813
30
0
41
1
10
16.7339538688402
20
9.58042244180484
30
0
41
1
10
16.6953844938602
20
9.6276638123488
30
0
41
1
10
16.6775738732421
20
9.6471343031439
30
0
41
1
10
16.6438763670362
20
9.67920505136789
30
0
41
1
10
16.6284388981963
20
9.69240452027185
30
0
41
1
10
16.5994415316012
20
9.7139536242168
30
0
41
1
10
16.5861396378145
20
9.72277066204245
30
0
41
1
10
16.5500010483781
20
9.74325151153491
30
0
41
1
10
16.5258609319755
20
9.75359254248184
30
0
41
1
10
16.4854914242124
20
9.76236021254533
30
0
41
1
10
16.469384371208
20
9.76378922324639
30
0
41
1
10
16.4381891733124
20
9.76111380489689
30
0
41
1
10
16.4226947378656
20
9.75680651024615
30
0
41
1
10
16.4052105757679
20
9.74769484989085
30
0
41
1
10
16.4013807775269
20
9.74539251782932
30
0
41
1
10
16.3977197976855
20
9.74288524216689
30
0
0
SPLINE
5
263
100
AcDbEntity
8
1
62
256
6
ByLayer
370
-1
48
1
60
0
100
AcDbSpline
70
4
71
3
72
34
73
30
40
0
40
0
40
0
40
0
40
0.0514465755209391
40
0.0514465755209391
40
0.135786144735384
40
0.135786144735384
40
0.203131635218814
40
0.203131635218814
40
0.270315608875011
40
0.270315608875011
40
0.337431278535847
40
0.337431278535847
40
0.404515897625395
40
0.404515897625395
40
0.4999298836909
40
0.4999298836909
40
0.599210771748111
40
0.599210771748111
40
0.697083019894203
40
0.697083019894203
40
0.780957226922732
40
0.780957226922732
40
0.84754641439324
40
0.84754641439324
40
0.898875235580319
40
0.898875235580319
40
0.980803570703531
40
0.980803570703531
40
1
40
1
40
1
40
1
41
1
10
16.3807026397528
20
9.72908006872342
30
0
41
1
10
16.3691956861592
20
9.71974502821558
30
0
41
1
10
16.3557921892741
20
9.71236432496869
30
0
41
1
10
16.3187724929043
20
9.69773225199967
30
0
41
1
10
16.293467417554
20
9.69311261328895
30
0
41
1
10
16.2478132042179
20
9.69010906759038
30
0
41
1
10
16.2271206456916
20
9.69065249006081
30
0
41
1
10
16.1860060819307
20
9.69452086459515
30
0
41
1
10
16.1654480167476
20
9.69785793373467
30
0
41
1
10
16.1248293234812
20
9.70673589435992
30
0
41
1
10
16.1046793669122
20
9.7122971850367
30
0
41
1
10
16.0650565880493
20
9.72527097046168
30
0
41
1
10
16.0455152190772
20
9.73270658047036
30
0
41
1
10
15.9992429021365
20
9.75266199214002
30
0
41
1
10
15.9728025171535
20
9.76606562682102
30
0
41
1
10
15.9211851544072
20
9.79626419023907
30
0
41
1
10
15.8959361735864
20
9.8132707710937
30
0
41
1
10
15.8489563264995
20
9.84973713067171
30
0
41
1
10
15.8270197553328
20
9.86927767211722
30
0
41
1
10
15.7900342967604
20
9.90789160465849
30
0
41
1
10
15.7743342486653
20
9.9267485227397
30
0
41
1
10
15.7497557533908
20
9.9622174433845
30
0
41
1
10
15.7400718618246
20
9.97858944942951
30
0
41
1
10
15.7259975116996
20
10.0085608788771
30
0
41
1
10
15.7208697730948
20
10.0220146671651
30
0
41
1
10
15.7112804591619
20
10.057365276559
30
0
41
1
10
15.7088117813215
20
10.0802904085168
30
0
41
1
10
15.7131355300096
20
10.1076462747991
30
0
41
1
10
15.7143114900571
20
10.1128919245025
30
0
41
1
10
15.7158564952446
20
10.1180460559406
30
0
0
SPLINE
5
264
100
AcDbEntity
8
1
62
256
6
ByLayer
370
-1
48
1
60
0
100
AcDbSpline
70
4
71
3
72
34
73
30
40
0
40
0
40
0
40
0
40
0.0514465755209385
40
0.0514465755209385
40
0.135786144735388
40
0.135786144735388
40
0.20313163521884
40
0.20313163521884
40
0.270315608875049
40
0.270315608875049
40
0.337431278535874
40
0.337431278535874
40
0.404515897625469
40
0.404515897625469
40
0.499929883690897
40
0.499929883690897
40
0.599210771748149
40
0.599210771748149
40
0.697083019894178
40
0.697083019894178
40
0.7809572269227
40
0.7809572269227
40
0.847546414393227
40
0.847546414393227
40
0.89887523558033
40
0.89887523558033
40
0.980803570703507
40
0.980803570703507
40
1
40
1
40
1
40
1
41
1
10
14.9490592102334
20
10.1180460559406
30
0
41
1
10
14.950480082364
20
10.1043762399197
30
0
41
1
10
14.9492921644293
20
10.0900199901244
30
0
41
1
10
14.9413347392782
20
10.052940666138
30
0
41
1
10
14.9315211027542
20
10.0299998183797
30
0
41
1
10
14.9095145859561
20
9.99094945387424
30
0
41
1
10
14.8980032519885
20
9.97408579271971
30
0
41
1
10
14.8729011948654
20
9.94177430066713
30
0
41
1
10
14.8592278409185
20
9.92621939867774
30
0
41
1
10
14.8304032614239
20
9.89644008098725
30
0
41
1
10
14.815187876526
20
9.88215064546299
30
0
41
1
10
14.7836695201296
20
9.85488272979285
30
0
41
1
10
14.7673114562694
20
9.84185740555438
30
0
41
1
10
14.7267469572883
20
9.81195453597988
30
0
41
1
10
14.7020093730219
20
9.79566803563463
30
0
41
1
10
14.6505872656833
20
9.76546947221658
30
0
41
1
10
14.6236995344561
20
9.75158227712402
30
0
41
1
10
14.5699139418992
20
9.72767128117323
30
0
41
1
10
14.5428421318815
20
9.71751110376505
30
0
41
1
10
14.4927459511324
20
9.70269946700566
30
0
41
1
10
14.4695436327666
20
9.69742066112511
30
0
41
1
10
14.4285107680568
20
9.69164110814742
30
0
41
1
10
14.410445777432
20
9.69036533932729
30
0
41
1
10
14.3792772079867
20
9.69112290699914
30
0
41
1
10
14.3659055677178
20
9.69247055406004
30
0
41
1
10
14.3327765994238
20
9.69932269965886
30
0
41
1
10
14.3132285210905
20
9.70696357943282
30
0
41
1
10
14.2936276302186
20
9.7223183922342
30
0
41
1
10
14.2900468054315
20
9.72556034134118
30
0
41
1
10
14.286728010273
20
9.72908006872322
30
0
0
SPLINE
5
265
100
AcDbEntity
8
1
62
256
6
ByLayer
370
-1
48
1
60
0
100
AcDbSpline
70
4
71
3
72
8
73
4
40
0
40
0
40
0
40
0
40
1
40
1
40
1
40
1
41
1
10
13.8884345541952
20
9.0615163267228
30
0
41
1
10
13.8941259700342
20
9.05930645558615
30
0
41
1
10
13.8998174313661
20
9.05709657409633
30
0
41
1
10
13.9055089400671
20
9.05488668182664
30
0
0
SPLINE
5
266
100
AcDbEntity
8
1
62
256
6
ByLayer
370
-1
48
1
60
0
100
AcDbSpline
70
4
71
3
72
34
73
30
40
0
40
0
40
0
40
0
40
0.0514465755208931
40
0.0514465755208931
40
0.135786144735318
40
0.135786144735318
40
0.203131635218749
40
0.203131635218749
40
0.270315608874953
40
0.270315608874953
40
0.337431278535761
40
0.337431278535761
40
0.404515897625321
40
0.404515897625321
40
0.499929883690895
40
0.499929883690895
40
0.599210771748119
40
0.599210771748119
40
0.697083019894213
40
0.697083019894213
40
0.780957226922714
40
0.780957226922714
40
0.847546414393252
40
0.847546414393252
40
0.89887523558035
40
0.89887523558035
40
0.980803570703548
40
0.980803570703548
40
1
40
1
40
1
40
1
41
1
10
13.9055089400671
20
9.05488668182659
30
0
41
1
10
13.9170546526426
20
9.05040372619757
30
0
41
1
10
13.9278901213462
20
9.04328021426988
30
0
41
1
10
13.9535293019474
20
9.020465964382
30
0
41
1
10
13.9670458101398
20
9.00193301764099
30
0
41
1
10
13.9875447806131
20
8.96554861533468
30
0
41
1
10
13.9954466483024
20
8.94800436837448
30
0
41
1
10
14.0091676791909
20
8.91157882642992
30
0
41
1
10
14.0150324448553
20
8.89257750415766
30
0
41
1
10
14.0250470428599
20
8.85372943910869
30
0
41
1
10
14.0292180934744
20
8.83379685373507
30
0
41
1
10
14.0360561096889
20
8.79341937777571
30
0
41
1
10
14.0387343489558
20
8.77290429404337
30
0
41
1
10
14.0435379207331
20
8.72294906610256
30
0
41
1
10
14.044973339355
20
8.69323026431351
30
0
41
1
10
14.0451685947627
20
8.63283313747741
30
0
41
1
10
14.0438193254211
20
8.60197039758378
30
0
41
1
10
14.03815362964
20
8.5417152698879
30
0
41
1
10
14.0338642676924
20
8.51210523980143
30
0
41
1
10
14.0228233658525
20
8.45890158157778
30
0
41
1
10
14.0164796253657
20
8.43489006675031
30
0
41
1
10
14.0024523467638
20
8.39390180814812
30
0
41
1
10
13.9952746315386
20
8.37638305134209
30
0
41
1
10
13.9805277110587
20
8.34742084986971
30
0
41
1
10
13.9733844000404
20
8.33543270596405
30
0
41
1
10
13.9528624312001
20
8.30725777645461
30
0
41
1
10
13.9378610567701
20
8.29219631510597
30
0
41
1
10
13.9166030551681
20
8.28048115914518
30
0
41
1
10
13.912366566548
20
8.27853324092334
30
0
41
1
10
13.908023884615
20
8.27695470739204
30
0
0
SPLINE
5
267
100
AcDbEntity
8
1
62
256
6
ByLayer
370
-1
48
1
60
0
100
AcDbSpline
70
4
71
3
72
24
73
20
40
0
40
0
40
0
40
0
40
0.0380198325518562
40
0.0380198325518562
40
0.246834654674913
40
0.246834654674913
40
0.40472650566337
40
0.40472650566337
40
0.52615063796292
40
0.52615063796292
40
0.621531995503743
40
0.621531995503743
40
0.776890538332164
40
0.776890538332164
40
0.873684213898033
40
0.873684213898033
40
0.971746172255012
40
0.971746172255012
40
1
40
1
40
1
40
1
41
1
10
13.9220104297837
20
9.50583198563274
30
0
41
1
10
13.9189071077074
20
9.50034369980256
30
0
41
1
10
13.9158636190431
20
9.49481715045604
30
0
41
1
10
13.8965300513025
20
9.45875529319468
30
0
41
1
10
13.8819561534589
20
9.42709039217917
30
0
41
1
10
13.860218240466
20
9.37006855859553
30
0
41
1
10
13.852076695052
20
9.3449492624145
30
0
41
1
10
13.8404860400103
20
9.299908152179
30
0
41
1
10
13.8363701415611
20
9.28005186806368
30
0
41
1
10
13.8312011367626
20
9.24445991137347
30
0
41
1
10
13.829673494147
20
9.22869441059723
30
0
41
1
10
13.828232830053
20
9.18770358812253
30
0
41
1
10
13.8298803355608
20
9.16209053065819
30
0
41
1
10
13.8391503831533
20
9.12383796276538
30
0
41
1
10
13.8444286191326
20
9.10968790058374
30
0
41
1
10
13.8587573746136
20
9.0852309652777
30
0
41
1
10
13.8681194945994
20
9.07469736441377
30
0
41
1
10
13.8818666725418
20
9.06512460067307
30
0
41
1
10
13.8851074040371
20
9.06319451156702
30
0
41
1
10
13.8884345541953
20
9.0615163267228
30
0
0
SPLINE
5
268
100
AcDbEntity
8
1
62
256
6
ByLayer
370
-1
48
1
60
0
100
AcDbSpline
70
4
71
3
72
8
73
4
40
0
40
0
40
0
40
0
40
1
40
1
40
1
40
1
41
1
10
14.2806729215141
20
7.58939443052725
30
0
41
1
10
14.2849826089295
20
7.59385003451851
30
0
41
1
10
14.2892923343754
20
7.59830566415548
30
0
41
1
10
14.2936020994202
20
7.6027613204954
30
0
0
SPLINE
5
269
100
AcDbEntity
8
1
62
256
6
ByLayer
370
-1
48
1
60
0
100
AcDbSpline
70
4
71
3
72
34
73
30
40
0
40
0
40
0
40
0
40
0.051446575520938
40
0.051446575520938
40
0.13578614473539
40
0.13578614473539
40
0.203131635218836
40
0.203131635218836
40
0.270315608875067
40
0.270315608875067
40
0.337431278535904
40
0.337431278535904
40
0.40451589762549
40
0.40451589762549
40
0.499929883690797
40
0.499929883690797
40
0.599210771748141
40
0.599210771748141
40
0.697083019894222
40
0.697083019894222
40
0.780957226922746
40
0.780957226922746
40
0.847546414393253
40
0.847546414393253
40
0.898875235580376
40
0.898875235580376
40
0.980803570703549
40
0.980803570703549
40
1
40
1
40
1
40
1
41
1
10
16.768795799106
20
8.27695470739221
30
0
41
1
10
16.7544858602331
20
8.28114130278939
30
0
41
1
10
16.7408901710359
20
8.2879688839584
30
0
41
1
10
16.7084048091997
20
8.31004913610533
30
0
41
1
10
16.6909384397395
20
8.32815860745939
30
0
41
1
10
16.6641420171368
20
8.36386784276698
30
0
41
1
10
16.6536814357087
20
8.38113776305664
30
0
41
1
10
16.6353774533215
20
8.41707195428586
30
0
41
1
10
16.6274727965135
20
8.43585457427145
30
0
41
1
10
16.6138991669746
20
8.47432106585393
30
0
41
1
10
16.6082010742468
20
8.4940899328825
30
0
41
1
10
16.5988302455285
20
8.53419585911331
30
0
41
1
10
16.5951418745714
20
8.55460264387528
30
0
41
1
10
16.5885298104292
20
8.60436397842278
30
0
41
1
10
16.5865596276183
20
8.6340254466862
30
0
41
1
10
16.5863643722106
20
8.69442257352225
30
0
41
1
10
16.5882926036817
20
8.72534738552307
30
0
41
1
10
16.5962383988404
20
8.78584696888484
30
0
41
1
10
16.6022195145951
20
8.81563837650575
30
0
41
1
10
16.6174000571086
20
8.86928585688347
30
0
41
1
10
16.6260608571631
20
8.8935457899795
30
0
41
1
10
16.6449423174319
20
8.93505447862225
30
0
41
1
10
16.6545268003239
20
8.9528312715465
30
0
41
1
10
16.6739683184846
20
8.98229679362555
30
0
41
1
10
16.6833128107944
20
8.99452093217408
30
0
41
1
10
16.7098701506763
20
9.02334293025484
30
0
41
1
10
16.7290275772321
20
9.03884997327404
30
0
41
1
10
16.7556188547501
20
9.051136924275
30
0
41
1
10
16.7608959357991
20
9.05319640724599
30
0
41
1
10
16.766280854558
20
9.05488668182676
30
0
0
SPLINE
5
26A
100
AcDbEntity
8
1
62
256
6
ByLayer
370
-1
48
1
60
0
100
AcDbSpline
70
4
71
3
72
8
73
4
40
0
40
0
40
0
40
0
40
1
40
1
40
1
40
1
41
1
10
13.908023884615
20
8.27695470739201
30
0
41
1
10
13.9023461921601
20
8.27489090717398
30
0
41
1
10
13.8966685469967
20
8.27282712020863
30
0
41
1
10
13.8909909472514
20
8.2707633459712
30
0
0
SPLINE
5
26B
100
AcDbEntity
8
1
62
256
6
ByLayer
370
-1
48
1
60
0
100
AcDbSpline
70
4
71
3
72
22
73
18
40
0
40
0
40
0
40
0
40
0.0973712659846958
40
0.0973712659846958
40
0.180296832630731
40
0.180296832630731
40
0.30744508080301
40
0.30744508080301
40
0.411978418514832
40
0.411978418514832
40
0.516185210010994
40
0.516185210010994
40
0.620250145291818
40
0.620250145291818
40
0.829289859625949
40
0.829289859625949
40
1
40
1
40
1
40
1
41
1
10
14.2737109889114
20
9.74288524216678
30
0
41
1
10
14.2640502970908
20
9.75135938232282
30
0
41
1
10
14.2521824477558
20
9.75745365166622
30
0
41
1
10
14.2285156767816
20
9.76306706445325
30
0
41
1
10
14.2167155370919
20
9.76354007279369
30
0
41
1
10
14.1869192699051
20
9.76034813281277
30
0
41
1
10
14.1684716388893
20
9.7544266205206
30
0
41
1
10
14.1363728695839
20
9.73960233143004
30
0
41
1
10
14.1221832050988
20
9.73130280909635
30
0
41
1
10
14.0949149672998
20
9.71275914823553
30
0
41
1
10
14.0817465225372
20
9.70245936372874
30
0
41
1
10
14.0564290488657
20
9.68048687879016
30
0
41
1
10
14.0442350734698
20
9.66877528514883
30
0
41
1
10
14.0090200453962
20
9.63202329191094
30
0
41
1
10
13.987283327244
20
9.60529485843051
30
0
41
1
10
13.9510728834789
20
9.55434614118147
30
0
41
1
10
13.9359288090955
20
9.53044691185679
30
0
41
1
10
13.9220104297837
20
9.50583198563274
30
0
0
SPLINE
5
26C
100
AcDbEntity
8
1
62
256
6
ByLayer
370
-1
48
1
60
0
100
AcDbSpline
70
4
71
3
72
24
73
20
40
0
40
0
40
0
40
0
40
0.0380198325522692
40
0.0380198325522692
40
0.246834654675345
40
0.246834654675345
40
0.404726505663728
40
0.404726505663728
40
0.526150637963156
40
0.526150637963156
40
0.621531995503927
40
0.621531995503927
40
0.776890538332259
40
0.776890538332259
40
0.873684213898192
40
0.873684213898192
40
0.971746172255209
40
0.971746172255209
40
1
40
1
40
1
40
1
41
1
10
13.9274290559857
20
7.82972243330582
30
0
41
1
10
13.9305678637727
20
7.82423414747558
30
0
41
1
10
13.9337667400616
20
7.81878244993635
30
0
41
1
10
13.9548864683484
20
7.78369217794847
30
0
41
1
10
13.9745580010994
20
7.7550863870924
30
0
41
1
10
14.0120809752596
20
7.70773282906589
30
0
41
1
10
14.0292785912705
20
7.6881966163769
30
0
41
1
10
14.061498299717
20
7.65596742942927
30
0
41
1
10
14.0761592144702
20
7.64268470404616
30
0
41
1
10
14.1034402442777
20
7.62095158695846
30
0
41
1
10
14.1158699783425
20
7.61204104251306
30
0
41
1
10
14.1493214994604
20
7.59127210510593
30
0
41
1
10
14.1713666416402
20
7.58070646626533
30
0
41
1
10
14.2072822660944
20
7.57146128323876
30
0
41
1
10
14.2213795422768
20
7.56981679888946
30
0
41
1
10
14.2480088249077
20
7.5720026930247
30
0
41
1
10
14.2608646414764
20
7.57602709415727
30
0
41
1
10
14.2748148593271
20
7.58475987072245
30
0
41
1
10
14.2778305039778
20
7.5869749151596
30
0
41
1
10
14.2806729215141
20
7.58939443052725
30
0
0
SPLINE
5
26D
100
AcDbEntity
8
1
62
256
6
ByLayer
370
-1
48
1
60
0
100
AcDbSpline
70
4
71
3
72
22
73
18
40
0
40
0
40
0
40
0
40
0.0973712659847071
40
0.0973712659847071
40
0.180296832630796
40
0.180296832630796
40
0.307445080803138
40
0.307445080803138
40
0.411978418515012
40
0.411978418515012
40
0.516185210011237
40
0.516185210011237
40
0.620250145292092
40
0.620250145292092
40
0.829289859626304
40
0.829289859626304
40
1
40
1
40
1
40
1
41
1
10
13.8909909472514
20
8.27076334597123
30
0
41
1
10
13.8797814933677
20
8.2653879974437
30
0
41
1
10
13.8694988844866
20
8.25688359923606
30
0
41
1
10
13.8542880650729
20
8.23703026622178
30
0
41
1
10
13.8485875352302
20
8.22610159356012
30
0
41
1
10
13.8377580344966
20
8.19654602069585
30
0
41
1
10
13.8342606542931
20
8.17648312923629
30
0
41
1
10
13.8318779150357
20
8.13951420225209
30
0
41
1
10
13.8322544785526
20
8.12237652685445
30
0
41
1
10
13.835115712179
20
8.08824351603667
30
0
41
1
10
13.83760514659
20
8.07113843378463
30
0
41
1
10
13.8441887860948
20
8.03723590427629
30
0
41
1
10
13.8482944826352
20
8.02037846414754
30
0
41
1
10
13.8625883643096
20
7.97030913293946
30
0
41
1
10
13.8747749938045
20
7.93748884820207
30
0
41
1
10
13.9004479118378
20
7.87973393450534
30
0
41
1
10
13.9133515234921
20
7.85433735952981
30
0
41
1
10
13.9274290559857
20
7.82972243330582
30
0
0
SPLINE
5
26E
100
AcDbEntity
8
1
62
256
6
ByLayer
370
-1
48
1
60
0
100
AcDbSpline
70
4
71
3
72
24
73
20
40
0
40
0
40
0
40
0
40
0.038019832551491
40
0.038019832551491
40
0.246834654674505
40
0.246834654674505
40
0.404726505663042
40
0.404726505663042
40
0.526150637962645
40
0.526150637962645
40
0.621531995503551
40
0.621531995503551
40
0.776890538332086
40
0.776890538332086
40
0.873684213897982
40
0.873684213897982
40
0.971746172254964
40
0.971746172254964
40
1
40
1
40
1
40
1
41
1
10
15.3490499236475
20
10.3438867617962
30
0
41
1
10
15.3428077937844
20
10.3438867617962
30
0
41
1
10
15.3365615286187
20
10.3438114918364
30
0
41
1
10
15.2960575399292
20
10.3428344716644
30
0
41
1
10
15.2616540873294
20
10.3397584195353
30
0
41
1
10
15.2018699997664
20
10.3300340502369
30
0
41
1
10
15.176224336038
20
10.324418105798
30
0
41
1
10
15.13167507367
20
10.3115269631483
30
0
41
1
10
15.1125099834242
20
10.3049117761765
30
0
41
1
10
15.0792017804244
20
10.2909609300026
30
0
41
1
10
15.064808323883
20
10.2840592203619
30
0
41
1
10
15.0285726045119
20
10.263693291337
30
0
41
1
10
15.0071274807285
20
10.2485335687664
30
0
41
1
10
14.9782549622124
20
10.2192874274186
30
0
41
1
10
14.9684310335983
20
10.2066741127622
30
0
41
1
10
14.953847548816
20
10.1797865212138
30
0
41
1
10
14.949034542794
20
10.1650870724582
30
0
41
1
10
14.9470645307622
20
10.1465920902573
30
0
41
1
10
14.9468825408117
20
10.1424033129019
30
0
41
1
10
14.9469579922809
20
10.1382617325426
30
0
0
SPLINE
5
26F
100
AcDbEntity
8
1
62
256
6
ByLayer
370
-1
48
1
60
0
100
AcDbSpline
70
4
71
3
72
22
73
18
40
0
40
0
40
0
40
0
40
0.0973712659846592
40
0.0973712659846592
40
0.180296832630645
40
0.180296832630645
40
0.307445080802918
40
0.307445080802918
40
0.411978418514665
40
0.411978418514665
40
0.516185210010843
40
0.516185210010843
40
0.620250145291629
40
0.620250145291629
40
0.829289859625669
40
0.829289859625669
40
1
40
1
40
1
40
1
41
1
10
15.7219164012597
20
10.1382617325426
30
0
41
1
10
15.7248484599034
20
10.1522595282211
30
0
41
1
10
15.7246365202592
20
10.1670054310931
30
0
41
1
10
15.718441521879
20
10.1927145798444
30
0
41
1
10
15.7133001642891
20
10.2042189976814
30
0
41
1
10
15.6964554534925
20
10.2308101419327
30
0
41
1
10
15.6825531591425
20
10.2450638753674
30
0
41
1
10
15.6544018499734
20
10.2673762712491
30
0
41
1
10
15.6404268379574
20
10.2762778101895
30
0
41
1
10
15.6113063365768
20
10.2919753345737
30
0
41
1
10
15.5960695382996
20
10.298825777549
30
0
41
1
10
15.5648874635409
20
10.3108329121863
30
0
41
1
10
15.5488868597353
20
10.3160108225828
30
0
41
1
10
15.5001366799151
20
10.3294095060555
30
0
41
1
10
15.4665383675282
20
10.3355362052282
30
0
41
1
10
15.4050162025707
20
10.3423811265732
30
0
41
1
10
15.377045835453
20
10.3438867617962
30
0
41
1
10
15.3490499236475
20
10.3438867617962
30
0
0
SPLINE
5
270
100
AcDbEntity
8
1
62
256
6
ByLayer
370
-1
48
1
60
0
100
AcDbSpline
70
4
71
3
72
24
73
20
40
0
40
0
40
0
40
0
40
0.0380198325522608
40
0.0380198325522608
40
0.246834654675302
40
0.246834654675302
40
0.404726505663669
40
0.404726505663669
40
0.526150637963143
40
0.526150637963143
40
0.621531995503919
40
0.621531995503919
40
0.776890538332261
40
0.776890538332261
40
0.873684213898098
40
0.873684213898098
40
0.9717461722551
40
0.9717461722551
40
1
40
1
40
1
40
1
41
1
10
16.7869266699158
20
7.82972243330568
30
0
41
1
10
16.7900299919921
20
7.83521071913594
30
0
41
1
10
16.7930656802312
20
7.84073643217764
30
0
41
1
10
16.8122978626475
20
7.87678741964223
30
0
41
1
10
16.8265557164806
20
7.90841843671845
30
0
41
1
10
16.8472472286537
20
7.96532808281953
30
0
41
1
10
16.8547757694604
20
7.99038165710658
30
0
41
1
10
16.8648886267428
20
8.03526432861838
30
0
41
1
10
16.8682279711053
20
8.05503735625453
30
0
41
1
10
16.8716806391162
20
8.09044529980198
30
0
41
1
10
16.8723361220099
20
8.10611729395842
30
0
41
1
10
16.8710897177854
20
8.14682002851842
30
0
41
1
10
16.8673472380548
20
8.17220847808906
30
0
41
1
10
16.8536233071534
20
8.20998353301877
30
0
41
1
10
16.8463352943521
20
8.22391812155215
30
0
41
1
10
16.8274406236064
20
8.24788553264389
30
0
41
1
10
16.8154398847425
20
8.2581362399896
30
0
41
1
10
16.7981587625531
20
8.2673301199402
30
0
41
1
10
16.7941038774676
20
8.2691729214219
30
0
41
1
10
16.7899581650043
20
8.27076334597137
30
0
0
SPLINE
5
271
100
AcDbEntity
8
1
62
256
6
ByLayer
370
-1
48
1
60
0
100
AcDbSpline
70
4
71
3
72
8
73
4
40
0
40
0
40
0
40
0
40
1
40
1
40
1
40
1
41
1
10
15.7252455289397
20
7.21379533327817
30
0
41
1
10
15.7273085912203
20
7.20720283069437
30
0
41
1
10
15.7293716572632
20
7.20061036682984
30
0
41
1
10
15.7314347269186
20
7.19401794015155
30
0
0
SPLINE
5
272
100
AcDbEntity
8
1
62
256
6
ByLayer
370
-1
48
1
60
0
100
AcDbSpline
70
4
71
3
72
8
73
4
40
0
40
0
40
0
40
0
40
1
40
1
40
1
40
1
41
1
10
14.9469579922809
20
10.1382617325426
30
0
41
1
10
14.9476583794727
20
10.1315232089651
30
0
41
1
10
14.9483587852019
20
10.1247846505761
30
0
41
1
10
14.9490592102334
20
10.1180460559406
30
0
0
SPLINE
5
273
100
AcDbEntity
8
1
62
256
6
ByLayer
370
-1
48
1
60
0
100
AcDbSpline
70
4
71
3
72
8
73
4
40
0
40
0
40
0
40
0
40
1
40
1
40
1
40
1
41
1
10
14.286728010273
20
9.72908006872325
30
0
41
1
10
14.2823889639138
20
9.73368181711487
30
0
41
1
10
14.2780499573183
20
9.73828354127627
30
0
41
1
10
14.2737109889114
20
9.74288524216675
30
0
0
SPLINE
5
274
100
AcDbEntity
8
1
62
256
6
ByLayer
370
-1
48
1
60
0
100
AcDbSpline
70
4
71
3
72
8
73
4
40
0
40
0
40
0
40
0
40
1
40
1
40
1
40
1
41
1
10
16.3977197976855
20
9.74288524216692
30
0
41
1
10
16.3920474278064
20
9.73828354127642
30
0
41
1
10
16.3863750420469
20
9.73368181711501
30
0
41
1
10
16.3807026397528
20
9.72908006872339
30
0
0
SPLINE
5
275
100
AcDbEntity
8
1
62
256
6
ByLayer
370
-1
48
1
60
0
100
AcDbSpline
70
4
71
3
72
22
73
18
40
0
40
0
40
0
40
0
40
0.09737126598477
40
0.09737126598477
40
0.180296832630774
40
0.180296832630774
40
0.307445080803172
40
0.307445080803172
40
0.411978418515012
40
0.411978418515012
40
0.516185210011211
40
0.516185210011211
40
0.620250145292052
40
0.620250145292052
40
0.829289859626232
40
0.829289859626232
40
1
40
1
40
1
40
1
41
1
10
16.4046817302882
20
7.58939443052742
30
0
41
1
10
16.4171090152697
20
7.58121690436104
30
0
41
1
10
16.431723466224
20
7.57541710565971
30
0
41
1
10
16.459912143559
20
7.57028849877247
30
0
41
1
10
16.4736287877628
20
7.57002096410207
30
0
41
1
10
16.5076691662628
20
7.57366792681896
30
0
41
1
10
16.5282127102031
20
7.57981414764558
30
0
41
1
10
16.5634409212666
20
7.59497395271245
30
0
41
1
10
16.5788130177235
20
7.60340024679911
30
0
41
1
10
16.6080991956121
20
7.62216025651435
30
0
41
1
10
16.6221098021675
20
7.63255033148118
30
0
41
1
10
16.6488653526745
20
7.65467699655503
30
0
41
1
10
16.6616574643317
20
7.6664527180144
30
0
41
1
10
16.6983899522608
20
7.70336740225738
30
0
41
1
10
16.7207767409335
20
7.7301655315693
30
0
41
1
10
16.7577095783805
20
7.78119169861293
30
0
41
1
10
16.7730082906041
20
7.80510750708169
30
0
41
1
10
16.7869266699158
20
7.82972243330568
30
0
0
SPLINE
5
276
100
AcDbEntity
8
1
62
256
6
ByLayer
370
-1
48
1
60
0
100
AcDbSpline
70
4
71
3
72
8
73
4
40
0
40
0
40
0
40
0
40
1
40
1
40
1
40
1
41
1
10
16.7662808545581
20
9.05488668182676
30
0
41
1
10
16.7733211842621
20
9.05709657409648
30
0
41
1
10
16.7803614897393
20
9.0593064555863
30
0
41
1
10
16.7874017719481
20
9.06151632672294
30
0
0
SPLINE
5
277
100
AcDbEntity
8
1
62
256
6
ByLayer
370
-1
48
1
60
0
100
AcDbSpline
70
4
71
3
72
8
73
4
40
0
40
0
40
0
40
0
40
1
40
1
40
1
40
1
41
1
10
16.7899581650044
20
8.27076334597137
30
0
41
1
10
16.7829040667017
20
8.2728271202088
30
0
41
1
10
16.7758499450561
20
8.27489090717413
30
0
41
1
10
16.7687957991059
20
8.27695470739218
30
0
0
SPLINE
5
278
100
AcDbEntity
8
1
62
256
6
ByLayer
370
-1
48
1
60
0
100
AcDbSpline
70
4
71
3
72
8
73
4
40
0
40
0
40
0
40
0
40
1
40
1
40
1
40
1
41
1
10
16.3875767289001
20
7.60276132049557
30
0
41
1
10
16.3932784125084
20
7.59830566415562
30
0
41
1
10
16.3989800794176
20
7.59385003451868
30
0
41
1
10
16.4046817302882
20
7.58939443052742
30
0
0
LINE
5
49
100
AcDbEntity
8
1
62
256
6
ByLayer
370
-1
48
1
60
0
100
AcDbLine
10
7.761014
20
13.468613
30
0
11
7.761018
21
13.481399
31
0
39
0
210
0
220
0
230
1
0
LINE
5
4B
100
AcDbEntity
8
1
62
256
6
ByLayer
370
-1
48
1
60
0
100
AcDbLine
10
15.053321
20
11.376107
30
0
11
14.838275
21
11.353051
31
0
39
0
210
0
220
0
230
1
0
LINE
5
4C
100
AcDbEntity
8
1
62
256
6
ByLayer
370
-1
48
1
60
0
100
AcDbLine
10
15.419255
20
5.934107
30
0
11
15.634301
21
5.957162
31
0
39
0
210
0
220
0
230
1
0
LINE
5
4D
100
AcDbEntity
8
1
62
256
6
ByLayer
370
-1
48
1
60
0
100
AcDbLine
10
14.375558
20
7.637383
30
0
11
14.128246
21
7.610868
31
0
39
0
210
0
220
0
230
1
0
LINE
5
4E
100
AcDbEntity
8
1
62
256
6
ByLayer
370
-1
48
1
60
0
100
AcDbLine
10
14.191719
20
9.666651
30
0
11
14.434163
21
9.692644
31
0
39
0
210
0
220
0
230
1
0
LINE
5
4F
100
AcDbEntity
8
1
62
256
6
ByLayer
370
-1
48
1
60
0
100
AcDbLine
10
16.213129
20
7.636301
30
0
11
15.970321
21
7.610269
31
0
39
0
210
0
220
0
230
1
0
LINE
5
50
100
AcDbEntity
8
1
62
256
6
ByLayer
370
-1
48
1
60
0
100
AcDbLine
10
16.033794
20
9.666052
30
0
11
16.281016
21
9.692558
31
0
39
0
210
0
220
0
230
1
0
LINE
5
51
100
AcDbEntity
8
1
62
256
6
ByLayer
370
-1
48
1
60
0
100
AcDbLine
10
8.71705
20
12.776433
30
0
11
8.028317
21
12.708253
31
0
39
0
210
0
220
0
230
1
0
LINE
5
52
100
AcDbEntity
8
1
62
256
6
ByLayer
370
-1
48
1
60
0
100
AcDbLine
10
12.392792
20
13.418088
30
0
11
11.637534
21
13.343323
31
0
39
0
210
0
220
0
230
1
0
LINE
5
53
100
AcDbEntity
8
1
62
256
6
ByLayer
370
-1
48
1
60
0
100
AcDbLine
10
10.462446
20
12.971293
30
0
11
9.795972
21
12.905317
31
0
39
0
210
0
220
0
230
1
0
LINE
5
54
100
AcDbEntity
8
1
62
256
6
ByLayer
370
-1
48
1
60
0
100
AcDbLine
10
14.520229
20
0.694742
30
0
11
15.208368
21
0.762863
31
0
39
0
210
0
220
0
230
1
0
LINE
5
55
100
AcDbEntity
8
1
62
256
6
ByLayer
370
-1
48
1
60
0
100
AcDbLine
10
13.954611
20
1.855847
30
0
11
14.620699
21
1.921785
31
0
39
0
210
0
220
0
230
1
0
LINE
5
56
100
AcDbEntity
8
80
62
256
6
ByLayer
370
-1
48
1
60
0
100
AcDbLine
10
0
20
0
30
0
11
-5
21
0
31
0
39
0
210
0
220
0
230
1
0
LINE
5
57
100
AcDbEntity
8
81
62
256
6
ByLayer
370
-1
48
1
60
0
100
AcDbLine
10
23.355801
20
13.4125
30
0
11
28.355801
21
13.4125
31
0
39
0
210
0
220
0
230
1
0
LINE
5
58
100
AcDbEntity
8
1
62
256
6
ByLayer
370
-1
48
1
60
0
100
AcDbLine
10
11.914872
20
4.352769
30
0
11
7.044683
21
12.865407
31
0
39
0
210
0
220
0
230
1
0
LINE
5
59
100
AcDbEntity
8
1
62
256
6
ByLayer
370
-1
48
1
60
0
100
AcDbLine
10
14.881435
20
-0.832508
30
0
11
14.978687
21
-0.718122
31
0
39
0
210
0
220
0
230
1
0
LINE
5
5A
100
AcDbEntity
8
1
62
256
6
ByLayer
370
-1
48
1
60
0
100
AcDbLine
10
0.367178
20
12.804678
30
0
11
0
21
12.4375
31
0
39
0
210
0
220
0
230
1
0
LINE
5
5B
100
AcDbEntity
8
1
62
256
6
ByLayer
370
-1
48
1
60
0
100
AcDbLine
10
14.881435
20
-0.832508
30
0
11
14.06219
21
0.599456
31
0
39
0
210
0
220
0
230
1
0
LINE
5
5C
100
AcDbEntity
8
1
62
256
6
ByLayer
370
-1
48
1
60
0
100
AcDbLine
10
5.001546
20
-12.453118
30
0
11
14.881435
21
-0.832508
31
0
39
0
210
0
220
0
230
1
0
LINE
5
5D
100
AcDbEntity
8
1
62
256
6
ByLayer
370
-1
48
1
60
0
100
AcDbLine
10
3.416817
20
12.865407
30
0
11
3.792523
21
-12.454048
31
0
39
0
210
0
220
0
230
1
0
LINE
5
5E
100
AcDbEntity
8
1
62
256
6
ByLayer
370
-1
48
1
60
0
100
AcDbLine
10
3.416817
20
12.865407
30
0
11
0.367178
21
12.804678
31
0
39
0
210
0
220
0
230
1
0
LINE
5
5F
100
AcDbEntity
8
1
62
256
6
ByLayer
370
-1
48
1
60
0
100
AcDbLine
10
14.68511
20
-0.204719
30
0
11
15.234801
21
0.767419
31
0
39
0
210
0
220
0
230
1
0
LINE
5
60
100
AcDbEntity
8
1
62
256
6
ByLayer
370
-1
48
1
60
0
100
AcDbLine
10
0
20
-12.4375
30
0
11
3.792523
21
-12.454048
31
0
39
0
210
0
220
0
230
1
0
LINE
5
61
100
AcDbEntity
8
1
62
256
6
ByLayer
370
-1
48
1
60
0
100
AcDbLine
10
0
20
-12.4375
30
0
11
0
21
12.4375
31
0
39
0
210
0
220
0
230
1
0
LINE
5
62
100
AcDbEntity
8
1
62
256
6
ByLayer
370
-1
48
1
60
0
100
AcDbLine
10
3.792523
20
-12.454048
30
0
11
5.001546
21
-12.453118
31
0
39
0
210
0
220
0
230
1
0
LINE
5
63
100
AcDbEntity
8
1
62
256
6
ByLayer
370
-1
48
1
60
0
100
AcDbLine
10
7.221593
20
12.845356
30
0
11
7.044683
21
12.865407
31
0
39
0
210
0
220
0
230
1
0
LINE
5
64
100
AcDbEntity
8
1
62
256
6
ByLayer
370
-1
48
1
60
0
100
AcDbLine
10
11.914872
20
4.352769
30
0
11
11.923878
21
4.62329
31
0
39
0
210
0
220
0
230
1
0
LINE
5
65
100
AcDbEntity
8
1
62
256
6
ByLayer
370
-1
48
1
60
0
100
AcDbLine
10
7.221593
20
12.845356
30
0
11
11.923878
21
4.62329
31
0
39
0
210
0
220
0
230
1
0
LINE
5
66
100
AcDbEntity
8
1
62
256
6
ByLayer
370
-1
48
1
60
0
100
AcDbLine
10
3.416817
20
12.865407
30
0
11
7.044683
21
12.865407
31
0
39
0
210
0
220
0
230
1
0
LINE
5
67
100
AcDbEntity
8
1
62
256
6
ByLayer
370
-1
48
1
60
0
100
AcDbLine
10
11.841552
20
4.27811
30
0
11
11.914872
21
4.352769
31
0
39
0
210
0
220
0
230
1
0
LINE
5
68
100
AcDbEntity
8
1
62
256
6
ByLayer
370
-1
48
1
60
0
100
AcDbLine
10
14.132738
20
0.761042
30
0
11
14.978687
21
-0.718122
31
0
39
0
210
0
220
0
230
1
0
LINE
5
69
100
AcDbEntity
8
1
62
256
6
ByLayer
370
-1
48
1
60
0
100
AcDbLine
10
14.184422
20
7.579075
30
0
11
14.280673
21
7.589394
31
0
39
0
210
0
220
0
230
1
0
LINE
5
6A
100
AcDbEntity
8
1
62
256
6
ByLayer
370
-1
48
1
60
0
100
AcDbLine
10
14.115304
20
9.725902
30
0
11
14.273711
21
9.742885
31
0
39
0
210
0
220
0
230
1
0
LINE
5
6B
100
AcDbEntity
8
1
62
256
6
ByLayer
370
-1
48
1
60
0
100
AcDbLine
10
14.162875
20
7.588746
30
0
11
14.293602
21
7.602761
31
0
39
0
210
0
220
0
230
1
0
LINE
5
6C
100
AcDbEntity
8
1
62
256
6
ByLayer
370
-1
48
1
60
0
100
AcDbLine
10
14.090483
20
9.70804
30
0
11
14.286728
21
9.72908
31
0
39
0
210
0
220
0
230
1
0
LINE
5
6D
100
AcDbEntity
8
1
62
256
6
ByLayer
370
-1
48
1
60
0
100
AcDbLine
10
11.419355
20
3.527434
30
0
11
12.323793
21
1.946
31
0
39
0
210
0
220
0
230
1
0
LINE
5
6E
100
AcDbEntity
8
1
62
256
6
ByLayer
370
-1
48
1
60
0
100
AcDbLine
10
12.036751
20
3.58399
30
0
11
12.878218
21
2.109916
31
0
39
0
210
0
220
0
230
1
0
LINE
5
6F
100
AcDbEntity
8
1
62
256
6
ByLayer
370
-1
48
1
60
0
100
AcDbLine
10
12.878218
20
2.109916
30
0
11
13.472651
21
2.109916
31
0
39
0
210
0
220
0
230
1
0
LINE
5
70
100
AcDbEntity
8
1
62
256
6
ByLayer
370
-1
48
1
60
0
100
AcDbLine
10
13.752763
20
1.946
30
0
11
12.323793
21
1.946
31
0
39
0
210
0
220
0
230
1
0
LINE
5
71
100
AcDbEntity
8
1
62
256
6
ByLayer
370
-1
48
1
60
0
100
AcDbLine
10
11.697813
20
4.110544
30
0
11
11.953211
21
3.66377
31
0
39
0
210
0
220
0
230
1
0
LINE
5
72
100
AcDbEntity
8
1
62
256
6
ByLayer
370
-1
48
1
60
0
100
AcDbLine
10
8.493049
20
10.903409
30
0
11
8.340828
21
10.88834
31
0
39
0
210
0
220
0
230
1
0
LINE
5
73
100
AcDbEntity
8
1
62
256
6
ByLayer
370
-1
48
1
60
0
100
AcDbLine
10
7.827347
20
11.786159
30
0
11
7.829889
21
12.498126
31
0
39
0
210
0
220
0
230
1
0
LINE
5
74
100
AcDbEntity
8
1
62
256
6
ByLayer
370
-1
48
1
60
0
100
AcDbLine
10
8.28456
20
10.986728
30
0
11
8.46946
21
11.005031
31
0
39
0
210
0
220
0
230
1
0
LINE
5
75
100
AcDbEntity
8
1
62
256
6
ByLayer
370
-1
48
1
60
0
100
AcDbLine
10
11.112142
20
12.716651
30
0
11
10.985637
21
12.704128
31
0
39
0
210
0
220
0
230
1
0
LINE
5
76
100
AcDbEntity
8
1
62
256
6
ByLayer
370
-1
48
1
60
0
100
AcDbLine
10
10.736778
20
12.835115
30
0
11
11.558239
21
13.317475
31
0
39
0
210
0
220
0
230
1
0
LINE
5
77
100
AcDbEntity
8
1
62
256
6
ByLayer
370
-1
48
1
60
0
100
AcDbLine
10
9.653243
20
12.334772
30
0
11
9.549224
21
12.324475
31
0
39
0
210
0
220
0
230
1
0
LINE
5
78
100
AcDbEntity
8
1
62
256
6
ByLayer
370
-1
48
1
60
0
100
AcDbLine
10
9.702448
20
12.363665
30
0
11
9.510912
21
12.344705
31
0
39
0
210
0
220
0
230
1
0
LINE
5
79
100
AcDbEntity
8
1
62
256
6
ByLayer
370
-1
48
1
60
0
100
AcDbLine
10
9.171402
20
12.552035
30
0
11
9.167743
21
12.549802
31
0
39
0
210
0
220
0
230
1
0
LINE
5
7A
100
AcDbEntity
8
1
62
256
6
ByLayer
370
-1
48
1
60
0
100
AcDbLine
10
9.773417
20
12.517576
30
0
11
9.300074
21
12.470718
31
0
39
0
210
0
220
0
230
1
0
LINE
5
7B
100
AcDbEntity
8
1
62
256
6
ByLayer
370
-1
48
1
60
0
100
AcDbLine
10
9.767264
20
12.464136
30
0
11
9.375911
21
12.425395
31
0
39
0
210
0
220
0
230
1
0
LINE
5
7C
100
AcDbEntity
8
1
62
256
6
ByLayer
370
-1
48
1
60
0
100
AcDbLine
10
14.822761
20
1.949217
30
0
11
14.661363
21
1.93324
31
0
39
0
210
0
220
0
230
1
0
LINE
5
7D
100
AcDbEntity
8
1
62
256
6
ByLayer
370
-1
48
1
60
0
100
AcDbLine
10
14.209991
20
1.854776
30
0
11
14.171474
21
1.877315
31
0
39
0
210
0
220
0
230
1
0
LINE
5
7E
100
AcDbEntity
8
1
62
256
6
ByLayer
370
-1
48
1
60
0
100
AcDbLine
10
7.238054
20
13.487684
30
0
11
7.238057
21
13.498135
31
0
39
0
210
0
220
0
230
1
0
LINE
5
7F
100
AcDbEntity
8
1
62
256
6
ByLayer
370
-1
48
1
60
0
100
AcDbLine
10
9.01804
20
13.473682
30
0
11
9.018052
21
13.513877
31
0
39
0
210
0
220
0
230
1
0
LINE
5
80
100
AcDbEntity
8
1
62
256
6
ByLayer
370
-1
48
1
60
0
100
AcDbLine
10
9.005312
20
13.47328
30
0
11
9.005321
21
13.501312
31
0
39
0
210
0
220
0
230
1
0
LINE
5
81
100
AcDbEntity
8
1
62
256
6
ByLayer
370
-1
48
1
60
0
100
AcDbLine
10
8.394364
20
13.463398
30
0
11
8.394379
21
13.513045
31
0
39
0
210
0
220
0
230
1
0
LINE
5
82
100
AcDbEntity
8
1
62
256
6
ByLayer
370
-1
48
1
60
0
100
AcDbLine
10
9.838232
20
12.618046
30
0
11
10.411261
21
12.954527
31
0
39
0
210
0
220
0
230
1
0
LINE
5
83
100
AcDbEntity
8
1
62
256
6
ByLayer
370
-1
48
1
60
0
100
AcDbLine
10
11.078374
20
6.529942
30
0
11
11.916523
21
6.769106
31
0
39
0
210
0
220
0
230
1
0
LINE
5
84
100
AcDbEntity
8
1
62
256
6
ByLayer
370
-1
48
1
60
0
100
AcDbLine
10
8.577617
20
11.379536
30
0
11
8.609872
21
12.458097
31
0
39
0
210
0
220
0
230
1
0
LINE
5
85
100
AcDbEntity
8
1
62
256
6
ByLayer
370
-1
48
1
60
0
100
AcDbLine
10
21.784573
20
12.56465
30
0
11
21.689456
21
12.508775
31
0
39
0
210
0
220
0
230
1
0
LINE
5
86
100
AcDbEntity
8
1
62
256
6
ByLayer
370
-1
48
1
60
0
100
AcDbLine
10
14.28233
20
0.904869
30
0
11
14.274334
21
1.743074
31
0
39
0
210
0
220
0
230
1
0
LINE
5
87
100
AcDbEntity
8
1
62
256
6
ByLayer
370
-1
48
1
60
0
100
AcDbLine
10
8.941366
20
11.125594
30
0
11
9.349048
21
11.122151
31
0
39
0
210
0
220
0
230
1
0
LINE
5
88
100
AcDbEntity
8
1
62
256
6
ByLayer
370
-1
48
1
60
0
100
AcDbLine
10
21.132543
20
11.688956
30
0
11
21.132715
21
11.63117
31
0
39
0
210
0
220
0
230
1
0
LINE
5
89
100
AcDbEntity
8
1
62
256
6
ByLayer
370
-1
48
1
60
0
100
AcDbLine
10
19.698487
20
12.684042
30
0
11
19.252223
21
13.405625
31
0
39
0
210
0
220
0
230
1
0
LINE
5
8A
100
AcDbEntity
8
1
62
256
6
ByLayer
370
-1
48
1
60
0
100
AcDbLine
10
19.856755
20
7.116819
30
0
11
20.816891
21
8.814138
31
0
39
0
210
0
220
0
230
1
0
LINE
5
8B
100
AcDbEntity
8
1
62
256
6
ByLayer
370
-1
48
1
60
0
100
AcDbLine
10
21.288784
20
11.388738
30
0
11
21.290793
21
10.715776
31
0
39
0
210
0
220
0
230
1
0
LINE
5
8C
100
AcDbEntity
8
1
62
256
6
ByLayer
370
-1
48
1
60
0
100
AcDbLine
10
15.351317
20
13.414748
30
0
11
14.718501
21
13.415223
31
0
39
0
210
0
220
0
230
1
0
LINE
5
8D
100
AcDbEntity
8
1
62
256
6
ByLayer
370
-1
48
1
60
0
100
AcDbLine
10
18.959891
20
13.408317
30
0
11
18.676177
21
13.417769
31
0
39
0
210
0
220
0
230
1
0
LINE
5
8E
100
AcDbEntity
8
1
62
256
6
ByLayer
370
-1
48
1
60
0
100
AcDbLine
10
13.863873
20
2.989752
30
0
11
13.169744
21
2.921038
31
0
39
0
210
0
220
0
230
1
0
LINE
5
8F
100
AcDbEntity
8
1
62
256
6
ByLayer
370
-1
48
1
60
0
100
AcDbLine
10
9.171402
20
12.552035
30
0
11
9.74443
21
12.888516
31
0
39
0
210
0
220
0
230
1
0
LINE
5
90
100
AcDbEntity
8
1
62
256
6
ByLayer
370
-1
48
1
60
0
100
AcDbLine
10
16.391342
20
2.915207
30
0
11
13.888961
21
2.960296
31
0
39
0
210
0
220
0
230
1
0
LINE
5
91
100
AcDbEntity
8
1
62
256
6
ByLayer
370
-1
48
1
60
0
100
AcDbLine
10
18.539147
20
13.419031
30
0
11
15.890358
21
13.419031
31
0
39
0
210
0
220
0
230
1
0
LINE
5
92
100
AcDbEntity
8
1
62
256
6
ByLayer
370
-1
48
1
60
0
100
AcDbLine
10
11.007547
20
6.702411
30
0
11
11.916523
21
6.769106
31
0
39
0
210
0
220
0
230
1
0
LINE
5
93
100
AcDbEntity
8
1
62
256
6
ByLayer
370
-1
48
1
60
0
100
AcDbLine
10
13.894704
20
2.633744
30
0
11
16.348051
21
2.589538
31
0
39
0
210
0
220
0
230
1
0
LINE
5
94
100
AcDbEntity
8
1
62
256
6
ByLayer
370
-1
48
1
60
0
100
AcDbLine
10
19.754054
20
12.684126
30
0
11
19.7519
21
13.405709
31
0
39
0
210
0
220
0
230
1
0
LINE
5
95
100
AcDbEntity
8
1
62
256
6
ByLayer
370
-1
48
1
60
0
100
AcDbLine
10
10.742537
20
12.83167
30
0
11
9.431407
21
10.658072
31
0
39
0
210
0
220
0
230
1
0
LINE
5
96
100
AcDbEntity
8
1
62
256
6
ByLayer
370
-1
48
1
60
0
100
AcDbLine
10
19.612039
20
6.748411
30
0
11
18.766508
21
7.615976
31
0
39
0
210
0
220
0
230
1
0
LINE
5
97
100
AcDbEntity
8
1
62
256
6
ByLayer
370
-1
48
1
60
0
100
AcDbLine
10
15.262905
20
2.137494
30
0
11
15.288695
21
1.422085
31
0
39
0
210
0
220
0
230
1
0
LINE
5
98
100
AcDbEntity
8
1
62
256
6
ByLayer
370
-1
48
1
60
0
100
AcDbLine
10
13.903611
20
2.386647
30
0
11
13.894704
21
2.633744
31
0
39
0
210
0
220
0
230
1
0
LINE
5
99
100
AcDbEntity
8
1
62
256
6
ByLayer
370
-1
48
1
60
0
100
AcDbLine
10
14.872138
20
1.920324
30
0
11
14.822761
21
1.949217
31
0
39
0
210
0
220
0
230
1
0
LINE
5
9A
100
AcDbEntity
8
1
62
256
6
ByLayer
370
-1
48
1
60
0
100
AcDbLine
10
11.7382
20
5.435854
30
0
11
12.708469
21
3.738535
31
0
39
0
210
0
220
0
230
1
0
LINE
5
9B
100
AcDbEntity
8
1
62
256
6
ByLayer
370
-1
48
1
60
0
100
AcDbLine
10
9.254655
20
9.580343
30
0
11
9.540734
21
9.256383
31
0
39
0
210
0
220
0
230
1
0
LINE
5
9C
100
AcDbEntity
8
1
62
256
6
ByLayer
370
-1
48
1
60
0
100
AcDbLine
10
14.458143
20
12.187216
30
0
11
15.058891
21
12.035259
31
0
39
0
210
0
220
0
230
1
0
LINE
5
9D
100
AcDbEntity
8
1
62
256
6
ByLayer
370
-1
48
1
60
0
100
AcDbLine
10
9.724902
20
10.483408
30
0
11
11.062236
21
12.700447
31
0
39
0
210
0
220
0
230
1
0
LINE
5
9E
100
AcDbEntity
8
1
62
256
6
ByLayer
370
-1
48
1
60
0
100
AcDbLine
10
13.238747
20
2.320831
30
0
11
13.234088
21
2.809336
31
0
39
0
210
0
220
0
230
1
0
LINE
5
9F
100
AcDbEntity
8
1
62
256
6
ByLayer
370
-1
48
1
60
0
100
AcDbLine
10
21.785485
20
12.259181
30
0
11
20.844611
21
11.712295
31
0
39
0
210
0
220
0
230
1
0
LINE
5
A0
100
AcDbEntity
8
1
62
256
6
ByLayer
370
-1
48
1
60
0
100
AcDbLine
10
21.329988
20
12.506595
30
0
11
20.700469
21
12.867495
31
0
39
0
210
0
220
0
230
1
0
LINE
5
A1
100
AcDbEntity
8
1
62
256
6
ByLayer
370
-1
48
1
60
0
100
AcDbLine
10
16.348051
20
2.589538
30
0
11
16.964635
21
2.228747
31
0
39
0
210
0
220
0
230
1
0
LINE
5
A2
100
AcDbEntity
8
1
62
256
6
ByLayer
370
-1
48
1
60
0
100
AcDbLine
10
15.32269
20
0.927167
30
0
11
15.309901
21
1.029834
31
0
39
0
210
0
220
0
230
1
0
LINE
5
A3
100
AcDbEntity
8
1
62
256
6
ByLayer
370
-1
48
1
60
0
100
AcDbLine
10
13.903611
20
2.386647
30
0
11
13.238747
21
2.320831
31
0
39
0
210
0
220
0
230
1
0
LINE
5
A4
100
AcDbEntity
8
1
62
256
6
ByLayer
370
-1
48
1
60
0
100
AcDbLine
10
11.426355
20
12.877536
30
0
11
9.540734
21
9.256383
31
0
39
0
210
0
220
0
230
1
0
LINE
5
A5
100
AcDbEntity
8
1
62
256
6
ByLayer
370
-1
48
1
60
0
100
AcDbLine
10
15.070601
20
0.801254
30
0
11
14.381319
21
0.73302
31
0
39
0
210
0
220
0
230
1
0
LINE
5
A6
100
AcDbEntity
8
1
62
256
6
ByLayer
370
-1
48
1
60
0
100
AcDbLine
10
19.856755
20
7.116819
30
0
11
19.368501
21
7.427581
31
0
39
0
210
0
220
0
230
1
0
LINE
5
A7
100
AcDbEntity
8
1
62
256
6
ByLayer
370
-1
48
1
60
0
100
AcDbLine
10
19.311333
20
7.344291
30
0
11
19.802624
21
7.031595
31
0
39
0
210
0
220
0
230
1
0
LINE
5
A8
100
AcDbEntity
8
1
62
256
6
ByLayer
370
-1
48
1
60
0
100
AcDbLine
10
15.557751
20
13.415809
30
0
11
15.382013
21
12.585667
31
0
39
0
210
0
220
0
230
1
0
LINE
5
A9
100
AcDbEntity
8
1
62
256
6
ByLayer
370
-1
48
1
60
0
100
AcDbLine
10
21.273847
20
12.408359
30
0
11
20.646494
21
12.043707
31
0
39
0
210
0
220
0
230
1
0
LINE
5
AA
100
AcDbEntity
8
1
62
256
6
ByLayer
370
-1
48
1
60
0
100
AcDbLine
10
19.252223
20
13.405625
30
0
11
19.696333
21
13.405625
31
0
39
0
210
0
220
0
230
1
0
LINE
5
AB
100
AcDbEntity
8
1
62
256
6
ByLayer
370
-1
48
1
60
0
100
AcDbLine
10
15.091845
20
0.788823
30
0
11
15.070601
21
0.801254
31
0
39
0
210
0
220
0
230
1
0
LINE
5
AC
100
AcDbEntity
8
1
62
256
6
ByLayer
370
-1
48
1
60
0
100
AcDbLine
10
9.570767
20
11.252344
30
0
11
9.780894
21
11.618563
31
0
39
0
210
0
220
0
230
1
0
LINE
5
AD
100
AcDbEntity
8
1
62
256
6
ByLayer
370
-1
48
1
60
0
100
AcDbLine
10
10.411261
20
12.954527
30
0
11
9.74443
21
12.888516
31
0
39
0
210
0
220
0
230
1
0
LINE
5
AE
100
AcDbEntity
8
1
62
256
6
ByLayer
370
-1
48
1
60
0
100
AcDbLine
10
9.628763
20
9.125952
30
0
11
11.64632
21
13.000475
31
0
39
0
210
0
220
0
230
1
0
LINE
5
AF
100
AcDbEntity
8
1
62
256
6
ByLayer
370
-1
48
1
60
0
100
AcDbLine
10
13.878128
20
1.872648
30
0
11
13.303091
21
2.209129
31
0
39
0
210
0
220
0
230
1
0
LINE
5
B0
100
AcDbEntity
8
1
62
256
6
ByLayer
370
-1
48
1
60
0
100
AcDbLine
10
19.133668
20
5.84902
30
0
11
19.20348
21
6.016286
31
0
39
0
210
0
220
0
230
1
0
LINE
5
B1
100
AcDbEntity
8
1
62
256
6
ByLayer
370
-1
48
1
60
0
100
AcDbLine
10
21.689456
20
12.508775
30
0
11
21.329988
21
12.506595
31
0
39
0
210
0
220
0
230
1
0
LINE
5
B2
100
AcDbEntity
8
1
62
256
6
ByLayer
370
-1
48
1
60
0
100
AcDbLine
10
21.930565
20
12.227407
30
0
11
21.197451
21
11.801282
31
0
39
0
210
0
220
0
230
1
0
LINE
5
B3
100
AcDbEntity
8
1
62
256
6
ByLayer
370
-1
48
1
60
0
100
AcDbLine
10
12.730717
20
6.150382
30
0
11
12.558386
21
6.754172
31
0
39
0
210
0
220
0
230
1
0
LINE
5
B4
100
AcDbEntity
8
1
62
256
6
ByLayer
370
-1
48
1
60
0
100
AcDbLine
10
17.769347
20
3.426721
30
0
11
19.08679
21
5.755683
31
0
39
0
210
0
220
0
230
1
0
LINE
5
B5
100
AcDbEntity
8
1
62
256
6
ByLayer
370
-1
48
1
60
0
100
AcDbLine
10
11.603339
20
5.625909
30
0
11
11.683564
21
5.519836
31
0
39
0
210
0
220
0
230
1
0
LINE
5
B6
100
AcDbEntity
8
1
62
256
6
ByLayer
370
-1
48
1
60
0
100
AcDbLine
10
11.915575
20
6.867096
30
0
11
10.960109
21
6.79699
31
0
39
0
210
0
220
0
230
1
0
LINE
5
B7
100
AcDbEntity
8
1
62
256
6
ByLayer
370
-1
48
1
60
0
100
AcDbLine
10
8.609872
20
12.458097
30
0
11
8.691371
21
12.40869
31
0
39
0
210
0
220
0
230
1
0
LINE
5
B8
100
AcDbEntity
8
1
62
256
6
ByLayer
370
-1
48
1
60
0
100
AcDbLine
10
15.474933
20
12.543696
30
0
11
15.890358
21
13.419031
31
0
39
0
210
0
220
0
230
1
0
LINE
5
B9
100
AcDbEntity
8
1
62
256
6
ByLayer
370
-1
48
1
60
0
100
AcDbLine
10
15.777225
20
13.41841
30
0
11
15.382013
21
12.585667
31
0
39
0
210
0
220
0
230
1
0
LINE
5
BA
100
AcDbEntity
8
1
62
256
6
ByLayer
370
-1
48
1
60
0
100
AcDbLine
10
19.696333
20
13.405625
30
0
11
19.698487
21
12.684042
31
0
39
0
210
0
220
0
230
1
0
LINE
5
BB
100
AcDbEntity
8
1
62
256
6
ByLayer
370
-1
48
1
60
0
100
AcDbLine
10
19.015088
20
6.469505
30
0
11
18.338091
21
7.164142
31
0
39
0
210
0
220
0
230
1
0
LINE
5
BC
100
AcDbEntity
8
1
62
256
6
ByLayer
370
-1
48
1
60
0
100
AcDbLine
10
11.561032
20
6.469505
30
0
11
12.533354
21
6.746954
31
0
39
0
210
0
220
0
230
1
0
LINE
5
BD
100
AcDbEntity
8
1
62
256
6
ByLayer
370
-1
48
1
60
0
100
AcDbLine
10
14.968585
20
0.972803
30
0
11
14.938448
21
1.808817
31
0
39
0
210
0
220
0
230
1
0
LINE
5
BE
100
AcDbEntity
8
1
62
256
6
ByLayer
370
-1
48
1
60
0
100
AcDbLine
10
8.46946
20
11.005031
30
0
11
8.516144
21
12.56606
31
0
39
0
210
0
220
0
230
1
0
LINE
5
BF
100
AcDbEntity
8
1
62
256
6
ByLayer
370
-1
48
1
60
0
100
AcDbLine
10
9.254655
20
9.580343
30
0
11
9.724902
21
10.483408
31
0
39
0
210
0
220
0
230
1
0
LINE
5
C0
100
AcDbEntity
8
1
62
256
6
ByLayer
370
-1
48
1
60
0
100
AcDbLine
10
19.290112
20
6.187314
30
0
11
19.015088
21
6.469505
31
0
39
0
210
0
220
0
230
1
0
LINE
5
C1
100
AcDbEntity
8
1
62
256
6
ByLayer
370
-1
48
1
60
0
100
AcDbLine
10
14.536439
20
13.416575
30
0
11
14.412456
21
12.830912
31
0
39
0
210
0
220
0
230
1
0
LINE
5
C2
100
AcDbEntity
8
1
62
256
6
ByLayer
370
-1
48
1
60
0
100
AcDbLine
10
15.091845
20
0.788823
30
0
11
14.402563
21
0.72059
31
0
39
0
210
0
220
0
230
1
0
LINE
5
C3
100
AcDbEntity
8
1
62
256
6
ByLayer
370
-1
48
1
60
0
100
AcDbLine
10
9.329043
20
11.390436
30
0
11
8.921362
21
11.393879
31
0
39
0
210
0
220
0
230
1
0
LINE
5
C4
100
AcDbEntity
8
1
62
256
6
ByLayer
370
-1
48
1
60
0
100
AcDbLine
10
14.544958
20
1.938659
30
0
11
13.878128
21
1.872648
31
0
39
0
210
0
220
0
230
1
0
LINE
5
C5
100
AcDbEntity
8
1
62
256
6
ByLayer
370
-1
48
1
60
0
100
AcDbLine
10
8.617133
20
12.738209
30
0
11
8.638303
21
12.750639
31
0
39
0
210
0
220
0
230
1
0
LINE
5
C6
100
AcDbEntity
8
1
62
256
6
ByLayer
370
-1
48
1
60
0
100
AcDbLine
10
8.942869
20
12.113039
30
0
11
9.53917
21
11.756655
31
0
39
0
210
0
220
0
230
1
0
LINE
5
C7
100
AcDbEntity
8
1
62
256
6
ByLayer
370
-1
48
1
60
0
100
AcDbLine
10
15.022994
20
2.152837
30
0
11
15.262905
21
2.137494
31
0
39
0
210
0
220
0
230
1
0
LINE
5
C8
100
AcDbEntity
8
1
62
256
6
ByLayer
370
-1
48
1
60
0
100
AcDbLine
10
8.838956
20
12.10981
30
0
11
8.817449
21
11.39065
31
0
39
0
210
0
220
0
230
1
0
LINE
5
C9
100
AcDbEntity
8
1
62
256
6
ByLayer
370
-1
48
1
60
0
100
AcDbLine
10
20.700469
20
12.867495
30
0
11
20.840451
21
13.10591
31
0
39
0
210
0
220
0
230
1
0
LINE
5
CA
100
AcDbEntity
8
1
62
256
6
ByLayer
370
-1
48
1
60
0
100
AcDbLine
10
20.211072
20
12.277023
30
0
11
20.428146
21
11.914892
31
0
39
0
210
0
220
0
230
1
0
LINE
5
CB
100
AcDbEntity
8
1
62
256
6
ByLayer
370
-1
48
1
60
0
100
AcDbLine
10
9.601694
20
11.851156
30
0
11
9.005392
21
12.207541
31
0
39
0
210
0
220
0
230
1
0
LINE
5
CC
100
AcDbEntity
8
1
62
256
6
ByLayer
370
-1
48
1
60
0
100
AcDbLine
10
21.009201
20
10.477502
30
0
11
19.754054
21
12.684126
31
0
39
0
210
0
220
0
230
1
0
LINE
5
CD
100
AcDbEntity
8
1
62
256
6
ByLayer
370
-1
48
1
60
0
100
AcDbLine
10
19.723044
20
6.921851
30
0
11
19.311333
21
7.344291
31
0
39
0
210
0
220
0
230
1
0
LINE
5
CE
100
AcDbEntity
8
1
62
256
6
ByLayer
370
-1
48
1
60
0
100
AcDbLine
10
20.777853
20
10.247147
30
0
11
20.827168
21
9.939746
31
0
39
0
210
0
220
0
230
1
0
LINE
5
CF
100
AcDbEntity
8
1
62
256
6
ByLayer
370
-1
48
1
60
0
100
AcDbLine
10
21.330571
20
12.311133
30
0
11
21.690039
21
12.313313
31
0
39
0
210
0
220
0
230
1
0
LINE
5
D0
100
AcDbEntity
8
1
62
256
6
ByLayer
370
-1
48
1
60
0
100
AcDbLine
10
17.211898
20
2.667266
30
0
11
16.991009
21
2.276779
31
0
39
0
210
0
220
0
230
1
0
LINE
5
D1
100
AcDbEntity
8
1
62
256
6
ByLayer
370
-1
48
1
60
0
100
AcDbLine
10
19.20348
20
6.016286
30
0
11
18.619904
21
6.615069
31
0
39
0
210
0
220
0
230
1
0
LINE
5
D2
100
AcDbEntity
8
1
62
256
6
ByLayer
370
-1
48
1
60
0
100
AcDbLine
10
8.869979
20
12.610831
30
0
11
9.764283
21
12.076343
31
0
39
0
210
0
220
0
230
1
0
LINE
5
D3
100
AcDbEntity
8
1
62
256
6
ByLayer
370
-1
48
1
60
0
100
AcDbLine
10
14.718501
20
13.415223
30
0
11
14.463878
21
12.212447
31
0
39
0
210
0
220
0
230
1
0
LINE
5
D4
100
AcDbEntity
8
1
62
256
6
ByLayer
370
-1
48
1
60
0
100
AcDbLine
10
22.03035
20
12.425078
30
0
11
22.030424
21
12.400217
31
0
39
0
210
0
220
0
230
1
0
LINE
5
D5
100
AcDbEntity
8
1
62
256
6
ByLayer
370
-1
48
1
60
0
100
AcDbLine
10
15.986814
20
1.770478
30
0
11
15.39263
21
1.417845
31
0
39
0
210
0
220
0
230
1
0
LINE
5
D6
100
AcDbEntity
8
1
62
256
6
ByLayer
370
-1
48
1
60
0
100
AcDbLine
10
21.225885
20
10.60345
30
0
11
21.009201
21
10.477502
31
0
39
0
210
0
220
0
230
1
0
LINE
5
D7
100
AcDbEntity
8
1
62
256
6
ByLayer
370
-1
48
1
60
0
100
AcDbLine
10
15.309901
20
1.029834
30
0
11
15.455714
21
1.324355
31
0
39
0
210
0
220
0
230
1
0
LINE
5
D8
100
AcDbEntity
8
1
62
256
6
ByLayer
370
-1
48
1
60
0
100
AcDbLine
10
8.516144
20
12.56606
30
0
11
7.829889
21
12.498126
31
0
39
0
210
0
220
0
230
1
0
LINE
5
D9
100
AcDbEntity
8
1
62
256
6
ByLayer
370
-1
48
1
60
0
100
AcDbLine
10
13.969921
20
2.27514
30
0
11
13.303091
21
2.209129
31
0
39
0
210
0
220
0
230
1
0
LINE
5
DA
100
AcDbEntity
8
1
62
256
6
ByLayer
370
-1
48
1
60
0
100
AcDbLine
10
19.290112
20
6.187314
30
0
11
19.612039
21
6.748411
31
0
39
0
210
0
220
0
230
1
0
LINE
5
DB
100
AcDbEntity
8
1
62
256
6
ByLayer
370
-1
48
1
60
0
100
AcDbLine
10
20.563009
20
13.380669
30
0
11
21.92946
21
12.597289
31
0
39
0
210
0
220
0
230
1
0
LINE
5
DC
100
AcDbEntity
8
1
62
256
6
ByLayer
370
-1
48
1
60
0
100
AcDbLine
10
20.646494
20
12.043707
30
0
11
20.429419
21
12.405838
31
0
39
0
210
0
220
0
230
1
0
LINE
5
DD
100
AcDbEntity
8
1
62
256
6
ByLayer
370
-1
48
1
60
0
100
AcDbLine
10
13.903018
20
2.875556
30
0
11
13.234088
21
2.809336
31
0
39
0
210
0
220
0
230
1
0
LINE
5
DE
100
AcDbEntity
8
1
62
256
6
ByLayer
370
-1
48
1
60
0
100
AcDbLine
10
8.617133
20
12.738209
30
0
11
7.927852
21
12.669975
31
0
39
0
210
0
220
0
230
1
0
LINE
5
DF
100
AcDbEntity
8
1
62
256
6
ByLayer
370
-1
48
1
60
0
100
AcDbLine
10
15.455714
20
1.324355
30
0
11
16.049899
21
1.676987
31
0
39
0
210
0
220
0
230
1
0
LINE
5
E0
100
AcDbEntity
8
1
62
256
6
ByLayer
370
-1
48
1
60
0
100
AcDbLine
10
19.723044
20
6.921851
30
0
11
19.802624
21
7.031595
31
0
39
0
210
0
220
0
230
1
0
LINE
5
E1
100
AcDbEntity
8
1
62
256
6
ByLayer
370
-1
48
1
60
0
100
AcDbLine
10
15.777225
20
13.41841
30
0
11
15.557751
21
13.415809
31
0
39
0
210
0
220
0
230
1
0
LINE
5
E2
100
AcDbEntity
8
1
62
256
6
ByLayer
370
-1
48
1
60
0
100
AcDbLine
10
17.398016
20
2.950902
30
0
11
17.682105
21
3.293766
31
0
39
0
210
0
220
0
230
1
0
LINE
5
E3
100
AcDbEntity
8
1
62
256
6
ByLayer
370
-1
48
1
60
0
100
AcDbLine
10
21.188544
20
11.525402
30
0
11
21.232956
21
11.494506
31
0
39
0
210
0
220
0
230
1
0
LINE
5
E4
100
AcDbEntity
8
1
62
256
6
ByLayer
370
-1
48
1
60
0
100
AcDbLine
10
20.460217
20
13.407823
30
0
11
19.7519
21
13.405709
31
0
39
0
210
0
220
0
230
1
0
LINE
5
E5
100
AcDbEntity
8
1
62
256
6
ByLayer
370
-1
48
1
60
0
100
AcDbLine
10
16.049899
20
1.676987
30
0
11
16.21382
21
1.456029
31
0
39
0
210
0
220
0
230
1
0
LINE
5
E6
100
AcDbEntity
8
1
62
256
6
ByLayer
370
-1
48
1
60
0
100
AcDbLine
10
21.690039
20
12.313313
30
0
11
21.785485
21
12.259181
31
0
39
0
210
0
220
0
230
1
0
LINE
5
E7
100
AcDbEntity
8
1
62
256
6
ByLayer
370
-1
48
1
60
0
100
AcDbLine
10
18.959891
20
13.408317
30
0
11
19.496318
21
12.540947
31
0
39
0
210
0
220
0
230
1
0
LINE
5
E8
100
AcDbEntity
8
1
62
256
6
ByLayer
370
-1
48
1
60
0
100
AcDbLine
10
15.351317
20
13.414748
30
0
11
15.268496
21
13.023523
31
0
39
0
210
0
220
0
230
1
0
LINE
5
E9
100
AcDbEntity
8
1
62
256
6
ByLayer
370
-1
48
1
60
0
100
AcDbLine
10
11.64632
20
13.000475
30
0
11
12.313497
21
13.39224
31
0
39
0
210
0
220
0
230
1
0
LINE
5
EA
100
AcDbEntity
8
1
62
256
6
ByLayer
370
-1
48
1
60
0
100
AcDbLine
10
14.707138
20
1.955012
30
0
11
14.660582
21
1.932865
31
0
39
0
210
0
220
0
230
1
0
LINE
5
EB
100
AcDbEntity
8
1
62
256
6
ByLayer
370
-1
48
1
60
0
100
AcDbLine
10
16.644312
20
1.626847
30
0
11
16.964635
21
2.228747
31
0
39
0
210
0
220
0
230
1
0
LINE
5
EC
100
AcDbEntity
8
1
62
256
6
ByLayer
370
-1
48
1
60
0
100
AcDbLine
10
11.007547
20
6.702411
30
0
11
11.078374
21
6.529942
31
0
39
0
210
0
220
0
230
1
0
LINE
5
ED
100
AcDbEntity
8
1
62
256
6
ByLayer
370
-1
48
1
60
0
100
AcDbLine
10
11.603339
20
5.625909
30
0
11
12.194651
21
5.794638
31
0
39
0
210
0
220
0
230
1
0
LINE
5
EE
100
AcDbEntity
8
1
62
256
6
ByLayer
370
-1
48
1
60
0
100
AcDbLine
10
10.536578
20
12.954762
30
0
11
10.742537
21
12.83167
31
0
39
0
210
0
220
0
230
1
0
LINE
5
EF
100
AcDbEntity
8
1
62
256
6
ByLayer
370
-1
48
1
60
0
100
AcDbLine
10
14.342303
20
13.419031
30
0
11
14.32263
21
12.835166
31
0
39
0
210
0
220
0
230
1
0
LINE
5
F0
100
AcDbEntity
8
1
62
256
6
ByLayer
370
-1
48
1
60
0
100
AcDbLine
10
14.412456
20
12.830912
30
0
11
14.432251
21
13.41841
31
0
39
0
210
0
220
0
230
1
0
LINE
5
F1
100
AcDbEntity
8
1
62
256
6
ByLayer
370
-1
48
1
60
0
100
AcDbLine
10
11.166034
20
6.356793
30
0
11
11.561032
21
6.469505
31
0
39
0
210
0
220
0
230
1
0
LINE
5
F2
100
AcDbEntity
8
1
62
256
6
ByLayer
370
-1
48
1
60
0
100
AcDbLine
10
8.843639
20
10.249081
30
0
11
9.458068
21
10.609873
31
0
39
0
210
0
220
0
230
1
0
LINE
5
F3
100
AcDbEntity
8
1
62
256
6
ByLayer
370
-1
48
1
60
0
100
AcDbLine
10
11.166034
20
6.356793
30
0
11
11.491308
21
5.796645
31
0
39
0
210
0
220
0
230
1
0
LINE
5
F4
100
AcDbEntity
8
1
62
256
6
ByLayer
370
-1
48
1
60
0
100
AcDbLine
10
13.863873
20
2.989752
30
0
11
13.645493
21
3.150636
31
0
39
0
210
0
220
0
230
1
0
LINE
5
F5
100
AcDbEntity
8
1
62
256
6
ByLayer
370
-1
48
1
60
0
100
AcDbLine
10
14.872138
20
1.920324
30
0
11
14.209991
21
1.854776
31
0
39
0
210
0
220
0
230
1
0
LINE
5
F6
100
AcDbEntity
8
1
62
256
6
ByLayer
370
-1
48
1
60
0
100
AcDbLine
10
13.450296
20
3.273576
30
0
11
12.78078
21
3.665341
31
0
39
0
210
0
220
0
230
1
0
LINE
5
F7
100
AcDbEntity
8
1
62
256
6
ByLayer
370
-1
48
1
60
0
100
AcDbLine
10
9.653243
20
12.334772
30
0
11
9.702448
21
12.363665
31
0
39
0
210
0
220
0
230
1
0
LINE
5
F8
100
AcDbEntity
8
1
62
256
6
ByLayer
370
-1
48
1
60
0
100
AcDbLine
10
14.342303
20
13.419031
30
0
11
12.411897
21
13.419031
31
0
39
0
210
0
220
0
230
1
0
LINE
5
F9
100
AcDbEntity
8
1
62
256
6
ByLayer
370
-1
48
1
60
0
100
AcDbLine
10
15.7929
20
2.40645
30
0
11
15.385234
21
2.404296
31
0
39
0
210
0
220
0
230
1
0
LINE
5
FA
100
AcDbEntity
8
1
62
256
6
ByLayer
370
-1
48
1
60
0
100
AcDbLine
10
9.005392
20
12.207541
30
0
11
8.857808
21
12.506421
31
0
39
0
210
0
220
0
230
1
0
LINE
5
FB
100
AcDbEntity
8
1
62
256
6
ByLayer
370
-1
48
1
60
0
100
AcDbLine
10
15.774505
20
2.135408
30
0
11
15.986814
21
1.770478
31
0
39
0
210
0
220
0
230
1
0
LINE
5
FC
100
AcDbEntity
8
1
62
256
6
ByLayer
370
-1
48
1
60
0
100
AcDbLine
10
15.142881
20
1.127565
30
0
11
15.061671
21
1.079901
31
0
39
0
210
0
220
0
230
1
0
LINE
5
FD
100
AcDbEntity
8
1
62
256
6
ByLayer
370
-1
48
1
60
0
100
AcDbLine
10
8.691371
20
12.40869
30
0
11
8.838956
21
12.10981
31
0
39
0
210
0
220
0
230
1
0
LINE
5
FE
100
AcDbEntity
8
1
62
256
6
ByLayer
370
-1
48
1
60
0
100
AcDbLine
10
20.840641
20
9.697653
30
0
11
20.84298
21
8.914123
31
0
39
0
210
0
220
0
230
1
0
LINE
5
FF
100
AcDbEntity
8
1
62
256
6
ByLayer
370
-1
48
1
60
0
100
AcDbLine
10
8.831099
20
12.751001
30
0
11
9.527926
21
12.334537
31
0
39
0
210
0
220
0
230
1
0
LINE
5
100
100
AcDbEntity
8
1
62
256
6
ByLayer
370
-1
48
1
60
0
100
AcDbLine
10
7.927852
20
12.669975
30
0
11
7.949022
21
12.682406
31
0
39
0
210
0
220
0
230
1
0
LINE
5
101
100
AcDbEntity
8
1
62
256
6
ByLayer
370
-1
48
1
60
0
100
AcDbLine
10
8.638303
20
12.750639
30
0
11
7.949022
21
12.682406
31
0
39
0
210
0
220
0
230
1
0
LINE
5
102
100
AcDbEntity
8
1
62
256
6
ByLayer
370
-1
48
1
60
0
100
AcDbLine
10
9.838232
20
12.618046
30
0
11
9.171402
21
12.552035
31
0
39
0
210
0
220
0
230
1
0
LINE
5
103
100
AcDbEntity
8
1
62
256
6
ByLayer
370
-1
48
1
60
0
100
AcDbLine
10
15.36684
20
2.133254
30
0
11
15.774505
21
2.135408
31
0
39
0
210
0
220
0
230
1
0
LINE
5
104
100
AcDbEntity
8
1
62
256
6
ByLayer
370
-1
48
1
60
0
100
AcDbLine
10
20.425203
20
12.90083
30
0
11
20.210294
21
12.53741
31
0
39
0
210
0
220
0
230
1
0
LINE
5
105
100
AcDbEntity
8
1
62
256
6
ByLayer
370
-1
48
1
60
0
100
AcDbLine
10
18.338091
20
7.164142
30
0
11
18.766508
21
7.615976
31
0
39
0
210
0
220
0
230
1
0
LINE
5
106
100
AcDbEntity
8
1
62
256
6
ByLayer
370
-1
48
1
60
0
100
AcDbLine
10
18.748397
20
7.634106
30
0
11
18.319981
21
7.182273
31
0
39
0
210
0
220
0
230
1
0
LINE
5
107
100
AcDbEntity
8
1
62
256
6
ByLayer
370
-1
48
1
60
0
100
AcDbLine
10
19.496318
20
12.540947
30
0
11
20.776551
21
10.29022
31
0
39
0
210
0
220
0
230
1
0
LINE
5
108
100
AcDbEntity
8
1
62
256
6
ByLayer
370
-1
48
1
60
0
100
AcDbLine
10
14.536439
20
13.416575
30
0
11
14.432251
21
13.41841
31
0
39
0
210
0
220
0
230
1
0
LINE
5
109
100
AcDbEntity
8
1
62
256
6
ByLayer
370
-1
48
1
60
0
100
AcDbLine
10
18.546749
20
6.560913
30
0
11
19.08679
21
5.755683
31
0
39
0
210
0
220
0
230
1
0
LINE
5
10A
100
AcDbEntity
8
1
62
256
6
ByLayer
370
-1
48
1
60
0
100
AcDbLine
10
19.133668
20
5.84902
30
0
11
18.619904
21
6.615069
31
0
39
0
210
0
220
0
230
1
0
LINE
5
10B
100
AcDbEntity
8
1
62
256
6
ByLayer
370
-1
48
1
60
0
100
AcDbLine
10
16.374425
20
2.637571
30
0
11
17.211898
21
2.667266
31
0
39
0
210
0
220
0
230
1
0
LINE
5
10C
100
AcDbEntity
8
1
62
256
6
ByLayer
370
-1
48
1
60
0
100
AcDbLine
10
16.574399
20
1.553298
30
0
11
15.284645
21
0.787862
31
0
39
0
210
0
220
0
230
1
0
LINE
5
10D
100
AcDbEntity
8
1
62
256
6
ByLayer
370
-1
48
1
60
0
100
AcDbLine
10
9.53917
20
11.756655
30
0
11
9.329043
21
11.390436
31
0
39
0
210
0
220
0
230
1
0
LINE
5
10E
100
AcDbEntity
8
1
62
256
6
ByLayer
370
-1
48
1
60
0
100
AcDbLine
10
17.769347
20
3.426721
30
0
11
13.450296
21
3.273576
31
0
39
0
210
0
220
0
230
1
0
LINE
5
10F
100
AcDbEntity
8
1
62
256
6
ByLayer
370
-1
48
1
60
0
100
AcDbLine
10
15.064625
20
12.06049
30
0
11
14.463878
21
12.212447
31
0
39
0
210
0
220
0
230
1
0
LINE
5
110
100
AcDbEntity
8
1
62
256
6
ByLayer
370
-1
48
1
60
0
100
AcDbLine
10
12.313497
20
13.39224
30
0
11
11.558239
21
13.317475
31
0
39
0
210
0
220
0
230
1
0
LINE
5
111
100
AcDbEntity
8
1
62
256
6
ByLayer
370
-1
48
1
60
0
100
AcDbLine
10
11.953211
20
3.66377
30
0
11
12.708469
21
3.738535
31
0
39
0
210
0
220
0
230
1
0
LINE
5
112
100
AcDbEntity
8
1
62
256
6
ByLayer
370
-1
48
1
60
0
100
AcDbLine
10
13.645493
20
3.150636
30
0
11
17.682105
21
3.293766
31
0
39
0
210
0
220
0
230
1
0
LINE
5
113
100
AcDbEntity
8
1
62
256
6
ByLayer
370
-1
48
1
60
0
100
AcDbLine
10
8.817449
20
11.39065
30
0
11
8.577617
21
11.379536
31
0
39
0
210
0
220
0
230
1
0
LINE
5
114
100
AcDbEntity
8
1
62
256
6
ByLayer
370
-1
48
1
60
0
100
AcDbLine
10
17.398016
20
2.950902
30
0
11
16.391342
21
2.915207
31
0
39
0
210
0
220
0
230
1
0
LINE
5
115
100
AcDbEntity
8
1
62
256
6
ByLayer
370
-1
48
1
60
0
100
AcDbLine
10
20.644328
20
12.769259
30
0
11
21.273847
21
12.408359
31
0
39
0
210
0
220
0
230
1
0
LINE
5
116
100
AcDbEntity
8
1
62
256
6
ByLayer
370
-1
48
1
60
0
100
AcDbLine
10
9.628763
20
9.125952
30
0
11
10.960109
21
6.79699
31
0
39
0
210
0
220
0
230
1
0
LINE
5
117
100
AcDbEntity
8
1
62
256
6
ByLayer
370
-1
48
1
60
0
100
AcDbLine
10
13.169744
20
2.921038
30
0
11
12.025522
21
3.590576
31
0
39
0
210
0
220
0
230
1
0
LINE
5
118
100
AcDbEntity
8
1
62
256
6
ByLayer
370
-1
48
1
60
0
100
AcDbLine
10
20.840451
20
13.10591
30
0
11
21.784573
21
12.56465
31
0
39
0
210
0
220
0
230
1
0
LINE
5
119
100
AcDbEntity
8
1
62
256
6
ByLayer
370
-1
48
1
60
0
100
AcDbLine
10
11.491308
20
5.796645
30
0
11
12.705685
21
6.143164
31
0
39
0
210
0
220
0
230
1
0
LINE
5
11A
100
AcDbEntity
8
1
62
256
6
ByLayer
370
-1
48
1
60
0
100
AcDbLine
10
8.921362
20
11.393879
30
0
11
8.942869
21
12.113039
31
0
39
0
210
0
220
0
230
1
0
LINE
5
11B
100
AcDbEntity
8
1
62
256
6
ByLayer
370
-1
48
1
60
0
100
AcDbLine
10
9.458068
20
10.609873
30
0
11
9.06686
21
9.858595
31
0
39
0
210
0
220
0
230
1
0
LINE
5
11C
100
AcDbEntity
8
1
62
256
6
ByLayer
370
-1
48
1
60
0
100
AcDbLine
10
18.539147
20
13.419031
30
0
11
20.840641
21
9.697653
31
0
39
0
210
0
220
0
230
1
0
LINE
5
11D
100
AcDbEntity
8
1
62
256
6
ByLayer
370
-1
48
1
60
0
100
AcDbLine
10
9.431407
20
10.658072
30
0
11
8.816978
21
10.297281
31
0
39
0
210
0
220
0
230
1
0
LINE
5
11E
100
AcDbEntity
8
1
62
256
6
ByLayer
370
-1
48
1
60
0
100
AcDbLine
10
20.827168
20
9.939746
30
0
11
18.676177
21
13.417769
31
0
39
0
210
0
220
0
230
1
0
LINE
5
11F
100
AcDbEntity
8
1
62
256
6
ByLayer
370
-1
48
1
60
0
100
AcDbLine
10
20.703218
20
11.946482
30
0
11
21.330571
21
12.311133
31
0
39
0
210
0
220
0
230
1
0
LINE
5
120
100
AcDbEntity
8
1
62
256
6
ByLayer
370
-1
48
1
60
0
100
AcDbLine
10
11.112142
20
12.716651
30
0
11
11.426355
21
12.877536
31
0
39
0
210
0
220
0
230
1
0
LINE
5
121
100
AcDbEntity
8
1
62
256
6
ByLayer
370
-1
48
1
60
0
100
AcDbLine
10
8.493049
20
10.903409
30
0
11
8.816978
21
10.297281
31
0
39
0
210
0
220
0
230
1
0
LINE
5
122
100
AcDbEntity
8
1
62
256
6
ByLayer
370
-1
48
1
60
0
100
AcDbLine
10
14.544958
20
1.938659
30
0
11
13.969921
21
2.27514
31
0
39
0
210
0
220
0
230
1
0
LINE
5
123
100
AcDbEntity
8
1
62
256
6
ByLayer
370
-1
48
1
60
0
100
AcDbLine
10
16.21382
20
1.456029
30
0
11
15.32269
21
0.927167
31
0
39
0
210
0
220
0
230
1
0
LINE
5
124
100
AcDbEntity
8
1
62
256
6
ByLayer
370
-1
48
1
60
0
100
AcDbLine
10
9.06686
20
9.858595
30
0
11
8.843639
21
10.249081
31
0
39
0
210
0
220
0
230
1
0
LINE
5
125
100
AcDbEntity
8
1
62
256
6
ByLayer
370
-1
48
1
60
0
100
AcDbLine
10
16.991009
20
2.276779
30
0
11
16.374425
21
2.637571
31
0
39
0
210
0
220
0
230
1
0
LINE
5
126
100
AcDbEntity
8
1
62
256
6
ByLayer
370
-1
48
1
60
0
100
AcDbLine
10
15.39263
20
1.417845
30
0
11
15.36684
21
2.133254
31
0
39
0
210
0
220
0
230
1
0
LINE
5
127
100
AcDbEntity
8
1
62
256
6
ByLayer
370
-1
48
1
60
0
100
AcDbLine
10
14.938448
20
1.808817
30
0
11
14.274334
21
1.743074
31
0
39
0
210
0
220
0
230
1
0
LINE
5
128
100
AcDbEntity
8
1
62
256
6
ByLayer
370
-1
48
1
60
0
100
AcDbLine
10
15.268496
20
13.023523
30
0
11
15.064625
21
12.06049
31
0
39
0
210
0
220
0
230
1
0
LINE
5
129
100
AcDbEntity
8
1
62
256
6
ByLayer
370
-1
48
1
60
0
100
AcDbLine
10
9.764283
20
12.076343
30
0
11
9.601694
21
11.851156
31
0
39
0
210
0
220
0
230
1
0
LINE
5
12A
100
AcDbEntity
8
1
62
256
6
ByLayer
370
-1
48
1
60
0
100
AcDbLine
10
20.844611
20
11.712295
30
0
11
20.703218
21
11.946482
31
0
39
0
210
0
220
0
230
1
0
LINE
5
12B
100
AcDbEntity
8
1
62
256
6
ByLayer
370
-1
48
1
60
0
100
AcDbLine
10
14.968585
20
0.972803
30
0
11
14.28233
21
0.904869
31
0
39
0
210
0
220
0
230
1
0
LINE
5
12C
100
AcDbEntity
8
1
62
256
6
ByLayer
370
-1
48
1
60
0
100
AcDbLine
10
12.194651
20
5.794638
30
0
11
11.683564
21
5.519836
31
0
39
0
210
0
220
0
230
1
0
LINE
5
12D
100
AcDbEntity
8
1
62
256
6
ByLayer
370
-1
48
1
60
0
100
AcDbLine
10
9.767264
20
12.464136
30
0
11
9.773417
21
12.517576
31
0
39
0
210
0
220
0
230
1
0
LINE
5
12E
100
AcDbEntity
8
1
62
256
6
ByLayer
370
-1
48
1
60
0
100
AcDbLine
10
15.061671
20
1.079901
30
0
11
15.022994
21
2.152837
31
0
39
0
210
0
220
0
230
1
0
LINE
5
12F
100
AcDbEntity
8
1
62
256
6
ByLayer
370
-1
48
1
60
0
100
AcDbLine
10
8.857808
20
12.506421
30
0
11
8.869979
21
12.610831
31
0
39
0
210
0
220
0
230
1
0
LINE
5
130
100
AcDbEntity
8
1
62
256
6
ByLayer
370
-1
48
1
60
0
100
AcDbLine
10
16.510149
20
9.027426
30
0
11
16.766281
21
9.054887
31
0
39
0
210
0
220
0
230
1
0
LINE
5
131
100
AcDbEntity
8
1
62
256
6
ByLayer
370
-1
48
1
60
0
100
AcDbLine
10
15.46374
20
10.110582
30
0
11
15.459724
21
10.090585
31
0
39
0
210
0
220
0
230
1
0
LINE
5
132
100
AcDbEntity
8
1
62
256
6
ByLayer
370
-1
48
1
60
0
100
AcDbLine
10
16.531782
20
8.243084
30
0
11
16.789958
21
8.270763
31
0
39
0
210
0
220
0
230
1
0
LINE
5
133
100
AcDbEntity
8
1
62
256
6
ByLayer
370
-1
48
1
60
0
100
AcDbLine
10
16.512663
20
8.249494
30
0
11
16.768796
21
8.276955
31
0
39
0
210
0
220
0
230
1
0
LINE
5
134
100
AcDbEntity
8
1
62
256
6
ByLayer
370
-1
48
1
60
0
100
AcDbLine
10
16.529225
20
9.033837
30
0
11
16.787402
21
9.061516
31
0
39
0
210
0
220
0
230
1
0
LINE
5
135
100
AcDbEntity
8
1
62
256
6
ByLayer
370
-1
48
1
60
0
100
AcDbLine
10
16.529225
20
9.033837
30
0
11
16.510149
21
9.027426
31
0
39
0
210
0
220
0
230
1
0
LINE
5
136
100
AcDbEntity
8
1
62
256
6
ByLayer
370
-1
48
1
60
0
100
AcDbLine
10
15.46374
20
10.110582
30
0
11
15.721916
21
10.138262
31
0
39
0
210
0
220
0
230
1
0
LINE
5
137
100
AcDbEntity
8
1
62
256
6
ByLayer
370
-1
48
1
60
0
100
AcDbLine
10
16.512663
20
8.249494
30
0
11
16.531782
21
8.243084
31
0
39
0
210
0
220
0
230
1
0
LINE
5
138
100
AcDbEntity
8
1
62
256
6
ByLayer
370
-1
48
1
60
0
100
AcDbLine
10
15.459724
20
10.090585
30
0
11
15.715856
21
10.118046
31
0
39
0
210
0
220
0
230
1
0
LINE
5
139
100
AcDbEntity
8
1
62
256
6
ByLayer
370
-1
48
1
60
0
100
AcDbLine
10
15.469113
20
7.186335
30
0
11
15.725246
21
7.213795
31
0
39
0
210
0
220
0
230
1
0
LINE
5
13A
100
AcDbEntity
8
1
62
256
6
ByLayer
370
-1
48
1
60
0
100
AcDbLine
10
15.473258
20
7.166338
30
0
11
15.731435
21
7.194018
31
0
39
0
210
0
220
0
230
1
0
LINE
5
13B
100
AcDbEntity
8
1
62
256
6
ByLayer
370
-1
48
1
60
0
100
AcDbLine
10
15.469113
20
7.186335
30
0
11
15.473258
21
7.166338
31
0
39
0
210
0
220
0
230
1
0
LINE
5
13C
100
AcDbEntity
8
1
62
256
6
ByLayer
370
-1
48
1
60
0
100
AcDbLine
10
11.7382
20
5.435854
30
0
11
12.246126
21
5.708957
31
0
39
0
210
0
220
0
230
1
0
LINE
5
13D
100
AcDbEntity
8
1
62
256
6
ByLayer
370
-1
48
1
60
0
100
AcDbLine
10
16.227706
20
1.911327
30
0
11
16.015397
21
2.276257
31
0
39
0
210
0
220
0
230
1
0
LINE
5
13E
100
AcDbEntity
8
1
62
256
6
ByLayer
370
-1
48
1
60
0
100
AcDbLine
10
15.288695
20
1.422085
30
0
11
15.142881
21
1.127565
31
0
39
0
210
0
220
0
230
1
0
LINE
5
13F
100
AcDbEntity
8
1
62
256
6
ByLayer
370
-1
48
1
60
0
100
AcDbLine
10
14.402563
20
0.72059
30
0
11
14.381319
21
0.73302
31
0
39
0
210
0
220
0
230
1
0
LINE
5
140
100
AcDbEntity
8
1
62
256
6
ByLayer
370
-1
48
1
60
0
100
AcDbLine
10
20.429419
20
12.405838
30
0
11
20.644328
21
12.769259
31
0
39
0
210
0
220
0
230
1
0
LINE
5
141
100
AcDbEntity
8
1
62
256
6
ByLayer
370
-1
48
1
60
0
100
AcDbLine
10
12.78078
20
3.665341
30
0
11
12.025522
21
3.590576
31
0
39
0
210
0
220
0
230
1
0
LINE
5
142
100
AcDbEntity
8
1
62
256
6
ByLayer
370
-1
48
1
60
0
100
AcDbLine
10
12.533354
20
6.746954
30
0
11
12.705685
21
6.143164
31
0
39
0
210
0
220
0
230
1
0
LINE
5
143
100
AcDbEntity
8
SK1
62
256
6
ByLayer
370
-1
48
1
60
0
100
AcDbLine
10
0
20
12.4375
30
0
11
-127.994199
21
12.4375
31
0
39
0
210
0
220
0
230
1
0
LINE
5
145
100
AcDbEntity
8
SK1
62
256
6
ByLayer
370
-1
48
1
60
0
100
AcDbLine
10
-127.994199
20
-12.4375
30
0
11
0
21
-12.4375
31
0
39
0
210
0
220
0
230
1
0
LINE
5
146
100
AcDbEntity
8
SK1
62
256
6
ByLayer
370
-1
48
1
60
0
100
AcDbLine
10
0
20
12.4375
30
0
11
0
21
-12.4375
31
0
39
0
210
0
220
0
230
1
0
LINE
5
147
100
AcDbEntity
8
SK1
62
256
6
ByLayer
370
-1
48
1
60
0
100
AcDbLine
10
-127.994199
20
12.4375
30
0
11
-127.994199
21
-12.4375
31
0
39
0
210
0
220
0
230
1
0
LINE
5
148
100
AcDbEntity
8
2
62
256
6
ByLayer
370
-1
48
1
60
0
100
AcDbLine
10
0
20
23.1625
30
0
11
23.355801
21
23.1625
31
0
39
0
210
0
220
0
230
1
0
LINE
5
149
100
AcDbEntity
8
2
62
256
6
ByLayer
370
-1
48
1
60
0
100
AcDbLine
10
23.355801
20
21.0875
30
0
11
23.355801
21
26.1625
31
0
39
0
210
0
220
0
230
1
0
LINE
5
14A
100
AcDbEntity
8
2
62
256
6
ByLayer
370
-1
48
1
60
0
100
AcDbLine
10
0
20
13.9375
30
0
11
0
21
26.1625
31
0
39
0
210
0
220
0
230
1
0
LINE
5
14B
100
AcDbEntity
8
2
62
256
6
ByLayer
370
-1
48
1
60
0
100
AcDbLine
10
23.355801
20
23.1625
30
0
11
20.355803
21
22.767543
31
0
39
0
210
0
220
0
230
1
0
LINE
5
14C
100
AcDbEntity
8
2
62
256
6
ByLayer
370
-1
48
1
60
0
100
AcDbLine
10
23.355801
20
23.1625
30
0
11
20.3558
21
23.557457
31
0
39
0
210
0
220
0
230
1
0
LINE
5
14D
100
AcDbEntity
8
2
62
256
6
ByLayer
370
-1
48
1
60
0
100
AcDbLine
10
20.355803
20
22.767543
30
0
11
20.3558
21
23.557457
31
0
39
0
210
0
220
0
230
1
0
LINE
5
14E
100
AcDbEntity
8
2
62
256
6
ByLayer
370
-1
48
1
60
0
100
AcDbLine
10
0
20
23.1625
30
0
11
2.999999
21
23.557457
31
0
39
0
210
0
220
0
230
1
0
LINE
5
14F
100
AcDbEntity
8
2
62
256
6
ByLayer
370
-1
48
1
60
0
100
AcDbLine
10
0
20
23.1625
30
0
11
3.000001
21
22.767543
31
0
39
0
210
0
220
0
230
1
0
LINE
5
150
100
AcDbEntity
8
2
62
256
6
ByLayer
370
-1
48
1
60
0
100
AcDbLine
10
2.999999
20
23.557457
30
0
11
3.000001
21
22.767543
31
0
39
0
210
0
220
0
230
1
0
LINE
5
151
100
AcDbEntity
8
SK2
62
256
6
ByLayer
370
-1
48
1
60
0
100
AcDbLine
10
23.355801
20
33.1625
30
0
11
-127.994199
21
33.1625
31
0
39
0
210
0
220
0
230
1
0
LINE
5
153
100
AcDbEntity
8
SK2
62
256
6
ByLayer
370
-1
48
1
60
0
100
AcDbLine
10
-127.994199
20
13.9375
30
0
11
-127.994199
21
36.1625
31
0
39
0
210
0
220
0
230
1
0
LINE
5
154
100
AcDbEntity
8
SK2
62
256
6
ByLayer
370
-1
48
1
60
0
100
AcDbLine
10
23.355801
20
21.0875
30
0
11
23.355801
21
36.1625
31
0
39
0
210
0
220
0
230
1
0
LINE
5
155
100
AcDbEntity
8
SK2
62
256
6
ByLayer
370
-1
48
1
60
0
100
AcDbLine
10
-127.994199
20
33.1625
30
0
11
-124.9942
21
33.557457
31
0
39
0
210
0
220
0
230
1
0
LINE
5
156
100
AcDbEntity
8
SK2
62
256
6
ByLayer
370
-1
48
1
60
0
100
AcDbLine
10
-127.994199
20
33.1625
30
0
11
-124.994197
21
32.767543
31
0
39
0
210
0
220
0
230
1
0
LINE
5
157
100
AcDbEntity
8
SK2
62
256
6
ByLayer
370
-1
48
1
60
0
100
AcDbLine
10
-124.9942
20
33.557457
30
0
11
-124.994197
21
32.767543
31
0
39
0
210
0
220
0
230
1
0
LINE
5
158
100
AcDbEntity
8
SK2
62
256
6
ByLayer
370
-1
48
1
60
0
100
AcDbLine
10
23.355801
20
33.1625
30
0
11
20.355803
21
32.767543
31
0
39
0
210
0
220
0
230
1
0
LINE
5
159
100
AcDbEntity
8
SK2
62
256
6
ByLayer
370
-1
48
1
60
0
100
AcDbLine
10
23.355801
20
33.1625
30
0
11
20.3558
21
33.557457
31
0
39
0
210
0
220
0
230
1
0
LINE
5
15A
100
AcDbEntity
8
SK2
62
256
6
ByLayer
370
-1
48
1
60
0
100
AcDbLine
10
20.355803
20
32.767543
30
0
11
20.3558
21
33.557457
31
0
39
0
210
0
220
0
230
1
0
LINE
5
15B
100
AcDbEntity
8
2
62
256
6
ByLayer
370
-1
48
1
60
0
100
AcDbLine
10
37.605801
20
13.4125
30
0
11
37.605801
21
-12.4375
31
0
39
0
210
0
220
0
230
1
0
LINE
5
15C
100
AcDbEntity
8
2
62
256
6
ByLayer
370
-1
48
1
60
0
100
AcDbLine
10
1.5
20
-12.4375
30
0
11
40.605801
21
-12.4375
31
0
39
0
210
0
220
0
230
1
0
LINE
5
15D
100
AcDbEntity
8
2
62
256
6
ByLayer
370
-1
48
1
60
0
100
AcDbLine
10
31.030801
20
13.4125
30
0
11
40.605801
21
13.4125
31
0
39
0
210
0
220
0
230
1
0
LINE
5
15E
100
AcDbEntity
8
2
62
256
6
ByLayer
370
-1
48
1
60
0
100
AcDbLine
10
37.605801
20
-12.4375
30
0
11
37.210844
21
-9.437501
31
0
39
0
210
0
220
0
230
1
0
LINE
5
15F
100
AcDbEntity
8
2
62
256
6
ByLayer
370
-1
48
1
60
0
100
AcDbLine
10
37.605801
20
-12.4375
30
0
11
38.000759
21
-9.437499
31
0
39
0
210
0
220
0
230
1
0
LINE
5
160
100
AcDbEntity
8
2
62
256
6
ByLayer
370
-1
48
1
60
0
100
AcDbLine
10
37.210844
20
-9.437501
30
0
11
38.000759
21
-9.437499
31
0
39
0
210
0
220
0
230
1
0
LINE
5
161
100
AcDbEntity
8
2
62
256
6
ByLayer
370
-1
48
1
60
0
100
AcDbLine
10
37.605801
20
13.4125
30
0
11
38.000759
21
10.412501
31
0
39
0
210
0
220
0
230
1
0
LINE
5
162
100
AcDbEntity
8
2
62
256
6
ByLayer
370
-1
48
1
60
0
100
AcDbLine
10
37.605801
20
13.4125
30
0
11
37.210844
21
10.412499
31
0
39
0
210
0
220
0
230
1
0
LINE
5
163
100
AcDbEntity
8
2
62
256
6
ByLayer
370
-1
48
1
60
0
100
AcDbLine
10
38.000759
20
10.412501
30
0
11
37.210844
21
10.412499
31
0
39
0
210
0
220
0
230
1
0
MTEXT
5
279
100
AcDbEntity
8
SK6
62
256
6
ByLayer
370
-1
48
1
60
0
100
AcDbMText
10
-83.954466
20
-2.277195
30
0
210
0
220
0
230
1
1
\W00.738;\fsimplex.shx,bigfont.shx;266RFA-2525-16 
40
3.5
41
0
44
1.084337
50
0
71
7
72
5
7
DEFAULT
0
MTEXT
5
29F
100
AcDbEntity
8
2
62
256
6
ByLayer
370
-1
48
1
60
0
100
AcDbMText
10
10.173953
20
24.2875
30
0
210
0
220
0
230
1
1
\W00.656;\fsimplex.shx,bigfont.shx;23 
40
4.5
41
0
44
1.084337
50
0
71
7
72
5
7
DEFAULT
0
MTEXT
5
2A0
100
AcDbEntity
8
SK2
62
256
6
ByLayer
370
-1
48
1
60
0
100
AcDbMText
10
-54.35012
20
34.2875
30
0
210
0
220
0
230
1
1
\W00.573;\fsimplex.shx,bigfont.shx;151 
40
4.5
41
0
44
1.084337
50
0
71
7
72
5
7
DEFAULT
0
MTEXT
5
2A1
100
AcDbEntity
8
2
62
256
6
ByLayer
370
-1
48
1
60
0
100
AcDbMText
10
36.480801
20
-1.016447
30
0
210
0
220
0
230
1
1
\W00.656;\fsimplex.shx,bigfont.shx;26 
40
4.5
41
0
44
1.084337
50
89.9999999999999
71
7
72
5
7
DEFAULT
0
DIMENSION
5
2AF
100
AcDbEntity
8
SK2
62
256
6
ByLayer
370
-3
48
1
60
0
100
AcDbDimension
2
DimnDraft3D1
10
-137.744199
20
-12.4375
30
0
11
-137.744199
21
-2.628947
31
0
70
32
71
5
72
1
41
1
210
0
220
0
230
1
3
Standard
100
AcDbAlignedDimension
13
-129.494199
23
12.4375
33
0
14
-129.494199
24
-12.4375
34
0
50
90
100
AcDbRotatedDimension
1001
ACAD
1000
DSTYLE
1002
{
1070
    74
1070
     0
1070
   279
1070
     0
1070
   172
1070
     1
1070
   173
1070
     1
1070
   340
1005
27A
1070
   271
1070
     3
1070
   272
1070
     3
1070
    77
1070
     1
1070
    73
1070
     0
1070
   171
1070
     4
1070
   274
1070
     4
1070
   177
1070
     2
1070
   176
1070
     2
1070
   178
1070
     7
1070
    78
1070
     8
1070
    41
1041
3.0
1070
   147
1041
2.25
1070
    42
1041
1.5
1070
    44
1041
3.0
1070
   140
1041
4.5
1070
   343
1005
2B0
1070
   344
1005
2B0
1002
}
0
ENDSEC
0
SECTION
2
OBJECTS
0
DICTIONARY
5
2e6
330
0
100
AcDbDictionary
280
0
281
1
3
ACAD_GROUP
350
2e7
3
ACAD_MLINESTYLE
350
2e8
0
DICTIONARY
5
2e7
330
0
100
AcDbDictionary
280
0
281
1
0
DICTIONARY
5
2e8
330
0
100
AcDbDictionary
280
0
281
1
3
Standard
350
18
0
MLINESTYLE
5
18
330
2e8
100
AcDbMlineStyle
2
Standard
70
0
3

62
256
51
90
52
90
71
2
49
-0.5
62
256
6
ByLayer
49
0.5
62
256
6
ByLayer
0
RASTERVARIABLES
5
2d5
330

100
AcDbRasterVariables
90
0
70
1
71
1
72
1
0
ENDSEC
0
EOF
