0
SECTION
2
HEADER
9
$ACADVER
1
AC1015
9
$DWGCODEPAGE
3
ANSI_1252
9
$HANDSEED
5
2f5
9
$ANGBASE
50
0
9
$ANGDIR
70
0
9
$ATTMODE
70
1
9
$AUNITS
70
0
9
$AUPREC
70
0
9
$CECOLOR
62
256
9
$CELTSCALE
40
1
9
$CELTYPE
6
ByLayer
9
$CELWEIGHT
370
-1
9
$CLAYER
8
0
9
$CMLJUST
70
0
9
$CMLSCALE
40
1
9
$CMLSTYLE
2
Standard
9
$DIMSTYLE
2
Standard
9
$TEXTSIZE
40
0.2
9
$TEXTSTYLE
7
Standard
9
$LUNITS
70
2
9
$LUPREC
70
4
9
$EXTNAMES
290
1
9
$INSUNITS
70
4
9
$LTSCALE
40
1
9
$LWDISPLAY
290
0
9
$PDMODE
70
0
9
$PDSIZE
40
0
9
$PLINEGEN
70
0
0
ENDSEC
0
SECTION
2
CLASSES
0
CLASS
1
RASTERVARIABLES
2
AcDbRasterVariables
3
ISM
90
0
280
0
281
0
0
ENDSEC
0
SECTION
2
TABLES
0
TABLE
2
VPORT
5
2eb
100
AcDbSymbolTable
0
VPORT
5
1
100
AcDbSymbolTableRecord
100
AcDbViewportTableRecord
2
*Active
70
0
10
0
20
0
11
1
21
1
12
-1
22
1
13
0
23
0
14
0.5
24
0.5
15
10
25
10
16
0
26
0
36
1
17
0
27
0
37
0
0
ENDTAB
0
TABLE
2
LTYPE
5
2ec
100
AcDbSymbolTable
0
LTYPE
5
14
100
AcDbSymbolTableRecord
100
AcDbLinetypeTableRecord
70
0
2
ByBlock
3

72
65
73
0
40
0
0
LTYPE
5
15
100
AcDbSymbolTableRecord
100
AcDbLinetypeTableRecord
70
0
2
ByLayer
3

72
65
73
0
40
0
0
LTYPE
5
16
100
AcDbSymbolTableRecord
100
AcDbLinetypeTableRecord
70
0
2
CONTINUOUS
3
Solid line
72
65
73
0
40
0
0
LTYPE
5
3B
100
AcDbSymbolTableRecord
100
AcDbLinetypeTableRecord
70
0
2
DASHED
3
__ __ __ __ __ __ __ __ __
72
65
73
2
40
25.72
49
12.86
74
0
49
-12.86
74
0
0
LTYPE
5
3C
100
AcDbSymbolTableRecord
100
AcDbLinetypeTableRecord
70
0
2
HIDDEN
3
_ _ _ _ _ _ _ _ _ _ _ _ _ _ _
72
65
73
2
40
0.5
49
0.25
74
0
49
-0.25
74
0
0
LTYPE
5
3D
100
AcDbSymbolTableRecord
100
AcDbLinetypeTableRecord
70
0
2
PHANTOM
3
____ _ _ ____ _ _ _____ _ _ ____
72
65
73
6
40
50.5
49
18
74
0
49
-6.5
74
0
49
6.5
74
0
49
-6.5
74
0
49
6.5
74
0
49
-6.5
74
0
0
LTYPE
5
3E
100
AcDbSymbolTableRecord
100
AcDbLinetypeTableRecord
70
0
2
CENTER
3
____ _ ____ _ ____ _ ____
72
65
73
4
40
47.5
49
22
74
0
49
-8.5
74
0
49
8.5
74
0
49
-8.5
74
0
0
LTYPE
5
3F
100
AcDbSymbolTableRecord
100
AcDbLinetypeTableRecord
70
0
2
DOT
3
.........................
72
65
73
2
40
10
49
0
74
0
49
-10
74
0
0
LTYPE
5
40
100
AcDbSymbolTableRecord
100
AcDbLinetypeTableRecord
70
0
2
DASHDOT
3
_._._._._._._._._._._._._._._._.
72
65
73
4
40
70
49
31
74
0
49
-13
74
0
49
13
74
0
49
-13
74
0
0
ENDTAB
0
TABLE
2
LAYER
5
2ed
100
AcDbSymbolTable
0
LAYER
5
10
100
AcDbSymbolTableRecord
100
AcDbLayerTableRecord
2
0
70
0
62
7
6
CONTINUOUS
290
1
370
-3
390
0
0
LAYER
5
42
100
AcDbSymbolTableRecord
100
AcDbLayerTableRecord
2
2
70
0
62
7
6
CONTINUOUS
290
1
370
-3
390
0
0
LAYER
5
45
100
AcDbSymbolTableRecord
100
AcDbLayerTableRecord
2
81
70
0
62
-3
6
CONTINUOUS
290
1
370
-3
390
0
0
LAYER
5
47
100
AcDbSymbolTableRecord
100
AcDbLayerTableRecord
2
80
70
0
62
-6
6
CONTINUOUS
290
1
370
-3
390
0
0
LAYER
5
4A
100
AcDbSymbolTableRecord
100
AcDbLayerTableRecord
2
1
70
0
62
4
6
CONTINUOUS
290
1
370
-3
390
0
0
LAYER
5
2d8
100
AcDbSymbolTableRecord
100
AcDbLayerTableRecord
2
SK1
70
0
62
4
6
CONTINUOUS
290
1
370
-3
390
0
0
LAYER
5
2d9
100
AcDbSymbolTableRecord
100
AcDbLayerTableRecord
2
SK2
70
0
62
7
6
CONTINUOUS
290
1
370
-3
390
0
0
LAYER
5
2da
100
AcDbSymbolTableRecord
100
AcDbLayerTableRecord
2
SK6
70
0
62
5
6
CONTINUOUS
290
1
370
-3
390
0
0
ENDTAB
0
TABLE
2
STYLE
5
2ee
100
AcDbSymbolTable
0
STYLE
5
11
100
AcDbSymbolTableRecord
100
AcDbTextStyleTableRecord
2
Standard
3
txt
70
0
71
0
40
0
41
1
42
0
50
0
0
STYLE
5
27C
100
AcDbSymbolTableRecord
100
AcDbTextStyleTableRecord
2
DEFAULT
3
simplex.shx
70
0
71
0
40
0
41
1
42
0
50
0
0
STYLE
5
29F
100
AcDbSymbolTableRecord
100
AcDbTextStyleTableRecord
2
DWGDirectTextStyle
3
SIMPLEX
70
0
71
0
40
0
41
1
42
0
50
0
0
ENDTAB
0
TABLE
2
DIMSTYLE
5
2ef
100
AcDbSymbolTable
100
AcDbDimStyleTable
0
DIMSTYLE
105
27
100
AcDbSymbolTableRecord
100
AcDbDimStyleTableRecord
2
Standard
70
0
3
<>
41
0.18
42
0.0625
44
0.18
140
0.18
147
0.09
73
0
74
0
77
1
271
2
275
0
278
52
280
0
340
11
0
ENDTAB
0
TABLE
2
VIEW
5
2f0
100
AcDbSymbolTable
0
ENDTAB
0
TABLE
2
UCS
5
2f1
100
AcDbSymbolTable
0
ENDTAB
0
TABLE
2
APPID
5
2f2
100
AcDbSymbolTable
0
APPID
5
12
100
AcDbSymbolTableRecord
100
AcDbRegAppTableRecord
2
ACAD
70
0
0
ENDTAB
0
TABLE
2
BLOCK_RECORD
5
2f3
100
AcDbSymbolTable
0
BLOCK_RECORD
5
1F
100
AcDbSymbolTableRecord
100
AcDbBlockTableRecord
2
*Model_Space
340
0
70
0
0
BLOCK_RECORD
5
1B
100
AcDbSymbolTableRecord
100
AcDbBlockTableRecord
2
*Paper_Space
340
0
70
0
0
BLOCK_RECORD
5
23
100
AcDbSymbolTableRecord
100
AcDbBlockTableRecord
2
*Paper_Space0
340
0
70
0
0
BLOCK_RECORD
5
2A4
100
AcDbSymbolTableRecord
100
AcDbBlockTableRecord
2
DimnDraft3D1
340
0
70
0
0
BLOCK_RECORD
5
2B2
100
AcDbSymbolTableRecord
100
AcDbBlockTableRecord
2
_CLOSED
340
0
70
0
0
ENDTAB
0
ENDSEC
0
SECTION
2
BLOCKS
0
BLOCK
5
20
100
AcDbEntity
8
0
100
AcDbBlockBegin
2
*Model_Space
70
0
10
0
20
0
30
0
3
*Model_Space
0
ENDBLK
5
21
100
AcDbEntity
8
0
100
AcDbBlockEnd
0
BLOCK
5
1C
100
AcDbEntity
8
0
100
AcDbBlockBegin
2
*Paper_Space
70
0
10
0
20
0
30
0
3
*Paper_Space
0
ENDBLK
5
1D
100
AcDbEntity
8
0
100
AcDbBlockEnd
0
BLOCK
5
24
100
AcDbEntity
8
0
100
AcDbBlockBegin
2
*Paper_Space0
70
0
10
0
20
0
30
0
3
*Paper_Space0
0
ENDBLK
5
25
100
AcDbEntity
8
0
100
AcDbBlockEnd
0
BLOCK
5
2AF
100
AcDbEntity
8
0
100
AcDbBlockBegin
2
DimnDraft3D1
70
0
10
0
20
0
30
0
3
DimnDraft3D1
0
MTEXT
5
2A5
100
AcDbEntity
8
SK2
62
256
6
ByLayer
370
-1
48
1
60
0
100
AcDbMText
10
-88.869199
20
-0.941447
30
0
210
0
220
0
230
1
1
\W01.000;\fsimplex.shx,bigfont.shx;16 
40
4.5
41
0
44
1.084337
50
90
71
7
72
5
7
DEFAULT
0
LINE
5
2A6
100
AcDbEntity
8
SK2
62
256
6
ByLayer
370
-1
48
1
60
0
100
AcDbLine
10
-79.494199
20
7.9375
30
0
11
-90.744199
21
7.9375
31
0
39
0
210
0
220
0
230
1
0
LINE
5
2A7
100
AcDbEntity
8
SK2
62
256
6
ByLayer
370
-1
48
1
60
0
100
AcDbLine
10
-79.494199
20
-7.9375
30
0
11
-90.744199
21
-7.9375
31
0
39
0
210
0
220
0
230
1
0
LINE
5
2A8
100
AcDbEntity
8
SK2
62
256
6
ByLayer
370
-1
48
1
60
0
100
AcDbLine
10
-87.744199
20
7.9375
30
0
11
-87.744199
21
-7.9375
31
0
39
0
210
0
220
0
230
1
0
LINE
5
2A9
100
AcDbEntity
8
SK2
62
256
6
ByLayer
370
-1
48
1
60
0
100
AcDbLine
10
-87.744199
20
7.9375
30
0
11
-87.349241
21
4.937501
31
0
39
0
210
0
220
0
230
1
0
LINE
5
2AA
100
AcDbEntity
8
SK2
62
256
6
ByLayer
370
-1
48
1
60
0
100
AcDbLine
10
-87.744199
20
7.9375
30
0
11
-88.139156
21
4.937499
31
0
39
0
210
0
220
0
230
1
0
LINE
5
2AB
100
AcDbEntity
8
SK2
62
256
6
ByLayer
370
-1
48
1
60
0
100
AcDbLine
10
-87.349241
20
4.937501
30
0
11
-88.139156
21
4.937499
31
0
39
0
210
0
220
0
230
1
0
LINE
5
2AC
100
AcDbEntity
8
SK2
62
256
6
ByLayer
370
-1
48
1
60
0
100
AcDbLine
10
-87.744199
20
-7.9375
30
0
11
-88.139156
21
-4.937501
31
0
39
0
210
0
220
0
230
1
0
LINE
5
2AD
100
AcDbEntity
8
SK2
62
256
6
ByLayer
370
-1
48
1
60
0
100
AcDbLine
10
-87.744199
20
-7.9375
30
0
11
-87.349241
21
-4.937499
31
0
39
0
210
0
220
0
230
1
0
LINE
5
2AE
100
AcDbEntity
8
SK2
62
256
6
ByLayer
370
-1
48
1
60
0
100
AcDbLine
10
-88.139156
20
-4.937501
30
0
11
-87.349241
21
-4.937499
31
0
39
0
210
0
220
0
230
1
0
ENDBLK
5
2B0
100
AcDbEntity
8
0
100
AcDbBlockEnd
0
BLOCK
5
2B3
100
AcDbEntity
8
0
100
AcDbBlockBegin
2
_CLOSED
70
0
10
0
20
0
30
0
3
_CLOSED
0
LINE
5
2B5
100
AcDbEntity
8
0
62
256
6
ByLayer
370
-2
48
1
60
0
100
AcDbLine
10
-1
20
0.166667
30
0
11
0
21
0
31
0
39
0
210
0
220
0
230
1
0
LINE
5
2B6
100
AcDbEntity
8
0
62
256
6
ByLayer
370
-2
48
1
60
0
100
AcDbLine
10
0
20
0
30
0
11
-1
21
-0.166667
31
0
39
0
210
0
220
0
230
1
0
LINE
5
2B7
100
AcDbEntity
8
0
62
256
6
ByLayer
370
-2
48
1
60
0
100
AcDbLine
10
-1
20
0.166667
30
0
11
-1
21
-0.166667
31
0
39
0
210
0
220
0
230
1
0
LINE
5
2B8
100
AcDbEntity
8
0
62
256
6
ByLayer
370
-2
48
1
60
0
100
AcDbLine
10
0
20
0
30
0
11
-1
21
0
31
0
39
0
210
0
220
0
230
1
0
ENDBLK
5
2B4
100
AcDbEntity
8
0
100
AcDbBlockEnd
0
ENDSEC
0
SECTION
2
ENTITIES
0
ELLIPSE
5
166
100
AcDbEntity
8
1
62
256
6
ByLayer
370
-1
48
1
60
0
100
AcDbEllipse
10
13.260381
20
-2.446711
30
0
11
-0.660755627508972
21
1.57699022894029
31
0
210
0
220
0
230
1
40
0.398781
41
-2.87794875849552
42
-2.67750236182727
0
ELLIPSE
5
167
100
AcDbEntity
8
1
62
256
6
ByLayer
370
-1
48
1
60
0
100
AcDbEllipse
10
11.977272
20
-1.966554
30
0
11
-0.225646305867181
21
2.10465975395978
31
0
210
0
220
0
230
1
40
0.984637
41
-2.51293385636384
42
-2.00190252287996
0
ELLIPSE
5
168
100
AcDbEntity
8
1
62
256
6
ByLayer
370
-1
48
1
60
0
100
AcDbEllipse
10
12.99847
20
-1.393048
30
0
11
-0.16316642092011
21
1.64837617406152
31
0
210
0
220
0
230
1
40
0.984661
41
0.688188761702303
42
2.09407219884457
0
ELLIPSE
5
169
100
AcDbEntity
8
1
62
256
6
ByLayer
370
-1
48
1
60
0
100
AcDbEllipse
10
13.297046
20
-2.44278
30
0
11
-0.162533016845837
21
1.64197701257147
31
0
210
0
220
0
230
1
40
0.984661
41
1.42097263515585
42
-2.7515015935748
0
ELLIPSE
5
16A
100
AcDbEntity
8
1
62
256
6
ByLayer
370
-1
48
1
60
0
100
AcDbEllipse
10
12.477357
20
-2.530662
30
0
11
-0.17589297652942
21
1.64059795830899
31
0
210
0
220
0
230
1
40
0.984637
41
-2.66369769273192
42
-2.00968035900576
0
ELLIPSE
5
16B
100
AcDbEntity
8
1
62
256
6
ByLayer
370
-1
48
1
60
0
100
AcDbEllipse
10
12.122876
20
-2.568666
30
0
11
-7.40839202948852
21
-1.35677417983644
31
0
210
0
220
0
230
1
40
0.206678
41
1.7028729366355
42
1.80750029863619
0
ELLIPSE
5
16C
100
AcDbEntity
8
1
62
256
6
ByLayer
370
-1
48
1
60
0
100
AcDbEllipse
10
12.399164
20
-1.921321
30
0
11
-0.213203607914448
21
1.98860358582908
31
0
210
0
220
0
230
1
40
0.984637
41
-2.28851603275367
42
-2.05487671456114
0
ELLIPSE
5
16D
100
AcDbEntity
8
1
62
256
6
ByLayer
370
-1
48
1
60
0
100
AcDbEllipse
10
12.055466
20
-2.575894
30
0
11
-0.17589297652942
21
1.64059795830899
31
0
210
0
220
0
230
1
40
0.984637
41
-2.29876619249642
42
-1.66264846869917
0
ELLIPSE
5
16E
100
AcDbEntity
8
1
62
256
6
ByLayer
370
-1
48
1
60
0
100
AcDbEllipse
10
12.055466
20
-2.575894
30
0
11
-0.17589297652942
21
1.64059795830899
31
0
210
0
220
0
230
1
40
0.984637
41
0.268133755012295
42
0.307652729844095
0
ELLIPSE
5
16F
100
AcDbEntity
8
1
62
256
6
ByLayer
370
-1
48
1
60
0
100
AcDbEllipse
10
12.038104
20
-2.577755
30
0
11
-0.17589297652942
21
1.64059795830899
31
0
210
0
220
0
230
1
40
0.984637
41
-2.74154826337731
42
-1.67605762542805
0
ELLIPSE
5
170
100
AcDbEntity
8
1
62
256
6
ByLayer
370
-1
48
1
60
0
100
AcDbEllipse
10
15.128765
20
4.143579
30
0
11
-0.290489915783447
21
2.70947238569222
31
0
210
0
220
0
230
1
40
0.984637
41
0
42
-3.1415120383041
0
ELLIPSE
5
171
100
AcDbEntity
8
1
62
256
6
ByLayer
370
-1
48
1
60
0
100
AcDbEllipse
10
14.346485
20
5.422813
30
0
11
-0.334749163352965
21
-0.198269006353512
31
0
210
0
220
0
230
1
40
0.494774
41
0.152990595417893
42
0.82604222855481
0
ELLIPSE
5
172
100
AcDbEntity
8
1
62
256
6
ByLayer
370
-1
48
1
60
0
100
AcDbEllipse
10
15.085815
20
2.655317
30
0
11
-0.388113182761354
21
0.000412013910112889
31
0
210
0
220
0
230
1
40
0.49719
41
2.27233441775495
42
-3.08231238522568
0
ELLIPSE
5
173
100
AcDbEntity
8
1
62
256
6
ByLayer
370
-1
48
1
60
0
100
AcDbEllipse
10
15.076225
20
5.621603
30
0
11
-0.388113182761354
21
0.000412013910114613
31
0
210
0
220
0
230
1
40
0.49719
41
3.08658270252927
42
-1.6602331691264
0
ELLIPSE
5
174
100
AcDbEntity
8
1
62
256
6
ByLayer
370
-1
48
1
60
0
100
AcDbEllipse
10
15.815555
20
2.854107
30
0
11
-0.334749163353654
21
-0.198269006354689
31
0
210
0
220
0
230
1
40
0.494774
41
-2.3155482932499
42
-1.57832859671535
0
ELLIPSE
5
175
100
AcDbEntity
8
1
62
256
6
ByLayer
370
-1
48
1
60
0
100
AcDbEllipse
10
15.807251
20
5.422813
30
0
11
-0.33583356858859
21
0.198604627908777
31
0
210
0
220
0
230
1
40
0.491978
41
1.5803574532221
42
2.55849278705517
0
ELLIPSE
5
176
100
AcDbEntity
8
1
62
256
6
ByLayer
370
-1
48
1
60
0
100
AcDbEllipse
10
16.348563
20
3.396889
30
0
11
-0.191392218429862
21
-0.342134594454295
31
0
210
0
220
0
230
1
40
0.487307
41
0.93676307455264
42
-3.09386107380834
0
ELLIPSE
5
177
100
AcDbEntity
8
1
62
256
6
ByLayer
370
-1
48
1
60
0
100
AcDbEllipse
10
16.343768
20
4.880032
30
0
11
-0.193958055348333
21
0.341934994911022
31
0
210
0
220
0
230
1
40
0.48462
41
3.09172931451185
42
-0.895650237031259
0
ELLIPSE
5
178
100
AcDbEntity
8
1
62
256
6
ByLayer
370
-1
48
1
60
0
100
AcDbEllipse
10
15.08102
20
4.13846
30
0
11
0.137548307645993
21
-1.28294760339752
31
0
210
0
220
0
230
1
40
0.984637
41
-1.37365937932447
42
-0.776838445829451
0
ELLIPSE
5
179
100
AcDbEntity
8
1
62
256
6
ByLayer
370
-1
48
1
60
0
100
AcDbEllipse
10
15.08102
20
4.13846
30
0
11
-0.137548307646006
21
1.28294760339763
31
0
210
0
220
0
230
1
40
0.984637
41
0.524075237274963
42
1.12580456093164
0
ELLIPSE
5
17A
100
AcDbEntity
8
1
62
256
6
ByLayer
370
-1
48
1
60
0
100
AcDbEllipse
10
15.08102
20
4.13846
30
0
11
-0.137548307646006
21
1.28294760339763
31
0
210
0
220
0
230
1
40
0.984637
41
-0.6287748611977
42
0.101399777799891
0
ELLIPSE
5
17B
100
AcDbEntity
8
1
62
256
6
ByLayer
370
-1
48
1
60
0
100
AcDbEllipse
10
15.08102
20
4.13846
30
0
11
-0.137548307646006
21
1.28294760339763
31
0
210
0
220
0
230
1
40
0.984637
41
2.88439321350827
42
-2.72316996359088
0
ELLIPSE
5
17C
100
AcDbEntity
8
1
62
256
6
ByLayer
370
-1
48
1
60
0
100
AcDbEllipse
10
8.048019
20
8.009226
30
0
11
0.0197022175593671
21
-0.199027190663093
31
0
210
0
220
0
230
1
40
0.984662
41
3.14157835546851
42
-2.71516118948927
0
ELLIPSE
5
17D
100
AcDbEntity
8
1
62
256
6
ByLayer
370
-1
48
1
60
0
100
AcDbEllipse
10
15.137485
20
4.139917
30
0
11
-0.296514508703044
21
2.99532017044197
31
0
210
0
220
0
230
1
40
0.984662
41
-0.100198039212819
42
-2.99676166800556E-16
0
ELLIPSE
5
17E
100
AcDbEntity
8
1
62
256
6
ByLayer
370
-1
48
1
60
0
100
AcDbEllipse
10
15.137485
20
4.139917
30
0
11
-0.296514508703044
21
2.99532017044197
31
0
210
0
220
0
230
1
40
0.984662
41
0
42
0.37851515357211
0
ELLIPSE
5
17F
100
AcDbEntity
8
1
62
256
6
ByLayer
370
-1
48
1
60
0
100
AcDbEllipse
10
15.137485
20
4.139917
30
0
11
-0.296514508703044
21
2.99532017044197
31
0
210
0
220
0
230
1
40
0.984662
41
2.76298405466848
42
-0.100197701860535
0
ELLIPSE
5
180
100
AcDbEntity
8
1
62
256
6
ByLayer
370
-1
48
1
60
0
100
AcDbEllipse
10
11.657236
20
8.644296
30
0
11
0.0197022175593671
21
-0.199027190663093
31
0
210
0
220
0
230
1
40
0.984662
41
-3.14159171806169
42
-2.71516118948927
0
ELLIPSE
5
181
100
AcDbEntity
8
1
62
256
6
ByLayer
370
-1
48
1
60
0
100
AcDbEllipse
10
9.808779
20
8.275949
30
0
11
-0.0128064414135899
21
0.129367673931011
31
0
210
0
220
0
230
1
40
0.984662
41
-8.8296319828475E-06
42
0.42643146410029
0
ELLIPSE
5
182
100
AcDbEntity
8
1
62
256
6
ByLayer
370
-1
48
1
60
0
100
AcDbEllipse
10
14.500527
20
-3.606231
30
0
11
0.0197022175593671
21
-0.199027190663093
31
0
210
0
220
0
230
1
40
0.984662
41
-0.620766087096183
42
9.77236503946636E-07
0
ELLIPSE
5
183
100
AcDbEntity
8
1
62
256
6
ByLayer
370
-1
48
1
60
0
100
AcDbEllipse
10
13.941804
20
-2.514785
30
0
11
0.0128064414135885
21
-0.129367673931011
31
0
210
0
220
0
230
1
40
0.984662
41
-0.620766087096304
42
-7.22549790328293E-06
0
ELLIPSE
5
184
100
AcDbEntity
8
1
62
256
6
ByLayer
370
-1
48
1
60
0
100
AcDbEllipse
10
15.09382
20
4.135595
30
0
11
-0.287755592779145
21
2.90683965172194
31
0
210
0
220
0
230
1
40
0.984662
41
-0.100197943764268
42
-3.0879792990532E-16
0
ELLIPSE
5
185
100
AcDbEntity
8
1
62
256
6
ByLayer
370
-1
48
1
60
0
100
AcDbEllipse
10
15.09382
20
4.135595
30
0
11
-0.287755592779145
21
2.90683965172194
31
0
210
0
220
0
230
1
40
0.984662
41
0
42
0.769349053293881
0
ELLIPSE
5
186
100
AcDbEntity
8
1
62
256
6
ByLayer
370
-1
48
1
60
0
100
AcDbEllipse
10
15.09382
20
4.135595
30
0
11
-0.287755592779145
21
2.90683965172194
31
0
210
0
220
0
230
1
40
0.984662
41
2.37215009881928
42
-2.21712767815688
0
ELLIPSE
5
187
100
AcDbEntity
8
1
62
256
6
ByLayer
370
-1
48
1
60
0
100
AcDbEllipse
10
15.09382
20
4.135595
30
0
11
-0.287755592779145
21
2.90683965172194
31
0
210
0
220
0
230
1
40
0.984662
41
-0.879398337508345
42
-0.100197943764274
0
ELLIPSE
5
188
100
AcDbEntity
8
1
62
256
6
ByLayer
370
-1
48
1
60
0
100
AcDbEllipse
10
8.284461
20
7.937889
30
0
11
-3.0999998546544
21
0.000949285361075852
31
0
210
0
220
0
230
1
40
0.051912
41
1.32964834898105
42
1.42340597973347
0
ELLIPSE
5
189
100
AcDbEntity
8
1
62
256
6
ByLayer
370
-1
48
1
60
0
100
AcDbEllipse
10
8.284798
20
9.036405
30
0
11
1.40969993390536
21
-0.000431679862431732
31
0
210
0
220
0
230
1
40
0.051912
41
0.69806863541578
42
1.74526618661255
0
ELLIPSE
5
18A
100
AcDbEntity
8
1
62
256
6
ByLayer
370
-1
48
1
60
0
100
AcDbEllipse
10
8.284798
20
9.036405
30
0
11
1.40969993390536
21
-0.000431679862431732
31
0
210
0
220
0
230
1
40
0.051912
41
1.74526618661255
42
2.79246373780891
0
ELLIPSE
5
18B
100
AcDbEntity
8
1
62
256
6
ByLayer
370
-1
48
1
60
0
100
AcDbEllipse
10
8.284798
20
9.036405
30
0
11
1.40969993390536
21
-0.000431679862431732
31
0
210
0
220
0
230
1
40
0.051912
41
-1.39632646697726
42
-0.349128915780857
0
ELLIPSE
5
18C
100
AcDbEntity
8
1
62
256
6
ByLayer
370
-1
48
1
60
0
100
AcDbEllipse
10
8.284798
20
9.036405
30
0
11
1.40969993390536
21
-0.000431679862431732
31
0
210
0
220
0
230
1
40
0.051912
41
2.79246373780891
42
-2.44352401817404
0
ELLIPSE
5
18D
100
AcDbEntity
8
1
62
256
6
ByLayer
370
-1
48
1
60
0
100
AcDbEllipse
10
8.284798
20
9.036405
30
0
11
1.40969993390536
21
-0.000431679862431732
31
0
210
0
220
0
230
1
40
0.051912
41
-2.44352401817404
42
-1.39632646697726
0
ELLIPSE
5
18E
100
AcDbEntity
8
1
62
256
6
ByLayer
370
-1
48
1
60
0
100
AcDbEllipse
10
8.284798
20
9.036405
30
0
11
1.40969993390536
21
-0.000431679862431732
31
0
210
0
220
0
230
1
40
0.051912
41
-0.349128915780857
42
0.69806863541578
0
ELLIPSE
5
18F
100
AcDbEntity
8
1
62
256
6
ByLayer
370
-1
48
1
60
0
100
AcDbEllipse
10
17.41741
20
-2.191045
30
0
11
-2.31577440549411
21
-1.37295386499022
31
0
210
0
220
0
230
1
40
0.315702
41
-0.170441596961867
42
-0.00284592205890508
0
ELLIPSE
5
190
100
AcDbEntity
8
1
62
256
6
ByLayer
370
-1
48
1
60
0
100
AcDbEllipse
10
20.873641
20
5.743955
30
0
11
-0.0461022221528509
21
0.123922179017417
31
0
210
0
220
0
230
1
40
0.697513
41
0.947166127443279
42
1.2919744192468
0
ELLIPSE
5
191
100
AcDbEntity
8
1
62
256
6
ByLayer
370
-1
48
1
60
0
100
AcDbEllipse
10
20.64432
20
8.274844
30
0
11
0.164128524857489
21
0.286289761130406
31
0
210
0
220
0
230
1
40
0.008441
41
-1.58546855109517
42
-1.23640270069636
0
ELLIPSE
5
192
100
AcDbEntity
8
1
62
256
6
ByLayer
370
-1
48
1
60
0
100
AcDbEllipse
10
19.751892
20
8.911125
30
0
11
0.31999857438126
21
0.000955193153900391
31
0
210
0
220
0
230
1
40
0.016926
41
-1.7453545160771
42
-1.57082159087764
0
ELLIPSE
5
193
100
AcDbEntity
8
1
62
256
6
ByLayer
370
-1
48
1
60
0
100
AcDbEllipse
10
13.106068
20
-1.691528
30
0
11
-0.01280644141359
21
0.129367673931011
31
0
210
0
220
0
230
1
40
0.984662
41
-1.66130948076637
42
-0.620766087096
0
ELLIPSE
5
194
100
AcDbEntity
8
1
62
256
6
ByLayer
370
-1
48
1
60
0
100
AcDbEllipse
10
16.429985
20
-1.856929
30
0
11
0.161612197743497
21
0.276191052607641
31
0
210
0
220
0
230
1
40
0.141921
41
1.67349711052477
42
1.84803003572415
0
ELLIPSE
5
195
100
AcDbEntity
8
1
62
256
6
ByLayer
370
-1
48
1
60
0
100
AcDbEllipse
10
8.284798
20
9.036405
30
0
11
-1.69999992029435
21
0.000520575843170629
31
0
210
0
220
0
230
1
40
0.051912
41
0
42
6.28318530717959
0
ELLIPSE
5
196
100
AcDbEntity
8
1
62
256
6
ByLayer
370
-1
48
1
60
0
100
AcDbEllipse
10
16.017539
20
-2.709447
30
0
11
-0.139234821942734
21
0.213104820120464
31
0
210
0
220
0
230
1
40
0.952081
41
-1.93015659300816
42
-1.62521932802718
0
ELLIPSE
5
197
100
AcDbEntity
8
1
62
256
6
ByLayer
370
-1
48
1
60
0
100
AcDbEllipse
10
11.015556
20
8.326027
30
0
11
-0.161138498952763
21
0.028153177233693
31
0
210
0
220
0
230
1
40
0.776532
41
1.99680324992866
42
2.34161154117981
0
ELLIPSE
5
198
100
AcDbEntity
8
1
62
256
6
ByLayer
370
-1
48
1
60
0
100
AcDbEllipse
10
20.646486
20
7.549293
30
0
11
-0.165834547046448
21
0.285304929866098
31
0
210
0
220
0
230
1
40
0.008485
41
1.58544329244136
42
1.93450914284009
0
ELLIPSE
5
199
100
AcDbEntity
8
1
62
256
6
ByLayer
370
-1
48
1
60
0
100
AcDbEllipse
10
21.158788
20
6.215382
30
0
11
-0.132004876933518
21
-0.000392178569078475
31
0
210
0
220
0
230
1
40
0.984667
41
2.1010630962313
42
-3.14157881726973
0
ELLIPSE
5
19A
100
AcDbEntity
8
1
62
256
6
ByLayer
370
-1
48
1
60
0
100
AcDbEllipse
10
18.513104
20
8.916453
30
0
11
-0.176125739376208
21
-0.000381298909390842
31
0
210
0
220
0
230
1
40
0.014477
41
-2.75422024574647
42
-1.71923999918092
0
ELLIPSE
5
19B
100
AcDbEntity
8
1
62
256
6
ByLayer
370
-1
48
1
60
0
100
AcDbEllipse
10
20.460814
20
8.707852
30
0
11
-0.203084426041872
21
-0.000603351384263512
31
0
210
0
220
0
230
1
40
0.984667
41
-2.10103542233832
42
-1.57078248918116
0
ELLIPSE
5
19C
100
AcDbEntity
8
1
62
256
6
ByLayer
370
-1
48
1
60
0
100
AcDbEllipse
10
15.44889
20
8.041118
30
0
11
0.135513172663691
21
-0.064313140450616
31
0
210
0
220
0
230
1
40
0.090991
41
1.42074880902449
42
2.1295382985467
0
ELLIPSE
5
19D
100
AcDbEntity
8
1
62
256
6
ByLayer
370
-1
48
1
60
0
100
AcDbEllipse
10
10.471629
20
8.341566
30
0
11
-0.0387255245156544
21
-0.124900306194124
31
0
210
0
220
0
230
1
40
0.960584
41
2.91260164391563
42
-2.33004026957794
0
ELLIPSE
5
19E
100
AcDbEntity
8
1
62
256
6
ByLayer
370
-1
48
1
60
0
100
AcDbEllipse
10
21.811142
20
7.92657
30
0
11
-1.20883007269736
21
0.274665719074275
31
0
210
0
220
0
230
1
40
0.04318
41
-1.62775117191452
42
-1.46015549559764
0
ELLIPSE
5
19F
100
AcDbEntity
8
1
62
256
6
ByLayer
370
-1
48
1
60
0
100
AcDbEllipse
10
14.316259
20
8.916453
30
0
11
-0.150100165755179
21
-0.000447445835068693
31
0
210
0
220
0
230
1
40
0.016915
41
-2.45402547078411
42
-1.74523598074611
0
ELLIPSE
5
1A0
100
AcDbEntity
8
1
62
256
6
ByLayer
370
-1
48
1
60
0
100
AcDbEllipse
10
8.952194
20
6.877867
30
0
11
0.117321608038482
21
0.225910690953892
31
0
210
0
220
0
230
1
40
0.957172
41
-2.99344383251985
42
-2.6885065675388
0
ELLIPSE
5
1A1
100
AcDbEntity
8
1
62
256
6
ByLayer
370
-1
48
1
60
0
100
AcDbEllipse
10
12.878744
20
-0.66148
30
0
11
0.0197022175593671
21
-0.199027190663093
31
0
210
0
220
0
230
1
40
0.984662
41
-1.14436486269442
42
-0.620766087096119
0
ELLIPSE
5
1A2
100
AcDbEntity
8
1
62
256
6
ByLayer
370
-1
48
1
60
0
100
AcDbEllipse
10
9.027659
20
7.569006
30
0
11
-0.329852530264881
21
0.00986449582370725
31
0
210
0
220
0
230
1
40
0.130201
41
-1.30693253085105
42
-0.957866680452186
0
ELLIPSE
5
1A3
100
AcDbEntity
8
1
62
256
6
ByLayer
370
-1
48
1
60
0
100
AcDbEllipse
10
21.15678
20
6.888344
30
0
11
-0.1320048769388
21
-0.000392178585499721
31
0
210
0
220
0
230
1
40
0.984667
41
-3.14157881739217
42
-2.18885914048526
0
ELLIPSE
5
1A4
100
AcDbEntity
8
1
62
256
6
ByLayer
370
-1
48
1
60
0
100
AcDbEllipse
10
20.350646
20
7.774665
30
0
11
-0.491122290578599
21
-0.830478379864983
31
0
210
0
220
0
230
1
40
0.342017
41
-3.13697527937167
42
-2.31469405702981
0
ELLIPSE
5
1A5
100
AcDbEntity
8
1
62
256
6
ByLayer
370
-1
48
1
60
0
100
AcDbEllipse
10
15.451334
20
-2.311541
30
0
11
-0.0210607048197593
21
-0.329327263846307
31
0
210
0
220
0
230
1
40
0.570429
41
-2.20133955212113
42
-1.37905832978615
0
ELLIPSE
5
1A6
100
AcDbEntity
8
1
62
256
6
ByLayer
370
-1
48
1
60
0
100
AcDbEllipse
10
21.264548
20
7.18935
30
0
11
-0.132004876941249
21
-0.000392178435054156
31
0
210
0
220
0
230
1
40
0.984667
41
-1.04052955632678
42
1.38373174600382E-05
0
ELLIPSE
5
1A7
100
AcDbEntity
8
1
62
256
6
ByLayer
370
-1
48
1
60
0
100
AcDbEllipse
10
16.071308
20
-2.674317
30
0
11
0.168419751761703
21
-0.283786516974515
31
0
210
0
220
0
230
1
40
0.305589
41
-1.55760914820957
42
-1.20854329781068
0
ELLIPSE
5
1A8
100
AcDbEntity
8
1
62
256
6
ByLayer
370
-1
48
1
60
0
100
AcDbEllipse
10
20.64514
20
8.271333
30
0
11
-0.254558441227157
21
3.11733884545897E-17
31
0
210
0
220
0
230
1
40
0.999857
41
-0.838909548964167
42
-0.53397215806423
0
ELLIPSE
5
1A9
100
AcDbEntity
8
1
62
256
6
ByLayer
370
-1
48
1
60
0
100
AcDbEllipse
10
19.754046
20
8.189542
30
0
11
0.272157358452946
21
0.168316286318094
31
0
210
0
220
0
230
1
40
0.077665
41
1.72814974096658
42
2.76312998739922
0
ELLIPSE
5
1AA
100
AcDbEntity
8
1
62
256
6
ByLayer
370
-1
48
1
60
0
100
AcDbEllipse
10
20.349852
20
8.040601
30
0
11
-0.496071482930921
21
0.827532009951558
31
0
210
0
220
0
230
1
40
0.342016
41
2.31469389917202
42
3.13697512151127
0
ELLIPSE
5
1AB
100
AcDbEntity
8
1
62
256
6
ByLayer
370
-1
48
1
60
0
100
AcDbEllipse
10
16.47344
20
-2.773168
30
0
11
-0.0833186578595657
21
0.182756206496716
31
0
210
0
220
0
230
1
40
0.958576
41
-3.03817127247582
42
-2.50791833935905
0
ELLIPSE
5
1AC
100
AcDbEntity
8
1
62
256
6
ByLayer
370
-1
48
1
60
0
100
AcDbEllipse
10
14.604655
20
-2.449168
30
0
11
-0.0541571275493249
21
0.118791534253273
31
0
210
0
220
0
230
1
40
0.958576
41
2.20447064154467
42
-3.125994988737
0
ELLIPSE
5
1AD
100
AcDbEntity
8
1
62
256
6
ByLayer
370
-1
48
1
60
0
100
AcDbEllipse
10
15.727413
20
-2.21076
30
0
11
-0.485696724113443
21
0.833628738617382
31
0
210
0
220
0
230
1
40
0.325694
41
-3.13896830808603
42
-2.31668708576431
0
ELLIPSE
5
1AE
100
AcDbEntity
8
1
62
256
6
ByLayer
370
-1
48
1
60
0
100
AcDbEllipse
10
9.122419
20
5.364095
30
0
11
-0.189844707162797
21
0.325776279188496
31
0
210
0
220
0
230
1
40
0.134911
41
1.50917053218894
42
2.54415077860138
0
ELLIPSE
5
1AF
100
AcDbEntity
8
1
62
256
6
ByLayer
370
-1
48
1
60
0
100
AcDbEllipse
10
15.954652
20
-2.343729
30
0
11
-0.931731630026585
21
0.000752989037128228
31
0
210
0
220
0
230
1
40
0.349223
41
-0.809410479410922
42
0.0128707429218212
0
ELLIPSE
5
1B0
100
AcDbEntity
8
1
62
256
6
ByLayer
370
-1
48
1
60
0
100
AcDbEllipse
10
9.006151
20
6.849846
30
0
11
0.0152761950655617
21
-0.329646231381945
31
0
210
0
220
0
230
1
40
0.571959
41
-1.72135148365324
42
-0.899070261318196
0
ELLIPSE
5
1B1
100
AcDbEntity
8
1
62
256
6
ByLayer
370
-1
48
1
60
0
100
AcDbEllipse
10
15.032847
20
7.532681
30
0
11
0.0367833786735514
21
0.14542002287635
31
0
210
0
220
0
230
1
40
0.164395
41
-1.51152291065073
42
-1.3369899854514
0
ELLIPSE
5
1B2
100
AcDbEntity
8
1
62
256
6
ByLayer
370
-1
48
1
60
0
100
AcDbEllipse
10
15.400854
20
-3.374613
30
0
11
-0.748440647221732
21
-0.867906281467745
31
0
210
0
220
0
230
1
40
0.005689
41
-1.45557197882579
42
-1.28797632208419
0
ELLIPSE
5
1B3
100
AcDbEntity
8
1
62
256
6
ByLayer
370
-1
48
1
60
0
100
AcDbEllipse
10
15.312419
20
4.157235
30
0
11
-0.303455114647866
21
3.06543254731198
31
0
210
0
220
0
230
1
40
0.984662
41
0
42
6.28318530717959
0
ELLIPSE
5
1B4
100
AcDbEntity
8
1
62
256
6
ByLayer
370
-1
48
1
60
0
100
AcDbEllipse
10
19.449241
20
6.539117
30
0
11
-2.44441180842997
21
-1.42078303933955
31
0
210
0
220
0
230
1
40
0.300605
41
-3.13729250406405
42
-2.96969682956614
0
ELLIPSE
5
1B5
100
AcDbEntity
8
1
62
256
6
ByLayer
370
-1
48
1
60
0
100
AcDbEllipse
10
12.532342
20
2.251594
30
0
11
-0.144239959684991
21
-0.0411683620037539
31
0
210
0
220
0
230
1
40
0.031593
41
1.56879056625067
42
1.74332349144993
0
ELLIPSE
5
1B6
100
AcDbEntity
8
1
62
256
6
ByLayer
370
-1
48
1
60
0
100
AcDbEllipse
10
14.029618
20
-2.112687
30
0
11
-0.0541571275784157
21
0.118791534233284
31
0
210
0
220
0
230
1
40
0.958576
41
1.16392724759441
42
2.20447064126639
0
ELLIPSE
5
1B7
100
AcDbEntity
8
1
62
256
6
ByLayer
370
-1
48
1
60
0
100
AcDbEllipse
10
15.858999
20
-2.309387
30
0
11
-0.285239483601146
21
-0.165947090950554
31
0
210
0
220
0
230
1
40
0.016637
41
1.26039991204591
42
2.14142123805597
0
ELLIPSE
5
1B8
100
AcDbEntity
8
1
62
256
6
ByLayer
370
-1
48
1
60
0
100
AcDbEllipse
10
20.647306
20
7.545782
30
0
11
-0.254558441227157
21
3.11733884545897E-17
31
0
210
0
220
0
230
1
40
0.999857
41
0.539941900357849
42
0.844879039200655
0
ELLIPSE
5
1B9
100
AcDbEntity
8
1
62
256
6
ByLayer
370
-1
48
1
60
0
100
AcDbEllipse
10
18.722354
20
3.131528
30
0
11
0.108849151591528
21
-0.103207859186229
31
0
210
0
220
0
230
1
40
0.132802
41
1.28184863041174
42
1.45638155561106
0
ELLIPSE
5
1BA
100
AcDbEntity
8
1
62
256
6
ByLayer
370
-1
48
1
60
0
100
AcDbEllipse
10
20.646486
20
7.549293
30
0
11
0.282502684669732
21
0.170564454545472
31
0
210
0
220
0
230
1
40
0.355599
41
-2.40693323079847
42
-1.58465200846347
0
ELLIPSE
5
1BB
100
AcDbEntity
8
1
62
256
6
ByLayer
370
-1
48
1
60
0
100
AcDbEllipse
10
20.814598
20
5.195075
30
0
11
-0.00061274269224546
21
0.283031911589061
31
0
210
0
220
0
230
1
40
0.092039
41
-1.56188658523696
42
-0.526906338703378
0
ELLIPSE
5
1BC
100
AcDbEntity
8
1
62
256
6
ByLayer
370
-1
48
1
60
0
100
AcDbEllipse
10
15.083268
20
-0.825231
30
0
11
-0.112213697615193
21
2.78730395754107
31
0
210
0
220
0
230
1
40
0.294044
41
3.13155367478334
42
-2.98403595752172
0
ELLIPSE
5
1BD
100
AcDbEntity
8
1
62
256
6
ByLayer
370
-1
48
1
60
0
100
AcDbEllipse
10
21.633307
20
7.916124
30
0
11
0.00200138935679094
21
-0.329993930914862
31
0
210
0
220
0
230
1
40
0.178994
41
1.25288170746935
42
1.85430110377996
0
ELLIPSE
5
1BE
100
AcDbEntity
8
1
62
256
6
ByLayer
370
-1
48
1
60
0
100
AcDbEllipse
10
8.663324
20
6.503394
30
0
11
-0.0595777304784767
21
-0.192154317142775
31
0
210
0
220
0
230
1
40
0.960584
41
-1.28949687358011
42
-0.759243940567083
0
ELLIPSE
5
1BF
100
AcDbEntity
8
1
62
256
6
ByLayer
370
-1
48
1
60
0
100
AcDbEllipse
10
13.366767
20
-2.178304
30
0
11
-0.0128064414135899
21
0.129367673931011
31
0
210
0
220
0
230
1
40
0.984662
41
1.48028317282331
42
2.52082656649356
0
ELLIPSE
5
1C0
100
AcDbEntity
8
1
62
256
6
ByLayer
370
-1
48
1
60
0
100
AcDbEllipse
10
20.646019
20
4.414123
30
0
11
0.0197022175593671
21
-0.199027190663093
31
0
210
0
220
0
230
1
40
0.984662
41
0.950030239698763
42
1.47362901529707
0
ELLIPSE
5
1C1
100
AcDbEntity
8
1
62
256
6
ByLayer
370
-1
48
1
60
0
100
AcDbEllipse
10
14.146315
20
-2.757791
30
0
11
-0.0128064414135899
21
0.129367673931011
31
0
210
0
220
0
230
1
40
0.984662
41
-1.66130948076648
42
-0.620766087096227
0
ELLIPSE
5
1C2
100
AcDbEntity
8
1
62
256
6
ByLayer
370
-1
48
1
60
0
100
AcDbEllipse
10
8.899198
20
5.754581
30
0
11
-0.162033669206488
21
0.2759439980204
31
0
210
0
220
0
230
1
40
0.158847
41
1.32310456266252
42
1.49763748786194
0
ELLIPSE
5
1C3
100
AcDbEntity
8
1
62
256
6
ByLayer
370
-1
48
1
60
0
100
AcDbEllipse
10
16.429985
20
-1.856929
30
0
11
0.0113394317527837
21
-0.319799026401776
31
0
210
0
220
0
230
1
40
0.174133
41
-2.59475224021171
42
-1.55977199377873
0
ELLIPSE
5
1C4
100
AcDbEntity
8
1
62
256
6
ByLayer
370
-1
48
1
60
0
100
AcDbEllipse
10
9.898601
20
8.005085
30
0
11
-0.0387255245117515
21
-0.124900306197521
31
0
210
0
220
0
230
1
40
0.960584
41
-2.33004026962683
42
-1.37732059269336
0
ELLIPSE
5
1C5
100
AcDbEntity
8
1
62
256
6
ByLayer
370
-1
48
1
60
0
100
AcDbEllipse
10
13.424253
20
-1.229002
30
0
11
-0.243113751225772
21
0.140910408023848
31
0
210
0
220
0
230
1
40
0.05457
41
-2.68143408121205
42
-1.64645383476563
0
ELLIPSE
5
1C6
100
AcDbEntity
8
1
62
256
6
ByLayer
370
-1
48
1
60
0
100
AcDbEllipse
10
9.509304
20
6.873162
30
0
11
-0.931737718919239
21
0.00335270464437892
31
0
210
0
220
0
230
1
40
0.351081
41
-0.00923478471882043
42
0.813046437611264
0
ELLIPSE
5
1C7
100
AcDbEntity
8
1
62
256
6
ByLayer
370
-1
48
1
60
0
100
AcDbEllipse
10
16.071308
20
-2.674317
30
0
11
0.265031506044518
21
0.196617142700668
31
0
210
0
220
0
230
1
40
0.341239
41
-1.89712853314564
42
-1.07484731081061
0
ELLIPSE
5
1C8
100
AcDbEntity
8
1
62
256
6
ByLayer
370
-1
48
1
60
0
100
AcDbEllipse
10
19.307782
20
8.911125
30
0
11
-0.375734910733057
21
-0.000813437674240302
31
0
210
0
220
0
230
1
40
0.014477
41
0.38737240784512
42
1.42235265427583
0
ELLIPSE
5
1C9
100
AcDbEntity
8
1
62
256
6
ByLayer
370
-1
48
1
60
0
100
AcDbEllipse
10
9.64208
20
7.976626
30
0
11
-0.0387255244665805
21
-0.124900306218997
31
0
210
0
220
0
230
1
40
0.960584
41
0.811552383610349
42
1.76427206049205
0
ELLIPSE
5
1CA
100
AcDbEntity
8
1
62
256
6
ByLayer
370
-1
48
1
60
0
100
AcDbEllipse
10
18.293938
20
2.679695
30
0
11
0.108849151591528
21
-0.103207859186229
31
0
210
0
220
0
230
1
40
0.132802
41
1.28184863041144
42
1.45638155561108
0
ELLIPSE
5
1CB
100
AcDbEntity
8
1
62
256
6
ByLayer
370
-1
48
1
60
0
100
AcDbEllipse
10
20.646486
20
7.549293
30
0
11
-0.283043037695041
21
-0.169666257141377
31
0
210
0
220
0
230
1
40
0.014531
41
0.681094103134825
42
1.56211542914267
0
ELLIPSE
5
1CC
100
AcDbEntity
8
1
62
256
6
ByLayer
370
-1
48
1
60
0
100
AcDbEllipse
10
9.62396
20
7.212621
30
0
11
0.286230603216351
21
-0.164231671069876
31
0
210
0
220
0
230
1
40
0.012676
41
-1.86425703091835
42
-0.983235704910454
0
ELLIPSE
5
1CD
100
AcDbEntity
8
1
62
256
6
ByLayer
370
-1
48
1
60
0
100
AcDbEllipse
10
9.027659
20
7.569006
30
0
11
-0.295892073361188
21
-0.146109140446509
31
0
210
0
220
0
230
1
40
0.409519
41
-1.69649744441262
42
-1.09507804810175
0
ELLIPSE
5
1CE
100
AcDbEntity
8
1
62
256
6
ByLayer
370
-1
48
1
60
0
100
AcDbEllipse
10
14.812442
20
-2.691849
30
0
11
-0.0541571275790057
21
0.118791534232255
31
0
210
0
220
0
230
1
40
0.958576
41
-1.97766540600549
42
-0.937122012327368
0
ELLIPSE
5
1CF
100
AcDbEntity
8
1
62
256
6
ByLayer
370
-1
48
1
60
0
100
AcDbEllipse
10
11.889532
20
2.364517
30
0
11
-0.0109764751846185
21
0.149597850895397
31
0
210
0
220
0
230
1
40
0.174416
41
-2.27514962593659
42
-1.56636013641394
0
ELLIPSE
5
1D0
100
AcDbEntity
8
1
62
256
6
ByLayer
370
-1
48
1
60
0
100
AcDbEllipse
10
9.602719
20
4.623374
30
0
11
-0.0889897064732768
21
0.15270763084895
31
0
210
0
220
0
230
1
40
0.134911
41
-1.63242212151585
42
-0.597441874989794
0
ELLIPSE
5
1D1
100
AcDbEntity
8
1
62
256
6
ByLayer
370
-1
48
1
60
0
100
AcDbEllipse
10
12.123486
20
-0.736245
30
0
11
0.0197022175593671
21
-0.199027190663093
31
0
210
0
220
0
230
1
40
0.984662
41
-1.14436486269444
42
-0.620766087096184
0
ELLIPSE
5
1D2
100
AcDbEntity
8
1
62
256
6
ByLayer
370
-1
48
1
60
0
100
AcDbEllipse
10
14.4321
20
7.684638
30
0
11
0.0367833786735514
21
0.14542002287635
31
0
210
0
220
0
230
1
40
0.164395
41
-1.51152291065073
42
-1.33698998545141
0
ELLIPSE
5
1D3
100
AcDbEntity
8
1
62
256
6
ByLayer
370
-1
48
1
60
0
100
AcDbEllipse
10
16.429985
20
-1.856929
30
0
11
0.00576500800462782
21
0.319948065602383
31
0
210
0
220
0
230
1
40
0.256807
41
0.558382699456843
42
1.74352732460068
0
ELLIPSE
5
1D4
100
AcDbEntity
8
1
62
256
6
ByLayer
370
-1
48
1
60
0
100
AcDbEllipse
10
9.027659
20
7.569006
30
0
11
-0.169295514592372
21
-0.283264944422892
31
0
210
0
220
0
230
1
40
0.289048
41
-1.90258548364584
42
-1.55351963324696
0
ELLIPSE
5
1D5
100
AcDbEntity
8
1
62
256
6
ByLayer
370
-1
48
1
60
0
100
AcDbEllipse
10
20.429411
20
7.911424
30
0
11
0.284050851998538
21
-0.16797354993839
31
0
210
0
220
0
230
1
40
0.014557
41
-2.44318016919388
42
-1.56215884318399
0
ELLIPSE
5
1D6
100
AcDbEntity
8
1
62
256
6
ByLayer
370
-1
48
1
60
0
100
AcDbEllipse
10
15.451334
20
-2.311541
30
0
11
0.329785795493604
21
0.0118881912270339
31
0
210
0
220
0
230
1
40
0.163668
41
-2.18485395513136
42
-1.83578810473256
0
ELLIPSE
5
1D7
100
AcDbEntity
8
1
62
256
6
ByLayer
370
-1
48
1
60
0
100
AcDbEllipse
10
19.754046
20
8.189542
30
0
11
-0.27815116708091
21
-0.158214816788845
31
0
210
0
220
0
230
1
40
0.014726
41
0.377304873147989
42
1.56244949829216
0
ELLIPSE
5
1D8
100
AcDbEntity
8
1
62
256
6
ByLayer
370
-1
48
1
60
0
100
AcDbEllipse
10
20.64432
20
8.274844
30
0
11
-0.284574752690512
21
0.167084440122754
31
0
210
0
220
0
230
1
40
0.328265
41
-1.57537090247441
42
-0.753089680139376
0
ELLIPSE
5
1D9
100
AcDbEntity
8
1
62
256
6
ByLayer
370
-1
48
1
60
0
100
AcDbEllipse
10
9.513627
20
6.115373
30
0
11
0.274009264363062
21
-0.165284370232679
31
0
210
0
220
0
230
1
40
0.019277
41
-1.8639077397701
42
-0.678763114625395
0
ELLIPSE
5
1DA
100
AcDbEntity
8
1
62
256
6
ByLayer
370
-1
48
1
60
0
100
AcDbEllipse
10
12.704673
20
1.647804
30
0
11
-0.144239959684991
21
-0.0411683620037539
31
0
210
0
220
0
230
1
40
0.031593
41
1.56879056625058
42
1.74332349145015
0
ELLIPSE
5
1DB
100
AcDbEntity
8
1
62
256
6
ByLayer
370
-1
48
1
60
0
100
AcDbEllipse
10
9.570003
20
7.240643
30
0
11
0.117321608038481
21
0.225910690953892
31
0
210
0
220
0
230
1
40
0.957172
41
-1.61459250743366
42
-1.30965524245266
0
ELLIPSE
5
1DC
100
AcDbEntity
8
1
62
256
6
ByLayer
370
-1
48
1
60
0
100
AcDbEllipse
10
9.513627
20
6.115373
30
0
11
-0.28382522665698
21
0.14779458959351
31
0
210
0
220
0
230
1
40
0.096468
41
1.42421492745189
42
2.45919517388467
0
ELLIPSE
5
1DD
100
AcDbEntity
8
1
62
256
6
ByLayer
370
-1
48
1
60
0
100
AcDbEllipse
10
9.006151
20
6.849846
30
0
11
0.00278672453945549
21
0.329988233375588
31
0
210
0
220
0
230
1
40
0.260309
41
1.43915566762723
42
2.32017699363657
0
ELLIPSE
5
1DE
100
AcDbEntity
8
1
62
256
6
ByLayer
370
-1
48
1
60
0
100
AcDbEllipse
10
21.023141
20
5.958397
30
0
11
-0.276760933672474
21
-0.160658795920705
31
0
210
0
220
0
230
1
40
0.073503
41
-1.56309533854069
42
-0.766553402300627
0
ELLIPSE
5
1DF
100
AcDbEntity
8
1
62
256
6
ByLayer
370
-1
48
1
60
0
100
AcDbEllipse
10
21.273839
20
7.913944
30
0
11
-0.165834547046448
21
0.285304929866098
31
0
210
0
220
0
230
1
40
0.008485
41
1.5854432924412
42
1.93450914283825
0
ELLIPSE
5
1E0
100
AcDbEntity
8
1
62
256
6
ByLayer
370
-1
48
1
60
0
100
AcDbEllipse
10
9.413833
20
6.846403
30
0
11
-0.286230603216351
21
0.164231671069876
31
0
210
0
220
0
230
1
40
0.012676
41
1.27733562267036
42
2.15835694868037
0
ELLIPSE
5
1E1
100
AcDbEntity
8
1
62
256
6
ByLayer
370
-1
48
1
60
0
100
AcDbEllipse
10
15.400854
20
-3.374613
30
0
11
-0.289480320507821
21
-1.13400223271113
31
0
210
0
220
0
230
1
40
0.21433
41
-1.51805604930305
42
-1.35046037562782
0
ELLIPSE
5
1E2
100
AcDbEntity
8
1
62
256
6
ByLayer
370
-1
48
1
60
0
100
AcDbEllipse
10
17.046568
20
-2.217721
30
0
11
-0.161612197743506
21
-0.276191052607636
31
0
210
0
220
0
230
1
40
0.141921
41
-1.46809554306502
42
-1.29356261786552
0
ELLIPSE
5
1E3
100
AcDbEntity
8
1
62
256
6
ByLayer
370
-1
48
1
60
0
100
AcDbEllipse
10
15.80523
20
-2.344518
30
0
11
-0.139234821942734
21
0.213104820120464
31
0
210
0
220
0
230
1
40
0.952081
41
-1.62521932802713
42
-0.551305267922082
0
ELLIPSE
5
1E4
100
AcDbEntity
8
1
62
256
6
ByLayer
370
-1
48
1
60
0
100
AcDbEllipse
10
20.430231
20
7.907913
30
0
11
-0.254558441227157
21
3.11733884545897E-17
31
0
210
0
220
0
230
1
40
0.999857
41
-0.533972158064224
42
0.539941900357849
0
ELLIPSE
5
1E5
100
AcDbEntity
8
1
62
256
6
ByLayer
370
-1
48
1
60
0
100
AcDbEllipse
10
10.972989
20
6.715077
30
0
11
-2.3226502127808
21
1.38987250104162
31
0
210
0
220
0
230
1
40
0.313983
41
0.00599870855462781
42
0.173594383556191
0
ELLIPSE
5
1E6
100
AcDbEntity
8
1
62
256
6
ByLayer
370
-1
48
1
60
0
100
AcDbEllipse
10
8.02685
20
7.996795
30
0
11
0.0197022175593671
21
-0.199027190663093
31
0
210
0
220
0
230
1
40
0.984662
41
-2.7151611894894
42
-1.67461779581897
0
ELLIPSE
5
1E7
100
AcDbEntity
8
1
62
256
6
ByLayer
370
-1
48
1
60
0
100
AcDbEllipse
10
15.477123
20
-3.02695
30
0
11
0.295739719330958
21
-0.146417274971385
31
0
210
0
220
0
230
1
40
0.437013
41
-2.02995322866206
42
-1.42853383235125
0
ELLIPSE
5
1E8
100
AcDbEntity
8
1
62
256
6
ByLayer
370
-1
48
1
60
0
100
AcDbEllipse
10
12.412494
20
8.719061
30
0
11
0.0197022175593671
21
-0.199027190663093
31
0
210
0
220
0
230
1
40
0.984662
41
3.04442534209206
42
-2.7151611894892
0
ELLIPSE
5
1E9
100
AcDbEntity
8
1
62
256
6
ByLayer
370
-1
48
1
60
0
100
AcDbEllipse
10
21.273839
20
7.913944
30
0
11
-0.00200138935679112
21
0.329993930914862
31
0
210
0
220
0
230
1
40
0.178994
41
-1.88871094612067
42
-1.28729154980969
0
ELLIPSE
5
1EA
100
AcDbEntity
8
1
62
256
6
ByLayer
370
-1
48
1
60
0
100
AcDbEllipse
10
19.830711
20
2.614241
30
0
11
-0.0758050237686025
21
-0.12955489786501
31
0
210
0
220
0
230
1
40
0.141824
41
0.964634084354415
42
1.67342357369275
0
ELLIPSE
5
1EB
100
AcDbEntity
8
1
62
256
6
ByLayer
370
-1
48
1
60
0
100
AcDbEllipse
10
15.864315
20
8.916453
30
0
11
-0.166222822704948
21
-0.000404025363959931
31
0
210
0
220
0
230
1
40
0.015318
41
-1.72815927907054
42
-1.01936978896028
0
ELLIPSE
5
1EC
100
AcDbEntity
8
1
62
256
6
ByLayer
370
-1
48
1
60
0
100
AcDbEllipse
10
11.712156
20
0.933276
30
0
11
-0.0760035166169192
21
0.129439174526926
31
0
210
0
220
0
230
1
40
0.158738
41
-1.64390206198357
42
-0.935112572869761
0
ELLIPSE
5
1ED
100
AcDbEntity
8
1
62
256
6
ByLayer
370
-1
48
1
60
0
100
AcDbEllipse
10
21.26472
20
7.131564
30
0
11
-0.132004876934518
21
-0.000392178514265812
31
0
210
0
220
0
230
1
40
0.984667
41
1.38367268469709E-05
42
0.952733513653341
0
ELLIPSE
5
1EE
100
AcDbEntity
8
1
62
256
6
ByLayer
370
-1
48
1
60
0
100
AcDbEllipse
10
21.827265
20
7.924472
30
0
11
-0.203084426048973
21
-0.000603351485593958
31
0
210
0
220
0
230
1
40
0.984667
41
-3.14157881650052
42
-2.10103542281288
0
ELLIPSE
5
1EF
100
AcDbEntity
8
1
62
256
6
ByLayer
370
-1
48
1
60
0
100
AcDbEllipse
10
16.071308
20
-2.674317
30
0
11
-0.285239483601146
21
-0.165947090950554
31
0
210
0
220
0
230
1
40
0.016637
41
1.2603999120467
42
2.14142123805594
0
ELLIPSE
5
1F0
100
AcDbEntity
8
1
62
256
6
ByLayer
370
-1
48
1
60
0
100
AcDbEllipse
10
8.949238
20
7.941919
30
0
11
-0.753374389527464
21
0.876499690135501
31
0
210
0
220
0
230
1
40
0.023719
41
1.30917458920868
42
1.47677028088259
0
ELLIPSE
5
1F1
100
AcDbEntity
8
1
62
256
6
ByLayer
370
-1
48
1
60
0
100
AcDbEllipse
10
19.754046
20
8.189542
30
0
11
-0.31999857438126
21
-0.000955193153904039
31
0
210
0
220
0
230
1
40
0.016926
41
1.39623813751263
42
1.57077106271216
0
ELLIPSE
5
1F2
100
AcDbEntity
8
1
62
256
6
ByLayer
370
-1
48
1
60
0
100
AcDbEllipse
10
20.64432
20
8.274844
30
0
11
0.284050851998538
21
-0.16797354993839
31
0
210
0
220
0
230
1
40
0.014557
41
-2.44318016919508
42
-1.56215884318401
0
ELLIPSE
5
1F3
100
AcDbEntity
8
1
62
256
6
ByLayer
370
-1
48
1
60
0
100
AcDbEllipse
10
21.273839
20
7.913944
30
0
11
0.164128524857489
21
0.286289761130406
31
0
210
0
220
0
230
1
40
0.008441
41
-1.58546855109515
42
-1.23640270069486
0
ELLIPSE
5
1F4
100
AcDbEntity
8
1
62
256
6
ByLayer
370
-1
48
1
60
0
100
AcDbEllipse
10
11.620276
20
8.497897
30
0
11
-0.242332973171749
21
-0.141218484179041
31
0
210
0
220
0
230
1
40
0.03895
41
0.620771685090002
42
1.65575193135589
0
ELLIPSE
5
1F5
100
AcDbEntity
8
1
62
256
6
ByLayer
370
-1
48
1
60
0
100
AcDbEllipse
10
15.183686
20
-3.538603
30
0
11
-0.0833186578127987
21
0.182756206512539
31
0
210
0
220
0
230
1
40
0.958576
41
2.20447064126543
42
-3.03817127224215
0
ELLIPSE
5
1F6
100
AcDbEntity
8
1
62
256
6
ByLayer
370
-1
48
1
60
0
100
AcDbEllipse
10
10.934066
20
2.294412
30
0
11
-0.0840441179712692
21
0.143868673290828
31
0
210
0
220
0
230
1
40
0.143076
41
-2.34511467078599
42
-1.63632518154169
0
ELLIPSE
5
1F7
100
AcDbEntity
8
1
62
256
6
ByLayer
370
-1
48
1
60
0
100
AcDbEllipse
10
8.647002
20
5.349262
30
0
11
-0.0930395425220205
21
-2.80197791781518
31
0
210
0
220
0
230
1
40
0.29268
41
2.98099856128885
42
-3.13459107103223
0
ELLIPSE
5
1F8
100
AcDbEntity
8
1
62
256
6
ByLayer
370
-1
48
1
60
0
100
AcDbEllipse
10
12.220083
20
1.206379
30
0
11
-0.0710352023429612
21
0.132113587598303
31
0
210
0
220
0
230
1
40
0.161422
41
-1.63793094324478
42
-0.92914145372212
0
ELLIPSE
5
1F9
100
AcDbEntity
8
1
62
256
6
ByLayer
370
-1
48
1
60
0
100
AcDbEllipse
10
15.451334
20
-2.311541
30
0
11
-0.00174325584072297
21
0.329995395511928
31
0
210
0
220
0
230
1
40
0.260533
41
0.856478905314179
42
1.73750023132367
0
ELLIPSE
5
1FA
100
AcDbEntity
8
1
62
256
6
ByLayer
370
-1
48
1
60
0
100
AcDbEllipse
10
13.949374
20
-1.812232
30
0
11
-0.00204490915310714
21
0.320085891177849
31
0
210
0
220
0
230
1
40
0.174338
41
0.942729820123644
42
1.73927175639958
0
ELLIPSE
5
1FB
100
AcDbEntity
8
1
62
256
6
ByLayer
370
-1
48
1
60
0
100
AcDbEllipse
10
8.880074
20
7.867886
30
0
11
0.295892073361188
21
0.146109140446509
31
0
210
0
220
0
230
1
40
0.409519
41
1.44509520917718
42
2.04651460548806
0
ELLIPSE
5
1FC
100
AcDbEntity
8
1
62
256
6
ByLayer
370
-1
48
1
60
0
100
AcDbEllipse
10
9.62396
20
7.212621
30
0
11
-0.169295514592372
21
-0.283264944422892
31
0
210
0
220
0
230
1
40
0.289048
41
-1.90258548364577
42
-1.5535196332469
0
ELLIPSE
5
1FD
100
AcDbEntity
8
1
62
256
6
ByLayer
370
-1
48
1
60
0
100
AcDbEllipse
10
9.006151
20
6.849846
30
0
11
-0.329852530264881
21
0.00986449582370725
31
0
210
0
220
0
230
1
40
0.130201
41
-1.30693253085106
42
-0.957866680452157
0
ELLIPSE
5
1FE
100
AcDbEntity
8
1
62
256
6
ByLayer
370
-1
48
1
60
0
100
AcDbEllipse
10
9.62396
20
7.212621
30
0
11
-0.26754992094235
21
0.193176188500918
31
0
210
0
220
0
230
1
40
0.315435
41
-2.08791300409338
42
-1.26563178175833
0
ELLIPSE
5
1FF
100
AcDbEntity
8
1
62
256
6
ByLayer
370
-1
48
1
60
0
100
AcDbEllipse
10
9.592875
20
7.947733
30
0
11
-0.0387255245025625
21
-0.124900306201626
31
0
210
0
220
0
230
1
40
0.960584
41
-0.228991009779376
42
0.81155238389287
0
ELLIPSE
5
200
100
AcDbEntity
8
1
62
256
6
ByLayer
370
-1
48
1
60
0
100
AcDbEllipse
10
21.811142
20
7.92657
30
0
11
-1.20705424308738
21
-0.290156903900092
31
0
210
0
220
0
230
1
40
0.066352
41
1.45436257911931
42
1.6219582502864
0
ELLIPSE
5
201
100
AcDbEntity
8
1
62
256
6
ByLayer
370
-1
48
1
60
0
100
AcDbEllipse
10
20.429411
20
7.911424
30
0
11
0.283043037695041
21
0.169666257141377
31
0
210
0
220
0
230
1
40
0.014531
41
-2.46049855045735
42
-1.5794772244471
0
ELLIPSE
5
202
100
AcDbEntity
8
1
62
256
6
ByLayer
370
-1
48
1
60
0
100
AcDbEllipse
10
8.949238
20
7.941919
30
0
11
-0.289742096276587
21
1.1460960976095
31
0
210
0
220
0
230
1
40
0.218444
41
1.37698550912846
42
1.54458118426575
0
ELLIPSE
5
203
100
AcDbEntity
8
1
62
256
6
ByLayer
370
-1
48
1
60
0
100
AcDbEllipse
10
21.827339
20
7.899611
30
0
11
-0.203084426049071
21
-0.000603351677027241
31
0
210
0
220
0
230
1
40
0.984667
41
2.10106309606792
42
-3.14157881742636
0
ELLIPSE
5
204
100
AcDbEntity
8
1
62
256
6
ByLayer
370
-1
48
1
60
0
100
AcDbEllipse
10
15.858999
20
-2.309387
30
0
11
0.001743255840723
21
-0.329995395511928
31
0
210
0
220
0
230
1
40
0.260533
41
-2.2851137482755
42
-1.40409242226612
0
ELLIPSE
5
205
100
AcDbEntity
8
1
62
256
6
ByLayer
370
-1
48
1
60
0
100
AcDbEllipse
10
19.441087
20
9.270746
30
0
11
-2.45285016113746
21
1.40616694408071
31
0
210
0
220
0
230
1
40
0.300605
41
2.96969697052372
42
3.1372926453725
0
ELLIPSE
5
206
100
AcDbEntity
8
1
62
256
6
ByLayer
370
-1
48
1
60
0
100
AcDbEllipse
10
14.763064
20
-2.662956
30
0
11
-0.0541571275773634
21
0.118791534233782
31
0
210
0
220
0
230
1
40
0.958576
41
-0.937122012315429
42
0.0155976646073479
0
ELLIPSE
5
207
100
AcDbEntity
8
1
62
256
6
ByLayer
370
-1
48
1
60
0
100
AcDbEllipse
10
19.342457
20
2.925003
30
0
11
-0.0805414741465712
21
-0.126542763294853
31
0
210
0
220
0
230
1
40
0.138046
41
0.969941273948049
42
1.67873076347034
0
ELLIPSE
5
208
100
AcDbEntity
8
1
62
256
6
ByLayer
370
-1
48
1
60
0
100
AcDbEllipse
10
15.162442
20
-3.526173
30
0
11
-0.0833186578154085
21
0.182756206510613
31
0
210
0
220
0
230
1
40
0.958576
41
1.16392724757624
42
2.20447064125345
0
ELLIPSE
5
209
100
AcDbEntity
8
1
62
256
6
ByLayer
370
-1
48
1
60
0
100
AcDbEllipse
10
18.520706
20
2.058335
30
0
11
-0.124577066842043
21
-0.0835497122498519
31
0
210
0
220
0
230
1
40
0.083425
41
1.72517806407873
42
2.43396755360149
0
ELLIPSE
5
20A
100
AcDbEntity
8
1
62
256
6
ByLayer
370
-1
48
1
60
0
100
AcDbEllipse
10
9.359876
20
6.874424
30
0
11
0.117321608038482
21
0.225910690953892
31
0
210
0
220
0
230
1
40
0.957172
41
-2.68850656753893
42
-1.61459250743369
0
ELLIPSE
5
20B
100
AcDbEntity
8
1
62
256
6
ByLayer
370
-1
48
1
60
0
100
AcDbEllipse
10
10.839327
20
8.313124
30
0
11
-0.279775169854
21
0.155721789648778
31
0
210
0
220
0
230
1
40
0.100809
41
1.27416717380757
42
2.07070911031345
0
ELLIPSE
5
20C
100
AcDbEntity
8
1
62
256
6
ByLayer
370
-1
48
1
60
0
100
AcDbEllipse
10
15.397565
20
-2.346671
30
0
11
-0.139234821942734
21
0.213104820120464
31
0
210
0
220
0
230
1
40
0.952081
41
-0.551305267921914
42
-0.246368002940881
0
ELLIPSE
5
20D
100
AcDbEntity
8
1
62
256
6
ByLayer
370
-1
48
1
60
0
100
AcDbEllipse
10
9.282858
20
6.740194
30
0
11
-0.479796040750761
21
-0.83710246843797
31
0
210
0
220
0
230
1
40
0.327398
41
2.31333810642767
42
3.1356193287563
0
ELLIPSE
5
20E
100
AcDbEntity
8
1
62
256
6
ByLayer
370
-1
48
1
60
0
100
AcDbEllipse
10
17.743304
20
-1.075857
30
0
11
-0.088567009167633
21
-0.152805304703702
31
0
210
0
220
0
230
1
40
0.12071
41
0.622497921380212
42
1.65747816772714
0
ELLIPSE
5
20F
100
AcDbEntity
8
1
62
256
6
ByLayer
370
-1
48
1
60
0
100
AcDbEllipse
10
14.479283
20
-3.5938
30
0
11
0.0197022175593671
21
-0.199027190663093
31
0
210
0
220
0
230
1
40
0.984662
41
-1.66130948076648
42
-0.620766087096183
0
ELLIPSE
5
210
100
AcDbEntity
8
1
62
256
6
ByLayer
370
-1
48
1
60
0
100
AcDbEllipse
10
17.267458
20
-1.827234
30
0
11
-0.188942952882202
21
-0.325984650016239
31
0
210
0
220
0
230
1
40
0.12071
41
-2.5190947322257
42
-1.4841144858234
0
ELLIPSE
5
211
100
AcDbEntity
8
1
62
256
6
ByLayer
370
-1
48
1
60
0
100
AcDbEllipse
10
9.513627
20
6.115373
30
0
11
0.162033669206491
21
-0.275943998020398
31
0
210
0
220
0
230
1
40
0.158847
41
-1.8184880909273
42
-1.64395516572783
0
ELLIPSE
5
212
100
AcDbEntity
8
1
62
256
6
ByLayer
370
-1
48
1
60
0
100
AcDbEllipse
10
15.477123
20
-3.02695
30
0
11
0.329785795493604
21
0.0118881912270339
31
0
210
0
220
0
230
1
40
0.163668
41
-2.18485395513132
42
-1.83578810473247
0
ELLIPSE
5
213
100
AcDbEntity
8
1
62
256
6
ByLayer
370
-1
48
1
60
0
100
AcDbEllipse
10
8.731178
20
8.076854
30
0
11
-0.0595777300054965
21
-0.192154317232362
31
0
210
0
220
0
230
1
40
0.960584
41
2.91260164381883
42
-2.33004026968778
0
ELLIPSE
5
214
100
AcDbEntity
8
1
62
256
6
ByLayer
370
-1
48
1
60
0
100
AcDbEllipse
10
19.060747
20
1.253105
30
0
11
-0.083703482213608
21
-0.143972486400082
31
0
210
0
220
0
230
1
40
0.127956
41
1.66290984118174
42
2.37169933077728
0
ELLIPSE
5
215
100
AcDbEntity
8
1
62
256
6
ByLayer
370
-1
48
1
60
0
100
AcDbEllipse
10
14.296587
20
8.332588
30
0
11
0.149914929437486
21
-0.0050511317299894
31
0
210
0
220
0
230
1
40
0.023376
41
0.688187598592362
42
1.39697708811449
0
ELLIPSE
5
216
100
AcDbEntity
8
1
62
256
6
ByLayer
370
-1
48
1
60
0
100
AcDbEllipse
10
15.33131
20
-3.32147
30
0
11
-0.295739719330958
21
0.146417274971385
31
0
210
0
220
0
230
1
40
0.437013
41
1.11163942492769
42
1.71305882123846
0
ELLIPSE
5
217
100
AcDbEntity
8
1
62
256
6
ByLayer
370
-1
48
1
60
0
100
AcDbEllipse
10
9.413833
20
6.846403
30
0
11
0.00278672453945549
21
0.329988233375588
31
0
210
0
220
0
230
1
40
0.260309
41
1.43915566762721
42
2.32017699363657
0
ELLIPSE
5
218
100
AcDbEntity
8
1
62
256
6
ByLayer
370
-1
48
1
60
0
100
AcDbEllipse
10
13.767959
20
-1.626006
30
0
11
-0.104265506293136
21
-0.108729639242654
31
0
210
0
220
0
230
1
40
0.746902
41
2.89374374015517
42
-3.04463327572462
0
ELLIPSE
5
219
100
AcDbEntity
8
1
62
256
6
ByLayer
370
-1
48
1
60
0
100
AcDbEllipse
10
16.541785
20
4.13846
30
0
11
-0.00166011276254289
21
0.394030905815154
31
0
210
0
220
0
230
1
40
0.48236
41
0.158490609532817
42
1.5687640709886
0
ELLIPSE
5
21A
100
AcDbEntity
8
1
62
256
6
ByLayer
370
-1
48
1
60
0
100
AcDbEllipse
10
15.807251
20
5.422813
30
0
11
-0.335833568587965
21
0.198604627908362
31
0
210
0
220
0
230
1
40
0.491978
41
0.170083991761706
42
1.58035745322237
0
ELLIPSE
5
21B
100
AcDbEntity
8
1
62
256
6
ByLayer
370
-1
48
1
60
0
100
AcDbEllipse
10
16.541785
20
4.13846
30
0
11
-0.001660112759662
21
0.394030905817548
31
0
210
0
220
0
230
1
40
0.48236
41
1.56876407100579
42
2.97903753245517
0
ELLIPSE
5
21C
100
AcDbEntity
8
1
62
256
6
ByLayer
370
-1
48
1
60
0
100
AcDbEllipse
10
15.08102
20
4.13846
30
0
11
-0.137548307646006
21
1.28294760339763
31
0
210
0
220
0
230
1
40
0.984637
41
-2.72316996359089
42
-1.6759724123943
0
ELLIPSE
5
21D
100
AcDbEntity
8
1
62
256
6
ByLayer
370
-1
48
1
60
0
100
AcDbEllipse
10
15.08102
20
4.13846
30
0
11
-0.137548307646006
21
1.28294760339763
31
0
210
0
220
0
230
1
40
0.984637
41
-1.67597241239432
42
-0.62877486119773
0
ELLIPSE
5
21E
100
AcDbEntity
8
1
62
256
6
ByLayer
370
-1
48
1
60
0
100
AcDbEllipse
10
15.354469
20
4.167777
30
0
11
0.178707264153877
21
-1.66684752564182
31
0
210
0
220
0
230
1
40
0.984637
41
1.98921901679372
42
3.03641656799051
0
ELLIPSE
5
21F
100
AcDbEntity
8
1
62
256
6
ByLayer
370
-1
48
1
60
0
100
AcDbEllipse
10
15.354469
20
4.167777
30
0
11
0.178707264153877
21
-1.66684752564182
31
0
210
0
220
0
230
1
40
0.984637
41
-1.15237363679607
42
-0.105176085599264
0
ELLIPSE
5
220
100
AcDbEntity
8
1
62
256
6
ByLayer
370
-1
48
1
60
0
100
AcDbEllipse
10
15.354469
20
4.167777
30
0
11
0.178707264153877
21
-1.66684752564182
31
0
210
0
220
0
230
1
40
0.984637
41
3.03641656799051
42
-2.19957118799265
0
ELLIPSE
5
221
100
AcDbEntity
8
1
62
256
6
ByLayer
370
-1
48
1
60
0
100
AcDbEllipse
10
15.354469
20
4.167777
30
0
11
0.178707264153877
21
-1.66684752564182
31
0
210
0
220
0
230
1
40
0.984637
41
-0.105176085599264
42
0.942021465597132
0
ELLIPSE
5
222
100
AcDbEntity
8
1
62
256
6
ByLayer
370
-1
48
1
60
0
100
AcDbEllipse
10
15.354469
20
4.167777
30
0
11
0.178707264153877
21
-1.66684752564182
31
0
210
0
220
0
230
1
40
0.984637
41
-2.19957118799265
42
-1.15237363679607
0
ELLIPSE
5
223
100
AcDbEntity
8
1
62
256
6
ByLayer
370
-1
48
1
60
0
100
AcDbEllipse
10
15.354469
20
4.167777
30
0
11
0.178707264153877
21
-1.66684752564182
31
0
210
0
220
0
230
1
40
0.984637
41
0.942021465597132
42
1.98921901679372
0
ELLIPSE
5
224
100
AcDbEntity
8
1
62
256
6
ByLayer
370
-1
48
1
60
0
100
AcDbEllipse
10
15.343811
20
4.166635
30
0
11
-0.290489915783448
21
2.70947238569223
31
0
210
0
220
0
230
1
40
0.984637
41
0
42
6.28318530717959
0
ELLIPSE
5
225
100
AcDbEntity
8
1
62
256
6
ByLayer
370
-1
48
1
60
0
100
AcDbEllipse
10
15.354469
20
4.167777
30
0
11
-0.191883247123013
21
1.78974322724626
31
0
210
0
220
0
230
1
40
0.984637
41
0
42
6.28318530717959
0
ELLIPSE
5
226
100
AcDbEntity
8
1
62
256
6
ByLayer
370
-1
48
1
60
0
100
AcDbEllipse
10
15.815555
20
2.854107
30
0
11
-0.334749163352343
21
-0.198269006353539
31
0
210
0
220
0
230
1
40
0.494774
41
-1.57832859671364
42
-0.168055135252026
0
ELLIPSE
5
227
100
AcDbEntity
8
1
62
256
6
ByLayer
370
-1
48
1
60
0
100
AcDbEllipse
10
8.710008
20
8.064423
30
0
11
-0.0595777299869312
21
-0.192154317242171
31
0
210
0
220
0
230
1
40
0.960584
41
-2.33004026978317
42
-1.2894968761286
0
ELLIPSE
5
228
100
AcDbEntity
8
1
62
256
6
ByLayer
370
-1
48
1
60
0
100
AcDbEllipse
10
15.477123
20
-3.02695
30
0
11
0.168419751761703
21
-0.283786516974515
31
0
210
0
220
0
230
1
40
0.305589
41
-1.55760914820953
42
-1.20854329781068
0
POINT
5
41
100
AcDbEntity
8
2
62
256
6
ByLayer
370
-1
48
1
60
0
100
AcDbPoint
10
23.397097
20
8.916588
30
0
39
0
210
0
220
0
230
1
50
360
0
POINT
5
43
100
AcDbEntity
8
2
62
256
6
ByLayer
370
-1
48
1
60
0
100
AcDbPoint
10
22.030378
20
7.912648
30
0
39
0
210
0
220
0
230
1
50
360
0
POINT
5
44
100
AcDbEntity
8
81
62
256
6
ByLayer
370
-1
48
1
60
0
100
AcDbPoint
10
23.355801
20
8.9125
30
0
39
0
210
0
220
0
230
1
50
360
0
POINT
5
46
100
AcDbEntity
8
80
62
256
6
ByLayer
370
-1
48
1
60
0
100
AcDbPoint
10
0
20
0
30
0
39
0
210
0
220
0
230
1
50
360
0
POINT
5
48
100
AcDbEntity
8
2
62
256
6
ByLayer
370
-1
48
1
60
0
100
AcDbPoint
10
23.355801
20
8.9125
30
0
39
0
210
0
220
0
230
1
50
360
0
SPLINE
5
229
100
AcDbEntity
8
1
62
256
6
ByLayer
370
-1
48
1
60
0
100
AcDbSpline
70
4
71
3
72
12
73
8
40
0
40
0
40
0
40
0
40
0.0459877480418731
40
0.365425292065397
40
0.669294631325649
40
0.955894825617879
40
1
40
1
40
1
40
1
41
1
10
5.56849595486662
20
8.36771792013366
30
0
41
1
10
5.58276178607753
20
8.38097878675865
30
0
41
1
10
5.6969056977513
20
8.48550757357245
30
0
41
1
10
5.91547109489935
20
8.66577183527792
30
0
41
1
10
6.24025176803949
20
8.87243028893792
30
0
41
1
10
6.47734784563696
20
9.00001258212433
30
0
41
1
10
6.6075375910826
20
9.0507001700748
30
0
41
1
10
6.6249892938082
20
9.05726978042617
30
0
0
SPLINE
5
22A
100
AcDbEntity
8
1
62
256
6
ByLayer
370
-1
48
1
60
0
100
AcDbSpline
70
4
71
3
72
11
73
7
40
0
40
0
40
0
40
0
40
0.138774445899943
40
0.52713236562833
40
0.909049961475412
40
1
40
1
40
1
40
1
41
1
10
9.96364027377041
20
9.04287332472688
30
0
41
1
10
10.0127981463783
20
9.02455318507558
30
0
41
1
10
10.1968003381604
20
8.94964674829862
30
0
41
1
10
10.4932910155199
20
8.77354782304138
30
0
41
1
10
10.7551006490269
20
8.58120309845049
30
0
41
1
10
10.89106657553
20
8.46537225417066
30
0
41
1
10
10.9168839443043
20
8.4427066962713
30
0
0
SPLINE
5
22B
100
AcDbEntity
8
1
62
256
6
ByLayer
370
-1
48
1
60
0
100
AcDbSpline
70
4
71
3
72
8
73
4
40
0
40
0
40
0
40
0
40
1
40
1
40
1
40
1
41
1
10
13.3784313636014
20
-3.53818302480022
30
0
41
1
10
13.6222409306782
20
-3.37543952332703
30
0
41
1
10
13.8278967387882
20
-3.22020000734795
30
0
41
1
10
14.0143966384242
20
-3.07102321918606
30
0
0
SPLINE
5
22C
100
AcDbEntity
8
1
62
256
6
ByLayer
370
-1
48
1
60
0
100
AcDbSpline
70
4
71
3
72
14
73
10
40
0
40
0
40
0
40
0
40
0.447431724210742
40
0.447431724210742
40
0.682962772092838
40
0.682962772092838
40
0.91860718284014
40
0.91860718284014
40
1
40
1
40
1
40
1
41
1
10
6.96000975288595
20
9.06184446646336
30
0
41
1
10
6.95000243734836
20
9.06042056132037
30
0
41
1
10
6.94180986263609
20
9.0583548968477
30
0
41
1
10
6.93249667210989
20
9.05411864211493
30
0
41
1
10
6.92985925048112
20
9.05245288778445
30
0
41
1
10
6.9259040964223
20
9.04865022834773
30
0
41
1
10
6.92458156053641
20
9.04650956782518
30
0
41
1
10
6.92385223741647
20
9.04323435054616
30
0
41
1
10
6.92375774007874
20
9.04235789572701
30
0
41
1
10
6.92376378234221
20
9.04144203620388
30
0
0
SPLINE
5
22D
100
AcDbEntity
8
1
62
256
6
ByLayer
370
-1
48
1
60
0
100
AcDbSpline
70
4
71
3
72
20
73
16
40
0
40
0
40
0
40
0
40
0.0608143493774477
40
0.0608143493774477
40
0.214919318484653
40
0.214919318484653
40
0.368560674409473
40
0.368560674409473
40
0.52199707663787
40
0.52199707663787
40
0.675334771697144
40
0.675334771697144
40
0.983339870965807
40
0.983339870965807
40
1
40
1
40
1
40
1
41
1
10
9.48403500022431
20
9.03942425371653
30
0
41
1
10
9.48405863251242
20
9.04133571455935
30
0
41
1
10
9.48382178957934
20
9.0431394366322
30
0
41
1
10
9.48218521621351
20
9.04917762555573
30
0
41
1
10
9.47955834208631
20
9.05292574681272
30
0
41
1
10
9.47228401302613
20
9.05950783023897
30
0
41
1
10
9.46761730015353
20
9.06236362169881
30
0
41
1
10
9.45676639429524
20
9.06740569446984
30
0
41
1
10
9.45056250482287
20
9.06960053661558
30
0
41
1
10
9.43693802515077
20
9.07346642079793
30
0
41
1
10
9.42950070200084
20
9.07514159271037
30
0
41
1
10
9.40560979680922
20
9.07951700816753
30
0
41
1
10
9.38753808169636
20
9.08158376566479
30
0
41
1
10
9.36677219030162
20
9.0829741526945
30
0
41
1
10
9.36569890829455
20
9.08304344032771
30
0
41
1
10
9.36462065114779
20
9.08311048802415
30
0
0
SPLINE
5
22E
100
AcDbEntity
8
1
62
256
6
ByLayer
370
-1
48
1
60
0
100
AcDbSpline
70
4
71
3
72
10
73
6
40
0
40
0
40
0
40
0
40
0.87084893080851
40
0.87084893080851
40
1
40
1
40
1
40
1
41
1
10
7.75355832262164
20
9.00737750603983
30
0
41
1
10
7.75809867427924
20
8.99961200348892
30
0
41
1
10
7.76038932388684
20
8.9918093037482
30
0
41
1
10
7.76097824141331
20
8.98333190457373
30
0
41
1
10
7.76101650421097
20
8.98224783957232
30
0
41
1
10
7.76101875816062
20
8.98117026450976
30
0
0
SPLINE
5
22F
100
AcDbEntity
8
1
62
256
6
ByLayer
370
-1
48
1
60
0
100
AcDbSpline
70
4
71
3
72
10
73
6
40
0
40
0
40
0
40
0
40
0.771870081641375
40
0.771870081641375
40
1
40
1
40
1
40
1
41
1
10
9.00532091278171
20
9.00131203106224
30
0
41
1
10
8.99755393889575
20
8.99364686192149
30
0
41
1
10
8.98778153569086
20
8.98607195336592
30
0
41
1
10
8.97390500005997
20
8.97691243186401
30
0
41
1
10
8.97065541816269
20
8.97486234246534
30
0
41
1
10
8.96732333372358
20
8.97284619198388
30
0
0
SPLINE
5
230
100
AcDbEntity
8
1
62
256
6
ByLayer
370
-1
48
1
60
0
100
AcDbSpline
70
4
71
3
72
12
73
8
40
0
40
0
40
0
40
0
40
0.120685773105483
40
0.120685773105483
40
0.824973064444353
40
0.824973064444353
40
1
40
1
40
1
40
1
41
1
10
8.42123307543
20
8.9643751519173
30
0
41
1
10
8.4192680309271
20
8.96611106605482
30
0
41
1
10
8.41738229837239
20
8.96787769372403
30
0
41
1
10
8.4052066518845
20
8.98003841853591
30
0
41
1
10
8.39749027084665
20
8.99170380159433
30
0
41
1
10
8.3945172890204
20
9.00684376007064
30
0
41
1
10
8.39425601758668
20
9.00994229105027
30
0
41
1
10
8.39437887614207
20
9.01304482781634
30
0
0
SPLINE
5
231
100
AcDbEntity
8
1
62
256
6
ByLayer
370
-1
48
1
60
0
100
AcDbSpline
70
4
71
3
72
24
73
20
40
0
40
0
40
0
40
0
40
0.1040004482017
40
0.1040004482017
40
0.192499055460895
40
0.192499055460895
40
0.328500518746545
40
0.328500518746545
40
0.438682575665183
40
0.438682575665183
40
0.548533158171614
40
0.548533158171614
40
0.658237202769686
40
0.658237202769686
40
0.767870673660812
40
0.767870673660812
40
0.988088331634158
40
0.988088331634158
40
1
40
1
40
1
40
1
41
1
10
7.23805744678208
20
8.99813501620736
30
0
41
1
10
7.22672227398434
20
9.00557717693545
30
0
41
1
10
7.21380015455998
20
9.01281381209245
30
0
41
1
10
7.18956665792331
20
9.02445447424745
30
0
41
1
10
7.17803001462298
20
9.02927158698401
30
0
41
1
10
7.14984913724925
20
9.03971414502428
30
0
41
1
10
7.13327756274634
20
9.04462590010559
30
0
41
1
10
7.10562985748771
20
9.0515682403223
30
0
41
1
10
7.09387777173379
20
9.05402611393367
30
0
41
1
10
7.07184637170019
20
9.0579774282769
30
0
41
1
10
7.06149307420731
20
9.05948433039222
30
0
41
1
10
7.04205985401111
20
9.06180585884215
30
0
41
1
10
7.03294404329222
20
9.06262405280557
30
0
41
1
10
7.01585629864084
20
9.06372939890986
30
0
41
1
10
7.00786386827275
20
9.06401733449732
30
0
41
1
10
6.98545353417157
20
9.06422903643778
30
0
41
1
10
6.97255720902598
20
9.06350970883759
30
0
41
1
10
6.96116368372446
20
9.06200564426752
30
0
41
1
10
6.96058366000489
20
9.06192612565508
30
0
41
1
10
6.96000975288595
20
9.06184446646336
30
0
0
SPLINE
5
232
100
AcDbEntity
8
1
62
256
6
ByLayer
370
-1
48
1
60
0
100
AcDbSpline
70
4
71
3
72
8
73
4
40
0
40
0
40
0
40
0
40
1
40
1
40
1
40
1
41
1
10
7.74611584881438
20
9.02010696722718
30
0
41
1
10
7.74859665420178
20
9.01586372492983
30
0
41
1
10
7.75107747849296
20
9.01162056976318
30
0
41
1
10
7.75355832262164
20
9.00737750603983
30
0
0
SPLINE
5
233
100
AcDbEntity
8
1
62
256
6
ByLayer
370
-1
48
1
60
0
100
AcDbSpline
70
4
71
3
72
8
73
4
40
0
40
0
40
0
40
0
40
1
40
1
40
1
40
1
41
1
10
9.01805241585942
20
9.01387702728192
30
0
41
1
10
9.01380861426969
20
9.00968860621666
30
0
41
1
10
9.00956478044125
20
9.00550027269904
30
0
41
1
10
9.00532091278171
20
9.00131203106224
30
0
0
SPLINE
5
234
100
AcDbEntity
8
1
62
256
6
ByLayer
370
-1
48
1
60
0
100
AcDbSpline
70
4
71
3
72
10
73
6
40
0
40
0
40
0
40
0
40
0.388885978132972
40
0.388885978132972
40
1
40
1
40
1
40
1
41
1
10
12.2710390582077
20
2.37134345862538
30
0
41
1
10
12.2540369836482
20
2.3613598802734
30
0
41
1
10
12.236789416871
20
2.35133857773079
30
0
41
1
10
12.1923854375352
20
2.32578400565848
30
0
41
1
10
12.1649439165325
20
2.31022160609567
30
0
41
1
10
12.1379011832915
20
2.29514800322923
30
0
0
SPLINE
5
235
100
AcDbEntity
8
1
62
256
6
ByLayer
370
-1
48
1
60
0
100
AcDbSpline
70
4
71
3
72
14
73
10
40
0
40
0
40
0
40
0
40
0.31439236670207
40
0.31439236670207
40
0.632200716155254
40
0.632200716155254
40
0.91251319620206
40
0.91251319620206
40
1
40
1
40
1
40
1
41
1
10
21.8920973304125
20
7.86142190770394
30
0
41
1
10
21.8977984469901
20
7.87104499198807
30
0
41
1
10
21.9022637467031
20
7.88160543099465
30
0
41
1
10
21.9071347831561
20
7.9035148265701
30
0
41
1
10
21.9075021759278
20
7.91517370501978
30
0
41
1
10
21.9040906735866
20
7.93614950295139
30
0
41
1
10
21.9007933243538
20
7.94582124468636
30
0
41
1
10
21.8949364194835
20
7.95758488876214
30
0
41
1
10
21.8934151651756
20
7.96034758075902
30
0
41
1
10
21.8917939798961
20
7.96304714693747
30
0
0
SPLINE
5
236
100
AcDbEntity
8
1
62
256
6
ByLayer
370
-1
48
1
60
0
100
AcDbSpline
70
4
71
3
72
8
73
4
40
0
40
0
40
0
40
0
40
1
40
1
40
1
40
1
41
1
10
8.39437887614207
20
9.01304482781634
30
0
41
1
10
8.39454782685394
20
9.01731132593164
30
0
41
1
10
8.39471677625579
20
9.02157791530317
30
0
41
1
10
8.39488572440933
20
9.02584459162722
30
0
0
SPLINE
5
237
100
AcDbEntity
8
1
62
256
6
ByLayer
370
-1
48
1
60
0
100
AcDbSpline
70
4
71
3
72
22
73
18
40
0
40
0
40
0
40
0
40
0.208266363442963
40
0.208266363442963
40
0.317899168105657
40
0.317899168105657
40
0.427584739861975
40
0.427584739861975
40
0.537377253733101
40
0.537377253733101
40
0.647402228731052
40
0.647402228731052
40
0.811583680502292
40
0.811583680502292
40
0.906636022131513
40
0.906636022131513
40
1
40
1
40
1
40
1
41
1
10
9.36462065114779
20
9.08311048802415
30
0
41
1
10
9.3458188988391
20
9.08427961005088
30
0
41
1
10
9.32546004228328
20
9.08478480416909
30
0
41
1
10
9.29230549912484
20
9.08437416987931
30
0
41
1
10
9.28045261086538
20
9.08401406477927
30
0
41
1
10
9.25598624652213
20
9.08277304242401
30
0
41
1
10
9.24334541803361
20
9.08189126779544
30
0
41
1
10
9.21730999385386
20
9.07946655370029
30
0
41
1
10
9.20387238772628
20
9.07792040395611
30
0
41
1
10
9.17628708016298
20
9.07393990330718
30
0
41
1
10
9.16206097412555
20
9.07149461861022
30
0
41
1
10
9.12624759604935
20
9.06390695488659
30
0
41
1
10
9.10374746384642
20
9.05788657947488
30
0
41
1
10
9.06994635434361
20
9.04512925285354
30
0
41
1
10
9.05765089116727
20
9.03961133339442
30
0
41
1
10
9.03582072036505
20
9.02749577261835
30
0
41
1
10
9.02599507052867
20
9.02075858295797
30
0
41
1
10
9.01805241586013
20
9.01387702728417
30
0
0
SPLINE
5
238
100
AcDbEntity
8
1
62
256
6
ByLayer
370
-1
48
1
60
0
100
AcDbSpline
70
4
71
3
72
22
73
18
40
0
40
0
40
0
40
0
40
0.208266363442351
40
0.208266363442351
40
0.317899168105175
40
0.317899168105175
40
0.427584739861622
40
0.427584739861622
40
0.537377253732827
40
0.537377253732827
40
0.647402228730871
40
0.647402228730871
40
0.811583680502182
40
0.811583680502182
40
0.906636022131441
40
0.906636022131441
40
1
40
1
40
1
40
1
41
1
10
8.0399741008471
20
9.1085495768634
30
0
41
1
10
8.01116503300096
20
9.10829479374718
30
0
41
1
10
7.98261378616218
20
9.10733659821284
30
0
41
1
10
7.9401466565447
20
9.10466235929482
30
0
41
1
10
7.92565661522528
20
9.1035135420745
30
0
41
1
10
7.89723577626847
20
9.10068866637883
30
0
41
1
10
7.8832728233748
20
9.0990099685072
30
0
41
1
10
7.85615381557611
20
9.0949925345453
30
0
41
1
10
7.84295273741986
20
9.09264795038723
30
0
41
1
10
7.81778134101757
20
9.08708560777347
30
0
41
1
10
7.8057413380285
20
9.08385247465719
30
0
41
1
10
7.77846106581944
20
9.07437135183761
30
0
41
1
10
7.76400140289832
20
9.06724089950256
30
0
41
1
10
7.74901567544282
20
9.0530158508252
30
0
41
1
10
7.74514330219162
20
9.04701088568939
30
0
41
1
10
7.74220490968503
20
9.03414742148939
30
0
41
1
10
7.7430555401867
20
9.0271380951225
30
0
41
1
10
7.74611584881416
20
9.02010696722945
30
0
0
SPLINE
5
239
100
AcDbEntity
8
1
62
256
6
ByLayer
370
-1
48
1
60
0
100
AcDbSpline
70
4
71
3
72
24
73
20
40
0
40
0
40
0
40
0
40
0.104000448201615
40
0.104000448201615
40
0.192499055460684
40
0.192499055460684
40
0.32850051874621
40
0.32850051874621
40
0.438682575664785
40
0.438682575664785
40
0.54853315817113
40
0.54853315817113
40
0.658237202769131
40
0.658237202769131
40
0.767870673660203
40
0.767870673660203
40
0.988088331633469
40
0.988088331633469
40
1
40
1
40
1
40
1
41
1
10
8.39488572440933
20
9.02584459162722
30
0
41
1
10
8.39393414981407
20
9.03365196321022
30
0
41
1
10
8.39002483820229
20
9.04139043683446
30
0
41
1
10
8.37812227815732
20
9.05411059347088
30
0
41
1
10
8.37073014667806
20
9.05949385187964
30
0
41
1
10
8.34925574352044
20
9.0714227980464
30
0
41
1
10
8.33343276545202
20
9.07730533187416
30
0
41
1
10
8.30316539834087
20
9.08598441135015
30
0
41
1
10
8.28878553080381
20
9.08922635222967
30
0
41
1
10
8.25947825802541
20
9.09471867130094
30
0
41
1
10
8.24445760648325
20
9.09698752916461
30
0
41
1
10
8.21417239378357
20
9.10080256627441
30
0
41
1
10
8.19885224634368
20
9.10235506088156
30
0
41
1
10
8.16813927820124
20
9.10489726533723
30
0
41
1
10
8.1527092273796
20
9.10588949393048
30
0
41
1
10
8.10640728112156
20
9.1081679355797
30
0
41
1
10
8.07543901225591
20
9.10876882259947
30
0
41
1
10
8.04327957145944
20
9.10857644320419
30
0
41
1
10
8.04162626511288
20
9.10856418835871
30
0
41
1
10
8.0399741008471
20
9.1085495768634
30
0
0
SPLINE
5
23A
100
AcDbEntity
8
1
62
256
6
ByLayer
370
-1
48
1
60
0
100
AcDbSpline
70
4
71
3
72
22
73
18
40
0
40
0
40
0
40
0
40
0.153101873520365
40
0.153101873520365
40
0.442621285364907
40
0.442621285364907
40
0.707385074439687
40
0.707385074439687
40
0.843532608240159
40
0.843532608240159
40
0.92635266577125
40
0.92635266577125
40
0.96370673695526
40
0.96370673695526
40
0.977863955360661
40
0.977863955360661
40
1
40
1
40
1
40
1
41
1
10
12.1379011832915
20
2.29514800322912
30
0
41
1
10
12.1588968100483
20
2.29700834601545
30
0
41
1
10
12.1799124561008
20
2.29865813135115
30
0
41
1
10
12.2407019387024
20
2.30264719576422
30
0
41
1
10
12.280552484356
20
2.30435078453931
30
0
41
1
10
12.356794610955
20
2.30427620672296
30
0
41
1
10
12.3933537883596
20
2.30297707229224
30
0
41
1
10
12.447959050965
20
2.29541034115565
30
0
41
1
10
12.4665266686894
20
2.29188515874924
30
0
41
1
10
12.4950466527117
20
2.28224420513502
30
0
41
1
10
12.5057406826522
20
2.2776340574402
30
0
41
1
10
12.5191816978206
20
2.26795137382428
30
0
41
1
10
12.5231153340026
20
2.26443354848581
30
0
41
1
10
12.527567592355
20
2.25881985934203
30
0
41
1
10
12.528700219068
20
2.25718043626051
30
0
41
1
10
12.531257473502
20
2.25280331427814
30
0
41
1
10
12.5325055375342
20
2.24992535731317
30
0
41
1
10
12.5333535324172
20
2.24695427122251
30
0
0
SPLINE
5
23B
100
AcDbEntity
8
1
62
256
6
ByLayer
370
-1
48
1
60
0
100
AcDbSpline
70
4
71
3
72
8
73
4
40
0
40
0
40
0
40
0
40
1
40
1
40
1
40
1
41
1
10
12.2710390582076
20
2.37134345862538
30
0
41
1
10
12.1528426535242
20
2.38032733724188
30
0
41
1
10
12.0337415149094
20
2.37576578290265
30
0
41
1
10
11.9155750821125
20
2.36709553189644
30
0
0
SPLINE
5
23C
100
AcDbEntity
8
1
62
256
6
ByLayer
370
-1
48
1
60
0
100
AcDbSpline
70
4
71
3
72
22
73
18
40
0
40
0
40
0
40
0
40
0.0236324717629891
40
0.0236324717629891
40
0.062981402206426
40
0.062981402206426
40
0.0762359204463553
40
0.0762359204463553
40
0.134099172814621
40
0.134099172814621
40
0.288877504287524
40
0.288877504287524
40
0.442933094377609
40
0.442933094377609
40
0.66854335442953
40
0.66854335442953
40
1
40
1
40
1
40
1
41
1
10
18.7665077174381
20
3.11597551409861
30
0
41
1
10
18.7699457524359
20
3.11960147045127
30
0
41
1
10
18.7742275605236
20
3.12248742735488
30
0
41
1
10
18.7862433964968
20
3.12781669763078
30
0
41
1
10
18.7946335889957
20
3.12904419243466
30
0
41
1
10
18.8055617799437
20
3.12927451204314
30
0
41
1
10
18.8083468925279
20
3.12920976678185
30
0
41
1
10
18.8231774805223
20
3.12834814741225
30
0
41
1
10
18.8351347314797
20
3.12592393303731
30
0
41
1
10
18.8779419379251
20
3.1145135134683
30
0
41
1
10
18.9077783738954
20
3.10138126103186
30
0
41
1
10
18.9657172358596
20
3.07304556225594
30
0
41
1
10
18.9939512899376
20
3.05739924487796
30
0
41
1
10
19.0624390171051
20
3.0170882043054
30
0
41
1
10
19.1022358513631
20
2.99152487624258
30
0
41
1
10
19.1991162542098
20
2.92640723718267
30
0
41
1
10
19.255590480622
20
2.88583418492584
30
0
41
1
10
19.3113325293139
20
2.84429089227558
30
0
0
SPLINE
5
23D
100
AcDbEntity
8
1
62
256
6
ByLayer
370
-1
48
1
60
0
100
AcDbSpline
70
4
71
3
72
18
73
14
40
0
40
0
40
0
40
0
40
0.0414544517087703
40
0.0414544517087703
40
0.132910922468105
40
0.132910922468105
40
0.263177731540036
40
0.263177731540036
40
0.458562667326521
40
0.458562667326521
40
0.817425847463264
40
0.817425847463264
40
1
40
1
40
1
40
1
41
1
10
18.3199809582651
20
2.68227264206945
30
0
41
1
10
18.3168487364451
20
2.67896921449724
30
0
41
1
10
18.3139943402735
20
2.67537180231727
30
0
41
1
10
18.3059521826709
20
2.66327227140664
30
0
41
1
10
18.3019356413179
20
2.65384573479878
30
0
41
1
10
18.2954755895609
20
2.6304746499307
30
0
41
1
10
18.294190661994
20
2.61597423416134
30
0
41
1
10
18.2945498355201
20
2.58028876999921
30
0
41
1
10
18.29788944596
20
2.55886767936585
30
0
41
1
10
18.3112803091129
20
2.49963427224648
30
0
41
1
10
18.3247204697768
20
2.46237742885546
30
0
41
1
10
18.347586142223
20
2.40766701530617
30
0
41
1
10
18.3558365503676
20
2.389409150369
30
0
41
1
10
18.3644608187356
20
2.37134345861594
30
0
0
SPLINE
5
23E
100
AcDbEntity
8
1
62
256
6
ByLayer
370
-1
48
1
60
0
100
AcDbSpline
70
4
71
3
72
18
73
14
40
0
40
0
40
0
40
0
40
0.0414544517087938
40
0.0414544517087938
40
0.132910922468129
40
0.132910922468129
40
0.263177731540039
40
0.263177731540039
40
0.458562667326532
40
0.458562667326532
40
0.817425847463281
40
0.817425847463281
40
1
40
1
40
1
40
1
41
1
10
15.0588906679689
20
7.53525941755254
30
0
41
1
10
15.063282831146
20
7.53414843848552
30
0
41
1
10
15.0677861218918
20
7.53342795982536
30
0
41
1
10
15.0821492363805
20
7.53237485915903
30
0
41
1
10
15.0922089067708
20
7.53353182140529
30
0
41
1
10
15.115391478171
20
7.53947598975492
30
0
41
1
10
15.1284062032804
20
7.54555836085143
30
0
41
1
10
15.1586654591647
20
7.56362323917327
30
0
41
1
10
15.1752591298725
20
7.57721393366467
30
0
41
1
10
15.2190547893921
20
7.61844916299293
30
0
41
1
10
15.2440796099384
20
7.64879713458865
30
0
41
1
10
15.2792548732985
20
7.69611351475629
30
0
41
1
10
15.2906820174215
20
7.71244874363563
30
0
41
1
10
15.30175732603
20
7.72901710889437
30
0
0
SPLINE
5
23F
100
AcDbEntity
8
1
62
256
6
ByLayer
370
-1
48
1
60
0
100
AcDbSpline
70
4
71
3
72
8
73
4
40
0
40
0
40
0
40
0
40
1
40
1
40
1
40
1
41
1
10
15.2972434471147
20
7.88020187607566
30
0
41
1
10
15.3000851135043
20
7.83175675341252
30
0
41
1
10
15.3016047127856
20
7.78014395621472
30
0
41
1
10
15.3017573260109
20
7.72901710890918
30
0
0
SPLINE
5
240
100
AcDbEntity
8
1
62
256
6
ByLayer
370
-1
48
1
60
0
100
AcDbSpline
70
4
71
3
72
22
73
18
40
0
40
0
40
0
40
0
40
0.0236324717629845
40
0.0236324717629845
40
0.0629814022064222
40
0.0629814022064222
40
0.0762359204463642
40
0.0762359204463642
40
0.134099172814621
40
0.134099172814621
40
0.288877504287528
40
0.288877504287528
40
0.442933094377617
40
0.442933094377617
40
0.668543354429529
40
0.668543354429529
40
1
40
1
40
1
40
1
41
1
10
12.705684675378
20
1.6431644699413
30
0
41
1
10
12.7070676305867
20
1.63831906454138
30
0
41
1
10
12.7073838070847
20
1.63309215134006
30
0
41
1
10
12.7058817279384
20
1.61979646360177
30
0
41
1
10
12.7026814147834
20
1.61174831946474
30
0
41
1
10
12.6973323280491
20
1.60194375342002
30
0
41
1
10
12.6958625790333
20
1.59950617164119
30
0
41
1
10
12.6875903067178
20
1.58678227518729
30
0
41
1
10
12.6794285314461
20
1.57738055454163
30
0
41
1
10
12.6478521974515
20
1.54507565435819
30
0
41
1
10
12.6213747438295
20
1.52512539972858
30
0
41
1
10
12.5675121928508
20
1.48778811313269
30
0
41
1
10
12.5396781894172
20
1.47050382088113
30
0
41
1
10
12.4701256026897
20
1.429744389723
30
0
41
1
10
12.4278630987594
20
1.40711922180267
30
0
41
1
10
12.3224869964183
20
1.35346972793195
30
0
41
1
10
12.2588026440224
20
1.32348969441577
30
0
41
1
10
12.1946509277921
20
1.29463825126172
30
0
0
SPLINE
5
241
100
AcDbEntity
8
1
62
256
6
ByLayer
370
-1
48
1
60
0
100
AcDbSpline
70
4
71
3
72
20
73
16
40
0
40
0
40
0
40
0
40
0.314859192648753
40
0.314859192648753
40
0.531558880441058
40
0.531558880441058
40
0.682135903694813
40
0.682135903694813
40
0.839619845966507
40
0.839619845966507
40
0.903112673775994
40
0.903112673775994
40
0.967902128209785
40
0.967902128209785
40
1
40
1
40
1
40
1
41
1
10
14.3226304619828
20
8.3351658372622
30
0
41
1
10
14.3201904316569
20
8.26274702229409
30
0
41
1
10
14.3195458769558
20
8.19019558755289
30
0
41
1
10
14.3237105508066
20
8.06791082995954
30
0
41
1
10
14.3268634232547
20
8.01804055873012
30
0
41
1
10
14.3365782379965
20
7.93405603323296
30
0
41
1
10
14.3417970877689
20
7.89969738551395
30
0
41
1
10
14.3569604672651
20
7.83056223126519
30
0
41
1
10
14.3669376402006
20
7.79529342694156
30
0
41
1
10
14.3888812610731
20
7.74961202599368
30
0
41
1
10
14.3962432731254
20
7.73681256478375
30
0
41
1
10
14.4141238922815
20
7.71358385497072
30
0
41
1
10
14.4250459246588
20
7.70288941442072
30
0
41
1
10
14.4441137134831
20
7.69188483025783
30
0
41
1
10
14.4510293160943
20
7.68901537112447
30
0
41
1
10
14.4581432632414
20
7.68721592833364
30
0
0
SPLINE
5
242
100
AcDbEntity
8
1
62
256
6
ByLayer
370
-1
48
1
60
0
100
AcDbSpline
70
4
71
3
72
10
73
6
40
0
40
0
40
0
40
0
40
0.736240194588507
40
0.736240194588507
40
1
40
1
40
1
40
1
41
1
10
11.0622363261623
20
8.2004472417737
30
0
41
1
10
11.0391048101081
20
8.19657574176594
30
0
41
1
10
11.0134036721681
20
8.19659184335009
30
0
41
1
10
10.978291726239
20
8.20585298487117
30
0
41
1
10
10.9688497010484
20
8.20925495871768
30
0
41
1
10
10.9596597739147
20
8.21372697982187
30
0
0
SPLINE
5
243
100
AcDbEntity
8
1
62
256
6
ByLayer
370
-1
48
1
60
0
100
AcDbSpline
70
4
71
3
72
14
73
10
40
0
40
0
40
0
40
0
40
0.23392640828628
40
0.23392640828628
40
0.467719442169569
40
0.467719442169569
40
0.701444004412153
40
0.701444004412153
40
1
40
1
40
1
40
1
41
1
10
11.0783736954343
20
2.02994206959053
30
0
41
1
10
11.083103758819
20
2.01842389724186
30
0
41
1
10
11.0884810952849
20
2.00612631461428
30
0
41
1
10
11.1002696840114
20
1.98053757206384
30
0
41
1
10
11.10672143254
20
1.96715746824401
30
0
41
1
10
11.1204513624186
20
1.93979545330237
30
0
41
1
10
11.1277749983244
20
1.92572238313238
30
0
41
1
10
11.1451334487026
20
1.89345170651754
30
0
41
1
10
11.155450165975
20
1.87501862181171
30
0
41
1
10
11.1660335117076
20
1.856793249844
30
0
0
SPLINE
5
244
100
AcDbEntity
8
1
62
256
6
ByLayer
370
-1
48
1
60
0
100
AcDbSpline
70
4
71
3
72
8
73
4
40
0
40
0
40
0
40
0
40
1
40
1
40
1
40
1
41
1
10
11.9165225726914
20
2.26910555514229
30
0
41
1
10
11.9900954329042
20
2.27951545917384
30
0
41
1
10
12.0638932886788
20
2.28859044462621
30
0
41
1
10
12.1379011833138
20
2.2951480032311
30
0
0
SPLINE
5
245
100
AcDbEntity
8
1
62
256
6
ByLayer
370
-1
48
1
60
0
100
AcDbSpline
70
4
71
3
72
10
73
6
40
0
40
0
40
0
40
0
40
0.73624019458849
40
0.73624019458849
40
1
40
1
40
1
40
1
41
1
10
20.776551146797
20
5.79022047953177
30
0
41
1
10
20.7784896353008
20
5.80794730528856
30
0
41
1
10
20.7851497504388
20
5.82607219201086
30
0
41
1
10
20.8032016428419
20
5.84696992994432
30
0
41
1
10
20.8089346829086
20
5.85220499319976
30
0
41
1
10
20.8155974118046
20
5.85678411558553
30
0
0
SPLINE
5
246
100
AcDbEntity
8
1
62
256
6
ByLayer
370
-1
48
1
60
0
100
AcDbSpline
70
4
71
3
72
14
73
10
40
0
40
0
40
0
40
0
40
0.249103078948813
40
0.249103078948813
40
0.498160925944173
40
0.498160925944173
40
0.745586162481412
40
0.745586162481412
40
1
40
1
40
1
40
1
41
1
10
19.6120392675615
20
2.24841113742929
30
0
41
1
10
19.6210094807564
20
2.26404561781141
30
0
41
1
10
19.6302456030808
20
2.2797034813386
30
0
41
1
10
19.6488540524728
20
2.31041079706685
30
0
41
1
10
19.658290858181
20
2.32556691206449
30
0
41
1
10
19.6769836691531
20
2.35477908190745
30
0
41
1
10
19.6863031512497
20
2.36893971603644
30
0
41
1
10
19.7048344536595
20
2.39628113536361
30
0
41
1
10
19.7141013242126
20
2.40951962416418
30
0
41
1
10
19.7230436930951
20
2.42185137583002
30
0
0
SPLINE
5
247
100
AcDbEntity
8
1
62
256
6
ByLayer
370
-1
48
1
60
0
100
AcDbSpline
70
4
71
3
72
8
73
4
40
0
40
0
40
0
40
0
40
1
40
1
40
1
40
1
41
1
10
15.3017573260109
20
7.72901710890909
30
0
41
1
10
15.3682085833107
20
7.82842641132029
30
0
41
1
10
15.4235555466935
20
7.93543947329218
30
0
41
1
10
15.4749328823946
20
8.04369582207383
30
0
0
SPLINE
5
248
100
AcDbEntity
8
1
62
256
6
ByLayer
370
-1
48
1
60
0
100
AcDbSpline
70
4
71
3
72
8
73
4
40
0
40
0
40
0
40
0
40
1
40
1
40
1
40
1
41
1
10
15.3820132562623
20
8.08566671122713
30
0
41
1
10
15.3553469489836
20
8.01650712620662
30
0
41
1
10
15.3274257559866
20
7.94781755443435
30
0
41
1
10
15.2972434471147
20
7.88020187607566
30
0
0
SPLINE
5
249
100
AcDbEntity
8
1
62
256
6
ByLayer
370
-1
48
1
60
0
100
AcDbSpline
70
4
71
3
72
8
73
4
40
0
40
0
40
0
40
0
40
1
40
1
40
1
40
1
41
1
10
18.6199037594807
20
2.11506895534424
30
0
41
1
10
18.5752209888908
20
2.17403877431241
30
0
41
1
10
18.5315590002877
20
2.23387259697012
30
0
41
1
10
18.4899283921344
20
2.29514800324776
30
0
0
SPLINE
5
24A
100
AcDbEntity
8
1
62
256
6
ByLayer
370
-1
48
1
60
0
100
AcDbSpline
70
4
71
3
72
22
73
18
40
0
40
0
40
0
40
0
40
0.0236324717629909
40
0.0236324717629909
40
0.0629814022064381
40
0.0629814022064381
40
0.07623592044638
40
0.07623592044638
40
0.134099172814625
40
0.134099172814625
40
0.288877504287534
40
0.288877504287534
40
0.442933094377618
40
0.442933094377618
40
0.668543354429525
40
0.668543354429525
40
1
40
1
40
1
40
1
41
1
10
14.4638778378159
20
7.71244654065038
30
0
41
1
10
14.4590568476092
20
7.71366598969766
30
0
41
1
10
14.4544251344382
20
7.71600360711525
30
0
41
1
10
14.4437594009034
20
7.72395498000932
30
0
41
1
10
14.4384117785282
20
7.73076001395091
30
0
41
1
10
14.4325988285852
20
7.7403111113922
30
0
41
1
10
14.4312213080259
20
7.74280728535061
30
0
41
1
10
14.4243212803831
20
7.75635897422097
30
0
41
1
10
14.4202143850813
20
7.76815408100643
30
0
41
1
10
14.4078115551139
20
7.81175338564617
30
0
41
1
10
14.4035274745432
20
7.84474431484094
30
0
41
1
10
14.3975938236935
20
7.91023343732465
30
0
41
1
10
14.3962494980284
20
7.943070570722
30
0
41
1
10
14.3949722935401
20
8.02390919546102
30
0
41
1
10
14.3960303457697
20
8.07195834774438
30
0
41
1
10
14.401034014617
20
8.19037979550856
30
0
41
1
10
14.4061494570511
20
8.26072552312678
30
0
41
1
10
14.4124561313284
20
8.33091207817643
30
0
0
SPLINE
5
24B
100
AcDbEntity
8
1
62
256
6
ByLayer
370
-1
48
1
60
0
100
AcDbSpline
70
4
71
3
72
14
73
10
40
0
40
0
40
0
40
0
40
0.233926408286268
40
0.233926408286268
40
0.467719442169543
40
0.467719442169543
40
0.701444004412115
40
0.701444004412115
40
1
40
1
40
1
40
1
41
1
10
15.5577514734035
20
8.9158089055434
30
0
41
1
10
15.5430941767232
20
8.91563517697364
30
0
41
1
10
15.5277198620162
20
8.91548034814343
30
0
41
1
10
15.4962325466908
20
8.91521434467938
30
0
41
1
10
15.4800096964521
20
8.9151022005025
30
0
41
1
10
15.447284714498
20
8.91492310957804
30
0
41
1
10
15.4306733146694
20
8.91485553919372
30
0
41
1
10
15.3930563841546
20
8.91475350831897
30
0
41
1
10
15.3719067463472
20
8.91473284773548
30
0
41
1
10
15.3513170096238
20
8.91474829247269
30
0
0
SPLINE
5
24C
100
AcDbEntity
8
1
62
256
6
ByLayer
370
-1
48
1
60
0
100
AcDbSpline
70
4
71
3
72
18
73
14
40
0
40
0
40
0
40
0
40
0.0414544517087771
40
0.0414544517087771
40
0.132910922468127
40
0.132910922468127
40
0.263177731540044
40
0.263177731540044
40
0.45856266732654
40
0.45856266732654
40
0.817425847463264
40
0.817425847463264
40
1
40
1
40
1
40
1
41
1
10
12.5583855767421
20
2.25417196653777
30
0
41
1
10
12.557125635385
20
2.25858637317697
30
0
41
1
10
12.555476740811
20
2.26290426401712
30
0
41
1
10
12.5491557839248
20
2.27605689559408
30
0
41
1
10
12.5431126548876
20
2.28432646995571
30
0
41
1
10
12.5263901352444
20
2.3017533864741
30
0
41
1
10
12.5146603377018
20
2.31017143114698
30
0
41
1
10
12.4840419082914
20
2.32779201698727
30
0
41
1
10
12.4641086271437
20
2.33562241312924
30
0
41
1
10
12.4069221044712
20
2.35362059092037
30
0
41
1
10
12.368457123261
20
2.36052946271565
30
0
41
1
10
12.3104161874547
20
2.36792349609726
30
0
41
1
10
12.290738635187
20
2.36984613215512
30
0
41
1
10
12.2710390582107
20
2.37134345864945
30
0
0
SPLINE
5
24D
100
AcDbEntity
8
1
62
256
6
ByLayer
370
-1
48
1
60
0
100
AcDbSpline
70
4
71
3
72
14
73
10
40
0
40
0
40
0
40
0
40
0.314392366702066
40
0.314392366702066
40
0.632200716155242
40
0.632200716155242
40
0.912513196202043
40
0.912513196202043
40
1
40
1
40
1
40
1
41
1
10
8.7342972527714
20
8.15136207229119
30
0
41
1
10
8.72349738272808
20
8.15146223935724
30
0
41
1
10
8.71246010058596
20
8.15003676610266
30
0
41
1
10
8.691559233276
20
8.14331365791054
30
0
41
1
10
8.68144876619169
20
8.13782898600874
30
0
41
1
10
8.6651108261683
20
8.12447036663787
30
0
41
1
10
8.65836174419081
20
8.11683270457613
30
0
41
1
10
8.65099258775425
20
8.10596035314666
30
0
41
1
10
8.64932822944303
20
8.10328203341032
30
0
41
1
10
8.64776315479281
20
8.10054945267447
30
0
0
SPLINE
5
24E
100
AcDbEntity
8
1
62
256
6
ByLayer
370
-1
48
1
60
0
100
AcDbSpline
70
4
71
3
72
22
73
18
40
0
40
0
40
0
40
0
40
0.153101873520333
40
0.153101873520333
40
0.442621285364892
40
0.442621285364892
40
0.707385074439682
40
0.707385074439682
40
0.843532608240161
40
0.843532608240161
40
0.926352665771243
40
0.926352665771243
40
0.963706736955257
40
0.963706736955257
40
0.977863955360643
40
0.977863955360643
40
1
40
1
40
1
40
1
41
1
10
18.489928392147
20
2.29514800322931
30
0
41
1
10
18.4781180209053
20
2.31253149408408
30
0
41
1
10
18.4664763684047
20
2.33003769315491
30
0
41
1
10
18.4334658578041
20
2.38106715503832
30
0
41
1
10
18.4125985297298
20
2.41497503614198
30
0
41
1
10
18.3755029275846
20
2.4815132154479
30
0
41
1
10
18.3587865564736
20
2.51405042393313
30
0
41
1
10
18.3385926706162
20
2.56545850272477
30
0
41
1
10
18.3325340328274
20
2.5834145742798
30
0
41
1
10
18.3268143849706
20
2.61310579266475
30
0
41
1
10
18.3255141777621
20
2.62473595451871
30
0
41
1
10
18.3271798446854
20
2.64129530245759
30
0
41
1
10
18.3282478852932
20
2.64648316967711
30
0
41
1
10
18.3308418202328
20
2.65317002681186
30
0
41
1
10
18.3316810549948
20
2.65497665651228
30
0
41
1
10
18.3341492634575
20
2.65939306495207
30
0
41
1
10
18.3359833352774
20
2.66191887435249
30
0
41
1
10
18.3380914556756
20
2.66414222360723
30
0
0
SPLINE
5
24F
100
AcDbEntity
8
1
62
256
6
ByLayer
370
-1
48
1
60
0
100
AcDbSpline
70
4
71
3
72
14
73
10
40
0
40
0
40
0
40
0
40
0.233926408286276
40
0.233926408286276
40
0.467719442169541
40
0.467719442169541
40
0.701444004412127
40
0.701444004412127
40
1
40
1
40
1
40
1
41
1
10
19.2034797209074
20
1.51628619538644
30
0
41
1
10
19.2081420581464
20
1.52745691059556
30
0
41
1
10
19.2134469025687
20
1.53944483556279
30
0
41
1
10
19.2250843149529
20
1.56450157118513
30
0
41
1
10
19.2314568539773
20
1.57765738665117
30
0
41
1
10
19.2450245022396
20
1.60466121974389
30
0
41
1
10
19.2522645255384
20
1.61859914914527
30
0
41
1
10
19.2694309296225
20
1.65066576401057
30
0
41
1
10
19.279637725021
20
1.66905752754946
30
0
41
1
10
19.2901121733732
20
1.68731378899156
30
0
0
SPLINE
5
250
100
AcDbEntity
8
1
62
256
6
ByLayer
370
-1
48
1
60
0
100
AcDbSpline
70
4
71
3
72
20
73
16
40
0
40
0
40
0
40
0
40
0.314859192648768
40
0.314859192648768
40
0.531558880441068
40
0.531558880441068
40
0.682135903694821
40
0.682135903694821
40
0.839619845966522
40
0.839619845966522
40
0.903112673776005
40
0.903112673776005
40
0.96790212820979
40
0.96790212820979
40
1
40
1
40
1
40
1
41
1
10
19.3685007624709
20
2.92758074293428
30
0
41
1
10
19.3079409531709
20
2.96612562837896
30
0
41
1
10
19.2463749934301
20
3.00315849024065
30
0
41
1
10
19.1399943995627
20
3.06096000221197
30
0
41
1
10
19.0958867789757
20
3.08325384589762
30
0
41
1
10
19.0194158699514
20
3.11692472913529
30
0
41
1
10
18.9875121345426
20
3.12960552811842
30
0
41
1
10
18.9209977920736
20
3.15102207283519
30
0
41
1
10
18.8859510178996
20
3.1599765578176
30
0
41
1
10
18.836070456993
20
3.16364310639639
30
0
41
1
10
18.8214908024017
20
3.1636033416398
30
0
41
1
10
18.7927832773574
20
3.15955703196428
30
0
41
1
10
18.7782285437276
20
3.15532906520568
30
0
41
1
10
18.7593577577477
20
3.14409478435476
30
0
41
1
10
18.753470451499
20
3.13945646446047
30
0
41
1
10
18.7483972200222
20
3.13410593256887
30
0
0
SPLINE
5
251
100
AcDbEntity
8
1
62
256
6
ByLayer
370
-1
48
1
60
0
100
AcDbSpline
70
4
71
3
72
14
73
10
40
0
40
0
40
0
40
0
40
0.249103078948769
40
0.249103078948769
40
0.498160925944198
40
0.498160925944198
40
0.745586162481372
40
0.745586162481372
40
1
40
1
40
1
40
1
41
1
10
14.7185014292196
20
8.91522297898607
30
0
41
1
10
14.7008685838588
20
8.91523620570513
30
0
41
1
10
14.6835069512632
20
8.91527592985162
30
0
41
1
10
14.6500418046866
20
8.91540575201554
30
0
41
1
10
14.6338218618409
20
8.91549628436621
30
0
41
1
10
14.6031534243056
20
8.91572364472017
30
0
41
1
10
14.5885910787466
20
8.91586092559572
30
0
41
1
10
14.5611071717836
20
8.91618232177524
30
0
41
1
10
14.5481463929905
20
8.91636878695059
30
0
41
1
10
14.5364389385077
20
8.91657501071097
30
0
0
SPLINE
5
252
100
AcDbEntity
8
1
62
256
6
ByLayer
370
-1
48
1
60
0
100
AcDbSpline
70
4
71
3
72
8
73
4
40
0
40
0
40
0
40
0
40
1
40
1
40
1
40
1
41
1
10
18.3644608187576
20
2.37134345862529
30
0
41
1
10
18.4162059661413
20
2.26295027759758
30
0
41
1
10
18.4799601413733
20
2.16049876996493
30
0
41
1
10
18.5467492384691
20
2.06091267218949
30
0
0
SPLINE
5
253
100
AcDbEntity
8
1
62
256
6
ByLayer
370
-1
48
1
60
0
100
AcDbSpline
70
4
71
3
72
10
73
6
40
0
40
0
40
0
40
0
40
0.638746828356575
40
0.638746828356575
40
1
40
1
40
1
40
1
41
1
10
12.1379011833033
20
2.29514800321888
30
0
41
1
10
12.0157236791304
20
2.22704633758093
30
0
41
1
10
11.8927330906365
20
2.15784006690942
30
0
41
1
10
11.7002530358132
20
2.04881555792085
30
0
41
1
10
11.6306087432776
20
2.00921513155501
30
0
41
1
10
11.5610318611876
20
1.96950494655113
30
0
0
SPLINE
5
254
100
AcDbEntity
8
1
62
256
6
ByLayer
370
-1
48
1
60
0
100
AcDbSpline
70
4
71
3
72
20
73
16
40
0
40
0
40
0
40
0
40
0.314859192648758
40
0.314859192648758
40
0.53155888044106
40
0.53155888044106
40
0.682135903694824
40
0.682135903694824
40
0.839619845966507
40
0.839619845966507
40
0.903112673776006
40
0.903112673776006
40
0.967902128209796
40
0.967902128209796
40
1
40
1
40
1
40
1
41
1
10
12.2461259785225
20
1.20895744596328
30
0
41
1
10
12.3091258181484
20
1.24283137548673
30
0
41
1
10
12.3713363325902
20
1.27834994836621
30
0
41
1
10
12.4735522526069
20
1.34283319398827
30
0
41
1
10
12.5145070007458
20
1.37040962153202
30
0
41
1
10
12.5812630950283
20
1.42072326379147
30
0
41
1
10
12.6079479806647
20
1.44240111252739
30
0
41
1
10
12.6592989436375
20
1.49011972205935
30
0
41
1
10
12.684368544876
20
1.5164340414006
30
0
41
1
10
12.7123054849101
20
1.55844889376968
30
0
41
1
10
12.719523127449
20
1.57128811973618
30
0
41
1
10
12.7303500333373
20
1.59856313922475
30
0
41
1
10
12.7339827345898
20
1.61348554653338
30
0
41
1
10
12.7337857317454
20
1.63572441154716
30
0
41
1
10
12.7327574353828
20
1.64323219057479
30
0
41
1
10
12.7307167197125
20
1.65038216525724
30
0
0
SPLINE
5
255
100
AcDbEntity
8
1
62
256
6
ByLayer
370
-1
48
1
60
0
100
AcDbSpline
70
4
71
3
72
12
73
8
40
0
40
0
40
0
40
0
40
0.19789127210266
40
0.19789127210266
40
0.598376100017388
40
0.598376100017388
40
1
40
1
40
1
40
1
41
1
10
15.2972434471235
20
7.88020187609391
30
0
41
1
10
15.2948068805631
20
7.92174080069142
30
0
41
1
10
15.2924979785404
20
7.96353334966088
30
0
41
1
10
15.2858518359842
20
8.09047137471606
30
0
41
1
10
15.2818516504565
20
8.17623882212803
30
0
41
1
10
15.2746068477848
20
8.34900459242107
30
0
41
1
10
15.2713635505205
20
8.43607449147513
30
0
41
1
10
15.2684960364114
20
8.5235232899866
30
0
0
SPLINE
5
256
100
AcDbEntity
8
1
62
256
6
ByLayer
370
-1
48
1
60
0
100
AcDbSpline
70
4
71
3
72
22
73
18
40
0
40
0
40
0
40
0
40
0.153101873520353
40
0.153101873520353
40
0.442621285364906
40
0.442621285364906
40
0.707385074439677
40
0.707385074439677
40
0.843532608240159
40
0.843532608240159
40
0.926352665771228
40
0.926352665771228
40
0.963706736955254
40
0.963706736955254
40
0.977863955360661
40
0.977863955360661
40
1
40
1
40
1
40
1
41
1
10
15.2972434471237
20
7.88020187609601
30
0
41
1
10
15.288680894509
20
7.86101968542931
30
0
41
1
10
15.2799280442386
20
7.84192518960649
30
0
41
1
10
15.2539381446065
20
7.78708376822175
30
0
41
1
10
15.2361187741944
20
7.75158751059124
30
0
41
1
10
15.1991686598748
20
7.68534133743478
30
0
41
1
10
15.1803674079051
20
7.65420636954292
30
0
41
1
10
15.1474637595473
20
7.61051427582984
30
0
41
1
10
15.1354593224181
20
7.5961333326816
30
0
41
1
10
15.1133989190819
20
7.57615631577983
30
0
41
1
10
15.1042742877118
20
7.56916294957145
30
0
41
1
10
15.0894740190079
20
7.56231661790409
30
0
41
1
10
15.084556402019
20
7.56065489732063
30
0
41
1
10
15.0775919808997
20
7.55958982416905
30
0
41
1
10
15.0756391904923
20
7.55942450544458
30
0
41
1
10
15.070651253402
20
7.55938893376398
30
0
41
1
10
15.0675813578204
20
7.55974229302464
30
0
41
1
10
15.0646252425393
20
7.56049002986057
30
0
0
SPLINE
5
257
100
AcDbEntity
8
1
62
256
6
ByLayer
370
-1
48
1
60
0
100
AcDbSpline
70
4
71
3
72
14
73
10
40
0
40
0
40
0
40
0
40
0.314392366702041
40
0.314392366702041
40
0.63220071615528
40
0.63220071615528
40
0.912513196202118
40
0.912513196202118
40
1
40
1
40
1
40
1
41
1
10
15.1004112139908
20
-3.5619130840673
30
0
41
1
10
15.1060282161618
20
-3.57158503263466
30
0
41
1
10
15.1130069240642
20
-3.58067973557766
30
0
41
1
10
15.1294832422306
20
-3.59582182402474
30
0
41
1
10
15.1392626939448
20
-3.60199242947934
30
0
41
1
10
15.1587092382612
20
-3.60963959270308
30
0
41
1
10
15.1684600443444
20
-3.61170293707403
30
0
41
1
10
15.1811595403995
20
-3.61264635577967
30
0
41
1
10
15.1842083055523
20
-3.61274427492569
30
0
41
1
10
15.1872486624857
20
-3.61272570368408
30
0
0
SPLINE
5
258
100
AcDbEntity
8
1
62
256
6
ByLayer
370
-1
48
1
60
0
100
AcDbSpline
70
4
71
3
72
14
73
10
40
0
40
0
40
0
40
0
40
0.249103078948809
40
0.249103078948809
40
0.498160925944195
40
0.498160925944195
40
0.745586162481402
40
0.745586162481402
40
1
40
1
40
1
40
1
41
1
10
11.4913075141103
20
1.29664527443307
30
0
41
1
10
11.5003709859365
20
1.28103724748902
30
0
41
1
10
11.5097003483002
20
1.26545883225481
30
0
41
1
10
11.5284913448337
20
1.23501116085441
30
0
41
1
10
11.5380180918264
20
1.22003611055817
30
0
41
1
10
11.5568839416418
20
1.1912786614231
30
0
41
1
10
11.5662871429303
20
1.17739258904521
30
0
41
1
10
11.5849797544408
20
1.15069396207707
30
0
41
1
10
11.5943245453636
20
1.1378284036272
30
0
41
1
10
11.6033393034514
20
1.12590909948213
30
0
0
SPLINE
5
259
100
AcDbEntity
8
1
62
256
6
ByLayer
370
-1
48
1
60
0
100
AcDbSpline
70
4
71
3
72
10
73
6
40
0
40
0
40
0
40
0
40
0.736240194588486
40
0.736240194588486
40
1
40
1
40
1
40
1
41
1
10
13.8889605083818
20
-1.53970355612449
30
0
41
1
10
13.896853215546
20
-1.55487551506812
30
0
41
1
10
13.9028644750704
20
-1.57430635341964
30
0
41
1
10
13.9044000247865
20
-1.60600204375186
30
0
41
1
10
13.9041489898478
20
-1.61503109350571
30
0
41
1
10
13.9030183547821
20
-1.6244443353969
30
0
0
SPLINE
5
25A
100
AcDbEntity
8
1
62
256
6
ByLayer
370
-1
48
1
60
0
100
AcDbSpline
70
4
71
3
72
10
73
6
40
0
40
0
40
0
40
0
40
0.388885978133034
40
0.388885978133034
40
1
40
1
40
1
40
1
41
1
10
18.3644608187576
20
2.37134345862535
30
0
41
1
10
18.3815224951181
20
2.36135988027337
30
0
41
1
10
18.3983937618763
20
2.35133857773076
30
0
41
1
10
18.4408221219805
20
2.32578400565845
30
0
41
1
10
18.4660978266219
20
2.31022160609564
30
0
41
1
10
18.4899283921469
20
2.2951480032292
30
0
0
SPLINE
5
25B
100
AcDbEntity
8
1
62
256
6
ByLayer
370
-1
48
1
60
0
100
AcDbSpline
70
4
71
3
72
10
73
6
40
0
40
0
40
0
40
0
40
0.638746828356579
40
0.638746828356579
40
1
40
1
40
1
40
1
41
1
10
18.4899283921488
20
2.29514800324523
30
0
41
1
10
18.5975935084276
20
2.2270463376073
30
0
41
1
10
18.7086483266575
20
2.15784006690942
30
0
41
1
10
18.8853906097323
20
2.04881555792085
30
0
41
1
10
18.9499664896553
20
2.00921513155498
30
0
41
1
10
19.0150875950261
20
1.96950494655113
30
0
0
SPLINE
5
25C
100
AcDbEntity
8
1
62
256
6
ByLayer
370
-1
48
1
60
0
100
AcDbSpline
70
4
71
1
72
5
73
3
40
0
40
0
40
0.75234562270185
40
1
40
1
41
1.06363569285907
10
12.3237934544854
20
-2.55400027603233
30
0
41
1.06363569285907
10
12.7409126860635
20
-2.43067888145021
30
0
41
1.06363569285907
10
12.8782184673939
20
-2.39008439633435
30
0
0
SPLINE
5
25D
100
AcDbEntity
8
1
62
256
6
ByLayer
370
-1
48
1
60
0
100
AcDbSpline
70
4
71
3
72
30
73
26
40
0
40
0
40
0
40
0
40
0.0511772287529413
40
0.0511772287529413
40
0.135075241067854
40
0.135075241067854
40
0.271834780652613
40
0.271834780652613
40
0.469061266911138
40
0.469061266911138
40
0.50063606195973
40
0.50063606195973
40
0.599800502489134
40
0.599800502489134
40
0.697557955314467
40
0.697557955314467
40
0.781333785463061
40
0.781333785463061
40
0.84784486982205
40
0.84784486982205
40
0.899113486931119
40
0.899113486931119
40
0.939077913069145
40
0.939077913069145
40
1
40
1
40
1
40
1
41
1
10
16.3875767289
20
3.10276132049563
30
0
41
1
10
16.376010375654
20
3.11180000077161
30
0
41
1
10
16.3625601139224
20
3.11888477325971
30
0
41
1
10
16.3254481836003
20
3.13278284848772
30
0
41
1
10
16.3001146080031
20
3.13697901181149
30
0
41
1
10
16.2336741431435
20
3.14036621674637
30
0
41
1
10
16.1911513461381
20
3.13504384094628
30
0
41
1
10
16.0911795541317
20
3.11190360831492
30
0
41
1
10
16.0332229722702
20
3.08906955961811
30
0
41
1
10
15.9715919057841
20
3.05607045641031
30
0
41
1
10
15.9630988554583
20
3.05130535549082
30
0
41
1
10
15.9285084620185
20
3.03099152076078
30
0
41
1
10
15.9033692402904
20
3.01404701201321
30
0
41
1
10
15.8566243841256
20
2.97782510810111
30
0
41
1
10
15.8348135702296
20
2.95846594419157
30
0
41
1
10
15.7980763436574
20
2.92029583380443
30
0
41
1
10
15.7824974159836
20
2.90168733399014
30
0
41
1
10
15.7581465702855
20
2.86673884338583
30
0
41
1
10
15.7485677013059
20
2.85062487345905
30
0
41
1
10
15.7346855108398
20
2.82115676461822
30
0
41
1
10
15.7296439977042
20
2.80793897097305
30
0
41
1
10
15.7231803747469
20
2.78398142885661
30
0
41
1
10
15.7211930476699
20
2.7732754116511
30
0
41
1
10
15.719019955885
20
2.74627855963092
30
0
41
1
10
15.7203123847687
20
2.7295591645491
30
0
41
1
10
15.7252455289396
20
2.71379533327817
30
0
0
SPLINE
5
25E
100
AcDbEntity
8
1
62
256
6
ByLayer
370
-1
48
1
60
0
100
AcDbSpline
70
4
71
3
72
30
73
26
40
0
40
0
40
0
40
0
40
0.0515194889309778
40
0.0515194889309778
40
0.0928771460763059
40
0.0928771460763059
40
0.148185150442152
40
0.148185150442152
40
0.203338923043209
40
0.203338923043209
40
0.287955708682589
40
0.287955708682589
40
0.372427214532496
40
0.372427214532496
40
0.435367147735065
40
0.435367147735065
40
0.498971020782772
40
0.498971020782772
40
0.701334348038788
40
0.701334348038788
40
0.838887327921116
40
0.838887327921116
40
0.925006664596861
40
0.925006664596861
40
1
40
1
40
1
40
1
41
1
10
14.9584482439285
20
2.71379533327817
30
0
41
1
10
14.9597816889689
20
2.72716878906729
30
0
41
1
10
14.9585019042678
20
2.74122910810379
30
0
41
1
10
14.9528736234204
20
2.76619149715307
30
0
41
1
10
14.9491552104474
20
2.7773355705404
30
0
41
1
10
14.9384835619227
20
2.80286152261615
30
0
41
1
10
14.9308167738377
20
2.81720695522762
30
0
41
1
10
14.9134978012716
20
2.84495970479594
30
0
41
1
10
14.9037899337379
20
2.85846301153225
30
0
41
1
10
14.8774063476942
20
2.89153823932566
30
0
41
1
10
14.8596599446507
20
2.91066817044617
30
0
41
1
10
14.8220862873645
20
2.94687798054554
30
0
41
1
10
14.8021307781486
20
2.96407800822487
30
0
41
1
10
14.7660396640423
20
2.99234377739992
30
0
41
1
10
14.7501661999905
20
3.00389837704893
30
0
41
1
10
14.717643650664
20
3.02596443108902
30
0
41
1
10
14.7009447770991
20
3.03649273484388
30
0
41
1
10
14.6308551077199
20
3.0774984587531
30
0
41
1
10
14.5745782938691
20
3.10301388848023
30
0
41
1
10
14.4813462838178
20
3.13073095753577
30
0
41
1
10
14.4430677411525
20
3.13804512957768
30
0
41
1
10
14.383779335297
20
3.13906590562974
30
0
41
1
10
14.3612305898993
20
3.13679405732395
30
0
41
1
10
14.3229983266089
20
3.1248491501847
30
0
41
1
10
14.3062930330123
20
3.11588185911649
30
0
41
1
10
14.2936020994202
20
3.1027613204954
30
0
0
SPLINE
5
25F
100
AcDbEntity
8
1
62
256
6
ByLayer
370
-1
48
1
60
0
100
AcDbSpline
70
4
71
3
72
24
73
20
40
0
40
0
40
0
40
0
40
0.0974021566269936
40
0.0974021566269936
40
0.180354031075323
40
0.180354031075323
40
0.307542616517185
40
0.307542616517185
40
0.412109117009548
40
0.412109117009548
40
0.516348967690789
40
0.516348967690789
40
0.620446917153346
40
0.620446917153346
40
0.724476829459924
40
0.724476829459924
40
0.933310901386104
40
0.933310901386104
40
1
40
1
40
1
40
1
41
1
10
15.7314347269186
20
2.69401794015155
30
0
41
1
10
15.7344563324564
20
2.68031675846282
30
0
41
1
10
15.7343387836858
20
2.66586532623282
30
0
41
1
10
15.728308446113
20
2.64064098338139
30
0
41
1
10
15.7232408085819
20
2.62934203921432
30
0
41
1
10
15.7065665576121
20
2.60320591769903
30
0
41
1
10
15.6927556974379
20
2.58917689279895
30
0
41
1
10
15.664747569262
20
2.56720001289349
30
0
41
1
10
15.6508297022551
20
2.55842524570605
30
0
41
1
10
15.6218099972217
20
2.5429440701763
30
0
41
1
10
15.6066172000834
20
2.53618391765997
30
0
41
1
10
15.5755122616337
20
2.52433096315787
30
0
41
1
10
15.5595449294227
20
2.5192171805804
30
0
41
1
10
15.5271542037438
20
2.51040732622914
30
0
41
1
10
15.5106940030835
20
2.50670172583418
30
0
41
1
10
15.460810711873
20
2.49746489415026
30
0
41
1
10
15.4268077486078
20
2.49379136170262
30
0
41
1
10
15.3817713093196
20
2.49189645612833
30
0
41
1
10
15.3708343045043
20
2.49166765714233
30
0
41
1
10
15.359887176052
20
2.49166765714233
30
0
0
SPLINE
5
260
100
AcDbEntity
8
1
62
256
6
ByLayer
370
-1
48
1
60
0
100
AcDbSpline
70
4
71
3
72
8
73
4
40
0
40
0
40
0
40
0
40
1
40
1
40
1
40
1
41
1
10
14.9564763179398
20
2.69401794015155
30
0
41
1
10
14.9571336080463
20
2.70061036682986
30
0
41
1
10
14.9577909164574
20
2.70720283069437
30
0
41
1
10
14.9584482439285
20
2.71379533327817
30
0
0
SPLINE
5
261
100
AcDbEntity
8
1
62
256
6
ByLayer
370
-1
48
1
60
0
100
AcDbSpline
70
4
71
3
72
22
73
18
40
0
40
0
40
0
40
0
40
0.142057608739146
40
0.142057608739146
40
0.351004812992699
40
0.351004812992699
40
0.487763342941825
40
0.487763342941825
40
0.591529353509388
40
0.591529353509388
40
0.758694969227089
40
0.758694969227089
40
0.858776631808858
40
0.858776631808858
40
0.960359919517309
40
0.960359919517309
40
1
40
1
40
1
40
1
41
1
10
15.359887176052
20
2.49166765714233
30
0
41
1
10
15.336594179202
20
2.49166765714233
30
0
41
1
10
15.3132177535998
20
2.49270033182924
30
0
41
1
10
15.2556447697913
20
2.49787801264989
30
0
41
1
10
15.2213511979423
20
2.50325527217595
30
0
41
1
10
15.1656046475822
20
2.51659065741924
30
0
41
1
10
15.1437098101847
20
2.52304659606901
30
0
41
1
10
15.1061145642268
20
2.53686184718791
30
0
41
1
10
15.0901329078743
20
2.54365233504637
30
0
41
1
10
15.0499847358607
20
2.56381679757126
30
0
41
1
10
15.0261181553652
20
2.57895083678176
30
0
41
1
10
14.9939102391247
20
2.60828015191586
30
0
41
1
10
14.9830061025852
20
2.62068468784838
30
0
41
1
10
14.9662047565702
20
2.64744257224425
30
0
41
1
10
14.9602359053769
20
2.6622491560525
30
0
41
1
10
14.9568483583243
20
2.68255181405058
30
0
41
1
10
14.9564076842506
20
2.68833480532956
30
0
41
1
10
14.9564763179398
20
2.69401794015155
30
0
0
SPLINE
5
262
100
AcDbEntity
8
1
62
256
6
ByLayer
370
-1
48
1
60
0
100
AcDbSpline
70
4
71
3
72
22
73
18
40
0
40
0
40
0
40
0
40
0.0973712659847349
40
0.0973712659847349
40
0.180296832630783
40
0.180296832630783
40
0.307445080803129
40
0.307445080803129
40
0.41197841851501
40
0.41197841851501
40
0.51618521001123
40
0.51618521001123
40
0.620250145292088
40
0.620250145292088
40
0.829289859626288
40
0.829289859626288
40
1
40
1
40
1
40
1
41
1
10
16.7874017719481
20
4.56151632672299
30
0
41
1
10
16.8013778189928
20
4.56718828924022
30
0
41
1
10
16.8144070294932
20
4.57598715808993
30
0
41
1
10
16.8341397552676
20
4.59632529700403
30
0
41
1
10
16.8417567896244
20
4.60745944333567
30
0
41
1
10
16.8568304016712
20
4.6374700389359
30
0
41
1
10
16.8624236947993
20
4.65775763892989
30
0
41
1
10
16.8679358758146
20
4.69506208189037
30
0
41
1
10
16.8687417442696
20
4.71232652904101
30
0
41
1
10
16.8678984507328
20
4.74667588871313
30
0
41
1
10
16.8662511781146
20
4.76387126142527
30
0
41
1
10
16.8611056154452
20
4.79792797106884
30
0
41
1
10
16.8575980551662
20
4.81484953901565
30
0
41
1
10
16.8448216333472
20
4.86508156122878
30
0
41
1
10
16.8332850743728
20
4.89797154179763
30
0
41
1
10
16.8083345500215
20
4.95580390528897
30
0
41
1
10
16.7955855762074
20
4.98121705940864
30
0
41
1
10
16.7815080437138
20
5.00583198563263
30
0
0
SPLINE
5
263
100
AcDbEntity
8
1
62
256
6
ByLayer
370
-1
48
1
60
0
100
AcDbSpline
70
4
71
3
72
8
73
4
40
0
40
0
40
0
40
0
40
1
40
1
40
1
40
1
41
1
10
15.7158564952445
20
5.61804605594062
30
0
41
1
10
15.7178764599647
20
5.62478465057612
30
0
41
1
10
15.7198964286896
20
5.63152320896509
30
0
41
1
10
15.7219164012597
20
5.63826173254265
30
0
0
SPLINE
5
264
100
AcDbEntity
8
1
62
256
6
ByLayer
370
-1
48
1
60
0
100
AcDbSpline
70
4
71
3
72
24
73
20
40
0
40
0
40
0
40
0
40
0.0380198325522512
40
0.0380198325522512
40
0.246834654675257
40
0.246834654675257
40
0.404726505663607
40
0.404726505663607
40
0.526150637963087
40
0.526150637963087
40
0.621531995503836
40
0.621531995503836
40
0.776890538332257
40
0.776890538332257
40
0.873684213898125
40
0.873684213898125
40
0.971746172255113
40
0.971746172255113
40
1
40
1
40
1
40
1
41
1
10
16.7815080437138
20
5.00583198563263
30
0
41
1
10
16.7783692359267
20
5.01132027146286
30
0
41
1
10
16.7751625592126
20
5.01677113269727
30
0
41
1
10
16.7539414456015
20
5.0518505348883
30
0
41
1
10
16.73395386884
20
5.08042244180498
30
0
41
1
10
16.6953844938601
20
5.12766381234894
30
0
41
1
10
16.677573873242
20
5.14713430314407
30
0
41
1
10
16.643876367036
20
5.179205051368
30
0
41
1
10
16.6284388981961
20
5.19240452027196
30
0
41
1
10
16.5994415316011
20
5.21395362421691
30
0
41
1
10
16.5861396378144
20
5.22277066204254
30
0
41
1
10
16.550001048378
20
5.24325151153496
30
0
41
1
10
16.5258609319754
20
5.2535925424819
30
0
41
1
10
16.4854914242123
20
5.26236021254536
30
0
41
1
10
16.4693843712079
20
5.26378922324642
30
0
41
1
10
16.4381891733123
20
5.26111380489692
30
0
41
1
10
16.4226947378655
20
5.25680651024615
30
0
41
1
10
16.4052105757678
20
5.24769484989088
30
0
41
1
10
16.4013807775268
20
5.24539251782934
30
0
41
1
10
16.3977197976854
20
5.24288524216695
30
0
0
SPLINE
5
265
100
AcDbEntity
8
1
62
256
6
ByLayer
370
-1
48
1
60
0
100
AcDbSpline
70
4
71
3
72
34
73
30
40
0
40
0
40
0
40
0
40
0.0514465755209337
40
0.0514465755209337
40
0.135786144735418
40
0.135786144735418
40
0.203131635218878
40
0.203131635218878
40
0.27031560887512
40
0.27031560887512
40
0.337431278535946
40
0.337431278535946
40
0.404515897625526
40
0.404515897625526
40
0.499929883690946
40
0.499929883690946
40
0.599210771748179
40
0.599210771748179
40
0.697083019894236
40
0.697083019894236
40
0.78095722692274
40
0.78095722692274
40
0.847546414393246
40
0.847546414393246
40
0.898875235580349
40
0.898875235580349
40
0.980803570703533
40
0.980803570703533
40
1
40
1
40
1
40
1
41
1
10
16.3807026397528
20
5.22908006872342
30
0
41
1
10
16.3691956861592
20
5.21974502821558
30
0
41
1
10
16.3557921892741
20
5.21236432496866
30
0
41
1
10
16.3187724929043
20
5.19773225199964
30
0
41
1
10
16.293467417554
20
5.19311261328892
30
0
41
1
10
16.2478132042178
20
5.19010906759038
30
0
41
1
10
16.2271206456916
20
5.19065249006078
30
0
41
1
10
16.1860060819306
20
5.19452086459515
30
0
41
1
10
16.1654480167475
20
5.1978579337347
30
0
41
1
10
16.1248293234811
20
5.20673589435992
30
0
41
1
10
16.1046793669121
20
5.21229718503673
30
0
41
1
10
16.0650565880492
20
5.22527097046171
30
0
41
1
10
16.0455152190771
20
5.23270658047039
30
0
41
1
10
15.9992429021364
20
5.25266199214005
30
0
41
1
10
15.9728025171534
20
5.26606562682105
30
0
41
1
10
15.9211851544071
20
5.29626419023907
30
0
41
1
10
15.8959361735863
20
5.31327077109367
30
0
41
1
10
15.8489563264994
20
5.34973713067171
30
0
41
1
10
15.8270197553327
20
5.36927767211719
30
0
41
1
10
15.7900342967603
20
5.40789160465849
30
0
41
1
10
15.7743342486652
20
5.4267485227397
30
0
41
1
10
15.7497557533907
20
5.46221744338447
30
0
41
1
10
15.7400718618245
20
5.47858944942951
30
0
41
1
10
15.7259975116995
20
5.50856087887706
30
0
41
1
10
15.7208697730947
20
5.52201466716505
30
0
41
1
10
15.7112804591619
20
5.55736527655901
30
0
41
1
10
15.7088117813214
20
5.58029040851685
30
0
41
1
10
15.7131355300095
20
5.60764627479909
30
0
41
1
10
15.714311490057
20
5.61289192450252
30
0
41
1
10
15.7158564952445
20
5.61804605594057
30
0
0
SPLINE
5
266
100
AcDbEntity
8
1
62
256
6
ByLayer
370
-1
48
1
60
0
100
AcDbSpline
70
4
71
3
72
34
73
30
40
0
40
0
40
0
40
0
40
0.0514465755209435
40
0.0514465755209435
40
0.13578614473542
40
0.13578614473542
40
0.203131635218881
40
0.203131635218881
40
0.270315608875113
40
0.270315608875113
40
0.337431278535935
40
0.337431278535935
40
0.40451589762552
40
0.40451589762552
40
0.49992988369092
40
0.49992988369092
40
0.599210771748165
40
0.599210771748165
40
0.697083019894223
40
0.697083019894223
40
0.780957226922742
40
0.780957226922742
40
0.847546414393258
40
0.847546414393258
40
0.898875235580348
40
0.898875235580348
40
0.980803570703528
40
0.980803570703528
40
1
40
1
40
1
40
1
41
1
10
14.9490592102333
20
5.61804605594062
30
0
41
1
10
14.950480082364
20
5.6043762399197
30
0
41
1
10
14.9492921644293
20
5.59001999012443
30
0
41
1
10
14.9413347392781
20
5.552940666138
30
0
41
1
10
14.9315211027542
20
5.52999981837974
30
0
41
1
10
14.909514585956
20
5.49094945387424
30
0
41
1
10
14.8980032519884
20
5.47408579271971
30
0
41
1
10
14.8729011948653
20
5.44177430066711
30
0
41
1
10
14.8592278409184
20
5.42621939867774
30
0
41
1
10
14.8304032614238
20
5.39644008098725
30
0
41
1
10
14.8151878765259
20
5.38215064546296
30
0
41
1
10
14.7836695201295
20
5.35488272979282
30
0
41
1
10
14.7673114562693
20
5.34185740555438
30
0
41
1
10
14.7267469572883
20
5.31195453597988
30
0
41
1
10
14.7020093730218
20
5.29566803563463
30
0
41
1
10
14.6505872656832
20
5.26546947221661
30
0
41
1
10
14.623699534456
20
5.25158227712399
30
0
41
1
10
14.5699139418991
20
5.2276712811732
30
0
41
1
10
14.5428421318814
20
5.21751110376502
30
0
41
1
10
14.4927459511323
20
5.20269946700563
30
0
41
1
10
14.4695436327665
20
5.19742066112508
30
0
41
1
10
14.4285107680567
20
5.19164110814739
30
0
41
1
10
14.4104457774319
20
5.19036533932729
30
0
41
1
10
14.3792772079866
20
5.19112290699911
30
0
41
1
10
14.3659055677177
20
5.19247055406001
30
0
41
1
10
14.3327765994238
20
5.19932269965886
30
0
41
1
10
14.3132285210904
20
5.2069635794328
30
0
41
1
10
14.2936276302186
20
5.22231839223417
30
0
41
1
10
14.2900468054315
20
5.22556034134115
30
0
41
1
10
14.286728010273
20
5.22908006872319
30
0
0
SPLINE
5
267
100
AcDbEntity
8
1
62
256
6
ByLayer
370
-1
48
1
60
0
100
AcDbSpline
70
4
71
3
72
8
73
4
40
0
40
0
40
0
40
0
40
1
40
1
40
1
40
1
41
1
10
13.8884345541952
20
4.56151632672277
30
0
41
1
10
13.8941259700342
20
4.55930645558612
30
0
41
1
10
13.8998174313661
20
4.55709657409631
30
0
41
1
10
13.9055089400671
20
4.55488668182662
30
0
0
SPLINE
5
268
100
AcDbEntity
8
1
62
256
6
ByLayer
370
-1
48
1
60
0
100
AcDbSpline
70
4
71
3
72
34
73
30
40
0
40
0
40
0
40
0
40
0.0514465755209408
40
0.0514465755209408
40
0.135786144735395
40
0.135786144735395
40
0.203131635218847
40
0.203131635218847
40
0.270315608875066
40
0.270315608875066
40
0.3374312785359
40
0.3374312785359
40
0.40451589762548
40
0.40451589762548
40
0.499929883690917
40
0.499929883690917
40
0.599210771748189
40
0.599210771748189
40
0.697083019894256
40
0.697083019894256
40
0.780957226922758
40
0.780957226922758
40
0.847546414393261
40
0.847546414393261
40
0.898875235580346
40
0.898875235580346
40
0.980803570703531
40
0.980803570703531
40
1
40
1
40
1
40
1
41
1
10
13.9055089400671
20
4.55488668182664
30
0
41
1
10
13.9170546526426
20
4.5504037261976
30
0
41
1
10
13.9278901213462
20
4.54328021426991
30
0
41
1
10
13.9535293019474
20
4.520465964382
30
0
41
1
10
13.9670458101398
20
4.50193301764099
30
0
41
1
10
13.9875447806131
20
4.46554861533468
30
0
41
1
10
13.9954466483023
20
4.44800436837445
30
0
41
1
10
14.0091676791908
20
4.41157882642989
30
0
41
1
10
14.0150324448552
20
4.3925775041576
30
0
41
1
10
14.0250470428599
20
4.35372943910861
30
0
41
1
10
14.0292180934743
20
4.33379685373501
30
0
41
1
10
14.0360561096889
20
4.29341937777562
30
0
41
1
10
14.0387343489557
20
4.27290429404329
30
0
41
1
10
14.043537920733
20
4.2229490661025
30
0
41
1
10
14.044973339355
20
4.19323026431351
30
0
41
1
10
14.0451685947627
20
4.13283313747741
30
0
41
1
10
14.0438193254211
20
4.10197039758376
30
0
41
1
10
14.0381536296399
20
4.04171526988787
30
0
41
1
10
14.0338642676924
20
4.01210523980143
30
0
41
1
10
14.0228233658525
20
3.95890158157778
30
0
41
1
10
14.0164796253657
20
3.93489006675029
30
0
41
1
10
14.0024523467638
20
3.89390180814812
30
0
41
1
10
13.9952746315386
20
3.87638305134206
30
0
41
1
10
13.9805277110587
20
3.84742084986971
30
0
41
1
10
13.9733844000404
20
3.83543270596402
30
0
41
1
10
13.9528624312001
20
3.80725777645458
30
0
41
1
10
13.9378610567701
20
3.79219631510594
30
0
41
1
10
13.9166030551681
20
3.78048115914515
30
0
41
1
10
13.912366566548
20
3.77853324092331
30
0
41
1
10
13.908023884615
20
3.77695470739201
30
0
0
SPLINE
5
269
100
AcDbEntity
8
1
62
256
6
ByLayer
370
-1
48
1
60
0
100
AcDbSpline
70
4
71
3
72
24
73
20
40
0
40
0
40
0
40
0
40
0.0380198325523713
40
0.0380198325523713
40
0.246834654675447
40
0.246834654675447
40
0.404726505663769
40
0.404726505663769
40
0.526150637963225
40
0.526150637963225
40
0.621531995503991
40
0.621531995503991
40
0.776890538332329
40
0.776890538332329
40
0.87368421389817
40
0.87368421389817
40
0.971746172255154
40
0.971746172255154
40
1
40
1
40
1
40
1
41
1
10
13.9220104297837
20
5.00583198563277
30
0
41
1
10
13.9189071077073
20
5.0003436998025
30
0
41
1
10
13.915863619043
20
4.99481715045593
30
0
41
1
10
13.8965300513023
20
4.95875529319449
30
0
41
1
10
13.8819561534588
20
4.92709039217897
30
0
41
1
10
13.8602182404659
20
4.87006855859534
30
0
41
1
10
13.8520766950519
20
4.8449492624143
30
0
41
1
10
13.8404860400103
20
4.79990815217883
30
0
41
1
10
13.836370141561
20
4.78005186806351
30
0
41
1
10
13.8312011367626
20
4.74445991137333
30
0
41
1
10
13.8296734941469
20
4.72869441059711
30
0
41
1
10
13.828232830053
20
4.68770358812242
30
0
41
1
10
13.8298803355608
20
4.66209053065811
30
0
41
1
10
13.8391503831533
20
4.62383796276529
30
0
41
1
10
13.8444286191326
20
4.60968790058368
30
0
41
1
10
13.8587573746136
20
4.58523096527765
30
0
41
1
10
13.8681194945994
20
4.57469736441371
30
0
41
1
10
13.8818666725418
20
4.56512460067302
30
0
41
1
10
13.885107404037
20
4.56319451156699
30
0
41
1
10
13.8884345541952
20
4.5615163267228
30
0
0
SPLINE
5
26A
100
AcDbEntity
8
1
62
256
6
ByLayer
370
-1
48
1
60
0
100
AcDbSpline
70
4
71
3
72
8
73
4
40
0
40
0
40
0
40
0
40
1
40
1
40
1
40
1
41
1
10
14.2806729215141
20
3.08939443052725
30
0
41
1
10
14.2849826089295
20
3.09385003451848
30
0
41
1
10
14.2892923343754
20
3.09830566415542
30
0
41
1
10
14.2936020994202
20
3.10276132049537
30
0
0
SPLINE
5
26B
100
AcDbEntity
8
1
62
256
6
ByLayer
370
-1
48
1
60
0
100
AcDbSpline
70
4
71
3
72
34
73
30
40
0
40
0
40
0
40
0
40
0.0514465755209387
40
0.0514465755209387
40
0.135786144735412
40
0.135786144735412
40
0.203131635218864
40
0.203131635218864
40
0.270315608875096
40
0.270315608875096
40
0.337431278535942
40
0.337431278535942
40
0.404515897625527
40
0.404515897625527
40
0.499929883690807
40
0.499929883690807
40
0.599210771748178
40
0.599210771748178
40
0.697083019894247
40
0.697083019894247
40
0.780957226922756
40
0.780957226922756
40
0.847546414393252
40
0.847546414393252
40
0.898875235580352
40
0.898875235580352
40
0.980803570703521
40
0.980803570703521
40
1
40
1
40
1
40
1
41
1
10
16.7687957991059
20
3.77695470739218
30
0
41
1
10
16.754485860233
20
3.78114130278937
30
0
41
1
10
16.7408901710358
20
3.78796888395837
30
0
41
1
10
16.7084048091997
20
3.81004913610531
30
0
41
1
10
16.6909384397395
20
3.82815860745936
30
0
41
1
10
16.6641420171367
20
3.86386784276695
30
0
41
1
10
16.6536814357086
20
3.88113776305661
30
0
41
1
10
16.6353774533214
20
3.91707195428589
30
0
41
1
10
16.6274727965135
20
3.93585457427145
30
0
41
1
10
16.6138991669745
20
3.97432106585393
30
0
41
1
10
16.6082010742467
20
3.9940899328825
30
0
41
1
10
16.5988302455284
20
4.03419585911331
30
0
41
1
10
16.5951418745713
20
4.05460264387528
30
0
41
1
10
16.5885298104292
20
4.10436397842278
30
0
41
1
10
16.5865596276182
20
4.1340254466862
30
0
41
1
10
16.5863643722105
20
4.19442257352227
30
0
41
1
10
16.5882926036816
20
4.22534738552309
30
0
41
1
10
16.5962383988404
20
4.28584696888487
30
0
41
1
10
16.602219514595
20
4.31563837650577
30
0
41
1
10
16.6174000571085
20
4.36928585688349
30
0
41
1
10
16.626060857163
20
4.39354578997953
30
0
41
1
10
16.6449423174318
20
4.43505447862228
30
0
41
1
10
16.6545268003238
20
4.45283127154653
30
0
41
1
10
16.6739683184845
20
4.48229679362558
30
0
41
1
10
16.6833128107943
20
4.49452093217411
30
0
41
1
10
16.7098701506763
20
4.52334293025487
30
0
41
1
10
16.729027577232
20
4.53884997327407
30
0
41
1
10
16.75561885475
20
4.55113692427506
30
0
41
1
10
16.760895935799
20
4.55319640724605
30
0
41
1
10
16.766280854558
20
4.55488668182682
30
0
0
SPLINE
5
26C
100
AcDbEntity
8
1
62
256
6
ByLayer
370
-1
48
1
60
0
100
AcDbSpline
70
4
71
3
72
8
73
4
40
0
40
0
40
0
40
0
40
1
40
1
40
1
40
1
41
1
10
13.908023884615
20
3.77695470739201
30
0
41
1
10
13.9023461921601
20
3.77489090717396
30
0
41
1
10
13.8966685469966
20
3.77282712020863
30
0
41
1
10
13.8909909472514
20
3.7707633459712
30
0
0
SPLINE
5
26D
100
AcDbEntity
8
1
62
256
6
ByLayer
370
-1
48
1
60
0
100
AcDbSpline
70
4
71
3
72
22
73
18
40
0
40
0
40
0
40
0
40
0.0973712659847257
40
0.0973712659847257
40
0.18029683263079
40
0.18029683263079
40
0.307445080803163
40
0.307445080803163
40
0.411978418515032
40
0.411978418515032
40
0.516185210011261
40
0.516185210011261
40
0.620250145292121
40
0.620250145292121
40
0.829289859626366
40
0.829289859626366
40
1
40
1
40
1
40
1
41
1
10
14.2737109889114
20
5.24288524216675
30
0
41
1
10
14.2640502970908
20
5.25135938232282
30
0
41
1
10
14.2521824477557
20
5.2574536516662
30
0
41
1
10
14.2285156767815
20
5.26306706445325
30
0
41
1
10
14.2167155370918
20
5.26354007279366
30
0
41
1
10
14.186919269905
20
5.26034813281274
30
0
41
1
10
14.1684716388892
20
5.25442662052058
30
0
41
1
10
14.1363728695837
20
5.23960233143001
30
0
41
1
10
14.1221832050987
20
5.23130280909629
30
0
41
1
10
14.0949149672997
20
5.21275914823545
30
0
41
1
10
14.081746522537
20
5.20245936372868
30
0
41
1
10
14.0564290488655
20
5.18048687879008
30
0
41
1
10
14.0442350734697
20
5.16877528514871
30
0
41
1
10
14.0090200453961
20
5.1320232919108
30
0
41
1
10
13.9872833272438
20
5.10529485843037
30
0
41
1
10
13.9510728834788
20
5.05434614118138
30
0
41
1
10
13.9359288090954
20
5.03044691185676
30
0
41
1
10
13.9220104297837
20
5.00583198563277
30
0
0
SPLINE
5
26E
100
AcDbEntity
8
1
62
256
6
ByLayer
370
-1
48
1
60
0
100
AcDbSpline
70
4
71
3
72
24
73
20
40
0
40
0
40
0
40
0
40
0.0380198325522272
40
0.0380198325522272
40
0.246834654675226
40
0.246834654675226
40
0.404726505663607
40
0.404726505663607
40
0.526150637963106
40
0.526150637963106
40
0.621531995503889
40
0.621531995503889
40
0.776890538332296
40
0.776890538332296
40
0.873684213898153
40
0.873684213898153
40
0.971746172255117
40
0.971746172255117
40
1
40
1
40
1
40
1
41
1
10
13.9274290559857
20
3.32972243330588
30
0
41
1
10
13.9305678637727
20
3.32423414747564
30
0
41
1
10
13.9337667400615
20
3.31878244993641
30
0
41
1
10
13.9548864683483
20
3.28369217794852
30
0
41
1
10
13.9745580010994
20
3.25508638709249
30
0
41
1
10
14.0120809752596
20
3.20773282906598
30
0
41
1
10
14.0292785912703
20
3.18819661637693
30
0
41
1
10
14.0614982997169
20
3.1559674294293
30
0
41
1
10
14.0761592144702
20
3.14268470404619
30
0
41
1
10
14.1034402442777
20
3.12095158695848
30
0
41
1
10
14.1158699783425
20
3.11204104251306
30
0
41
1
10
14.1493214994603
20
3.09127210510593
30
0
41
1
10
14.1713666416402
20
3.0807064662653
30
0
41
1
10
14.2072822660944
20
3.07146128323876
30
0
41
1
10
14.2213795422767
20
3.06981679888943
30
0
41
1
10
14.2480088249076
20
3.07200269302467
30
0
41
1
10
14.2608646414764
20
3.07602709415724
30
0
41
1
10
14.2748148593271
20
3.08475987072239
30
0
41
1
10
14.2778305039778
20
3.08697491515954
30
0
41
1
10
14.2806729215141
20
3.08939443052725
30
0
0
SPLINE
5
26F
100
AcDbEntity
8
1
62
256
6
ByLayer
370
-1
48
1
60
0
100
AcDbSpline
70
4
71
3
72
22
73
18
40
0
40
0
40
0
40
0
40
0.0973712659847386
40
0.0973712659847386
40
0.18029683263078
40
0.18029683263078
40
0.307445080803129
40
0.307445080803129
40
0.411978418515
40
0.411978418515
40
0.516185210011212
40
0.516185210011212
40
0.620250145292064
40
0.620250145292064
40
0.82928985962626
40
0.82928985962626
40
1
40
1
40
1
40
1
41
1
10
13.8909909472514
20
3.7707633459712
30
0
41
1
10
13.8797814933677
20
3.76538799744367
30
0
41
1
10
13.8694988844865
20
3.75688359923603
30
0
41
1
10
13.8542880650729
20
3.73703026622175
30
0
41
1
10
13.8485875352302
20
3.72610159356009
30
0
41
1
10
13.8377580344965
20
3.69654602069585
30
0
41
1
10
13.834260654293
20
3.67648312923632
30
0
41
1
10
13.8318779150357
20
3.63951420225212
30
0
41
1
10
13.8322544785526
20
3.62237652685445
30
0
41
1
10
13.835115712179
20
3.58824351603673
30
0
41
1
10
13.8376051465899
20
3.57113843378465
30
0
41
1
10
13.8441887860947
20
3.53723590427632
30
0
41
1
10
13.8482944826352
20
3.5203784641476
30
0
41
1
10
13.8625883643096
20
3.47030913293949
30
0
41
1
10
13.8747749938045
20
3.43748884820212
30
0
41
1
10
13.9004479118377
20
3.3797339345054
30
0
41
1
10
13.9133515234921
20
3.35433735952987
30
0
41
1
10
13.9274290559857
20
3.32972243330588
30
0
0
SPLINE
5
270
100
AcDbEntity
8
1
62
256
6
ByLayer
370
-1
48
1
60
0
100
AcDbSpline
70
4
71
3
72
24
73
20
40
0
40
0
40
0
40
0
40
0.0380198325516674
40
0.0380198325516674
40
0.246834654674818
40
0.246834654674818
40
0.404726505663263
40
0.404726505663263
40
0.526150637962806
40
0.526150637962806
40
0.621531995503642
40
0.621531995503642
40
0.776890538332099
40
0.776890538332099
40
0.873684213898006
40
0.873684213898006
40
0.971746172255025
40
0.971746172255025
40
1
40
1
40
1
40
1
41
1
10
15.3490499236474
20
5.84388676179617
30
0
41
1
10
15.3428077937842
20
5.84388676179617
30
0
41
1
10
15.3365615286185
20
5.84381149183642
30
0
41
1
10
15.2960575399289
20
5.84283447166445
30
0
41
1
10
15.2616540873291
20
5.83975841953529
30
0
41
1
10
15.2018699997662
20
5.83003405023689
30
0
41
1
10
15.1762243360377
20
5.82441810579795
30
0
41
1
10
15.1316750736698
20
5.81152696314825
30
0
41
1
10
15.1125099834241
20
5.80491177617648
30
0
41
1
10
15.0792017804242
20
5.7909609300026
30
0
41
1
10
15.0648083238829
20
5.78405922036191
30
0
41
1
10
15.0285726045118
20
5.76369329133701
30
0
41
1
10
15.0071274807284
20
5.74853356876645
30
0
41
1
10
14.9782549622122
20
5.71928742741864
30
0
41
1
10
14.9684310335982
20
5.70667411276219
30
0
41
1
10
14.9538475488159
20
5.6797865212138
30
0
41
1
10
14.9490345427939
20
5.66508707245822
30
0
41
1
10
14.9470645307621
20
5.64659209025729
30
0
41
1
10
14.9468825408115
20
5.64240331290188
30
0
41
1
10
14.9469579922808
20
5.63826173254262
30
0
0
SPLINE
5
271
100
AcDbEntity
8
1
62
256
6
ByLayer
370
-1
48
1
60
0
100
AcDbSpline
70
4
71
3
72
22
73
18
40
0
40
0
40
0
40
0
40
0.0973712659846775
40
0.0973712659846775
40
0.180296832630674
40
0.180296832630674
40
0.307445080802937
40
0.307445080802937
40
0.411978418514749
40
0.411978418514749
40
0.516185210010933
40
0.516185210010933
40
0.620250145291699
40
0.620250145291699
40
0.829289859625765
40
0.829289859625765
40
1
40
1
40
1
40
1
41
1
10
15.7219164012596
20
5.63826173254262
30
0
41
1
10
15.7248484599033
20
5.65225952822109
30
0
41
1
10
15.7246365202591
20
5.66700543109314
30
0
41
1
10
15.7184415218789
20
5.69271457984439
30
0
41
1
10
15.7133001642889
20
5.70421899768146
30
0
41
1
10
15.6964554534924
20
5.73081014193275
30
0
41
1
10
15.6825531591423
20
5.74506387536735
30
0
41
1
10
15.6544018499732
20
5.76737627124913
30
0
41
1
10
15.6404268379573
20
5.77627781018955
30
0
41
1
10
15.6113063365766
20
5.79197533457369
30
0
41
1
10
15.5960695382994
20
5.79882577754901
30
0
41
1
10
15.5648874635407
20
5.81083291218636
30
0
41
1
10
15.5488868597352
20
5.8160108225828
30
0
41
1
10
15.5001366799149
20
5.8294095060555
30
0
41
1
10
15.466538367528
20
5.83553620522818
30
0
41
1
10
15.4050162025706
20
5.84238112657323
30
0
41
1
10
15.3770458354529
20
5.84388676179617
30
0
41
1
10
15.3490499236474
20
5.84388676179617
30
0
0
SPLINE
5
272
100
AcDbEntity
8
1
62
256
6
ByLayer
370
-1
48
1
60
0
100
AcDbSpline
70
4
71
3
72
24
73
20
40
0
40
0
40
0
40
0
40
0.0380198325524085
40
0.0380198325524085
40
0.246834654675471
40
0.246834654675471
40
0.404726505663792
40
0.404726505663792
40
0.526150637963248
40
0.526150637963248
40
0.621531995503999
40
0.621531995503999
40
0.776890538332327
40
0.776890538332327
40
0.87368421389816
40
0.87368421389816
40
0.971746172255121
40
0.971746172255121
40
1
40
1
40
1
40
1
41
1
10
16.7869266699158
20
3.3297224333057
30
0
41
1
10
16.7900299919921
20
3.33521071913597
30
0
41
1
10
16.7930656802312
20
3.34073643217772
30
0
41
1
10
16.8122978626474
20
3.37678741964231
30
0
41
1
10
16.8265557164806
20
3.40841843671851
30
0
41
1
10
16.8472472286537
20
3.46532808281958
30
0
41
1
10
16.8547757694604
20
3.49038165710667
30
0
41
1
10
16.8648886267428
20
3.53526432861847
30
0
41
1
10
16.8682279711053
20
3.55503735625462
30
0
41
1
10
16.8716806391162
20
3.59044529980204
30
0
41
1
10
16.8723361220099
20
3.6061172939585
30
0
41
1
10
16.8710897177854
20
3.64682002851848
30
0
41
1
10
16.8673472380548
20
3.67220847808912
30
0
41
1
10
16.8536233071534
20
3.70998353301883
30
0
41
1
10
16.846335294352
20
3.7239181215522
30
0
41
1
10
16.8274406236064
20
3.74788553264395
30
0
41
1
10
16.8154398847425
20
3.75813623998965
30
0
41
1
10
16.7981587625531
20
3.76733011994025
30
0
41
1
10
16.7941038774676
20
3.76917292142193
30
0
41
1
10
16.7899581650043
20
3.7707633459714
30
0
0
SPLINE
5
273
100
AcDbEntity
8
1
62
256
6
ByLayer
370
-1
48
1
60
0
100
AcDbSpline
70
4
71
3
72
8
73
4
40
0
40
0
40
0
40
0
40
1
40
1
40
1
40
1
41
1
10
15.7252455289397
20
2.71379533327817
30
0
41
1
10
15.7273085912203
20
2.70720283069437
30
0
41
1
10
15.7293716572632
20
2.70061036682986
30
0
41
1
10
15.7314347269186
20
2.69401794015155
30
0
0
SPLINE
5
274
100
AcDbEntity
8
1
62
256
6
ByLayer
370
-1
48
1
60
0
100
AcDbSpline
70
4
71
3
72
8
73
4
40
0
40
0
40
0
40
0
40
1
40
1
40
1
40
1
41
1
10
14.9469579922808
20
5.63826173254265
30
0
41
1
10
14.9476583794726
20
5.63152320896509
30
0
41
1
10
14.9483587852018
20
5.62478465057612
30
0
41
1
10
14.9490592102333
20
5.61804605594062
30
0
0
SPLINE
5
275
100
AcDbEntity
8
1
62
256
6
ByLayer
370
-1
48
1
60
0
100
AcDbSpline
70
4
71
3
72
8
73
4
40
0
40
0
40
0
40
0
40
1
40
1
40
1
40
1
41
1
10
14.286728010273
20
5.22908006872322
30
0
41
1
10
14.2823889639137
20
5.23368181711484
30
0
41
1
10
14.2780499573183
20
5.23828354127625
30
0
41
1
10
14.2737109889114
20
5.24288524216675
30
0
0
SPLINE
5
276
100
AcDbEntity
8
1
62
256
6
ByLayer
370
-1
48
1
60
0
100
AcDbSpline
70
4
71
3
72
8
73
4
40
0
40
0
40
0
40
0
40
1
40
1
40
1
40
1
41
1
10
16.3977197976854
20
5.24288524216695
30
0
41
1
10
16.3920474278064
20
5.23828354127645
30
0
41
1
10
16.3863750420468
20
5.23368181711504
30
0
41
1
10
16.3807026397527
20
5.22908006872342
30
0
0
SPLINE
5
277
100
AcDbEntity
8
1
62
256
6
ByLayer
370
-1
48
1
60
0
100
AcDbSpline
70
4
71
3
72
22
73
18
40
0
40
0
40
0
40
0
40
0.0973712659847428
40
0.0973712659847428
40
0.180296832630783
40
0.180296832630783
40
0.307445080803138
40
0.307445080803138
40
0.411978418515047
40
0.411978418515047
40
0.516185210011286
40
0.516185210011286
40
0.62025014529215
40
0.62025014529215
40
0.829289859626395
40
0.829289859626395
40
1
40
1
40
1
40
1
41
1
10
16.4046817302881
20
3.08939443052745
30
0
41
1
10
16.4171090152697
20
3.0812169043611
30
0
41
1
10
16.431723466224
20
3.07541710565977
30
0
41
1
10
16.459912143559
20
3.07028849877253
30
0
41
1
10
16.4736287877628
20
3.07002096410213
30
0
41
1
10
16.5076691662628
20
3.07366792681899
30
0
41
1
10
16.5282127102031
20
3.07981414764561
30
0
41
1
10
16.5634409212665
20
3.09497395271248
30
0
41
1
10
16.5788130177235
20
3.10340024679917
30
0
41
1
10
16.6080991956121
20
3.12216025651438
30
0
41
1
10
16.6221098021675
20
3.13255033148124
30
0
41
1
10
16.6488653526745
20
3.15467699655508
30
0
41
1
10
16.6616574643317
20
3.16645271801448
30
0
41
1
10
16.6983899522608
20
3.20336740225747
30
0
41
1
10
16.7207767409334
20
3.23016553156936
30
0
41
1
10
16.7577095783805
20
3.28119169861299
30
0
41
1
10
16.773008290604
20
3.30510750708174
30
0
41
1
10
16.7869266699158
20
3.3297224333057
30
0
0
SPLINE
5
278
100
AcDbEntity
8
1
62
256
6
ByLayer
370
-1
48
1
60
0
100
AcDbSpline
70
4
71
3
72
8
73
4
40
0
40
0
40
0
40
0
40
1
40
1
40
1
40
1
41
1
10
16.766280854558
20
4.55488668182682
30
0
41
1
10
16.773321184262
20
4.55709657409651
30
0
41
1
10
16.7803614897392
20
4.55930645558632
30
0
41
1
10
16.7874017719481
20
4.56151632672297
30
0
0
SPLINE
5
279
100
AcDbEntity
8
1
62
256
6
ByLayer
370
-1
48
1
60
0
100
AcDbSpline
70
4
71
3
72
8
73
4
40
0
40
0
40
0
40
0
40
1
40
1
40
1
40
1
41
1
10
16.7899581650043
20
3.7707633459714
30
0
41
1
10
16.7829040667017
20
3.77282712020883
30
0
41
1
10
16.775849945056
20
3.77489090717415
30
0
41
1
10
16.7687957991059
20
3.77695470739221
30
0
0
SPLINE
5
27A
100
AcDbEntity
8
1
62
256
6
ByLayer
370
-1
48
1
60
0
100
AcDbSpline
70
4
71
3
72
8
73
4
40
0
40
0
40
0
40
0
40
1
40
1
40
1
40
1
41
1
10
16.3875767289
20
3.1027613204956
30
0
41
1
10
16.3932784125084
20
3.09830566415565
30
0
41
1
10
16.3989800794176
20
3.09385003451871
30
0
41
1
10
16.4046817302881
20
3.08939443052742
30
0
0
LINE
5
49
100
AcDbEntity
8
1
62
256
6
ByLayer
370
-1
48
1
60
0
100
AcDbLine
10
7.761014
20
8.968613
30
0
11
7.761018
21
8.981399
31
0
39
0
210
0
220
0
230
1
0
LINE
5
4B
100
AcDbEntity
8
1
62
256
6
ByLayer
370
-1
48
1
60
0
100
AcDbLine
10
15.053321
20
6.876107
30
0
11
14.838275
21
6.853051
31
0
39
0
210
0
220
0
230
1
0
LINE
5
4C
100
AcDbEntity
8
1
62
256
6
ByLayer
370
-1
48
1
60
0
100
AcDbLine
10
15.419255
20
1.434107
30
0
11
15.634301
21
1.457162
31
0
39
0
210
0
220
0
230
1
0
LINE
5
4D
100
AcDbEntity
8
1
62
256
6
ByLayer
370
-1
48
1
60
0
100
AcDbLine
10
14.375558
20
3.137383
30
0
11
14.128246
21
3.110868
31
0
39
0
210
0
220
0
230
1
0
LINE
5
4E
100
AcDbEntity
8
1
62
256
6
ByLayer
370
-1
48
1
60
0
100
AcDbLine
10
14.191719
20
5.166651
30
0
11
14.434163
21
5.192644
31
0
39
0
210
0
220
0
230
1
0
LINE
5
4F
100
AcDbEntity
8
1
62
256
6
ByLayer
370
-1
48
1
60
0
100
AcDbLine
10
16.213129
20
3.136301
30
0
11
15.970321
21
3.110269
31
0
39
0
210
0
220
0
230
1
0
LINE
5
50
100
AcDbEntity
8
1
62
256
6
ByLayer
370
-1
48
1
60
0
100
AcDbLine
10
16.033794
20
5.166052
30
0
11
16.281016
21
5.192558
31
0
39
0
210
0
220
0
230
1
0
LINE
5
51
100
AcDbEntity
8
1
62
256
6
ByLayer
370
-1
48
1
60
0
100
AcDbLine
10
8.71705
20
8.276433
30
0
11
8.028317
21
8.208253
31
0
39
0
210
0
220
0
230
1
0
LINE
5
52
100
AcDbEntity
8
1
62
256
6
ByLayer
370
-1
48
1
60
0
100
AcDbLine
10
12.392792
20
8.918088
30
0
11
11.637534
21
8.843323
31
0
39
0
210
0
220
0
230
1
0
LINE
5
53
100
AcDbEntity
8
1
62
256
6
ByLayer
370
-1
48
1
60
0
100
AcDbLine
10
10.462446
20
8.471293
30
0
11
9.795972
21
8.405317
31
0
39
0
210
0
220
0
230
1
0
LINE
5
54
100
AcDbEntity
8
1
62
256
6
ByLayer
370
-1
48
1
60
0
100
AcDbLine
10
14.520229
20
-3.805258
30
0
11
15.208368
21
-3.737137
31
0
39
0
210
0
220
0
230
1
0
LINE
5
55
100
AcDbEntity
8
1
62
256
6
ByLayer
370
-1
48
1
60
0
100
AcDbLine
10
13.954611
20
-2.644153
30
0
11
14.620699
21
-2.578215
31
0
39
0
210
0
220
0
230
1
0
LINE
5
56
100
AcDbEntity
8
80
62
256
6
ByLayer
370
-1
48
1
60
0
100
AcDbLine
10
0
20
0
30
0
11
-5
21
0
31
0
39
0
210
0
220
0
230
1
0
LINE
5
57
100
AcDbEntity
8
81
62
256
6
ByLayer
370
-1
48
1
60
0
100
AcDbLine
10
23.355801
20
8.9125
30
0
11
28.355801
21
8.9125
31
0
39
0
210
0
220
0
230
1
0
LINE
5
58
100
AcDbEntity
8
1
62
256
6
ByLayer
370
-1
48
1
60
0
100
AcDbLine
10
14.982039
20
-5.280545
30
0
11
14.979321
21
-5.21923
31
0
39
0
210
0
220
0
230
1
0
LINE
5
59
100
AcDbEntity
8
1
62
256
6
ByLayer
370
-1
48
1
60
0
100
AcDbLine
10
11.841552
20
-0.22189
30
0
11
11.914872
21
-0.147231
31
0
39
0
210
0
220
0
230
1
0
LINE
5
5A
100
AcDbEntity
8
1
62
256
6
ByLayer
370
-1
48
1
60
0
100
AcDbLine
10
7.221593
20
8.345356
30
0
11
11.923878
21
0.12329
31
0
39
0
210
0
220
0
230
1
0
LINE
5
5B
100
AcDbEntity
8
1
62
256
6
ByLayer
370
-1
48
1
60
0
100
AcDbLine
10
14.132738
20
-3.738958
30
0
11
14.979321
21
-5.21923
31
0
39
0
210
0
220
0
230
1
0
LINE
5
5C
100
AcDbEntity
8
1
62
256
6
ByLayer
370
-1
48
1
60
0
100
AcDbLine
10
14.884077
20
-5.337126
30
0
11
14.982039
21
-5.280545
31
0
39
0
210
0
220
0
230
1
0
LINE
5
5D
100
AcDbEntity
8
1
62
256
6
ByLayer
370
-1
48
1
60
0
100
AcDbLine
10
0.367178
20
8.304678
30
0
11
0
21
7.9375
31
0
39
0
210
0
220
0
230
1
0
LINE
5
5E
100
AcDbEntity
8
1
62
256
6
ByLayer
370
-1
48
1
60
0
100
AcDbLine
10
3.416817
20
8.365407
30
0
11
7.044683
21
8.365407
31
0
39
0
210
0
220
0
230
1
0
LINE
5
5F
100
AcDbEntity
8
1
62
256
6
ByLayer
370
-1
48
1
60
0
100
AcDbLine
10
11.914872
20
-0.147231
30
0
11
11.923878
21
0.12329
31
0
39
0
210
0
220
0
230
1
0
LINE
5
60
100
AcDbEntity
8
1
62
256
6
ByLayer
370
-1
48
1
60
0
100
AcDbLine
10
14.68511
20
-4.704719
30
0
11
15.234801
21
-3.732581
31
0
39
0
210
0
220
0
230
1
0
LINE
5
61
100
AcDbEntity
8
1
62
256
6
ByLayer
370
-1
48
1
60
0
100
AcDbLine
10
0
20
-7.9375
30
0
11
3.658967
21
-7.953465
31
0
39
0
210
0
220
0
230
1
0
LINE
5
62
100
AcDbEntity
8
1
62
256
6
ByLayer
370
-1
48
1
60
0
100
AcDbLine
10
10.363202
20
-7.948307
30
0
11
14.884077
21
-5.337126
31
0
39
0
210
0
220
0
230
1
0
LINE
5
63
100
AcDbEntity
8
1
62
256
6
ByLayer
370
-1
48
1
60
0
100
AcDbLine
10
3.416817
20
8.365407
30
0
11
0.367178
21
8.304678
31
0
39
0
210
0
220
0
230
1
0
LINE
5
64
100
AcDbEntity
8
1
62
256
6
ByLayer
370
-1
48
1
60
0
100
AcDbLine
10
3.658967
20
-7.953465
30
0
11
10.363202
21
-7.948307
31
0
39
0
210
0
220
0
230
1
0
LINE
5
65
100
AcDbEntity
8
1
62
256
6
ByLayer
370
-1
48
1
60
0
100
AcDbLine
10
0
20
-7.9375
30
0
11
0
21
7.9375
31
0
39
0
210
0
220
0
230
1
0
LINE
5
66
100
AcDbEntity
8
1
62
256
6
ByLayer
370
-1
48
1
60
0
100
AcDbLine
10
3.416817
20
8.365407
30
0
11
3.658967
21
-7.953465
31
0
39
0
210
0
220
0
230
1
0
LINE
5
67
100
AcDbEntity
8
1
62
256
6
ByLayer
370
-1
48
1
60
0
100
AcDbLine
10
7.221593
20
8.345356
30
0
11
7.044683
21
8.365407
31
0
39
0
210
0
220
0
230
1
0
LINE
5
68
100
AcDbEntity
8
1
62
256
6
ByLayer
370
-1
48
1
60
0
100
AcDbLine
10
12.043437
20
-0.928077
30
0
11
12.038104
21
-0.92805
31
0
39
0
210
0
220
0
230
1
0
LINE
5
69
100
AcDbEntity
8
1
62
256
6
ByLayer
370
-1
48
1
60
0
100
AcDbLine
10
11.914872
20
-0.147231
30
0
11
7.044683
21
8.365407
31
0
39
0
210
0
220
0
230
1
0
LINE
5
6A
100
AcDbEntity
8
1
62
256
6
ByLayer
370
-1
48
1
60
0
100
AcDbLine
10
14.884077
20
-5.337126
30
0
11
14.06219
21
-3.900544
31
0
39
0
210
0
220
0
230
1
0
LINE
5
6B
100
AcDbEntity
8
1
62
256
6
ByLayer
370
-1
48
1
60
0
100
AcDbLine
10
14.184422
20
3.079075
30
0
11
14.280673
21
3.089394
31
0
39
0
210
0
220
0
230
1
0
LINE
5
6C
100
AcDbEntity
8
1
62
256
6
ByLayer
370
-1
48
1
60
0
100
AcDbLine
10
14.115304
20
5.225902
30
0
11
14.273711
21
5.242885
31
0
39
0
210
0
220
0
230
1
0
LINE
5
6D
100
AcDbEntity
8
1
62
256
6
ByLayer
370
-1
48
1
60
0
100
AcDbLine
10
14.162875
20
3.088746
30
0
11
14.293602
21
3.102761
31
0
39
0
210
0
220
0
230
1
0
LINE
5
6E
100
AcDbEntity
8
1
62
256
6
ByLayer
370
-1
48
1
60
0
100
AcDbLine
10
14.090483
20
5.20804
30
0
11
14.286728
21
5.22908
31
0
39
0
210
0
220
0
230
1
0
LINE
5
6F
100
AcDbEntity
8
1
62
256
6
ByLayer
370
-1
48
1
60
0
100
AcDbLine
10
11.419355
20
-0.972566
30
0
11
12.323793
21
-2.554
31
0
39
0
210
0
220
0
230
1
0
LINE
5
70
100
AcDbEntity
8
1
62
256
6
ByLayer
370
-1
48
1
60
0
100
AcDbLine
10
12.036751
20
-0.91601
30
0
11
12.878218
21
-2.390084
31
0
39
0
210
0
220
0
230
1
0
LINE
5
71
100
AcDbEntity
8
1
62
256
6
ByLayer
370
-1
48
1
60
0
100
AcDbLine
10
12.878218
20
-2.390084
30
0
11
13.472651
21
-2.390084
31
0
39
0
210
0
220
0
230
1
0
LINE
5
72
100
AcDbEntity
8
1
62
256
6
ByLayer
370
-1
48
1
60
0
100
AcDbLine
10
13.752763
20
-2.554
30
0
11
12.323793
21
-2.554
31
0
39
0
210
0
220
0
230
1
0
LINE
5
73
100
AcDbEntity
8
1
62
256
6
ByLayer
370
-1
48
1
60
0
100
AcDbLine
10
11.697813
20
-0.389456
30
0
11
11.953211
21
-0.83623
31
0
39
0
210
0
220
0
230
1
0
LINE
5
74
100
AcDbEntity
8
1
62
256
6
ByLayer
370
-1
48
1
60
0
100
AcDbLine
10
8.493049
20
6.403409
30
0
11
8.340828
21
6.38834
31
0
39
0
210
0
220
0
230
1
0
LINE
5
75
100
AcDbEntity
8
1
62
256
6
ByLayer
370
-1
48
1
60
0
100
AcDbLine
10
7.827347
20
7.286159
30
0
11
7.829889
21
7.998126
31
0
39
0
210
0
220
0
230
1
0
LINE
5
76
100
AcDbEntity
8
1
62
256
6
ByLayer
370
-1
48
1
60
0
100
AcDbLine
10
8.28456
20
6.486728
30
0
11
8.46946
21
6.505031
31
0
39
0
210
0
220
0
230
1
0
LINE
5
77
100
AcDbEntity
8
1
62
256
6
ByLayer
370
-1
48
1
60
0
100
AcDbLine
10
11.112142
20
8.216651
30
0
11
10.985637
21
8.204128
31
0
39
0
210
0
220
0
230
1
0
LINE
5
78
100
AcDbEntity
8
1
62
256
6
ByLayer
370
-1
48
1
60
0
100
AcDbLine
10
10.736778
20
8.335115
30
0
11
11.558239
21
8.817475
31
0
39
0
210
0
220
0
230
1
0
LINE
5
79
100
AcDbEntity
8
1
62
256
6
ByLayer
370
-1
48
1
60
0
100
AcDbLine
10
9.653243
20
7.834772
30
0
11
9.549224
21
7.824475
31
0
39
0
210
0
220
0
230
1
0
LINE
5
7A
100
AcDbEntity
8
1
62
256
6
ByLayer
370
-1
48
1
60
0
100
AcDbLine
10
9.702448
20
7.863665
30
0
11
9.510912
21
7.844705
31
0
39
0
210
0
220
0
230
1
0
LINE
5
7B
100
AcDbEntity
8
1
62
256
6
ByLayer
370
-1
48
1
60
0
100
AcDbLine
10
9.171402
20
8.052035
30
0
11
9.167743
21
8.049802
31
0
39
0
210
0
220
0
230
1
0
LINE
5
7C
100
AcDbEntity
8
1
62
256
6
ByLayer
370
-1
48
1
60
0
100
AcDbLine
10
9.773417
20
8.017576
30
0
11
9.300074
21
7.970718
31
0
39
0
210
0
220
0
230
1
0
LINE
5
7D
100
AcDbEntity
8
1
62
256
6
ByLayer
370
-1
48
1
60
0
100
AcDbLine
10
9.767264
20
7.964136
30
0
11
9.375911
21
7.925395
31
0
39
0
210
0
220
0
230
1
0
LINE
5
7E
100
AcDbEntity
8
1
62
256
6
ByLayer
370
-1
48
1
60
0
100
AcDbLine
10
14.822761
20
-2.550783
30
0
11
14.661363
21
-2.56676
31
0
39
0
210
0
220
0
230
1
0
LINE
5
7F
100
AcDbEntity
8
1
62
256
6
ByLayer
370
-1
48
1
60
0
100
AcDbLine
10
14.209991
20
-2.645224
30
0
11
14.171474
21
-2.622685
31
0
39
0
210
0
220
0
230
1
0
LINE
5
80
100
AcDbEntity
8
1
62
256
6
ByLayer
370
-1
48
1
60
0
100
AcDbLine
10
7.238054
20
8.987684
30
0
11
7.238057
21
8.998135
31
0
39
0
210
0
220
0
230
1
0
LINE
5
81
100
AcDbEntity
8
1
62
256
6
ByLayer
370
-1
48
1
60
0
100
AcDbLine
10
9.01804
20
8.973682
30
0
11
9.018052
21
9.013877
31
0
39
0
210
0
220
0
230
1
0
LINE
5
82
100
AcDbEntity
8
1
62
256
6
ByLayer
370
-1
48
1
60
0
100
AcDbLine
10
9.005312
20
8.97328
30
0
11
9.005321
21
9.001312
31
0
39
0
210
0
220
0
230
1
0
LINE
5
83
100
AcDbEntity
8
1
62
256
6
ByLayer
370
-1
48
1
60
0
100
AcDbLine
10
8.394364
20
8.963398
30
0
11
8.394379
21
9.013045
31
0
39
0
210
0
220
0
230
1
0
LINE
5
84
100
AcDbEntity
8
1
62
256
6
ByLayer
370
-1
48
1
60
0
100
AcDbLine
10
9.838232
20
8.118046
30
0
11
10.411261
21
8.454527
31
0
39
0
210
0
220
0
230
1
0
LINE
5
85
100
AcDbEntity
8
1
62
256
6
ByLayer
370
-1
48
1
60
0
100
AcDbLine
10
11.078374
20
2.029942
30
0
11
11.916523
21
2.269106
31
0
39
0
210
0
220
0
230
1
0
LINE
5
86
100
AcDbEntity
8
1
62
256
6
ByLayer
370
-1
48
1
60
0
100
AcDbLine
10
8.577617
20
6.879536
30
0
11
8.609872
21
7.958097
31
0
39
0
210
0
220
0
230
1
0
LINE
5
87
100
AcDbEntity
8
1
62
256
6
ByLayer
370
-1
48
1
60
0
100
AcDbLine
10
21.784573
20
8.06465
30
0
11
21.689456
21
8.008775
31
0
39
0
210
0
220
0
230
1
0
LINE
5
88
100
AcDbEntity
8
1
62
256
6
ByLayer
370
-1
48
1
60
0
100
AcDbLine
10
14.28233
20
-3.595131
30
0
11
14.274334
21
-2.756926
31
0
39
0
210
0
220
0
230
1
0
LINE
5
89
100
AcDbEntity
8
1
62
256
6
ByLayer
370
-1
48
1
60
0
100
AcDbLine
10
8.941366
20
6.625594
30
0
11
9.349048
21
6.622151
31
0
39
0
210
0
220
0
230
1
0
LINE
5
8A
100
AcDbEntity
8
1
62
256
6
ByLayer
370
-1
48
1
60
0
100
AcDbLine
10
21.132543
20
7.188956
30
0
11
21.132715
21
7.13117
31
0
39
0
210
0
220
0
230
1
0
LINE
5
8B
100
AcDbEntity
8
1
62
256
6
ByLayer
370
-1
48
1
60
0
100
AcDbLine
10
19.698487
20
8.184042
30
0
11
19.252223
21
8.905625
31
0
39
0
210
0
220
0
230
1
0
LINE
5
8C
100
AcDbEntity
8
1
62
256
6
ByLayer
370
-1
48
1
60
0
100
AcDbLine
10
19.856755
20
2.616819
30
0
11
20.816891
21
4.314138
31
0
39
0
210
0
220
0
230
1
0
LINE
5
8D
100
AcDbEntity
8
1
62
256
6
ByLayer
370
-1
48
1
60
0
100
AcDbLine
10
21.288784
20
6.888738
30
0
11
21.290793
21
6.215776
31
0
39
0
210
0
220
0
230
1
0
LINE
5
8E
100
AcDbEntity
8
1
62
256
6
ByLayer
370
-1
48
1
60
0
100
AcDbLine
10
15.351317
20
8.914748
30
0
11
14.718501
21
8.915223
31
0
39
0
210
0
220
0
230
1
0
LINE
5
8F
100
AcDbEntity
8
1
62
256
6
ByLayer
370
-1
48
1
60
0
100
AcDbLine
10
18.959891
20
8.908317
30
0
11
18.676177
21
8.917769
31
0
39
0
210
0
220
0
230
1
0
LINE
5
90
100
AcDbEntity
8
1
62
256
6
ByLayer
370
-1
48
1
60
0
100
AcDbLine
10
13.863873
20
-1.510248
30
0
11
13.169744
21
-1.578962
31
0
39
0
210
0
220
0
230
1
0
LINE
5
91
100
AcDbEntity
8
1
62
256
6
ByLayer
370
-1
48
1
60
0
100
AcDbLine
10
9.171402
20
8.052035
30
0
11
9.74443
21
8.388516
31
0
39
0
210
0
220
0
230
1
0
LINE
5
92
100
AcDbEntity
8
1
62
256
6
ByLayer
370
-1
48
1
60
0
100
AcDbLine
10
16.391342
20
-1.584793
30
0
11
13.888961
21
-1.539704
31
0
39
0
210
0
220
0
230
1
0
LINE
5
93
100
AcDbEntity
8
1
62
256
6
ByLayer
370
-1
48
1
60
0
100
AcDbLine
10
18.539147
20
8.919031
30
0
11
15.890358
21
8.919031
31
0
39
0
210
0
220
0
230
1
0
LINE
5
94
100
AcDbEntity
8
1
62
256
6
ByLayer
370
-1
48
1
60
0
100
AcDbLine
10
11.007547
20
2.202411
30
0
11
11.916523
21
2.269106
31
0
39
0
210
0
220
0
230
1
0
LINE
5
95
100
AcDbEntity
8
1
62
256
6
ByLayer
370
-1
48
1
60
0
100
AcDbLine
10
13.894704
20
-1.866256
30
0
11
16.348051
21
-1.910462
31
0
39
0
210
0
220
0
230
1
0
LINE
5
96
100
AcDbEntity
8
1
62
256
6
ByLayer
370
-1
48
1
60
0
100
AcDbLine
10
19.754054
20
8.184126
30
0
11
19.7519
21
8.905709
31
0
39
0
210
0
220
0
230
1
0
LINE
5
97
100
AcDbEntity
8
1
62
256
6
ByLayer
370
-1
48
1
60
0
100
AcDbLine
10
10.742537
20
8.33167
30
0
11
9.431407
21
6.158072
31
0
39
0
210
0
220
0
230
1
0
LINE
5
98
100
AcDbEntity
8
1
62
256
6
ByLayer
370
-1
48
1
60
0
100
AcDbLine
10
19.612039
20
2.248411
30
0
11
18.766508
21
3.115976
31
0
39
0
210
0
220
0
230
1
0
LINE
5
99
100
AcDbEntity
8
1
62
256
6
ByLayer
370
-1
48
1
60
0
100
AcDbLine
10
15.262905
20
-2.362506
30
0
11
15.288695
21
-3.077915
31
0
39
0
210
0
220
0
230
1
0
LINE
5
9A
100
AcDbEntity
8
1
62
256
6
ByLayer
370
-1
48
1
60
0
100
AcDbLine
10
13.903611
20
-2.113353
30
0
11
13.894704
21
-1.866256
31
0
39
0
210
0
220
0
230
1
0
LINE
5
9B
100
AcDbEntity
8
1
62
256
6
ByLayer
370
-1
48
1
60
0
100
AcDbLine
10
14.872138
20
-2.579676
30
0
11
14.822761
21
-2.550783
31
0
39
0
210
0
220
0
230
1
0
LINE
5
9C
100
AcDbEntity
8
1
62
256
6
ByLayer
370
-1
48
1
60
0
100
AcDbLine
10
11.7382
20
0.935854
30
0
11
12.708469
21
-0.761465
31
0
39
0
210
0
220
0
230
1
0
LINE
5
9D
100
AcDbEntity
8
1
62
256
6
ByLayer
370
-1
48
1
60
0
100
AcDbLine
10
9.254655
20
5.080343
30
0
11
9.540734
21
4.756383
31
0
39
0
210
0
220
0
230
1
0
LINE
5
9E
100
AcDbEntity
8
1
62
256
6
ByLayer
370
-1
48
1
60
0
100
AcDbLine
10
14.458143
20
7.687216
30
0
11
15.058891
21
7.535259
31
0
39
0
210
0
220
0
230
1
0
LINE
5
9F
100
AcDbEntity
8
1
62
256
6
ByLayer
370
-1
48
1
60
0
100
AcDbLine
10
9.724902
20
5.983408
30
0
11
11.062236
21
8.200447
31
0
39
0
210
0
220
0
230
1
0
LINE
5
A0
100
AcDbEntity
8
1
62
256
6
ByLayer
370
-1
48
1
60
0
100
AcDbLine
10
13.238747
20
-2.179169
30
0
11
13.234088
21
-1.690664
31
0
39
0
210
0
220
0
230
1
0
LINE
5
A1
100
AcDbEntity
8
1
62
256
6
ByLayer
370
-1
48
1
60
0
100
AcDbLine
10
21.785485
20
7.759181
30
0
11
20.844611
21
7.212295
31
0
39
0
210
0
220
0
230
1
0
LINE
5
A2
100
AcDbEntity
8
1
62
256
6
ByLayer
370
-1
48
1
60
0
100
AcDbLine
10
21.329988
20
8.006595
30
0
11
20.700469
21
8.367495
31
0
39
0
210
0
220
0
230
1
0
LINE
5
A3
100
AcDbEntity
8
1
62
256
6
ByLayer
370
-1
48
1
60
0
100
AcDbLine
10
16.348051
20
-1.910462
30
0
11
16.964635
21
-2.271253
31
0
39
0
210
0
220
0
230
1
0
LINE
5
A4
100
AcDbEntity
8
1
62
256
6
ByLayer
370
-1
48
1
60
0
100
AcDbLine
10
15.32269
20
-3.572833
30
0
11
15.309901
21
-3.470166
31
0
39
0
210
0
220
0
230
1
0
LINE
5
A5
100
AcDbEntity
8
1
62
256
6
ByLayer
370
-1
48
1
60
0
100
AcDbLine
10
13.903611
20
-2.113353
30
0
11
13.238747
21
-2.179169
31
0
39
0
210
0
220
0
230
1
0
LINE
5
A6
100
AcDbEntity
8
1
62
256
6
ByLayer
370
-1
48
1
60
0
100
AcDbLine
10
11.426355
20
8.377536
30
0
11
9.540734
21
4.756383
31
0
39
0
210
0
220
0
230
1
0
LINE
5
A7
100
AcDbEntity
8
1
62
256
6
ByLayer
370
-1
48
1
60
0
100
AcDbLine
10
15.070601
20
-3.698746
30
0
11
14.381319
21
-3.76698
31
0
39
0
210
0
220
0
230
1
0
LINE
5
A8
100
AcDbEntity
8
1
62
256
6
ByLayer
370
-1
48
1
60
0
100
AcDbLine
10
19.856755
20
2.616819
30
0
11
19.368501
21
2.927581
31
0
39
0
210
0
220
0
230
1
0
LINE
5
A9
100
AcDbEntity
8
1
62
256
6
ByLayer
370
-1
48
1
60
0
100
AcDbLine
10
19.311333
20
2.844291
30
0
11
19.802624
21
2.531595
31
0
39
0
210
0
220
0
230
1
0
LINE
5
AA
100
AcDbEntity
8
1
62
256
6
ByLayer
370
-1
48
1
60
0
100
AcDbLine
10
15.557751
20
8.915809
30
0
11
15.382013
21
8.085667
31
0
39
0
210
0
220
0
230
1
0
LINE
5
AB
100
AcDbEntity
8
1
62
256
6
ByLayer
370
-1
48
1
60
0
100
AcDbLine
10
21.273847
20
7.908359
30
0
11
20.646494
21
7.543707
31
0
39
0
210
0
220
0
230
1
0
LINE
5
AC
100
AcDbEntity
8
1
62
256
6
ByLayer
370
-1
48
1
60
0
100
AcDbLine
10
19.252223
20
8.905625
30
0
11
19.696333
21
8.905625
31
0
39
0
210
0
220
0
230
1
0
LINE
5
AD
100
AcDbEntity
8
1
62
256
6
ByLayer
370
-1
48
1
60
0
100
AcDbLine
10
15.091845
20
-3.711177
30
0
11
15.070601
21
-3.698746
31
0
39
0
210
0
220
0
230
1
0
LINE
5
AE
100
AcDbEntity
8
1
62
256
6
ByLayer
370
-1
48
1
60
0
100
AcDbLine
10
9.570767
20
6.752344
30
0
11
9.780894
21
7.118563
31
0
39
0
210
0
220
0
230
1
0
LINE
5
AF
100
AcDbEntity
8
1
62
256
6
ByLayer
370
-1
48
1
60
0
100
AcDbLine
10
10.411261
20
8.454527
30
0
11
9.74443
21
8.388516
31
0
39
0
210
0
220
0
230
1
0
LINE
5
B0
100
AcDbEntity
8
1
62
256
6
ByLayer
370
-1
48
1
60
0
100
AcDbLine
10
9.628763
20
4.625952
30
0
11
11.64632
21
8.500475
31
0
39
0
210
0
220
0
230
1
0
LINE
5
B1
100
AcDbEntity
8
1
62
256
6
ByLayer
370
-1
48
1
60
0
100
AcDbLine
10
13.878128
20
-2.627352
30
0
11
13.303091
21
-2.290871
31
0
39
0
210
0
220
0
230
1
0
LINE
5
B2
100
AcDbEntity
8
1
62
256
6
ByLayer
370
-1
48
1
60
0
100
AcDbLine
10
19.133668
20
1.34902
30
0
11
19.20348
21
1.516286
31
0
39
0
210
0
220
0
230
1
0
LINE
5
B3
100
AcDbEntity
8
1
62
256
6
ByLayer
370
-1
48
1
60
0
100
AcDbLine
10
21.689456
20
8.008775
30
0
11
21.329988
21
8.006595
31
0
39
0
210
0
220
0
230
1
0
LINE
5
B4
100
AcDbEntity
8
1
62
256
6
ByLayer
370
-1
48
1
60
0
100
AcDbLine
10
21.930565
20
7.727407
30
0
11
21.197451
21
7.301282
31
0
39
0
210
0
220
0
230
1
0
LINE
5
B5
100
AcDbEntity
8
1
62
256
6
ByLayer
370
-1
48
1
60
0
100
AcDbLine
10
12.730717
20
1.650382
30
0
11
12.558386
21
2.254172
31
0
39
0
210
0
220
0
230
1
0
LINE
5
B6
100
AcDbEntity
8
1
62
256
6
ByLayer
370
-1
48
1
60
0
100
AcDbLine
10
17.769347
20
-1.073279
30
0
11
19.08679
21
1.255683
31
0
39
0
210
0
220
0
230
1
0
LINE
5
B7
100
AcDbEntity
8
1
62
256
6
ByLayer
370
-1
48
1
60
0
100
AcDbLine
10
11.603339
20
1.125909
30
0
11
11.683564
21
1.019836
31
0
39
0
210
0
220
0
230
1
0
LINE
5
B8
100
AcDbEntity
8
1
62
256
6
ByLayer
370
-1
48
1
60
0
100
AcDbLine
10
11.915575
20
2.367096
30
0
11
10.960109
21
2.29699
31
0
39
0
210
0
220
0
230
1
0
LINE
5
B9
100
AcDbEntity
8
1
62
256
6
ByLayer
370
-1
48
1
60
0
100
AcDbLine
10
8.609872
20
7.958097
30
0
11
8.691371
21
7.90869
31
0
39
0
210
0
220
0
230
1
0
LINE
5
BA
100
AcDbEntity
8
1
62
256
6
ByLayer
370
-1
48
1
60
0
100
AcDbLine
10
15.474933
20
8.043696
30
0
11
15.890358
21
8.919031
31
0
39
0
210
0
220
0
230
1
0
LINE
5
BB
100
AcDbEntity
8
1
62
256
6
ByLayer
370
-1
48
1
60
0
100
AcDbLine
10
15.777225
20
8.91841
30
0
11
15.382013
21
8.085667
31
0
39
0
210
0
220
0
230
1
0
LINE
5
BC
100
AcDbEntity
8
1
62
256
6
ByLayer
370
-1
48
1
60
0
100
AcDbLine
10
19.696333
20
8.905625
30
0
11
19.698487
21
8.184042
31
0
39
0
210
0
220
0
230
1
0
LINE
5
BD
100
AcDbEntity
8
1
62
256
6
ByLayer
370
-1
48
1
60
0
100
AcDbLine
10
19.015088
20
1.969505
30
0
11
18.338091
21
2.664142
31
0
39
0
210
0
220
0
230
1
0
LINE
5
BE
100
AcDbEntity
8
1
62
256
6
ByLayer
370
-1
48
1
60
0
100
AcDbLine
10
11.561032
20
1.969505
30
0
11
12.533354
21
2.246954
31
0
39
0
210
0
220
0
230
1
0
LINE
5
BF
100
AcDbEntity
8
1
62
256
6
ByLayer
370
-1
48
1
60
0
100
AcDbLine
10
14.968585
20
-3.527197
30
0
11
14.938448
21
-2.691183
31
0
39
0
210
0
220
0
230
1
0
LINE
5
C0
100
AcDbEntity
8
1
62
256
6
ByLayer
370
-1
48
1
60
0
100
AcDbLine
10
8.46946
20
6.505031
30
0
11
8.516144
21
8.06606
31
0
39
0
210
0
220
0
230
1
0
LINE
5
C1
100
AcDbEntity
8
1
62
256
6
ByLayer
370
-1
48
1
60
0
100
AcDbLine
10
9.254655
20
5.080343
30
0
11
9.724902
21
5.983408
31
0
39
0
210
0
220
0
230
1
0
LINE
5
C2
100
AcDbEntity
8
1
62
256
6
ByLayer
370
-1
48
1
60
0
100
AcDbLine
10
19.290112
20
1.687314
30
0
11
19.015088
21
1.969505
31
0
39
0
210
0
220
0
230
1
0
LINE
5
C3
100
AcDbEntity
8
1
62
256
6
ByLayer
370
-1
48
1
60
0
100
AcDbLine
10
14.536439
20
8.916575
30
0
11
14.412456
21
8.330912
31
0
39
0
210
0
220
0
230
1
0
LINE
5
C4
100
AcDbEntity
8
1
62
256
6
ByLayer
370
-1
48
1
60
0
100
AcDbLine
10
15.091845
20
-3.711177
30
0
11
14.402563
21
-3.77941
31
0
39
0
210
0
220
0
230
1
0
LINE
5
C5
100
AcDbEntity
8
1
62
256
6
ByLayer
370
-1
48
1
60
0
100
AcDbLine
10
9.329043
20
6.890436
30
0
11
8.921362
21
6.893879
31
0
39
0
210
0
220
0
230
1
0
LINE
5
C6
100
AcDbEntity
8
1
62
256
6
ByLayer
370
-1
48
1
60
0
100
AcDbLine
10
14.544958
20
-2.561341
30
0
11
13.878128
21
-2.627352
31
0
39
0
210
0
220
0
230
1
0
LINE
5
C7
100
AcDbEntity
8
1
62
256
6
ByLayer
370
-1
48
1
60
0
100
AcDbLine
10
8.617133
20
8.238209
30
0
11
8.638303
21
8.250639
31
0
39
0
210
0
220
0
230
1
0
LINE
5
C8
100
AcDbEntity
8
1
62
256
6
ByLayer
370
-1
48
1
60
0
100
AcDbLine
10
8.942869
20
7.613039
30
0
11
9.53917
21
7.256655
31
0
39
0
210
0
220
0
230
1
0
LINE
5
C9
100
AcDbEntity
8
1
62
256
6
ByLayer
370
-1
48
1
60
0
100
AcDbLine
10
15.022994
20
-2.347163
30
0
11
15.262905
21
-2.362506
31
0
39
0
210
0
220
0
230
1
0
LINE
5
CA
100
AcDbEntity
8
1
62
256
6
ByLayer
370
-1
48
1
60
0
100
AcDbLine
10
8.838956
20
7.60981
30
0
11
8.817449
21
6.89065
31
0
39
0
210
0
220
0
230
1
0
LINE
5
CB
100
AcDbEntity
8
1
62
256
6
ByLayer
370
-1
48
1
60
0
100
AcDbLine
10
20.700469
20
8.367495
30
0
11
20.840451
21
8.60591
31
0
39
0
210
0
220
0
230
1
0
LINE
5
CC
100
AcDbEntity
8
1
62
256
6
ByLayer
370
-1
48
1
60
0
100
AcDbLine
10
20.211072
20
7.777023
30
0
11
20.428146
21
7.414892
31
0
39
0
210
0
220
0
230
1
0
LINE
5
CD
100
AcDbEntity
8
1
62
256
6
ByLayer
370
-1
48
1
60
0
100
AcDbLine
10
9.601694
20
7.351156
30
0
11
9.005392
21
7.707541
31
0
39
0
210
0
220
0
230
1
0
LINE
5
CE
100
AcDbEntity
8
1
62
256
6
ByLayer
370
-1
48
1
60
0
100
AcDbLine
10
21.009201
20
5.977502
30
0
11
19.754054
21
8.184126
31
0
39
0
210
0
220
0
230
1
0
LINE
5
CF
100
AcDbEntity
8
1
62
256
6
ByLayer
370
-1
48
1
60
0
100
AcDbLine
10
19.723044
20
2.421851
30
0
11
19.311333
21
2.844291
31
0
39
0
210
0
220
0
230
1
0
LINE
5
D0
100
AcDbEntity
8
1
62
256
6
ByLayer
370
-1
48
1
60
0
100
AcDbLine
10
20.777853
20
5.747147
30
0
11
20.827168
21
5.439746
31
0
39
0
210
0
220
0
230
1
0
LINE
5
D1
100
AcDbEntity
8
1
62
256
6
ByLayer
370
-1
48
1
60
0
100
AcDbLine
10
21.330571
20
7.811133
30
0
11
21.690039
21
7.813313
31
0
39
0
210
0
220
0
230
1
0
LINE
5
D2
100
AcDbEntity
8
1
62
256
6
ByLayer
370
-1
48
1
60
0
100
AcDbLine
10
17.211898
20
-1.832734
30
0
11
16.991009
21
-2.223221
31
0
39
0
210
0
220
0
230
1
0
LINE
5
D3
100
AcDbEntity
8
1
62
256
6
ByLayer
370
-1
48
1
60
0
100
AcDbLine
10
19.20348
20
1.516286
30
0
11
18.619904
21
2.115069
31
0
39
0
210
0
220
0
230
1
0
LINE
5
D4
100
AcDbEntity
8
1
62
256
6
ByLayer
370
-1
48
1
60
0
100
AcDbLine
10
8.869979
20
8.110831
30
0
11
9.764283
21
7.576343
31
0
39
0
210
0
220
0
230
1
0
LINE
5
D5
100
AcDbEntity
8
1
62
256
6
ByLayer
370
-1
48
1
60
0
100
AcDbLine
10
14.718501
20
8.915223
30
0
11
14.463878
21
7.712447
31
0
39
0
210
0
220
0
230
1
0
LINE
5
D6
100
AcDbEntity
8
1
62
256
6
ByLayer
370
-1
48
1
60
0
100
AcDbLine
10
22.03035
20
7.925078
30
0
11
22.030424
21
7.900217
31
0
39
0
210
0
220
0
230
1
0
LINE
5
D7
100
AcDbEntity
8
1
62
256
6
ByLayer
370
-1
48
1
60
0
100
AcDbLine
10
15.986814
20
-2.729522
30
0
11
15.39263
21
-3.082155
31
0
39
0
210
0
220
0
230
1
0
LINE
5
D8
100
AcDbEntity
8
1
62
256
6
ByLayer
370
-1
48
1
60
0
100
AcDbLine
10
21.225885
20
6.10345
30
0
11
21.009201
21
5.977502
31
0
39
0
210
0
220
0
230
1
0
LINE
5
D9
100
AcDbEntity
8
1
62
256
6
ByLayer
370
-1
48
1
60
0
100
AcDbLine
10
15.309901
20
-3.470166
30
0
11
15.455714
21
-3.175645
31
0
39
0
210
0
220
0
230
1
0
LINE
5
DA
100
AcDbEntity
8
1
62
256
6
ByLayer
370
-1
48
1
60
0
100
AcDbLine
10
8.516144
20
8.06606
30
0
11
7.829889
21
7.998126
31
0
39
0
210
0
220
0
230
1
0
LINE
5
DB
100
AcDbEntity
8
1
62
256
6
ByLayer
370
-1
48
1
60
0
100
AcDbLine
10
13.969921
20
-2.22486
30
0
11
13.303091
21
-2.290871
31
0
39
0
210
0
220
0
230
1
0
LINE
5
DC
100
AcDbEntity
8
1
62
256
6
ByLayer
370
-1
48
1
60
0
100
AcDbLine
10
19.290112
20
1.687314
30
0
11
19.612039
21
2.248411
31
0
39
0
210
0
220
0
230
1
0
LINE
5
DD
100
AcDbEntity
8
1
62
256
6
ByLayer
370
-1
48
1
60
0
100
AcDbLine
10
20.563009
20
8.880669
30
0
11
21.92946
21
8.097289
31
0
39
0
210
0
220
0
230
1
0
LINE
5
DE
100
AcDbEntity
8
1
62
256
6
ByLayer
370
-1
48
1
60
0
100
AcDbLine
10
20.646494
20
7.543707
30
0
11
20.429419
21
7.905838
31
0
39
0
210
0
220
0
230
1
0
LINE
5
DF
100
AcDbEntity
8
1
62
256
6
ByLayer
370
-1
48
1
60
0
100
AcDbLine
10
13.903018
20
-1.624444
30
0
11
13.234088
21
-1.690664
31
0
39
0
210
0
220
0
230
1
0
LINE
5
E0
100
AcDbEntity
8
1
62
256
6
ByLayer
370
-1
48
1
60
0
100
AcDbLine
10
8.617133
20
8.238209
30
0
11
7.927852
21
8.169975
31
0
39
0
210
0
220
0
230
1
0
LINE
5
E1
100
AcDbEntity
8
1
62
256
6
ByLayer
370
-1
48
1
60
0
100
AcDbLine
10
15.455714
20
-3.175645
30
0
11
16.049899
21
-2.823013
31
0
39
0
210
0
220
0
230
1
0
LINE
5
E2
100
AcDbEntity
8
1
62
256
6
ByLayer
370
-1
48
1
60
0
100
AcDbLine
10
19.723044
20
2.421851
30
0
11
19.802624
21
2.531595
31
0
39
0
210
0
220
0
230
1
0
LINE
5
E3
100
AcDbEntity
8
1
62
256
6
ByLayer
370
-1
48
1
60
0
100
AcDbLine
10
15.777225
20
8.91841
30
0
11
15.557751
21
8.915809
31
0
39
0
210
0
220
0
230
1
0
LINE
5
E4
100
AcDbEntity
8
1
62
256
6
ByLayer
370
-1
48
1
60
0
100
AcDbLine
10
17.398016
20
-1.549098
30
0
11
17.682105
21
-1.206234
31
0
39
0
210
0
220
0
230
1
0
LINE
5
E5
100
AcDbEntity
8
1
62
256
6
ByLayer
370
-1
48
1
60
0
100
AcDbLine
10
21.188544
20
7.025402
30
0
11
21.232956
21
6.994506
31
0
39
0
210
0
220
0
230
1
0
LINE
5
E6
100
AcDbEntity
8
1
62
256
6
ByLayer
370
-1
48
1
60
0
100
AcDbLine
10
20.460217
20
8.907823
30
0
11
19.7519
21
8.905709
31
0
39
0
210
0
220
0
230
1
0
LINE
5
E7
100
AcDbEntity
8
1
62
256
6
ByLayer
370
-1
48
1
60
0
100
AcDbLine
10
16.049899
20
-2.823013
30
0
11
16.21382
21
-3.043971
31
0
39
0
210
0
220
0
230
1
0
LINE
5
E8
100
AcDbEntity
8
1
62
256
6
ByLayer
370
-1
48
1
60
0
100
AcDbLine
10
21.690039
20
7.813313
30
0
11
21.785485
21
7.759181
31
0
39
0
210
0
220
0
230
1
0
LINE
5
E9
100
AcDbEntity
8
1
62
256
6
ByLayer
370
-1
48
1
60
0
100
AcDbLine
10
18.959891
20
8.908317
30
0
11
19.496318
21
8.040947
31
0
39
0
210
0
220
0
230
1
0
LINE
5
EA
100
AcDbEntity
8
1
62
256
6
ByLayer
370
-1
48
1
60
0
100
AcDbLine
10
15.351317
20
8.914748
30
0
11
15.268496
21
8.523523
31
0
39
0
210
0
220
0
230
1
0
LINE
5
EB
100
AcDbEntity
8
1
62
256
6
ByLayer
370
-1
48
1
60
0
100
AcDbLine
10
11.64632
20
8.500475
30
0
11
12.313497
21
8.89224
31
0
39
0
210
0
220
0
230
1
0
LINE
5
EC
100
AcDbEntity
8
1
62
256
6
ByLayer
370
-1
48
1
60
0
100
AcDbLine
10
14.707138
20
-2.544988
30
0
11
14.660582
21
-2.567135
31
0
39
0
210
0
220
0
230
1
0
LINE
5
ED
100
AcDbEntity
8
1
62
256
6
ByLayer
370
-1
48
1
60
0
100
AcDbLine
10
16.644312
20
-2.873153
30
0
11
16.964635
21
-2.271253
31
0
39
0
210
0
220
0
230
1
0
LINE
5
EE
100
AcDbEntity
8
1
62
256
6
ByLayer
370
-1
48
1
60
0
100
AcDbLine
10
11.007547
20
2.202411
30
0
11
11.078374
21
2.029942
31
0
39
0
210
0
220
0
230
1
0
LINE
5
EF
100
AcDbEntity
8
1
62
256
6
ByLayer
370
-1
48
1
60
0
100
AcDbLine
10
11.603339
20
1.125909
30
0
11
12.194651
21
1.294638
31
0
39
0
210
0
220
0
230
1
0
LINE
5
F0
100
AcDbEntity
8
1
62
256
6
ByLayer
370
-1
48
1
60
0
100
AcDbLine
10
10.536578
20
8.454762
30
0
11
10.742537
21
8.33167
31
0
39
0
210
0
220
0
230
1
0
LINE
5
F1
100
AcDbEntity
8
1
62
256
6
ByLayer
370
-1
48
1
60
0
100
AcDbLine
10
14.342303
20
8.919031
30
0
11
14.32263
21
8.335166
31
0
39
0
210
0
220
0
230
1
0
LINE
5
F2
100
AcDbEntity
8
1
62
256
6
ByLayer
370
-1
48
1
60
0
100
AcDbLine
10
14.412456
20
8.330912
30
0
11
14.432251
21
8.91841
31
0
39
0
210
0
220
0
230
1
0
LINE
5
F3
100
AcDbEntity
8
1
62
256
6
ByLayer
370
-1
48
1
60
0
100
AcDbLine
10
11.166034
20
1.856793
30
0
11
11.561032
21
1.969505
31
0
39
0
210
0
220
0
230
1
0
LINE
5
F4
100
AcDbEntity
8
1
62
256
6
ByLayer
370
-1
48
1
60
0
100
AcDbLine
10
8.843639
20
5.749081
30
0
11
9.458068
21
6.109873
31
0
39
0
210
0
220
0
230
1
0
LINE
5
F5
100
AcDbEntity
8
1
62
256
6
ByLayer
370
-1
48
1
60
0
100
AcDbLine
10
11.166034
20
1.856793
30
0
11
11.491308
21
1.296645
31
0
39
0
210
0
220
0
230
1
0
LINE
5
F6
100
AcDbEntity
8
1
62
256
6
ByLayer
370
-1
48
1
60
0
100
AcDbLine
10
13.863873
20
-1.510248
30
0
11
13.645493
21
-1.349364
31
0
39
0
210
0
220
0
230
1
0
LINE
5
F7
100
AcDbEntity
8
1
62
256
6
ByLayer
370
-1
48
1
60
0
100
AcDbLine
10
14.872138
20
-2.579676
30
0
11
14.209991
21
-2.645224
31
0
39
0
210
0
220
0
230
1
0
LINE
5
F8
100
AcDbEntity
8
1
62
256
6
ByLayer
370
-1
48
1
60
0
100
AcDbLine
10
13.450296
20
-1.226424
30
0
11
12.78078
21
-0.834659
31
0
39
0
210
0
220
0
230
1
0
LINE
5
F9
100
AcDbEntity
8
1
62
256
6
ByLayer
370
-1
48
1
60
0
100
AcDbLine
10
9.653243
20
7.834772
30
0
11
9.702448
21
7.863665
31
0
39
0
210
0
220
0
230
1
0
LINE
5
FA
100
AcDbEntity
8
1
62
256
6
ByLayer
370
-1
48
1
60
0
100
AcDbLine
10
14.342303
20
8.919031
30
0
11
12.411897
21
8.919031
31
0
39
0
210
0
220
0
230
1
0
LINE
5
FB
100
AcDbEntity
8
1
62
256
6
ByLayer
370
-1
48
1
60
0
100
AcDbLine
10
15.7929
20
-2.09355
30
0
11
15.385234
21
-2.095704
31
0
39
0
210
0
220
0
230
1
0
LINE
5
FC
100
AcDbEntity
8
1
62
256
6
ByLayer
370
-1
48
1
60
0
100
AcDbLine
10
9.005392
20
7.707541
30
0
11
8.857808
21
8.006421
31
0
39
0
210
0
220
0
230
1
0
LINE
5
FD
100
AcDbEntity
8
1
62
256
6
ByLayer
370
-1
48
1
60
0
100
AcDbLine
10
15.774505
20
-2.364592
30
0
11
15.986814
21
-2.729522
31
0
39
0
210
0
220
0
230
1
0
LINE
5
FE
100
AcDbEntity
8
1
62
256
6
ByLayer
370
-1
48
1
60
0
100
AcDbLine
10
15.142881
20
-3.372435
30
0
11
15.061671
21
-3.420099
31
0
39
0
210
0
220
0
230
1
0
LINE
5
FF
100
AcDbEntity
8
1
62
256
6
ByLayer
370
-1
48
1
60
0
100
AcDbLine
10
8.691371
20
7.90869
30
0
11
8.838956
21
7.60981
31
0
39
0
210
0
220
0
230
1
0
LINE
5
100
100
AcDbEntity
8
1
62
256
6
ByLayer
370
-1
48
1
60
0
100
AcDbLine
10
20.840641
20
5.197653
30
0
11
20.84298
21
4.414123
31
0
39
0
210
0
220
0
230
1
0
LINE
5
101
100
AcDbEntity
8
1
62
256
6
ByLayer
370
-1
48
1
60
0
100
AcDbLine
10
8.831099
20
8.251001
30
0
11
9.527926
21
7.834537
31
0
39
0
210
0
220
0
230
1
0
LINE
5
102
100
AcDbEntity
8
1
62
256
6
ByLayer
370
-1
48
1
60
0
100
AcDbLine
10
7.927852
20
8.169975
30
0
11
7.949022
21
8.182406
31
0
39
0
210
0
220
0
230
1
0
LINE
5
103
100
AcDbEntity
8
1
62
256
6
ByLayer
370
-1
48
1
60
0
100
AcDbLine
10
8.638303
20
8.250639
30
0
11
7.949022
21
8.182406
31
0
39
0
210
0
220
0
230
1
0
LINE
5
104
100
AcDbEntity
8
1
62
256
6
ByLayer
370
-1
48
1
60
0
100
AcDbLine
10
9.838232
20
8.118046
30
0
11
9.171402
21
8.052035
31
0
39
0
210
0
220
0
230
1
0
LINE
5
105
100
AcDbEntity
8
1
62
256
6
ByLayer
370
-1
48
1
60
0
100
AcDbLine
10
15.36684
20
-2.366746
30
0
11
15.774505
21
-2.364592
31
0
39
0
210
0
220
0
230
1
0
LINE
5
106
100
AcDbEntity
8
1
62
256
6
ByLayer
370
-1
48
1
60
0
100
AcDbLine
10
20.425203
20
8.40083
30
0
11
20.210294
21
8.03741
31
0
39
0
210
0
220
0
230
1
0
LINE
5
107
100
AcDbEntity
8
1
62
256
6
ByLayer
370
-1
48
1
60
0
100
AcDbLine
10
18.338091
20
2.664142
30
0
11
18.766508
21
3.115976
31
0
39
0
210
0
220
0
230
1
0
LINE
5
108
100
AcDbEntity
8
1
62
256
6
ByLayer
370
-1
48
1
60
0
100
AcDbLine
10
18.748397
20
3.134106
30
0
11
18.319981
21
2.682273
31
0
39
0
210
0
220
0
230
1
0
LINE
5
109
100
AcDbEntity
8
1
62
256
6
ByLayer
370
-1
48
1
60
0
100
AcDbLine
10
19.496318
20
8.040947
30
0
11
20.776551
21
5.79022
31
0
39
0
210
0
220
0
230
1
0
LINE
5
10A
100
AcDbEntity
8
1
62
256
6
ByLayer
370
-1
48
1
60
0
100
AcDbLine
10
14.536439
20
8.916575
30
0
11
14.432251
21
8.91841
31
0
39
0
210
0
220
0
230
1
0
LINE
5
10B
100
AcDbEntity
8
1
62
256
6
ByLayer
370
-1
48
1
60
0
100
AcDbLine
10
18.546749
20
2.060913
30
0
11
19.08679
21
1.255683
31
0
39
0
210
0
220
0
230
1
0
LINE
5
10C
100
AcDbEntity
8
1
62
256
6
ByLayer
370
-1
48
1
60
0
100
AcDbLine
10
19.133668
20
1.34902
30
0
11
18.619904
21
2.115069
31
0
39
0
210
0
220
0
230
1
0
LINE
5
10D
100
AcDbEntity
8
1
62
256
6
ByLayer
370
-1
48
1
60
0
100
AcDbLine
10
16.374425
20
-1.862429
30
0
11
17.211898
21
-1.832734
31
0
39
0
210
0
220
0
230
1
0
LINE
5
10E
100
AcDbEntity
8
1
62
256
6
ByLayer
370
-1
48
1
60
0
100
AcDbLine
10
16.574399
20
-2.946702
30
0
11
15.284645
21
-3.712138
31
0
39
0
210
0
220
0
230
1
0
LINE
5
10F
100
AcDbEntity
8
1
62
256
6
ByLayer
370
-1
48
1
60
0
100
AcDbLine
10
9.53917
20
7.256655
30
0
11
9.329043
21
6.890436
31
0
39
0
210
0
220
0
230
1
0
LINE
5
110
100
AcDbEntity
8
1
62
256
6
ByLayer
370
-1
48
1
60
0
100
AcDbLine
10
17.769347
20
-1.073279
30
0
11
13.450296
21
-1.226424
31
0
39
0
210
0
220
0
230
1
0
LINE
5
111
100
AcDbEntity
8
1
62
256
6
ByLayer
370
-1
48
1
60
0
100
AcDbLine
10
15.064625
20
7.56049
30
0
11
14.463878
21
7.712447
31
0
39
0
210
0
220
0
230
1
0
LINE
5
112
100
AcDbEntity
8
1
62
256
6
ByLayer
370
-1
48
1
60
0
100
AcDbLine
10
12.313497
20
8.89224
30
0
11
11.558239
21
8.817475
31
0
39
0
210
0
220
0
230
1
0
LINE
5
113
100
AcDbEntity
8
1
62
256
6
ByLayer
370
-1
48
1
60
0
100
AcDbLine
10
11.953211
20
-0.83623
30
0
11
12.708469
21
-0.761465
31
0
39
0
210
0
220
0
230
1
0
LINE
5
114
100
AcDbEntity
8
1
62
256
6
ByLayer
370
-1
48
1
60
0
100
AcDbLine
10
13.645493
20
-1.349364
30
0
11
17.682105
21
-1.206234
31
0
39
0
210
0
220
0
230
1
0
LINE
5
115
100
AcDbEntity
8
1
62
256
6
ByLayer
370
-1
48
1
60
0
100
AcDbLine
10
8.817449
20
6.89065
30
0
11
8.577617
21
6.879536
31
0
39
0
210
0
220
0
230
1
0
LINE
5
116
100
AcDbEntity
8
1
62
256
6
ByLayer
370
-1
48
1
60
0
100
AcDbLine
10
17.398016
20
-1.549098
30
0
11
16.391342
21
-1.584793
31
0
39
0
210
0
220
0
230
1
0
LINE
5
117
100
AcDbEntity
8
1
62
256
6
ByLayer
370
-1
48
1
60
0
100
AcDbLine
10
20.644328
20
8.269259
30
0
11
21.273847
21
7.908359
31
0
39
0
210
0
220
0
230
1
0
LINE
5
118
100
AcDbEntity
8
1
62
256
6
ByLayer
370
-1
48
1
60
0
100
AcDbLine
10
9.628763
20
4.625952
30
0
11
10.960109
21
2.29699
31
0
39
0
210
0
220
0
230
1
0
LINE
5
119
100
AcDbEntity
8
1
62
256
6
ByLayer
370
-1
48
1
60
0
100
AcDbLine
10
13.169744
20
-1.578962
30
0
11
12.025522
21
-0.909424
31
0
39
0
210
0
220
0
230
1
0
LINE
5
11A
100
AcDbEntity
8
1
62
256
6
ByLayer
370
-1
48
1
60
0
100
AcDbLine
10
20.840451
20
8.60591
30
0
11
21.784573
21
8.06465
31
0
39
0
210
0
220
0
230
1
0
LINE
5
11B
100
AcDbEntity
8
1
62
256
6
ByLayer
370
-1
48
1
60
0
100
AcDbLine
10
11.491308
20
1.296645
30
0
11
12.705685
21
1.643164
31
0
39
0
210
0
220
0
230
1
0
LINE
5
11C
100
AcDbEntity
8
1
62
256
6
ByLayer
370
-1
48
1
60
0
100
AcDbLine
10
8.921362
20
6.893879
30
0
11
8.942869
21
7.613039
31
0
39
0
210
0
220
0
230
1
0
LINE
5
11D
100
AcDbEntity
8
1
62
256
6
ByLayer
370
-1
48
1
60
0
100
AcDbLine
10
9.458068
20
6.109873
30
0
11
9.06686
21
5.358595
31
0
39
0
210
0
220
0
230
1
0
LINE
5
11E
100
AcDbEntity
8
1
62
256
6
ByLayer
370
-1
48
1
60
0
100
AcDbLine
10
18.539147
20
8.919031
30
0
11
20.840641
21
5.197653
31
0
39
0
210
0
220
0
230
1
0
LINE
5
11F
100
AcDbEntity
8
1
62
256
6
ByLayer
370
-1
48
1
60
0
100
AcDbLine
10
9.431407
20
6.158072
30
0
11
8.816978
21
5.797281
31
0
39
0
210
0
220
0
230
1
0
LINE
5
120
100
AcDbEntity
8
1
62
256
6
ByLayer
370
-1
48
1
60
0
100
AcDbLine
10
20.827168
20
5.439746
30
0
11
18.676177
21
8.917769
31
0
39
0
210
0
220
0
230
1
0
LINE
5
121
100
AcDbEntity
8
1
62
256
6
ByLayer
370
-1
48
1
60
0
100
AcDbLine
10
20.703218
20
7.446482
30
0
11
21.330571
21
7.811133
31
0
39
0
210
0
220
0
230
1
0
LINE
5
122
100
AcDbEntity
8
1
62
256
6
ByLayer
370
-1
48
1
60
0
100
AcDbLine
10
11.112142
20
8.216651
30
0
11
11.426355
21
8.377536
31
0
39
0
210
0
220
0
230
1
0
LINE
5
123
100
AcDbEntity
8
1
62
256
6
ByLayer
370
-1
48
1
60
0
100
AcDbLine
10
8.493049
20
6.403409
30
0
11
8.816978
21
5.797281
31
0
39
0
210
0
220
0
230
1
0
LINE
5
124
100
AcDbEntity
8
1
62
256
6
ByLayer
370
-1
48
1
60
0
100
AcDbLine
10
14.544958
20
-2.561341
30
0
11
13.969921
21
-2.22486
31
0
39
0
210
0
220
0
230
1
0
LINE
5
125
100
AcDbEntity
8
1
62
256
6
ByLayer
370
-1
48
1
60
0
100
AcDbLine
10
16.21382
20
-3.043971
30
0
11
15.32269
21
-3.572833
31
0
39
0
210
0
220
0
230
1
0
LINE
5
126
100
AcDbEntity
8
1
62
256
6
ByLayer
370
-1
48
1
60
0
100
AcDbLine
10
9.06686
20
5.358595
30
0
11
8.843639
21
5.749081
31
0
39
0
210
0
220
0
230
1
0
LINE
5
127
100
AcDbEntity
8
1
62
256
6
ByLayer
370
-1
48
1
60
0
100
AcDbLine
10
16.991009
20
-2.223221
30
0
11
16.374425
21
-1.862429
31
0
39
0
210
0
220
0
230
1
0
LINE
5
128
100
AcDbEntity
8
1
62
256
6
ByLayer
370
-1
48
1
60
0
100
AcDbLine
10
15.39263
20
-3.082155
30
0
11
15.36684
21
-2.366746
31
0
39
0
210
0
220
0
230
1
0
LINE
5
129
100
AcDbEntity
8
1
62
256
6
ByLayer
370
-1
48
1
60
0
100
AcDbLine
10
14.938448
20
-2.691183
30
0
11
14.274334
21
-2.756926
31
0
39
0
210
0
220
0
230
1
0
LINE
5
12A
100
AcDbEntity
8
1
62
256
6
ByLayer
370
-1
48
1
60
0
100
AcDbLine
10
15.268496
20
8.523523
30
0
11
15.064625
21
7.56049
31
0
39
0
210
0
220
0
230
1
0
LINE
5
12B
100
AcDbEntity
8
1
62
256
6
ByLayer
370
-1
48
1
60
0
100
AcDbLine
10
9.764283
20
7.576343
30
0
11
9.601694
21
7.351156
31
0
39
0
210
0
220
0
230
1
0
LINE
5
12C
100
AcDbEntity
8
1
62
256
6
ByLayer
370
-1
48
1
60
0
100
AcDbLine
10
20.844611
20
7.212295
30
0
11
20.703218
21
7.446482
31
0
39
0
210
0
220
0
230
1
0
LINE
5
12D
100
AcDbEntity
8
1
62
256
6
ByLayer
370
-1
48
1
60
0
100
AcDbLine
10
14.968585
20
-3.527197
30
0
11
14.28233
21
-3.595131
31
0
39
0
210
0
220
0
230
1
0
LINE
5
12E
100
AcDbEntity
8
1
62
256
6
ByLayer
370
-1
48
1
60
0
100
AcDbLine
10
12.194651
20
1.294638
30
0
11
11.683564
21
1.019836
31
0
39
0
210
0
220
0
230
1
0
LINE
5
12F
100
AcDbEntity
8
1
62
256
6
ByLayer
370
-1
48
1
60
0
100
AcDbLine
10
9.767264
20
7.964136
30
0
11
9.773417
21
8.017576
31
0
39
0
210
0
220
0
230
1
0
LINE
5
130
100
AcDbEntity
8
1
62
256
6
ByLayer
370
-1
48
1
60
0
100
AcDbLine
10
15.061671
20
-3.420099
30
0
11
15.022994
21
-2.347163
31
0
39
0
210
0
220
0
230
1
0
LINE
5
131
100
AcDbEntity
8
1
62
256
6
ByLayer
370
-1
48
1
60
0
100
AcDbLine
10
8.857808
20
8.006421
30
0
11
8.869979
21
8.110831
31
0
39
0
210
0
220
0
230
1
0
LINE
5
132
100
AcDbEntity
8
1
62
256
6
ByLayer
370
-1
48
1
60
0
100
AcDbLine
10
16.510149
20
4.527426
30
0
11
16.766281
21
4.554887
31
0
39
0
210
0
220
0
230
1
0
LINE
5
133
100
AcDbEntity
8
1
62
256
6
ByLayer
370
-1
48
1
60
0
100
AcDbLine
10
15.46374
20
5.610582
30
0
11
15.459724
21
5.590585
31
0
39
0
210
0
220
0
230
1
0
LINE
5
134
100
AcDbEntity
8
1
62
256
6
ByLayer
370
-1
48
1
60
0
100
AcDbLine
10
16.531782
20
3.743084
30
0
11
16.789958
21
3.770763
31
0
39
0
210
0
220
0
230
1
0
LINE
5
135
100
AcDbEntity
8
1
62
256
6
ByLayer
370
-1
48
1
60
0
100
AcDbLine
10
16.512663
20
3.749494
30
0
11
16.768796
21
3.776955
31
0
39
0
210
0
220
0
230
1
0
LINE
5
136
100
AcDbEntity
8
1
62
256
6
ByLayer
370
-1
48
1
60
0
100
AcDbLine
10
16.529225
20
4.533837
30
0
11
16.787402
21
4.561516
31
0
39
0
210
0
220
0
230
1
0
LINE
5
137
100
AcDbEntity
8
1
62
256
6
ByLayer
370
-1
48
1
60
0
100
AcDbLine
10
16.529225
20
4.533837
30
0
11
16.510149
21
4.527426
31
0
39
0
210
0
220
0
230
1
0
LINE
5
138
100
AcDbEntity
8
1
62
256
6
ByLayer
370
-1
48
1
60
0
100
AcDbLine
10
15.46374
20
5.610582
30
0
11
15.721916
21
5.638262
31
0
39
0
210
0
220
0
230
1
0
LINE
5
139
100
AcDbEntity
8
1
62
256
6
ByLayer
370
-1
48
1
60
0
100
AcDbLine
10
16.512663
20
3.749494
30
0
11
16.531782
21
3.743084
31
0
39
0
210
0
220
0
230
1
0
LINE
5
13A
100
AcDbEntity
8
1
62
256
6
ByLayer
370
-1
48
1
60
0
100
AcDbLine
10
15.459724
20
5.590585
30
0
11
15.715856
21
5.618046
31
0
39
0
210
0
220
0
230
1
0
LINE
5
13B
100
AcDbEntity
8
1
62
256
6
ByLayer
370
-1
48
1
60
0
100
AcDbLine
10
15.469113
20
2.686335
30
0
11
15.725246
21
2.713795
31
0
39
0
210
0
220
0
230
1
0
LINE
5
13C
100
AcDbEntity
8
1
62
256
6
ByLayer
370
-1
48
1
60
0
100
AcDbLine
10
15.473258
20
2.666338
30
0
11
15.731435
21
2.694018
31
0
39
0
210
0
220
0
230
1
0
LINE
5
13D
100
AcDbEntity
8
1
62
256
6
ByLayer
370
-1
48
1
60
0
100
AcDbLine
10
15.469113
20
2.686335
30
0
11
15.473258
21
2.666338
31
0
39
0
210
0
220
0
230
1
0
LINE
5
13E
100
AcDbEntity
8
SK1
62
256
6
ByLayer
370
-1
48
1
60
0
100
AcDbLine
10
0
20
7.9375
30
0
11
-77.994199
21
7.9375
31
0
39
0
210
0
220
0
230
1
0
LINE
5
140
100
AcDbEntity
8
1
62
256
6
ByLayer
370
-1
48
1
60
0
100
AcDbLine
10
11.7382
20
0.935854
30
0
11
12.246126
21
1.208957
31
0
39
0
210
0
220
0
230
1
0
LINE
5
141
100
AcDbEntity
8
1
62
256
6
ByLayer
370
-1
48
1
60
0
100
AcDbLine
10
16.227706
20
-2.588673
30
0
11
16.015397
21
-2.223743
31
0
39
0
210
0
220
0
230
1
0
LINE
5
142
100
AcDbEntity
8
1
62
256
6
ByLayer
370
-1
48
1
60
0
100
AcDbLine
10
15.288695
20
-3.077915
30
0
11
15.142881
21
-3.372435
31
0
39
0
210
0
220
0
230
1
0
LINE
5
143
100
AcDbEntity
8
1
62
256
6
ByLayer
370
-1
48
1
60
0
100
AcDbLine
10
14.402563
20
-3.77941
30
0
11
14.381319
21
-3.76698
31
0
39
0
210
0
220
0
230
1
0
LINE
5
144
100
AcDbEntity
8
1
62
256
6
ByLayer
370
-1
48
1
60
0
100
AcDbLine
10
20.429419
20
7.905838
30
0
11
20.644328
21
8.269259
31
0
39
0
210
0
220
0
230
1
0
LINE
5
145
100
AcDbEntity
8
1
62
256
6
ByLayer
370
-1
48
1
60
0
100
AcDbLine
10
12.78078
20
-0.834659
30
0
11
12.025522
21
-0.909424
31
0
39
0
210
0
220
0
230
1
0
LINE
5
146
100
AcDbEntity
8
1
62
256
6
ByLayer
370
-1
48
1
60
0
100
AcDbLine
10
12.533354
20
2.246954
30
0
11
12.705685
21
1.643164
31
0
39
0
210
0
220
0
230
1
0
LINE
5
147
100
AcDbEntity
8
SK1
62
256
6
ByLayer
370
-1
48
1
60
0
100
AcDbLine
10
-77.994199
20
-7.9375
30
0
11
0
21
-7.9375
31
0
39
0
210
0
220
0
230
1
0
LINE
5
148
100
AcDbEntity
8
SK1
62
256
6
ByLayer
370
-1
48
1
60
0
100
AcDbLine
10
0
20
7.9375
30
0
11
0
21
-7.9375
31
0
39
0
210
0
220
0
230
1
0
LINE
5
149
100
AcDbEntity
8
SK1
62
256
6
ByLayer
370
-1
48
1
60
0
100
AcDbLine
10
-77.994199
20
7.9375
30
0
11
-77.994199
21
-7.9375
31
0
39
0
210
0
220
0
230
1
0
LINE
5
14A
100
AcDbEntity
8
2
62
256
6
ByLayer
370
-1
48
1
60
0
100
AcDbLine
10
0
20
18.6625
30
0
11
23.355801
21
18.6625
31
0
39
0
210
0
220
0
230
1
0
LINE
5
14B
100
AcDbEntity
8
2
62
256
6
ByLayer
370
-1
48
1
60
0
100
AcDbLine
10
23.355801
20
16.5875
30
0
11
23.355801
21
21.6625
31
0
39
0
210
0
220
0
230
1
0
LINE
5
14C
100
AcDbEntity
8
2
62
256
6
ByLayer
370
-1
48
1
60
0
100
AcDbLine
10
0
20
9.4375
30
0
11
0
21
21.6625
31
0
39
0
210
0
220
0
230
1
0
LINE
5
14D
100
AcDbEntity
8
2
62
256
6
ByLayer
370
-1
48
1
60
0
100
AcDbLine
10
23.355801
20
18.6625
30
0
11
20.355803
21
18.267543
31
0
39
0
210
0
220
0
230
1
0
LINE
5
14E
100
AcDbEntity
8
2
62
256
6
ByLayer
370
-1
48
1
60
0
100
AcDbLine
10
23.355801
20
18.6625
30
0
11
20.3558
21
19.057457
31
0
39
0
210
0
220
0
230
1
0
LINE
5
14F
100
AcDbEntity
8
2
62
256
6
ByLayer
370
-1
48
1
60
0
100
AcDbLine
10
20.355803
20
18.267543
30
0
11
20.3558
21
19.057457
31
0
39
0
210
0
220
0
230
1
0
LINE
5
150
100
AcDbEntity
8
2
62
256
6
ByLayer
370
-1
48
1
60
0
100
AcDbLine
10
0
20
18.6625
30
0
11
2.999999
21
19.057457
31
0
39
0
210
0
220
0
230
1
0
LINE
5
151
100
AcDbEntity
8
2
62
256
6
ByLayer
370
-1
48
1
60
0
100
AcDbLine
10
0
20
18.6625
30
0
11
3.000001
21
18.267543
31
0
39
0
210
0
220
0
230
1
0
LINE
5
152
100
AcDbEntity
8
2
62
256
6
ByLayer
370
-1
48
1
60
0
100
AcDbLine
10
2.999999
20
19.057457
30
0
11
3.000001
21
18.267543
31
0
39
0
210
0
220
0
230
1
0
LINE
5
153
100
AcDbEntity
8
SK2
62
256
6
ByLayer
370
-1
48
1
60
0
100
AcDbLine
10
23.355801
20
28.6625
30
0
11
-77.994199
21
28.6625
31
0
39
0
210
0
220
0
230
1
0
LINE
5
155
100
AcDbEntity
8
SK2
62
256
6
ByLayer
370
-1
48
1
60
0
100
AcDbLine
10
-77.994199
20
9.4375
30
0
11
-77.994199
21
31.6625
31
0
39
0
210
0
220
0
230
1
0
LINE
5
156
100
AcDbEntity
8
SK2
62
256
6
ByLayer
370
-1
48
1
60
0
100
AcDbLine
10
23.355801
20
16.5875
30
0
11
23.355801
21
31.6625
31
0
39
0
210
0
220
0
230
1
0
LINE
5
157
100
AcDbEntity
8
SK2
62
256
6
ByLayer
370
-1
48
1
60
0
100
AcDbLine
10
-77.994199
20
28.6625
30
0
11
-74.9942
21
29.057457
31
0
39
0
210
0
220
0
230
1
0
LINE
5
158
100
AcDbEntity
8
SK2
62
256
6
ByLayer
370
-1
48
1
60
0
100
AcDbLine
10
-77.994199
20
28.6625
30
0
11
-74.994197
21
28.267543
31
0
39
0
210
0
220
0
230
1
0
LINE
5
159
100
AcDbEntity
8
SK2
62
256
6
ByLayer
370
-1
48
1
60
0
100
AcDbLine
10
-74.9942
20
29.057457
30
0
11
-74.994197
21
28.267543
31
0
39
0
210
0
220
0
230
1
0
LINE
5
15A
100
AcDbEntity
8
SK2
62
256
6
ByLayer
370
-1
48
1
60
0
100
AcDbLine
10
23.355801
20
28.6625
30
0
11
20.355803
21
28.267543
31
0
39
0
210
0
220
0
230
1
0
LINE
5
15B
100
AcDbEntity
8
SK2
62
256
6
ByLayer
370
-1
48
1
60
0
100
AcDbLine
10
23.355801
20
28.6625
30
0
11
20.3558
21
29.057457
31
0
39
0
210
0
220
0
230
1
0
LINE
5
15C
100
AcDbEntity
8
SK2
62
256
6
ByLayer
370
-1
48
1
60
0
100
AcDbLine
10
20.355803
20
28.267543
30
0
11
20.3558
21
29.057457
31
0
39
0
210
0
220
0
230
1
0
LINE
5
15D
100
AcDbEntity
8
2
62
256
6
ByLayer
370
-1
48
1
60
0
100
AcDbLine
10
37.605801
20
8.9125
30
0
11
37.605801
21
-7.9375
31
0
39
0
210
0
220
0
230
1
0
LINE
5
15E
100
AcDbEntity
8
2
62
256
6
ByLayer
370
-1
48
1
60
0
100
AcDbLine
10
1.5
20
-7.9375
30
0
11
40.605801
21
-7.9375
31
0
39
0
210
0
220
0
230
1
0
LINE
5
15F
100
AcDbEntity
8
2
62
256
6
ByLayer
370
-1
48
1
60
0
100
AcDbLine
10
31.030801
20
8.9125
30
0
11
40.605801
21
8.9125
31
0
39
0
210
0
220
0
230
1
0
LINE
5
160
100
AcDbEntity
8
2
62
256
6
ByLayer
370
-1
48
1
60
0
100
AcDbLine
10
37.605801
20
-7.9375
30
0
11
37.210844
21
-4.937501
31
0
39
0
210
0
220
0
230
1
0
LINE
5
161
100
AcDbEntity
8
2
62
256
6
ByLayer
370
-1
48
1
60
0
100
AcDbLine
10
37.605801
20
-7.9375
30
0
11
38.000759
21
-4.937499
31
0
39
0
210
0
220
0
230
1
0
LINE
5
162
100
AcDbEntity
8
2
62
256
6
ByLayer
370
-1
48
1
60
0
100
AcDbLine
10
37.210844
20
-4.937501
30
0
11
38.000759
21
-4.937499
31
0
39
0
210
0
220
0
230
1
0
LINE
5
163
100
AcDbEntity
8
2
62
256
6
ByLayer
370
-1
48
1
60
0
100
AcDbLine
10
37.605801
20
8.9125
30
0
11
38.000759
21
5.912501
31
0
39
0
210
0
220
0
230
1
0
LINE
5
164
100
AcDbEntity
8
2
62
256
6
ByLayer
370
-1
48
1
60
0
100
AcDbLine
10
37.605801
20
8.9125
30
0
11
37.210844
21
5.912499
31
0
39
0
210
0
220
0
230
1
0
LINE
5
165
100
AcDbEntity
8
2
62
256
6
ByLayer
370
-1
48
1
60
0
100
AcDbLine
10
38.000759
20
5.912501
30
0
11
37.210844
21
5.912499
31
0
39
0
210
0
220
0
230
1
0
MTEXT
5
27B
100
AcDbEntity
8
SK6
62
256
6
ByLayer
370
-1
48
1
60
0
100
AcDbMText
10
-50.621132
20
-2.276904
30
0
210
0
220
0
230
1
1
\W00.701;\fsimplex.shx,bigfont.shx;266RFA-1616-16 
40
3.5
41
0
44
1.084337
50
0
71
7
72
5
7
DEFAULT
0
MTEXT
5
2A1
100
AcDbEntity
8
2
62
256
6
ByLayer
370
-1
48
1
60
0
100
AcDbMText
10
10.173953
20
19.7875
30
0
210
0
220
0
230
1
1
\W00.656;\fsimplex.shx,bigfont.shx;23 
40
4.5
41
0
44
1.084337
50
0
71
7
72
5
7
DEFAULT
0
MTEXT
5
2A2
100
AcDbEntity
8
SK2
62
256
6
ByLayer
370
-1
48
1
60
0
100
AcDbMText
10
-29.35012
20
29.7875
30
0
210
0
220
0
230
1
1
\W00.573;\fsimplex.shx,bigfont.shx;101 
40
4.5
41
0
44
1.084337
50
0
71
7
72
5
7
DEFAULT
0
MTEXT
5
2A3
100
AcDbEntity
8
2
62
256
6
ByLayer
370
-1
48
1
60
0
100
AcDbMText
10
36.480801
20
-0.453947
30
0
210
0
220
0
230
1
1
\W00.514;\fsimplex.shx,bigfont.shx;17 
40
4.5
41
0
44
1.084337
50
89.9999999999999
71
7
72
5
7
DEFAULT
0
DIMENSION
5
2B1
100
AcDbEntity
8
SK2
62
256
6
ByLayer
370
-3
48
1
60
0
100
AcDbDimension
2
DimnDraft3D1
10
-87.744199
20
-7.9375
30
0
11
-87.744199
21
-2.066447
31
0
70
32
71
5
72
1
41
1
210
0
220
0
230
1
3
Standard
100
AcDbAlignedDimension
13
-79.494199
23
7.9375
33
0
14
-79.494199
24
-7.9375
34
0
50
90
100
AcDbRotatedDimension
1001
ACAD
1000
DSTYLE
1002
{
1070
    74
1070
     0
1070
   279
1070
     0
1070
   172
1070
     1
1070
   173
1070
     1
1070
   340
1005
27C
1070
   271
1070
     3
1070
   272
1070
     3
1070
    77
1070
     1
1070
    73
1070
     0
1070
   171
1070
     4
1070
   274
1070
     4
1070
   177
1070
     2
1070
   176
1070
     2
1070
   178
1070
     7
1070
    78
1070
     8
1070
    41
1041
3.0
1070
   147
1041
2.25
1070
    42
1041
1.5
1070
    44
1041
3.0
1070
   140
1041
4.5
1070
   343
1005
2B2
1070
   344
1005
2B2
1002
}
0
ENDSEC
0
SECTION
2
OBJECTS
0
DICTIONARY
5
2e8
330
0
100
AcDbDictionary
280
0
281
1
3
ACAD_GROUP
350
2e9
3
ACAD_MLINESTYLE
350
2ea
0
DICTIONARY
5
2e9
330
0
100
AcDbDictionary
280
0
281
1
0
DICTIONARY
5
2ea
330
0
100
AcDbDictionary
280
0
281
1
3
Standard
350
18
0
MLINESTYLE
5
18
330
2ea
100
AcDbMlineStyle
2
Standard
70
0
3

62
256
51
90
52
90
71
2
49
-0.5
62
256
6
ByLayer
49
0.5
62
256
6
ByLayer
0
RASTERVARIABLES
5
2d7
330

100
AcDbRasterVariables
90
0
70
1
71
1
72
1
0
ENDSEC
0
EOF
