0
SECTION
2
HEADER
9
$ACADVER
1
AC1015
9
$DWGCODEPAGE
3
ANSI_1252
9
$HANDSEED
5
2fa
9
$ANGBASE
50
0
9
$ANGDIR
70
0
9
$ATTMODE
70
1
9
$AUNITS
70
0
9
$AUPREC
70
0
9
$CECOLOR
62
256
9
$CELTSCALE
40
1
9
$CELTYPE
6
ByLayer
9
$CELWEIGHT
370
-1
9
$CLAYER
8
0
9
$CMLJUST
70
0
9
$CMLSCALE
40
1
9
$CMLSTYLE
2
Standard
9
$DIMSTYLE
2
Standard
9
$TEXTSIZE
40
0.2
9
$TEXTSTYLE
7
Standard
9
$LUNITS
70
2
9
$LUPREC
70
4
9
$EXTNAMES
290
1
9
$INSUNITS
70
4
9
$LTSCALE
40
1
9
$LWDISPLAY
290
0
9
$PDMODE
70
0
9
$PDSIZE
40
0
9
$PLINEGEN
70
0
0
ENDSEC
0
SECTION
2
CLASSES
0
CLASS
1
RASTERVARIABLES
2
AcDbRasterVariables
3
ISM
90
0
280
0
281
0
0
ENDSEC
0
SECTION
2
TABLES
0
TABLE
2
VPORT
5
2f0
100
AcDbSymbolTable
0
VPORT
5
1
100
AcDbSymbolTableRecord
100
AcDbViewportTableRecord
2
*Active
70
0
10
0
20
0
11
1
21
1
12
-1
22
1
13
0
23
0
14
0.5
24
0.5
15
10
25
10
16
0
26
0
36
1
17
0
27
0
37
0
0
ENDTAB
0
TABLE
2
LTYPE
5
2f1
100
AcDbSymbolTable
0
LTYPE
5
14
100
AcDbSymbolTableRecord
100
AcDbLinetypeTableRecord
70
0
2
ByBlock
3

72
65
73
0
40
0
0
LTYPE
5
15
100
AcDbSymbolTableRecord
100
AcDbLinetypeTableRecord
70
0
2
ByLayer
3

72
65
73
0
40
0
0
LTYPE
5
16
100
AcDbSymbolTableRecord
100
AcDbLinetypeTableRecord
70
0
2
CONTINUOUS
3
Solid line
72
65
73
0
40
0
0
LTYPE
5
3B
100
AcDbSymbolTableRecord
100
AcDbLinetypeTableRecord
70
0
2
DASHED
3
__ __ __ __ __ __ __ __ __
72
65
73
2
40
25.72
49
12.86
74
0
49
-12.86
74
0
0
LTYPE
5
3C
100
AcDbSymbolTableRecord
100
AcDbLinetypeTableRecord
70
0
2
HIDDEN
3
_ _ _ _ _ _ _ _ _ _ _ _ _ _ _
72
65
73
2
40
0.5
49
0.25
74
0
49
-0.25
74
0
0
LTYPE
5
3D
100
AcDbSymbolTableRecord
100
AcDbLinetypeTableRecord
70
0
2
PHANTOM
3
____ _ _ ____ _ _ _____ _ _ ____
72
65
73
6
40
50.5
49
18
74
0
49
-6.5
74
0
49
6.5
74
0
49
-6.5
74
0
49
6.5
74
0
49
-6.5
74
0
0
LTYPE
5
3E
100
AcDbSymbolTableRecord
100
AcDbLinetypeTableRecord
70
0
2
CENTER
3
____ _ ____ _ ____ _ ____
72
65
73
4
40
47.5
49
22
74
0
49
-8.5
74
0
49
8.5
74
0
49
-8.5
74
0
0
LTYPE
5
3F
100
AcDbSymbolTableRecord
100
AcDbLinetypeTableRecord
70
0
2
DOT
3
.........................
72
65
73
2
40
10
49
0
74
0
49
-10
74
0
0
LTYPE
5
40
100
AcDbSymbolTableRecord
100
AcDbLinetypeTableRecord
70
0
2
DASHDOT
3
_._._._._._._._._._._._._._._._.
72
65
73
4
40
70
49
31
74
0
49
-13
74
0
49
13
74
0
49
-13
74
0
0
ENDTAB
0
TABLE
2
LAYER
5
2f2
100
AcDbSymbolTable
0
LAYER
5
10
100
AcDbSymbolTableRecord
100
AcDbLayerTableRecord
2
0
70
0
62
7
6
CONTINUOUS
290
1
370
-3
390
0
0
LAYER
5
42
100
AcDbSymbolTableRecord
100
AcDbLayerTableRecord
2
80
70
0
62
-6
6
CONTINUOUS
290
1
370
-3
390
0
0
LAYER
5
44
100
AcDbSymbolTableRecord
100
AcDbLayerTableRecord
2
81
70
0
62
-3
6
CONTINUOUS
290
1
370
-3
390
0
0
LAYER
5
46
100
AcDbSymbolTableRecord
100
AcDbLayerTableRecord
2
2
70
0
62
7
6
CONTINUOUS
290
1
370
-3
390
0
0
LAYER
5
4C
100
AcDbSymbolTableRecord
100
AcDbLayerTableRecord
2
1
70
0
62
4
6
CONTINUOUS
290
1
370
-3
390
0
0
LAYER
5
2dc
100
AcDbSymbolTableRecord
100
AcDbLayerTableRecord
2
SK1
70
0
62
4
6
CONTINUOUS
290
1
370
-3
390
0
0
LAYER
5
2dd
100
AcDbSymbolTableRecord
100
AcDbLayerTableRecord
2
SK4
70
0
62
2
6
CENTER
290
1
370
-3
390
0
0
LAYER
5
2de
100
AcDbSymbolTableRecord
100
AcDbLayerTableRecord
2
SK6
70
0
62
5
6
CONTINUOUS
290
1
370
-3
390
0
0
LAYER
5
2df
100
AcDbSymbolTableRecord
100
AcDbLayerTableRecord
2
SK2
70
0
62
7
6
CONTINUOUS
290
1
370
-3
390
0
0
ENDTAB
0
TABLE
2
STYLE
5
2f3
100
AcDbSymbolTable
0
STYLE
5
11
100
AcDbSymbolTableRecord
100
AcDbTextStyleTableRecord
2
Standard
3
txt
70
0
71
0
40
0
41
1
42
0
50
0
0
STYLE
5
258
100
AcDbSymbolTableRecord
100
AcDbTextStyleTableRecord
2
DEFAULT
3
simplex.shx
70
0
71
0
40
0
41
1
42
0
50
0
0
STYLE
5
27B
100
AcDbSymbolTableRecord
100
AcDbTextStyleTableRecord
2
DWGDirectTextStyle
3
SIMPLEX
70
0
71
0
40
0
41
1
42
0
50
0
0
ENDTAB
0
TABLE
2
DIMSTYLE
5
2f4
100
AcDbSymbolTable
100
AcDbDimStyleTable
0
DIMSTYLE
105
27
100
AcDbSymbolTableRecord
100
AcDbDimStyleTableRecord
2
Standard
70
0
3
<>
41
0.18
42
0.0625
44
0.18
140
0.18
147
0.09
73
0
74
0
77
1
271
2
275
0
278
52
280
0
340
11
0
ENDTAB
0
TABLE
2
VIEW
5
2f5
100
AcDbSymbolTable
0
ENDTAB
0
TABLE
2
UCS
5
2f6
100
AcDbSymbolTable
0
ENDTAB
0
TABLE
2
APPID
5
2f7
100
AcDbSymbolTable
0
APPID
5
12
100
AcDbSymbolTableRecord
100
AcDbRegAppTableRecord
2
ACAD
70
0
0
ENDTAB
0
TABLE
2
BLOCK_RECORD
5
2f8
100
AcDbSymbolTable
0
BLOCK_RECORD
5
1F
100
AcDbSymbolTableRecord
100
AcDbBlockTableRecord
2
*Model_Space
340
0
70
0
0
BLOCK_RECORD
5
1B
100
AcDbSymbolTableRecord
100
AcDbBlockTableRecord
2
*Paper_Space
340
0
70
0
0
BLOCK_RECORD
5
23
100
AcDbSymbolTableRecord
100
AcDbBlockTableRecord
2
*Paper_Space0
340
0
70
0
0
BLOCK_RECORD
5
27D
100
AcDbSymbolTableRecord
100
AcDbBlockTableRecord
2
DimnDraft3D1
340
0
70
0
0
BLOCK_RECORD
5
28B
100
AcDbSymbolTableRecord
100
AcDbBlockTableRecord
2
_CLOSED
340
0
70
0
0
BLOCK_RECORD
5
292
100
AcDbSymbolTableRecord
100
AcDbBlockTableRecord
2
DimnDraft3D2
340
0
70
0
0
BLOCK_RECORD
5
2A1
100
AcDbSymbolTableRecord
100
AcDbBlockTableRecord
2
DimnDraft3D3
340
0
70
0
0
BLOCK_RECORD
5
2AF
100
AcDbSymbolTableRecord
100
AcDbBlockTableRecord
2
DimnDraft3D4
340
0
70
0
0
ENDTAB
0
ENDSEC
0
SECTION
2
BLOCKS
0
BLOCK
5
20
100
AcDbEntity
8
0
100
AcDbBlockBegin
2
*Model_Space
70
0
10
0
20
0
30
0
3
*Model_Space
0
ENDBLK
5
21
100
AcDbEntity
8
0
100
AcDbBlockEnd
0
BLOCK
5
1C
100
AcDbEntity
8
0
100
AcDbBlockBegin
2
*Paper_Space
70
0
10
0
20
0
30
0
3
*Paper_Space
0
ENDBLK
5
1D
100
AcDbEntity
8
0
100
AcDbBlockEnd
0
BLOCK
5
24
100
AcDbEntity
8
0
100
AcDbBlockBegin
2
*Paper_Space0
70
0
10
0
20
0
30
0
3
*Paper_Space0
0
ENDBLK
5
25
100
AcDbEntity
8
0
100
AcDbBlockEnd
0
BLOCK
5
288
100
AcDbEntity
8
0
100
AcDbBlockBegin
2
DimnDraft3D1
70
0
10
0
20
0
30
0
3
DimnDraft3D1
0
MTEXT
5
27E
100
AcDbEntity
8
2
62
256
6
ByLayer
370
-1
48
1
60
0
100
AcDbMText
10
134.557825
20
-40
30
0
210
0
220
0
230
1
1
\W01.000;\fsimplex.shx,bigfont.shx;47 
40
4.5
41
0
44
1.084337
50
0
71
7
72
5
7
DEFAULT
0
LINE
5
27F
100
AcDbEntity
8
2
62
256
6
ByLayer
370
-1
48
1
60
0
100
AcDbLine
10
112.683228
20
-28.375
30
0
11
112.683228
21
-44.125
31
0
39
0
210
0
220
0
230
1
0
LINE
5
280
100
AcDbEntity
8
2
62
256
6
ByLayer
370
-1
48
1
60
0
100
AcDbLine
10
159.914
20
-28.375
30
0
11
159.914
21
-44.125
31
0
39
0
210
0
220
0
230
1
0
LINE
5
281
100
AcDbEntity
8
2
62
256
6
ByLayer
370
-1
48
1
60
0
100
AcDbLine
10
112.683228
20
-41.125
30
0
11
159.914
21
-41.125
31
0
39
0
210
0
220
0
230
1
0
LINE
5
282
100
AcDbEntity
8
2
62
256
6
ByLayer
370
-1
48
1
60
0
100
AcDbLine
10
112.683228
20
-41.125
30
0
11
115.683227
21
-40.730043
31
0
39
0
210
0
220
0
230
1
0
LINE
5
283
100
AcDbEntity
8
2
62
256
6
ByLayer
370
-1
48
1
60
0
100
AcDbLine
10
112.683228
20
-41.125
30
0
11
115.68323
21
-41.519957
31
0
39
0
210
0
220
0
230
1
0
LINE
5
284
100
AcDbEntity
8
2
62
256
6
ByLayer
370
-1
48
1
60
0
100
AcDbLine
10
115.683227
20
-40.730043
30
0
11
115.68323
21
-41.519957
31
0
39
0
210
0
220
0
230
1
0
LINE
5
285
100
AcDbEntity
8
2
62
256
6
ByLayer
370
-1
48
1
60
0
100
AcDbLine
10
159.914
20
-41.125
30
0
11
156.914001
21
-41.519957
31
0
39
0
210
0
220
0
230
1
0
LINE
5
286
100
AcDbEntity
8
2
62
256
6
ByLayer
370
-1
48
1
60
0
100
AcDbLine
10
159.914
20
-41.125
30
0
11
156.913999
21
-40.730043
31
0
39
0
210
0
220
0
230
1
0
LINE
5
287
100
AcDbEntity
8
2
62
256
6
ByLayer
370
-1
48
1
60
0
100
AcDbLine
10
156.914001
20
-41.519957
30
0
11
156.913999
21
-40.730043
31
0
39
0
210
0
220
0
230
1
0
ENDBLK
5
289
100
AcDbEntity
8
0
100
AcDbBlockEnd
0
BLOCK
5
28C
100
AcDbEntity
8
0
100
AcDbBlockBegin
2
_CLOSED
70
0
10
0
20
0
30
0
3
_CLOSED
0
LINE
5
28E
100
AcDbEntity
8
0
62
256
6
ByLayer
370
-2
48
1
60
0
100
AcDbLine
10
-1
20
0.166667
30
0
11
0
21
0
31
0
39
0
210
0
220
0
230
1
0
LINE
5
28F
100
AcDbEntity
8
0
62
256
6
ByLayer
370
-2
48
1
60
0
100
AcDbLine
10
0
20
0
30
0
11
-1
21
-0.166667
31
0
39
0
210
0
220
0
230
1
0
LINE
5
290
100
AcDbEntity
8
0
62
256
6
ByLayer
370
-2
48
1
60
0
100
AcDbLine
10
-1
20
0.166667
30
0
11
-1
21
-0.166667
31
0
39
0
210
0
220
0
230
1
0
LINE
5
291
100
AcDbEntity
8
0
62
256
6
ByLayer
370
-2
48
1
60
0
100
AcDbLine
10
0
20
0
30
0
11
-1
21
0
31
0
39
0
210
0
220
0
230
1
0
ENDBLK
5
28D
100
AcDbEntity
8
0
100
AcDbBlockEnd
0
BLOCK
5
29E
100
AcDbEntity
8
0
100
AcDbBlockBegin
2
DimnDraft3D2
70
0
10
0
20
0
30
0
3
DimnDraft3D2
0
MTEXT
5
293
100
AcDbEntity
8
SK2
62
256
6
ByLayer
370
-1
48
1
60
0
100
AcDbMText
10
6.695579
20
-50
30
0
210
0
220
0
230
1
1
\W01.000;\fsimplex.shx,bigfont.shx;301 
40
4.5
41
0
44
1.084337
50
0
71
7
72
5
7
DEFAULT
0
LINE
5
295
100
AcDbEntity
8
SK2
62
256
6
ByLayer
370
-1
48
1
60
0
100
AcDbLine
10
159.914
20
-28.375
30
0
11
159.914
21
-54.125
31
0
39
0
210
0
220
0
230
1
0
LINE
5
296
100
AcDbEntity
8
SK2
62
256
6
ByLayer
370
-1
48
1
60
0
100
AcDbLine
10
-141.336
20
-1.5
30
0
11
-141.336
21
-54.125
31
0
39
0
210
0
220
0
230
1
0
LINE
5
297
100
AcDbEntity
8
SK2
62
256
6
ByLayer
370
-1
48
1
60
0
100
AcDbLine
10
159.914
20
-51.125
30
0
11
-141.336
21
-51.125
31
0
39
0
210
0
220
0
230
1
0
LINE
5
298
100
AcDbEntity
8
SK2
62
256
6
ByLayer
370
-1
48
1
60
0
100
AcDbLine
10
159.914
20
-51.125
30
0
11
156.914001
21
-51.519957
31
0
39
0
210
0
220
0
230
1
0
LINE
5
299
100
AcDbEntity
8
SK2
62
256
6
ByLayer
370
-1
48
1
60
0
100
AcDbLine
10
159.914
20
-51.125
30
0
11
156.913999
21
-50.730043
31
0
39
0
210
0
220
0
230
1
0
LINE
5
29A
100
AcDbEntity
8
SK2
62
256
6
ByLayer
370
-1
48
1
60
0
100
AcDbLine
10
156.914001
20
-51.519957
30
0
11
156.913999
21
-50.730043
31
0
39
0
210
0
220
0
230
1
0
LINE
5
29B
100
AcDbEntity
8
SK2
62
256
6
ByLayer
370
-1
48
1
60
0
100
AcDbLine
10
-141.336
20
-51.125
30
0
11
-138.336001
21
-50.730043
31
0
39
0
210
0
220
0
230
1
0
LINE
5
29C
100
AcDbEntity
8
SK2
62
256
6
ByLayer
370
-1
48
1
60
0
100
AcDbLine
10
-141.336
20
-51.125
30
0
11
-138.335999
21
-51.519957
31
0
39
0
210
0
220
0
230
1
0
LINE
5
29D
100
AcDbEntity
8
SK2
62
256
6
ByLayer
370
-1
48
1
60
0
100
AcDbLine
10
-138.336001
20
-50.730043
30
0
11
-138.335999
21
-51.519957
31
0
39
0
210
0
220
0
230
1
0
ENDBLK
5
29F
100
AcDbEntity
8
0
100
AcDbBlockEnd
0
BLOCK
5
2AC
100
AcDbEntity
8
0
100
AcDbBlockBegin
2
DimnDraft3D3
70
0
10
0
20
0
30
0
3
DimnDraft3D3
0
MTEXT
5
2A2
100
AcDbEntity
8
2
62
256
6
ByLayer
370
-1
48
1
60
0
100
AcDbMText
10
173.039
20
-14.941447
30
0
210
0
220
0
230
1
1
\W01.000;\fsimplex.shx,bigfont.shx;27 
40
4.5
41
0
44
1.084337
50
90
71
7
72
5
7
DEFAULT
0
LINE
5
2A3
100
AcDbEntity
8
2
62
256
6
ByLayer
370
-1
48
1
60
0
100
AcDbLine
10
166.414
20
0
30
0
11
177.164
21
0
31
0
39
0
210
0
220
0
230
1
0
LINE
5
2A4
100
AcDbEntity
8
2
62
256
6
ByLayer
370
-1
48
1
60
0
100
AcDbLine
10
161.414
20
-26.875
30
0
11
177.164
21
-26.875
31
0
39
0
210
0
220
0
230
1
0
LINE
5
2A5
100
AcDbEntity
8
2
62
256
6
ByLayer
370
-1
48
1
60
0
100
AcDbLine
10
174.164
20
0
30
0
11
174.164
21
-26.875
31
0
39
0
210
0
220
0
230
1
0
LINE
5
2A6
100
AcDbEntity
8
2
62
256
6
ByLayer
370
-1
48
1
60
0
100
AcDbLine
10
174.164
20
0
30
0
11
174.558957
21
-2.999999
31
0
39
0
210
0
220
0
230
1
0
LINE
5
2A7
100
AcDbEntity
8
2
62
256
6
ByLayer
370
-1
48
1
60
0
100
AcDbLine
10
174.164
20
0
30
0
11
173.769043
21
-3.000001
31
0
39
0
210
0
220
0
230
1
0
LINE
5
2A8
100
AcDbEntity
8
2
62
256
6
ByLayer
370
-1
48
1
60
0
100
AcDbLine
10
174.558957
20
-2.999999
30
0
11
173.769043
21
-3.000001
31
0
39
0
210
0
220
0
230
1
0
LINE
5
2A9
100
AcDbEntity
8
2
62
256
6
ByLayer
370
-1
48
1
60
0
100
AcDbLine
10
174.164
20
-26.875
30
0
11
173.769043
21
-23.875001
31
0
39
0
210
0
220
0
230
1
0
LINE
5
2AA
100
AcDbEntity
8
2
62
256
6
ByLayer
370
-1
48
1
60
0
100
AcDbLine
10
174.164
20
-26.875
30
0
11
174.558957
21
-23.874999
31
0
39
0
210
0
220
0
230
1
0
LINE
5
2AB
100
AcDbEntity
8
2
62
256
6
ByLayer
370
-1
48
1
60
0
100
AcDbLine
10
173.769043
20
-23.875001
30
0
11
174.558957
21
-23.874999
31
0
39
0
210
0
220
0
230
1
0
ENDBLK
5
2AD
100
AcDbEntity
8
0
100
AcDbBlockEnd
0
BLOCK
5
2BA
100
AcDbEntity
8
0
100
AcDbBlockBegin
2
DimnDraft3D4
70
0
10
0
20
0
30
0
3
DimnDraft3D4
0
MTEXT
5
2B0
100
AcDbEntity
8
SK2
62
256
6
ByLayer
370
-1
48
1
60
0
100
AcDbMText
10
-152.211
20
-3.896053
30
0
210
0
220
0
230
1
1
\W01.000;\fsimplex.shx,bigfont.shx;%%c40 
40
4.5
41
0
44
1.084337
50
90
71
7
72
5
7
DEFAULT
0
LINE
5
2B1
100
AcDbEntity
8
SK2
62
256
6
ByLayer
370
-1
48
1
60
0
100
AcDbLine
10
-142.836
20
-19.98925
30
0
11
-154.086
21
-19.98925
31
0
39
0
210
0
220
0
230
1
0
LINE
5
2B2
100
AcDbEntity
8
SK2
62
256
6
ByLayer
370
-1
48
1
60
0
100
AcDbLine
10
-142.836
20
19.98925
30
0
11
-154.086
21
19.98925
31
0
39
0
210
0
220
0
230
1
0
LINE
5
2B3
100
AcDbEntity
8
SK2
62
256
6
ByLayer
370
-1
48
1
60
0
100
AcDbLine
10
-151.086
20
-19.98925
30
0
11
-151.086
21
19.98925
31
0
39
0
210
0
220
0
230
1
0
LINE
5
2B4
100
AcDbEntity
8
SK2
62
256
6
ByLayer
370
-1
48
1
60
0
100
AcDbLine
10
-151.086
20
-19.98925
30
0
11
-151.480957
21
-16.989251
31
0
39
0
210
0
220
0
230
1
0
LINE
5
2B5
100
AcDbEntity
8
SK2
62
256
6
ByLayer
370
-1
48
1
60
0
100
AcDbLine
10
-151.086
20
-19.98925
30
0
11
-150.691043
21
-16.989249
31
0
39
0
210
0
220
0
230
1
0
LINE
5
2B6
100
AcDbEntity
8
SK2
62
256
6
ByLayer
370
-1
48
1
60
0
100
AcDbLine
10
-151.480957
20
-16.989251
30
0
11
-150.691043
21
-16.989249
31
0
39
0
210
0
220
0
230
1
0
LINE
5
2B7
100
AcDbEntity
8
SK2
62
256
6
ByLayer
370
-1
48
1
60
0
100
AcDbLine
10
-151.086
20
19.98925
30
0
11
-150.691043
21
16.989251
31
0
39
0
210
0
220
0
230
1
0
LINE
5
2B8
100
AcDbEntity
8
SK2
62
256
6
ByLayer
370
-1
48
1
60
0
100
AcDbLine
10
-151.086
20
19.98925
30
0
11
-151.480957
21
16.989249
31
0
39
0
210
0
220
0
230
1
0
LINE
5
2B9
100
AcDbEntity
8
SK2
62
256
6
ByLayer
370
-1
48
1
60
0
100
AcDbLine
10
-150.691043
20
16.989251
30
0
11
-151.480957
21
16.989249
31
0
39
0
210
0
220
0
230
1
0
ENDBLK
5
2BB
100
AcDbEntity
8
0
100
AcDbBlockEnd
0
ENDSEC
0
SECTION
2
ENTITIES
0
ARC
5
13C
100
AcDbEntity
8
1
62
256
6
ByLayer
370
-1
48
1
60
0
100
AcDbCircle
39
0
10
-130.046951
20
-20.475
30
0
40
0.8
210
0
220
0
230
-1
100
AcDbArc
50
90
51
140
0
ARC
5
13D
100
AcDbEntity
8
1
62
256
6
ByLayer
370
-1
48
1
60
0
100
AcDbCircle
39
0
10
-130.046951
20
20.475
30
0
40
0.8
210
0
220
0
230
-1
100
AcDbArc
50
260.931278
51
270
0
ARC
5
13E
100
AcDbEntity
8
1
62
256
6
ByLayer
370
-1
48
1
60
0
100
AcDbCircle
39
0
10
-112.897588
20
20.475
30
0
40
0.799999999999984
210
0
220
0
230
-1
100
AcDbArc
50
270
51
300
0
ELLIPSE
5
13F
100
AcDbEntity
8
1
62
256
6
ByLayer
370
-1
48
1
60
0
100
AcDbEllipse
10
140.594414
20
-11.931561
30
0
11
-2.73662387161757
21
-0.270905491440915
31
0
210
0
220
0
230
1
40
0.984662
41
0.0330616243044155
42
1.37479174415902
0
ELLIPSE
5
140
100
AcDbEntity
8
1
62
256
6
ByLayer
370
-1
48
1
60
0
100
AcDbEllipse
10
148.005698
20
-7.671684
30
0
11
-2.78121111524877
21
-1.14291645714159
31
0
210
0
220
0
230
1
40
0.404754
41
-1.52985301428166
42
-1.25971775648123
0
ELLIPSE
5
141
100
AcDbEntity
8
1
62
256
6
ByLayer
370
-1
48
1
60
0
100
AcDbEllipse
10
132.432282
20
-8.245253
30
0
11
-1.51568263632687
21
-1.36045097027254
31
0
210
0
220
0
230
1
40
0.783902
41
3.06974060865433
42
0.847443300983137
0
ELLIPSE
5
142
100
AcDbEntity
8
1
62
256
6
ByLayer
370
-1
48
1
60
0
100
AcDbEllipse
10
144.293797
20
0
30
0
11
-23.3675021026681
21
-16.1818437682667
31
0
210
0
220
0
230
1
40
0.479694
41
-1.74325031065618
42
-1.3137293838697
0
ELLIPSE
5
143
100
AcDbEntity
8
1
62
256
6
ByLayer
370
-1
48
1
60
0
100
AcDbEllipse
10
155.779055
20
-3.22806
30
0
11
-2.78121111502166
21
-1.14291645724274
31
0
210
0
220
0
230
1
40
0.404754
41
-1.25971775664689
42
-0.989582498844657
0
ELLIPSE
5
144
100
AcDbEntity
8
1
62
256
6
ByLayer
370
-1
48
1
60
0
100
AcDbEllipse
10
138.293418
20
-11.471792
30
0
11
2.4878398832887
21
0.246277719491742
31
0
210
0
220
0
230
1
40
0.984662
41
-2.58380057508105
42
-2.18719909076087
0
ELLIPSE
5
145
100
AcDbEntity
8
1
62
256
6
ByLayer
370
-1
48
1
60
0
100
AcDbEllipse
10
422.923495
20
-0.006299
30
0
11
-1144.37248447687
21
-3.41537381929092
31
0
210
0
220
0
230
1
40
0.016926
41
1.30997185365922
42
1.31193863534598
0
ELLIPSE
5
146
100
AcDbEntity
8
1
62
256
6
ByLayer
370
-1
48
1
60
0
100
AcDbEllipse
10
140.508477
20
-11.063448
30
0
11
-2.97562290946154
21
-0.294564625775206
31
0
210
0
220
0
230
1
40
0.984662
41
0.420655642016949
42
1.1262621081828
0
ELLIPSE
5
147
100
AcDbEntity
8
1
62
256
6
ByLayer
370
-1
48
1
60
0
100
AcDbEllipse
10
144.293797
20
0
30
0
11
-23.3556313875321
21
-16.1736233749964
31
0
210
0
220
0
230
1
40
0.479694
41
-0.617637384720682
42
0.454749973058502
0
ELLIPSE
5
148
100
AcDbEntity
8
1
62
256
6
ByLayer
370
-1
48
1
60
0
100
AcDbEllipse
10
141.250163
20
-7.966475
30
0
11
2.11189439676015
21
0.209061901183904
31
0
210
0
220
0
230
1
40
0.984662
41
0.954393562828907
42
2.5251898896238
0
ELLIPSE
5
149
100
AcDbEntity
8
1
62
256
6
ByLayer
370
-1
48
1
60
0
100
AcDbEllipse
10
138.428597
20
-12.837333
30
0
11
2.11189439676015
21
0.209061901183904
31
0
210
0
220
0
230
1
40
0.984662
41
2.52518988962376
42
-2.18719909076082
0
ELLIPSE
5
14A
100
AcDbEntity
8
1
62
256
6
ByLayer
370
-1
48
1
60
0
100
AcDbEllipse
10
159.894097
20
-16.625317
30
0
11
-0.00178952631581812
21
0.880629034799227
31
0
210
0
220
0
230
1
40
0.013589
41
0.46242272366148
42
1.42235381280749
0
ELLIPSE
5
14B
100
AcDbEntity
8
1
62
256
6
ByLayer
370
-1
48
1
60
0
100
AcDbEllipse
10
159.885726
20
-15.539494
30
0
11
-0.000596508402309199
21
0.293542974175732
31
0
210
0
220
0
230
1
40
0.013589
41
-2.10361708821086
42
-1.71923878185444
0
ELLIPSE
5
14C
100
AcDbEntity
8
1
62
256
6
ByLayer
370
-1
48
1
60
0
100
AcDbEllipse
10
159.894599
20
-14.789861
30
0
11
-0.000816286128845111
21
0.308909992375597
31
0
210
0
220
0
230
1
40
0.015443
41
1.0876699653717
42
1.40132848424328
0
ELLIPSE
5
14D
100
AcDbEntity
8
1
62
256
6
ByLayer
370
-1
48
1
60
0
100
AcDbEllipse
10
149.080978
20
-20.700101
30
0
11
-1.29783756621513
21
0.74057915019352
31
0
210
0
220
0
230
1
40
0.071767
41
-1.69508457997248
42
-1.52055165511001
0
ELLIPSE
5
14E
100
AcDbEntity
8
1
62
256
6
ByLayer
370
-1
48
1
60
0
100
AcDbEllipse
10
148.358976
20
-20.291555
30
0
11
-1.29783756379626
21
0.740579148763693
31
0
210
0
220
0
230
1
40
0.071767
41
-1.52055165541715
42
-0.560620566918064
0
ELLIPSE
5
14F
100
AcDbEntity
8
1
62
256
6
ByLayer
370
-1
48
1
60
0
100
AcDbEllipse
10
150.931338
20
-4.861953
30
0
11
-0.76355457467407
21
-0.444887682702575
31
0
210
0
220
0
230
1
40
0.134475
41
-1.63318994229153
42
-0.673258853688905
0
ELLIPSE
5
150
100
AcDbEntity
8
1
62
256
6
ByLayer
370
-1
48
1
60
0
100
AcDbEllipse
10
147.619817
20
-6.754338
30
0
11
-1.29756951933414
21
-0.746490217734208
31
0
210
0
220
0
230
1
40
0.079484
41
-2.56710736592123
42
-1.60717627742472
0
ELLIPSE
5
151
100
AcDbEntity
8
1
62
256
6
ByLayer
370
-1
48
1
60
0
100
AcDbEllipse
10
150.047448
20
-5.272183
30
0
11
-0.254518193252029
21
-0.148295895144107
31
0
210
0
220
0
230
1
40
0.134475
41
1.50840271338736
42
1.89278097245744
0
ELLIPSE
5
152
100
AcDbEntity
8
1
62
256
6
ByLayer
370
-1
48
1
60
0
100
AcDbEllipse
10
149.313225
20
-5.792323
30
0
11
-0.26669024254542
21
-0.156334657683617
31
0
210
0
220
0
230
1
40
0.153674
41
-1.64256212067971
42
-1.32890361156497
0
ELLIPSE
5
153
100
AcDbEntity
8
1
62
256
6
ByLayer
370
-1
48
1
60
0
100
AcDbEllipse
10
159.894097
20
-12.037967
30
0
11
-0.00106256366370386
21
1.4829393418547
31
0
210
0
220
0
230
1
40
0.008128
41
1.30833288118155
42
1.48286588904203
0
ELLIPSE
5
154
100
AcDbEntity
8
1
62
256
6
ByLayer
370
-1
48
1
60
0
100
AcDbEllipse
10
159.894097
20
-12.859104
30
0
11
-0.00106256616639597
21
1.48294006361252
31
0
210
0
220
0
230
1
40
0.008128
41
1.48286576423048
42
2.44279685312435
0
ELLIPSE
5
155
100
AcDbEntity
8
1
62
256
6
ByLayer
370
-1
48
1
60
0
100
AcDbEllipse
10
151.953292
20
-13.254983
30
0
11
4.74007059216753
21
0.44043899448863
31
0
210
0
220
0
230
1
40
0.98468
41
0
42
6.28318530717959
0
ELLIPSE
5
156
100
AcDbEntity
8
1
62
256
6
ByLayer
370
-1
48
1
60
0
100
AcDbEllipse
10
159.894097
20
-20.669804
30
0
11
0.00210136247083513
21
-0.749997056178067
31
0
210
0
220
0
230
1
40
0.015888
41
-1.74535151091512
42
-1.57081858571502
0
ELLIPSE
5
157
100
AcDbEntity
8
1
62
256
6
ByLayer
370
-1
48
1
60
0
100
AcDbEllipse
10
150.286451
20
-22.213586
30
0
11
-0.00467363488685391
21
0.812180451491432
31
0
210
0
220
0
230
1
40
0.984733
41
-0.545265970285808
42
-0.526550900450937
0
ELLIPSE
5
158
100
AcDbEntity
8
1
62
256
6
ByLayer
370
-1
48
1
60
0
100
AcDbEllipse
10
148.744498
20
-18.974097
30
0
11
0.000574372408694935
21
-0.204999195355338
31
0
210
0
220
0
230
1
40
0.015888
41
0.436310054059777
42
1.39624114267671
0
ELLIPSE
5
159
100
AcDbEntity
8
1
62
256
6
ByLayer
370
-1
48
1
60
0
100
AcDbEllipse
10
157.708831
20
-16.417221
30
0
11
-0.107803154299199
21
0.174365936820077
31
0
210
0
220
0
230
1
40
0.078546
41
1.72760189679913
42
2.68753298539398
0
ELLIPSE
5
15A
100
AcDbEntity
8
1
62
256
6
ByLayer
370
-1
48
1
60
0
100
AcDbEllipse
10
159.436347
20
-15.735227
30
0
11
-0.819857681750744
21
-0.324983097327454
31
0
210
0
220
0
230
1
40
0.28861
41
1.42580383135467
42
2.03615680728079
0
ELLIPSE
5
15B
100
AcDbEntity
8
1
62
256
6
ByLayer
370
-1
48
1
60
0
100
AcDbEllipse
10
159.716776
20
-14.626644
30
0
11
-0.573248256889112
21
0.593108925598758
31
0
210
0
220
0
230
1
40
0.471306
41
-1.3919353579128
42
-1.34707086094876
0
ELLIPSE
5
15C
100
AcDbEntity
8
1
62
256
6
ByLayer
370
-1
48
1
60
0
100
AcDbEllipse
10
156.559169
20
-16.116019
30
0
11
-0.174207153903729
21
0.108059555471798
31
0
210
0
220
0
230
1
40
0.139818
41
0.36722571666204
42
1.67622265565882
0
ELLIPSE
5
15D
100
AcDbEntity
8
1
62
256
6
ByLayer
370
-1
48
1
60
0
100
AcDbEllipse
10
157.631973
20
-16.438584
30
0
11
-0.114302314446303
21
-0.0309982571041942
31
0
210
0
220
0
230
1
40
0.37432
41
2.24189622803875
42
-2.54417849318199
0
ELLIPSE
5
15E
100
AcDbEntity
8
1
62
256
6
ByLayer
370
-1
48
1
60
0
100
AcDbEllipse
10
148.808012
20
-18.955421
30
0
11
-0.113503119725964
21
-0.033750620900344
31
0
210
0
220
0
230
1
40
0.374422
41
-0.592478394183055
42
0.904632190892344
0
ELLIPSE
5
15F
100
AcDbEntity
8
1
62
256
6
ByLayer
370
-1
48
1
60
0
100
AcDbEllipse
10
156.611833
20
-16.085079
30
0
11
-0.0483631120923218
21
-0.199213476925497
31
0
210
0
220
0
230
1
40
0.057425
41
1.40512084173427
42
2.10325254253207
0
ELLIPSE
5
160
100
AcDbEntity
8
1
62
256
6
ByLayer
370
-1
48
1
60
0
100
AcDbEllipse
10
157.716643
20
-16.353294
30
0
11
0.0483631120923218
21
0.199213476925497
31
0
210
0
220
0
230
1
40
0.057425
41
-1.73647181185553
42
-1.03834011106013
0
ELLIPSE
5
161
100
AcDbEntity
8
1
62
256
6
ByLayer
370
-1
48
1
60
0
100
AcDbEllipse
10
151.708627
20
-14.32028
30
0
11
-0.638502721408819
21
-5.98082012154922
31
0
210
0
220
0
230
1
40
0.861076
41
1.38138140738184
42
1.4871638534117
0
ELLIPSE
5
162
100
AcDbEntity
8
1
62
256
6
ByLayer
370
-1
48
1
60
0
100
AcDbEllipse
10
159.325526
20
-15.539603
30
0
11
-0.781087300512984
21
-0.0762260184923795
31
0
210
0
220
0
230
1
40
0.205791
41
1.57159805831459
42
2.2697297591491
0
ELLIPSE
5
163
100
AcDbEntity
8
1
62
256
6
ByLayer
370
-1
48
1
60
0
100
AcDbEllipse
10
159.537135
20
-14.703079
30
0
11
-0.669440006907825
21
0.364005627660501
31
0
210
0
220
0
230
1
40
0.308649
41
-1.9511679144343
42
-1.56669472215051
0
ELLIPSE
5
164
100
AcDbEntity
8
1
62
256
6
ByLayer
370
-1
48
1
60
0
100
AcDbEllipse
10
158.478411
20
-13.3419
30
0
11
0.0483631120923218
21
0.199213476925497
31
0
210
0
220
0
230
1
40
0.057425
41
-2.43460351265847
42
-1.73647181185623
0
ELLIPSE
5
165
100
AcDbEntity
8
1
62
256
6
ByLayer
370
-1
48
1
60
0
100
AcDbEllipse
10
149.55568
20
-18.113608
30
0
11
-0.0900507153482888
21
-0.184162614732908
31
0
210
0
220
0
230
1
40
0.091785
41
1.42135014851504
42
2.73034708751359
0
ELLIPSE
5
166
100
AcDbEntity
8
1
62
256
6
ByLayer
370
-1
48
1
60
0
100
AcDbEllipse
10
149.494451
20
-18.115153
30
0
11
-0.14657675769611
21
0.143318715118772
31
0
210
0
220
0
230
1
40
0.113875
41
1.00597875173221
42
1.7041104525298
0
ELLIPSE
5
167
100
AcDbEntity
8
1
62
256
6
ByLayer
370
-1
48
1
60
0
100
AcDbEllipse
10
152.707277
20
-14.035437
30
0
11
-2.90522478254385
21
5.18785347224576
31
0
210
0
220
0
230
1
40
0.859678
41
1.78850029701048
42
1.89428274417673
0
ELLIPSE
5
168
100
AcDbEntity
8
1
62
256
6
ByLayer
370
-1
48
1
60
0
100
AcDbEllipse
10
151.964788
20
-13.378705
30
0
11
5.83607034209101
21
0.542277357110007
31
0
210
0
220
0
230
1
40
0.98468
41
-1.66203698173265
42
-1.10353162109446
0
ELLIPSE
5
169
100
AcDbEntity
8
1
62
256
6
ByLayer
370
-1
48
1
60
0
100
AcDbEllipse
10
151.963747
20
-13.367502
30
0
11
-5.16917081548047
21
-0.480310229993663
31
0
210
0
220
0
230
1
40
0.98468
41
1.01647046883363
42
2.50114623551885
0
ELLIPSE
5
16A
100
AcDbEntity
8
1
62
256
6
ByLayer
370
-1
48
1
60
0
100
AcDbEllipse
10
151.966198
20
-13.393883
30
0
11
5.36633629562381
21
0.498630498465128
31
0
210
0
220
0
230
1
40
0.98468
41
-2.12512218475617
42
-0.640446418070953
0
ELLIPSE
5
16B
100
AcDbEntity
8
1
62
256
6
ByLayer
370
-1
48
1
60
0
100
AcDbEllipse
10
151.966198
20
-13.393883
30
0
11
-5.66886443276862
21
-0.526740879088731
31
0
210
0
220
0
230
1
40
0.98468
41
1.47955567185715
42
2.03806103249533
0
ELLIPSE
5
16C
100
AcDbEntity
8
1
62
256
6
ByLayer
370
-1
48
1
60
0
100
AcDbEllipse
10
151.95069
20
-13.226975
30
0
11
-6.44535296479579
21
-0.598890823193592
31
0
210
0
220
0
230
1
40
0.98468
41
1.47955567185714
42
2.03806103249535
0
ELLIPSE
5
16D
100
AcDbEntity
8
1
62
256
6
ByLayer
370
-1
48
1
60
0
100
AcDbEllipse
10
151.94553
20
-13.171446
30
0
11
7.05708190134109
21
0.655731596442166
31
0
210
0
220
0
230
1
40
0.98468
41
-1.66203698173264
42
-1.10353162109446
0
ELLIPSE
5
16E
100
AcDbEntity
8
1
62
256
6
ByLayer
370
-1
48
1
60
0
100
AcDbEllipse
10
151.955743
20
-13.281364
30
0
11
-5.03680715777015
21
-0.468011232505079
31
0
210
0
220
0
230
1
40
0.98468
41
0.909021919916391
42
2.60859478443609
0
ELLIPSE
5
16F
100
AcDbEntity
8
1
62
256
6
ByLayer
370
-1
48
1
60
0
100
AcDbEllipse
10
151.953292
20
-13.254983
30
0
11
-4.83964167762681
21
-0.449690964033615
31
0
210
0
220
0
230
1
40
0.98468
41
0.801724905020621
42
2.71589179933188
0
ELLIPSE
5
170
100
AcDbEntity
8
1
62
256
6
ByLayer
370
-1
48
1
60
0
100
AcDbEllipse
10
155.712934
20
-19.210355
30
0
11
0.394401784021495
21
-0.637924159097821
31
0
210
0
220
0
230
1
40
0.078546
41
1.72760189679921
42
2.68753298539655
0
ELLIPSE
5
171
100
AcDbEntity
8
1
62
256
6
ByLayer
370
-1
48
1
60
0
100
AcDbEllipse
10
151.95763
20
-20.281472
30
0
11
0.00210136247083513
21
-0.749997056178067
31
0
210
0
220
0
230
1
40
0.015888
41
-2.70528259951303
42
-1.74535151091599
0
ELLIPSE
5
172
100
AcDbEntity
8
1
62
256
6
ByLayer
370
-1
48
1
60
0
100
AcDbEllipse
10
154.979479
20
-18.104665
30
0
11
-0.107803154299199
21
0.174365936820077
31
0
210
0
220
0
230
1
40
0.078546
41
1.72760189679913
42
2.68753298539255
0
ELLIPSE
5
173
100
AcDbEntity
8
1
62
256
6
ByLayer
370
-1
48
1
60
0
100
AcDbEllipse
10
151.962891
20
-18.96508
30
0
11
-0.000574372408692593
21
0.204999195355338
31
0
210
0
220
0
230
1
40
0.015888
41
-2.70528259953002
42
-1.74535151091309
0
ELLIPSE
5
174
100
AcDbEntity
8
1
62
256
6
ByLayer
370
-1
48
1
60
0
100
AcDbEllipse
10
157.106814
20
-13.682746
30
0
11
0.139525989214052
21
-0.207442759174284
31
0
210
0
220
0
230
1
40
0.637119
41
-1.90456913913981
42
-0.999756621440943
0
ELLIPSE
5
175
100
AcDbEntity
8
1
62
256
6
ByLayer
370
-1
48
1
60
0
100
AcDbEllipse
10
157.248159
20
-13.500183
30
0
11
0.23573037403305
21
-0.0832537732372436
31
0
210
0
220
0
230
1
40
0.757588
41
-2.70154467929881
42
-1.45652212962099
0
ELLIPSE
5
176
100
AcDbEntity
8
1
62
256
6
ByLayer
370
-1
48
1
60
0
100
AcDbEllipse
10
156.745272
20
-15.488178
30
0
11
0.24603164774509
21
-0.0443669731651354
31
0
210
0
220
0
230
1
40
0.505399
41
1.49101051950739
42
2.73603306918524
0
ELLIPSE
5
177
100
AcDbEntity
8
1
62
256
6
ByLayer
370
-1
48
1
60
0
100
AcDbEllipse
10
156.724173
20
-15.19539
30
0
11
0.234522246673561
21
0.0865985901454838
31
0
210
0
220
0
230
1
40
0.416182
41
1.24053304576551
42
2.14534556346426
0
ELLIPSE
5
178
100
AcDbEntity
8
1
62
256
6
ByLayer
370
-1
48
1
60
0
100
AcDbEllipse
10
157.628666
20
-16.40299
30
0
11
-0.12130620878977
21
0.220413143945779
31
0
210
0
220
0
230
1
40
0.740775
41
-2.78168259163122
42
-1.28457200569282
0
ELLIPSE
5
179
100
AcDbEntity
8
1
62
256
6
ByLayer
370
-1
48
1
60
0
100
AcDbEllipse
10
159.299879
20
-15.820694
30
0
11
0.082256747203371
21
-0.236080129488953
31
0
210
0
220
0
230
1
40
0.345781
41
0.484773502979931
42
1.98188408891704
0
ELLIPSE
5
17A
100
AcDbEntity
8
1
62
256
6
ByLayer
370
-1
48
1
60
0
100
AcDbEllipse
10
159.836055
20
-15.570204
30
0
11
0.131467261340498
21
-0.21264138636594
31
0
210
0
220
0
230
1
40
0.078546
41
-1.41399075678997
42
-1.02961249522386
0
ELLIPSE
5
17B
100
AcDbEntity
8
1
62
256
6
ByLayer
370
-1
48
1
60
0
100
AcDbEllipse
10
159.68252
20
-14.308051
30
0
11
0.160210470116238
21
0.191918225463696
31
0
210
0
220
0
230
1
40
0.494825
41
-2.29919920774698
42
-0.802088621809194
0
ELLIPSE
5
17C
100
AcDbEntity
8
1
62
256
6
ByLayer
370
-1
48
1
60
0
100
AcDbEllipse
10
148.804705
20
-18.919828
30
0
11
-0.00482213404823847
21
0.251842604884248
31
0
210
0
220
0
230
1
40
0.787717
41
1.32193479553225
42
2.81904538127696
0
ELLIPSE
5
17D
100
AcDbEntity
8
1
62
256
6
ByLayer
370
-1
48
1
60
0
100
AcDbEllipse
10
145.047454
20
-18.417726
30
0
11
-0.764012980200678
21
0.442903857870725
31
0
210
0
220
0
230
1
40
0.121145
41
-2.4448150243256
42
-1.48488393569953
0
ELLIPSE
5
17E
100
AcDbEntity
8
1
62
256
6
ByLayer
370
-1
48
1
60
0
100
AcDbEllipse
10
145.914603
20
-18.823051
30
0
11
-0.254670990371811
21
0.147634617634831
31
0
210
0
220
0
230
1
40
0.121145
41
1.27233045523582
42
1.65670872132669
0
ELLIPSE
5
17F
100
AcDbEntity
8
1
62
256
6
ByLayer
370
-1
48
1
60
0
100
AcDbEllipse
10
146.666572
20
-19.339027
30
0
11
-0.266900944799867
21
0.155887716343866
31
0
210
0
220
0
230
1
40
0.138292
41
-1.78578226604362
42
-1.47212375633797
0
ELLIPSE
5
180
100
AcDbEntity
8
1
62
256
6
ByLayer
370
-1
48
1
60
0
100
AcDbEllipse
10
146.897815
20
-7.166929
30
0
11
-1.29756940948034
21
-0.746490155779572
31
0
210
0
220
0
230
1
40
0.079484
41
-1.60717628948782
42
-1.43264334959723
0
ELLIPSE
5
181
100
AcDbEntity
8
1
62
256
6
ByLayer
370
-1
48
1
60
0
100
AcDbEllipse
10
141.491255
20
-16.405447
30
0
11
-0.647302184721977
21
0.378813782291718
31
0
210
0
220
0
230
1
40
0.14244
41
-1.46900104373593
42
-1.29446811853641
0
ELLIPSE
5
182
100
AcDbEntity
8
1
62
256
6
ByLayer
370
-1
48
1
60
0
100
AcDbEllipse
10
144.877189
20
-7.324995
30
0
11
-0.732350844936862
21
-0.330462478472118
31
0
210
0
220
0
230
1
40
0.958674
41
1.66598136123074
42
1.68469426793411
0
ELLIPSE
5
183
100
AcDbEntity
8
1
62
256
6
ByLayer
370
-1
48
1
60
0
100
AcDbEllipse
10
148.642201
20
-7.818975
30
0
11
-0.176929263824007
21
0.103542433826403
31
0
210
0
220
0
230
1
40
0.14244
41
0.712660521257257
42
1.67259160985383
0
ELLIPSE
5
184
100
AcDbEntity
8
1
62
256
6
ByLayer
370
-1
48
1
60
0
100
AcDbEllipse
10
146.386136
20
-16.737569
30
0
11
0.204871248438775
21
0.00726440383910203
31
0
210
0
220
0
230
1
40
0.174097
41
-2.52075701647867
42
-1.56082592788175
0
ELLIPSE
5
185
100
AcDbEntity
8
1
62
256
6
ByLayer
370
-1
48
1
60
0
100
AcDbEllipse
10
146.090961
20
-18.5131
30
0
11
-0.137179359766103
21
-0.80223154139958
31
0
210
0
220
0
230
1
40
0.443953
41
-1.83130851809339
42
-1.22095554248232
0
ELLIPSE
5
186
100
AcDbEntity
8
1
62
256
6
ByLayer
370
-1
48
1
60
0
100
AcDbEllipse
10
146.924804
20
-19.303867
30
0
11
-0.853065795847258
21
-0.140893393980394
31
0
210
0
220
0
230
1
40
0.290163
41
1.71411992735247
42
1.75898473962701
0
ELLIPSE
5
187
100
AcDbEntity
8
1
62
256
6
ByLayer
370
-1
48
1
60
0
100
AcDbEllipse
10
147.228639
20
-15.906782
30
0
11
0.179406521837539
21
0.0991882045515326
31
0
210
0
220
0
230
1
40
0.160147
41
-1.64074235773951
42
-0.331745418743874
0
ELLIPSE
5
188
100
AcDbEntity
8
1
62
256
6
ByLayer
370
-1
48
1
60
0
100
AcDbEllipse
10
146.442237
20
-16.711863
30
0
11
-0.0302702072518216
21
-0.112896345186631
31
0
210
0
220
0
230
1
40
0.384294
41
-0.897547058852861
42
0.599563527072599
0
ELLIPSE
5
189
100
AcDbEntity
8
1
62
256
6
ByLayer
370
-1
48
1
60
0
100
AcDbEllipse
10
147.229381
20
-15.967097
30
0
11
-0.14657675769611
21
0.143318715118772
31
0
210
0
220
0
230
1
40
0.113875
41
1.70411045252979
42
2.40224215332795
0
ELLIPSE
5
18A
100
AcDbEntity
8
1
62
256
6
ByLayer
370
-1
48
1
60
0
100
AcDbEllipse
10
146.438421
20
-16.776039
30
0
11
0.14657675769611
21
-0.143318715118772
31
0
210
0
220
0
230
1
40
0.113875
41
-1.43748220105986
42
-0.739350500260925
0
ELLIPSE
5
18B
100
AcDbEntity
8
1
62
256
6
ByLayer
370
-1
48
1
60
0
100
AcDbEllipse
10
151.212639
20
-12.618013
30
0
11
-4.93554788219043
21
-1.97094742006947
31
0
210
0
220
0
230
1
40
0.858395
41
0.40033170912877
42
0.506114157267941
0
ELLIPSE
5
18C
100
AcDbEntity
8
1
62
256
6
ByLayer
370
-1
48
1
60
0
100
AcDbEllipse
10
146.293284
20
-18.480592
30
0
11
-0.354788686966179
21
-0.659493925614748
31
0
210
0
220
0
230
1
40
0.301251
41
-1.5947121452194
42
-0.896580444408225
0
ELLIPSE
5
18D
100
AcDbEntity
8
1
62
256
6
ByLayer
370
-1
48
1
60
0
100
AcDbEllipse
10
146.922489
20
-19.077292
30
0
11
-0.691716049503056
21
-0.340191828366164
31
0
210
0
220
0
230
1
40
0.213498
41
1.20750070310598
42
1.59197389501216
0
ELLIPSE
5
18E
100
AcDbEntity
8
1
62
256
6
ByLayer
370
-1
48
1
60
0
100
AcDbEllipse
10
148.703491
20
-18.924095
30
0
11
0.14657675769611
21
-0.143318715118772
31
0
210
0
220
0
230
1
40
0.113875
41
-2.13561390185893
42
-1.43748220105986
0
ELLIPSE
5
18F
100
AcDbEntity
8
1
62
256
6
ByLayer
370
-1
48
1
60
0
100
AcDbEllipse
10
148.991215
20
-8.939027
30
0
11
-0.112193248110563
21
0.171574109580675
31
0
210
0
220
0
230
1
40
0.082506
41
1.72555808634167
42
3.03455502533599
0
ELLIPSE
5
190
100
AcDbEntity
8
1
62
256
6
ByLayer
370
-1
48
1
60
0
100
AcDbEllipse
10
149.020621
20
-8.886031
30
0
11
0.196815757791566
21
0.0573459456712638
31
0
210
0
220
0
230
1
40
0.171301
41
-1.60388284043253
42
-0.905751139634839
0
ELLIPSE
5
191
100
AcDbEntity
8
1
62
256
6
ByLayer
370
-1
48
1
60
0
100
AcDbEllipse
10
151.964788
20
-13.378705
30
0
11
5.83607034209101
21
0.542277357110007
31
0
210
0
220
0
230
1
40
0.98468
41
2.52675322305375
42
3.08525858369193
0
ELLIPSE
5
192
100
AcDbEntity
8
1
62
256
6
ByLayer
370
-1
48
1
60
0
100
AcDbEllipse
10
151.963747
20
-13.367502
30
0
11
-5.16917081548047
21
-0.480310229993663
31
0
210
0
220
0
230
1
40
0.98468
41
-1.07792463355957
42
0.406751133125649
0
ELLIPSE
5
193
100
AcDbEntity
8
1
62
256
6
ByLayer
370
-1
48
1
60
0
100
AcDbEllipse
10
151.966198
20
-13.393883
30
0
11
5.36633629562381
21
0.498630498465128
31
0
210
0
220
0
230
1
40
0.98468
41
2.06366802003023
42
-2.73484152046414
0
ELLIPSE
5
194
100
AcDbEntity
8
1
62
256
6
ByLayer
370
-1
48
1
60
0
100
AcDbEllipse
10
151.966198
20
-13.393883
30
0
11
-5.66886443276862
21
-0.526740879088731
31
0
210
0
220
0
230
1
40
0.98468
41
-0.614839430536049
42
-0.0563340698978578
0
ELLIPSE
5
195
100
AcDbEntity
8
1
62
256
6
ByLayer
370
-1
48
1
60
0
100
AcDbEllipse
10
151.95069
20
-13.226975
30
0
11
-6.44535296479579
21
-0.598890823193592
31
0
210
0
220
0
230
1
40
0.98468
41
-0.614839430536048
42
-0.0563340698978623
0
ELLIPSE
5
196
100
AcDbEntity
8
1
62
256
6
ByLayer
370
-1
48
1
60
0
100
AcDbEllipse
10
151.94553
20
-13.171446
30
0
11
7.05708190134109
21
0.655731596442166
31
0
210
0
220
0
230
1
40
0.98468
41
2.52675322305374
42
3.08525858369193
0
ELLIPSE
5
197
100
AcDbEntity
8
1
62
256
6
ByLayer
370
-1
48
1
60
0
100
AcDbEllipse
10
144.875388
20
-13.565101
30
0
11
-0.749528957702837
21
-0.026577087216235
31
0
210
0
220
0
230
1
40
0.174097
41
-2.52075701647839
42
-1.56082592788158
0
ELLIPSE
5
198
100
AcDbEntity
8
1
62
256
6
ByLayer
370
-1
48
1
60
0
100
AcDbEllipse
10
145.82049
20
-9.828958
30
0
11
-0.647302184721977
21
0.378813782291717
31
0
210
0
220
0
230
1
40
0.14244
41
-2.42893213233279
42
-1.46900104373589
0
ELLIPSE
5
199
100
AcDbEntity
8
1
62
256
6
ByLayer
370
-1
48
1
60
0
100
AcDbEllipse
10
146.273816
20
-13.569904
30
0
11
0.204871248438775
21
0.00726440383910203
31
0
210
0
220
0
230
1
40
0.174097
41
-2.52075701647834
42
-1.56082592788147
0
ELLIPSE
5
19A
100
AcDbEntity
8
1
62
256
6
ByLayer
370
-1
48
1
60
0
100
AcDbEllipse
10
147.033004
20
-10.568708
30
0
11
0.176929263824006
21
-0.103542433826403
31
0
210
0
220
0
230
1
40
0.14244
41
-2.42893213233443
42
-1.46900104373568
0
ELLIPSE
5
19B
100
AcDbEntity
8
1
62
256
6
ByLayer
370
-1
48
1
60
0
100
AcDbEllipse
10
148.966252
20
-17.408163
30
0
11
-0.246290661141282
21
-0.042905829843862
31
0
210
0
220
0
230
1
40
0.410807
41
-2.07403431906021
42
-1.16922180136137
0
ELLIPSE
5
19C
100
AcDbEntity
8
1
62
256
6
ByLayer
370
-1
48
1
60
0
100
AcDbEllipse
10
149.092649
20
-17.670918
30
0
11
-0.191465160485794
21
-0.160751647954692
31
0
210
0
220
0
230
1
40
0.529093
41
-2.66705714631017
42
-1.42203459663231
0
ELLIPSE
5
19D
100
AcDbEntity
8
1
62
256
6
ByLayer
370
-1
48
1
60
0
100
AcDbEllipse
10
147.597345
20
-16.252863
30
0
11
-0.144752286995343
21
-0.203830261270543
31
0
210
0
220
0
230
1
40
0.731362
41
1.37854889454285
42
2.62357144422063
0
ELLIPSE
5
19E
100
AcDbEntity
8
1
62
256
6
ByLayer
370
-1
48
1
60
0
100
AcDbEllipse
10
147.828492
20
-16.32918
30
0
11
-0.00528264590417711
21
-0.249944181072997
31
0
210
0
220
0
230
1
40
0.58801
41
0.974857654243042
42
1.87967017194207
0
ELLIPSE
5
19F
100
AcDbEntity
8
1
62
256
6
ByLayer
370
-1
48
1
60
0
100
AcDbEllipse
10
146.438929
20
-16.676269
30
0
11
-0.228792900112119
21
0.101830437276777
31
0
210
0
220
0
230
1
40
0.894601
41
0.856589424202173
42
2.3537000101454
0
ELLIPSE
5
1A0
100
AcDbEntity
8
1
62
256
6
ByLayer
370
-1
48
1
60
0
100
AcDbEllipse
10
145.984482
20
-18.21511
30
0
11
-0.239763311095309
21
0.0708064591164837
31
0
210
0
220
0
230
1
40
0.525617
41
0.738727631770432
42
2.23583821770772
0
ELLIPSE
5
1A1
100
AcDbEntity
8
1
62
256
6
ByLayer
370
-1
48
1
60
0
100
AcDbEllipse
10
145.912559
20
-18.765403
30
0
11
-0.249842985900946
21
-0.00885902907207834
31
0
210
0
220
0
230
1
40
0.174097
41
1.1963884641428
42
1.58076672570822
0
ELLIPSE
5
1A2
100
AcDbEntity
8
1
62
256
6
ByLayer
370
-1
48
1
60
0
100
AcDbEllipse
10
147.122242
20
-19.294093
30
0
11
0.0542857437198628
21
-0.244034952473578
31
0
210
0
220
0
230
1
40
0.406076
41
-1.97779257124961
42
-0.480681985313284
0
ELLIPSE
5
1A3
100
AcDbEntity
8
1
62
256
6
ByLayer
370
-1
48
1
60
0
100
AcDbEllipse
10
151.953013
20
-13.251975
30
0
11
4.73886461380473
21
0.440326937107382
31
0
210
0
220
0
230
1
40
0.98468
41
0
42
6.28318530717959
0
ELLIPSE
5
1A4
100
AcDbEntity
8
1
62
256
6
ByLayer
370
-1
48
1
60
0
100
AcDbEllipse
10
151.949299
20
-13.212011
30
0
11
4.64584890588027
21
0.431684081674471
31
0
210
0
220
0
230
1
40
0.98468
41
0
42
6.28318530717959
0
ELLIPSE
5
1A5
100
AcDbEntity
8
1
62
256
6
ByLayer
370
-1
48
1
60
0
100
AcDbEllipse
10
154.487537
20
-2.829746
30
0
11
0.646758659952271
21
0.379741011449571
31
0
210
0
220
0
230
1
40
0.158328
41
1.32219756019113
42
1.49673048539058
0
ELLIPSE
5
1A6
100
AcDbEntity
8
1
62
256
6
ByLayer
370
-1
48
1
60
0
100
AcDbEllipse
10
160.686374
20
-10.118746
30
0
11
-0.767726197704697
21
0.241175709052187
31
0
210
0
220
0
230
1
40
0.960522
41
0.272921908078654
42
0.291634475473896
0
ELLIPSE
5
1A7
100
AcDbEntity
8
1
62
256
6
ByLayer
370
-1
48
1
60
0
100
AcDbEllipse
10
158.501974
20
-13.281797
30
0
11
0.176780700386954
21
0.103795876462883
31
0
210
0
220
0
230
1
40
0.158328
41
-1.64486216819924
42
-0.68493107960245
0
ELLIPSE
5
1A8
100
AcDbEntity
8
1
62
256
6
ByLayer
370
-1
48
1
60
0
100
AcDbEllipse
10
151.793706
20
-6.920079
30
0
11
-0.0947057898483601
21
-0.181812577588016
31
0
210
0
220
0
230
1
40
0.095551
41
1.423733004159
42
2.3836640927561
0
ELLIPSE
5
1A9
100
AcDbEntity
8
1
62
256
6
ByLayer
370
-1
48
1
60
0
100
AcDbEllipse
10
150.354028
20
-5.747574
30
0
11
-0.635362157652134
21
0.640950655879513
31
0
210
0
220
0
230
1
40
0.431284
41
-1.63083669173464
42
-1.02048371602433
0
ELLIPSE
5
1AA
100
AcDbEntity
8
1
62
256
6
ByLayer
370
-1
48
1
60
0
100
AcDbEllipse
10
149.239754
20
-6.065395
30
0
11
-0.20985887030977
21
-0.884177637040125
31
0
210
0
220
0
230
1
40
0.402318
41
-1.56689732900008
42
-1.52203254391951
0
ELLIPSE
5
1AB
100
AcDbEntity
8
1
62
256
6
ByLayer
370
-1
48
1
60
0
100
AcDbEllipse
10
152.100866
20
-8.052069
30
0
11
-0.00459595494182524
21
-0.204948474495842
31
0
210
0
220
0
230
1
40
0.020329
41
0.0877009766970916
42
1.39669791569274
0
ELLIPSE
5
1AC
100
AcDbEntity
8
1
62
256
6
ByLayer
370
-1
48
1
60
0
100
AcDbEllipse
10
151.824385
20
-7.031203
30
0
11
-0.0844113381811211
21
0.0816341671676659
31
0
210
0
220
0
230
1
40
0.38074
41
-0.908783191579762
42
0.588327394367935
0
ELLIPSE
5
1AD
100
AcDbEntity
8
1
62
256
6
ByLayer
370
-1
48
1
60
0
100
AcDbEllipse
10
158.427609
20
-13.293303
30
0
11
-0.0864373984676594
21
0.0795513056176003
31
0
210
0
220
0
230
1
40
0.380452
41
2.53967513757283
42
-2.24639958451044
0
ELLIPSE
5
1AE
100
AcDbEntity
8
1
62
256
6
ByLayer
370
-1
48
1
60
0
100
AcDbEllipse
10
152.047459
20
-8.022693
30
0
11
0.196815757791566
21
0.0573459456712638
31
0
210
0
220
0
230
1
40
0.171301
41
-2.30201454123017
42
-1.60388284043225
0
ELLIPSE
5
1AF
100
AcDbEntity
8
1
62
256
6
ByLayer
370
-1
48
1
60
0
100
AcDbEllipse
10
151.73361
20
-6.945537
30
0
11
-0.196815757791566
21
-0.0573459456712638
31
0
210
0
220
0
230
1
40
0.171301
41
0.839578112359658
42
1.53770981315727
0
ELLIPSE
5
1B0
100
AcDbEntity
8
1
62
256
6
ByLayer
370
-1
48
1
60
0
100
AcDbEllipse
10
152.958609
20
-13.041882
30
0
11
-4.8834244862639
21
2.67642085907952
31
0
210
0
220
0
230
1
40
0.856476
41
-0.938821700003834
42
-0.833039254843377
0
ELLIPSE
5
1B1
100
AcDbEntity
8
1
62
256
6
ByLayer
370
-1
48
1
60
0
100
AcDbEllipse
10
150.255585
20
-5.901016
30
0
11
-0.420050585027894
21
0.689311496558796
31
0
210
0
220
0
230
1
40
0.274345
41
-1.50874350134489
42
-0.810611800595459
0
ELLIPSE
5
1B2
100
AcDbEntity
8
1
62
256
6
ByLayer
370
-1
48
1
60
0
100
AcDbEllipse
10
149.414771
20
-6.14084
30
0
11
-0.00279885734374696
21
0.808517615653967
31
0
210
0
220
0
230
1
40
0.257569
41
1.12103000548592
42
1.5055031963913
0
ELLIPSE
5
1B3
100
AcDbEntity
8
1
62
256
6
ByLayer
370
-1
48
1
60
0
100
AcDbEllipse
10
150.961307
20
-13.611568
30
0
11
-3.66062003927884
21
-4.4006679778736
31
0
210
0
220
0
230
1
40
0.856915
41
-2.12492507612642
42
-2.01914263080743
0
ELLIPSE
5
1B4
100
AcDbEntity
8
1
62
256
6
ByLayer
370
-1
48
1
60
0
100
AcDbEllipse
10
148.706772
20
-7.808875
30
0
11
-0.196815757791566
21
-0.0573459456712638
31
0
210
0
220
0
230
1
40
0.171301
41
1.53770981315699
42
2.23584151395478
0
ELLIPSE
5
1B5
100
AcDbEntity
8
1
62
256
6
ByLayer
370
-1
48
1
60
0
100
AcDbEllipse
10
148.662974
20
-7.932925
30
0
11
-0.0274240127221164
21
-0.113592333346786
31
0
210
0
220
0
230
1
40
0.384479
41
2.5506880100868
42
-2.23538671067301
0
ELLIPSE
5
1B6
100
AcDbEntity
8
1
62
256
6
ByLayer
370
-1
48
1
60
0
100
AcDbEllipse
10
157.341779
20
-13.022235
30
0
11
0.204613104644689
21
0.0125887810236491
31
0
210
0
220
0
230
1
40
0.174291
41
-2.87435282326162
42
-1.56535588426557
0
ELLIPSE
5
1B7
100
AcDbEntity
8
1
62
256
6
ByLayer
370
-1
48
1
60
0
100
AcDbEllipse
10
157.373601
20
-13.073685
30
0
11
-0.0483631120923218
21
-0.199213476925497
31
0
210
0
220
0
230
1
40
0.057425
41
0.706989140931322
42
1.40512084173356
0
ELLIPSE
5
1B8
100
AcDbEntity
8
1
62
256
6
ByLayer
370
-1
48
1
60
0
100
AcDbEllipse
10
152.21129
20
-12.33317
30
0
11
-5.22213848483373
21
0.207436468748632
31
0
210
0
220
0
230
1
40
0.85986
41
2.88180406100663
42
2.98758650623463
0
ELLIPSE
5
1B9
100
AcDbEntity
8
1
62
256
6
ByLayer
370
-1
48
1
60
0
100
AcDbEllipse
10
151.964788
20
-13.378705
30
0
11
5.83607034209101
21
0.542277357110007
31
0
210
0
220
0
230
1
40
0.98468
41
0.432358120660547
42
0.990863481298736
0
ELLIPSE
5
1BA
100
AcDbEntity
8
1
62
256
6
ByLayer
370
-1
48
1
60
0
100
AcDbEllipse
10
151.963747
20
-13.367502
30
0
11
-5.16917081548047
21
-0.480310229993663
31
0
210
0
220
0
230
1
40
0.98468
41
3.11086557122683
42
-1.68764396926754
0
ELLIPSE
5
1BB
100
AcDbEntity
8
1
62
256
6
ByLayer
370
-1
48
1
60
0
100
AcDbEllipse
10
151.966198
20
-13.393883
30
0
11
5.36633629562381
21
0.498630498465128
31
0
210
0
220
0
230
1
40
0.98468
41
-0.0307270823629625
42
1.45394868432227
0
ELLIPSE
5
1BC
100
AcDbEntity
8
1
62
256
6
ByLayer
370
-1
48
1
60
0
100
AcDbEllipse
10
151.966198
20
-13.393883
30
0
11
-5.66886443276862
21
-0.526740879088731
31
0
210
0
220
0
230
1
40
0.98468
41
-2.70923453292924
42
-2.15072917229106
0
ELLIPSE
5
1BD
100
AcDbEntity
8
1
62
256
6
ByLayer
370
-1
48
1
60
0
100
AcDbEllipse
10
151.95069
20
-13.226975
30
0
11
-6.44535296479579
21
-0.598890823193592
31
0
210
0
220
0
230
1
40
0.98468
41
-2.70923453292925
42
-2.15072917229106
0
ELLIPSE
5
1BE
100
AcDbEntity
8
1
62
256
6
ByLayer
370
-1
48
1
60
0
100
AcDbEllipse
10
151.94553
20
-13.171446
30
0
11
7.05708190134109
21
0.655731596442166
31
0
210
0
220
0
230
1
40
0.98468
41
0.432358120660553
42
0.990863481298739
0
ELLIPSE
5
1BF
100
AcDbEntity
8
1
62
256
6
ByLayer
370
-1
48
1
60
0
100
AcDbEllipse
10
151.955743
20
-13.281364
30
0
11
-5.03680715777015
21
-0.468011232505079
31
0
210
0
220
0
230
1
40
0.98468
41
-1.18537318247681
42
0.514199682042902
0
ELLIPSE
5
1C0
100
AcDbEntity
8
1
62
256
6
ByLayer
370
-1
48
1
60
0
100
AcDbEllipse
10
151.955743
20
-13.281364
30
0
11
-5.03680715777015
21
-0.468011232505079
31
0
210
0
220
0
230
1
40
0.98468
41
3.00341702230958
42
-1.58019542035029
0
ELLIPSE
5
1C1
100
AcDbEntity
8
1
62
256
6
ByLayer
370
-1
48
1
60
0
100
AcDbEllipse
10
151.953292
20
-13.254983
30
0
11
-4.83964167762681
21
-0.449690964033615
31
0
210
0
220
0
230
1
40
0.98468
41
-1.2926701973726
42
0.621496696938695
0
ELLIPSE
5
1C2
100
AcDbEntity
8
1
62
256
6
ByLayer
370
-1
48
1
60
0
100
AcDbEllipse
10
151.953292
20
-13.254983
30
0
11
-4.83964167762681
21
-0.449690964033615
31
0
210
0
220
0
230
1
40
0.98468
41
2.8961200074138
42
-1.47289840545453
0
ELLIPSE
5
1C3
100
AcDbEntity
8
1
62
256
6
ByLayer
370
-1
48
1
60
0
100
AcDbEllipse
10
155.284568
20
-7.129541
30
0
11
0.34648459700622
21
0.665167966785411
31
0
210
0
220
0
230
1
40
0.095551
41
1.42373300415868
42
2.38366409275589
0
ELLIPSE
5
1C4
100
AcDbEntity
8
1
62
256
6
ByLayer
370
-1
48
1
60
0
100
AcDbEllipse
10
158.09477
20
-9.794567
30
0
11
0.646758659952271
21
0.379741011449571
31
0
210
0
220
0
230
1
40
0.158328
41
1.49673048539066
42
2.45666157398725
0
ELLIPSE
5
1C5
100
AcDbEntity
8
1
62
256
6
ByLayer
370
-1
48
1
60
0
100
AcDbEllipse
10
154.635378
20
-8.4003
30
0
11
-0.0947057898483601
21
-0.181812577588016
31
0
210
0
220
0
230
1
40
0.095551
41
1.42373300415942
42
2.38366409275406
0
ELLIPSE
5
1C6
100
AcDbEntity
8
1
62
256
6
ByLayer
370
-1
48
1
60
0
100
AcDbEllipse
10
156.892778
20
-10.541082
30
0
11
-0.176780700386954
21
-0.103795876462882
31
0
210
0
220
0
230
1
40
0.158328
41
1.49673048539041
42
2.45666157398713
0
ELLIPSE
5
1C7
100
AcDbEntity
8
1
62
256
6
ByLayer
370
-1
48
1
60
0
100
AcDbEllipse
10
149.780938
20
-8.610844
30
0
11
0.0554222756088078
21
0.243779349753709
31
0
210
0
220
0
230
1
40
0.615161
41
-2.29275535285446
42
-1.38794283515548
0
ELLIPSE
5
1C8
100
AcDbEntity
8
1
62
256
6
ByLayer
370
-1
48
1
60
0
100
AcDbEllipse
10
149.52329
20
-8.639286
30
0
11
-0.0949044573765706
21
0.231285849048442
31
0
210
0
220
0
230
1
40
0.611661
41
-3.01640723444888
42
-1.77138468477137
0
ELLIPSE
5
1C9
100
AcDbEntity
8
1
62
256
6
ByLayer
370
-1
48
1
60
0
100
AcDbEllipse
10
151.521481
20
-8.069347
30
0
11
-0.0398674655085382
21
0.246800699338404
31
0
210
0
220
0
230
1
40
0.661581
41
1.78105469478466
42
3.02607724446242
0
ELLIPSE
5
1CA
100
AcDbEntity
8
1
62
256
6
ByLayer
370
-1
48
1
60
0
100
AcDbEllipse
10
151.301339
20
-8.177183
30
0
11
-0.180345342875692
21
0.173134506390405
31
0
210
0
220
0
230
1
40
0.658895
41
1.34630338489098
42
2.25111590258997
0
ELLIPSE
5
1CB
100
AcDbEntity
8
1
62
256
6
ByLayer
370
-1
48
1
60
0
100
AcDbEllipse
10
151.821078
20
-6.99561
30
0
11
-0.197021332083202
21
-0.154782560228479
31
0
210
0
220
0
230
1
40
0.669167
41
-2.29683722283676
42
-0.799726636892633
0
ELLIPSE
5
1CC
100
AcDbEntity
8
1
62
256
6
ByLayer
370
-1
48
1
60
0
100
AcDbEllipse
10
150.569644
20
-5.665948
30
0
11
0.182050797623921
21
0.171340325330887
31
0
210
0
220
0
230
1
40
0.250523
41
0.784982966998639
42
2.28209355293548
0
ELLIPSE
5
1CD
100
AcDbEntity
8
1
62
256
6
ByLayer
370
-1
48
1
60
0
100
AcDbEllipse
10
150.099163
20
-5.299122
30
0
11
0.11549486566874
21
0.221722655595137
31
0
210
0
220
0
230
1
40
0.095551
41
-1.71785964943142
42
-1.33348138786515
0
ELLIPSE
5
1CE
100
AcDbEntity
8
1
62
256
6
ByLayer
370
-1
48
1
60
0
100
AcDbEllipse
10
149.049242
20
-6.099609
30
0
11
-0.244328834993785
21
0.0529473360102242
31
0
210
0
220
0
230
1
40
0.22102
41
-2.22272244559294
42
-0.725611859655659
0
ELLIPSE
5
1CF
100
AcDbEntity
8
1
62
256
6
ByLayer
370
-1
48
1
60
0
100
AcDbEllipse
10
148.659666
20
-7.897332
30
0
11
-0.246453063187119
21
0.0427126374709219
31
0
210
0
220
0
230
1
40
0.647261
41
-2.24978753458345
42
-0.752676948588967
0
ELLIPSE
5
1D0
100
AcDbEntity
8
1
62
256
6
ByLayer
370
-1
48
1
60
0
100
AcDbEllipse
10
158.424302
20
-13.25771
30
0
11
-0.118960593052184
21
-0.221354980862894
31
0
210
0
220
0
230
1
40
0.863464
41
0.66696929746616
42
2.16407988321194
0
ELLIPSE
5
1D1
100
AcDbEntity
8
1
62
256
6
ByLayer
370
-1
48
1
60
0
100
AcDbEllipse
10
158.428518
20
-2.813519
30
0
11
-0.00280950827786342
21
-4.99999921066626
31
0
210
0
220
0
230
1
40
0.053314
41
-2.07775690025021
42
-1.93678307962726
0
ELLIPSE
5
1D2
100
AcDbEntity
8
1
62
256
6
ByLayer
370
-1
48
1
60
0
100
AcDbEllipse
10
160.225958
20
-2.814532
30
0
11
-0.00140475413893171
21
-2.49999960533313
31
0
210
0
220
0
230
1
40
0.053314
41
2.78268975580378
42
-2.75457901679647
0
ELLIPSE
5
1D3
100
AcDbEntity
8
1
62
256
6
ByLayer
370
-1
48
1
60
0
100
AcDbEllipse
10
151.944918
20
-13.164858
30
0
11
-4.38112776020819
21
-0.407086659979453
31
0
210
0
220
0
230
1
40
0.98468
41
-3.1415308163666
42
-4.09998642706317E-16
0
ELLIPSE
5
1D4
100
AcDbEntity
8
1
62
256
6
ByLayer
370
-1
48
1
60
0
100
AcDbEllipse
10
151.959534
20
-13.322163
30
0
11
-4.38112776020822
21
-0.407086659979458
31
0
210
0
220
0
230
1
40
0.98468
41
0
42
6.28318530717959
0
ELLIPSE
5
1D5
100
AcDbEntity
8
1
62
256
6
ByLayer
370
-1
48
1
60
0
100
AcDbEllipse
10
151.968311
20
-13.416615
30
0
11
-2.38970605102271
21
-0.222047269079707
31
0
210
0
220
0
230
1
40
0.98468
41
0
42
6.28318530717959
0
ELLIPSE
5
1D6
100
AcDbEntity
8
1
62
256
6
ByLayer
370
-1
48
1
60
0
100
AcDbEllipse
10
150.936376
20
-14.74235
30
0
11
-0.45973429934105
21
0.257187488833518
31
0
210
0
220
0
230
1
40
0.501141
41
-2.8095020067084
42
-1.58053389321516
0
ELLIPSE
5
1D7
100
AcDbEntity
8
1
62
256
6
ByLayer
370
-1
48
1
60
0
100
AcDbEllipse
10
152.930067
20
-14.736764
30
0
11
-0.459483676979476
21
-0.260208249922803
31
0
210
0
220
0
230
1
40
0.498746
41
-1.5629965747644
42
-0.149222755520649
0
ELLIPSE
5
1D8
100
AcDbEntity
8
1
62
256
6
ByLayer
370
-1
48
1
60
0
100
AcDbEllipse
10
151.933221
20
-15.002539
30
0
11
-0.529380194123887
21
-0.00196779506758333
31
0
210
0
220
0
230
1
40
0.49623
41
0.308773366074937
42
3.05951348434613
0
ELLIPSE
5
1D9
100
AcDbEntity
8
1
62
256
6
ByLayer
370
-1
48
1
60
0
100
AcDbEllipse
10
153.659721
20
-14.015922
30
0
11
-0.266966093249816
21
-0.450975689239687
31
0
210
0
220
0
230
1
40
0.506343
41
-0.0715155050303407
42
2.0537034352719
0
ELLIPSE
5
1DA
100
AcDbEntity
8
1
62
256
6
ByLayer
370
-1
48
1
60
0
100
AcDbEllipse
10
152.930067
20
-14.736764
30
0
11
-0.459483676977929
21
-0.260208249921265
31
0
210
0
220
0
230
1
40
0.498746
41
-2.97677039400927
42
-1.56299657476324
0
ELLIPSE
5
1DB
100
AcDbEntity
8
1
62
256
6
ByLayer
370
-1
48
1
60
0
100
AcDbEllipse
10
151.933221
20
-13.03898
30
0
11
-1.71979178805263
21
-0.159800017981026
31
0
210
0
220
0
230
1
40
0.98468
41
2.00315444745553
42
3.050351998652
0
ELLIPSE
5
1DC
100
AcDbEntity
8
1
62
256
6
ByLayer
370
-1
48
1
60
0
100
AcDbEllipse
10
153.926912
20
-13.033394
30
0
11
-0.000517732187172877
21
-0.521406933091414
31
0
210
0
220
0
230
1
40
0.511529
41
-1.56885518377115
42
-1.38919494874376
0
ELLIPSE
5
1DD
100
AcDbEntity
8
1
62
256
6
ByLayer
370
-1
48
1
60
0
100
AcDbEllipse
10
150.206721
20
-14.025596
30
0
11
-0.26654519700232
21
0.449730189353104
31
0
210
0
220
0
230
1
40
0.508837
41
1.21509275466491
42
-3.06823590932885
0
ELLIPSE
5
1DE
100
AcDbEntity
8
1
62
256
6
ByLayer
370
-1
48
1
60
0
100
AcDbEllipse
10
151.933221
20
-13.03898
30
0
11
-1.71979178805263
21
-0.159800017981026
31
0
210
0
220
0
230
1
40
0.98468
41
0.0616990630949293
42
0.955956896258839
0
ELLIPSE
5
1DF
100
AcDbEntity
8
1
62
256
6
ByLayer
370
-1
48
1
60
0
100
AcDbEllipse
10
150.936376
20
-14.74235
30
0
11
-0.459734299336834
21
0.257187488835184
31
0
210
0
220
0
230
1
40
0.501141
41
-1.58053389319897
42
-0.166760073958523
0
ELLIPSE
5
1E0
100
AcDbEntity
8
1
62
256
6
ByLayer
370
-1
48
1
60
0
100
AcDbEllipse
10
151.968311
20
-13.416615
30
0
11
2.25090395789241
21
0.20915002353399
31
0
210
0
220
0
230
1
40
0.98468
41
-2.7092345329293
42
-1.66203698173266
0
ELLIPSE
5
1E1
100
AcDbEntity
8
1
62
256
6
ByLayer
370
-1
48
1
60
0
100
AcDbEllipse
10
151.968311
20
-13.416615
30
0
11
2.25090395789241
21
0.20915002353399
31
0
210
0
220
0
230
1
40
0.98468
41
-1.66203698173266
42
-0.614839430536042
0
ELLIPSE
5
1E2
100
AcDbEntity
8
1
62
256
6
ByLayer
370
-1
48
1
60
0
100
AcDbEllipse
10
151.968311
20
-13.416615
30
0
11
2.25090395789241
21
0.20915002353399
31
0
210
0
220
0
230
1
40
0.98468
41
-0.614839430536042
42
0.432358120660546
0
ELLIPSE
5
1E3
100
AcDbEntity
8
1
62
256
6
ByLayer
370
-1
48
1
60
0
100
AcDbEllipse
10
151.968311
20
-13.416615
30
0
11
2.25090395789241
21
0.20915002353399
31
0
210
0
220
0
230
1
40
0.98468
41
0.432358120660547
42
1.47955567185714
0
ELLIPSE
5
1E4
100
AcDbEntity
8
1
62
256
6
ByLayer
370
-1
48
1
60
0
100
AcDbEllipse
10
151.968311
20
-13.416615
30
0
11
2.25090395789241
21
0.20915002353399
31
0
210
0
220
0
230
1
40
0.98468
41
1.47955567185714
42
2.52675322305367
0
ELLIPSE
5
1E5
100
AcDbEntity
8
1
62
256
6
ByLayer
370
-1
48
1
60
0
100
AcDbEllipse
10
151.968311
20
-13.416615
30
0
11
2.25090395789241
21
0.20915002353399
31
0
210
0
220
0
230
1
40
0.98468
41
2.52675322305367
42
-2.7092345329293
0
ELLIPSE
5
1E6
100
AcDbEntity
8
1
62
256
6
ByLayer
370
-1
48
1
60
0
100
AcDbEllipse
10
151.933221
20
-13.03898
30
0
11
1.71979178805261
21
0.159800017981024
31
0
210
0
220
0
230
1
40
0.98468
41
-2.1856357573309
42
-1.13843820613437
0
ELLIPSE
5
1E7
100
AcDbEntity
8
1
62
256
6
ByLayer
370
-1
48
1
60
0
100
AcDbEllipse
10
153.659721
20
-12.052363
30
0
11
-0.266545197002282
21
0.449730189353106
31
0
210
0
220
0
230
1
40
0.508837
41
3.05210235615159
42
-2.74145898999507
0
ELLIPSE
5
1E8
100
AcDbEntity
8
1
62
256
6
ByLayer
370
-1
48
1
60
0
100
AcDbEllipse
10
153.926912
20
-13.033394
30
0
11
-0.000517732183149611
21
-0.521406933095318
31
0
210
0
220
0
230
1
40
0.511529
41
-2.98262900302116
42
-1.56885518378953
0
ELLIPSE
5
1E9
100
AcDbEntity
8
1
62
256
6
ByLayer
370
-1
48
1
60
0
100
AcDbEllipse
10
151.933221
20
-13.03898
30
0
11
-1.71979178805263
21
-0.159800017981026
31
0
210
0
220
0
230
1
40
0.98468
41
3.05035199865217
42
-2.58658151081486
0
ELLIPSE
5
1EA
100
AcDbEntity
8
1
62
256
6
ByLayer
370
-1
48
1
60
0
100
AcDbEllipse
10
151.933221
20
-13.03898
30
0
11
-1.71979178805263
21
-0.159800017981026
31
0
210
0
220
0
230
1
40
0.98468
41
-1.98246305319968
42
-1.37152138765146
0
ELLIPSE
5
1EB
100
AcDbEntity
8
1
62
256
6
ByLayer
370
-1
48
1
60
0
100
AcDbEllipse
10
151.933221
20
-13.03898
30
0
11
-1.71979178805263
21
-0.159800017981026
31
0
210
0
220
0
230
1
40
0.98468
41
-0.730701959498067
42
-0.115620673782955
0
ELLIPSE
5
1EC
100
AcDbEntity
8
1
62
256
6
ByLayer
370
-1
48
1
60
0
100
AcDbEllipse
10
149.939531
20
-13.044566
30
0
11
-0.000517732183845365
21
-0.521406933085232
31
0
210
0
220
0
230
1
40
0.511529
41
1.75239648752646
42
2.98651128905746
0
ELLIPSE
5
1ED
100
AcDbEntity
8
1
62
256
6
ByLayer
370
-1
48
1
60
0
100
AcDbEllipse
10
145.70992
20
-20.195375
30
0
11
0.15
21
0
31
0
210
0
220
0
230
1
40
0.173648
41
0.582093091641687
42
1.28923561536035
0
ELLIPSE
5
1EE
100
AcDbEntity
8
1
62
256
6
ByLayer
370
-1
48
1
60
0
100
AcDbEllipse
10
146.595983
20
-20.180744
30
0
11
0.599999999999999
21
0
31
0
210
0
220
0
230
1
40
0.173648
41
-2.3849666367489
42
-1.55593524205166
0
ELLIPSE
5
1EF
100
AcDbEntity
8
1
62
256
6
ByLayer
370
-1
48
1
60
0
100
AcDbEllipse
10
148.341158
20
-19.894653
30
0
11
3
21
0
31
0
210
0
220
0
230
1
40
0.173648
41
-2.55949956194839
42
-2.38496663674897
0
ELLIPSE
5
1F0
100
AcDbEntity
8
1
62
256
6
ByLayer
370
-1
48
1
60
0
100
AcDbEllipse
10
145.661154
20
-18.271899
30
0
11
0.995135953315481
21
0.0985110877966969
31
0
210
0
220
0
230
1
40
0.984662
41
3.04442534209212
42
-3.14159235353368
0
ELLIPSE
5
1F1
100
AcDbEntity
8
1
62
256
6
ByLayer
370
-1
48
1
60
0
100
AcDbEllipse
10
147.597639
20
-20.190503
30
0
11
0.15
21
0
31
0
210
0
220
0
230
1
40
0.173648
41
0.582093091641687
42
2.58922173143501
0
ELLIPSE
5
1F2
100
AcDbEntity
8
1
62
256
6
ByLayer
370
-1
48
1
60
0
100
AcDbEllipse
10
146.709463
20
-20.180451
30
0
11
0.599999999999999
21
0
31
0
210
0
220
0
230
1
40
0.173648
41
-1.55593524205166
42
-0.726903847354318
0
ELLIPSE
5
1F3
100
AcDbEntity
8
1
62
256
6
ByLayer
370
-1
48
1
60
0
100
AcDbEllipse
10
144.916098
20
-19.903492
30
0
11
3
21
0
31
0
210
0
220
0
230
1
40
0.173648
41
-0.726903847354314
42
-0.552370922154879
0
ELLIPSE
5
1F4
100
AcDbEntity
8
1
62
256
6
ByLayer
370
-1
48
1
60
0
100
AcDbEllipse
10
156.251547
20
-1.616895
30
0
11
-0.996361289646767
21
-0.0852617015571628
31
0
210
0
220
0
230
1
40
0.984696
41
-2.88248470763911
42
-2.59677928566139
0
ELLIPSE
5
1F5
100
AcDbEntity
8
1
62
256
6
ByLayer
370
-1
48
1
60
0
100
AcDbEllipse
10
145.752678
20
-19.19646
30
0
11
-0.996361289647045
21
-0.0852617015418033
31
0
210
0
220
0
230
1
40
0.984696
41
-0.0840649114113926
42
1.31542525623326
0
POINT
5
41
100
AcDbEntity
8
80
62
256
6
ByLayer
370
-1
48
1
60
0
100
AcDbPoint
10
0
20
0
30
0
39
0
210
0
220
0
230
1
50
360
0
POINT
5
43
100
AcDbEntity
8
81
62
256
6
ByLayer
370
-1
48
1
60
0
100
AcDbPoint
10
159.914
20
-26.875
30
0
39
0
210
0
220
0
230
1
50
360
0
POINT
5
45
100
AcDbEntity
8
2
62
256
6
ByLayer
370
-1
48
1
60
0
100
AcDbPoint
10
159.914
20
26.875
30
0
39
0
210
0
220
0
230
1
50
360
0
SPLINE
5
1F6
100
AcDbEntity
8
1
62
256
6
ByLayer
370
-1
48
1
60
0
100
AcDbSpline
70
4
71
3
72
12
73
8
40
0
40
0
40
0
40
0
40
0.122170085866506
40
0.390291820276421
40
0.650436563413292
40
0.901678260560228
40
1
40
1
40
1
40
1
41
1
10
158.858207296507
20
-7.40146507480983
30
0
41
1
10
158.921186895981
20
-7.33427113412202
30
0
41
1
10
159.117477889517
20
-7.11479502340629
30
0
41
1
10
159.426036504363
20
-6.73387897938881
30
0
41
1
10
159.754573925361
20
-6.2463943929674
30
0
41
1
10
159.981105581769
20
-5.84618328505636
30
0
41
1
10
160.097136656325
20
-5.61000497726928
30
0
41
1
10
160.128700693578
20
-5.54303461631216
30
0
0
SPLINE
5
1F7
100
AcDbEntity
8
1
62
256
6
ByLayer
370
-1
48
1
60
0
100
AcDbSpline
70
4
71
3
72
12
73
8
40
0
40
0
40
0
40
0
40
0.0419226613228286
40
0.270780393192389
40
0.513033304265246
40
0.762973675050458
40
1
40
1
40
1
40
1
41
1
10
160.250885136523
20
-0.360127189735692
30
0
41
1
10
160.23789896589
20
-0.325815340034126
30
0
41
1
10
160.151601032025
20
-0.105299689401988
30
0
41
1
10
159.94480798406
20
0.294396044910855
30
0
41
1
10
159.621334035649
20
0.836266697841751
30
0
41
1
10
159.2415675833
20
1.34984637300548
30
0
41
1
10
158.961233405373
20
1.6717748213641
30
0
41
1
10
158.816668651867
20
1.82027596308734
30
0
0
SPLINE
5
1F8
100
AcDbEntity
8
1
62
256
6
ByLayer
370
-1
48
1
60
0
100
AcDbSpline
70
4
71
3
72
8
73
4
40
0
40
0
40
0
40
0
40
1
40
1
40
1
40
1
41
1
10
126.719553923557
20
-19.450933863505
30
0
41
1
10
126.711125256874
20
-19.4572446475474
30
0
41
1
10
126.704999869732
20
-19.4635207690962
30
0
41
1
10
126.701336658826
20
-19.4696974641643
30
0
0
SPLINE
5
1F9
100
AcDbEntity
8
1
62
256
6
ByLayer
370
-1
48
1
60
0
100
AcDbSpline
70
4
71
3
72
18
73
14
40
0
40
0
40
0
40
0
40
0.0002391471649506
40
0.0002391471649506
40
0.216892827786233
40
0.216892827786233
40
0.420347301560783
40
0.420347301560783
40
0.627267281002727
40
0.627267281002727
40
0.859548414243397
40
0.859548414243397
40
1
40
1
40
1
40
1
41
1
10
126.705051529909
20
-19.500310314701
30
0
41
1
10
126.705067419471
20
-19.5003273598096
30
0
41
1
10
126.705083333976
20
-19.5003444029972
30
0
41
1
10
126.719507827691
20
-19.5157659873522
30
0
41
1
10
126.75501374817
20
-19.5300004497947
30
0
41
1
10
126.860086840126
20
-19.5533140854097
30
0
41
1
10
126.928713045175
20
-19.5629809030582
30
0
41
1
10
127.089712393193
20
-19.5786743242614
30
0
41
1
10
127.18426404783
20
-19.5848614838037
30
0
41
1
10
127.397199004706
20
-19.5946803917679
30
0
41
1
10
127.519521681427
20
-19.5980533226481
30
0
41
1
10
127.718652085448
20
-19.6010852474756
30
0
41
1
10
127.79527091624
20
-19.6016940206849
30
0
41
1
10
127.871746312665
20
-19.6018112704261
30
0
0
SPLINE
5
1FA
100
AcDbEntity
8
1
62
256
6
ByLayer
370
-1
48
1
60
0
100
AcDbSpline
70
4
71
3
72
8
73
4
40
0
40
0
40
0
40
0
40
1
40
1
40
1
40
1
41
1
10
112.138931380204
20
7.57100492421574
30
0
41
1
10
112.261146679006
20
7.38470704347381
30
0
41
1
10
112.380786063263
20
7.19645255712558
30
0
41
1
10
112.497587704931
20
7.00604258659396
30
0
0
SPLINE
5
1FB
100
AcDbEntity
8
1
62
256
6
ByLayer
370
-1
48
1
60
0
100
AcDbSpline
70
4
71
3
72
8
73
4
40
0
40
0
40
0
40
0
40
1
40
1
40
1
40
1
41
1
10
130.659786386493
20
-19.8969613109698
30
0
41
1
10
131.028780305835
20
-20.344969236506
30
0
41
1
10
131.398327625965
20
-20.7925347717634
30
0
41
1
10
131.76832793979
20
-21.2397357093794
30
0
0
SPLINE
5
1FC
100
AcDbEntity
8
1
62
256
6
ByLayer
370
-1
48
1
60
0
100
AcDbSpline
70
4
71
3
72
8
73
4
40
0
40
0
40
0
40
0
40
1
40
1
40
1
40
1
41
1
10
112.138931380118
20
-17.51075
30
0
41
1
10
112.259723833254
20
-17.51075
30
0
41
1
10
112.379307812415
20
-17.51075
30
0
41
1
10
112.49758770493
20
-17.51075
30
0
0
SPLINE
5
1FD
100
AcDbEntity
8
1
62
256
6
ByLayer
370
-1
48
1
60
0
100
AcDbSpline
70
4
71
3
72
8
73
4
40
0
40
0
40
0
40
0
40
1
40
1
40
1
40
1
41
1
10
131.76832793979
20
-21.2397357093794
30
0
41
1
10
131.678692425689
20
-21.1608845178517
30
0
41
1
10
131.600584451217
20
-21.0819589315549
30
0
41
1
10
131.534411803165
20
-21.0029563187737
30
0
0
SPLINE
5
1FE
100
AcDbEntity
8
1
62
256
6
ByLayer
370
-1
48
1
60
0
100
AcDbSpline
70
4
71
3
72
10
73
6
40
0
40
0
40
0
40
0
40
0.5
40
0.5
40
1
40
1
40
1
40
1
41
1
10
130.173046034127
20
6.72675441799385
30
0
41
1
10
130.153516172904
20
6.71763219940703
30
0
41
1
10
130.132726208707
20
6.7101392890589
30
0
41
1
10
130.090368152799
20
6.70006901547484
30
0
41
1
10
130.068847171009
20
6.69743421020317
30
0
41
1
10
130.046950831998
20
6.69743421020317
30
0
0
SPLINE
5
1FF
100
AcDbEntity
8
1
62
256
6
ByLayer
370
-1
48
1
60
0
100
AcDbSpline
70
4
71
3
72
12
73
8
40
0
40
0
40
0
40
0
40
0.375413687108505
40
0.375413687108505
40
0.750684773355717
40
0.750684773355717
40
1
40
1
40
1
40
1
41
1
10
130.046950831998
20
-19.6051074526478
30
0
41
1
10
130.134545973911
20
-19.6052386287419
30
0
41
1
10
130.223272721843
20
-19.6204707629057
30
0
41
1
10
130.388219400815
20
-19.6781505059414
30
0
41
1
10
130.466685358896
20
-19.7213390538948
30
0
41
1
10
130.58086802171
20
-19.8110258622253
30
0
41
1
10
130.622888203822
20
-19.8521619866112
30
0
41
1
10
130.659786386499
20
-19.8969613109641
30
0
0
SPLINE
5
200
100
AcDbEntity
8
1
62
256
6
ByLayer
370
-1
48
1
60
0
100
AcDbSpline
70
4
71
3
72
14
73
10
40
0
40
0
40
0
40
0
40
0.159016419641666
40
0.159016419641666
40
0.38713775681611
40
0.38713775681611
40
0.768502935581273
40
0.768502935581273
40
1
40
1
40
1
40
1
41
1
10
112.897587702879
20
-6.69743421020334
30
0
41
1
10
112.86967596961
20
-6.69743421020337
30
0
41
1
10
112.841503447282
20
-6.70189396764113
30
0
41
1
10
112.776532465406
20
-6.72171754508636
30
0
41
1
10
112.740321862071
20
-6.74109297510088
30
0
41
1
10
112.653355955162
20
-6.80296666037987
30
0
41
1
10
112.606789803147
20
-6.85286176106905
30
0
41
1
10
112.541477897474
20
-6.93787540802947
30
0
41
1
10
112.518759689381
20
-6.97152802944601
30
0
41
1
10
112.497587704927
20
-7.00604258659215
30
0
0
SPLINE
5
201
100
AcDbEntity
8
1
62
256
6
ByLayer
370
-1
48
1
60
0
100
AcDbSpline
70
4
71
3
72
12
73
8
40
0
40
0
40
0
40
0
40
0.349744209822866
40
0.349744209822866
40
0.74400470988747
40
0.74400470988747
40
1
40
1
40
1
40
1
41
1
10
112.49758770493
20
-17.51075
30
0
41
1
10
112.532602946141
20
-17.51075
30
0
41
1
10
112.571434330543
20
-17.51075
30
0
41
1
10
112.662821677701
20
-17.51075
30
0
41
1
10
112.717990872012
20
-17.51075
30
0
41
1
10
112.815826314661
20
-17.51075
30
0
41
1
10
112.856928092517
20
-17.51075
30
0
41
1
10
112.897587702879
20
-17.51075
30
0
0
SPLINE
5
202
100
AcDbEntity
8
1
62
256
6
ByLayer
370
-1
48
1
60
0
100
AcDbSpline
70
4
71
3
72
10
73
6
40
0
40
0
40
0
40
0
40
0.5
40
0.5
40
1
40
1
40
1
40
1
41
1
10
112.497587704931
20
7.00604258659396
30
0
41
1
10
112.543393319139
20
6.93137030008347
30
0
41
1
10
112.595969257117
20
6.86001159917711
30
0
41
1
10
112.727295033012
20
6.74253200928084
30
0
41
1
10
112.810181958749
20
6.69743421020374
30
0
41
1
10
112.897587702879
20
6.69743421020357
30
0
0
SPLINE
5
203
100
AcDbEntity
8
1
62
256
6
ByLayer
370
-1
48
1
60
0
100
AcDbSpline
70
4
71
3
72
8
73
4
40
0
40
0
40
0
40
0
40
1
40
1
40
1
40
1
41
1
10
134.020615125285
20
-6.97360970967731
30
0
41
1
10
134.009081840014
20
-6.98443589302363
30
0
41
1
10
133.998768477419
20
-6.99815327863013
30
0
41
1
10
133.989516596995
20
-7.0144349573709
30
0
0
SPLINE
5
204
100
AcDbEntity
8
1
62
256
6
ByLayer
370
-1
48
1
60
0
100
AcDbSpline
70
4
71
3
72
24
73
20
40
0
40
0
40
0
40
0
40
0.0292394167158575
40
0.0292394167158575
40
0.169360629218109
40
0.169360629218109
40
0.348428373659014
40
0.348428373659014
40
0.446032783191123
40
0.446032783191123
40
0.544505593963654
40
0.544505593963654
40
0.688138570030192
40
0.688138570030192
40
0.844042645794534
40
0.844042645794534
40
0.955516925062079
40
0.955516925062079
40
1
40
1
40
1
40
1
41
1
10
133.957669339843
20
-7.09288528411125
30
0
41
1
10
133.951991944277
20
-7.11202832123595
30
0
41
1
10
133.946925735833
20
-7.13270168367981
30
0
41
1
10
133.92057401873
20
-7.26009113486364
30
0
41
1
10
133.909626872834
20
-7.39842380757398
30
0
41
1
10
133.883830123306
20
-7.74700332789632
30
0
41
1
10
133.871000488228
20
-7.97392609136676
30
0
41
1
10
133.791451465554
20
-8.33081376589757
30
0
41
1
10
133.749172546892
20
-8.46085074169312
30
0
41
1
10
133.621981972257
20
-8.703310040514
30
0
41
1
10
133.534814104966
20
-8.81728737881883
30
0
41
1
10
133.296879210661
20
-9.06368537229608
30
0
41
1
10
133.134465052423
20
-9.18909901711862
30
0
41
1
10
132.813444518501
20
-9.43437658784802
30
0
41
1
10
132.649878669209
20
-9.55615230863575
30
0
41
1
10
132.420153209581
20
-9.76199940667493
30
0
41
1
10
132.337630348147
20
-9.84863772301679
30
0
41
1
10
132.259754651786
20
-9.96801639980333
30
0
41
1
10
132.241573898436
20
-10.0023366657354
30
0
41
1
10
132.228457133507
20
-10.0363612166774
30
0
0
SPLINE
5
205
100
AcDbEntity
8
1
62
256
6
ByLayer
370
-1
48
1
60
0
100
AcDbSpline
70
4
71
3
72
8
73
4
40
0
40
0
40
0
40
0
40
1
40
1
40
1
40
1
41
1
10
112.49758770493
20
-7.00604258659405
30
0
41
1
10
112.381053124317
20
-7.19601719434476
30
0
41
1
10
112.261418474307
20
-7.38429273455225
30
0
41
1
10
112.138931380204
20
-7.57100492421583
30
0
0
SPLINE
5
206
100
AcDbEntity
8
1
62
256
6
ByLayer
370
-1
48
1
60
0
100
AcDbSpline
70
4
71
3
72
10
73
6
40
0
40
0
40
0
40
0
40
0.593726189297199
40
0.593726189297199
40
1
40
1
40
1
40
1
41
1
10
159.888073297893
20
-15.8008499442473
30
0
41
1
10
159.888457751603
20
-15.7856104653204
30
0
41
1
10
159.888784196435
20
-15.7648981369188
30
0
41
1
10
159.889210491185
20
-15.7251018443461
30
0
41
1
10
159.88935299671
20
-15.7072736937777
30
0
41
1
10
159.889464707695
20
-15.6885969037818
30
0
0
SPLINE
5
207
100
AcDbEntity
8
1
62
256
6
ByLayer
370
-1
48
1
60
0
100
AcDbSpline
70
4
71
3
72
12
73
8
40
0
40
0
40
0
40
0
40
0.625116859010353
40
0.625116859010353
40
0.853176044554908
40
0.853176044554908
40
1
40
1
40
1
40
1
41
1
10
159.889995139502
20
-14.6463676194239
30
0
41
1
10
159.890403602627
20
-14.5715407961089
30
0
41
1
10
159.890693790985
20
-14.4904336017006
30
0
41
1
10
159.890575767281
20
-14.3755975475489
30
0
41
1
10
159.89048760797
20
-14.3437348679879
30
0
41
1
10
159.890204024561
20
-14.2931334756149
30
0
41
1
10
159.890055179933
20
-14.2734583741243
30
0
41
1
10
159.88986609395
20
-14.2552592508699
30
0
0
SPLINE
5
208
100
AcDbEntity
8
1
62
256
6
ByLayer
370
-1
48
1
60
0
100
AcDbSpline
70
4
71
3
72
10
73
6
40
0
40
0
40
0
40
0
40
0.593726189297086
40
0.593726189297086
40
1
40
1
40
1
40
1
41
1
10
150.257383223581
20
-5.17882082496368
30
0
41
1
10
150.240730022957
20
-5.19269462382175
30
0
41
1
10
150.219755625725
20
-5.20838034176819
30
0
41
1
10
150.181156241867
20
-5.23526960342735
30
0
41
1
10
150.164274467686
20
-5.2465318766024
30
0
41
1
10
150.146907119046
20
-5.25772262050009
30
0
0
SPLINE
5
209
100
AcDbEntity
8
1
62
256
6
ByLayer
370
-1
48
1
60
0
100
AcDbSpline
70
4
71
3
72
12
73
8
40
0
40
0
40
0
40
0
40
0.625116859010311
40
0.625116859010311
40
0.85317604455488
40
0.85317604455488
40
1
40
1
40
1
40
1
41
1
10
149.226016386904
20
-5.78998180608446
30
0
41
1
10
149.156766586722
20
-5.83418430042082
30
0
41
1
10
149.082995580612
20
-5.87962998033368
30
0
41
1
10
148.983022408334
20
-5.93542250108925
30
0
41
1
10
148.955752563298
20
-5.95000682366205
30
0
41
1
10
148.913660159091
20
-5.97084671011416
30
0
41
1
10
148.8976200659
20
-5.97832595303657
30
0
41
1
10
148.883218313577
20
-5.98441287850329
30
0
0
SPLINE
5
20A
100
AcDbEntity
8
1
62
256
6
ByLayer
370
-1
48
1
60
0
100
AcDbSpline
70
4
71
3
72
14
73
10
40
0
40
0
40
0
40
0
40
0.151895429222805
40
0.151895429222805
40
0.342602352580877
40
0.342602352580877
40
0.577012052618427
40
0.577012052618427
40
1
40
1
40
1
40
1
41
1
10
156.615140463434
20
-16.1206723402006
30
0
41
1
10
156.61193179264
20
-16.1198933702853
30
0
41
1
10
156.608545726528
20
-16.1196667732651
30
0
41
1
10
156.601119752136
20
-16.1202839680057
30
0
41
1
10
156.597018522037
20
-16.1214071745885
30
0
41
1
10
156.588530113634
20
-16.1250279817329
30
0
41
1
10
156.584160549277
20
-16.1278143038383
30
0
41
1
10
156.573164418138
20
-16.1367367631218
30
0
41
1
10
156.567242506685
20
-16.1439282986932
30
0
41
1
10
156.562476438468
20
-16.1516118688861
30
0
0
SPLINE
5
20B
100
AcDbEntity
8
1
62
256
6
ByLayer
370
-1
48
1
60
0
100
AcDbSpline
70
4
71
3
72
10
73
6
40
0
40
0
40
0
40
0
40
0.664373607448597
40
0.664373607448597
40
1
40
1
40
1
40
1
41
1
10
156.528044726614
20
-15.3983525628674
30
0
41
1
10
156.504341609759
20
-15.5383998200524
30
0
41
1
10
156.476221673255
20
-15.6775800102717
30
0
41
1
10
156.427327283533
20
-15.8853200865769
30
0
41
1
10
156.409795969174
20
-15.9547750026789
30
0
41
1
10
156.391152522063
20
-16.0239086493846
30
0
0
SPLINE
5
20C
100
AcDbEntity
8
1
62
256
6
ByLayer
370
-1
48
1
60
0
100
AcDbSpline
70
4
71
3
72
10
73
6
40
0
40
0
40
0
40
0
40
0.308294658890176
40
0.308294658890176
40
1
40
1
40
1
40
1
41
1
10
156.787232791691
20
-15.3677660208445
30
0
41
1
10
156.792566079421
20
-15.3381909230929
30
0
41
1
10
156.79590136175
20
-15.3081048897622
30
0
41
1
10
156.799307792849
20
-15.2106710930484
30
0
41
1
10
156.790455583344
20
-15.1408450362599
30
0
41
1
10
156.766133551839
20
-15.074977249467
30
0
0
SPLINE
5
20D
100
AcDbEntity
8
1
62
256
6
ByLayer
370
-1
48
1
60
0
100
AcDbSpline
70
4
71
3
72
12
73
8
40
0
40
0
40
0
40
0
40
0.475702259787901
40
0.475702259787901
40
0.987510459776041
40
0.987510459776041
40
1
40
1
40
1
40
1
41
1
10
156.766133551839
20
-15.074977249467
30
0
41
1
10
156.735072794616
20
-15.0332306770293
30
0
41
1
10
156.700273213615
20
-14.9904380264847
30
0
41
1
10
156.626491449034
20
-14.9038403125541
30
0
41
1
10
156.586667226427
20
-14.8594254900791
30
0
41
1
10
156.545795970467
20
-14.8154697025182
30
0
41
1
10
156.544824033386
20
-14.8144258196052
30
0
41
1
10
156.543852379688
20
-14.8133822807765
30
0
0
SPLINE
5
20E
100
AcDbEntity
8
1
62
256
6
ByLayer
370
-1
48
1
60
0
100
AcDbSpline
70
4
71
3
72
12
73
8
40
0
40
0
40
0
40
0
40
0.0136540192120205
40
0.0136540192120205
40
0.527563903938536
40
0.527563903938536
40
1
40
1
40
1
40
1
41
1
10
156.543852379688
20
-14.8133822807765
30
0
41
1
10
156.543985089168
20
-14.8149415013831
30
0
41
1
10
156.544118181007
20
-14.8165012258833
30
0
41
1
10
156.549244123429
20
-14.8768752660465
30
0
41
1
10
156.553858908464
20
-14.9366957257496
30
0
41
1
10
156.561399214332
20
-15.0513335683239
30
0
41
1
10
156.564498422151
20
-15.1067733720622
30
0
41
1
10
156.566466262741
20
-15.1605197873624
30
0
0
SPLINE
5
20F
100
AcDbEntity
8
1
62
256
6
ByLayer
370
-1
48
1
60
0
100
AcDbSpline
70
4
71
3
72
10
73
6
40
0
40
0
40
0
40
0
40
0.678343265954008
40
0.678343265954008
40
1
40
1
40
1
40
1
41
1
10
156.566466262741
20
-15.1605197873624
30
0
41
1
10
156.568466085339
20
-15.2151397075282
30
0
41
1
10
156.560882099344
20
-15.2700706775059
30
0
41
1
10
156.542926736925
20
-15.3485265552626
30
0
41
1
10
156.53596576877
20
-15.3736055815888
30
0
41
1
10
156.528044726614
20
-15.3983525628674
30
0
0
SPLINE
5
210
100
AcDbEntity
8
1
62
256
6
ByLayer
370
-1
48
1
60
0
100
AcDbSpline
70
4
71
3
72
12
73
8
40
0
40
0
40
0
40
0
40
0.0124895402239802
40
0.0124895402239802
40
0.524297740212163
40
0.524297740212163
40
1
40
1
40
1
40
1
41
1
10
156.755461040545
20
-13.9768585180279
30
0
41
1
10
156.75681766222
20
-13.9763802152696
30
0
41
1
10
156.758174442551
20
-13.9759027496563
30
0
41
1
10
156.815246255264
20
-13.9558150777595
30
0
41
1
10
156.871186263395
20
-13.9365215553478
30
0
41
1
10
156.975850402375
20
-13.9010361752756
30
0
41
1
10
157.025673726026
20
-13.8844375056324
30
0
41
1
10
157.071032708023
20
-13.8696608491013
30
0
0
SPLINE
5
211
100
AcDbEntity
8
1
62
256
6
ByLayer
370
-1
48
1
60
0
100
AcDbSpline
70
4
71
3
72
10
73
6
40
0
40
0
40
0
40
0
40
0.699253394043902
40
0.699253394043902
40
1
40
1
40
1
40
1
41
1
10
157.008018867847
20
-13.5009360156425
30
0
41
1
10
156.99939687711
20
-13.5492305407684
30
0
41
1
10
156.986204679598
20
-13.5969938303858
30
0
41
1
10
156.957751249005
20
-13.6615873286199
30
0
41
1
10
156.947865216054
20
-13.6806483065753
30
0
41
1
10
156.936232163549
20
-13.6987745004351
30
0
0
SPLINE
5
212
100
AcDbEntity
8
1
62
256
6
ByLayer
370
-1
48
1
60
0
100
AcDbSpline
70
4
71
3
72
12
73
8
40
0
40
0
40
0
40
0
40
0.472436096061445
40
0.472436096061445
40
0.986345980787925
40
0.986345980787925
40
1
40
1
40
1
40
1
41
1
10
156.936232163549
20
-13.6987745004351
30
0
41
1
10
156.910542982845
20
-13.7388024354376
30
0
41
1
10
156.88248063654
20
-13.7820460147529
30
0
41
1
10
156.822704782047
20
-13.8739038680915
30
0
41
1
10
156.790473553715
20
-13.923255740779
30
0
41
1
10
156.757182488554
20
-13.9742230528892
30
0
41
1
10
156.756321598722
20
-13.9755404332911
30
0
41
1
10
156.755461040545
20
-13.976858518028
30
0
0
SPLINE
5
213
100
AcDbEntity
8
1
62
256
6
ByLayer
370
-1
48
1
60
0
100
AcDbSpline
70
4
71
3
72
10
73
6
40
0
40
0
40
0
40
0
40
0.314957896649168
40
0.314957896649168
40
1
40
1
40
1
40
1
41
1
10
157.071032708023
20
-13.8696608491013
30
0
41
1
10
157.093756069299
20
-13.8543771174689
30
0
41
1
10
157.113857173757
20
-13.8372396290292
30
0
41
1
10
157.169171618046
20
-13.7795812938805
30
0
41
1
10
157.19572474881
20
-13.7342506939156
30
0
41
1
10
157.212377726332
20
-13.6870983251112
30
0
0
SPLINE
5
214
100
AcDbEntity
8
1
62
256
6
ByLayer
370
-1
48
1
60
0
100
AcDbSpline
70
4
71
3
72
10
73
6
40
0
40
0
40
0
40
0
40
0.664375350521646
40
0.664375350521646
40
1
40
1
40
1
40
1
41
1
10
149.644979281289
20
-17.948103876904
30
0
41
1
10
149.547115296062
20
-17.8497275093395
30
0
41
1
10
149.452258012618
20
-17.7479701658345
30
0
41
1
10
149.314286672955
20
-17.590069323585
30
0
41
1
10
149.268775965612
20
-17.536248139592
30
0
41
1
10
149.224095358588
20
-17.4816409716287
30
0
0
SPLINE
5
215
100
AcDbEntity
8
1
62
256
6
ByLayer
370
-1
48
1
60
0
100
AcDbSpline
70
4
71
3
72
16
73
12
40
0
40
0
40
0
40
0
40
0.0032836924211675
40
0.0032836924211675
40
0.4091971063372
40
0.4091971063372
40
0.675155616235385
40
0.675155616235385
40
0.836825832650274
40
0.836825832650274
40
1
40
1
40
1
40
1
41
1
10
149.558986785908
20
-18.1492008551853
30
0
41
1
10
149.558922598313
20
-18.1491694691257
30
0
41
1
10
149.558858375866
20
-18.1491381518232
30
0
41
1
10
149.550938859577
20
-18.1452868846155
30
0
41
1
10
149.542435054315
20
-18.142421509903
30
0
41
1
10
149.528045315148
20
-18.1404330041072
30
0
41
1
10
149.522130467598
20
-18.1403617732083
30
0
41
1
10
149.512985467637
20
-18.1420077934553
30
0
41
1
10
149.509550537082
20
-18.1430589803138
30
0
41
1
10
149.503200709356
20
-18.1461405643134
30
0
41
1
10
149.500220871971
20
-18.1482280947865
30
0
41
1
10
149.497758336372
20
-18.1507466108329
30
0
0
SPLINE
5
216
100
AcDbEntity
8
1
62
256
6
ByLayer
370
-1
48
1
60
0
100
AcDbSpline
70
4
71
3
72
16
73
12
40
0
40
0
40
0
40
0
40
0.0640693006017879
40
0.0640693006017879
40
0.357081330069519
40
0.357081330069519
40
0.623169868282975
40
0.623169868282975
40
0.804233485279178
40
0.804233485279178
40
1
40
1
40
1
40
1
41
1
10
149.644979281289
20
-17.948103876904
30
0
41
1
10
149.640053507976
20
-17.9474069162211
30
0
41
1
10
149.635029505582
20
-17.9469076084322
30
0
41
1
10
149.606908073941
20
-17.9452593140805
30
0
41
1
10
149.581857495792
20
-17.9480718383531
30
0
41
1
10
149.534062457219
20
-17.9610917036125
30
0
41
1
10
149.510754237967
20
-17.9707552783798
30
0
41
1
10
149.473420917316
20
-17.991803835376
30
0
41
1
10
149.458568045931
20
-18.0017900255423
30
0
41
1
10
149.429448878525
20
-18.0248377755325
30
0
41
1
10
149.415126850264
20
-18.0382434018463
30
0
41
1
10
149.402208464725
20
-18.0525394121672
30
0
0
SPLINE
5
217
100
AcDbEntity
8
1
62
256
6
ByLayer
370
-1
48
1
60
0
100
AcDbSpline
70
4
71
3
72
16
73
12
40
0
40
0
40
0
40
0
40
0.182829634754814
40
0.182829634754814
40
0.395907975913655
40
0.395907975913655
40
0.630210556166976
40
0.630210556166976
40
0.706884620389917
40
0.706884620389917
40
1
40
1
40
1
40
1
41
1
10
156.646240963827
20
-15.9863409519006
30
0
41
1
10
156.628870694017
20
-15.981380787316
30
0
41
1
10
156.610968903795
20
-15.9777009365374
30
0
41
1
10
156.572511717174
20
-15.9727770268575
30
0
41
1
10
156.551688797378
20
-15.9719950744655
30
0
41
1
10
156.509799365951
20
-15.974289350397
30
0
41
1
10
156.488512921022
20
-15.9777775121105
30
0
41
1
10
156.4626130662
20
-15.9851445425703
30
0
41
1
10
156.456353895173
20
-15.9871997627571
30
0
41
1
10
156.427459707745
20
-15.998026233193
30
0
41
1
10
156.407208446464
20
-16.0098451594577
30
0
41
1
10
156.391152522063
20
-16.0239086493846
30
0
0
SPLINE
5
218
100
AcDbEntity
8
1
62
256
6
ByLayer
370
-1
48
1
60
0
100
AcDbSpline
70
4
71
3
72
10
73
6
40
0
40
0
40
0
40
0
40
0.593726189297295
40
0.593726189297295
40
1
40
1
40
1
40
1
41
1
10
145.70936245069
20
-18.7308515399503
30
0
41
1
10
145.726784558733
20
-18.7446298656672
30
0
41
1
10
145.748411845631
20
-18.7601962210382
30
0
41
1
10
145.787863818987
20
-18.7868667962485
30
0
41
1
10
145.805030604218
20
-18.7980336712292
30
0
41
1
10
145.822621374828
20
-18.8091264685027
30
0
0
SPLINE
5
219
100
AcDbEntity
8
1
62
256
6
ByLayer
370
-1
48
1
60
0
100
AcDbSpline
70
4
71
3
72
12
73
8
40
0
40
0
40
0
40
0
40
0.625116859010268
40
0.625116859010268
40
0.853176044554854
40
0.853176044554854
40
1
40
1
40
1
40
1
41
1
10
146.744572970584
20
-19.3362223275438
30
0
41
1
10
146.814639697018
20
-19.3800344809872
30
0
41
1
10
146.888991079842
20
-19.4250651474989
30
0
41
1
10
146.988728204712
20
-19.4802981144268
30
0
41
1
10
147.015821731127
20
-19.4947301202037
30
0
41
1
10
147.057346968516
20
-19.5153357244376
30
0
41
1
10
147.073089372451
20
-19.5227259182816
30
0
41
1
10
147.087112952809
20
-19.528733200866
30
0
0
SPLINE
5
21A
100
AcDbEntity
8
1
62
256
6
ByLayer
370
-1
48
1
60
0
100
AcDbSpline
70
4
71
3
72
14
73
10
40
0
40
0
40
0
40
0
40
0.151895429222747
40
0.151895429222747
40
0.342602352580679
40
0.342602352580679
40
0.577012052618631
40
0.577012052618631
40
1
40
1
40
1
40
1
41
1
10
147.23268826832
20
-16.00269062616
30
0
41
1
10
147.234985433982
20
-16.0003412393797
30
0
41
1
10
147.236886048975
20
-15.9975657111558
30
0
41
1
10
147.240074649233
20
-15.9909243787841
30
0
41
1
10
147.241147765187
20
-15.986867248901
30
0
41
1
10
147.242229211163
20
-15.9778252681119
30
0
41
1
10
147.241974826399
20
-15.9727117921759
30
0
41
1
10
147.239654723795
20
-15.9588929927806
30
0
41
1
10
147.236306961345
20
-15.9502636316109
30
0
41
1
10
147.23194579811
20
-15.9423753839028
30
0
0
SPLINE
5
21B
100
AcDbEntity
8
1
62
256
6
ByLayer
370
-1
48
1
60
0
100
AcDbSpline
70
4
71
3
72
10
73
6
40
0
40
0
40
0
40
0
40
0.664373607448597
40
0.664373607448597
40
1
40
1
40
1
40
1
41
1
10
147.796921922854
20
-16.1281956707385
30
0
41
1
10
147.705135095757
20
-16.0653628655592
30
0
41
1
10
147.616344425355
20
-15.9992141254056
30
0
41
1
10
147.487499581837
20
-15.8948618882244
30
0
41
1
10
147.445052327583
20
-15.8590120794825
30
0
41
1
10
147.403436504635
20
-15.8223597579014
30
0
0
SPLINE
5
21C
100
AcDbEntity
8
1
62
256
6
ByLayer
370
-1
48
1
60
0
100
AcDbSpline
70
4
71
3
72
10
73
6
40
0
40
0
40
0
40
0
40
0.308294658890196
40
0.308294658890196
40
1
40
1
40
1
40
1
41
1
10
147.716015655337
20
-16.3957234854263
30
0
41
1
10
147.7353811179
20
-16.4094760802437
30
0
41
1
10
147.756196436921
20
-16.4217739922799
30
0
41
1
10
147.827552893437
20
-16.455613618338
30
0
41
1
10
147.884716772395
20
-16.4707211732553
30
0
41
1
10
147.947162641195
20
-16.4720409855895
30
0
0
SPLINE
5
21D
100
AcDbEntity
8
1
62
256
6
ByLayer
370
-1
48
1
60
0
100
AcDbSpline
70
4
71
3
72
12
73
8
40
0
40
0
40
0
40
0
40
0.475702259787964
40
0.475702259787964
40
0.987510459775913
40
0.987510459775913
40
1
40
1
40
1
40
1
41
1
10
147.947162641195
20
-16.4720409855895
30
0
41
1
10
147.995088931826
20
-16.4602101018185
30
0
41
1
10
148.047255997981
20
-16.4477182909308
30
0
41
1
10
148.156410867536
20
-16.4222165748981
30
0
41
1
10
148.214497758695
20
-16.4089864713078
30
0
41
1
10
148.273635974185
20
-16.3959278284461
30
0
41
1
10
148.275041633194
20
-16.3956173699424
30
0
41
1
10
148.276447406989
20
-16.3953077610965
30
0
0
SPLINE
5
21E
100
AcDbEntity
8
1
62
256
6
ByLayer
370
-1
48
1
60
0
100
AcDbSpline
70
4
71
3
72
12
73
8
40
0
40
0
40
0
40
0
40
0.0136540192121304
40
0.0136540192121304
40
0.527563903938514
40
0.527563903938514
40
1
40
1
40
1
40
1
41
1
10
148.276447406989
20
-16.3953077610965
30
0
41
1
10
148.27500974817
20
-16.3946451914223
30
0
41
1
10
148.273571993549
20
-16.393983448006
30
0
41
1
10
148.217953074461
20
-16.3683757229184
30
0
41
1
10
148.163829955768
20
-16.3436544988211
30
0
41
1
10
148.06259878192
20
-16.2977203038994
30
0
41
1
10
148.014708664449
20
-16.2761404683247
30
0
41
1
10
147.970112789074
20
-16.25615977561
30
0
0
SPLINE
5
21F
100
AcDbEntity
8
1
62
256
6
ByLayer
370
-1
48
1
60
0
100
AcDbSpline
70
4
71
3
72
10
73
6
40
0
40
0
40
0
40
0
40
0.678343265953959
40
0.678343265953959
40
1
40
1
40
1
40
1
41
1
10
147.970112789074
20
-16.25615977561
30
0
41
1
10
147.924792126495
20
-16.2358543499396
30
0
41
1
10
147.884133690015
20
-16.2073866372182
30
0
41
1
10
147.829708352631
20
-16.1607434064131
30
0
41
1
10
147.812935735347
20
-16.1448072276169
30
0
41
1
10
147.796921922854
20
-16.1281956707385
30
0
0
SPLINE
5
220
100
AcDbEntity
8
1
62
256
6
ByLayer
370
-1
48
1
60
0
100
AcDbSpline
70
4
71
3
72
12
73
8
40
0
40
0
40
0
40
0
40
0.0124895402239587
40
0.0124895402239587
40
0.524297740212098
40
0.524297740212098
40
1
40
1
40
1
40
1
41
1
10
148.905652677862
20
-16.9920081310974
30
0
41
1
10
148.905391582545
20
-16.9934032840468
30
0
41
1
10
148.905130231151
20
-16.9947989349491
30
0
41
1
10
148.894163369602
20
-17.0535403876204
30
0
41
1
10
148.883995770382
20
-17.1122142606032
30
0
41
1
10
148.866667731877
20
-17.2247990107424
30
0
41
1
10
148.859172835683
20
-17.2796552161745
30
0
41
1
10
148.853761432468
20
-17.3318046576976
30
0
0
SPLINE
5
221
100
AcDbEntity
8
1
62
256
6
ByLayer
370
-1
48
1
60
0
100
AcDbSpline
70
4
71
3
72
10
73
6
40
0
40
0
40
0
40
0
40
0.699253394043944
40
0.699253394043944
40
1
40
1
40
1
40
1
41
1
10
149.224095358588
20
-17.4816409716288
30
0
41
1
10
149.18214289166
20
-17.4449397717824
30
0
41
1
10
149.142863257679
20
-17.4044784003833
30
0
41
1
10
149.094805421467
20
-17.3403315974333
30
0
41
1
10
149.081334591248
20
-17.3200790227338
30
0
41
1
10
149.06958883526
20
-17.2988366156448
30
0
0
SPLINE
5
222
100
AcDbEntity
8
1
62
256
6
ByLayer
370
-1
48
1
60
0
100
AcDbSpline
70
4
71
3
72
12
73
8
40
0
40
0
40
0
40
0
40
0.472436096061439
40
0.472436096061439
40
0.98634598078796
40
0.98634598078796
40
1
40
1
40
1
40
1
41
1
10
149.06958883526
20
-17.2988366156448
30
0
41
1
10
149.043650772317
20
-17.2519271708476
30
0
41
1
10
149.017314540784
20
-17.2031152090781
30
0
41
1
10
148.96322654013
20
-17.1017540567045
30
0
41
1
10
148.935233872001
20
-17.0486016159617
30
0
41
1
10
148.907105539861
20
-16.9947884936606
30
0
41
1
10
148.906379232145
20
-16.9933979707384
30
0
41
1
10
148.905652677862
20
-16.9920081310974
30
0
0
SPLINE
5
223
100
AcDbEntity
8
1
62
256
6
ByLayer
370
-1
48
1
60
0
100
AcDbSpline
70
4
71
3
72
10
73
6
40
0
40
0
40
0
40
0
40
0.314957896649184
40
0.314957896649184
40
1
40
1
40
1
40
1
41
1
10
148.853761432468
20
-17.3318046576976
30
0
41
1
10
148.859320867899
20
-17.3637172680066
30
0
41
1
10
148.868034908488
20
-17.3946036715683
30
0
41
1
10
148.903032075866
20
-17.4873072552317
30
0
41
1
10
148.938356287276
20
-17.5447715353792
30
0
41
1
10
148.980157834951
20
-17.5945597654594
30
0
0
SPLINE
5
224
100
AcDbEntity
8
1
62
256
6
ByLayer
370
-1
48
1
60
0
100
AcDbSpline
70
4
71
3
72
16
73
12
40
0
40
0
40
0
40
0
40
0.0032836924216835
40
0.0032836924216835
40
0.409197106336959
40
0.409197106336959
40
0.675155616234867
40
0.675155616234867
40
0.836825832650295
40
0.836825832650295
40
1
40
1
40
1
40
1
41
1
10
148.994522523802
20
-8.97462033674259
30
0
41
1
10
148.994582372575
20
-8.9745812013027
30
0
41
1
10
148.994642178404
20
-8.97454200192422
30
0
41
1
10
149.002007753569
20
-8.96970290763156
30
0
41
1
10
149.008800046177
20
-8.96387490532641
30
0
41
1
10
149.017778800891
20
-8.95259000694736
30
0
41
1
10
149.020813427528
20
-8.94758016212742
30
0
41
1
10
149.023961159282
20
-8.93896064607159
30
0
41
1
10
149.024762808832
20
-8.93550769310477
30
0
41
1
10
149.025243819099
20
-8.92855817580698
30
0
41
1
10
149.024905574239
20
-8.9249777924388
30
0
41
1
10
149.023928451052
20
-8.92162422945677
30
0
0
SPLINE
5
225
100
AcDbEntity
8
1
62
256
6
ByLayer
370
-1
48
1
60
0
100
AcDbSpline
70
4
71
3
72
16
73
12
40
0
40
0
40
0
40
0
40
0.0640693006018532
40
0.0640693006018532
40
0.357081330069644
40
0.357081330069644
40
0.623169868282969
40
0.623169868282969
40
0.804233485279184
40
0.804233485279184
40
1
40
1
40
1
40
1
41
1
10
149.10125409723
20
-9.11060819127496
30
0
41
1
10
149.104999204439
20
-9.10766825539187
30
0
41
1
10
149.108611718928
20
-9.10453483480165
30
0
41
1
10
149.127708858067
20
-9.08626457010035
30
0
41
1
10
149.140525083605
20
-9.06725889027686
30
0
41
1
10
149.157472893984
20
-9.02611022041654
30
0
41
1
10
149.162488184628
20
-9.0039271645677
30
0
41
1
10
149.165061813203
20
-8.96484267590341
30
0
41
1
10
149.164505703557
20
-8.94826479483032
30
0
41
1
10
149.160017023371
20
-8.91355358204544
30
0
41
1
10
149.155782101489
20
-8.89516279044491
30
0
41
1
10
149.149805070915
20
-8.87717280271175
30
0
0
SPLINE
5
226
100
AcDbEntity
8
1
62
256
6
ByLayer
370
-1
48
1
60
0
100
AcDbSpline
70
4
71
3
72
16
73
12
40
0
40
0
40
0
40
0
40
0.182829634754609
40
0.182829634754609
40
0.3959079759136
40
0.3959079759136
40
0.630210556166898
40
0.630210556166898
40
0.706884620389858
40
0.706884620389858
40
1
40
1
40
1
40
1
41
1
10
147.326690635614
20
-16.084243350602
30
0
41
1
10
147.339684573256
20
-16.0717619258267
30
0
41
1
10
147.35159859148
20
-16.0578821430792
30
0
41
1
10
147.37411369033
20
-16.025944847648
30
0
41
1
10
147.384358708248
20
-16.007312066117
30
0
41
1
10
147.400970766901
20
-15.9670728173887
30
0
41
1
10
147.407011579576
20
-15.9449700446243
30
0
41
1
10
147.411132049606
20
-15.9158498668057
30
0
41
1
10
147.411843616442
20
-15.9086164607598
30
0
41
1
10
147.41374380648
20
-15.8742701697418
30
0
41
1
10
147.410700198443
20
-15.8471804550742
30
0
41
1
10
147.403436504635
20
-15.8223597579014
30
0
0
SPLINE
5
227
100
AcDbEntity
8
1
62
256
6
ByLayer
370
-1
48
1
60
0
100
AcDbSpline
70
4
71
3
72
14
73
10
40
0
40
0
40
0
40
0
40
0.151895429222745
40
0.151895429222745
40
0.342602352580928
40
0.342602352580928
40
0.577012052618414
40
0.577012052618414
40
1
40
1
40
1
40
1
41
1
10
152.050766523977
20
-8.0582862796995
30
0
41
1
10
152.051678029108
20
-8.06141463639511
30
0
41
1
10
152.053163480228
20
-8.06441676163925
30
0
41
1
10
152.057400854361
20
-8.07044089927032
30
0
41
1
10
152.060428968507
20
-8.07337482257071
30
0
41
1
10
152.067835930934
20
-8.07879599621535
30
0
41
1
10
152.072459880055
20
-8.08112315004607
30
0
41
1
10
152.085776113797
20
-8.08601949015772
30
0
41
1
10
152.0950457877
20
-8.0874573157561
30
0
41
1
10
152.104173019153
20
-8.0876619932713
30
0
0
SPLINE
5
228
100
AcDbEntity
8
1
62
256
6
ByLayer
370
-1
48
1
60
0
100
AcDbSpline
70
4
71
3
72
10
73
6
40
0
40
0
40
0
40
0
40
0.664373607448595
40
0.664373607448595
40
1
40
1
40
1
40
1
41
1
10
151.542263286115
20
-8.31754272742012
30
0
41
1
10
151.663072556311
20
-8.29757566316692
30
0
41
1
10
151.785306450797
20
-8.28183423333931
30
0
41
1
10
151.971047453599
20
-8.26456263974021
30
0
41
1
10
152.033710920356
20
-8.25985280935825
30
0
41
1
10
152.096652391597
20
-8.25623773608049
30
0
0
SPLINE
5
229
100
AcDbEntity
8
1
62
256
6
ByLayer
370
-1
48
1
60
0
100
AcDbSpline
70
4
71
3
72
10
73
6
40
0
40
0
40
0
40
0
40
0.308294658890203
40
0.308294658890203
40
1
40
1
40
1
40
1
41
1
10
151.370118782343
20
-8.14665193201907
30
0
41
1
10
151.344336813667
20
-8.1508166760805
30
0
41
1
10
151.319102085838
20
-8.15693726541096
30
0
41
1
10
151.240891243662
20
-8.18342403137035
30
0
41
1
10
151.190204799252
20
-8.21258484856733
30
0
41
1
10
151.149976865891
20
-8.2544882252329
30
0
0
SPLINE
5
22A
100
AcDbEntity
8
1
62
256
6
ByLayer
370
-1
48
1
60
0
100
AcDbSpline
70
4
71
3
72
12
73
8
40
0
40
0
40
0
40
0
40
0.475702259787912
40
0.475702259787912
40
0.987510459776022
40
0.987510459776022
40
1
40
1
40
1
40
1
41
1
10
151.149976865891
20
-8.25448822523296
30
0
41
1
10
151.131911051527
20
-8.29514807756567
30
0
41
1
10
151.113737902756
20
-8.34176186617796
30
0
41
1
10
151.077253852339
20
-8.4419051344706
30
0
41
1
10
151.058724163668
20
-8.4966763499306
30
0
41
1
10
151.040444306629
20
-8.55355197541766
30
0
41
1
10
151.040010431568
20
-8.55490466878479
30
0
41
1
10
151.03957631147
20
-8.55625781645938
30
0
0
SPLINE
5
22B
100
AcDbEntity
8
1
62
256
6
ByLayer
370
-1
48
1
60
0
100
AcDbSpline
70
4
71
3
72
12
73
8
40
0
40
0
40
0
40
0
40
0.0136540192120814
40
0.0136540192120814
40
0.527563903938582
40
0.527563903938582
40
1
40
1
40
1
40
1
41
1
10
151.03957631147
20
-8.55625781645938
30
0
41
1
10
151.040881260809
20
-8.55536116552699
30
0
41
1
10
151.04218607116
20
-8.55446477259881
30
0
41
1
10
151.092690486751
20
-8.51982156495143
30
0
41
1
10
151.142416058015
20
-8.48706027308771
30
0
41
1
10
151.237024892554
20
-8.42823591937722
30
0
41
1
10
151.282476172664
20
-8.40148295721892
30
0
41
1
10
151.326102960822
20
-8.3784659684051
30
0
0
SPLINE
5
22C
100
AcDbEntity
8
1
62
256
6
ByLayer
370
-1
48
1
60
0
100
AcDbSpline
70
4
71
3
72
10
73
6
40
0
40
0
40
0
40
0
40
0.678343265954102
40
0.678343265954102
40
1
40
1
40
1
40
1
41
1
10
151.326102960822
20
-8.3784659684051
30
0
41
1
10
151.370438786253
20
-8.35507489972738
30
0
41
1
10
151.419729082032
20
-8.33988901230839
30
0
41
1
10
151.4936245708
20
-8.3243787516615
30
0
41
1
10
151.51784542169
20
-8.32047992807927
30
0
41
1
10
151.542263286115
20
-8.31754272742012
30
0
0
SPLINE
5
22D
100
AcDbEntity
8
1
62
256
6
ByLayer
370
-1
48
1
60
0
100
AcDbSpline
70
4
71
3
72
12
73
8
40
0
40
0
40
0
40
0
40
0.0124895402239175
40
0.0124895402239175
40
0.524297740212132
40
0.524297740212132
40
1
40
1
40
1
40
1
41
1
10
150.198762379741
20
-8.79608120920696
30
0
41
1
10
150.197666853383
20
-8.79516435901596
30
0
41
1
10
150.196571577579
20
-8.79424782177657
30
0
41
1
10
150.150479523925
20
-8.75573284593835
30
0
41
1
10
150.104974135131
20
-8.71922620597175
30
0
41
1
10
150.0187489801
20
-8.65408299757542
30
0
41
1
10
149.977226216261
20
-8.6244961346064
30
0
41
1
10
149.938478918434
20
-8.60004095349046
30
0
0
SPLINE
5
22E
100
AcDbEntity
8
1
62
256
6
ByLayer
370
-1
48
1
60
0
100
AcDbSpline
70
4
71
3
72
10
73
6
40
0
40
0
40
0
40
0
40
0.699253394043984
40
0.699253394043984
40
1
40
1
40
1
40
1
41
1
10
149.635115709149
20
-8.8615139737548
30
0
41
1
10
149.684644850697
20
-8.83867079947234
30
0
41
1
10
149.736046570789
20
-8.81985218167137
30
0
41
1
10
149.811036820954
20
-8.80303607692227
30
0
41
1
10
149.833934479408
20
-8.7992856435711
30
0
41
1
10
149.856861013827
20
-8.79753441529758
30
0
0
SPLINE
5
22F
100
AcDbEntity
8
1
62
256
6
ByLayer
370
-1
48
1
60
0
100
AcDbSpline
70
4
71
3
72
12
73
8
40
0
40
0
40
0
40
0
40
0.472436096061527
40
0.472436096061527
40
0.986345980787929
40
0.986345980787929
40
1
40
1
40
1
40
1
41
1
10
149.856861013827
20
-8.79753441529758
30
0
41
1
10
149.907489504101
20
-8.79366719132059
30
0
41
1
10
149.961227711483
20
-8.79212856776957
30
0
41
1
10
150.074173600071
20
-8.79175257286244
30
0
41
1
10
150.134180258925
20
-8.79321519717627
30
0
41
1
10
150.195588217301
20
-8.79593789993831
30
0
41
1
10
150.197175267281
20
-8.79600945430283
30
0
41
1
10
150.198762379741
20
-8.79608120920696
30
0
0
SPLINE
5
230
100
AcDbEntity
8
1
62
256
6
ByLayer
370
-1
48
1
60
0
100
AcDbSpline
70
4
71
3
72
10
73
6
40
0
40
0
40
0
40
0
40
0.314957896649212
40
0.314957896649212
40
1
40
1
40
1
40
1
41
1
10
149.938478918434
20
-8.60004095349046
30
0
41
1
10
149.911164236187
20
-8.59383106799697
30
0
41
1
10
149.883373855836
20
-8.59111082441345
30
0
41
1
10
149.796370870871
20
-8.59167351324723
30
0
41
1
10
149.736903397978
20
-8.60547520813185
30
0
41
1
10
149.680831668087
20
-8.62848334771934
30
0
0
SPLINE
5
231
100
AcDbEntity
8
1
62
256
6
ByLayer
370
-1
48
1
60
0
100
AcDbSpline
70
4
71
3
72
10
73
6
40
0
40
0
40
0
40
0
40
0.664375350521606
40
0.664375350521606
40
1
40
1
40
1
40
1
41
1
10
149.10125409723
20
-9.11060819127496
30
0
41
1
10
149.217525398258
20
-9.04907079177846
30
0
41
1
10
149.335216631795
20
-8.99172161970935
30
0
41
1
10
149.514112033078
20
-8.91185457966955
30
0
41
1
10
149.574475473926
20
-8.88613277015216
30
0
41
1
10
149.635115709149
20
-8.8615139737548
30
0
0
SPLINE
5
232
100
AcDbEntity
8
1
62
256
6
ByLayer
370
-1
48
1
60
0
100
AcDbSpline
70
4
71
3
72
10
73
6
40
0
40
0
40
0
40
0
40
0.664375350521613
40
0.664375350521613
40
1
40
1
40
1
40
1
41
1
10
157.145008039776
20
-13.0437940751875
30
0
41
1
10
157.121292732736
20
-13.1465824435319
30
0
41
1
10
157.093139272496
20
-13.2484395921638
30
0
41
1
10
157.044207838205
20
-13.4000309274301
30
0
41
1
10
157.026666417786
20
-13.4506378686501
30
0
41
1
10
157.008018867847
20
-13.5009360156425
30
0
0
SPLINE
5
233
100
AcDbEntity
8
1
62
256
6
ByLayer
370
-1
48
1
60
0
100
AcDbSpline
70
4
71
3
72
16
73
12
40
0
40
0
40
0
40
0
40
0.0032836924217768
40
0.0032836924217768
40
0.409197106336743
40
0.409197106336743
40
0.675155616234676
40
0.675155616234676
40
0.836825832650049
40
0.836825832650049
40
1
40
1
40
1
40
1
41
1
10
157.345085946021
20
-13.0578280541322
30
0
41
1
10
157.345090284842
20
-13.0578985756318
30
0
41
1
10
157.34509470146
20
-13.0579690923127
30
0
41
1
10
157.345648642584
20
-13.0666594538131
30
0
41
1
10
157.347360155238
20
-13.0753528308308
30
0
41
1
10
157.352771139691
20
-13.0886262350057
30
0
41
1
10
157.355651360605
20
-13.0937073107245
30
0
41
1
10
157.361648628811
20
-13.1006808065332
30
0
41
1
10
157.364281909817
20
-13.1030825726417
30
0
41
1
10
157.370150727275
20
-13.1069505059398
30
0
41
1
10
157.37346880952
20
-13.1084433588349
30
0
41
1
10
157.376908468307
20
-13.1092784057705
30
0
0
SPLINE
5
234
100
AcDbEntity
8
1
62
256
6
ByLayer
370
-1
48
1
60
0
100
AcDbSpline
70
4
71
3
72
16
73
12
40
0
40
0
40
0
40
0
40
0.0640693006018054
40
0.0640693006018054
40
0.357081330069603
40
0.357081330069603
40
0.623169868283061
40
0.623169868283061
40
0.804233485279252
40
0.804233485279252
40
1
40
1
40
1
40
1
41
1
10
157.145008039776
20
-13.0437940751875
30
0
41
1
10
157.14636852803
20
-13.049366244745
30
0
41
1
10
157.147957605909
20
-13.0549102230834
30
0
41
1
10
157.157944346696
20
-13.0851867951001
30
0
41
1
10
157.170917992689
20
-13.109336337035
30
0
41
1
10
157.202963691245
20
-13.1503632596151
30
0
41
1
10
157.221749262314
20
-13.1681846328531
30
0
41
1
10
157.257144333706
20
-13.1930586121108
30
0
41
1
10
157.272761634195
20
-13.2018922683128
30
0
41
1
10
157.306682800645
20
-13.2169277156898
30
0
41
1
10
157.325337136953
20
-13.2229609655128
30
0
41
1
10
157.344260463559
20
-13.2269553198439
30
0
0
SPLINE
5
235
100
AcDbEntity
8
1
62
256
6
ByLayer
370
-1
48
1
60
0
100
AcDbSpline
70
4
71
3
72
16
73
12
40
0
40
0
40
0
40
0
40
0.182829634754675
40
0.182829634754675
40
0.39590797591366
40
0.39590797591366
40
0.630210556166947
40
0.630210556166947
40
0.70688462038993
40
0.70688462038993
40
1
40
1
40
1
40
1
41
1
10
151.923342399758
20
-8.08608323222052
30
0
41
1
10
151.927692653888
20
-8.10324416580985
30
0
41
1
10
151.933593816982
20
-8.11987170131542
30
0
41
1
10
151.949224645033
20
-8.15338308257893
30
0
41
1
10
151.959554868913
20
-8.17013226869517
30
0
41
1
10
151.984170546288
20
-8.20095597626499
30
0
41
1
10
151.998981768957
20
-8.21489540613226
30
0
41
1
10
152.020100256125
20
-8.22953587402446
30
0
41
1
10
152.025476498925
20
-8.23286984287066
30
0
41
1
10
152.051622726102
20
-8.24726583311249
30
0
41
1
10
152.074144130872
20
-8.25421247991292
30
0
41
1
10
152.096652391597
20
-8.25623773608049
30
0
0
SPLINE
5
236
100
AcDbEntity
8
1
62
256
6
ByLayer
370
-1
48
1
60
0
100
AcDbSpline
70
4
71
3
72
8
73
4
40
0
40
0
40
0
40
0
40
1
40
1
40
1
40
1
41
1
10
152.48925334104
20
-15.3136340731859
30
0
41
1
10
152.490801363477
20
-15.3208793461523
30
0
41
1
10
152.492349382921
20
-15.3281246086937
30
0
41
1
10
152.493897399462
20
-15.3353698611204
30
0
0
SPLINE
5
237
100
AcDbEntity
8
1
62
256
6
ByLayer
370
-1
48
1
60
0
100
AcDbSpline
70
4
71
3
72
8
73
4
40
0
40
0
40
0
40
0
40
1
40
1
40
1
40
1
41
1
10
151.438642956775
20
-15.3383265021697
30
0
41
1
10
151.440063853459
20
-15.3310729313598
30
0
41
1
10
151.441484753905
20
-15.3238193504165
30
0
41
1
10
151.442905658228
20
-15.3165657590289
30
0
0
SPLINE
5
238
100
AcDbEntity
8
1
62
256
6
ByLayer
370
-1
48
1
60
0
100
AcDbSpline
70
4
71
3
72
22
73
18
40
0
40
0
40
0
40
0
40
0.101009388612941
40
0.101009388612941
40
0.187299955176402
40
0.187299955176402
40
0.312839563355241
40
0.312839563355241
40
0.41288848184729
40
0.41288848184729
40
0.512636064008792
40
0.512636064008792
40
0.688353357392203
40
0.688353357392203
40
0.863628414295945
40
0.863628414295945
40
1
40
1
40
1
40
1
41
1
10
152.493897399462
20
-15.3353698611204
30
0
41
1
10
152.49724585373
20
-15.3565818444144
30
0
41
1
10
152.496196837305
20
-15.3790034479258
30
0
41
1
10
152.485993154147
20
-15.4183096471477
30
0
41
1
10
152.477983695899
20
-15.4359906550224
30
0
41
1
10
152.45297005416
20
-15.4755616116196
30
0
41
1
10
152.433270327344
20
-15.4964616456521
30
0
41
1
10
152.394188209705
20
-15.5287845293411
30
0
41
1
10
152.375250832922
20
-15.541542630824
30
0
41
1
10
152.335908709584
20
-15.5641415337002
30
0
41
1
10
152.315381170325
20
-15.5740619728703
30
0
41
1
10
152.257526651528
20
-15.5981761874762
30
0
41
1
10
152.219014587813
20
-15.6100441892217
30
0
41
1
10
152.141086600974
20
-15.6281422287427
30
0
41
1
10
152.101415637466
20
-15.6344256476139
30
0
41
1
10
152.030616945121
20
-15.6412649882052
30
0
41
1
10
151.999449338813
20
-15.6427844527158
30
0
41
1
10
151.968310655364
20
-15.6428716979393
30
0
0
SPLINE
5
239
100
AcDbEntity
8
1
62
256
6
ByLayer
370
-1
48
1
60
0
100
AcDbSpline
70
4
71
3
72
24
73
20
40
0
40
0
40
0
40
0
40
0.0387861824699556
40
0.0387861824699556
40
0.214013350592923
40
0.214013350592923
40
0.389422662782954
40
0.389422662782954
40
0.512145428551912
40
0.512145428551912
40
0.607589910665612
40
0.607589910665612
40
0.697945972634479
40
0.697945972634479
40
0.834212591226491
40
0.834212591226491
40
0.923459798191236
40
0.923459798191236
40
1
40
1
40
1
40
1
41
1
10
151.968310655364
20
-15.6428716979393
30
0
41
1
10
151.95944887949
20
-15.6428965271078
30
0
41
1
10
151.950585764552
20
-15.6428049579774
30
0
41
1
10
151.901745947192
20
-15.6416569525077
30
0
41
1
10
151.861734269841
20
-15.6383541578535
30
0
41
1
10
151.782580295179
20
-15.6266757865804
30
0
41
1
10
151.743241160756
20
-15.6182768319257
30
0
41
1
10
151.678063286487
20
-15.5988485956773
30
0
41
1
10
151.651604986654
20
-15.5893257647126
30
0
41
1
10
151.606120239575
20
-15.5691854009992
30
0
41
1
10
151.586671301472
20
-15.5592436826469
30
0
41
1
10
151.550523014832
20
-15.5373576783644
30
0
41
1
10
151.533630949999
20
-15.5254858877988
30
0
41
1
10
151.494800337075
20
-15.4925107926087
30
0
41
1
10
151.473928971299
20
-15.4691034197673
30
0
41
1
10
151.449771565397
20
-15.425688126904
30
0
41
1
10
151.442786901481
20
-15.4068487795632
30
0
41
1
10
151.436591613279
20
-15.3714170629272
30
0
41
1
10
151.436363549077
20
-15.3545568865025
30
0
41
1
10
151.438642956775
20
-15.3383265021697
30
0
0
SPLINE
5
23A
100
AcDbEntity
8
1
62
256
6
ByLayer
370
-1
48
1
60
0
100
AcDbSpline
70
4
71
3
72
8
73
4
40
0
40
0
40
0
40
0
40
1
40
1
40
1
40
1
41
1
10
153.918061582844
20
-13.9021258858288
30
0
41
1
10
153.924640138116
20
-13.9048081471836
30
0
41
1
10
153.931218678754
20
-13.9074904086717
30
0
41
1
10
153.937797205195
20
-13.9101726702891
30
0
0
SPLINE
5
23B
100
AcDbEntity
8
1
62
256
6
ByLayer
370
-1
48
1
60
0
100
AcDbSpline
70
4
71
3
72
34
73
30
40
0
40
0
40
0
40
0
40
0.0541556532626929
40
0.0541556532626929
40
0.0964284096967883
40
0.0964284096967883
40
0.152184214512481
40
0.152184214512481
40
0.207791165331689
40
0.207791165331689
40
0.291086018445352
40
0.291086018445352
40
0.374246069117928
40
0.374246069117928
40
0.499956481346312
40
0.499956481346312
40
0.593152353116062
40
0.593152353116062
40
0.686390019140499
40
0.686390019140499
40
0.770438247811058
40
0.770438247811058
40
0.838253241138322
40
0.838253241138322
40
0.891307978929523
40
0.891307978929523
40
0.976705183651313
40
0.976705183651313
40
1
40
1
40
1
40
1
41
1
10
153.394887741438
20
-14.7961048970541
30
0
41
1
10
153.380237726677
20
-14.7810960799817
30
0
41
1
10
153.362781843784
20
-14.7688359403161
30
0
41
1
10
153.329656073591
20
-14.7517852786553
30
0
41
1
10
153.314223265023
20
-14.7458170547001
30
0
41
1
10
153.27758833821
20
-14.7350206929917
30
0
41
1
10
153.255928404305
20
-14.7310908413181
30
0
41
1
10
153.212221850838
20
-14.7267274453706
30
0
41
1
10
153.190027030849
20
-14.7262725331642
30
0
41
1
10
153.134576868262
20
-14.7286266620374
30
0
41
1
10
153.101049281134
20
-14.7331679445663
30
0
41
1
10
153.03474238008
20
-14.7471219057308
30
0
41
1
10
153.001739552679
20
-14.7565835074657
30
0
41
1
10
152.920480347949
20
-14.7854740187855
30
0
41
1
10
152.8725060713
20
-14.8076991512375
30
0
41
1
10
152.792885338357
20
-14.8531988057389
30
0
41
1
10
152.759967307198
20
-14.8748768781264
30
0
41
1
10
152.697436534648
20
-14.9221781216962
30
0
41
1
10
152.667622233202
20
-14.9479504570134
30
0
41
1
10
152.615185616578
20
-15.0004761895881
30
0
41
1
10
152.591976810485
20
-15.0270440009353
30
0
41
1
10
152.554559033358
20
-15.077692065617
30
0
41
1
10
152.539373590459
20
-15.101405261678
30
0
41
1
10
152.516347436285
20
-15.1452811973837
30
0
41
1
10
152.507571131415
20
-15.1652112042318
30
0
41
1
10
152.489774774406
20
-15.218014273563
30
0
41
1
10
152.483454897209
20
-15.2525319221147
30
0
41
1
10
152.486091483112
20
-15.2952954153324
30
0
41
1
10
152.487314000681
20
-15.3045572988798
30
0
41
1
10
152.48925334104
20
-15.3136340731856
30
0
0
SPLINE
5
23C
100
AcDbEntity
8
1
62
256
6
ByLayer
370
-1
48
1
60
0
100
AcDbSpline
70
4
71
3
72
8
73
4
40
0
40
0
40
0
40
0
40
1
40
1
40
1
40
1
41
1
10
153.410169983851
20
-14.8117614430843
30
0
41
1
10
153.405075914023
20
-14.8065426000298
30
0
41
1
10
153.399981833329
20
-14.8013237514098
30
0
41
1
10
153.394887741438
20
-14.7961048970538
30
0
0
SPLINE
5
23D
100
AcDbEntity
8
1
62
256
6
ByLayer
370
-1
48
1
60
0
100
AcDbSpline
70
4
71
3
72
22
73
18
40
0
40
0
40
0
40
0
40
0.101009388612899
40
0.101009388612899
40
0.187299955176373
40
0.187299955176373
40
0.312839563355148
40
0.312839563355148
40
0.412888481847218
40
0.412888481847218
40
0.512636064008779
40
0.512636064008779
40
0.688353357392074
40
0.688353357392074
40
0.863628414295782
40
0.863628414295782
40
1
40
1
40
1
40
1
41
1
10
153.937797205195
20
-13.9101726702891
30
0
41
1
10
153.956485910932
20
-13.9190188344343
30
0
41
1
10
153.974026405685
20
-13.9322193659833
30
0
41
1
10
154.000724079308
20
-13.9623899130568
30
0
41
1
10
154.011076185636
20
-13.9788357209706
30
0
41
1
10
154.030787837305
20
-14.0216152099807
30
0
41
1
10
154.038032762935
20
-14.0496786834976
30
0
41
1
10
154.044990348842
20
-14.1003718783226
30
0
41
1
10
154.046006049714
20
-14.1233524128153
30
0
41
1
10
154.0449281421
20
-14.168978830251
30
0
41
1
10
154.042838799137
20
-14.1917719106982
30
0
41
1
10
154.033791342728
20
-14.2539431528813
30
0
41
1
10
154.024330650482
20
-14.2930787436485
30
0
41
1
10
154.000274771924
20
-14.3691224086592
30
0
41
1
10
153.985597022388
20
-14.406275531465
30
0
41
1
10
153.955748093621
20
-14.470270348284
30
0
41
1
10
153.941362235143
20
-14.4976546843092
30
0
41
1
10
153.925792893418
20
-14.5242589668992
30
0
0
SPLINE
5
23E
100
AcDbEntity
8
1
62
256
6
ByLayer
370
-1
48
1
60
0
100
AcDbSpline
70
4
71
3
72
24
73
20
40
0
40
0
40
0
40
0
40
0.0387861824696692
40
0.0387861824696692
40
0.214013350592535
40
0.214013350592535
40
0.389422662782508
40
0.389422662782508
40
0.51214542855146
40
0.51214542855146
40
0.607589910665153
40
0.607589910665153
40
0.697945972634079
40
0.697945972634079
40
0.834212591226385
40
0.834212591226385
40
0.923459798191078
40
0.923459798191078
40
1
40
1
40
1
40
1
41
1
10
153.925792893418
20
-14.5242589668992
30
0
41
1
10
153.921362005481
20
-14.5318302950183
30
0
41
1
10
153.916833106004
20
-14.5393413565617
30
0
41
1
10
153.891338806552
20
-14.5803912417867
30
0
41
1
10
153.868476609042
20
-14.612775262169
30
0
41
1
10
153.818961705583
20
-14.6741151270444
30
0
41
1
10
153.792190017051
20
-14.7032269067426
30
0
41
1
10
153.74327769789
20
-14.7485141400896
30
0
41
1
10
153.722070014947
20
-14.7660236752555
30
0
41
1
10
153.682520238126
20
-14.7940932553538
30
0
41
1
10
153.664518451216
20
-14.8053789926808
30
0
41
1
10
153.628282518602
20
-14.8245061921407
30
0
41
1
10
153.610009262225
20
-14.832552312148
30
0
41
1
10
153.563396178261
20
-14.8479468367864
30
0
41
1
10
153.53373451699
20
-14.8531213827597
30
0
41
1
10
153.486249315955
20
-14.8501526364865
30
0
41
1
10
153.46745498004
20
-14.84584329648
30
0
41
1
10
153.435721793634
20
-14.8317298468067
30
0
41
1
10
153.422038060734
20
-14.8226590855191
30
0
41
1
10
153.410169983851
20
-14.8117614430842
30
0
0
SPLINE
5
23F
100
AcDbEntity
8
1
62
256
6
ByLayer
370
-1
48
1
60
0
100
AcDbSpline
70
4
71
3
72
30
73
26
40
0
40
0
40
0
40
0
40
0.053948440000773
40
0.053948440000773
40
0.139955160779194
40
0.139955160779194
40
0.207086326010632
40
0.207086326010632
40
0.27406416596596
40
0.27406416596596
40
0.340975732318789
40
0.340975732318789
40
0.407856980441511
40
0.407856980441511
40
0.499328375429026
40
0.499328375429026
40
0.68905380952952
40
0.68905380952952
40
0.831988770971628
40
0.831988770971628
40
0.920260558406219
40
0.920260558406219
40
0.986025688779668
40
0.986025688779668
40
1
40
1
40
1
40
1
41
1
10
150.53727125783
20
-14.8041114458602
30
0
41
1
10
150.551555695706
20
-14.7890215594391
30
0
41
1
10
150.568645613479
20
-14.7766646283948
30
0
41
1
10
150.615755683215
20
-14.7516902047061
30
0
41
1
10
150.648209091166
20
-14.7425569611661
30
0
41
1
10
150.706866513095
20
-14.7340796326067
30
0
41
1
10
150.733348302929
20
-14.7329846725468
30
0
41
1
10
150.786360630215
20
-14.7348672684094
30
0
41
1
10
150.81306692465
20
-14.7378487905605
30
0
41
1
10
150.86618501946
20
-14.7471319964141
30
0
41
1
10
150.892717213812
20
-14.7534553670006
30
0
41
1
10
150.945221895649
20
-14.7689606894762
30
0
41
1
10
150.9712895115
20
-14.7781714462918
30
0
41
1
10
151.032009854454
20
-14.8029823880447
30
0
41
1
10
151.066493966442
20
-14.8197624238336
30
0
41
1
10
151.16839045267
20
-14.8774206729474
30
0
41
1
10
151.233559416228
20
-14.9258078592699
30
0
41
1
10
151.331829109393
20
-15.0235002557417
30
0
41
1
10
151.369920467629
20
-15.0706355521973
30
0
41
1
10
151.416440379334
20
-15.1532735677385
30
0
41
1
10
151.430923955219
20
-15.1869969498306
30
0
41
1
10
151.445293048886
20
-15.2473171780427
30
0
41
1
10
151.447989586645
20
-15.2741141277694
30
0
41
1
10
151.444792173278
20
-15.3055434453713
30
0
41
1
10
151.443979030768
20
-15.3110862867771
30
0
41
1
10
151.442905658228
20
-15.316565759029
30
0
0
SPLINE
5
240
100
AcDbEntity
8
1
62
256
6
ByLayer
370
-1
48
1
60
0
100
AcDbSpline
70
4
71
3
72
8
73
4
40
0
40
0
40
0
40
0
40
1
40
1
40
1
40
1
41
1
10
150.522370372385
20
-14.8198525598117
30
0
41
1
10
150.527337322358
20
-14.8146055275141
30
0
41
1
10
150.532304284053
20
-14.8093584895878
30
0
41
1
10
150.53727125783
20
-14.8041114458602
30
0
0
SPLINE
5
241
100
AcDbEntity
8
1
62
256
6
ByLayer
370
-1
48
1
60
0
100
AcDbSpline
70
4
71
3
72
30
73
26
40
0
40
0
40
0
40
0
40
0.0537368602323498
40
0.0537368602323498
40
0.139406272238976
40
0.139406272238976
40
0.275934277332458
40
0.275934277332458
40
0.468014763792658
40
0.468014763792658
40
0.500606637877149
40
0.500606637877149
40
0.593681336384416
40
0.593681336384416
40
0.686797774805239
40
0.686797774805239
40
0.770736723977826
40
0.770736723977826
40
0.838463544257709
40
0.838463544257709
40
0.891449300284293
40
0.891449300284293
40
0.976735471569324
40
0.976735471569324
40
1
40
1
40
1
40
1
41
1
10
150.014097416424
20
-12.8830806311775
30
0
41
1
10
150.032650998023
20
-12.8868601089842
30
0
41
1
10
150.05019546581
20
-12.8944049597875
30
0
41
1
10
150.091148511384
20
-12.9200324608865
30
0
41
1
10
150.112781609357
20
-12.9419763557403
30
0
41
1
10
150.160058715669
20
-13.0056824841068
30
0
41
1
10
150.181773312243
20
-13.0527338136142
30
0
41
1
10
150.220347974681
20
-13.1719898305953
30
0
41
1
10
150.232464985367
20
-13.2492375423027
30
0
41
1
10
150.236100903244
20
-13.3409171309011
30
0
41
1
10
150.236367150664
20
-13.3544310613612
30
0
41
1
10
150.236367150664
20
-13.4065899187498
30
0
41
1
10
150.234208790729
20
-13.4456733880433
30
0
41
1
10
150.225475071195
20
-13.5234157586748
30
0
41
1
10
150.21887422195
20
-13.5623234537998
30
0
41
1
10
150.201744938573
20
-13.6348278832982
30
0
41
1
10
150.19161774037
20
-13.6687979381817
30
0
41
1
10
150.169216935178
20
-13.727943374469
30
0
41
1
10
150.157671085868
20
-13.7537160389334
30
0
41
1
10
150.133956516463
20
-13.7972024340535
30
0
41
1
10
150.122403952048
20
-13.8155614911036
30
0
41
1
10
150.089227007736
20
-13.8596614366369
30
0
41
1
10
150.065036034255
20
-13.8840667038922
30
0
41
1
10
150.030065073676
20
-13.9055499217645
30
0
41
1
10
150.022179684586
20
-13.9096580853903
30
0
41
1
10
150.014097416424
20
-13.9130641204778
30
0
0
SPLINE
5
242
100
AcDbEntity
8
1
62
256
6
ByLayer
370
-1
48
1
60
0
100
AcDbSpline
70
4
71
3
72
8
73
4
40
0
40
0
40
0
40
0
40
1
40
1
40
1
40
1
41
1
10
150.014097416424
20
-13.9130641204781
30
0
41
1
10
150.007645979267
20
-13.9157828896256
30
0
41
1
10
150.001194557627
20
-13.9185016588221
30
0
41
1
10
149.994743151042
20
-13.9212204280658
30
0
0
SPLINE
5
243
100
AcDbEntity
8
1
62
256
6
ByLayer
370
-1
48
1
60
0
100
AcDbSpline
70
4
71
3
72
22
73
18
40
0
40
0
40
0
40
0
40
0.101022396405534
40
0.101022396405534
40
0.187324075300337
40
0.187324075300337
40
0.312879850225352
40
0.312879850225352
40
0.412941652822454
40
0.412941652822454
40
0.512702080283539
40
0.512702080283539
40
0.612325179563338
40
0.612325179563338
40
0.812488249995768
40
0.812488249995768
40
1
40
1
40
1
40
1
41
1
10
149.994743151042
20
-13.9212204280658
30
0
41
1
10
149.976421381487
20
-13.930170289183
30
0
41
1
10
149.959248319478
20
-13.9434680821343
30
0
41
1
10
149.933161029881
20
-13.973786523576
30
0
41
1
10
149.923069890956
20
-13.9902896099391
30
0
41
1
10
149.903918954253
20
-14.0331779852227
30
0
41
1
10
149.8969491935
20
-14.0612812858406
30
0
41
1
10
149.890398875599
20
-14.1120123274836
30
0
41
1
10
149.889536383809
20
-14.1349981243483
30
0
41
1
10
149.89087763527
20
-14.1806177637173
30
0
41
1
10
149.89307801844
20
-14.2033988250913
30
0
41
1
10
149.899826991509
20
-14.2484265067165
30
0
41
1
10
149.904387132778
20
-14.2707555415489
30
0
41
1
10
149.920952681929
20
-14.3369291597978
30
0
41
1
10
149.93586738716
20
-14.3801152207799
30
0
41
1
10
149.970223936507
20
-14.4608420235454
30
0
41
1
10
149.989432820647
20
-14.4987879567679
30
0
41
1
10
150.010828417309
20
-14.5352280225201
30
0
0
SPLINE
5
244
100
AcDbEntity
8
1
62
256
6
ByLayer
370
-1
48
1
60
0
100
AcDbSpline
70
4
71
3
72
26
73
22
40
0
40
0
40
0
40
0
40
0.0123170539206537
40
0.0123170539206537
40
0.212241524746463
40
0.212241524746463
40
0.311856307872765
40
0.311856307872765
40
0.411507489731275
40
0.411507489731275
40
0.546437586151081
40
0.546437586151081
40
0.649054902621284
40
0.649054902621284
40
0.726435192329539
40
0.726435192329539
40
0.852772464212477
40
0.852772464212477
40
0.940635510663935
40
0.940635510663935
40
1
40
1
40
1
40
1
41
1
10
150.010828417309
20
-14.5352280225201
30
0
41
1
10
150.01223596442
20
-14.5376252965985
30
0
41
1
10
150.013653264897
20
-14.5400163862544
30
0
41
1
10
150.038193148855
20
-14.5810275317922
30
0
41
1
10
150.063891344753
20
-14.618122035795
30
0
41
1
10
150.106028728129
20
-14.6703584734125
30
0
41
1
10
150.12069008305
20
-14.6872212482944
30
0
41
1
10
150.151267099366
20
-14.7196045213399
30
0
41
1
10
150.167210590473
20
-14.7351551742622
30
0
41
1
10
150.206237083161
20
-14.7697235386286
30
0
41
1
10
150.229960697509
20
-14.7881419808753
30
0
41
1
10
150.273880705946
20
-14.8164703343221
30
0
41
1
10
150.293670657177
20
-14.8274242097023
30
0
41
1
10
150.329518623055
20
-14.8431754346947
30
0
41
1
10
150.345387221297
20
-14.8488554851689
30
0
41
1
10
150.387480747185
20
-14.8596661657073
30
0
41
1
10
150.414797365327
20
-14.862342466415
30
0
41
1
10
150.458799937731
20
-14.8562390160467
30
0
41
1
10
150.476588548136
20
-14.8505418505126
30
0
41
1
10
150.50326254381
20
-14.8358216341797
30
0
41
1
10
150.513349951342
20
-14.8283870762689
30
0
41
1
10
150.522370372385
20
-14.8198525598117
30
0
0
SPLINE
5
245
100
AcDbEntity
8
1
62
256
6
ByLayer
370
-1
48
1
60
0
100
AcDbSpline
70
4
71
3
72
8
73
4
40
0
40
0
40
0
40
0
40
1
40
1
40
1
40
1
41
1
10
150.014097416424
20
-12.8830806311774
30
0
41
1
10
150.007645979267
20
-12.8817664340545
30
0
41
1
10
150.001194557627
20
-12.8804522463124
30
0
41
1
10
149.994743151042
20
-12.8791380676716
30
0
0
SPLINE
5
246
100
AcDbEntity
8
1
62
256
6
ByLayer
370
-1
48
1
60
0
100
AcDbSpline
70
4
71
3
72
34
73
30
40
0
40
0
40
0
40
0
40
0.0541556532626896
40
0.0541556532626896
40
0.096428409696778
40
0.096428409696778
40
0.152184214512496
40
0.152184214512496
40
0.207791165331647
40
0.207791165331647
40
0.291086018445286
40
0.291086018445286
40
0.374246069117785
40
0.374246069117785
40
0.499956481346251
40
0.499956481346251
40
0.593152353116066
40
0.593152353116066
40
0.686390019140465
40
0.686390019140465
40
0.770438247810981
40
0.770438247810981
40
0.838253241138242
40
0.838253241138242
40
0.891307978929479
40
0.891307978929479
40
0.976705183651276
40
0.976705183651276
40
1
40
1
40
1
40
1
41
1
10
150.53727125783
20
-11.9891016199521
30
0
41
1
10
150.551555695706
20
-12.0001760436884
30
0
41
1
10
150.568645613479
20
-12.0084976117887
30
0
41
1
10
150.601155729932
20
-12.0189225154512
30
0
41
1
10
150.616326830835
20
-12.0220742022303
30
0
41
1
10
150.65238558581
20
-12.0266697160894
30
0
41
1
10
150.67373770893
20
-12.0272868618806
30
0
41
1
10
150.716875785467
20
-12.0255322237422
30
0
41
1
10
150.738807909154
20
-12.0231599589059
30
0
41
1
10
150.793659368967
20
-12.01436250089
30
0
41
1
10
150.826876525495
20
-12.0064803176245
30
0
41
1
10
150.892665656373
20
-11.9869540360895
30
0
41
1
10
150.925459369375
20
-11.9752419137974
30
0
41
1
10
151.006324615137
20
-11.9421115568996
30
0
41
1
10
151.054178657042
20
-11.9185924400743
30
0
41
1
10
151.133799389984
20
-11.8730927855729
30
0
41
1
10
151.166783525022
20
-11.8521261330513
30
0
41
1
10
151.229576478545
20
-11.8076465204798
30
0
41
1
10
151.25958765769
20
-11.7839930125231
30
0
41
1
10
151.312518117242
20
-11.7367820916858
30
0
41
1
10
151.336013558774
20
-11.7132990939789
30
0
41
1
10
151.374038977601
20
-11.6691905605057
30
0
41
1
10
151.389529809032
20
-11.648764001686
30
0
41
1
10
151.413156850283
20
-11.6113549029275
30
0
41
1
10
151.422217968878
20
-11.5944901041638
30
0
41
1
10
151.440800301337
20
-11.5501458206345
30
0
41
1
10
151.447664418381
20
-11.5214853630311
30
0
41
1
10
151.445749110613
20
-11.4864843734057
30
0
41
1
10
151.444685746833
20
-11.4789353268312
30
0
41
1
10
151.442905658228
20
-11.4715724438206
30
0
0
SPLINE
5
247
100
AcDbEntity
8
1
62
256
6
ByLayer
370
-1
48
1
60
0
100
AcDbSpline
70
4
71
3
72
8
73
4
40
0
40
0
40
0
40
0
40
1
40
1
40
1
40
1
41
1
10
150.522370372385
20
-11.9775492948765
30
0
41
1
10
150.527337322358
20
-11.9814000549543
30
0
41
1
10
150.532304284053
20
-11.9852508298282
30
0
41
1
10
150.53727125783
20
-11.9891016199523
30
0
0
SPLINE
5
248
100
AcDbEntity
8
1
62
256
6
ByLayer
370
-1
48
1
60
0
100
AcDbSpline
70
4
71
3
72
22
73
18
40
0
40
0
40
0
40
0
40
0.10100938861298
40
0.10100938861298
40
0.187299955176313
40
0.187299955176313
40
0.312839563355017
40
0.312839563355017
40
0.412888481847057
40
0.412888481847057
40
0.512636064008587
40
0.512636064008587
40
0.688353357391812
40
0.688353357391812
40
0.86362841429543
40
0.86362841429543
40
1
40
1
40
1
40
1
41
1
10
149.994743151042
20
-12.8791380676716
30
0
41
1
10
149.976421381488
20
-12.874240925822
30
0
41
1
10
149.959248319478
20
-12.8649947606312
30
0
41
1
10
149.933161029881
20
-12.8413932580945
30
0
41
1
10
149.923069890956
20
-12.8277560205593
30
0
41
1
10
149.903918954253
20
-12.7910110302038
30
0
41
1
10
149.8969491935
20
-12.7659089224074
30
0
41
1
10
149.890398875599
20
-12.7195988070205
30
0
41
1
10
149.889536383809
20
-12.6982671316713
30
0
41
1
10
149.89087763527
20
-12.6554748602611
30
0
41
1
10
149.893078018441
20
-12.6338768112095
30
0
41
1
10
149.902388844112
20
-12.5745399885566
30
0
41
1
10
149.911971109589
20
-12.5367127871629
30
0
41
1
10
149.936208349913
20
-12.4626209647232
30
0
41
1
10
149.950946189405
20
-12.4261145390445
30
0
41
1
10
149.980859543809
20
-12.3628130805953
30
0
41
1
10
149.995259075585
20
-12.3355758986509
30
0
41
1
10
150.01082841731
20
-12.3089716160608
30
0
0
SPLINE
5
249
100
AcDbEntity
8
1
62
256
6
ByLayer
370
-1
48
1
60
0
100
AcDbSpline
70
4
71
3
72
24
73
20
40
0
40
0
40
0
40
0
40
0.0387861824692527
40
0.0387861824692527
40
0.214013350592176
40
0.214013350592176
40
0.389422662782153
40
0.389422662782153
40
0.512145428551257
40
0.512145428551257
40
0.607589910664956
40
0.607589910664956
40
0.697945972634075
40
0.697945972634075
40
0.834212591226479
40
0.834212591226479
40
0.923459798191087
40
0.923459798191087
40
1
40
1
40
1
40
1
41
1
10
150.01082841731
20
-12.3089716160608
30
0
41
1
10
150.015259305246
20
-12.3014002879418
30
0
41
1
10
150.019787087771
20
-12.2938772055798
30
0
41
1
10
150.04526904253
20
-12.2526944649227
30
0
41
1
10
150.068098611285
20
-12.2199592889757
30
0
41
1
10
150.117496277134
20
-12.1573576953454
30
0
41
1
10
150.144183250509
20
-12.1273341984114
30
0
41
1
10
150.192890363415
20
-12.0798385045346
30
0
41
1
10
150.213995474117
20
-12.0612250715021
30
0
41
1
10
150.253319160554
20
-12.0307222727408
30
0
41
1
10
150.27120671637
20
-12.0182071632404
30
0
41
1
10
150.307181422321
20
-11.9962686032098
30
0
41
1
10
150.325309026264
20
-11.9866549498335
30
0
41
1
10
150.371500056151
20
-11.9667182158382
30
0
41
1
10
150.40084787234
20
-11.9581660219734
30
0
41
1
10
150.447702461616
20
-11.9543480298039
30
0
41
1
10
150.466211232076
20
-11.9555840715048
30
0
41
1
10
150.497379174355
20
-11.9636142790144
30
0
41
1
10
150.510782822783
20
-11.9696707291541
30
0
41
1
10
150.522370372385
20
-11.9775492948765
30
0
0
SPLINE
5
24A
100
AcDbEntity
8
1
62
256
6
ByLayer
370
-1
48
1
60
0
100
AcDbSpline
70
4
71
3
72
8
73
4
40
0
40
0
40
0
40
0
40
1
40
1
40
1
40
1
41
1
10
153.394887741438
20
-11.981095071146
30
0
41
1
10
153.39998183333
20
-11.9772160916503
30
0
41
1
10
153.405075914023
20
-11.97333712747
30
0
41
1
10
153.410169983851
20
-11.969458178149
30
0
0
SPLINE
5
24B
100
AcDbEntity
8
1
62
256
6
ByLayer
370
-1
48
1
60
0
100
AcDbSpline
70
4
71
3
72
34
73
30
40
0
40
0
40
0
40
0
40
0.054155653262651
40
0.054155653262651
40
0.0964284096967589
40
0.0964284096967589
40
0.15218421451243
40
0.15218421451243
40
0.20779116533162
40
0.20779116533162
40
0.291086018445284
40
0.291086018445284
40
0.374246069117827
40
0.374246069117827
40
0.499956481346248
40
0.499956481346248
40
0.593152353116083
40
0.593152353116083
40
0.686390019140505
40
0.686390019140505
40
0.770438247811055
40
0.770438247811055
40
0.838253241138278
40
0.838253241138278
40
0.891307978929465
40
0.891307978929465
40
0.976705183651216
40
0.976705183651216
40
1
40
1
40
1
40
1
41
1
10
153.918061582844
20
-12.8721423965283
30
0
41
1
10
153.89914242436
20
-12.8760268664933
30
0
41
1
10
153.881231991453
20
-12.8836710558172
30
0
41
1
10
153.85235511271
20
-12.9015163902338
30
0
41
1
10
153.840526148571
20
-12.9108917376881
30
0
41
1
10
153.815208286067
20
-12.9349656669349
30
0
41
1
10
153.802249363879
20
-12.9505225163572
30
0
41
1
10
153.779000091934
20
-12.9838531694126
30
0
41
1
10
153.768625589147
20
-13.0017363997054
30
0
41
1
10
153.74551759687
20
-13.0483317899365
30
0
41
1
10
153.734055775958
20
-13.0782180838307
30
0
41
1
10
153.715329269084
20
-13.1400988063102
30
0
41
1
10
153.708003248319
20
-13.1723026741753
30
0
41
1
10
153.694342023154
20
-13.2547565515897
30
0
41
1
10
153.690317577678
20
-13.3063594031626
30
0
41
1
10
153.690317577678
20
-13.3969125450272
30
0
41
1
10
153.692542041491
20
-13.4359837344039
30
0
41
1
10
153.701537941998
20
-13.5136764296962
30
0
41
1
10
153.708335668943
20
-13.5525465843201
30
0
41
1
10
153.725958795247
20
-13.624953643557
30
0
41
1
10
153.736372628889
20
-13.6588661460101
30
0
41
1
10
153.75938107578
20
-13.7178843534006
30
0
41
1
10
153.771232313623
20
-13.7435914632598
30
0
41
1
10
153.795547770105
20
-13.7869432865267
30
0
41
1
10
153.807385148246
20
-13.8052368089896
30
0
41
1
10
153.841348068007
20
-13.8491486401971
30
0
41
1
10
153.866083281335
20
-13.8734168247105
30
0
41
1
10
153.901775520049
20
-13.8947020564791
30
0
41
1
10
153.909820062928
20
-13.8987655871815
30
0
41
1
10
153.918061582844
20
-13.9021258858287
30
0
0
SPLINE
5
24C
100
AcDbEntity
8
1
62
256
6
ByLayer
370
-1
48
1
60
0
100
AcDbSpline
70
4
71
3
72
8
73
4
40
0
40
0
40
0
40
0
40
1
40
1
40
1
40
1
41
1
10
153.937797205195
20
-12.868090309895
30
0
41
1
10
153.931218678754
20
-12.8694409961621
30
0
41
1
10
153.924640138116
20
-12.8707916916124
30
0
41
1
10
153.918061582844
20
-12.8721423965281
30
0
0
SPLINE
5
24D
100
AcDbEntity
8
1
62
256
6
ByLayer
370
-1
48
1
60
0
100
AcDbSpline
70
4
71
3
72
22
73
18
40
0
40
0
40
0
40
0
40
0.1010093886129
40
0.1010093886129
40
0.187299955176392
40
0.187299955176392
40
0.312839563355158
40
0.312839563355158
40
0.412888481847345
40
0.412888481847345
40
0.512636064008978
40
0.512636064008978
40
0.688353357392408
40
0.688353357392408
40
0.863628414296279
40
0.863628414296279
40
1
40
1
40
1
40
1
41
1
10
153.410169983851
20
-11.969458178149
30
0
41
1
10
153.425693703412
20
-11.9590668701479
30
0
41
1
10
153.444466930962
20
-11.9518229813648
30
0
41
1
10
153.481673479756
20
-11.9459718514847
30
0
41
1
10
153.500165528033
20
-11.9461409367131
30
0
41
1
10
153.545171178924
20
-11.9523667184533
30
0
41
1
10
153.572253413807
20
-11.961010840798
30
0
41
1
10
153.618496751357
20
-11.9815726916531
30
0
41
1
10
153.638526433553
20
-11.9926195542347
30
0
41
1
10
153.676922321201
20
-12.0170641418069
30
0
41
1
10
153.695416037601
20
-12.0305342987819
30
0
41
1
10
153.744354784619
20
-12.0700085361241
30
0
41
1
10
153.773466942704
20
-12.0979303198327
30
0
41
1
10
153.82742973187
20
-12.156851866608
30
0
41
1
10
153.852452990819
20
-12.188044919106
30
0
41
1
10
153.893434967215
20
-12.2455470745186
30
0
41
1
10
153.910223551693
20
-12.2714855230735
30
0
41
1
10
153.925792893418
20
-12.29800256044
30
0
0
SPLINE
5
24E
100
AcDbEntity
8
1
62
256
6
ByLayer
370
-1
48
1
60
0
100
AcDbSpline
70
4
71
3
72
24
73
20
40
0
40
0
40
0
40
0
40
0.0387861824703407
40
0.0387861824703407
40
0.214013350593407
40
0.214013350593407
40
0.389422662783568
40
0.389422662783568
40
0.512145428552408
40
0.512145428552408
40
0.607589910665928
40
0.607589910665928
40
0.697945972634767
40
0.697945972634767
40
0.834212591226778
40
0.834212591226778
40
0.923459798191537
40
0.923459798191537
40
1
40
1
40
1
40
1
41
1
10
153.925792893418
20
-12.29800256044
30
0
41
1
10
153.930223781355
20
-12.3055490593907
30
0
41
1
10
153.934557438339
20
-12.3131456796553
30
0
41
1
10
153.957896783901
20
-12.3552771426341
30
0
41
1
10
153.975029949363
20
-12.3907883798883
30
0
41
1
10
154.004610401762
20
-12.4631757516593
30
0
41
1
10
154.017135490075
20
-12.5002306273945
30
0
41
1
10
154.033298442055
20
-12.5638418667249
30
0
41
1
10
154.038497772824
20
-12.5903222839222
30
0
41
1
10
154.04431969789
20
-12.6373156184023
30
0
41
1
10
154.045709733537
20
-12.6579283879948
30
0
41
1
10
154.045491474232
20
-12.6975359114518
30
0
41
1
10
154.044037456471
20
-12.7166700553403
30
0
41
1
10
154.036043958392
20
-12.7627685704901
30
0
41
1
10
154.027096740356
20
-12.789661665359
30
0
41
1
10
154.003453639343
20
-12.8267148427278
30
0
41
1
10
153.991501184616
20
-12.8397082009094
30
0
41
1
10
153.96568066435
20
-12.8579848467901
30
0
41
1
10
153.952084953415
20
-12.8642671063531
30
0
41
1
10
153.937797205195
20
-12.868090309895
30
0
0
SPLINE
5
24F
100
AcDbEntity
8
1
62
256
6
ByLayer
370
-1
48
1
60
0
100
AcDbSpline
70
4
71
3
72
8
73
4
40
0
40
0
40
0
40
0
40
1
40
1
40
1
40
1
41
1
10
151.442905658228
20
-11.4715724438203
30
0
41
1
10
151.441484753905
20
-11.4656952350858
30
0
41
1
10
151.440063853459
20
-11.4598180462904
30
0
41
1
10
151.438642956775
20
-11.4539408768403
30
0
0
SPLINE
5
250
100
AcDbEntity
8
1
62
256
6
ByLayer
370
-1
48
1
60
0
100
AcDbSpline
70
4
71
3
72
34
73
30
40
0
40
0
40
0
40
0
40
0.0541556532626689
40
0.0541556532626689
40
0.0964284096968115
40
0.0964284096968115
40
0.152184214512463
40
0.152184214512463
40
0.207791165331597
40
0.207791165331597
40
0.29108601844527
40
0.29108601844527
40
0.374246069117772
40
0.374246069117772
40
0.499956481346227
40
0.499956481346227
40
0.593152353116103
40
0.593152353116103
40
0.686390019140533
40
0.686390019140533
40
0.770438247811098
40
0.770438247811098
40
0.838253241138373
40
0.838253241138373
40
0.891307978929635
40
0.891307978929635
40
0.976705183651318
40
0.976705183651318
40
1
40
1
40
1
40
1
41
1
10
152.489253341041
20
-11.4686407579772
30
0
41
1
10
152.484801408874
20
-11.4855668483466
30
0
41
1
10
152.484163876301
20
-11.5035018915535
30
0
41
1
10
152.488104940881
20
-11.5350850086317
30
0
41
1
10
152.491577931477
20
-11.5490203114532
30
0
41
1
10
152.502606909867
20
-11.5807901784838
30
0
41
1
10
152.511154016192
20
-11.5986205266384
30
0
41
1
10
152.531327059248
20
-11.6332555585983
30
0
41
1
10
152.5430160283
20
-11.6501801125763
30
0
41
1
10
152.575058847223
20
-11.6911997093629
30
0
41
1
10
152.596969398139
20
-11.7148742703598
30
0
41
1
10
152.644290907231
20
-11.7600148714895
30
0
41
1
10
152.669863156667
20
-11.7816318773411
30
0
41
1
10
152.737264156747
20
-11.8330753206467
30
0
41
1
10
152.781153870549
20
-11.8618060475809
30
0
41
1
10
152.860774603491
20
-11.9068595349442
30
0
41
1
10
152.895950150403
20
-11.9246083618664
30
0
41
1
10
152.967607913947
20
-11.956410629088
30
0
41
1
10
153.004318381187
20
-11.970567862075
30
0
41
1
10
153.074625045579
20
-11.9931065946058
30
0
41
1
10
153.108391003033
20
-12.0019936925319
30
0
41
1
10
153.169121047902
20
-12.0136336008449
30
0
41
1
10
153.196310422909
20
-12.0172708332637
30
0
41
1
10
153.243952477104
20
-12.0199801392985
30
0
41
1
10
153.264708566978
20
-12.0198762589556
30
0
41
1
10
153.316860831472
20
-12.0152144137328
30
0
41
1
10
153.348188041921
20
-12.0078935451687
30
0
41
1
10
153.381604333799
20
-11.9902965355158
30
0
41
1
10
153.388505936003
20
-11.9859546011572
30
0
41
1
10
153.394887741438
20
-11.9810950711461
30
0
0
SPLINE
5
251
100
AcDbEntity
8
1
62
256
6
ByLayer
370
-1
48
1
60
0
100
AcDbSpline
70
4
71
3
72
8
73
4
40
0
40
0
40
0
40
0
40
1
40
1
40
1
40
1
41
1
10
152.493897399462
20
-11.4509842357911
30
0
41
1
10
152.492349382921
20
-11.4568697236244
30
0
41
1
10
152.490801363477
20
-11.4627552308216
30
0
41
1
10
152.48925334104
20
-11.4686407579772
30
0
0
SPLINE
5
252
100
AcDbEntity
8
1
62
256
6
ByLayer
370
-1
48
1
60
0
100
AcDbSpline
70
4
71
3
72
22
73
18
40
0
40
0
40
0
40
0
40
0.101009388612956
40
0.101009388612956
40
0.187299955176382
40
0.187299955176382
40
0.312839563355111
40
0.312839563355111
40
0.41288848184725
40
0.41288848184725
40
0.512636064008837
40
0.512636064008837
40
0.68835335739227
40
0.68835335739227
40
0.863628414296041
40
0.863628414296041
40
1
40
1
40
1
40
1
41
1
10
151.438642956775
20
-11.4539408768403
30
0
41
1
10
151.43566143869
20
-11.4366779158418
30
0
41
1
10
151.437077887858
20
-11.4182106786887
30
0
41
1
10
151.447891955042
20
-11.3854735240036
30
0
41
1
10
151.456162380692
20
-11.3706010865074
30
0
41
1
10
151.481736737398
20
-11.3370646285649
30
0
41
1
10
151.50171162909
20
-11.3191259602529
30
0
41
1
10
151.541201014735
20
-11.2911861560019
30
0
41
1
10
151.5602916006
20
-11.2800769136626
30
0
41
1
10
151.599897067786
20
-11.2603121568118
30
0
41
1
10
151.620535647253
20
-11.2515867490374
30
0
41
1
10
151.678653535311
20
-11.2303069539615
30
0
41
1
10
151.717287172258
20
-11.2197473415897
30
0
41
1
10
151.795396520864
20
-11.2036011446397
30
0
41
1
10
151.835127574327
20
-11.1979644228955
30
0
41
1
10
151.905990692309
20
-11.191818440674
30
0
41
1
10
151.937171971914
20
-11.1904461302443
30
0
41
1
10
151.968310655364
20
-11.1903588850208
30
0
0
SPLINE
5
253
100
AcDbEntity
8
1
62
256
6
ByLayer
370
-1
48
1
60
0
100
AcDbSpline
70
4
71
3
72
24
73
20
40
0
40
0
40
0
40
0
40
0.0387861824700754
40
0.0387861824700754
40
0.214013350593122
40
0.214013350593122
40
0.389422662783175
40
0.389422662783175
40
0.512145428552088
40
0.512145428552088
40
0.607589910665731
40
0.607589910665731
40
0.697945972634606
40
0.697945972634606
40
0.834212591226618
40
0.834212591226618
40
0.923459798191282
40
0.923459798191282
40
1
40
1
40
1
40
1
41
1
10
151.968310655364
20
-11.1903588850208
30
0
41
1
10
151.977172431237
20
-11.1903340558524
30
0
41
1
10
151.986034429222
20
-11.190413604164
30
0
41
1
10
152.03486190189
20
-11.1914287542016
30
0
41
1
10
152.074840950485
20
-11.194380393291
30
0
41
1
10
152.153877687538
20
-11.2047970358092
30
0
41
1
10
152.193132106804
20
-11.2122842732283
30
0
41
1
10
152.258104774818
20
-11.2295040489468
30
0
41
1
10
152.28446050241
20
-11.237922982045
30
0
41
1
10
152.329719159104
20
-11.2556301270953
30
0
41
1
10
152.349053866115
20
-11.2643424732742
30
0
41
1
10
152.384940926092
20
-11.2834171169862
30
0
41
1
10
152.401687338491
20
-11.2937213741828
30
0
41
1
10
152.440095897337
20
-11.3221542600159
30
0
41
1
10
152.460653418031
20
-11.3421839849658
30
0
41
1
10
152.484180212174
20
-11.3788125393864
30
0
41
1
10
152.490879310635
20
-11.3945785884217
30
0
41
1
10
152.49650935471
20
-11.4239270628939
30
0
41
1
10
152.49645733444
20
-11.4377729281706
30
0
41
1
10
152.493897399462
20
-11.4509842357911
30
0
0
SPLINE
5
254
100
AcDbEntity
8
1
62
256
6
ByLayer
370
-1
48
1
60
0
100
AcDbSpline
70
4
71
3
72
14
73
10
40
0
40
0
40
0
40
0
40
0.261394798492269
40
0.261394798492269
40
0.522786403491424
40
0.522786403491424
40
0.783802380934344
40
0.783802380934344
40
1
40
1
40
1
40
1
41
1
10
145.582227174895
20
-20.167292855402
30
0
41
1
10
145.591086249796
20
-20.166348238151
30
0
41
1
10
145.602545022451
20
-20.1659472387247
30
0
41
1
10
145.628771781514
20
-20.1658729635018
30
0
41
1
10
145.64390683159
20
-20.1661895051995
30
0
41
1
10
145.675725224198
20
-20.167138039578
30
0
41
1
10
145.692853180522
20
-20.167777421536
30
0
41
1
10
145.723839598575
20
-20.1690461016004
30
0
41
1
10
145.738067549985
20
-20.1696735511332
30
0
41
1
10
145.751597892587
20
-20.1703531374977
30
0
0
SPLINE
5
255
100
AcDbEntity
8
SK1
62
256
6
ByLayer
370
-1
48
1
60
0
100
AcDbSpline
70
4
71
3
72
8
73
4
40
0
40
0
40
0
40
0
40
1
40
1
40
1
40
1
41
1
10
-141.314489232021
20
-17.51075
30
0
41
1
10
-141.318179551703
20
-17.51075
30
0
41
1
10
-140.288134111565
20
-17.51075
30
0
41
1
10
-138.836
20
-17.51075
30
0
0
SPLINE
5
256
100
AcDbEntity
8
SK1
62
256
6
ByLayer
370
-1
48
1
60
0
100
AcDbSpline
70
4
71
3
72
10
73
6
40
0
40
0
40
0
40
0
40
0.5
40
0.5
40
1
40
1
40
1
40
1
41
1
10
-138.836
20
-7.57100492421583
30
0
41
1
10
-139.751720015059
20
-5.15328673564838
30
0
41
1
10
-140.323815900012
20
-2.61766499305557
30
0
41
1
10
-140.326678525705
20
2.597354971751
30
0
41
1
10
-139.748549752422
20
5.1616569814806
30
0
41
1
10
-138.836
20
7.57100492421586
30
0
0
LINE
5
47
100
AcDbEntity
8
SK1
62
256
6
ByLayer
370
-1
48
1
60
0
100
AcDbLine
10
-138.836
20
19.98925
30
0
11
-141.336
21
17.48925
31
0
39
0
210
0
220
0
230
1
0
LINE
5
49
100
AcDbEntity
8
SK1
62
256
6
ByLayer
370
-1
48
1
60
0
100
AcDbLine
10
-141.336
20
-17.48925
30
0
11
-141.3145
21
-17.51075
31
0
39
0
210
0
220
0
230
1
0
LINE
5
4A
100
AcDbEntity
8
SK1
62
256
6
ByLayer
370
-1
48
1
60
0
100
AcDbLine
10
0
20
19.98925
30
0
11
-138.836
21
19.98925
31
0
39
0
210
0
220
0
230
1
0
LINE
5
4B
100
AcDbEntity
8
1
62
256
6
ByLayer
370
-1
48
1
60
0
100
AcDbLine
10
121.847478
20
-19.675
30
0
11
130.046951
21
-19.675
31
0
39
0
210
0
220
0
230
1
0
LINE
5
4D
100
AcDbEntity
8
1
62
256
6
ByLayer
370
-1
48
1
60
0
100
AcDbLine
10
130.046951
20
19.675
30
0
11
112.897588
21
19.675
31
0
39
0
210
0
220
0
230
1
0
LINE
5
4E
100
AcDbEntity
8
1
62
256
6
ByLayer
370
-1
48
1
60
0
100
AcDbLine
10
112.497588
20
19.78218
30
0
11
112.138931
21
19.98925
31
0
39
0
210
0
220
0
230
1
0
LINE
5
4F
100
AcDbEntity
8
1
62
256
6
ByLayer
370
-1
48
1
60
0
100
AcDbLine
10
112.138931
20
19.98925
30
0
11
0
21
19.98925
31
0
39
0
210
0
220
0
230
1
0
LINE
5
50
100
AcDbEntity
8
1
62
256
6
ByLayer
370
-1
48
1
60
0
100
AcDbLine
10
130.422659
20
19.685
30
0
11
130.173046
21
19.685
31
0
39
0
210
0
220
0
230
1
0
LINE
5
51
100
AcDbEntity
8
1
62
256
6
ByLayer
370
-1
48
1
60
0
100
AcDbLine
10
130.659786
20
-19.96077
30
0
11
131.54198
21
-21.012128
31
0
39
0
210
0
220
0
230
1
0
LINE
5
52
100
AcDbEntity
8
1
62
256
6
ByLayer
370
-1
48
1
60
0
100
AcDbLine
10
151.445796
20
-11.489081
30
0
11
151.440437
21
-11.431408
31
0
39
0
210
0
220
0
230
1
0
LINE
5
53
100
AcDbEntity
8
1
62
256
6
ByLayer
370
-1
48
1
60
0
100
AcDbLine
10
156.340662
20
-12.915076
30
0
11
156.326046
21
-12.757772
31
0
39
0
210
0
220
0
230
1
0
LINE
5
54
100
AcDbEntity
8
1
62
256
6
ByLayer
370
-1
48
1
60
0
100
AcDbLine
10
147.56379
20
-13.571945
30
0
11
147.578407
21
-13.72925
31
0
39
0
210
0
220
0
230
1
0
LINE
5
55
100
AcDbEntity
8
1
62
256
6
ByLayer
370
-1
48
1
60
0
100
AcDbLine
10
150.232211
20
-13.276292
30
0
11
150.201954
21
-12.950667
31
0
39
0
210
0
220
0
230
1
0
LINE
5
56
100
AcDbEntity
8
1
62
256
6
ByLayer
370
-1
48
1
60
0
100
AcDbLine
10
153.664489
20
-13.127293
30
0
11
153.694689
21
-13.452314
31
0
39
0
210
0
220
0
230
1
0
LINE
5
57
100
AcDbEntity
8
1
62
256
6
ByLayer
370
-1
48
1
60
0
100
AcDbLine
10
151.445394
20
-15.258876
30
0
11
151.413012
21
-14.910379
31
0
39
0
210
0
220
0
230
1
0
LINE
5
58
100
AcDbEntity
8
1
62
256
6
ByLayer
370
-1
48
1
60
0
100
AcDbLine
10
152.453319
20
-14.940509
30
0
11
152.485992
21
-15.292139
31
0
39
0
210
0
220
0
230
1
0
LINE
5
59
100
AcDbEntity
8
1
62
256
6
ByLayer
370
-1
48
1
60
0
100
AcDbLine
10
156.136909
20
-11.007282
30
0
11
156.135566
21
-11.004847
31
0
39
0
210
0
220
0
230
1
0
LINE
5
5A
100
AcDbEntity
8
1
62
256
6
ByLayer
370
-1
48
1
60
0
100
AcDbLine
10
147.42804
20
-11.813935
30
0
11
147.427168
21
-11.816576
31
0
39
0
210
0
220
0
230
1
0
LINE
5
5B
100
AcDbEntity
8
1
62
256
6
ByLayer
370
-1
48
1
60
0
100
AcDbLine
10
157.222626
20
-1.275363
30
0
11
157.191451
21
-0.960444
31
0
39
0
210
0
220
0
230
1
0
LINE
5
5C
100
AcDbEntity
8
1
62
256
6
ByLayer
370
-1
48
1
60
0
100
AcDbLine
10
144.666018
20
-18.37041
30
0
11
144.757503
21
-19.294569
31
0
39
0
210
0
220
0
230
1
0
LINE
5
5D
100
AcDbEntity
8
SK4
62
256
6
ByLayer
370
-1
48
0.05
60
0
100
AcDbLine
10
-146.336
20
0
30
0
11
164.914
21
0
31
0
39
0
210
0
220
0
230
1
0
LINE
5
5F
100
AcDbEntity
8
80
62
256
6
ByLayer
370
-1
48
1
60
0
100
AcDbLine
10
0
20
0
30
0
11
-5
21
0
31
0
39
0
210
0
220
0
230
1
0
LINE
5
60
100
AcDbEntity
8
81
62
256
6
ByLayer
370
-1
48
1
60
0
100
AcDbLine
10
159.914
20
-26.875
30
0
11
164.914
21
-26.875
31
0
39
0
210
0
220
0
230
1
0
LINE
5
61
100
AcDbEntity
8
1
62
256
6
ByLayer
370
-1
48
1
60
0
100
AcDbLine
10
132.228457
20
-10.036361
30
0
11
126.719554
21
-19.450934
31
0
39
0
210
0
220
0
230
1
0
LINE
5
62
100
AcDbEntity
8
1
62
256
6
ByLayer
370
-1
48
1
60
0
100
AcDbLine
10
141.00035
20
-9.015361
30
0
11
141.844229
21
-9.012842
31
0
39
0
210
0
220
0
230
1
0
LINE
5
63
100
AcDbEntity
8
1
62
256
6
ByLayer
370
-1
48
1
60
0
100
AcDbLine
10
145.527578
20
-7.62806
30
0
11
146.714012
21
-6.949837
31
0
39
0
210
0
220
0
230
1
0
LINE
5
64
100
AcDbEntity
8
1
62
256
6
ByLayer
370
-1
48
1
60
0
100
AcDbLine
10
112.497588
20
19.78218
30
0
11
112.497588
21
7.006043
31
0
39
0
210
0
220
0
230
1
0
LINE
5
65
100
AcDbEntity
8
1
62
256
6
ByLayer
370
-1
48
1
60
0
100
AcDbLine
10
0
20
7.571005
30
0
11
112.138931
21
7.571005
31
0
39
0
210
0
220
0
230
1
0
LINE
5
66
100
AcDbEntity
8
1
62
256
6
ByLayer
370
-1
48
1
60
0
100
AcDbLine
10
120.76018
20
-6.697434
30
0
11
130.84547
21
6.726754
31
0
39
0
210
0
220
0
230
1
0
LINE
5
67
100
AcDbEntity
8
1
62
256
6
ByLayer
370
-1
48
1
60
0
100
AcDbLine
10
144.798673
20
11.445811
30
0
11
134.020615
21
-6.97361
31
0
39
0
210
0
220
0
230
1
0
LINE
5
68
100
AcDbEntity
8
1
62
256
6
ByLayer
370
-1
48
1
60
0
100
AcDbLine
10
145.72762
20
10.913413
30
0
11
144.798673
21
11.445811
31
0
39
0
210
0
220
0
230
1
0
LINE
5
69
100
AcDbEntity
8
1
62
256
6
ByLayer
370
-1
48
1
60
0
100
AcDbLine
10
158.81492
20
0.180667
30
0
11
158.789247
21
-0.047053
31
0
39
0
210
0
220
0
230
1
0
LINE
5
6A
100
AcDbEntity
8
1
62
256
6
ByLayer
370
-1
48
1
60
0
100
AcDbLine
10
0
20
-17.51075
30
0
11
112.138931
21
-17.51075
31
0
39
0
210
0
220
0
230
1
0
LINE
5
6B
100
AcDbEntity
8
1
62
256
6
ByLayer
370
-1
48
1
60
0
100
AcDbLine
10
112.138931
20
-7.571005
30
0
11
0
21
-7.571005
31
0
39
0
210
0
220
0
230
1
0
LINE
5
6C
100
AcDbEntity
8
1
62
256
6
ByLayer
370
-1
48
1
60
0
100
AcDbLine
10
141.844229
20
-9.012842
30
0
11
144.602359
21
-7.436162
31
0
39
0
210
0
220
0
230
1
0
LINE
5
6D
100
AcDbEntity
8
1
62
256
6
ByLayer
370
-1
48
1
60
0
100
AcDbLine
10
112.497588
20
-7.006043
30
0
11
112.497588
21
-17.51075
31
0
39
0
210
0
220
0
230
1
0
LINE
5
6E
100
AcDbEntity
8
1
62
256
6
ByLayer
370
-1
48
1
60
0
100
AcDbLine
10
0
20
-7.571005
30
0
11
0
21
-17.51075
31
0
39
0
210
0
220
0
230
1
0
LINE
5
6F
100
AcDbEntity
8
1
62
256
6
ByLayer
370
-1
48
1
60
0
100
AcDbLine
10
145.72762
20
10.913413
30
0
11
127.871746
21
-19.601811
31
0
39
0
210
0
220
0
230
1
0
LINE
5
70
100
AcDbEntity
8
1
62
256
6
ByLayer
370
-1
48
1
60
0
100
AcDbLine
10
130.84547
20
6.726754
30
0
11
130.173046
21
6.726754
31
0
39
0
210
0
220
0
230
1
0
LINE
5
71
100
AcDbEntity
8
1
62
256
6
ByLayer
370
-1
48
1
60
0
100
AcDbLine
10
158.81492
20
3.412812
30
0
11
145.72762
21
10.913413
31
0
39
0
210
0
220
0
230
1
0
LINE
5
72
100
AcDbEntity
8
1
62
256
6
ByLayer
370
-1
48
1
60
0
100
AcDbLine
10
145.050917
20
-7.687498
30
0
11
142.303087
21
-6.148817
31
0
39
0
210
0
220
0
230
1
0
LINE
5
73
100
AcDbEntity
8
1
62
256
6
ByLayer
370
-1
48
1
60
0
100
AcDbLine
10
112.897588
20
-6.697434
30
0
11
120.76018
21
-6.697434
31
0
39
0
210
0
220
0
230
1
0
LINE
5
74
100
AcDbEntity
8
1
62
256
6
ByLayer
370
-1
48
1
60
0
100
AcDbLine
10
144.54383
20
-18.599217
30
0
11
144.54383
21
-18.009337
31
0
39
0
210
0
220
0
230
1
0
LINE
5
75
100
AcDbEntity
8
1
62
256
6
ByLayer
370
-1
48
1
60
0
100
AcDbLine
10
130.659786
20
-19.96077
30
0
11
130.659786
21
-19.896961
31
0
39
0
210
0
220
0
230
1
0
LINE
5
76
100
AcDbEntity
8
1
62
256
6
ByLayer
370
-1
48
1
60
0
100
AcDbLine
10
154.487369
20
-2.506213
30
0
11
158.789247
21
-0.047053
31
0
39
0
210
0
220
0
230
1
0
LINE
5
77
100
AcDbEntity
8
1
62
256
6
ByLayer
370
-1
48
1
60
0
100
AcDbLine
10
130.046951
20
6.697434
30
0
11
112.897588
21
6.697434
31
0
39
0
210
0
220
0
230
1
0
LINE
5
78
100
AcDbEntity
8
1
62
256
6
ByLayer
370
-1
48
1
60
0
100
AcDbLine
10
145.050917
20
-7.687498
30
0
11
158.81492
21
0.180667
31
0
39
0
210
0
220
0
230
1
0
LINE
5
79
100
AcDbEntity
8
1
62
256
6
ByLayer
370
-1
48
1
60
0
100
AcDbLine
10
112.897588
20
-6.697434
30
0
11
112.897588
21
-17.51075
31
0
39
0
210
0
220
0
230
1
0
LINE
5
7A
100
AcDbEntity
8
1
62
256
6
ByLayer
370
-1
48
1
60
0
100
AcDbLine
10
144.585294
20
-18.692105
30
0
11
144.585294
21
-21.201477
31
0
39
0
210
0
220
0
230
1
0
LINE
5
7B
100
AcDbEntity
8
1
62
256
6
ByLayer
370
-1
48
1
60
0
100
AcDbLine
10
144.585294
20
-21.201477
30
0
11
131.768328
21
-21.239736
31
0
39
0
210
0
220
0
230
1
0
LINE
5
7C
100
AcDbEntity
8
1
62
256
6
ByLayer
370
-1
48
1
60
0
100
AcDbLine
10
144.798673
20
11.445811
30
0
11
140.656484
21
13.819785
31
0
39
0
210
0
220
0
230
1
0
LINE
5
7D
100
AcDbEntity
8
1
62
256
6
ByLayer
370
-1
48
1
60
0
100
AcDbLine
10
139.407929
20
-6.934893
30
0
11
136.586363
21
-11.805751
31
0
39
0
210
0
220
0
230
1
0
LINE
5
7E
100
AcDbEntity
8
1
62
256
6
ByLayer
370
-1
48
1
60
0
100
AcDbLine
10
130.173046
20
19.685
30
0
11
130.173046
21
6.726754
31
0
39
0
210
0
220
0
230
1
0
LINE
5
7F
100
AcDbEntity
8
1
62
256
6
ByLayer
370
-1
48
1
60
0
100
AcDbLine
10
144.191334
20
-17.809926
30
0
11
144.585294
21
-18.692105
31
0
39
0
210
0
220
0
230
1
0
LINE
5
80
100
AcDbEntity
8
1
62
256
6
ByLayer
370
-1
48
1
60
0
100
AcDbLine
10
158.81492
20
3.412812
30
0
11
158.81492
21
0.180667
31
0
39
0
210
0
220
0
230
1
0
LINE
5
81
100
AcDbEntity
8
1
62
256
6
ByLayer
370
-1
48
1
60
0
100
AcDbLine
10
144.725074
20
-18.966746
30
0
11
144.585395
21
-18.967163
31
0
39
0
210
0
220
0
230
1
0
LINE
5
82
100
AcDbEntity
8
1
62
256
6
ByLayer
370
-1
48
1
60
0
100
AcDbLine
10
145.527578
20
-7.62806
30
0
11
145.050917
21
-7.687498
31
0
39
0
210
0
220
0
230
1
0
LINE
5
83
100
AcDbEntity
8
1
62
256
6
ByLayer
370
-1
48
1
60
0
100
AcDbLine
10
130.422659
20
19.685
30
0
11
140.656484
21
13.819785
31
0
39
0
210
0
220
0
230
1
0
LINE
5
84
100
AcDbEntity
8
1
62
256
6
ByLayer
370
-1
48
1
60
0
100
AcDbLine
10
112.138931
20
-7.571005
30
0
11
112.138931
21
-17.51075
31
0
39
0
210
0
220
0
230
1
0
LINE
5
85
100
AcDbEntity
8
1
62
256
6
ByLayer
370
-1
48
1
60
0
100
AcDbLine
10
112.138931
20
19.98925
30
0
11
112.138931
21
7.571005
31
0
39
0
210
0
220
0
230
1
0
LINE
5
86
100
AcDbEntity
8
1
62
256
6
ByLayer
370
-1
48
1
60
0
100
AcDbLine
10
119.683228
20
-17.51075
30
0
11
112.897588
21
-17.51075
31
0
39
0
210
0
220
0
230
1
0
LINE
5
87
100
AcDbEntity
8
1
62
256
6
ByLayer
370
-1
48
1
60
0
100
AcDbLine
10
112.897588
20
6.697434
30
0
11
112.897588
21
19.675
31
0
39
0
210
0
220
0
230
1
0
LINE
5
88
100
AcDbEntity
8
1
62
256
6
ByLayer
370
-1
48
1
60
0
100
AcDbLine
10
137.375673
20
-14.65499
30
0
11
137.05306
21
-13.613016
31
0
39
0
210
0
220
0
230
1
0
LINE
5
89
100
AcDbEntity
8
1
62
256
6
ByLayer
370
-1
48
1
60
0
100
AcDbLine
10
121.847478
20
-19.675
30
0
11
119.683228
21
-17.51075
31
0
39
0
210
0
220
0
230
1
0
LINE
5
8A
100
AcDbEntity
8
1
62
256
6
ByLayer
370
-1
48
1
60
0
100
AcDbLine
10
130.046951
20
-19.675
30
0
11
130.046951
21
-19.605107
31
0
39
0
210
0
220
0
230
1
0
LINE
5
8B
100
AcDbEntity
8
1
62
256
6
ByLayer
370
-1
48
1
60
0
100
AcDbLine
10
130.046951
20
6.697434
30
0
11
130.046951
21
19.675
31
0
39
0
210
0
220
0
230
1
0
LINE
5
8C
100
AcDbEntity
8
1
62
256
6
ByLayer
370
-1
48
1
60
0
100
AcDbLine
10
0
20
-7.571005
30
0
11
0
21
7.571005
31
0
39
0
210
0
220
0
230
1
0
LINE
5
8D
100
AcDbEntity
8
1
62
256
6
ByLayer
370
-1
48
1
60
0
100
AcDbLine
10
137.375673
20
-14.65499
30
0
11
144.585294
21
-18.692105
31
0
39
0
210
0
220
0
230
1
0
LINE
5
8E
100
AcDbEntity
8
1
62
256
6
ByLayer
370
-1
48
1
60
0
100
AcDbLine
10
137.05306
20
-13.613016
30
0
11
140.69982
21
-15.655064
31
0
39
0
210
0
220
0
230
1
0
LINE
5
8F
100
AcDbEntity
8
1
62
256
6
ByLayer
370
-1
48
1
60
0
100
AcDbLine
10
0
20
7.571005
30
0
11
0
21
19.98925
31
0
39
0
210
0
220
0
230
1
0
LINE
5
90
100
AcDbEntity
8
SK1
62
256
6
ByLayer
370
-1
48
1
60
0
100
AcDbLine
10
0
20
-7.571005
30
0
11
0
21
-17.51075
31
0
39
0
210
0
220
0
230
1
0
LINE
5
91
100
AcDbEntity
8
1
62
256
6
ByLayer
370
-1
48
1
60
0
100
AcDbLine
10
143.822335
20
-9.170642
30
0
11
144.779304
21
-7.535411
31
0
39
0
210
0
220
0
230
1
0
LINE
5
92
100
AcDbEntity
8
1
62
256
6
ByLayer
370
-1
48
1
60
0
100
AcDbLine
10
143.038966
20
-9.539386
30
0
11
143.822335
21
-9.170642
31
0
39
0
210
0
220
0
230
1
0
LINE
5
93
100
AcDbEntity
8
1
62
256
6
ByLayer
370
-1
48
1
60
0
100
AcDbLine
10
138.766491
20
-8.441155
30
0
11
143.038966
21
-9.539386
31
0
39
0
210
0
220
0
230
1
0
LINE
5
94
100
AcDbEntity
8
1
62
256
6
ByLayer
370
-1
48
1
60
0
100
AcDbLine
10
137.426919
20
-10.730163
30
0
11
138.766491
21
-8.441155
31
0
39
0
210
0
220
0
230
1
0
LINE
5
95
100
AcDbEntity
8
1
62
256
6
ByLayer
370
-1
48
1
60
0
100
AcDbLine
10
159.884622
20
-10.085265
30
0
11
158.547606
21
-7.808117
31
0
39
0
210
0
220
0
230
1
0
LINE
5
96
100
AcDbEntity
8
1
62
256
6
ByLayer
370
-1
48
1
60
0
100
AcDbLine
10
159.781808
20
-8.978772
30
0
11
159.884622
21
-10.085265
31
0
39
0
210
0
220
0
230
1
0
LINE
5
97
100
AcDbEntity
8
1
62
256
6
ByLayer
370
-1
48
1
60
0
100
AcDbLine
10
158.547606
20
-7.808117
30
0
11
158.618395
21
-6.971525
31
0
39
0
210
0
220
0
230
1
0
LINE
5
98
100
AcDbEntity
8
1
62
256
6
ByLayer
370
-1
48
1
60
0
100
AcDbLine
10
158.618395
20
-6.971525
30
0
11
161.742931
21
-4.004121
31
0
39
0
210
0
220
0
230
1
0
LINE
5
99
100
AcDbEntity
8
1
62
256
6
ByLayer
370
-1
48
1
60
0
100
AcDbLine
10
161.742931
20
-4.004121
30
0
11
160.403359
21
-1.722619
31
0
39
0
210
0
220
0
230
1
0
LINE
5
9A
100
AcDbEntity
8
1
62
256
6
ByLayer
370
-1
48
1
60
0
100
AcDbLine
10
160.403359
20
-1.722619
30
0
11
156.118754
21
-2.714244
31
0
39
0
210
0
220
0
230
1
0
LINE
5
9B
100
AcDbEntity
8
1
62
256
6
ByLayer
370
-1
48
1
60
0
100
AcDbLine
10
156.118754
20
-2.714244
30
0
11
155.239514
21
-2.289139
31
0
39
0
210
0
220
0
230
1
0
LINE
5
9C
100
AcDbEntity
8
1
62
256
6
ByLayer
370
-1
48
1
60
0
100
AcDbLine
10
155.239514
20
-2.289139
30
0
11
155.22073
21
-2.086982
31
0
39
0
210
0
220
0
230
1
0
LINE
5
9D
100
AcDbEntity
8
1
62
256
6
ByLayer
370
-1
48
1
60
0
100
AcDbLine
10
159.888073
20
-15.80085
30
0
11
159.887157
21
-15.837188
31
0
39
0
210
0
220
0
230
1
0
LINE
5
9E
100
AcDbEntity
8
1
62
256
6
ByLayer
370
-1
48
1
60
0
100
AcDbLine
10
159.887157
20
-13.994474
30
0
11
159.889866
21
-14.255259
31
0
39
0
210
0
220
0
230
1
0
LINE
5
9F
100
AcDbEntity
8
1
62
256
6
ByLayer
370
-1
48
1
60
0
100
AcDbLine
10
149.068878
20
-20.569881
30
0
11
148.346876
21
-20.161336
31
0
39
0
210
0
220
0
230
1
0
LINE
5
A0
100
AcDbEntity
8
1
62
256
6
ByLayer
370
-1
48
1
60
0
100
AcDbLine
10
160.287015
20
-0.470503
30
0
11
161.626586
21
-2.752004
31
0
39
0
210
0
220
0
230
1
0
LINE
5
A1
100
AcDbEntity
8
1
62
256
6
ByLayer
370
-1
48
1
60
0
100
AcDbLine
10
156.145718
20
-1.558221
30
0
11
160.287015
21
-0.470503
31
0
39
0
210
0
220
0
230
1
0
LINE
5
A2
100
AcDbEntity
8
1
62
256
6
ByLayer
370
-1
48
1
60
0
100
AcDbLine
10
150.257383
20
-5.178821
30
0
11
150.297092
21
-5.145739
31
0
39
0
210
0
220
0
230
1
0
LINE
5
A3
100
AcDbEntity
8
1
62
256
6
ByLayer
370
-1
48
1
60
0
100
AcDbLine
10
148.676848
20
-6.071636
30
0
11
148.883218
21
-5.984413
31
0
39
0
210
0
220
0
230
1
0
LINE
5
A4
100
AcDbEntity
8
1
62
256
6
ByLayer
370
-1
48
1
60
0
100
AcDbLine
10
159.881997
20
-11.907748
30
0
11
159.881997
21
-12.728885
31
0
39
0
210
0
220
0
230
1
0
LINE
5
A5
100
AcDbEntity
8
1
62
256
6
ByLayer
370
-1
48
1
60
0
100
AcDbLine
10
153.371289
20
-21.509302
30
0
11
154.086671
21
-22.007299
31
0
39
0
210
0
220
0
230
1
0
LINE
5
A6
100
AcDbEntity
8
1
62
256
6
ByLayer
370
-1
48
1
60
0
100
AcDbLine
10
154.086671
20
-22.007299
30
0
11
155.25887
21
-26.334032
31
0
39
0
210
0
220
0
230
1
0
LINE
5
A7
100
AcDbEntity
8
1
62
256
6
ByLayer
370
-1
48
1
60
0
100
AcDbLine
10
155.25887
20
-26.334032
30
0
11
157.938014
21
-26.326525
31
0
39
0
210
0
220
0
230
1
0
LINE
5
A8
100
AcDbEntity
8
1
62
256
6
ByLayer
370
-1
48
1
60
0
100
AcDbLine
10
157.938014
20
-26.326525
30
0
11
159.085952
21
-21.993292
31
0
39
0
210
0
220
0
230
1
0
LINE
5
A9
100
AcDbEntity
8
1
62
256
6
ByLayer
370
-1
48
1
60
0
100
AcDbLine
10
159.085952
20
-21.993292
30
0
11
159.884313
21
-21.430863
31
0
39
0
210
0
220
0
230
1
0
LINE
5
AA
100
AcDbEntity
8
1
62
256
6
ByLayer
370
-1
48
1
60
0
100
AcDbLine
10
159.881997
20
-16.495098
30
0
11
159.881997
21
-20.539585
31
0
39
0
210
0
220
0
230
1
0
LINE
5
AB
100
AcDbEntity
8
1
62
256
6
ByLayer
370
-1
48
1
60
0
100
AcDbLine
10
159.882181
20
-20.669821
30
0
11
159.884313
21
-21.430863
31
0
39
0
210
0
220
0
230
1
0
LINE
5
AC
100
AcDbEntity
8
1
62
256
6
ByLayer
370
-1
48
1
60
0
100
AcDbLine
10
150.684344
20
-21.509107
30
0
11
149.294608
21
-20.699485
31
0
39
0
210
0
220
0
230
1
0
LINE
5
AD
100
AcDbEntity
8
1
62
256
6
ByLayer
370
-1
48
1
60
0
100
AcDbLine
10
159.889759
20
-15.582901
30
0
11
159.889759
21
-14.737773
31
0
39
0
210
0
220
0
230
1
0
LINE
5
AE
100
AcDbEntity
8
1
62
256
6
ByLayer
370
-1
48
1
60
0
100
AcDbLine
10
147.124555
20
-19.520667
30
0
11
148.746395
21
-19.159888
31
0
39
0
210
0
220
0
230
1
0
LINE
5
AF
100
AcDbEntity
8
1
62
256
6
ByLayer
370
-1
48
1
60
0
100
AcDbLine
10
157.799704
20
-16.577633
30
0
11
159.410699
21
-16.016319
31
0
39
0
210
0
220
0
230
1
0
LINE
5
B0
100
AcDbEntity
8
1
62
256
6
ByLayer
370
-1
48
1
60
0
100
AcDbLine
10
159.889759
20
-15.582901
30
0
11
159.840088
21
-15.61361
31
0
39
0
210
0
220
0
230
1
0
LINE
5
B1
100
AcDbEntity
8
1
62
256
6
ByLayer
370
-1
48
1
60
0
100
AcDbLine
10
159.341839
20
-15.700282
30
0
11
157.751051
21
-16.254556
31
0
39
0
210
0
220
0
230
1
0
LINE
5
B2
100
AcDbEntity
8
1
62
256
6
ByLayer
370
-1
48
1
60
0
100
AcDbLine
10
158.449071
20
-13.49517
30
0
11
159.646738
21
-14.494966
31
0
39
0
210
0
220
0
230
1
0
LINE
5
B3
100
AcDbEntity
8
1
62
256
6
ByLayer
370
-1
48
1
60
0
100
AcDbLine
10
155.070352
20
-18.265078
30
0
11
157.799704
21
-16.577633
31
0
39
0
210
0
220
0
230
1
0
LINE
5
B4
100
AcDbEntity
8
1
62
256
6
ByLayer
370
-1
48
1
60
0
100
AcDbLine
10
148.746395
20
-19.159888
30
0
11
151.964788
21
-19.15087
31
0
39
0
210
0
220
0
230
1
0
LINE
5
B5
100
AcDbEntity
8
1
62
256
6
ByLayer
370
-1
48
1
60
0
100
AcDbLine
10
157.751051
20
-16.254556
30
0
11
156.646241
21
-15.986341
31
0
39
0
210
0
220
0
230
1
0
LINE
5
B6
100
AcDbEntity
8
1
62
256
6
ByLayer
370
-1
48
1
60
0
100
AcDbLine
10
149.402208
20
-18.052539
30
0
11
148.611248
21
-18.861481
31
0
39
0
210
0
220
0
230
1
0
LINE
5
B7
100
AcDbEntity
8
1
62
256
6
ByLayer
370
-1
48
1
60
0
100
AcDbLine
10
148.706798
20
-18.959688
30
0
11
149.497758
21
-18.150747
31
0
39
0
210
0
220
0
230
1
0
LINE
5
B8
100
AcDbEntity
8
1
62
256
6
ByLayer
370
-1
48
1
60
0
100
AcDbLine
10
156.61514
20
-16.120672
30
0
11
157.719951
21
-16.388887
31
0
39
0
210
0
220
0
230
1
0
LINE
5
B9
100
AcDbEntity
8
1
62
256
6
ByLayer
370
-1
48
1
60
0
100
AcDbLine
10
151.966198
20
-19.000673
30
0
11
148.747805
21
-19.00969
31
0
39
0
210
0
220
0
230
1
0
LINE
5
BA
100
AcDbEntity
8
1
62
256
6
ByLayer
370
-1
48
1
60
0
100
AcDbLine
10
157.712139
20
-16.452815
30
0
11
154.982787
21
-18.140259
31
0
39
0
210
0
220
0
230
1
0
LINE
5
BB
100
AcDbEntity
8
1
62
256
6
ByLayer
370
-1
48
1
60
0
100
AcDbLine
10
159.887157
20
-15.837188
30
0
11
155.380473
21
-18.623482
31
0
39
0
210
0
220
0
230
1
0
LINE
5
BC
100
AcDbEntity
8
1
62
256
6
ByLayer
370
-1
48
1
60
0
100
AcDbLine
10
151.95069
20
-19.601751
30
0
11
147.288064
21
-19.614815
31
0
39
0
210
0
220
0
230
1
0
LINE
5
BD
100
AcDbEntity
8
1
62
256
6
ByLayer
370
-1
48
1
60
0
100
AcDbLine
10
148.346876
20
-20.161336
30
0
11
151.94553
21
-20.151253
31
0
39
0
210
0
220
0
230
1
0
LINE
5
BE
100
AcDbEntity
8
1
62
256
6
ByLayer
370
-1
48
1
60
0
100
AcDbLine
10
155.700834
20
-19.080136
30
0
11
159.881997
21
-16.495098
31
0
39
0
210
0
220
0
230
1
0
LINE
5
BF
100
AcDbEntity
8
1
62
256
6
ByLayer
370
-1
48
1
60
0
100
AcDbLine
10
159.881997
20
-20.539585
30
0
11
149.068878
21
-20.569881
31
0
39
0
210
0
220
0
230
1
0
LINE
5
C0
100
AcDbEntity
8
1
62
256
6
ByLayer
370
-1
48
1
60
0
100
AcDbLine
10
159.882181
20
-20.669821
30
0
11
149.294608
21
-20.699485
31
0
39
0
210
0
220
0
230
1
0
LINE
5
C1
100
AcDbEntity
8
1
62
256
6
ByLayer
370
-1
48
1
60
0
100
AcDbLine
10
155.070352
20
-18.265078
30
0
11
155.380473
21
-18.623482
31
0
39
0
210
0
220
0
230
1
0
LINE
5
C2
100
AcDbEntity
8
1
62
256
6
ByLayer
370
-1
48
1
60
0
100
AcDbLine
10
151.964788
20
-19.15087
30
0
11
151.95069
21
-19.601751
31
0
39
0
210
0
220
0
230
1
0
LINE
5
C3
100
AcDbEntity
8
1
62
256
6
ByLayer
370
-1
48
1
60
0
100
AcDbLine
10
159.646738
20
-14.494966
30
0
11
157.071033
21
-13.869661
31
0
39
0
210
0
220
0
230
1
0
LINE
5
C4
100
AcDbEntity
8
1
62
256
6
ByLayer
370
-1
48
1
60
0
100
AcDbLine
10
156.766134
20
-15.074977
30
0
11
159.341839
21
-15.700282
31
0
39
0
210
0
220
0
230
1
0
LINE
5
C5
100
AcDbEntity
8
1
62
256
6
ByLayer
370
-1
48
1
60
0
100
AcDbLine
10
159.840088
20
-15.61361
30
0
11
156.543852
21
-14.813382
31
0
39
0
210
0
220
0
230
1
0
LINE
5
C6
100
AcDbEntity
8
1
62
256
6
ByLayer
370
-1
48
1
60
0
100
AcDbLine
10
156.755461
20
-13.976859
30
0
11
159.889759
21
-14.737773
31
0
39
0
210
0
220
0
230
1
0
LINE
5
C7
100
AcDbEntity
8
1
62
256
6
ByLayer
370
-1
48
1
60
0
100
AcDbLine
10
145.709362
20
-18.730852
30
0
11
145.66782
21
-18.697998
31
0
39
0
210
0
220
0
230
1
0
LINE
5
C8
100
AcDbEntity
8
1
62
256
6
ByLayer
370
-1
48
1
60
0
100
AcDbLine
10
147.288064
20
-19.614815
30
0
11
147.087113
21
-19.528733
31
0
39
0
210
0
220
0
230
1
0
LINE
5
C9
100
AcDbEntity
8
1
62
256
6
ByLayer
370
-1
48
1
60
0
100
AcDbLine
10
146.885715
20
-7.03671
30
0
11
147.607717
21
-6.624119
31
0
39
0
210
0
220
0
230
1
0
LINE
5
CA
100
AcDbEntity
8
1
62
256
6
ByLayer
370
-1
48
1
60
0
100
AcDbLine
10
145.275175
20
-7.984974
30
0
11
145.245282
21
-7.66326
31
0
39
0
210
0
220
0
230
1
0
LINE
5
CB
100
AcDbEntity
8
1
62
256
6
ByLayer
370
-1
48
1
60
0
100
AcDbLine
10
145.035354
20
-18.287507
30
0
11
141.479156
21
-16.275228
31
0
39
0
210
0
220
0
230
1
0
LINE
5
CC
100
AcDbEntity
8
1
62
256
6
ByLayer
370
-1
48
1
60
0
100
AcDbLine
10
141.366566
20
-16.213393
30
0
11
140.719711
21
-15.869108
31
0
39
0
210
0
220
0
230
1
0
LINE
5
CD
100
AcDbEntity
8
1
62
256
6
ByLayer
370
-1
48
1
60
0
100
AcDbLine
10
145.275175
20
-7.984974
30
0
11
146.660353
21
-7.167578
31
0
39
0
210
0
220
0
230
1
0
LINE
5
CE
100
AcDbEntity
8
1
62
256
6
ByLayer
370
-1
48
1
60
0
100
AcDbLine
10
145.918636
20
-18.866457
30
0
11
146.661732
21
-19.286939
31
0
39
0
210
0
220
0
230
1
0
LINE
5
CF
100
AcDbEntity
8
1
62
256
6
ByLayer
370
-1
48
1
60
0
100
AcDbLine
10
146.220231
20
-16.764226
30
0
11
145.782159
21
-18.247619
31
0
39
0
210
0
220
0
230
1
0
LINE
5
D0
100
AcDbEntity
8
1
62
256
6
ByLayer
370
-1
48
1
60
0
100
AcDbLine
10
145.918636
20
-18.866457
30
0
11
145.916592
21
-18.808809
31
0
39
0
210
0
220
0
230
1
0
LINE
5
D1
100
AcDbEntity
8
1
62
256
6
ByLayer
370
-1
48
1
60
0
100
AcDbLine
10
146.103152
20
-18.357971
30
0
11
146.53573
21
-16.893185
31
0
39
0
210
0
220
0
230
1
0
LINE
5
D2
100
AcDbEntity
8
1
62
256
6
ByLayer
370
-1
48
1
60
0
100
AcDbLine
10
148.611248
20
-18.861481
30
0
11
147.009751
21
-19.217735
31
0
39
0
210
0
220
0
230
1
0
LINE
5
D3
100
AcDbEntity
8
1
62
256
6
ByLayer
370
-1
48
1
60
0
100
AcDbLine
10
146.107911
20
-13.596561
30
0
11
146.220231
21
-16.764226
31
0
39
0
210
0
220
0
230
1
0
LINE
5
D4
100
AcDbEntity
8
1
62
256
6
ByLayer
370
-1
48
1
60
0
100
AcDbLine
10
148.498689
20
-7.757111
30
0
11
146.889492
21
-10.506843
31
0
39
0
210
0
220
0
230
1
0
LINE
5
D5
100
AcDbEntity
8
1
62
256
6
ByLayer
370
-1
48
1
60
0
100
AcDbLine
10
146.53573
20
-16.893185
30
0
11
147.326691
21
-16.084243
31
0
39
0
210
0
220
0
230
1
0
LINE
5
D6
100
AcDbEntity
8
1
62
256
6
ByLayer
370
-1
48
1
60
0
100
AcDbLine
10
147.232688
20
-16.002691
30
0
11
146.441728
21
-16.811632
31
0
39
0
210
0
220
0
230
1
0
LINE
5
D7
100
AcDbEntity
8
1
62
256
6
ByLayer
370
-1
48
1
60
0
100
AcDbLine
10
147.036312
20
-10.604301
30
0
11
148.645508
21
-7.854569
31
0
39
0
210
0
220
0
230
1
0
LINE
5
D8
100
AcDbEntity
8
1
62
256
6
ByLayer
370
-1
48
1
60
0
100
AcDbLine
10
146.389444
20
-16.773162
30
0
11
146.277123
21
-13.605497
31
0
39
0
210
0
220
0
230
1
0
LINE
5
D9
100
AcDbEntity
8
1
62
256
6
ByLayer
370
-1
48
1
60
0
100
AcDbLine
10
145.66782
20
-18.697998
30
0
11
145.482358
21
-13.467575
31
0
39
0
210
0
220
0
230
1
0
LINE
5
DA
100
AcDbEntity
8
1
62
256
6
ByLayer
370
-1
48
1
60
0
100
AcDbLine
10
147.607717
20
-6.624119
30
0
11
145.80839
21
-9.698738
31
0
39
0
210
0
220
0
230
1
0
LINE
5
DB
100
AcDbEntity
8
1
62
256
6
ByLayer
370
-1
48
1
60
0
100
AcDbLine
10
144.863288
20
-13.434881
30
0
11
145.035354
21
-18.287507
31
0
39
0
210
0
220
0
230
1
0
LINE
5
DC
100
AcDbEntity
8
1
62
256
6
ByLayer
370
-1
48
1
60
0
100
AcDbLine
10
141.479156
20
-16.275228
30
0
11
146.885715
21
-7.03671
31
0
39
0
210
0
220
0
230
1
0
LINE
5
DD
100
AcDbEntity
8
1
62
256
6
ByLayer
370
-1
48
1
60
0
100
AcDbLine
10
141.366566
20
-16.213393
30
0
11
146.660353
21
-7.167578
31
0
39
0
210
0
220
0
230
1
0
LINE
5
DE
100
AcDbEntity
8
1
62
256
6
ByLayer
370
-1
48
1
60
0
100
AcDbLine
10
146.107911
20
-13.596561
30
0
11
145.482358
21
-13.467575
31
0
39
0
210
0
220
0
230
1
0
LINE
5
DF
100
AcDbEntity
8
1
62
256
6
ByLayer
370
-1
48
1
60
0
100
AcDbLine
10
146.889492
20
-10.506843
30
0
11
146.345535
21
-10.055292
31
0
39
0
210
0
220
0
230
1
0
LINE
5
E0
100
AcDbEntity
8
1
62
256
6
ByLayer
370
-1
48
1
60
0
100
AcDbLine
10
147.009751
20
-19.217735
30
0
11
148.853761
21
-17.331805
31
0
39
0
210
0
220
0
230
1
0
LINE
5
E1
100
AcDbEntity
8
1
62
256
6
ByLayer
370
-1
48
1
60
0
100
AcDbLine
10
147.947163
20
-16.472041
30
0
11
146.103152
21
-18.357971
31
0
39
0
210
0
220
0
230
1
0
LINE
5
E2
100
AcDbEntity
8
1
62
256
6
ByLayer
370
-1
48
1
60
0
100
AcDbLine
10
145.916592
20
-18.808809
30
0
11
148.276447
21
-16.395308
31
0
39
0
210
0
220
0
230
1
0
LINE
5
E3
100
AcDbEntity
8
1
62
256
6
ByLayer
370
-1
48
1
60
0
100
AcDbLine
10
148.905653
20
-16.992008
30
0
11
146.661732
21
-19.286939
31
0
39
0
210
0
220
0
230
1
0
LINE
5
E4
100
AcDbEntity
8
1
62
256
6
ByLayer
370
-1
48
1
60
0
100
AcDbLine
10
150.697258
20
-21.516794
30
0
11
153.371289
21
-21.509302
31
0
39
0
210
0
220
0
230
1
0
LINE
5
E5
100
AcDbEntity
8
1
62
256
6
ByLayer
370
-1
48
1
60
0
100
AcDbLine
10
158.616494
20
-6.994059
30
0
11
159.781808
21
-8.978772
31
0
39
0
210
0
220
0
230
1
0
LINE
5
E6
100
AcDbEntity
8
1
62
256
6
ByLayer
370
-1
48
1
60
0
100
AcDbLine
10
150.919239
20
-4.731734
30
0
11
154.475437
21
-2.699527
31
0
39
0
210
0
220
0
230
1
0
LINE
5
E7
100
AcDbEntity
8
1
62
256
6
ByLayer
370
-1
48
1
60
0
100
AcDbLine
10
154.588394
20
-2.63706
30
0
11
155.239514
21
-2.289139
31
0
39
0
210
0
220
0
230
1
0
LINE
5
E8
100
AcDbEntity
8
1
62
256
6
ByLayer
370
-1
48
1
60
0
100
AcDbLine
10
159.88446
20
-10.099775
30
0
11
159.882181
21
-11.653211
31
0
39
0
210
0
220
0
230
1
0
LINE
5
E9
100
AcDbEntity
8
1
62
256
6
ByLayer
370
-1
48
1
60
0
100
AcDbLine
10
150.051481
20
-5.31559
30
0
11
149.308385
21
-5.740236
31
0
39
0
210
0
220
0
230
1
0
LINE
5
EA
100
AcDbEntity
8
1
62
256
6
ByLayer
370
-1
48
1
60
0
100
AcDbLine
10
159.862162
20
-14.231612
30
0
11
158.649281
21
-13.219118
31
0
39
0
210
0
220
0
230
1
0
LINE
5
EB
100
AcDbEntity
8
1
62
256
6
ByLayer
370
-1
48
1
60
0
100
AcDbLine
10
151.874429
20
-6.794256
30
0
11
150.668087
21
-5.512506
31
0
39
0
210
0
220
0
230
1
0
LINE
5
EC
100
AcDbEntity
8
1
62
256
6
ByLayer
370
-1
48
1
60
0
100
AcDbLine
10
150.051481
20
-5.31559
30
0
11
150.103196
21
-5.342528
31
0
39
0
210
0
220
0
230
1
0
LINE
5
ED
100
AcDbEntity
8
1
62
256
6
ByLayer
370
-1
48
1
60
0
100
AcDbLine
10
148.874227
20
-6.024164
30
0
11
148.498689
21
-7.757111
31
0
39
0
210
0
220
0
230
1
0
LINE
5
EE
100
AcDbEntity
8
1
62
256
6
ByLayer
370
-1
48
1
60
0
100
AcDbLine
10
150.418282
20
-5.743253
30
0
11
151.609493
21
-7.008927
31
0
39
0
210
0
220
0
230
1
0
LINE
5
EF
100
AcDbEntity
8
1
62
256
6
ByLayer
370
-1
48
1
60
0
100
AcDbLine
10
148.835955
20
-7.800016
30
0
11
149.206784
21
-6.088806
31
0
39
0
210
0
220
0
230
1
0
LINE
5
F0
100
AcDbEntity
8
1
62
256
6
ByLayer
370
-1
48
1
60
0
100
AcDbLine
10
149.149805
20
-8.877173
30
0
11
148.835955
21
-7.800016
31
0
39
0
210
0
220
0
230
1
0
LINE
5
F1
100
AcDbEntity
8
1
62
256
6
ByLayer
370
-1
48
1
60
0
100
AcDbLine
10
148.710079
20
-7.844468
30
0
11
149.023928
21
-8.921624
31
0
39
0
210
0
220
0
230
1
0
LINE
5
F2
100
AcDbEntity
8
1
62
256
6
ByLayer
370
-1
48
1
60
0
100
AcDbLine
10
154.716101
20
-8.274477
30
0
11
151.874429
21
-6.794256
31
0
39
0
210
0
220
0
230
1
0
LINE
5
F3
100
AcDbEntity
8
1
62
256
6
ByLayer
370
-1
48
1
60
0
100
AcDbLine
10
158.649281
20
-13.219118
30
0
11
157.040084
21
-10.478403
31
0
39
0
210
0
220
0
230
1
0
LINE
5
F4
100
AcDbEntity
8
1
62
256
6
ByLayer
370
-1
48
1
60
0
100
AcDbLine
10
151.609493
20
-7.008927
30
0
11
151.923342
21
-8.086083
31
0
39
0
210
0
220
0
230
1
0
LINE
5
F5
100
AcDbEntity
8
1
62
256
6
ByLayer
370
-1
48
1
60
0
100
AcDbLine
10
157.34426
20
-13.226955
30
0
11
158.449071
21
-13.49517
31
0
39
0
210
0
220
0
230
1
0
LINE
5
F6
100
AcDbEntity
8
1
62
256
6
ByLayer
370
-1
48
1
60
0
100
AcDbLine
10
158.481719
20
-13.377493
30
0
11
157.376908
21
-13.109278
31
0
39
0
210
0
220
0
230
1
0
LINE
5
F7
100
AcDbEntity
8
1
62
256
6
ByLayer
370
-1
48
1
60
0
100
AcDbLine
10
152.050767
20
-8.058286
30
0
11
151.736917
21
-6.98113
31
0
39
0
210
0
220
0
230
1
0
LINE
5
F8
100
AcDbEntity
8
1
62
256
6
ByLayer
370
-1
48
1
60
0
100
AcDbLine
10
156.896085
20
-10.576675
30
0
11
158.505282
21
-13.31739
31
0
39
0
210
0
220
0
230
1
0
LINE
5
F9
100
AcDbEntity
8
1
62
256
6
ByLayer
370
-1
48
1
60
0
100
AcDbLine
10
151.797013
20
-6.955672
30
0
11
154.638685
21
-8.435894
31
0
39
0
210
0
220
0
230
1
0
LINE
5
FA
100
AcDbEntity
8
1
62
256
6
ByLayer
370
-1
48
1
60
0
100
AcDbLine
10
146.345535
20
-10.055292
30
0
11
148.676848
21
-6.071636
31
0
39
0
210
0
220
0
230
1
0
LINE
5
FB
100
AcDbEntity
8
1
62
256
6
ByLayer
370
-1
48
1
60
0
100
AcDbLine
10
150.297092
20
-5.145739
30
0
11
154.989239
21
-7.589868
31
0
39
0
210
0
220
0
230
1
0
LINE
5
FC
100
AcDbEntity
8
1
62
256
6
ByLayer
370
-1
48
1
60
0
100
AcDbLine
10
157.555844
20
-10.023882
30
0
11
159.887157
21
-13.994474
31
0
39
0
210
0
220
0
230
1
0
LINE
5
FD
100
AcDbEntity
8
1
62
256
6
ByLayer
370
-1
48
1
60
0
100
AcDbLine
10
159.881997
20
-12.728885
30
0
11
158.08267
21
-9.664348
31
0
39
0
210
0
220
0
230
1
0
LINE
5
FE
100
AcDbEntity
8
1
62
256
6
ByLayer
370
-1
48
1
60
0
100
AcDbLine
10
155.272468
20
-6.999322
30
0
11
150.919239
21
-4.731734
31
0
39
0
210
0
220
0
230
1
0
LINE
5
FF
100
AcDbEntity
8
1
62
256
6
ByLayer
370
-1
48
1
60
0
100
AcDbLine
10
154.475437
20
-2.699527
30
0
11
159.881997
21
-11.907748
31
0
39
0
210
0
220
0
230
1
0
LINE
5
100
100
AcDbEntity
8
1
62
256
6
ByLayer
370
-1
48
1
60
0
100
AcDbLine
10
154.588394
20
-2.63706
30
0
11
159.882181
21
-11.653211
31
0
39
0
210
0
220
0
230
1
0
LINE
5
101
100
AcDbEntity
8
1
62
256
6
ByLayer
370
-1
48
1
60
0
100
AcDbLine
10
154.716101
20
-8.274477
30
0
11
154.989239
21
-7.589868
31
0
39
0
210
0
220
0
230
1
0
LINE
5
102
100
AcDbEntity
8
1
62
256
6
ByLayer
370
-1
48
1
60
0
100
AcDbLine
10
157.040084
20
-10.478403
30
0
11
157.555844
21
-10.023882
31
0
39
0
210
0
220
0
230
1
0
LINE
5
103
100
AcDbEntity
8
1
62
256
6
ByLayer
370
-1
48
1
60
0
100
AcDbLine
10
149.206784
20
-6.088806
30
0
11
149.938479
21
-8.600041
31
0
39
0
210
0
220
0
230
1
0
LINE
5
104
100
AcDbEntity
8
1
62
256
6
ByLayer
370
-1
48
1
60
0
100
AcDbLine
10
151.149977
20
-8.254488
30
0
11
150.418282
21
-5.743253
31
0
39
0
210
0
220
0
230
1
0
LINE
5
105
100
AcDbEntity
8
1
62
256
6
ByLayer
370
-1
48
1
60
0
100
AcDbLine
10
150.103196
20
-5.342528
30
0
11
151.039576
21
-8.556258
31
0
39
0
210
0
220
0
230
1
0
LINE
5
106
100
AcDbEntity
8
1
62
256
6
ByLayer
370
-1
48
1
60
0
100
AcDbLine
10
150.198762
20
-8.796081
30
0
11
149.308385
21
-5.740236
31
0
39
0
210
0
220
0
230
1
0
LINE
5
107
100
AcDbEntity
8
1
62
256
6
ByLayer
370
-1
48
1
60
0
100
AcDbLine
10
161.742931
20
-4.004121
30
0
11
161.626586
21
-2.752004
31
0
39
0
210
0
220
0
230
1
0
LINE
5
108
100
AcDbEntity
8
1
62
256
6
ByLayer
370
-1
48
1
60
0
100
AcDbLine
10
160.403359
20
-1.722619
30
0
11
160.287015
21
-0.470503
31
0
39
0
210
0
220
0
230
1
0
LINE
5
109
100
AcDbEntity
8
1
62
256
6
ByLayer
370
-1
48
1
60
0
100
AcDbLine
10
156.118754
20
-2.714244
30
0
11
156.018117
21
-1.631177
31
0
39
0
210
0
220
0
230
1
0
LINE
5
10A
100
AcDbEntity
8
1
62
256
6
ByLayer
370
-1
48
1
60
0
100
AcDbLine
10
145.262164
20
-7.992495
30
0
11
143.925148
21
-10.277135
31
0
39
0
210
0
220
0
230
1
0
LINE
5
10B
100
AcDbEntity
8
1
62
256
6
ByLayer
370
-1
48
1
60
0
100
AcDbLine
10
145.231728
20
-7.664939
30
0
11
145.262164
21
-7.992495
31
0
39
0
210
0
220
0
230
1
0
LINE
5
10C
100
AcDbEntity
8
1
62
256
6
ByLayer
370
-1
48
1
60
0
100
AcDbLine
10
143.925148
20
-10.277135
30
0
11
143.14318
21
-10.660955
31
0
39
0
210
0
220
0
230
1
0
LINE
5
10D
100
AcDbEntity
8
1
62
256
6
ByLayer
370
-1
48
1
60
0
100
AcDbLine
10
143.14318
20
-10.660955
30
0
11
138.882836
21
-9.693272
31
0
39
0
210
0
220
0
230
1
0
LINE
5
10E
100
AcDbEntity
8
1
62
256
6
ByLayer
370
-1
48
1
60
0
100
AcDbLine
10
138.882836
20
-9.693272
30
0
11
137.543264
21
-11.98228
31
0
39
0
210
0
220
0
230
1
0
LINE
5
10F
100
AcDbEntity
8
1
62
256
6
ByLayer
370
-1
48
1
60
0
100
AcDbLine
10
137.543264
20
-11.98228
30
0
11
140.643539
21
-14.932243
31
0
39
0
210
0
220
0
230
1
0
LINE
5
110
100
AcDbEntity
8
1
62
256
6
ByLayer
370
-1
48
1
60
0
100
AcDbLine
10
140.643539
20
-14.932243
30
0
11
140.719711
21
-15.869108
31
0
39
0
210
0
220
0
230
1
0
LINE
5
111
100
AcDbEntity
8
1
62
256
6
ByLayer
370
-1
48
1
60
0
100
AcDbLine
10
140.719711
20
-15.869108
30
0
11
140.631605
21
-14.920897
31
0
39
0
210
0
220
0
230
1
0
LINE
5
112
100
AcDbEntity
8
1
62
256
6
ByLayer
370
-1
48
1
60
0
100
AcDbLine
10
143.925148
20
-10.277135
30
0
11
143.822335
21
-9.170642
31
0
39
0
210
0
220
0
230
1
0
LINE
5
113
100
AcDbEntity
8
1
62
256
6
ByLayer
370
-1
48
1
60
0
100
AcDbLine
10
143.14318
20
-10.660955
30
0
11
143.038966
21
-9.539386
31
0
39
0
210
0
220
0
230
1
0
LINE
5
114
100
AcDbEntity
8
1
62
256
6
ByLayer
370
-1
48
1
60
0
100
AcDbLine
10
138.882836
20
-9.693272
30
0
11
138.766491
21
-8.441155
31
0
39
0
210
0
220
0
230
1
0
LINE
5
115
100
AcDbEntity
8
1
62
256
6
ByLayer
370
-1
48
1
60
0
100
AcDbLine
10
137.543264
20
-11.98228
30
0
11
137.426919
21
-10.730163
31
0
39
0
210
0
220
0
230
1
0
LINE
5
116
100
AcDbEntity
8
1
62
256
6
ByLayer
370
-1
48
1
60
0
100
AcDbLine
10
150.504413
20
-14.450488
30
0
11
150.537271
21
-14.804111
31
0
39
0
210
0
220
0
230
1
0
LINE
5
117
100
AcDbEntity
8
1
62
256
6
ByLayer
370
-1
48
1
60
0
100
AcDbLine
10
153.36203
20
-14.442481
30
0
11
153.377121
21
-14.456086
31
0
39
0
210
0
220
0
230
1
0
LINE
5
118
100
AcDbEntity
8
1
62
256
6
ByLayer
370
-1
48
1
60
0
100
AcDbLine
10
150.489322
20
-14.464177
30
0
11
150.52237
21
-14.819853
31
0
39
0
210
0
220
0
230
1
0
LINE
5
119
100
AcDbEntity
8
1
62
256
6
ByLayer
370
-1
48
1
60
0
100
AcDbLine
10
153.36203
20
-14.442481
30
0
11
153.394888
21
-14.796105
31
0
39
0
210
0
220
0
230
1
0
LINE
5
11A
100
AcDbEntity
8
1
62
256
6
ByLayer
370
-1
48
1
60
0
100
AcDbLine
10
153.377121
20
-14.456086
30
0
11
153.41017
21
-14.811761
31
0
39
0
210
0
220
0
230
1
0
LINE
5
11B
100
AcDbEntity
8
1
62
256
6
ByLayer
370
-1
48
1
60
0
100
AcDbLine
10
150.489322
20
-14.464177
30
0
11
150.504413
21
-14.450488
31
0
39
0
210
0
220
0
230
1
0
LINE
5
11C
100
AcDbEntity
8
1
62
256
6
ByLayer
370
-1
48
1
60
0
100
AcDbLine
10
149.981239
20
-12.529457
30
0
11
150.014097
21
-12.883081
31
0
39
0
210
0
220
0
230
1
0
LINE
5
11D
100
AcDbEntity
8
1
62
256
6
ByLayer
370
-1
48
1
60
0
100
AcDbLine
10
153.885204
20
-12.518519
30
0
11
153.904748
21
-12.512415
31
0
39
0
210
0
220
0
230
1
0
LINE
5
11E
100
AcDbEntity
8
1
62
256
6
ByLayer
370
-1
48
1
60
0
100
AcDbLine
10
153.885204
20
-12.518519
30
0
11
153.918062
21
-12.872142
31
0
39
0
210
0
220
0
230
1
0
LINE
5
11F
100
AcDbEntity
8
1
62
256
6
ByLayer
370
-1
48
1
60
0
100
AcDbLine
10
153.904748
20
-12.512415
30
0
11
153.937797
21
-12.86809
31
0
39
0
210
0
220
0
230
1
0
LINE
5
120
100
AcDbEntity
8
1
62
256
6
ByLayer
370
-1
48
1
60
0
100
AcDbLine
10
149.961694
20
-12.523462
30
0
11
149.981239
21
-12.529457
31
0
39
0
210
0
220
0
230
1
0
LINE
5
121
100
AcDbEntity
8
1
62
256
6
ByLayer
370
-1
48
1
60
0
100
AcDbLine
10
151.439854
20
-11.43873
30
0
11
151.442906
21
-11.471572
31
0
39
0
210
0
220
0
230
1
0
LINE
5
122
100
AcDbEntity
8
1
62
256
6
ByLayer
370
-1
48
1
60
0
100
AcDbLine
10
152.480922
20
-11.378975
30
0
11
152.489253
21
-11.468641
31
0
39
0
210
0
220
0
230
1
0
LINE
5
123
100
AcDbEntity
8
1
62
256
6
ByLayer
370
-1
48
1
60
0
100
AcDbLine
10
152.489026
20
-11.398561
30
0
11
152.493897
21
-11.450984
31
0
39
0
210
0
220
0
230
1
0
LINE
5
124
100
AcDbEntity
8
1
62
256
6
ByLayer
370
-1
48
1
60
0
100
AcDbLine
10
149.961694
20
-12.523462
30
0
11
149.994743
21
-12.879138
31
0
39
0
210
0
220
0
230
1
0
LINE
5
125
100
AcDbEntity
8
SK1
62
256
6
ByLayer
370
-1
48
1
60
0
100
AcDbLine
10
-138.836
20
19.98925
30
0
11
-138.836
21
7.571005
31
0
39
0
210
0
220
0
230
1
0
LINE
5
126
100
AcDbEntity
8
1
62
256
6
ByLayer
370
-1
48
1
60
0
100
AcDbLine
10
146.604899
20
-20.284922
30
0
11
146.718379
21
-20.284629
31
0
39
0
210
0
220
0
230
1
0
LINE
5
127
100
AcDbEntity
8
1
62
256
6
ByLayer
370
-1
48
1
60
0
100
AcDbLine
10
144.752786
20
-19.19904
30
0
11
144.661301
21
-18.274883
31
0
39
0
210
0
220
0
230
1
0
LINE
5
128
100
AcDbEntity
8
1
62
256
6
ByLayer
370
-1
48
1
60
0
100
AcDbLine
10
144.661301
20
-18.075829
30
0
11
144.661301
21
-18.274883
31
0
39
0
210
0
220
0
230
1
0
LINE
5
129
100
AcDbEntity
8
1
62
256
6
ByLayer
370
-1
48
1
60
0
100
AcDbLine
10
146.604899
20
-20.284922
30
0
11
146.604899
21
-19.254635
31
0
39
0
210
0
220
0
230
1
0
LINE
5
12A
100
AcDbEntity
8
1
62
256
6
ByLayer
370
-1
48
1
60
0
100
AcDbLine
10
146.159689
20
-20.252267
30
0
11
146.159689
21
-19.002821
31
0
39
0
210
0
220
0
230
1
0
LINE
5
12B
100
AcDbEntity
8
1
62
256
6
ByLayer
370
-1
48
1
60
0
100
AcDbLine
10
145.835217
20
-20.181055
30
0
11
145.835217
21
-18.81689
31
0
39
0
210
0
220
0
230
1
0
LINE
5
12C
100
AcDbEntity
8
1
62
256
6
ByLayer
370
-1
48
1
60
0
100
AcDbLine
10
145.582227
20
-20.167293
30
0
11
145.582227
21
-18.633315
31
0
39
0
210
0
220
0
230
1
0
LINE
5
12D
100
AcDbEntity
8
1
62
256
6
ByLayer
370
-1
48
1
60
0
100
AcDbLine
10
146.718379
20
-20.284629
30
0
11
146.718379
21
-19.319975
31
0
39
0
210
0
220
0
230
1
0
LINE
5
12E
100
AcDbEntity
8
1
62
256
6
ByLayer
370
-1
48
1
60
0
100
AcDbLine
10
147.157804
20
-20.249691
30
0
11
147.157804
21
-19.558826
31
0
39
0
210
0
220
0
230
1
0
LINE
5
12F
100
AcDbEntity
8
1
62
256
6
ByLayer
370
-1
48
1
60
0
100
AcDbLine
10
147.469946
20
-20.176836
30
0
11
147.469946
21
-19.697702
31
0
39
0
210
0
220
0
230
1
0
LINE
5
130
100
AcDbEntity
8
1
62
256
6
ByLayer
370
-1
48
1
60
0
100
AcDbLine
10
147.722936
20
-20.176183
30
0
11
147.722936
21
-19.823485
31
0
39
0
210
0
220
0
230
1
0
LINE
5
131
100
AcDbEntity
8
1
62
256
6
ByLayer
370
-1
48
1
60
0
100
AcDbLine
10
148.370203
20
-20.174512
30
0
11
147.722936
21
-20.176183
31
0
39
0
210
0
220
0
230
1
0
LINE
5
132
100
AcDbEntity
8
1
62
256
6
ByLayer
370
-1
48
1
60
0
100
AcDbLine
10
144.752786
20
-19.19904
30
0
11
144.752786
21
-18.127583
31
0
39
0
210
0
220
0
230
1
0
LINE
5
133
100
AcDbEntity
8
1
62
256
6
ByLayer
370
-1
48
1
60
0
100
AcDbLine
10
141.72458
20
-9.201458
30
0
11
144.709858
21
-7.496549
31
0
39
0
210
0
220
0
230
1
0
LINE
5
134
100
AcDbEntity
8
SK1
62
256
6
ByLayer
370
-1
48
1
60
0
100
AcDbLine
10
-141.336
20
0
30
0
11
-141.336
21
-17.48925
31
0
39
0
210
0
220
0
230
1
0
LINE
5
135
100
AcDbEntity
8
SK1
62
256
6
ByLayer
370
-1
48
1
60
0
100
AcDbLine
10
-141.336
20
17.48925
30
0
11
-141.336
21
0
31
0
39
0
210
0
220
0
230
1
0
LINE
5
136
100
AcDbEntity
8
SK1
62
256
6
ByLayer
370
-1
48
1
60
0
100
AcDbLine
10
0
20
19.98925
30
0
11
0
21
7.571005
31
0
39
0
210
0
220
0
230
1
0
LINE
5
137
100
AcDbEntity
8
SK1
62
256
6
ByLayer
370
-1
48
1
60
0
100
AcDbLine
10
-138.836
20
-7.571005
30
0
11
-138.836
21
-17.51075
31
0
39
0
210
0
220
0
230
1
0
LINE
5
138
100
AcDbEntity
8
SK1
62
256
6
ByLayer
370
-1
48
1
60
0
100
AcDbLine
10
0
20
-7.571005
30
0
11
0
21
7.571005
31
0
39
0
210
0
220
0
230
1
0
LINE
5
139
100
AcDbEntity
8
SK1
62
256
6
ByLayer
370
-1
48
1
60
0
100
AcDbLine
10
-138.836
20
-17.51075
30
0
11
0
21
-17.51075
31
0
39
0
210
0
220
0
230
1
0
LINE
5
13A
100
AcDbEntity
8
SK1
62
256
6
ByLayer
370
-1
48
1
60
0
100
AcDbLine
10
-138.836
20
7.571005
30
0
11
0
21
7.571005
31
0
39
0
210
0
220
0
230
1
0
LINE
5
13B
100
AcDbEntity
8
SK1
62
256
6
ByLayer
370
-1
48
1
60
0
100
AcDbLine
10
0
20
-7.571005
30
0
11
-138.836
21
-7.571005
31
0
39
0
210
0
220
0
230
1
0
MTEXT
5
257
100
AcDbEntity
8
SK6
62
256
6
ByLayer
370
-1
48
1
60
0
100
AcDbMText
10
10.164
20
32.557125
30
0
210
0
220
0
230
1
1
\W00.747;\fsimplex.shx,bigfont.shx;266LKF-40-27 
40
3.5
41
0
44
1.084337
50
0
71
7
72
5
7
DEFAULT
0
DIMENSION
5
28A
100
AcDbEntity
8
2
62
256
6
ByLayer
370
-3
48
1
60
0
100
AcDbDimension
2
DimnDraft3D1
10
159.914
20
-41.125
30
0
11
133.432825
21
-41.125
31
0
70
32
71
5
72
1
41
1
210
0
220
0
230
1
3
Standard
100
AcDbAlignedDimension
13
112.683228
23
-28.375
33
0
14
159.914
24
-28.375
34
0
50
0
100
AcDbRotatedDimension
1001
ACAD
1000
DSTYLE
1002
{
1070
   279
1070
     0
1070
   172
1070
     1
1070
   173
1070
     1
1070
   340
1005
258
1070
   271
1070
     3
1070
   272
1070
     3
1070
    77
1070
     1
1070
    73
1070
     0
1070
   171
1070
     4
1070
   274
1070
     4
1070
   177
1070
     2
1070
   176
1070
     2
1070
   178
1070
     7
1070
    78
1070
     8
1070
    41
1041
3.0
1070
   147
1041
2.25
1070
    42
1041
1.5
1070
    44
1041
3.0
1070
   140
1041
4.5
1070
   343
1005
28B
1070
   344
1005
28B
1002
}
0
DIMENSION
5
2A0
100
AcDbEntity
8
SK2
62
256
6
ByLayer
370
-3
48
1
60
0
100
AcDbDimension
2
DimnDraft3D2
10
-141.336
20
-51.125
30
0
11
5.570579
21
-51.125
31
0
70
32
71
5
72
1
41
1
210
0
220
0
230
1
3
Standard
100
AcDbAlignedDimension
13
159.914
23
-28.375
33
0
14
-141.336
24
-1.5
34
0
50
0
100
AcDbRotatedDimension
1001
ACAD
1000
DSTYLE
1002
{
1070
   279
1070
     0
1070
   172
1070
     1
1070
   173
1070
     1
1070
   340
1005
258
1070
   271
1070
     3
1070
   272
1070
     3
1070
    77
1070
     1
1070
    73
1070
     0
1070
   171
1070
     4
1070
   274
1070
     4
1070
   177
1070
     2
1070
   176
1070
     2
1070
   178
1070
     7
1070
    78
1070
     8
1070
    41
1041
3.0
1070
   147
1041
2.25
1070
    42
1041
1.5
1070
    44
1041
3.0
1070
   140
1041
4.5
1070
   343
1005
28B
1070
   344
1005
28B
1002
}
0
DIMENSION
5
2AE
100
AcDbEntity
8
2
62
256
6
ByLayer
370
-3
48
1
60
0
100
AcDbDimension
2
DimnDraft3D3
10
174.164
20
-26.875
30
0
11
174.164
21
-16.066447
31
0
70
32
71
5
72
1
41
1
210
0
220
0
230
1
3
Standard
100
AcDbAlignedDimension
13
166.414
23
0
33
0
14
161.414
24
-26.875
34
0
50
90
100
AcDbRotatedDimension
1001
ACAD
1000
DSTYLE
1002
{
1070
    74
1070
     0
1070
   279
1070
     0
1070
   172
1070
     1
1070
   173
1070
     1
1070
   340
1005
258
1070
   271
1070
     3
1070
   272
1070
     3
1070
    77
1070
     1
1070
    73
1070
     0
1070
   171
1070
     4
1070
   274
1070
     4
1070
   177
1070
     2
1070
   176
1070
     2
1070
   178
1070
     7
1070
    78
1070
     8
1070
    41
1041
3.0
1070
   147
1041
2.25
1070
    42
1041
1.5
1070
    44
1041
3.0
1070
   140
1041
4.5
1070
   343
1005
28B
1070
   344
1005
28B
1002
}
0
DIMENSION
5
2BC
100
AcDbEntity
8
SK2
62
256
6
ByLayer
370
-3
48
1
60
0
100
AcDbDimension
2
DimnDraft3D4
10
-151.086
20
19.98925
30
0
11
-151.086
21
-5.021053
31
0
70
32
71
5
72
1
41
1
210
0
220
0
230
1
3
Standard
100
AcDbAlignedDimension
13
-142.836
23
-19.98925
33
0
14
-142.836
24
19.98925
34
0
50
90
100
AcDbRotatedDimension
1001
ACAD
1000
DSTYLE
1002
{
1070
    74
1070
     0
1070
   279
1070
     0
1070
   172
1070
     1
1070
   173
1070
     1
1070
   340
1005
258
1070
   271
1070
     3
1070
   272
1070
     3
1070
    77
1070
     1
1070
    73
1070
     0
1070
   171
1070
     4
1070
   274
1070
     4
1070
   177
1070
     2
1070
   176
1070
     2
1070
   178
1070
     7
1070
    78
1070
     8
1070
    41
1041
3.0
1070
   147
1041
2.25
1070
    42
1041
1.5
1070
    44
1041
3.0
1070
   140
1041
4.5
1070
   343
1005
28B
1070
   344
1005
28B
1002
}
0
ENDSEC
0
SECTION
2
OBJECTS
0
DICTIONARY
5
2ed
330
0
100
AcDbDictionary
280
0
281
1
3
ACAD_GROUP
350
2ee
3
ACAD_MLINESTYLE
350
2ef
0
DICTIONARY
5
2ee
330
0
100
AcDbDictionary
280
0
281
1
0
DICTIONARY
5
2ef
330
0
100
AcDbDictionary
280
0
281
1
3
Standard
350
18
0
MLINESTYLE
5
18
330
2ef
100
AcDbMlineStyle
2
Standard
70
0
3

62
256
51
90
52
90
71
2
49
-0.5
62
256
6
ByLayer
49
0.5
62
256
6
ByLayer
0
RASTERVARIABLES
5
2db
330

100
AcDbRasterVariables
90
0
70
1
71
1
72
1
0
ENDSEC
0
EOF
