0
SECTION
2
HEADER
9
$ACADVER
1
AC1015
9
$DWGCODEPAGE
3
ANSI_1252
9
$HANDSEED
5
32a
9
$ANGBASE
50
0
9
$ANGDIR
70
0
9
$ATTMODE
70
1
9
$AUNITS
70
0
9
$AUPREC
70
0
9
$CECOLOR
62
256
9
$CELTSCALE
40
1
9
$CELTYPE
6
ByLayer
9
$CELWEIGHT
370
-1
9
$CLAYER
8
0
9
$CMLJUST
70
0
9
$CMLSCALE
40
1
9
$CMLSTYLE
2
Standard
9
$DIMSTYLE
2
Standard
9
$TEXTSIZE
40
0.2
9
$TEXTSTYLE
7
Standard
9
$LUNITS
70
2
9
$LUPREC
70
4
9
$EXTNAMES
290
1
9
$INSUNITS
70
4
9
$LTSCALE
40
1
9
$LWDISPLAY
290
0
9
$PDMODE
70
0
9
$PDSIZE
40
0
9
$PLINEGEN
70
0
0
ENDSEC
0
SECTION
2
CLASSES
0
CLASS
1
RASTERVARIABLES
2
AcDbRasterVariables
3
ISM
90
0
280
0
281
0
0
ENDSEC
0
SECTION
2
TABLES
0
TABLE
2
VPORT
5
320
100
AcDbSymbolTable
0
VPORT
5
1
100
AcDbSymbolTableRecord
100
AcDbViewportTableRecord
2
*Active
70
0
10
0
20
0
11
1
21
1
12
-1
22
1
13
0
23
0
14
0.5
24
0.5
15
10
25
10
16
0
26
0
36
1
17
0
27
0
37
0
0
ENDTAB
0
TABLE
2
LTYPE
5
321
100
AcDbSymbolTable
0
LTYPE
5
14
100
AcDbSymbolTableRecord
100
AcDbLinetypeTableRecord
70
0
2
ByBlock
3

72
65
73
0
40
0
0
LTYPE
5
15
100
AcDbSymbolTableRecord
100
AcDbLinetypeTableRecord
70
0
2
ByLayer
3

72
65
73
0
40
0
0
LTYPE
5
16
100
AcDbSymbolTableRecord
100
AcDbLinetypeTableRecord
70
0
2
CONTINUOUS
3
Solid line
72
65
73
0
40
0
0
LTYPE
5
3B
100
AcDbSymbolTableRecord
100
AcDbLinetypeTableRecord
70
0
2
DASHED
3
__ __ __ __ __ __ __ __ __
72
65
73
2
40
25.72
49
12.86
74
0
49
-12.86
74
0
0
LTYPE
5
3C
100
AcDbSymbolTableRecord
100
AcDbLinetypeTableRecord
70
0
2
HIDDEN
3
_ _ _ _ _ _ _ _ _ _ _ _ _ _ _
72
65
73
2
40
0.5
49
0.25
74
0
49
-0.25
74
0
0
LTYPE
5
3D
100
AcDbSymbolTableRecord
100
AcDbLinetypeTableRecord
70
0
2
PHANTOM
3
____ _ _ ____ _ _ _____ _ _ ____
72
65
73
6
40
50.5
49
18
74
0
49
-6.5
74
0
49
6.5
74
0
49
-6.5
74
0
49
6.5
74
0
49
-6.5
74
0
0
LTYPE
5
3E
100
AcDbSymbolTableRecord
100
AcDbLinetypeTableRecord
70
0
2
CENTER
3
____ _ ____ _ ____ _ ____
72
65
73
4
40
47.5
49
22
74
0
49
-8.5
74
0
49
8.5
74
0
49
-8.5
74
0
0
LTYPE
5
3F
100
AcDbSymbolTableRecord
100
AcDbLinetypeTableRecord
70
0
2
DOT
3
.........................
72
65
73
2
40
10
49
0
74
0
49
-10
74
0
0
LTYPE
5
40
100
AcDbSymbolTableRecord
100
AcDbLinetypeTableRecord
70
0
2
DASHDOT
3
_._._._._._._._._._._._._._._._.
72
65
73
4
40
70
49
31
74
0
49
-13
74
0
49
13
74
0
49
-13
74
0
0
ENDTAB
0
TABLE
2
LAYER
5
322
100
AcDbSymbolTable
0
LAYER
5
10
100
AcDbSymbolTableRecord
100
AcDbLayerTableRecord
2
0
70
0
62
7
6
CONTINUOUS
290
1
370
-3
390
0
0
LAYER
5
42
100
AcDbSymbolTableRecord
100
AcDbLayerTableRecord
2
1
70
0
62
4
6
CONTINUOUS
290
1
370
-3
390
0
0
LAYER
5
44
100
AcDbSymbolTableRecord
100
AcDbLayerTableRecord
2
80
70
0
62
-6
6
CONTINUOUS
290
1
370
-3
390
0
0
LAYER
5
46
100
AcDbSymbolTableRecord
100
AcDbLayerTableRecord
2
81
70
0
62
-3
6
CONTINUOUS
290
1
370
-3
390
0
0
LAYER
5
48
100
AcDbSymbolTableRecord
100
AcDbLayerTableRecord
2
2
70
0
62
7
6
CONTINUOUS
290
1
370
-3
390
0
0
LAYER
5
30c
100
AcDbSymbolTableRecord
100
AcDbLayerTableRecord
2
SK1
70
0
62
4
6
CONTINUOUS
290
1
370
-3
390
0
0
LAYER
5
30d
100
AcDbSymbolTableRecord
100
AcDbLayerTableRecord
2
SK4
70
0
62
2
6
CENTER
290
1
370
-3
390
0
0
LAYER
5
30e
100
AcDbSymbolTableRecord
100
AcDbLayerTableRecord
2
SK6
70
0
62
5
6
CONTINUOUS
290
1
370
-3
390
0
0
LAYER
5
30f
100
AcDbSymbolTableRecord
100
AcDbLayerTableRecord
2
SK2
70
0
62
7
6
CONTINUOUS
290
1
370
-3
390
0
0
ENDTAB
0
TABLE
2
STYLE
5
323
100
AcDbSymbolTable
0
STYLE
5
11
100
AcDbSymbolTableRecord
100
AcDbTextStyleTableRecord
2
Standard
3
txt
70
0
71
0
40
0
41
1
42
0
50
0
0
STYLE
5
288
100
AcDbSymbolTableRecord
100
AcDbTextStyleTableRecord
2
DEFAULT
3
simplex.shx
70
0
71
0
40
0
41
1
42
0
50
0
0
STYLE
5
2AB
100
AcDbSymbolTableRecord
100
AcDbTextStyleTableRecord
2
DWGDirectTextStyle
3
SIMPLEX
70
0
71
0
40
0
41
1
42
0
50
0
0
ENDTAB
0
TABLE
2
DIMSTYLE
5
324
100
AcDbSymbolTable
100
AcDbDimStyleTable
0
DIMSTYLE
105
27
100
AcDbSymbolTableRecord
100
AcDbDimStyleTableRecord
2
Standard
70
0
3
<>
41
0.18
42
0.0625
44
0.18
140
0.18
147
0.09
73
0
74
0
77
1
271
2
275
0
278
52
280
0
340
11
0
ENDTAB
0
TABLE
2
VIEW
5
325
100
AcDbSymbolTable
0
ENDTAB
0
TABLE
2
UCS
5
326
100
AcDbSymbolTable
0
ENDTAB
0
TABLE
2
APPID
5
327
100
AcDbSymbolTable
0
APPID
5
12
100
AcDbSymbolTableRecord
100
AcDbRegAppTableRecord
2
ACAD
70
0
0
ENDTAB
0
TABLE
2
BLOCK_RECORD
5
328
100
AcDbSymbolTable
0
BLOCK_RECORD
5
1F
100
AcDbSymbolTableRecord
100
AcDbBlockTableRecord
2
*Model_Space
340
0
70
0
0
BLOCK_RECORD
5
1B
100
AcDbSymbolTableRecord
100
AcDbBlockTableRecord
2
*Paper_Space
340
0
70
0
0
BLOCK_RECORD
5
23
100
AcDbSymbolTableRecord
100
AcDbBlockTableRecord
2
*Paper_Space0
340
0
70
0
0
BLOCK_RECORD
5
2AD
100
AcDbSymbolTableRecord
100
AcDbBlockTableRecord
2
DimnDraft3D1
340
0
70
0
0
BLOCK_RECORD
5
2BB
100
AcDbSymbolTableRecord
100
AcDbBlockTableRecord
2
_CLOSED
340
0
70
0
0
BLOCK_RECORD
5
2C2
100
AcDbSymbolTableRecord
100
AcDbBlockTableRecord
2
DimnDraft3D2
340
0
70
0
0
BLOCK_RECORD
5
2D1
100
AcDbSymbolTableRecord
100
AcDbBlockTableRecord
2
DimnDraft3D3
340
0
70
0
0
BLOCK_RECORD
5
2DF
100
AcDbSymbolTableRecord
100
AcDbBlockTableRecord
2
DimnDraft3D4
340
0
70
0
0
ENDTAB
0
ENDSEC
0
SECTION
2
BLOCKS
0
BLOCK
5
20
100
AcDbEntity
8
0
100
AcDbBlockBegin
2
*Model_Space
70
0
10
0
20
0
30
0
3
*Model_Space
0
ENDBLK
5
21
100
AcDbEntity
8
0
100
AcDbBlockEnd
0
BLOCK
5
1C
100
AcDbEntity
8
0
100
AcDbBlockBegin
2
*Paper_Space
70
0
10
0
20
0
30
0
3
*Paper_Space
0
ENDBLK
5
1D
100
AcDbEntity
8
0
100
AcDbBlockEnd
0
BLOCK
5
24
100
AcDbEntity
8
0
100
AcDbBlockBegin
2
*Paper_Space0
70
0
10
0
20
0
30
0
3
*Paper_Space0
0
ENDBLK
5
25
100
AcDbEntity
8
0
100
AcDbBlockEnd
0
BLOCK
5
2B8
100
AcDbEntity
8
0
100
AcDbBlockBegin
2
DimnDraft3D1
70
0
10
0
20
0
30
0
3
DimnDraft3D1
0
MTEXT
5
2AE
100
AcDbEntity
8
2
62
256
6
ByLayer
370
-1
48
1
60
0
100
AcDbMText
10
110.423695
20
-35
30
0
210
0
220
0
230
1
1
\W01.000;\fsimplex.shx,bigfont.shx;32 
40
4.5
41
0
44
1.084337
50
0
71
7
72
5
7
DEFAULT
0
LINE
5
2AF
100
AcDbEntity
8
2
62
256
6
ByLayer
370
-1
48
1
60
0
100
AcDbLine
10
95.941285
20
-23.375
30
0
11
95.941285
21
-39.125
31
0
39
0
210
0
220
0
230
1
0
LINE
5
2B0
100
AcDbEntity
8
2
62
256
6
ByLayer
370
-1
48
1
60
0
100
AcDbLine
10
127.914
20
-23.375
30
0
11
127.914
21
-39.125
31
0
39
0
210
0
220
0
230
1
0
LINE
5
2B1
100
AcDbEntity
8
2
62
256
6
ByLayer
370
-1
48
1
60
0
100
AcDbLine
10
95.941285
20
-36.125
30
0
11
127.914
21
-36.125
31
0
39
0
210
0
220
0
230
1
0
LINE
5
2B2
100
AcDbEntity
8
2
62
256
6
ByLayer
370
-1
48
1
60
0
100
AcDbLine
10
95.941285
20
-36.125
30
0
11
98.941283
21
-35.730043
31
0
39
0
210
0
220
0
230
1
0
LINE
5
2B3
100
AcDbEntity
8
2
62
256
6
ByLayer
370
-1
48
1
60
0
100
AcDbLine
10
95.941285
20
-36.125
30
0
11
98.941286
21
-36.519957
31
0
39
0
210
0
220
0
230
1
0
LINE
5
2B4
100
AcDbEntity
8
2
62
256
6
ByLayer
370
-1
48
1
60
0
100
AcDbLine
10
98.941283
20
-35.730043
30
0
11
98.941286
21
-36.519957
31
0
39
0
210
0
220
0
230
1
0
LINE
5
2B5
100
AcDbEntity
8
2
62
256
6
ByLayer
370
-1
48
1
60
0
100
AcDbLine
10
127.914
20
-36.125
30
0
11
124.914001
21
-36.519957
31
0
39
0
210
0
220
0
230
1
0
LINE
5
2B6
100
AcDbEntity
8
2
62
256
6
ByLayer
370
-1
48
1
60
0
100
AcDbLine
10
127.914
20
-36.125
30
0
11
124.913999
21
-35.730043
31
0
39
0
210
0
220
0
230
1
0
LINE
5
2B7
100
AcDbEntity
8
2
62
256
6
ByLayer
370
-1
48
1
60
0
100
AcDbLine
10
124.914001
20
-36.519957
30
0
11
124.913999
21
-35.730043
31
0
39
0
210
0
220
0
230
1
0
ENDBLK
5
2B9
100
AcDbEntity
8
0
100
AcDbBlockEnd
0
BLOCK
5
2BC
100
AcDbEntity
8
0
100
AcDbBlockBegin
2
_CLOSED
70
0
10
0
20
0
30
0
3
_CLOSED
0
LINE
5
2BE
100
AcDbEntity
8
0
62
256
6
ByLayer
370
-2
48
1
60
0
100
AcDbLine
10
-1
20
0.166667
30
0
11
0
21
0
31
0
39
0
210
0
220
0
230
1
0
LINE
5
2BF
100
AcDbEntity
8
0
62
256
6
ByLayer
370
-2
48
1
60
0
100
AcDbLine
10
0
20
0
30
0
11
-1
21
-0.166667
31
0
39
0
210
0
220
0
230
1
0
LINE
5
2C0
100
AcDbEntity
8
0
62
256
6
ByLayer
370
-2
48
1
60
0
100
AcDbLine
10
-1
20
0.166667
30
0
11
-1
21
-0.166667
31
0
39
0
210
0
220
0
230
1
0
LINE
5
2C1
100
AcDbEntity
8
0
62
256
6
ByLayer
370
-2
48
1
60
0
100
AcDbLine
10
0
20
0
30
0
11
-1
21
0
31
0
39
0
210
0
220
0
230
1
0
ENDBLK
5
2BD
100
AcDbEntity
8
0
100
AcDbBlockEnd
0
BLOCK
5
2CE
100
AcDbEntity
8
0
100
AcDbBlockBegin
2
DimnDraft3D2
70
0
10
0
20
0
30
0
3
DimnDraft3D2
0
MTEXT
5
2C3
100
AcDbEntity
8
SK2
62
256
6
ByLayer
370
-1
48
1
60
0
100
AcDbMText
10
-0.304421
20
-45
30
0
210
0
220
0
230
1
1
\W01.000;\fsimplex.shx,bigfont.shx;251 
40
4.5
41
0
44
1.084337
50
0
71
7
72
5
7
DEFAULT
0
LINE
5
2C5
100
AcDbEntity
8
SK2
62
256
6
ByLayer
370
-1
48
1
60
0
100
AcDbLine
10
127.914
20
-23.375
30
0
11
127.914
21
-49.125
31
0
39
0
210
0
220
0
230
1
0
LINE
5
2C6
100
AcDbEntity
8
SK2
62
256
6
ByLayer
370
-1
48
1
60
0
100
AcDbLine
10
-123.336
20
-1.5
30
0
11
-123.336
21
-49.125
31
0
39
0
210
0
220
0
230
1
0
LINE
5
2C7
100
AcDbEntity
8
SK2
62
256
6
ByLayer
370
-1
48
1
60
0
100
AcDbLine
10
127.914
20
-46.125
30
0
11
-123.336
21
-46.125
31
0
39
0
210
0
220
0
230
1
0
LINE
5
2C8
100
AcDbEntity
8
SK2
62
256
6
ByLayer
370
-1
48
1
60
0
100
AcDbLine
10
127.914
20
-46.125
30
0
11
124.914001
21
-46.519957
31
0
39
0
210
0
220
0
230
1
0
LINE
5
2C9
100
AcDbEntity
8
SK2
62
256
6
ByLayer
370
-1
48
1
60
0
100
AcDbLine
10
127.914
20
-46.125
30
0
11
124.913999
21
-45.730043
31
0
39
0
210
0
220
0
230
1
0
LINE
5
2CA
100
AcDbEntity
8
SK2
62
256
6
ByLayer
370
-1
48
1
60
0
100
AcDbLine
10
124.914001
20
-46.519957
30
0
11
124.913999
21
-45.730043
31
0
39
0
210
0
220
0
230
1
0
LINE
5
2CB
100
AcDbEntity
8
SK2
62
256
6
ByLayer
370
-1
48
1
60
0
100
AcDbLine
10
-123.336
20
-46.125
30
0
11
-120.336001
21
-45.730043
31
0
39
0
210
0
220
0
230
1
0
LINE
5
2CC
100
AcDbEntity
8
SK2
62
256
6
ByLayer
370
-1
48
1
60
0
100
AcDbLine
10
-123.336
20
-46.125
30
0
11
-120.335999
21
-46.519957
31
0
39
0
210
0
220
0
230
1
0
LINE
5
2CD
100
AcDbEntity
8
SK2
62
256
6
ByLayer
370
-1
48
1
60
0
100
AcDbLine
10
-120.336001
20
-45.730043
30
0
11
-120.335999
21
-46.519957
31
0
39
0
210
0
220
0
230
1
0
ENDBLK
5
2CF
100
AcDbEntity
8
0
100
AcDbBlockEnd
0
BLOCK
5
2DC
100
AcDbEntity
8
0
100
AcDbBlockBegin
2
DimnDraft3D3
70
0
10
0
20
0
30
0
3
DimnDraft3D3
0
MTEXT
5
2D2
100
AcDbEntity
8
2
62
256
6
ByLayer
370
-1
48
1
60
0
100
AcDbMText
10
141.039
20
-12.441447
30
0
210
0
220
0
230
1
1
\W01.000;\fsimplex.shx,bigfont.shx;22 
40
4.5
41
0
44
1.084337
50
90
71
7
72
5
7
DEFAULT
0
LINE
5
2D3
100
AcDbEntity
8
2
62
256
6
ByLayer
370
-1
48
1
60
0
100
AcDbLine
10
134.414
20
0
30
0
11
145.164
21
0
31
0
39
0
210
0
220
0
230
1
0
LINE
5
2D4
100
AcDbEntity
8
2
62
256
6
ByLayer
370
-1
48
1
60
0
100
AcDbLine
10
129.414
20
-21.875
30
0
11
145.164
21
-21.875
31
0
39
0
210
0
220
0
230
1
0
LINE
5
2D5
100
AcDbEntity
8
2
62
256
6
ByLayer
370
-1
48
1
60
0
100
AcDbLine
10
142.164
20
0
30
0
11
142.164
21
-21.875
31
0
39
0
210
0
220
0
230
1
0
LINE
5
2D6
100
AcDbEntity
8
2
62
256
6
ByLayer
370
-1
48
1
60
0
100
AcDbLine
10
142.164
20
0
30
0
11
142.558957
21
-2.999999
31
0
39
0
210
0
220
0
230
1
0
LINE
5
2D7
100
AcDbEntity
8
2
62
256
6
ByLayer
370
-1
48
1
60
0
100
AcDbLine
10
142.164
20
0
30
0
11
141.769043
21
-3.000001
31
0
39
0
210
0
220
0
230
1
0
LINE
5
2D8
100
AcDbEntity
8
2
62
256
6
ByLayer
370
-1
48
1
60
0
100
AcDbLine
10
142.558957
20
-2.999999
30
0
11
141.769043
21
-3.000001
31
0
39
0
210
0
220
0
230
1
0
LINE
5
2D9
100
AcDbEntity
8
2
62
256
6
ByLayer
370
-1
48
1
60
0
100
AcDbLine
10
142.164
20
-21.875
30
0
11
141.769043
21
-18.875001
31
0
39
0
210
0
220
0
230
1
0
LINE
5
2DA
100
AcDbEntity
8
2
62
256
6
ByLayer
370
-1
48
1
60
0
100
AcDbLine
10
142.164
20
-21.875
30
0
11
142.558957
21
-18.874999
31
0
39
0
210
0
220
0
230
1
0
LINE
5
2DB
100
AcDbEntity
8
2
62
256
6
ByLayer
370
-1
48
1
60
0
100
AcDbLine
10
141.769043
20
-18.875001
30
0
11
142.558957
21
-18.874999
31
0
39
0
210
0
220
0
230
1
0
ENDBLK
5
2DD
100
AcDbEntity
8
0
100
AcDbBlockEnd
0
BLOCK
5
2EA
100
AcDbEntity
8
0
100
AcDbBlockBegin
2
DimnDraft3D4
70
0
10
0
20
0
30
0
3
DimnDraft3D4
0
MTEXT
5
2E0
100
AcDbEntity
8
SK2
62
256
6
ByLayer
370
-1
48
1
60
0
100
AcDbMText
10
-134.211
20
-3.659211
30
0
210
0
220
0
230
1
1
\W01.000;\fsimplex.shx,bigfont.shx;%%c32 
40
4.5
41
0
44
1.084337
50
90
71
7
72
5
7
DEFAULT
0
LINE
5
2E1
100
AcDbEntity
8
SK2
62
256
6
ByLayer
370
-1
48
1
60
0
100
AcDbLine
10
-124.836
20
-15.98925
30
0
11
-136.086
21
-15.98925
31
0
39
0
210
0
220
0
230
1
0
LINE
5
2E2
100
AcDbEntity
8
SK2
62
256
6
ByLayer
370
-1
48
1
60
0
100
AcDbLine
10
-124.836
20
15.98925
30
0
11
-136.086
21
15.98925
31
0
39
0
210
0
220
0
230
1
0
LINE
5
2E3
100
AcDbEntity
8
SK2
62
256
6
ByLayer
370
-1
48
1
60
0
100
AcDbLine
10
-133.086
20
-15.98925
30
0
11
-133.086
21
15.98925
31
0
39
0
210
0
220
0
230
1
0
LINE
5
2E4
100
AcDbEntity
8
SK2
62
256
6
ByLayer
370
-1
48
1
60
0
100
AcDbLine
10
-133.086
20
-15.98925
30
0
11
-133.480957
21
-12.989251
31
0
39
0
210
0
220
0
230
1
0
LINE
5
2E5
100
AcDbEntity
8
SK2
62
256
6
ByLayer
370
-1
48
1
60
0
100
AcDbLine
10
-133.086
20
-15.98925
30
0
11
-132.691043
21
-12.989249
31
0
39
0
210
0
220
0
230
1
0
LINE
5
2E6
100
AcDbEntity
8
SK2
62
256
6
ByLayer
370
-1
48
1
60
0
100
AcDbLine
10
-133.480957
20
-12.989251
30
0
11
-132.691043
21
-12.989249
31
0
39
0
210
0
220
0
230
1
0
LINE
5
2E7
100
AcDbEntity
8
SK2
62
256
6
ByLayer
370
-1
48
1
60
0
100
AcDbLine
10
-133.086
20
15.98925
30
0
11
-132.691043
21
12.989251
31
0
39
0
210
0
220
0
230
1
0
LINE
5
2E8
100
AcDbEntity
8
SK2
62
256
6
ByLayer
370
-1
48
1
60
0
100
AcDbLine
10
-133.086
20
15.98925
30
0
11
-133.480957
21
12.989249
31
0
39
0
210
0
220
0
230
1
0
LINE
5
2E9
100
AcDbEntity
8
SK2
62
256
6
ByLayer
370
-1
48
1
60
0
100
AcDbLine
10
-132.691043
20
12.989251
30
0
11
-133.480957
21
12.989249
31
0
39
0
210
0
220
0
230
1
0
ENDBLK
5
2EB
100
AcDbEntity
8
0
100
AcDbBlockEnd
0
ENDSEC
0
SECTION
2
ENTITIES
0
ARC
5
16C
100
AcDbEntity
8
1
62
256
6
ByLayer
370
-1
48
1
60
0
100
AcDbCircle
39
0
10
-109.100255
20
-16.475
30
0
40
0.8
210
0
220
0
230
-1
100
AcDbArc
50
90
51
140
0
ARC
5
16D
100
AcDbEntity
8
1
62
256
6
ByLayer
370
-1
48
1
60
0
100
AcDbCircle
39
0
10
-109.100255
20
16.475
30
0
40
0.8
210
0
220
0
230
-1
100
AcDbArc
50
260.931278
51
270
0
ARC
5
16E
100
AcDbEntity
8
1
62
256
6
ByLayer
370
-1
48
1
60
0
100
AcDbCircle
39
0
10
-96.155644
20
16.475
30
0
40
0.799999999999994
210
0
220
0
230
-1
100
AcDbArc
50
270
51
300
0
ELLIPSE
5
16F
100
AcDbEntity
8
1
62
256
6
ByLayer
370
-1
48
1
60
0
100
AcDbEllipse
10
114.872593
20
-12.309758
30
0
11
1.64589647751505
21
0.116296110440485
31
0
210
0
220
0
230
1
40
0.965764
41
-2.07470006325472
42
-1.75362471590283
0
ELLIPSE
5
170
100
AcDbEntity
8
1
62
256
6
ByLayer
370
-1
48
1
60
0
100
AcDbEllipse
10
115.137591
20
-16.061677
30
0
11
-2.24591654308843
21
9.02214697982574
31
0
210
0
220
0
230
1
40
0.041988
41
1.30215072724315
42
1.31709431884671
0
ELLIPSE
5
171
100
AcDbEntity
8
1
62
256
6
ByLayer
370
-1
48
1
60
0
100
AcDbEllipse
10
114.826332
20
-11.655055
30
0
11
-1.64589647751503
21
-0.116296110440476
31
0
210
0
220
0
230
1
40
0.965764
41
0.630870826953445
42
1.50266288298151
0
ELLIPSE
5
172
100
AcDbEntity
8
1
62
256
6
ByLayer
370
-1
48
1
60
0
100
AcDbEllipse
10
114.826332
20
-11.655055
30
0
11
-1.64589647751503
21
-0.116296110440476
31
0
210
0
220
0
230
1
40
0.965764
41
1.50266288298151
42
1.75781931569004
0
ELLIPSE
5
173
100
AcDbEntity
8
1
62
256
6
ByLayer
370
-1
48
1
60
0
100
AcDbEllipse
10
126.008833
20
-7.17362
30
0
11
-2.65443259504094
21
-1.29855552090688
31
0
210
0
220
0
230
1
40
0.133258
41
-1.1635435259044
42
-0.880930524006789
0
ELLIPSE
5
174
100
AcDbEntity
8
1
62
256
6
ByLayer
370
-1
48
1
60
0
100
AcDbEllipse
10
115.505913
20
-21.272908
30
0
11
-1.63784993078782
21
7.54195098513852
31
0
210
0
220
0
230
1
40
0.160744
41
-0.653463957956145
42
-0.24255771524116
0
ELLIPSE
5
175
100
AcDbEntity
8
1
62
256
6
ByLayer
370
-1
48
1
60
0
100
AcDbEllipse
10
125.504711
20
0
30
0
11
-18.7478441420179
21
-13.4423741060557
31
0
210
0
220
0
230
1
40
0.430064
41
-0.735989180119435
42
0.281454014873635
0
ELLIPSE
5
176
100
AcDbEntity
8
1
62
256
6
ByLayer
370
-1
48
1
60
0
100
AcDbEllipse
10
116.077952
20
-11.916499
30
0
11
-2.11145701959825
21
-0.149191788241902
31
0
210
0
220
0
230
1
40
0.965764
41
0.62772802122878
42
1.11762307732674
0
ELLIPSE
5
177
100
AcDbEntity
8
1
62
256
6
ByLayer
370
-1
48
1
60
0
100
AcDbEllipse
10
112.111059
20
-10.472676
30
0
11
-1.52312151413249
21
-1.36586304787048
31
0
210
0
220
0
230
1
40
0.689943
41
-3.13311504349018
42
0.840426372305782
0
ELLIPSE
5
178
100
AcDbEntity
8
1
62
256
6
ByLayer
370
-1
48
1
60
0
100
AcDbEllipse
10
125.504711
20
0
30
0
11
-18.7598044965605
21
-13.4509497869962
31
0
210
0
220
0
230
1
40
0.430064
41
-1.48535662085527
42
-1.3271497114736
0
ELLIPSE
5
179
100
AcDbEntity
8
1
62
256
6
ByLayer
370
-1
48
1
60
0
100
AcDbEllipse
10
116.122384
20
-12.545324
30
0
11
-1.99502603335156
21
-0.140964982352091
31
0
210
0
220
0
230
1
40
0.965764
41
0.699701739960698
42
1.26020625214146
0
ELLIPSE
5
17A
100
AcDbEntity
8
1
62
256
6
ByLayer
370
-1
48
1
60
0
100
AcDbEllipse
10
114.958877
20
-13.530904
30
0
11
-1.64651197074773
21
-0.107256010922389
31
0
210
0
220
0
230
1
40
0.965788
41
-1.50863681175309
42
1.49804507945727
0
ELLIPSE
5
17B
100
AcDbEntity
8
1
62
256
6
ByLayer
370
-1
48
1
60
0
100
AcDbEllipse
10
119.947669
20
-10.583049
30
0
11
-2.65443259061326
21
-1.29855551919193
31
0
210
0
220
0
230
1
40
0.133258
41
-1.44615652875765
42
-1.16354352648091
0
ELLIPSE
5
17C
100
AcDbEntity
8
1
62
256
6
ByLayer
370
-1
48
1
60
0
100
AcDbEllipse
10
115.658664
20
-13.286369
30
0
11
-1.65306217752318
21
-0.10768269321085
31
0
210
0
220
0
230
1
40
0.965788
41
-2.19115544793869
42
-1.05525226572102
0
ELLIPSE
5
17D
100
AcDbEntity
8
1
62
256
6
ByLayer
370
-1
48
1
60
0
100
AcDbEllipse
10
114.828161
20
-11.680933
30
0
11
1.64589647751505
21
0.116296110440485
31
0
210
0
220
0
230
1
40
0.965764
41
-1.86794914054489
42
-1.38386088998114
0
ELLIPSE
5
17E
100
AcDbEntity
8
1
62
256
6
ByLayer
370
-1
48
1
60
0
100
AcDbEllipse
10
128.03937
20
-6.267706
30
0
11
0.00693407685584106
21
1.40968294611888
31
0
210
0
220
0
230
1
40
0.052006
41
1.8328796369315
42
2.88007718812836
0
ELLIPSE
5
17F
100
AcDbEntity
8
1
62
256
6
ByLayer
370
-1
48
1
60
0
100
AcDbEllipse
10
128.03937
20
-6.267706
30
0
11
0.00693407685584106
21
1.40968294611888
31
0
210
0
220
0
230
1
40
0.052006
41
2.88007718812836
42
-2.35591056785471
0
ELLIPSE
5
180
100
AcDbEntity
8
1
62
256
6
ByLayer
370
-1
48
1
60
0
100
AcDbEllipse
10
128.03937
20
-6.267706
30
0
11
0.00693407685584106
21
1.40968294611888
31
0
210
0
220
0
230
1
40
0.052006
41
-2.35591056785471
42
-1.30871301665819
0
ELLIPSE
5
181
100
AcDbEntity
8
1
62
256
6
ByLayer
370
-1
48
1
60
0
100
AcDbEllipse
10
128.03937
20
-6.267706
30
0
11
0.00693407685584106
21
1.40968294611888
31
0
210
0
220
0
230
1
40
0.052006
41
-1.30871301665819
42
-0.26151546546144
0
ELLIPSE
5
182
100
AcDbEntity
8
1
62
256
6
ByLayer
370
-1
48
1
60
0
100
AcDbEllipse
10
128.03937
20
-6.267706
30
0
11
0.00693407685584106
21
1.40968294611888
31
0
210
0
220
0
230
1
40
0.052006
41
-0.26151546546144
42
0.7856820857348
0
ELLIPSE
5
183
100
AcDbEntity
8
1
62
256
6
ByLayer
370
-1
48
1
60
0
100
AcDbEllipse
10
128.03937
20
-6.267706
30
0
11
0.00693407685584106
21
1.40968294611888
31
0
210
0
220
0
230
1
40
0.052006
41
0.7856820857348
42
1.8328796369315
0
ELLIPSE
5
184
100
AcDbEntity
8
1
62
256
6
ByLayer
370
-1
48
1
60
0
100
AcDbEllipse
10
126.940871
20
-6.262303
30
0
11
-0.0152483778485567
21
-3.09996249767203
31
0
210
0
220
0
230
1
40
0.052006
41
-1.57486025232775
42
-1.54049916725785
0
ELLIPSE
5
185
100
AcDbEntity
8
1
62
256
6
ByLayer
370
-1
48
1
60
0
100
AcDbEllipse
10
128.03937
20
-6.267706
30
0
11
-0.00836201365888588
21
-1.69997943420723
31
0
210
0
220
0
230
1
40
0.052006
41
0
42
6.28318530717959
0
ELLIPSE
5
186
100
AcDbEntity
8
1
62
256
6
ByLayer
370
-1
48
1
60
0
100
AcDbEllipse
10
123.141432
20
-13.699276
30
0
11
-2.71822297044151
21
-0.192064788454725
31
0
210
0
220
0
230
1
40
0.965764
41
-3.14149459685376
42
0
0
ELLIPSE
5
187
100
AcDbEntity
8
1
62
256
6
ByLayer
370
-1
48
1
60
0
100
AcDbEllipse
10
123.164079
20
-14.019799
30
0
11
-2.71822297044151
21
-0.192064788454725
31
0
210
0
220
0
230
1
40
0.965764
41
0
42
6.28318530717959
0
ELLIPSE
5
188
100
AcDbEntity
8
1
62
256
6
ByLayer
370
-1
48
1
60
0
100
AcDbEllipse
10
123.165202
20
-14.035684
30
0
11
-1.79552343001641
21
-0.126868484116883
31
0
210
0
220
0
230
1
40
0.965764
41
0
42
6.28318530717959
0
ELLIPSE
5
189
100
AcDbEntity
8
1
62
256
6
ByLayer
370
-1
48
1
60
0
100
AcDbEllipse
10
121.852043
20
-14.350571
30
0
11
-0.200051044280697
21
0.326957883010347
31
0
210
0
220
0
230
1
40
0.499975
41
-2.37462779238897
42
-1.58915102711312
0
ELLIPSE
5
18A
100
AcDbEntity
8
1
62
256
6
ByLayer
370
-1
48
1
60
0
100
AcDbEllipse
10
123.136404
20
-15.06087
30
0
11
-0.39403247531512
21
-0.00240287603066255
31
0
210
0
220
0
230
1
40
0.473102
41
-1.57368137365157
42
-0.163407912190406
0
ELLIPSE
5
18B
100
AcDbEntity
8
1
62
256
6
ByLayer
370
-1
48
1
60
0
100
AcDbEllipse
10
123.136404
20
-13.628113
30
0
11
-1.28709104541676
21
-0.0909435583644523
31
0
210
0
220
0
230
1
40
0.965764
41
-0.963568993454515
42
-0.73279270462337
0
ELLIPSE
5
18C
100
AcDbEntity
8
1
62
256
6
ByLayer
370
-1
48
1
60
0
100
AcDbEllipse
10
123.87798
20
-14.865491
30
0
11
-0.342845330156831
21
-0.189166589712726
31
0
210
0
220
0
230
1
40
0.479089
41
-0.0400244433150754
42
2.35411703749017
0
ELLIPSE
5
18D
100
AcDbEntity
8
1
62
256
6
ByLayer
370
-1
48
1
60
0
100
AcDbEllipse
10
123.136404
20
-15.06087
30
0
11
-0.394032475316297
21
-0.00240287603092294
31
0
210
0
220
0
230
1
40
0.473102
41
-2.98395483511031
42
-1.57368137365337
0
ELLIPSE
5
18E
100
AcDbEntity
8
1
62
256
6
ByLayer
370
-1
48
1
60
0
100
AcDbEllipse
10
123.136404
20
-13.628113
30
0
11
-1.28709104541676
21
-0.0909435583644523
31
0
210
0
220
0
230
1
40
0.965764
41
1.50266276576791
42
2.54986031696433
0
ELLIPSE
5
18F
100
AcDbEntity
8
1
62
256
6
ByLayer
370
-1
48
1
60
0
100
AcDbEllipse
10
124.420764
20
-14.338412
30
0
11
-0.200517583760781
21
-0.32856877257825
31
0
210
0
220
0
230
1
40
0.495781
41
-1.54958265946982
42
-0.608513246085986
0
ELLIPSE
5
190
100
AcDbEntity
8
1
62
256
6
ByLayer
370
-1
48
1
60
0
100
AcDbEllipse
10
122.394828
20
-14.872511
30
0
11
-0.343133849056979
21
0.18539127632997
31
0
210
0
220
0
230
1
40
0.48292
41
0.966396763246528
42
-3.10477118287804
0
ELLIPSE
5
191
100
AcDbEntity
8
1
62
256
6
ByLayer
370
-1
48
1
60
0
100
AcDbEllipse
10
124.619556
20
-13.621093
30
0
11
-0.000623103068505682
21
-0.380672332819593
31
0
210
0
220
0
230
1
40
0.50691
41
-0.0539160509651131
42
1.20422847250914
0
ELLIPSE
5
192
100
AcDbEntity
8
1
62
256
6
ByLayer
370
-1
48
1
60
0
100
AcDbEllipse
10
124.420764
20
-14.338412
30
0
11
-0.200517583763193
21
-0.328568772579913
31
0
210
0
220
0
230
1
40
0.495781
41
-2.95985612092272
42
-1.54958265946399
0
ELLIPSE
5
193
100
AcDbEntity
8
1
62
256
6
ByLayer
370
-1
48
1
60
0
100
AcDbEllipse
10
123.136404
20
-13.628113
30
0
11
-1.28709104541676
21
-0.0909435583644523
31
0
210
0
220
0
230
1
40
0.965764
41
2.54986031696453
42
-3.12691571093301
0
ELLIPSE
5
194
100
AcDbEntity
8
1
62
256
6
ByLayer
370
-1
48
1
60
0
100
AcDbEllipse
10
121.653252
20
-13.635133
30
0
11
-0.000623103068506025
21
-0.380672332819596
31
0
210
0
220
0
230
1
40
0.50691
41
-0.903672283967738
42
0.0603741684575357
0
ELLIPSE
5
195
100
AcDbEntity
8
1
62
256
6
ByLayer
370
-1
48
1
60
0
100
AcDbEllipse
10
123.136404
20
-13.628113
30
0
11
-1.28709104541676
21
-0.0909435583644523
31
0
210
0
220
0
230
1
40
0.965764
41
-2.57250658392424
42
-2.12648206047481
0
ELLIPSE
5
196
100
AcDbEntity
8
1
62
256
6
ByLayer
370
-1
48
1
60
0
100
AcDbEllipse
10
123.136404
20
-13.628113
30
0
11
-1.28709104541676
21
-0.0909435583644523
31
0
210
0
220
0
230
1
40
0.965764
41
-0.12492758658378
42
0.455465214571065
0
ELLIPSE
5
197
100
AcDbEntity
8
1
62
256
6
ByLayer
370
-1
48
1
60
0
100
AcDbEllipse
10
121.852043
20
-14.350571
30
0
11
-0.200051044280566
21
0.326957883011201
31
0
210
0
220
0
230
1
40
0.499975
41
-1.58915102710916
42
-0.178877565651407
0
ELLIPSE
5
198
100
AcDbEntity
8
1
62
256
6
ByLayer
370
-1
48
1
60
0
100
AcDbEllipse
10
123.165202
20
-14.035684
30
0
11
1.67223082115528
21
0.118156848207532
31
0
210
0
220
0
230
1
40
0.965764
41
3.07345909256257
42
-2.16252866342039
0
ELLIPSE
5
199
100
AcDbEntity
8
1
62
256
6
ByLayer
370
-1
48
1
60
0
100
AcDbEllipse
10
123.165202
20
-14.035684
30
0
11
1.67223082115528
21
0.118156848207532
31
0
210
0
220
0
230
1
40
0.965764
41
-2.16252866342039
42
-1.1153311122238
0
ELLIPSE
5
19A
100
AcDbEntity
8
1
62
256
6
ByLayer
370
-1
48
1
60
0
100
AcDbEllipse
10
123.165202
20
-14.035684
30
0
11
1.67223082115528
21
0.118156848207532
31
0
210
0
220
0
230
1
40
0.965764
41
-1.1153311122238
42
-0.06813356102721
0
ELLIPSE
5
19B
100
AcDbEntity
8
1
62
256
6
ByLayer
370
-1
48
1
60
0
100
AcDbEllipse
10
123.165202
20
-14.035684
30
0
11
1.67223082115528
21
0.118156848207532
31
0
210
0
220
0
230
1
40
0.965764
41
-0.06813356102721
42
0.979063990169341
0
ELLIPSE
5
19C
100
AcDbEntity
8
1
62
256
6
ByLayer
370
-1
48
1
60
0
100
AcDbEllipse
10
123.165202
20
-14.035684
30
0
11
1.67223082115528
21
0.118156848207532
31
0
210
0
220
0
230
1
40
0.965764
41
0.979063990169342
42
2.02626154136594
0
ELLIPSE
5
19D
100
AcDbEntity
8
1
62
256
6
ByLayer
370
-1
48
1
60
0
100
AcDbEllipse
10
123.165202
20
-14.035684
30
0
11
1.67223082115528
21
0.118156848207532
31
0
210
0
220
0
230
1
40
0.965764
41
2.02626154136594
42
3.07345909256257
0
ELLIPSE
5
19E
100
AcDbEntity
8
1
62
256
6
ByLayer
370
-1
48
1
60
0
100
AcDbEllipse
10
123.136404
20
-13.628113
30
0
11
1.28709104541676
21
0.0909435583644586
31
0
210
0
220
0
230
1
40
0.965764
41
-2.68612743901859
42
-1.6389298878221
0
ELLIPSE
5
19F
100
AcDbEntity
8
1
62
256
6
ByLayer
370
-1
48
1
60
0
100
AcDbEllipse
10
118.778868
20
-17.317061
30
0
11
-1.8
21
2.20429143688028E-16
31
0
210
0
220
0
230
1
40
0.258819
41
2.41345916410083
42
2.44231040400175
0
ELLIPSE
5
1A0
100
AcDbEntity
8
1
62
256
6
ByLayer
370
-1
48
1
60
0
100
AcDbEllipse
10
118.996464
20
-17.577587
30
0
11
-0.25
21
3.06151588455594E-17
31
0
210
0
220
0
230
1
40
0.258819
41
-2.61308908164275
42
-2.02965358241131
0
ELLIPSE
5
1A1
100
AcDbEntity
8
1
62
256
6
ByLayer
370
-1
48
1
60
0
100
AcDbEllipse
10
120.766767
20
-17.310047
30
0
11
-1.8
21
2.20429143688028E-16
31
0
210
0
220
0
230
1
40
0.258819
41
0.528503571946926
42
0.755396374706189
0
ELLIPSE
5
1A2
100
AcDbEntity
8
1
62
256
6
ByLayer
370
-1
48
1
60
0
100
AcDbEllipse
10
119.638367
20
-17.58508
30
0
11
-0.25
21
3.06151588455594E-17
31
0
210
0
220
0
230
1
40
0.258819
41
0.755396374706176
42
1.58442776940355
0
ELLIPSE
5
1A3
100
AcDbEntity
8
1
62
256
6
ByLayer
370
-1
48
1
60
0
100
AcDbEllipse
10
119.935815
20
-17.58403
30
0
11
-0.25
21
3.06151588455594E-17
31
0
210
0
220
0
230
1
40
0.258819
41
1.58442776940343
42
2.41345916410084
0
ELLIPSE
5
1A4
100
AcDbEntity
8
1
62
256
6
ByLayer
370
-1
48
1
60
0
100
AcDbEllipse
10
115.304722
20
-12.793703
30
0
11
-0.0878138722405259
21
-0.00572047569036667
31
0
210
0
220
0
230
1
40
0.965789
41
-0.586430508995375
42
-1.16283421686255E-05
0
ELLIPSE
5
1A5
100
AcDbEntity
8
1
62
256
6
ByLayer
370
-1
48
1
60
0
100
AcDbEllipse
10
119.932886
20
-10.42303
30
0
11
-0.128769199337801
21
-0.0771501606165871
31
0
210
0
220
0
230
1
40
0.232115
41
1.45206597487003
42
2.16459055349672
0
ELLIPSE
5
1A6
100
AcDbEntity
8
1
62
256
6
ByLayer
370
-1
48
1
60
0
100
AcDbEllipse
10
116.92406
20
-15.711229
30
0
11
-0.289259149518908
21
0.169069484663985
31
0
210
0
220
0
230
1
40
0.207991
41
-1.45829793671476
42
-1.18265417165526
0
ELLIPSE
5
1A7
100
AcDbEntity
8
1
62
256
6
ByLayer
370
-1
48
1
60
0
100
AcDbEllipse
10
120.26828
20
-17.641417
30
0
11
-0.143517613648559
21
0.0843322543960483
31
0
210
0
220
0
230
1
40
0.195042
41
1.70241255314129
42
2.40799874308265
0
ELLIPSE
5
1A8
100
AcDbEntity
8
1
62
256
6
ByLayer
370
-1
48
1
60
0
100
AcDbEllipse
10
117.128334
20
-15.824273
30
0
11
-0.336670865957211
21
0.199900719018788
31
0
210
0
220
0
230
1
40
0.176549
41
-2.39098586532568
42
-1.40038053926103
0
ELLIPSE
5
1A9
100
AcDbEntity
8
1
62
256
6
ByLayer
370
-1
48
1
60
0
100
AcDbEllipse
10
117.287711
20
-12.448863
30
0
11
-0.352030382642133
21
-0.578101923362477
31
0
210
0
220
0
230
1
40
0.071322
41
-2.60919099823416
42
-1.74625735210122
0
ELLIPSE
5
1AA
100
AcDbEntity
8
1
62
256
6
ByLayer
370
-1
48
1
60
0
100
AcDbEllipse
10
117.939785
20
-11.862471
30
0
11
0.249471227956048
21
0.0162513513930856
31
0
210
0
220
0
230
1
40
0.965789
41
2.03156336899624
42
2.12769914672055
0
ELLIPSE
5
1AB
100
AcDbEntity
8
1
62
256
6
ByLayer
370
-1
48
1
60
0
100
AcDbEllipse
10
116.347217
20
-15.084554
30
0
11
-0.231053917349777
21
-0.102175827387779
31
0
210
0
220
0
230
1
40
0.908072
41
0.124336567381604
42
0.663075686594655
0
ELLIPSE
5
1AC
100
AcDbEntity
8
1
62
256
6
ByLayer
370
-1
48
1
60
0
100
AcDbEllipse
10
123.154537
20
-13.964191
30
0
11
3.07390048262853
21
0.200243680603412
31
0
210
0
220
0
230
1
40
0.965789
41
0
42
6.28318530717959
0
ELLIPSE
5
1AD
100
AcDbEntity
8
1
62
256
6
ByLayer
370
-1
48
1
60
0
100
AcDbEllipse
10
127.913831
20
-12.969559
30
0
11
-0.000654095722682202
21
0.150104692809663
31
0
210
0
220
0
230
1
40
0.016273
41
-2.54496627517453
42
-1.83244169780865
0
ELLIPSE
5
1AE
100
AcDbEntity
8
1
62
256
6
ByLayer
370
-1
48
1
60
0
100
AcDbEllipse
10
124.607385
20
-7.709883
30
0
11
-0.289207305476596
21
-0.169862172250927
31
0
210
0
220
0
230
1
40
0.223196
41
-1.93117354621066
42
-1.65552978415645
0
ELLIPSE
5
1AF
100
AcDbEntity
8
1
62
256
6
ByLayer
370
-1
48
1
60
0
100
AcDbEllipse
10
121.273913
20
-9.669211
30
0
11
-0.143360189735197
21
-0.084835294074928
31
0
210
0
220
0
230
1
40
0.209444
41
0.759403634568019
42
1.4649898244689
0
ELLIPSE
5
1B0
100
AcDbEntity
8
1
62
256
6
ByLayer
370
-1
48
1
60
0
100
AcDbEllipse
10
124.403111
20
-7.82471
30
0
11
-0.335804858934171
21
-0.20141493697402
31
0
210
0
220
0
230
1
40
0.189826
41
-1.71815547221341
42
-0.727550146212668
0
ELLIPSE
5
1B1
100
AcDbEntity
8
1
62
256
6
ByLayer
370
-1
48
1
60
0
100
AcDbEllipse
10
127.447273
20
-9.775482
30
0
11
-0.352978025694514
21
0.614491680125855
31
0
210
0
220
0
230
1
40
0.052277
41
-2.4018394712248
42
-1.53890582544669
0
ELLIPSE
5
1B2
100
AcDbEntity
8
1
62
256
6
ByLayer
370
-1
48
1
60
0
100
AcDbEllipse
10
127.666396
20
-10.643896
30
0
11
0.249471227956048
21
0.0162513513930856
31
0
210
0
220
0
230
1
40
0.965789
41
-0.0628317333970873
42
0.0333040443273265
0
ELLIPSE
5
1B3
100
AcDbEntity
8
1
62
256
6
ByLayer
370
-1
48
1
60
0
100
AcDbEllipse
10
125.430326
20
-7.495358
30
0
11
-0.239377603652555
21
0.0826540720289075
31
0
210
0
220
0
230
1
40
0.911082
41
-1.28340322926689
42
-0.744664109872712
0
ELLIPSE
5
1B4
100
AcDbEntity
8
1
62
256
6
ByLayer
370
-1
48
1
60
0
100
AcDbEllipse
10
127.103814
20
-6.44743
30
0
11
-0.0878138722405288
21
-0.00572047569036686
31
0
210
0
220
0
230
1
40
0.965789
41
3.14157919444855
42
-2.68082561138841
0
ELLIPSE
5
1B5
100
AcDbEntity
8
1
62
256
6
ByLayer
370
-1
48
1
60
0
100
AcDbEllipse
10
127.59711
20
-9.580301
30
0
11
0.249471227956048
21
0.0162513513930856
31
0
210
0
220
0
230
1
40
0.965789
41
1.31917328796925E-06
42
0.46076704220128
0
ELLIPSE
5
1B6
100
AcDbEntity
8
1
62
256
6
ByLayer
370
-1
48
1
60
0
100
AcDbEllipse
10
127.360349
20
-8.322189
30
0
11
-0.179619284128354
21
-0.0117009730030231
31
0
210
0
220
0
230
1
40
0.965789
41
3.1415815476831
42
-2.6808256113887
0
ELLIPSE
5
1B7
100
AcDbEntity
8
1
62
256
6
ByLayer
370
-1
48
1
60
0
100
AcDbEllipse
10
127.035918
20
-7.780744
30
0
11
-0.179619284128355
21
-0.0117009730030232
31
0
210
0
220
0
230
1
40
0.965789
41
-2.68082561138869
42
-2.39034587768756
0
ELLIPSE
5
1B8
100
AcDbEntity
8
1
62
256
6
ByLayer
370
-1
48
1
60
0
100
AcDbEllipse
10
121.609307
20
-18.383532
30
0
11
-0.1289457929453
21
0.0768529686719306
31
0
210
0
220
0
230
1
40
0.215846
41
1.00566648802325
42
1.7181910665787
0
ELLIPSE
5
1B9
100
AcDbEntity
8
1
62
256
6
ByLayer
370
-1
48
1
60
0
100
AcDbEllipse
10
127.908457
20
-18.107527
30
0
11
-0.00147399319297951
21
0.337784675045
31
0
210
0
220
0
230
1
40
0.015426
41
1.29511890680324
42
1.57076269101859
0
ELLIPSE
5
1BA
100
AcDbEntity
8
1
62
256
6
ByLayer
370
-1
48
1
60
0
100
AcDbEllipse
10
127.913831
20
-14.465493
30
0
11
-0.000592402743812571
21
0.165729210544403
31
0
210
0
220
0
230
1
40
0.014833
41
-1.80726703711884
42
-1.10168084663207
0
ELLIPSE
5
1BB
100
AcDbEntity
8
1
62
256
6
ByLayer
370
-1
48
1
60
0
100
AcDbEllipse
10
127.908457
20
-17.879656
30
0
11
-0.000910734202322322
21
0.382239909787675
31
0
210
0
220
0
230
1
40
0.013965
41
0.411204772691582
42
1.40181009768092
0
ELLIPSE
5
1BC
100
AcDbEntity
8
1
62
256
6
ByLayer
370
-1
48
1
60
0
100
AcDbEllipse
10
124.724296
20
-19.601735
30
0
11
-0.70494031366598
21
-0.0225354790914401
31
0
210
0
220
0
230
1
40
0.11846
41
-1.49267477965786
42
-0.629741133710452
0
ELLIPSE
5
1BD
100
AcDbEntity
8
1
62
256
6
ByLayer
370
-1
48
1
60
0
100
AcDbEllipse
10
123.85743
20
-19.386207
30
0
11
0.249471227956048
21
0.0162513513930856
31
0
210
0
220
0
230
1
40
0.965789
41
-2.15722683579014
42
-2.06109105806599
0
ELLIPSE
5
1BE
100
AcDbEntity
8
1
62
256
6
ByLayer
370
-1
48
1
60
0
100
AcDbEllipse
10
127.656559
20
-18.859672
30
0
11
-0.00112718793672186
21
0.258816590417206
31
0
210
0
220
0
230
1
40
0.965798
41
-2.10952713532655
42
-1.57078801611018
0
ELLIPSE
5
1BF
100
AcDbEntity
8
1
62
256
6
ByLayer
370
-1
48
1
60
0
100
AcDbEllipse
10
127.913831
20
-17.036648
30
0
11
-0.000560354042077573
21
0.175204025683212
31
0
210
0
220
0
230
1
40
0.014074
41
-2.73672801774303
42
-1.79425022212423
0
ELLIPSE
5
1C0
100
AcDbEntity
8
1
62
256
6
ByLayer
370
-1
48
1
60
0
100
AcDbEllipse
10
123.715281
20
-19.58948
30
0
11
-0.28303303183377
21
-0.00090522293153945
31
0
210
0
220
0
230
1
40
0.13718
41
2.09519462527177
42
2.52176974038543
0
ELLIPSE
5
1C1
100
AcDbEntity
8
1
62
256
6
ByLayer
370
-1
48
1
60
0
100
AcDbEllipse
10
125.098428
20
-19.717999
30
0
11
-0.000811575306795964
21
0.186347945090917
31
0
210
0
220
0
230
1
40
0.965798
41
2.19805264570555
42
-3.14158434285382
0
ELLIPSE
5
1C2
100
AcDbEntity
8
1
62
256
6
ByLayer
370
-1
48
1
60
0
100
AcDbEllipse
10
125.74729
20
-19.715167
30
0
11
-0.00081157535417912
21
0.186347945105385
31
0
210
0
220
0
230
1
40
0.965798
41
-3.14158434309822
42
-2.19803602451954
0
ELLIPSE
5
1C3
100
AcDbEntity
8
1
62
256
6
ByLayer
370
-1
48
1
60
0
100
AcDbEllipse
10
126.039021
20
-19.844831
30
0
11
-0.000586137705891841
21
0.134584627012808
31
0
210
0
220
0
230
1
40
0.965798
41
8.31084809292175E-06
42
0.943556629458175
0
ELLIPSE
5
1C4
100
AcDbEntity
8
1
62
256
6
ByLayer
370
-1
48
1
60
0
100
AcDbEllipse
10
126.283017
20
-19.843767
30
0
11
-0.00058613774535185
21
0.134584627007144
31
0
210
0
220
0
230
1
40
0.965798
41
-1.03204889701931
42
8.31056640777427E-06
0
ELLIPSE
5
1C5
100
AcDbEntity
8
1
62
256
6
ByLayer
370
-1
48
1
60
0
100
AcDbEllipse
10
126.911706
20
-20.485339
30
0
11
-0.000396770123431694
21
0.0911034398260699
31
0
210
0
220
0
230
1
40
0.965798
41
2.10954375705813
42
-3.14158434257347
0
ELLIPSE
5
1C6
100
AcDbEntity
8
1
62
256
6
ByLayer
370
-1
48
1
60
0
100
AcDbEllipse
10
126.915783
20
-20.485321
30
0
11
-0.000396770128177561
21
0.0911034398231172
31
0
210
0
220
0
230
1
40
0.965798
41
-3.14158434262459
42
-2.10952713505589
0
ELLIPSE
5
1C7
100
AcDbEntity
8
1
62
256
6
ByLayer
370
-1
48
1
60
0
100
AcDbEllipse
10
127.090381
20
-18.852472
30
0
11
-0.818470076583034
21
-0.511508916859879
31
0
210
0
220
0
230
1
40
0.341899
41
-0.82693649324987
42
-0.0104869071771256
0
ELLIPSE
5
1C8
100
AcDbEntity
8
1
62
256
6
ByLayer
370
-1
48
1
60
0
100
AcDbEllipse
10
126.600926
20
-19.158503
30
0
11
1.55866942272947E-17
21
0.254558441227155
31
0
210
0
220
0
230
1
40
0.999867
41
0.558493593836855
42
0.863312072454354
0
ELLIPSE
5
1C9
100
AcDbEntity
8
1
62
256
6
ByLayer
370
-1
48
1
60
0
100
AcDbEllipse
10
126.905235
20
-18.534955
30
0
11
-0.0080417580969727
21
1.84310051258936
31
0
210
0
220
0
230
1
40
0.179021
41
2.84088306244404
42
-2.84088284843522
0
ELLIPSE
5
1CA
100
AcDbEntity
8
1
62
256
6
ByLayer
370
-1
48
1
60
0
100
AcDbEllipse
10
126.907131
20
-18.967145
30
0
11
1.55866942272947E-17
21
0.254558441227155
31
0
210
0
220
0
230
1
40
0.999867
41
-0.549766437173723
42
0.558493593836855
0
ELLIPSE
5
1CB
100
AcDbEntity
8
1
62
256
6
ByLayer
370
-1
48
1
60
0
100
AcDbEllipse
10
126.722867
20
-18.854076
30
0
11
-0.822902478286214
21
0.504346294687692
31
0
210
0
220
0
230
1
40
0.3419
41
-3.13110594625852
42
-2.31465636022544
0
ELLIPSE
5
1CC
100
AcDbEntity
8
1
62
256
6
ByLayer
370
-1
48
1
60
0
100
AcDbEllipse
10
127.214994
20
-19.155823
30
0
11
1.55866942272947E-17
21
0.254558441227155
31
0
210
0
220
0
230
1
40
0.999867
41
-0.854585258752845
42
-0.549766437173635
0
ELLIPSE
5
1CD
100
AcDbEntity
8
1
62
256
6
ByLayer
370
-1
48
1
60
0
100
AcDbEllipse
10
127.678296
20
-18.030832
30
0
11
0.150248298123992
21
-0.282533978329765
31
0
210
0
220
0
230
1
40
0.014394
41
-2.74837435943776
42
-1.57841055121137
0
ELLIPSE
5
1CE
100
AcDbEntity
8
1
62
256
6
ByLayer
370
-1
48
1
60
0
100
AcDbEllipse
10
127.678296
20
-18.030832
30
0
11
-0.175677408214784
21
0.267464854220019
31
0
210
0
220
0
230
1
40
0.203761
41
-1.3926853202012
42
-0.402079994213955
0
ELLIPSE
5
1CF
100
AcDbEntity
8
1
62
256
6
ByLayer
370
-1
48
1
60
0
100
AcDbEllipse
10
127.678296
20
-18.030832
30
0
11
-0.101161855390454
21
-0.303588996859176
31
0
210
0
220
0
230
1
40
0.015437
41
-1.84125864988208
42
-1.56561488893603
0
ELLIPSE
5
1D0
100
AcDbEntity
8
1
62
256
6
ByLayer
370
-1
48
1
60
0
100
AcDbEllipse
10
127.072013
20
-14.073601
30
0
11
0.0633059060388955
21
0.135986625300412
31
0
210
0
220
0
230
1
40
0.127852
41
-1.80029716860906
42
-1.09471097891162
0
ELLIPSE
5
1D1
100
AcDbEntity
8
1
62
256
6
ByLayer
370
-1
48
1
60
0
100
AcDbEllipse
10
121.659755
20
-16.914205
30
0
11
0.105854520827006
21
0.10627709264223
31
0
210
0
220
0
230
1
40
0.19749
41
-1.91763486850097
42
-1.74310194330172
0
ELLIPSE
5
1D2
100
AcDbEntity
8
1
62
256
6
ByLayer
370
-1
48
1
60
0
100
AcDbEllipse
10
122.096088
20
-17.348803
30
0
11
0.105854520827006
21
0.10627709264223
31
0
210
0
220
0
230
1
40
0.19749
41
-1.91763486850088
42
-1.74310194330172
0
ELLIPSE
5
1D3
100
AcDbEntity
8
1
62
256
6
ByLayer
370
-1
48
1
60
0
100
AcDbEllipse
10
121.88274
20
-17.963365
30
0
11
0.125722164389597
21
-0.0818164859988206
31
0
210
0
220
0
230
1
40
0.210253
41
-2.12740956439773
42
-1.41488498587131
0
ELLIPSE
5
1D4
100
AcDbEntity
8
1
62
256
6
ByLayer
370
-1
48
1
60
0
100
AcDbEllipse
10
126.913689
20
-19.688877
30
0
11
-0.329991143274648
21
-0.00241771799247096
31
0
210
0
220
0
230
1
40
0.178986
41
1.25353512295924
42
1.85495451926999
0
ELLIPSE
5
1D5
100
AcDbEntity
8
1
62
256
6
ByLayer
370
-1
48
1
60
0
100
AcDbEllipse
10
126.604335
20
-19.158349
30
0
11
0.174886668864498
21
-0.279847553238329
31
0
210
0
220
0
230
1
40
0.013828
41
-2.46041722000751
42
-1.57939589399709
0
ELLIPSE
5
1D6
100
AcDbEntity
8
1
62
256
6
ByLayer
370
-1
48
1
60
0
100
AcDbEllipse
10
126.604335
20
-19.158349
30
0
11
-0.175765810909964
21
0.279296222164144
31
0
210
0
220
0
230
1
40
0.354829
41
0.734708662349302
42
1.55115824838684
0
ELLIPSE
5
1D7
100
AcDbEntity
8
1
62
256
6
ByLayer
370
-1
48
1
60
0
100
AcDbEllipse
10
127.218402
20
-19.155669
30
0
11
-0.171567193481963
21
-0.281894835214699
31
0
210
0
220
0
230
1
40
0.328804
41
1.57219616046266
42
2.38864574649997
0
ELLIPSE
5
1D8
100
AcDbEntity
8
1
62
256
6
ByLayer
370
-1
48
1
60
0
100
AcDbEllipse
10
127.218402
20
-19.155669
30
0
11
0.172437766515797
21
0.281363140228146
31
0
210
0
220
0
230
1
40
0.013865
41
0.698314144512967
42
1.57933547052245
0
ELLIPSE
5
1D9
100
AcDbEntity
8
1
62
256
6
ByLayer
370
-1
48
1
60
0
100
AcDbEllipse
10
126.910539
20
-18.966991
30
0
11
-0.172437766515797
21
-0.281363140228146
31
0
210
0
220
0
230
1
40
0.013865
41
-2.44327850907683
42
-1.56225718306743
0
ELLIPSE
5
1DA
100
AcDbEntity
8
1
62
256
6
ByLayer
370
-1
48
1
60
0
100
AcDbEllipse
10
126.910539
20
-18.966991
30
0
11
-0.174886668864497
21
0.279847553238329
31
0
210
0
220
0
230
1
40
0.013828
41
0.68117543358231
42
1.5621967595927
0
ELLIPSE
5
1DB
100
AcDbEntity
8
1
62
256
6
ByLayer
370
-1
48
1
60
0
100
AcDbEllipse
10
126.604335
20
-19.158349
30
0
11
-0.285075263893939
21
-0.166229040530833
31
0
210
0
220
0
230
1
40
0.008173
41
-1.55671124383619
42
-1.20764539343343
0
ELLIPSE
5
1DC
100
AcDbEntity
8
1
62
256
6
ByLayer
370
-1
48
1
60
0
100
AcDbEllipse
10
126.913689
20
-19.688877
30
0
11
-0.285075263893939
21
-0.166229040530833
31
0
210
0
220
0
230
1
40
0.008173
41
-1.5567112438361
42
-1.207645393441
0
ELLIPSE
5
1DD
100
AcDbEntity
8
1
62
256
6
ByLayer
370
-1
48
1
60
0
100
AcDbEllipse
10
126.913689
20
-19.688877
30
0
11
0.286515006649991
21
-0.163735002257781
31
0
210
0
220
0
230
1
40
0.008111
41
-1.58491693353031
42
-1.23585108313325
0
ELLIPSE
5
1DE
100
AcDbEntity
8
1
62
256
6
ByLayer
370
-1
48
1
60
0
100
AcDbEllipse
10
127.218402
20
-19.155669
30
0
11
0.286515006649991
21
-0.163735002257781
31
0
210
0
220
0
230
1
40
0.008111
41
-1.58491693353031
42
-1.23585108313183
0
ELLIPSE
5
1DF
100
AcDbEntity
8
1
62
256
6
ByLayer
370
-1
48
1
60
0
100
AcDbEllipse
10
116.158599
20
-12.56351
30
0
11
0.129725038537145
21
0.00845070272440453
31
0
210
0
220
0
230
1
40
0.965789
41
-1.61848771655645
42
-0.586430508995257
0
ELLIPSE
5
1E0
100
AcDbEntity
8
1
62
256
6
ByLayer
370
-1
48
1
60
0
100
AcDbEllipse
10
115.306761
20
-12.790283
30
0
11
-0.0878138722405288
21
-0.00572047569036686
31
0
210
0
220
0
230
1
40
0.965789
41
-1.61848771655634
42
-0.586430508995392
0
ELLIPSE
5
1E1
100
AcDbEntity
8
1
62
256
6
ByLayer
370
-1
48
1
60
0
100
AcDbEllipse
10
117.963373
20
-16.365898
30
0
11
-0.152300321241353
21
0.0888973533436518
31
0
210
0
220
0
230
1
40
0.184283
41
0.751981040683831
42
1.6944588367973
0
ELLIPSE
5
1E2
100
AcDbEntity
8
1
62
256
6
ByLayer
370
-1
48
1
60
0
100
AcDbEllipse
10
117.790591
20
-11.586741
30
0
11
-0.140264069841091
21
-0.240302574743191
31
0
210
0
220
0
230
1
40
0.078706
41
0.512153286447935
42
0.938728401579452
0
ELLIPSE
5
1E3
100
AcDbEntity
8
1
62
256
6
ByLayer
370
-1
48
1
60
0
100
AcDbEllipse
10
116.923267
20
-12.600279
30
0
11
-0.166358820492876
21
-0.0735665956933608
31
0
210
0
220
0
230
1
40
0.908072
41
-1.85126895864912
42
-0.907720640060888
0
ELLIPSE
5
1E4
100
AcDbEntity
8
1
62
256
6
ByLayer
370
-1
48
1
60
0
100
AcDbEllipse
10
116.598837
20
-13.144555
30
0
11
-0.166358820508391
21
-0.0735665956782444
31
0
210
0
220
0
230
1
40
0.908072
41
-0.907720639921195
42
0.0358276786536759
0
ELLIPSE
5
1E5
100
AcDbEntity
8
1
62
256
6
ByLayer
370
-1
48
1
60
0
100
AcDbEllipse
10
116.344314
20
-13.336951
30
0
11
-0.120148037025913
21
-0.0531314302167875
31
0
210
0
220
0
230
1
40
0.908072
41
2.23387201359701
42
-3.10576497498891
0
ELLIPSE
5
1E6
100
AcDbEntity
8
1
62
256
6
ByLayer
370
-1
48
1
60
0
100
AcDbEllipse
10
116.222316
20
-13.541619
30
0
11
-0.120148037026373
21
-0.0531314302207354
31
0
210
0
220
0
230
1
40
0.908072
41
1.20181480602931
42
2.23387201354467
0
ELLIPSE
5
1E7
100
AcDbEntity
8
1
62
256
6
ByLayer
370
-1
48
1
60
0
100
AcDbEllipse
10
115.373289
20
-13.811547
30
0
11
-0.081330978906771
21
-0.0359658912298478
31
0
210
0
220
0
230
1
40
0.908072
41
-1.93977784762486
42
-0.90772064008887
0
ELLIPSE
5
1E8
100
AcDbEntity
8
1
62
256
6
ByLayer
370
-1
48
1
60
0
100
AcDbEllipse
10
115.37125
20
-13.814967
30
0
11
-0.0813309789069901
21
-0.0359658912282892
31
0
210
0
220
0
230
1
40
0.908072
41
-0.907720640052039
42
0.124336567497958
0
ELLIPSE
5
1E9
100
AcDbEntity
8
1
62
256
6
ByLayer
370
-1
48
1
60
0
100
AcDbEllipse
10
116.638331
20
-14.613498
30
0
11
-0.000207326149840747
21
-0.890157524654085
31
0
210
0
220
0
230
1
40
0.360082
41
2.35360549924233
42
-3.11313022188059
0
ELLIPSE
5
1EA
100
AcDbEntity
8
1
62
256
6
ByLayer
370
-1
48
1
60
0
100
AcDbEllipse
10
116.631
20
-14.081568
30
0
11
0.214135434812111
21
0.137644526072878
31
0
210
0
220
0
230
1
40
0.895737
41
-0.50932972197665
42
-0.204511071699742
0
ELLIPSE
5
1EB
100
AcDbEntity
8
1
62
256
6
ByLayer
370
-1
48
1
60
0
100
AcDbEllipse
10
116.995064
20
-14.585376
30
0
11
-1.53630689167665
21
0.724448865225314
31
0
210
0
220
0
230
1
40
0.188839
41
-0.319063412220405
42
0.282355984098223
0
ELLIPSE
5
1EC
100
AcDbEntity
8
1
62
256
6
ByLayer
370
-1
48
1
60
0
100
AcDbEllipse
10
116.635586
20
-14.414338
30
0
11
0.214135434812111
21
0.137644526072878
31
0
210
0
220
0
230
1
40
0.895737
41
-1.61758975637625
42
-0.509329721976616
0
ELLIPSE
5
1ED
100
AcDbEntity
8
1
62
256
6
ByLayer
370
-1
48
1
60
0
100
AcDbEllipse
10
116.822088
20
-14.305221
30
0
11
-0.832437249558051
21
-0.488229794604511
31
0
210
0
220
0
230
1
40
0.306363
41
0.00695489505204162
42
0.823404481082997
0
ELLIPSE
5
1EE
100
AcDbEntity
8
1
62
256
6
ByLayer
370
-1
48
1
60
0
100
AcDbEllipse
10
116.323966
20
-14.596658
30
0
11
0.214135434812111
21
0.137644526072878
31
0
210
0
220
0
230
1
40
0.895737
41
-1.92240840665308
42
-1.61758975637614
0
ELLIPSE
5
1EF
100
AcDbEntity
8
1
62
256
6
ByLayer
370
-1
48
1
60
0
100
AcDbEllipse
10
117.103619
20
-15.549209
30
0
11
-0.319437373112233
21
0.0189674631713374
31
0
210
0
220
0
230
1
40
0.372092
41
-2.47552078441331
42
-1.30555697618074
0
ELLIPSE
5
1F0
100
AcDbEntity
8
1
62
256
6
ByLayer
370
-1
48
1
60
0
100
AcDbEllipse
10
117.103619
20
-15.549209
30
0
11
0.3187160302586
21
0.0286372494524011
31
0
210
0
220
0
230
1
40
0.189541
41
0.623798962615197
42
1.61440428860225
0
ELLIPSE
5
1F1
100
AcDbEntity
8
1
62
256
6
ByLayer
370
-1
48
1
60
0
100
AcDbEllipse
10
117.103619
20
-15.549209
30
0
11
-0.214373568568198
21
0.237579403777635
31
0
210
0
220
0
230
1
40
0.080191
41
-1.39228185157687
42
-1.11663809062983
0
ELLIPSE
5
1F2
100
AcDbEntity
8
1
62
256
6
ByLayer
370
-1
48
1
60
0
100
AcDbEllipse
10
121.043793
20
-17.131521
30
0
11
0.0824075344049267
21
-0.125335542737489
31
0
210
0
220
0
230
1
40
0.131471
41
-1.34334808187606
42
-0.637761892177854
0
ELLIPSE
5
1F3
100
AcDbEntity
8
1
62
256
6
ByLayer
370
-1
48
1
60
0
100
AcDbEllipse
10
121.224641
20
-11.194153
30
0
11
0.0357259918071446
21
-0.145683401626252
31
0
210
0
220
0
230
1
40
0.046814
41
-1.48711924791828
42
-1.31258632271846
0
ELLIPSE
5
1F4
100
AcDbEntity
8
1
62
256
6
ByLayer
370
-1
48
1
60
0
100
AcDbEllipse
10
120.615173
20
-11.343613
30
0
11
0.0357259918071446
21
-0.145683401626252
31
0
210
0
220
0
230
1
40
0.046814
41
-1.48711924791818
42
-1.31258632271831
0
ELLIPSE
5
1F5
100
AcDbEntity
8
1
62
256
6
ByLayer
370
-1
48
1
60
0
100
AcDbEllipse
10
120.171758
20
-10.860238
30
0
11
-0.131634364356025
21
-0.0719193584550448
31
0
210
0
220
0
230
1
40
0.236597
41
1.46129512665326
42
2.17381970517979
0
ELLIPSE
5
1F6
100
AcDbEntity
8
1
62
256
6
ByLayer
370
-1
48
1
60
0
100
AcDbEllipse
10
116.085429
20
-14.207093
30
0
11
0.12671433357778
21
0.304702277093459
31
0
210
0
220
0
230
1
40
0.542683
41
1.00999969353911
42
1.6114190898499
0
ELLIPSE
5
1F7
100
AcDbEntity
8
1
62
256
6
ByLayer
370
-1
48
1
60
0
100
AcDbEllipse
10
116.681483
20
-14.160105
30
0
11
-0.329968661514939
21
-0.00454779265573889
31
0
210
0
220
0
230
1
40
0.388155
41
-2.21437408675451
42
-1.33335276074515
0
ELLIPSE
5
1F8
100
AcDbEntity
8
1
62
256
6
ByLayer
370
-1
48
1
60
0
100
AcDbEllipse
10
116.681483
20
-14.160105
30
0
11
0.328515456278559
21
-0.0312665154133021
31
0
210
0
220
0
230
1
40
0.671
41
1.04060477834373
42
1.85705436438107
0
ELLIPSE
5
1F9
100
AcDbEntity
8
1
62
256
6
ByLayer
370
-1
48
1
60
0
100
AcDbEllipse
10
116.374449
20
-14.675195
30
0
11
-0.21023359508877
21
0.25436555485374
31
0
210
0
220
0
230
1
40
0.325777
41
1.09225975093525
42
1.90870933697278
0
ELLIPSE
5
1FA
100
AcDbEntity
8
1
62
256
6
ByLayer
370
-1
48
1
60
0
100
AcDbEllipse
10
116.374449
20
-14.675195
30
0
11
0.166646788342777
21
-0.284831262215084
31
0
210
0
220
0
230
1
40
0.020796
41
-2.03107132206078
42
-1.1500499960523
0
ELLIPSE
5
1FB
100
AcDbEntity
8
1
62
256
6
ByLayer
370
-1
48
1
60
0
100
AcDbEllipse
10
116.686069
20
-14.492875
30
0
11
-0.166646788342777
21
0.284831262215084
31
0
210
0
220
0
230
1
40
0.020796
41
1.11052133152724
42
1.99154265753749
0
ELLIPSE
5
1FC
100
AcDbEntity
8
1
62
256
6
ByLayer
370
-1
48
1
60
0
100
AcDbEllipse
10
116.686069
20
-14.492875
30
0
11
0.329968661514939
21
0.00454779265573912
31
0
210
0
220
0
230
1
40
0.388155
41
0.92721856683529
42
1.80823989284473
0
ELLIPSE
5
1FD
100
AcDbEntity
8
1
62
256
6
ByLayer
370
-1
48
1
60
0
100
AcDbEllipse
10
116.681483
20
-14.160105
30
0
11
-0.0259338634078748
21
0.328979383440272
31
0
210
0
220
0
230
1
40
0.228524
41
0.81922814858199
42
1.1682939989811
0
ELLIPSE
5
1FE
100
AcDbEntity
8
1
62
256
6
ByLayer
370
-1
48
1
60
0
100
AcDbEllipse
10
116.085429
20
-14.207093
30
0
11
-0.0259338634078748
21
0.328979383440272
31
0
210
0
220
0
230
1
40
0.228524
41
0.819228148582467
42
1.16829399898105
0
ELLIPSE
5
1FF
100
AcDbEntity
8
1
62
256
6
ByLayer
370
-1
48
1
60
0
100
AcDbEllipse
10
116.085429
20
-14.207093
30
0
11
-0.280790684040499
21
-0.173368370114241
31
0
210
0
220
0
230
1
40
0.444526
41
-1.5627253711059
42
-1.21365952070717
0
ELLIPSE
5
200
100
AcDbEntity
8
1
62
256
6
ByLayer
370
-1
48
1
60
0
100
AcDbEllipse
10
116.374449
20
-14.675195
30
0
11
-0.280790684040499
21
-0.173368370114241
31
0
210
0
220
0
230
1
40
0.444526
41
-1.5627253711059
42
-1.21365952070726
0
ELLIPSE
5
201
100
AcDbEntity
8
1
62
256
6
ByLayer
370
-1
48
1
60
0
100
AcDbEllipse
10
116.535691
20
-12.175216
30
0
11
-0.179619284128355
21
-0.0117009730030232
31
0
210
0
220
0
230
1
40
0.965789
41
-0.586430508995183
42
-9.080501284448E-07
0
ELLIPSE
5
202
100
AcDbEntity
8
1
62
256
6
ByLayer
370
-1
48
1
60
0
100
AcDbEllipse
10
123.57882
20
-8.373575
30
0
11
-0.152152475756634
21
-0.0895179785168423
31
0
210
0
220
0
230
1
40
0.197758
41
1.47147641490976
42
2.4139542108987
0
ELLIPSE
5
203
100
AcDbEntity
8
1
62
256
6
ByLayer
370
-1
48
1
60
0
100
AcDbEllipse
10
127.950153
20
-10.5999
30
0
11
-0.140714190814383
21
0.239169973400967
31
0
210
0
220
0
230
1
40
0.063581
41
0.753835099782019
42
1.18041022003409
0
ELLIPSE
5
204
100
AcDbEntity
8
1
62
256
6
ByLayer
370
-1
48
1
60
0
100
AcDbEllipse
10
127.423494
20
-9.291528
30
0
11
-0.172351874648851
21
0.0595109320898586
31
0
210
0
220
0
230
1
40
0.911082
41
3.0241765530109
42
-2.31546043562935
0
ELLIPSE
5
205
100
AcDbEntity
8
1
62
256
6
ByLayer
370
-1
48
1
60
0
100
AcDbEllipse
10
127.099064
20
-8.750084
30
0
11
-0.172351874610472
21
0.0595109321270587
31
0
210
0
220
0
230
1
40
0.911082
41
-2.31546043533025
42
-1.37191211672438
0
ELLIPSE
5
206
100
AcDbEntity
8
1
62
256
6
ByLayer
370
-1
48
1
60
0
100
AcDbEllipse
10
127.063569
20
-8.454334
30
0
11
-0.124476353875144
21
0.0429801176609556
31
0
210
0
220
0
230
1
40
0.911082
41
0.826132218366303
42
1.76968053700851
0
ELLIPSE
5
207
100
AcDbEntity
8
1
62
256
6
ByLayer
370
-1
48
1
60
0
100
AcDbEllipse
10
126.941571
20
-8.250731
30
0
11
-0.124476353904153
21
0.0429801176313981
31
0
210
0
220
0
230
1
40
0.911082
41
-0.205924989437686
42
0.826132218068336
0
ELLIPSE
5
208
100
AcDbEntity
8
1
62
256
6
ByLayer
370
-1
48
1
60
0
100
AcDbEllipse
10
127.170343
20
-7.468693
30
0
11
-0.0842609164503567
21
0.029094233505829
31
0
210
0
220
0
230
1
40
0.911082
41
2.93566766456158
42
-2.31546043495288
0
ELLIPSE
5
209
100
AcDbEntity
8
1
62
256
6
ByLayer
370
-1
48
1
60
0
100
AcDbEllipse
10
127.168304
20
-7.465291
30
0
11
-0.0842609164786713
21
0.0290942334823406
31
0
210
0
220
0
230
1
40
0.911082
41
-2.31546043534726
42
-1.28340322781273
0
ELLIPSE
5
20A
100
AcDbEntity
8
1
62
256
6
ByLayer
370
-1
48
1
60
0
100
AcDbEllipse
10
125.705263
20
-7.971672
30
0
11
-0.8375640383573
21
0.479739159386833
31
0
210
0
220
0
230
1
40
0.308746
41
2.31350331954332
42
3.12995290557941
0
ELLIPSE
5
20B
100
AcDbEntity
8
1
62
256
6
ByLayer
370
-1
48
1
60
0
100
AcDbEllipse
10
126.206036
20
-8.25875
30
0
11
0.222782340523561
21
-0.123158551269667
31
0
210
0
220
0
230
1
40
0.903036
41
-1.58799132119631
42
-1.28317267091938
0
ELLIPSE
5
20C
100
AcDbEntity
8
1
62
256
6
ByLayer
370
-1
48
1
60
0
100
AcDbEllipse
10
125.529509
20
-8.253349
30
0
11
-1.55232594735016
21
-0.738057643061225
31
0
210
0
220
0
230
1
40
0.185907
41
2.85878495007541
42
-2.82298096076882
0
ELLIPSE
5
20D
100
AcDbEntity
8
1
62
256
6
ByLayer
370
-1
48
1
60
0
100
AcDbEllipse
10
125.892758
20
-8.079157
30
0
11
0.222782340523561
21
-0.123158551269667
31
0
210
0
220
0
230
1
40
0.903036
41
-2.69625135559558
42
-1.58799132119619
0
ELLIPSE
5
20E
100
AcDbEntity
8
1
62
256
6
ByLayer
370
-1
48
1
60
0
100
AcDbEllipse
10
125.88902
20
-8.278345
30
0
11
-0.00595811942172686
21
-0.890176669411604
31
0
210
0
220
0
230
1
40
0.362985
41
3.11879900341388
42
-2.34793671773542
0
ELLIPSE
5
20F
100
AcDbEntity
8
1
62
256
6
ByLayer
370
-1
48
1
60
0
100
AcDbEllipse
10
125.899002
20
-7.746339
30
0
11
0.222782340523561
21
-0.123158551269667
31
0
210
0
220
0
230
1
40
0.903036
41
-3.00107000587238
42
-2.69625135559554
0
ELLIPSE
5
210
100
AcDbEntity
8
1
62
256
6
ByLayer
370
-1
48
1
60
0
100
AcDbEllipse
10
124.656971
20
-7.932986
30
0
11
0.176329317764098
21
0.267035525158822
31
0
210
0
220
0
230
1
40
0.03732
41
1.12825396992023
42
2.29821777815521
0
ELLIPSE
5
211
100
AcDbEntity
8
1
62
256
6
ByLayer
370
-1
48
1
60
0
100
AcDbEllipse
10
124.656971
20
-7.932986
30
0
11
-0.125543597399466
21
-0.294344704644063
31
0
210
0
220
0
230
1
40
0.19293
41
-1.85493786330962
42
-0.864332537322345
0
ELLIPSE
5
212
100
AcDbEntity
8
1
62
256
6
ByLayer
370
-1
48
1
60
0
100
AcDbEllipse
10
124.656971
20
-7.932986
30
0
11
0.312377620717914
21
0.0694278191693728
31
0
210
0
220
0
230
1
40
0.335766
41
1.2823706648683
42
1.55801442581498
0
ELLIPSE
5
213
100
AcDbEntity
8
1
62
256
6
ByLayer
370
-1
48
1
60
0
100
AcDbEllipse
10
121.340218
20
-10.570999
30
0
11
-0.149596176921153
21
-0.0109992659107361
31
0
210
0
220
0
230
1
40
0.259322
41
0.863046553738648
42
1.56863274343677
0
ELLIPSE
5
214
100
AcDbEntity
8
1
62
256
6
ByLayer
370
-1
48
1
60
0
100
AcDbEllipse
10
126.571629
20
-13.667764
30
0
11
-0.143814300897885
21
0.0426315242192027
31
0
210
0
220
0
230
1
40
0.244304
41
1.66062836463021
42
1.83516128982982
0
ELLIPSE
5
215
100
AcDbEntity
8
1
62
256
6
ByLayer
370
-1
48
1
60
0
100
AcDbEllipse
10
126.744764
20
-13.083706
30
0
11
-0.143814300897885
21
0.0426315242192027
31
0
210
0
220
0
230
1
40
0.244304
41
1.66062836463021
42
1.83516128982934
0
ELLIPSE
5
216
100
AcDbEntity
8
1
62
256
6
ByLayer
370
-1
48
1
60
0
100
AcDbEllipse
10
127.401527
20
-12.952518
30
0
11
0.00498680642490538
21
0.149917082954814
31
0
210
0
220
0
230
1
40
0.026344
41
-2.54435398120655
42
-1.83182940267763
0
ELLIPSE
5
217
100
AcDbEntity
8
1
62
256
6
ByLayer
370
-1
48
1
60
0
100
AcDbEllipse
10
126.456053
20
-7.867053
30
0
11
0.126989212138566
21
-0.304587819849098
31
0
210
0
220
0
230
1
40
0.517188
41
1.54493633139595
42
2.14635572770675
0
ELLIPSE
5
218
100
AcDbEntity
8
1
62
256
6
ByLayer
370
-1
48
1
60
0
100
AcDbEllipse
10
126.162392
20
-8.337698
30
0
11
0.164123276904415
21
0.286292769692419
31
0
210
0
220
0
230
1
40
0.007386
41
1.12684352003351
42
2.00786484603328
0
ELLIPSE
5
219
100
AcDbEntity
8
1
62
256
6
ByLayer
370
-1
48
1
60
0
100
AcDbEllipse
10
126.162392
20
-8.337698
30
0
11
-0.206260449892316
21
-0.257597800476284
31
0
210
0
220
0
230
1
40
0.301789
41
1.2112374537086
42
2.02768703974576
0
ELLIPSE
5
21A
100
AcDbEntity
8
1
62
256
6
ByLayer
370
-1
48
1
60
0
100
AcDbEllipse
10
125.855358
20
-7.825287
30
0
11
0.329092877421673
21
0.024451544538607
31
0
210
0
220
0
230
1
40
0.673036
41
1.32836245256567
42
2.14481203860304
0
ELLIPSE
5
21B
100
AcDbEntity
8
1
62
256
6
ByLayer
370
-1
48
1
60
0
100
AcDbEllipse
10
125.855358
20
-7.825287
30
0
11
-0.329941928492634
21
0.00619062376193207
31
0
210
0
220
0
230
1
40
0.387666
41
-1.77290903562745
42
-0.891887709618067
0
ELLIPSE
5
21C
100
AcDbEntity
8
1
62
256
6
ByLayer
370
-1
48
1
60
0
100
AcDbEllipse
10
125.849114
20
-8.158105
30
0
11
0.329941928492634
21
-0.00619062376193211
31
0
210
0
220
0
230
1
40
0.387666
41
1.36868361796235
42
2.24970494397173
0
ELLIPSE
5
21D
100
AcDbEntity
8
1
62
256
6
ByLayer
370
-1
48
1
60
0
100
AcDbEllipse
10
125.849114
20
-8.158105
30
0
11
-0.164123276904415
21
-0.286292769692419
31
0
210
0
220
0
230
1
40
0.007386
41
-2.01474913355628
42
-1.13372780755149
0
ELLIPSE
5
21E
100
AcDbEntity
8
1
62
256
6
ByLayer
370
-1
48
1
60
0
100
AcDbEllipse
10
126.162392
20
-8.337698
30
0
11
0.279970847001606
21
-0.174689223563457
31
0
210
0
220
0
230
1
40
0.429075
41
1.24442079787153
42
1.59348664827039
0
ELLIPSE
5
21F
100
AcDbEntity
8
1
62
256
6
ByLayer
370
-1
48
1
60
0
100
AcDbEllipse
10
126.456053
20
-7.867053
30
0
11
0.279970847001606
21
-0.174689223563457
31
0
210
0
220
0
230
1
40
0.429075
41
1.24442079787171
42
1.59348664827039
0
ELLIPSE
5
220
100
AcDbEntity
8
1
62
256
6
ByLayer
370
-1
48
1
60
0
100
AcDbEllipse
10
126.456053
20
-7.867053
30
0
11
0.022889102046237
21
0.329205238426604
31
0
210
0
220
0
230
1
40
0.196789
41
-1.1707595500269
42
-0.821693699628234
0
ELLIPSE
5
221
100
AcDbEntity
8
1
62
256
6
ByLayer
370
-1
48
1
60
0
100
AcDbEllipse
10
125.855358
20
-7.825287
30
0
11
0.022889102046237
21
0.329205238426604
31
0
210
0
220
0
230
1
40
0.196789
41
-1.1707595500269
42
-0.821693699628522
0
ELLIPSE
5
222
100
AcDbEntity
8
1
62
256
6
ByLayer
370
-1
48
1
60
0
100
AcDbEllipse
10
123.137552
20
-13.703454
30
0
11
-3.00359442768437
21
-0.195663719967012
31
0
210
0
220
0
230
1
40
0.965789
41
-0.220303902658776
42
0
0
ELLIPSE
5
223
100
AcDbEntity
8
1
62
256
6
ByLayer
370
-1
48
1
60
0
100
AcDbEllipse
10
123.137552
20
-13.703454
30
0
11
-3.00359442768437
21
-0.195663719967012
31
0
210
0
220
0
230
1
40
0.965789
41
0
42
0.371395246320572
0
ELLIPSE
5
224
100
AcDbEntity
8
1
62
256
6
ByLayer
370
-1
48
1
60
0
100
AcDbEllipse
10
123.137552
20
-13.703454
30
0
11
-3.00359442768437
21
-0.195663719967012
31
0
210
0
220
0
230
1
40
0.965789
41
2.07963614906329
42
-2.92128857577828
0
ELLIPSE
5
225
100
AcDbEntity
8
1
62
256
6
ByLayer
370
-1
48
1
60
0
100
AcDbEllipse
10
123.133312
20
-13.638373
30
0
11
-2.91486949082832
21
-0.189883894622058
31
0
210
0
220
0
230
1
40
0.965789
41
-0.440509960029921
42
0
0
ELLIPSE
5
226
100
AcDbEntity
8
1
62
256
6
ByLayer
370
-1
48
1
60
0
100
AcDbEllipse
10
123.133312
20
-13.638373
30
0
11
-2.91486949082832
21
-0.189883894622058
31
0
210
0
220
0
230
1
40
0.965789
41
0
42
0.59130688192502
0
ELLIPSE
5
227
100
AcDbEntity
8
1
62
256
6
ByLayer
370
-1
48
1
60
0
100
AcDbEllipse
10
123.133312
20
-13.638373
30
0
11
-2.91486949082832
21
-0.189883894622058
31
0
210
0
220
0
230
1
40
0.965789
41
2.57777504098303
42
-2.7010821935385
0
ELLIPSE
5
228
100
AcDbEntity
8
1
62
256
6
ByLayer
370
-1
48
1
60
0
100
AcDbEllipse
10
127.101776
20
-6.444027
30
0
11
-0.0878138722405259
21
-0.00572047569036667
31
0
210
0
220
0
230
1
40
0.965789
41
-2.68082561138838
42
-1.64876840382667
0
POINT
5
41
100
AcDbEntity
8
1
62
256
6
ByLayer
370
-1
48
1
60
0
100
AcDbPoint
10
126.914142
20
20.576468
30
0
39
0
210
0
220
0
230
1
50
360
0
POINT
5
43
100
AcDbEntity
8
80
62
256
6
ByLayer
370
-1
48
1
60
0
100
AcDbPoint
10
0
20
0
30
0
39
0
210
0
220
0
230
1
50
360
0
POINT
5
45
100
AcDbEntity
8
81
62
256
6
ByLayer
370
-1
48
1
60
0
100
AcDbPoint
10
127.914
20
-21.875
30
0
39
0
210
0
220
0
230
1
50
360
0
POINT
5
47
100
AcDbEntity
8
2
62
256
6
ByLayer
370
-1
48
1
60
0
100
AcDbPoint
10
127.914
20
21.875
30
0
39
0
210
0
220
0
230
1
50
360
0
SPLINE
5
229
100
AcDbEntity
8
1
62
256
6
ByLayer
370
-1
48
1
60
0
100
AcDbSpline
70
4
71
3
72
12
73
8
40
0
40
0
40
0
40
0
40
0.0872628089567352
40
0.400415072222043
40
0.698270663092506
40
0.979152116076352
40
1
40
1
40
1
40
1
41
1
10
127.35079835146
20
-3.51367981154107
30
0
41
1
10
127.376673613486
20
-3.54104888658148
30
0
41
1
10
127.493425753099
20
-3.66858093108297
30
0
41
1
10
127.68368235461
20
-3.90223047455831
30
0
41
1
10
127.887588270573
20
-4.22822865182633
30
0
41
1
10
128.010194219479
20
-4.45684074876075
30
0
41
1
10
128.056664987448
20
-4.57817744077636
30
0
41
1
10
128.059829478442
20
-4.58658242415876
30
0
0
SPLINE
5
22A
100
AcDbEntity
8
1
62
256
6
ByLayer
370
-1
48
1
60
0
100
AcDbSpline
70
4
71
3
72
10
73
6
40
0
40
0
40
0
40
0
40
0.192317600868438
40
0.659510602098402
40
1
40
1
40
1
40
1
41
1
10
128.04690196005
20
-7.92553705604848
30
0
41
1
10
128.025723599712
20
-7.98214023791456
30
0
41
1
10
127.946917924698
20
-8.17304767762195
30
0
41
1
10
127.785359327568
20
-8.44363602042191
30
0
41
1
10
127.636965767383
20
-8.64884807502807
30
0
41
1
10
127.57090264438
20
-8.73267325805705
30
0
0
SPLINE
5
22B
100
AcDbEntity
8
1
62
256
6
ByLayer
370
-1
48
1
60
0
100
AcDbSpline
70
4
71
1
72
4
73
2
40
0
40
0
40
1
40
1
41
1
10
118.524655837937
20
-16.7139269797371
30
0
41
1
10
118.633334847275
20
-17.202101014846
30
0
0
SPLINE
5
22C
100
AcDbEntity
8
1
62
256
6
ByLayer
370
-1
48
1
60
0
100
AcDbSpline
70
4
71
3
72
8
73
4
40
0
40
0
40
0
40
0
40
1
40
1
40
1
40
1
41
1
10
113.626137070774
20
-9.09795336691656
30
0
41
1
10
113.611513202287
20
-9.10460039065322
30
0
41
1
10
113.599365207071
20
-9.11708940356152
30
0
41
1
10
113.589244143747
20
-9.13466651526801
30
0
0
SPLINE
5
22D
100
AcDbEntity
8
1
62
256
6
ByLayer
370
-1
48
1
60
0
100
AcDbSpline
70
4
71
3
72
22
73
18
40
0
40
0
40
0
40
0
40
0.127532235223496
40
0.127532235223496
40
0.302549617790628
40
0.302549617790628
40
0.405088740613099
40
0.405088740613099
40
0.492466376867227
40
0.492466376867227
40
0.605750570722508
40
0.605750570722508
40
0.782748597573882
40
0.782748597573882
40
0.902043676086596
40
0.902043676086596
40
1
40
1
40
1
40
1
41
1
10
113.561124288931
20
-9.21700329049222
30
0
41
1
10
113.54498933454
20
-9.29428672572791
30
0
41
1
10
113.53898989561
20
-9.40382651499928
30
0
41
1
10
113.527272152435
20
-9.70253032837383
30
0
41
1
10
113.524265555221
20
-9.91174341305
30
0
41
1
10
113.474349088669
20
-10.2609276763046
30
0
41
1
10
113.444651448771
20
-10.3970222812275
30
0
41
1
10
113.346123327579
20
-10.639217742638
30
0
41
1
10
113.281392162046
20
-10.7481879667737
30
0
41
1
10
113.10044819476
20
-10.9715457564111
30
0
41
1
10
112.974666562736
20
-11.0824830836882
30
0
41
1
10
112.649959670174
20
-11.3417343312155
30
0
41
1
10
112.441641075903
20
-11.4852026237745
30
0
41
1
10
112.141103358485
20
-11.7253887425268
30
0
41
1
10
112.030021105488
20
-11.8237897649177
30
0
41
1
10
111.875900683805
20
-12.0029480461387
30
0
41
1
10
111.823081607974
20
-12.0856254919625
30
0
41
1
10
111.796911411308
20
-12.1667248067938
30
0
0
SPLINE
5
22E
100
AcDbEntity
8
1
62
256
6
ByLayer
370
-1
48
1
60
0
100
AcDbSpline
70
4
71
3
72
8
73
4
40
0
40
0
40
0
40
0
40
1
40
1
40
1
40
1
41
1
10
109.70118148018
20
-15.6825929147323
30
0
41
1
10
109.691144267069
20
-15.6823153975588
30
0
41
1
10
109.684115742237
20
-15.6857426506838
30
0
41
1
10
109.680238379218
20
-15.6923307616818
30
0
0
SPLINE
5
22F
100
AcDbEntity
8
1
62
256
6
ByLayer
370
-1
48
1
60
0
100
AcDbSpline
70
4
71
3
72
10
73
6
40
0
40
0
40
0
40
0
40
0.0020990820082166
40
0.0020990820082166
40
1
40
1
40
1
40
1
41
1
10
109.677076687229
20
-15.714117378583
30
0
41
1
10
109.677081543457
20
-15.7141599784797
30
0
41
1
10
109.67708644588
20
-15.7142026168882
30
0
41
1
10
109.679453639795
20
-15.7346172746564
30
0
41
1
10
109.692418442611
20
-15.7642436580758
30
0
41
1
10
109.71309096084
20
-15.8036329350258
30
0
0
SPLINE
5
230
100
AcDbEntity
8
1
62
256
6
ByLayer
370
-1
48
1
60
0
100
AcDbSpline
70
4
71
3
72
8
73
4
40
0
40
0
40
0
40
0
40
1
40
1
40
1
40
1
41
1
10
95.7556442324404
20
-4.90685187455887
30
0
41
1
10
95.6413170636475
20
-5.11915327249429
30
0
41
1
10
95.5215865052082
20
-5.32905558549405
30
0
41
1
10
95.3969879077135
20
-5.53679650723234
30
0
0
SPLINE
5
231
100
AcDbEntity
8
1
62
256
6
ByLayer
370
-1
48
1
60
0
100
AcDbSpline
70
4
71
3
72
12
73
8
40
0
40
0
40
0
40
0
40
0.354927666587533
40
0.354927666587533
40
0.710381765949673
40
0.710381765949673
40
1
40
1
40
1
40
1
41
1
10
109.71309096084
20
-15.8036329350258
30
0
41
1
10
109.743050350461
20
-15.8607173541528
30
0
41
1
10
109.792098746644
20
-15.9371267758655
30
0
41
1
10
109.918249411645
20
-16.1157486317914
30
0
41
1
10
109.997148745305
20
-16.2205483586697
30
0
41
1
10
110.156520912786
20
-16.4244481364559
30
0
41
1
10
110.23545547825
20
-16.5229156568115
30
0
41
1
10
110.317150342101
20
-16.6229681082339
30
0
0
SPLINE
5
232
100
AcDbEntity
8
1
62
256
6
ByLayer
370
-1
48
1
60
0
100
AcDbSpline
70
4
71
3
72
8
73
4
40
0
40
0
40
0
40
0
40
1
40
1
40
1
40
1
41
1
10
95.3969879077137
20
5.53679650723231
30
0
41
1
10
95.5208810983703
20
5.33023169718146
30
0
41
1
10
95.6406391079274
20
5.12041221163076
30
0
41
1
10
95.7556442324405
20
4.90685187455892
30
0
0
SPLINE
5
233
100
AcDbEntity
8
1
62
256
6
ByLayer
370
-1
48
1
60
0
100
AcDbSpline
70
4
71
3
72
8
73
4
40
0
40
0
40
0
40
0
40
1
40
1
40
1
40
1
41
1
10
111.624657206043
20
-18.2381473295319
30
0
41
1
10
111.689611610264
20
-18.3160184070142
30
0
41
1
10
111.760202520118
20
-18.393583000775
30
0
41
1
10
111.836182635577
20
-18.4707522675081
30
0
0
SPLINE
5
234
100
AcDbEntity
8
1
62
256
6
ByLayer
370
-1
48
1
60
0
100
AcDbSpline
70
4
71
3
72
10
73
6
40
0
40
0
40
0
40
0
40
0.379655348881648
40
0.379655348881648
40
1
40
1
40
1
40
1
41
1
10
109.226350608474
20
4.58467283456517
30
0
41
1
10
109.211652250814
20
4.57664651484595
30
0
41
1
10
109.196290889441
20
4.56968890354688
30
0
41
1
10
109.15482479308
20
4.55533473034578
30
0
41
1
10
109.127388646323
20
4.55034339363522
30
0
41
1
10
109.100255406345
20
4.55034339363522
30
0
0
SPLINE
5
235
100
AcDbEntity
8
1
62
256
6
ByLayer
370
-1
48
1
60
0
100
AcDbSpline
70
4
71
3
72
10
73
6
40
0
40
0
40
0
40
0
40
0.771991567485711
40
0.771991567485711
40
1
40
1
40
1
40
1
41
1
10
109.100255406345
20
-15.1529071213493
30
0
41
1
10
109.301014046494
20
-15.2277538301508
30
0
41
1
10
109.461117672328
20
-15.3661623350151
30
0
41
1
10
109.631414859417
20
-15.5771114674043
30
0
41
1
10
109.667821935181
20
-15.6284280061135
30
0
41
1
10
109.701181480178
20
-15.6825929147317
30
0
0
SPLINE
5
236
100
AcDbEntity
8
1
62
256
6
ByLayer
370
-1
48
1
60
0
100
AcDbSpline
70
4
71
3
72
8
73
4
40
0
40
0
40
0
40
0
40
1
40
1
40
1
40
1
41
1
10
95.396987908782
20
-13.51075
30
0
41
1
10
95.5176189547605
20
-13.51075
30
0
41
1
10
95.6372026184279
20
-13.51075
30
0
41
1
10
95.7556442324402
20
-13.51075
30
0
0
SPLINE
5
237
100
AcDbEntity
8
1
62
256
6
ByLayer
370
-1
48
1
60
0
100
AcDbSpline
70
4
71
3
72
12
73
8
40
0
40
0
40
0
40
0
40
0.537051967510251
40
0.537051967510251
40
0.778845724343518
40
0.778845724343518
40
1
40
1
40
1
40
1
41
1
10
95.7556442324401
20
-13.51075
30
0
41
1
10
95.8106541838987
20
-13.51075
30
0
41
1
10
95.8751580230638
20
-13.51075
30
0
41
1
10
95.9814960425254
20
-13.51075
30
0
41
1
10
96.0170486429645
20
-13.51075
30
0
41
1
10
96.0868521874326
20
-13.51075
30
0
41
1
10
96.1213682321987
20
-13.51075
30
0
41
1
10
96.155644230389
20
-13.51075
30
0
0
SPLINE
5
238
100
AcDbEntity
8
1
62
256
6
ByLayer
370
-1
48
1
60
0
100
AcDbSpline
70
4
71
3
72
16
73
12
40
0
40
0
40
0
40
0
40
0.0245125894009923
40
0.0245125894009923
40
0.169261217007154
40
0.169261217007154
40
0.376354297151731
40
0.376354297151731
40
0.761641984949977
40
0.761641984949977
40
1
40
1
40
1
40
1
41
1
10
96.1556442303889
20
-4.55034339363536
30
0
41
1
10
96.1510177158291
20
-4.55034339363536
30
0
41
1
10
96.146389154644
20
-4.55048188682994
30
0
41
1
10
96.1147499534678
20
-4.55237209451917
30
0
41
1
10
96.087756185481
20
-4.55890526279353
30
0
41
1
10
96.0267957898957
20
-4.58339374317509
30
0
41
1
10
95.9936864782039
20
-4.60512115534394
30
0
41
1
10
95.909103686811
20
-4.67586104486676
30
0
41
1
10
95.8635726063283
20
-4.73315752937233
30
0
41
1
10
95.7991947268237
20
-4.82958623572941
30
0
41
1
10
95.7766507992957
20
-4.86784344323723
30
0
41
1
10
95.7556442324299
20
-4.90685187455435
30
0
0
SPLINE
5
239
100
AcDbEntity
8
1
62
256
6
ByLayer
370
-1
48
1
60
0
100
AcDbSpline
70
4
71
3
72
8
73
4
40
0
40
0
40
0
40
0
40
1
40
1
40
1
40
1
41
1
10
110.317150342101
20
-16.622968108234
30
0
41
1
10
110.821386825357
20
-17.2405111686958
30
0
41
1
10
111.327950383059
20
-17.8562803154896
30
0
41
1
10
111.836182635577
20
-18.4707522675081
30
0
0
SPLINE
5
23A
100
AcDbEntity
8
1
62
256
6
ByLayer
370
-1
48
1
60
0
100
AcDbSpline
70
4
71
3
72
10
73
6
40
0
40
0
40
0
40
0
40
0.5
40
0.5
40
1
40
1
40
1
40
1
41
1
10
95.7556442324405
20
4.90685187455892
30
0
41
1
10
95.7997192180244
20
4.82500622796195
30
0
41
1
10
95.8501838565784
20
4.7452848532954
30
0
41
1
10
95.9783909103534
20
4.60899508087371
30
0
41
1
10
96.0622188434792
20
4.55034339363556
30
0
41
1
10
96.1556442303889
20
4.55034339363539
30
0
0
SPLINE
5
23B
100
AcDbEntity
8
1
62
256
6
ByLayer
370
-1
48
1
60
0
100
AcDbSpline
70
4
71
3
72
8
73
4
40
0
40
0
40
0
40
0
40
1
40
1
40
1
40
1
41
1
10
114.453636460844
20
-13.234868791676
30
0
41
1
10
114.531372581754
20
-13.4583146833964
30
0
41
1
10
114.608131286512
20
-13.6778338688839
30
0
41
1
10
114.683792364346
20
-13.8939576553307
30
0
0
SPLINE
5
23C
100
AcDbEntity
8
1
62
256
6
ByLayer
370
-1
48
1
60
0
100
AcDbSpline
70
4
71
3
72
8
73
4
40
0
40
0
40
0
40
0
40
1
40
1
40
1
40
1
41
1
10
128.004580085623
20
-6.89538586892979
30
0
41
1
10
128.008769799718
20
-6.89916771366217
30
0
41
1
10
128.012959605679
20
-6.90294952882877
30
0
41
1
10
128.017149499176
20
-6.90673131582116
30
0
0
SPLINE
5
23D
100
AcDbEntity
8
1
62
256
6
ByLayer
370
-1
48
1
60
0
100
AcDbSpline
70
4
71
3
72
16
73
12
40
0
40
0
40
0
40
0
40
0.0023448809042135
40
0.0023448809042135
40
0.24476977579918
40
0.24476977579918
40
0.487038716339446
40
0.487038716339446
40
0.973677497833935
40
0.973677497833935
40
1
40
1
40
1
40
1
41
1
10
128.045481054748
20
-4.88618122469424
30
0
41
1
10
128.045506005083
20
-4.88617006859781
30
0
41
1
10
128.045530925494
20
-4.88615898835968
30
0
41
1
10
128.048130383555
20
-4.88500972316072
30
0
41
1
10
128.050393917598
20
-4.88467817164675
30
0
41
1
10
128.054419821861
20
-4.88537664417595
30
0
41
1
10
128.056186520023
20
-4.88640776218176
30
0
41
1
10
128.060866147013
20
-4.89130849850977
30
0
41
1
10
128.063175694685
20
-4.8969893827686
30
0
41
1
10
128.064855773944
20
-4.90518470559795
30
0
41
1
10
128.064940061935
20
-4.90561258721499
30
0
41
1
10
128.065022207045
20
-4.9060467385732
30
0
0
SPLINE
5
23E
100
AcDbEntity
8
1
62
256
6
ByLayer
370
-1
48
1
60
0
100
AcDbSpline
70
4
71
3
72
22
73
18
40
0
40
0
40
0
40
0
40
0.208266363443159
40
0.208266363443159
40
0.317899168105885
40
0.317899168105885
40
0.427584739862259
40
0.427584739862259
40
0.537377253733412
40
0.537377253733412
40
0.647402228731401
40
0.647402228731401
40
0.811583680502523
40
0.811583680502523
40
0.906636022131689
40
0.906636022131689
40
1
40
1
40
1
40
1
41
1
10
128.065022207045
20
-4.9060467385732
30
0
41
1
10
128.066454585216
20
-4.91361710926446
30
0
41
1
10
128.067253099998
20
-4.92310131383351
30
0
41
1
10
128.067332732673
20
-4.94050712527334
30
0
41
1
10
128.067150063395
20
-4.94706661553013
30
0
41
1
10
128.06627995319
20
-4.96133098715924
30
0
41
1
10
128.065592068356
20
-4.96905163177078
30
0
41
1
10
128.063571821067
20
-4.98575066265849
30
0
41
1
10
128.062236915807
20
-4.994756531002
30
0
41
1
10
128.05869609691
20
-5.01418155335037
30
0
41
1
10
128.05648050497
20
-5.02465682785223
30
0
41
1
10
128.049480554814
20
-5.0524996244942
30
0
41
1
10
128.043837796686
20
-5.07129396781397
30
0
41
1
10
128.03166882571
20
-5.10279804985646
30
0
41
1
10
128.026369865482
20
-5.11502430780857
30
0
41
1
10
128.014655377692
20
-5.13864189196013
30
0
41
1
10
128.008105508881
20
-5.15032651949846
30
0
41
1
10
128.001382800331
20
-5.16092300085043
30
0
0
SPLINE
5
23F
100
AcDbEntity
8
1
62
256
6
ByLayer
370
-1
48
1
60
0
100
AcDbSpline
70
4
71
3
72
8
73
4
40
0
40
0
40
0
40
0
40
1
40
1
40
1
40
1
41
1
10
128.010735144036
20
-5.63886012685452
30
0
41
1
10
128.014980300259
20
-5.63585429163791
30
0
41
1
10
128.019225547907
20
-5.63284848102666
30
0
41
1
10
128.023470882667
20
-5.62984269386251
30
0
0
SPLINE
5
240
100
AcDbEntity
8
1
62
256
6
ByLayer
370
-1
48
1
60
0
100
AcDbSpline
70
4
71
3
72
10
73
6
40
0
40
0
40
0
40
0
40
0.425586067181371
40
0.425586067181371
40
1
40
1
40
1
40
1
41
1
10
128.016411353721
20
-6.26737305535983
30
0
41
1
10
128.00859906551
20
-6.26811780847109
30
0
41
1
10
128.000791080648
20
-6.27133125445923
30
0
41
1
10
127.983542317044
20
-6.2827108267426
30
0
41
1
10
127.974214207995
20
-6.29226898552758
30
0
41
1
10
127.965728316024
20
-6.30350688193602
30
0
0
SPLINE
5
241
100
AcDbEntity
8
1
62
256
6
ByLayer
370
-1
48
1
60
0
100
AcDbSpline
70
4
71
3
72
10
73
6
40
0
40
0
40
0
40
0
40
0.747052175315808
40
0.747052175315808
40
1
40
1
40
1
40
1
41
1
10
127.970893256466
20
-6.85152610305704
30
0
41
1
10
127.978578580998
20
-6.86458610540424
30
0
41
1
10
127.986891685742
20
-6.87654835986763
30
0
41
1
10
127.998504104739
20
-6.88955711635469
30
0
41
1
10
128.001533385105
20
-6.89263576521259
30
0
41
1
10
128.004580085623
20
-6.89538586892974
30
0
0
SPLINE
5
242
100
AcDbEntity
8
1
62
256
6
ByLayer
370
-1
48
1
60
0
100
AcDbSpline
70
4
71
3
72
8
73
4
40
0
40
0
40
0
40
0
40
1
40
1
40
1
40
1
41
1
10
128.029217505229
20
-6.26615226944671
30
0
41
1
10
128.024948699691
20
-6.26655919434168
30
0
41
1
10
128.020679981087
20
-6.26696612291877
30
0
41
1
10
128.016411353721
20
-6.26737305535983
30
0
0
SPLINE
5
243
100
AcDbEntity
8
1
62
256
6
ByLayer
370
-1
48
1
60
0
100
AcDbSpline
70
4
71
3
72
24
73
20
40
0
40
0
40
0
40
0
40
0.104000448201621
40
0.104000448201621
40
0.192499055460708
40
0.192499055460708
40
0.328500518746391
40
0.328500518746391
40
0.438682575664963
40
0.438682575664963
40
0.548533158171338
40
0.548533158171338
40
0.658237202769313
40
0.658237202769313
40
0.767870673660385
40
0.767870673660385
40
0.988088331633615
40
0.988088331633615
40
1
40
1
40
1
40
1
41
1
10
128.023470882667
20
-5.62984269386251
30
0
41
1
10
128.031260649093
20
-5.62544306241108
30
0
41
1
10
128.039032127921
20
-5.62367095624785
30
0
41
1
10
128.05190007728
20
-5.62559738477918
30
0
41
1
10
128.057386122574
20
-5.62849644231588
30
0
41
1
10
128.069630363555
20
-5.6395033547455
30
0
41
1
10
128.075758340907
20
-5.64964586641622
30
0
41
1
10
128.084919602754
20
-5.67101222671229
30
0
41
1
10
128.088394954758
20
-5.68183409641878
30
0
41
1
10
128.094368991849
20
-5.70482174046867
30
0
41
1
10
128.096887677135
20
-5.71705876172175
30
0
41
1
10
128.10121093519
20
-5.74243142569077
30
0
41
1
10
128.103022755444
20
-5.75561352724841
30
0
41
1
10
128.106088554256
20
-5.7826169468529
30
0
41
1
10
128.107345686941
20
-5.79647110150952
30
0
41
1
10
128.110423962685
20
-5.83880861704603
30
0
41
1
10
128.111566348608
20
-5.86814224360674
30
0
41
1
10
128.111942546467
20
-5.89957591387937
30
0
41
1
10
128.111959539858
20
-5.90119468617476
30
0
41
1
10
128.111974174268
20
-5.90281511890799
30
0
0
SPLINE
5
244
100
AcDbEntity
8
1
62
256
6
ByLayer
370
-1
48
1
60
0
100
AcDbSpline
70
4
71
3
72
22
73
18
40
0
40
0
40
0
40
0
40
0.208266363442404
40
0.208266363442404
40
0.31789916810515
40
0.31789916810515
40
0.427584739861528
40
0.427584739861528
40
0.537377253732722
40
0.537377253732722
40
0.647402228730682
40
0.647402228730682
40
0.811583680502288
40
0.811583680502288
40
0.906636022131561
40
0.906636022131561
40
1
40
1
40
1
40
1
41
1
10
128.111974174268
20
-5.90281511890799
30
0
41
1
10
128.112229356954
20
-5.93107087865232
30
0
41
1
10
128.111781957691
20
-5.95991246728977
30
0
41
1
10
128.109876459711
20
-6.00420751337447
30
0
41
1
10
128.108991631129
20
-6.01958383706304
30
0
41
1
10
128.106688353076
20
-6.05033474033601
30
0
41
1
10
128.105267853311
20
-6.06574395381554
30
0
41
1
10
128.101756536857
20
-6.09639261238851
30
0
41
1
10
128.099660711685
20
-6.11168284061901
30
0
41
1
10
128.094578835001
20
-6.14179040529615
30
0
41
1
10
128.091578745315
20
-6.15669208660432
30
0
41
1
10
128.082636852894
20
-6.19219286234585
30
0
41
1
10
128.075803219816
20
-6.21271610389633
30
0
41
1
10
128.061918590476
20
-6.2390680556841
30
0
41
1
10
128.05601273457
20
-6.247603962309
30
0
41
1
10
128.043263592751
20
-6.26014060794265
30
0
41
1
10
128.036271695112
20
-6.26433779940695
30
0
41
1
10
128.029217505231
20
-6.26615226944651
30
0
0
SPLINE
5
245
100
AcDbEntity
8
1
62
256
6
ByLayer
370
-1
48
1
60
0
100
AcDbSpline
70
4
71
3
72
24
73
20
40
0
40
0
40
0
40
0
40
0.104000448201637
40
0.104000448201637
40
0.192499055460713
40
0.192499055460713
40
0.32850051874624
40
0.32850051874624
40
0.438682575664835
40
0.438682575664835
40
0.548533158171227
40
0.548533158171227
40
0.658237202769262
40
0.658237202769262
40
0.767870673660363
40
0.767870673660363
40
0.988088331633678
40
0.988088331633678
40
1
40
1
40
1
40
1
41
1
10
128.017149499176
20
-6.90673131582116
30
0
41
1
10
128.024772101805
20
-6.91474118781599
30
0
41
1
10
128.032223272875
20
-6.92524496412895
30
0
41
1
10
128.044280557453
20
-6.94716496931599
30
0
41
1
10
128.049301404029
20
-6.95843904644906
30
0
41
1
10
128.060252312047
20
-6.98764014533924
30
0
41
1
10
128.065472987409
20
-7.00636519834296
30
0
41
1
10
128.072942815841
20
-7.03948798973747
30
0
41
1
10
128.075629639354
20
-7.05430408784309
30
0
41
1
10
128.080017504113
20
-7.08322328423702
30
0
41
1
10
128.081733456574
20
-7.09742097231182
30
0
41
1
10
128.084453908746
20
-7.12508857385839
30
0
41
1
10
128.085462711731
20
-7.13860941105287
30
0
41
1
10
128.086931590985
20
-7.16492630603938
30
0
41
1
10
128.087392887976
20
-7.1777541182569
30
0
41
1
10
128.088100173391
20
-7.21520225339765
30
0
41
1
10
128.08767954188
20
-7.23885866780054
30
0
41
1
10
128.086454361002
20
-7.26209740236311
30
0
41
1
10
128.086389090234
20
-7.26328830299639
30
0
41
1
10
128.086321579534
20
-7.26447458437141
30
0
0
SPLINE
5
246
100
AcDbEntity
8
1
62
256
6
ByLayer
370
-1
48
1
60
0
100
AcDbSpline
70
4
71
3
72
22
73
18
40
0
40
0
40
0
40
0
40
0.208266363442531
40
0.208266363442531
40
0.31789916810532
40
0.31789916810532
40
0.427584739861723
40
0.427584739861723
40
0.537377253732964
40
0.537377253732964
40
0.647402228730988
40
0.647402228730988
40
0.811583680502223
40
0.811583680502223
40
0.906636022131511
40
0.906636022131511
40
1
40
1
40
1
40
1
41
1
10
128.086321579534
20
-7.26447458437141
30
0
41
1
10
128.085144384049
20
-7.2851599734245
30
0
41
1
10
128.08329620538
20
-7.30451439501886
30
0
41
1
10
128.07933845802
20
-7.33139392657711
30
0
41
1
10
128.077759271355
20
-7.34020644600687
30
0
41
1
10
128.074107334977
20
-7.35668206377002
30
0
41
1
10
128.072031005517
20
-7.36436402305256
30
0
41
1
10
128.067262086833
20
-7.37829752735314
30
0
41
1
10
128.064562398905
20
-7.38457235065147
30
0
41
1
10
128.058350465491
20
-7.39523191745187
30
0
41
1
10
128.054821075532
20
-7.39964482243235
30
0
41
1
10
128.044718867914
20
-7.40726266207548
30
0
41
1
10
128.037308517068
20
-7.40896096738172
30
0
41
1
10
128.022940320875
20
-7.40374660067164
30
0
41
1
10
128.016948283056
20
-7.4000297604168
30
0
41
1
10
128.004269851277
20
-7.38889154742446
30
0
41
1
10
127.997433276899
20
-7.38137265727744
30
0
41
1
10
127.990639479046
20
-7.37255885853401
30
0
0
SPLINE
5
247
100
AcDbEntity
8
1
62
256
6
ByLayer
370
-1
48
1
60
0
100
AcDbSpline
70
4
71
3
72
8
73
4
40
0
40
0
40
0
40
0
40
1
40
1
40
1
40
1
41
1
10
122.77440981588
20
-15.4146768146065
30
0
41
1
10
122.772344709894
20
-15.421946290488
30
0
41
1
10
122.770279617139
20
-15.4292157483897
30
0
41
1
10
122.768214537091
20
-15.4364851890225
30
0
0
SPLINE
5
248
100
AcDbEntity
8
1
62
256
6
ByLayer
370
-1
48
1
60
0
100
AcDbSpline
70
4
71
3
72
8
73
4
40
0
40
0
40
0
40
0
40
1
40
1
40
1
40
1
41
1
10
122.086841478975
20
-15.0596602820651
30
0
41
1
10
122.091298403319
20
-15.0537136212128
30
0
41
1
10
122.095755353288
20
-15.0477669502356
30
0
41
1
10
122.100212329938
20
-15.0418202687173
30
0
0
SPLINE
5
249
100
AcDbEntity
8
1
62
256
6
ByLayer
370
-1
48
1
60
0
100
AcDbSpline
70
4
71
3
72
22
73
18
40
0
40
0
40
0
40
0
40
0.0973712659846988
40
0.0973712659846988
40
0.180296832630688
40
0.180296832630688
40
0.307445080803245
40
0.307445080803245
40
0.411978418515275
40
0.411978418515275
40
0.516185210011648
40
0.516185210011648
40
0.620250145292677
40
0.620250145292677
40
0.829289859627286
40
0.829289859627286
40
1
40
1
40
1
40
1
41
1
10
122.768214537091
20
-15.4364851890225
30
0
41
1
10
122.762836530228
20
-15.4509419432892
30
0
41
1
10
122.754329473633
20
-15.4644896443184
30
0
41
1
10
122.734471728367
20
-15.4851551905776
30
0
41
1
10
122.723541170388
20
-15.4932017598891
30
0
41
1
10
122.693981389925
20
-15.5093033016704
30
0
41
1
10
122.673916387345
20
-15.5154829240303
30
0
41
1
10
122.636944265574
20
-15.5219804295405
30
0
41
1
10
122.619805363786
20
-15.5232081261083
30
0
41
1
10
122.585670230302
20
-15.5231658806383
30
0
41
1
10
122.568564244793
20
-15.5219003575807
30
0
41
1
10
122.534660144344
20
-15.5174884967881
30
0
41
1
10
122.517802034057
20
-15.5143341077316
30
0
41
1
10
122.467730958276
20
-15.5025857428672
30
0
41
1
10
122.43490985704
20
-15.4916957252858
30
0
41
1
10
122.377153906605
20
-15.4678644779019
30
0
41
1
10
122.35175703046
20
-15.4556001521085
30
0
41
1
10
122.32714195458
20
-15.4419870901184
30
0
0
SPLINE
5
24A
100
AcDbEntity
8
1
62
256
6
ByLayer
370
-1
48
1
60
0
100
AcDbSpline
70
4
71
3
72
24
73
20
40
0
40
0
40
0
40
0
40
0.0380198325536734
40
0.0380198325536734
40
0.246834654677224
40
0.246834654677224
40
0.404726505665306
40
0.404726505665306
40
0.526150637964499
40
0.526150637964499
40
0.621531995505043
40
0.621531995505043
40
0.776890538333112
40
0.776890538333112
40
0.873684213898907
40
0.873684213898907
40
0.971746172255821
40
0.971746172255821
40
1
40
1
40
1
40
1
41
1
10
122.32714195458
20
-15.4419870901184
30
0
41
1
10
122.321653635381
20
-15.4389518433519
30
0
41
1
10
122.316201912098
20
-15.4358477486315
30
0
41
1
10
122.281111522985
20
-15.4152849900928
30
0
41
1
10
122.252505858151
20
-15.3958260708969
30
0
41
1
10
122.205153005312
20
-15.3581033836464
30
0
41
1
10
122.185617255621
20
-15.3406321938867
30
0
41
1
10
122.153389275236
20
-15.3074583053526
30
0
41
1
10
122.140107206089
20
-15.2922235914459
30
0
41
1
10
122.118375585767
20
-15.2635158755174
30
0
41
1
10
122.109465814875
20
-15.2503168288714
30
0
41
1
10
122.088699301375
20
-15.2143494056194
30
0
41
1
10
122.078135586545
20
-15.1902208929195
30
0
41
1
10
122.068894574297
20
-15.1495615990172
30
0
41
1
10
122.067251987341
20
-15.1332633633667
30
0
41
1
10
122.069442228079
20
-15.1014835292297
30
0
41
1
10
122.073469157879
20
-15.0855808429969
30
0
41
1
10
122.082205341452
20
-15.0674608281541
30
0
41
1
10
122.084421172035
20
-15.0634791350576
30
0
41
1
10
122.086841478975
20
-15.0596602820651
30
0
0
SPLINE
5
24B
100
AcDbEntity
8
1
62
256
6
ByLayer
370
-1
48
1
60
0
100
AcDbSpline
70
4
71
3
72
8
73
4
40
0
40
0
40
0
40
0
40
1
40
1
40
1
40
1
41
1
10
124.226544006026
20
-15.0317559091539
30
0
41
1
10
124.231144489175
20
-15.0376597198758
30
0
41
1
10
124.235744948073
20
-15.0435635202977
30
0
41
1
10
124.240345383679
20
-15.0494673108263
30
0
0
SPLINE
5
24C
100
AcDbEntity
8
1
62
256
6
ByLayer
370
-1
48
1
60
0
100
AcDbSpline
70
4
71
3
72
34
73
30
40
0
40
0
40
0
40
0
40
0.0514465755209147
40
0.0514465755209147
40
0.135786144735414
40
0.135786144735414
40
0.203131635218875
40
0.203131635218875
40
0.270315608875097
40
0.270315608875097
40
0.337431278535956
40
0.337431278535956
40
0.404515897625557
40
0.404515897625557
40
0.499929883690833
40
0.499929883690833
40
0.599210771747882
40
0.599210771747882
40
0.69708301989393
40
0.69708301989393
40
0.780957226922491
40
0.780957226922491
40
0.847546414393044
40
0.847546414393044
40
0.898875235580158
40
0.898875235580158
40
0.980803570703359
40
0.980803570703359
40
1
40
1
40
1
40
1
41
1
10
123.552346520083
20
-15.4109946822293
30
0
41
1
10
123.547866160606
20
-15.3962889631539
30
0
41
1
10
123.540745224973
20
-15.3823056930333
30
0
41
1
10
123.517937333791
20
-15.3488759870027
30
0
41
1
10
123.499408023013
20
-15.3308827701157
30
0
41
1
10
123.463029376132
20
-15.3032802536404
30
0
41
1
10
123.445487450869
20
-15.2925057833317
30
0
41
1
10
123.40906603694
20
-15.2736708390449
30
0
41
1
10
123.390066535114
20
-15.2655472367999
30
0
41
1
10
123.351221611594
20
-15.251632457456
30
0
41
1
10
123.331290354282
20
-15.2458113802423
30
0
41
1
10
123.290915036613
20
-15.236292856273
30
0
41
1
10
123.270400786823
20
-15.2325795158958
30
0
41
1
10
123.22044697152
20
-15.2260274517386
30
0
41
1
10
123.190728496564
20
-15.2241934432283
30
0
41
1
10
123.130331002518
20
-15.224479316831
30
0
41
1
10
123.099467525514
20
-15.2267623030425
30
0
41
1
10
123.039209867528
20
-15.2356140205777
30
0
41
1
10
123.009598051844
20
-15.242146327894
30
0
41
1
10
122.956390141392
20
-15.2585130003227
30
0
41
1
10
122.932376281555
20
-15.2677889746872
30
0
41
1
10
122.891383166854
20
-15.2878714444373
30
0
41
1
10
122.873862019376
20
-15.2980249706247
30
0
41
1
10
122.844895186376
20
-15.3185209703752
30
0
41
1
10
122.832904880537
20
-15.3283429159507
30
0
41
1
10
122.804724051817
20
-15.3561543201389
30
0
41
1
10
122.789658554567
20
-15.3761243360765
30
0
41
1
10
122.777938265797
20
-15.4036597143999
30
0
41
1
10
122.775989348151
20
-15.4091166294039
30
0
41
1
10
122.77440981588
20
-15.4146768146065
30
0
0
SPLINE
5
24D
100
AcDbEntity
8
1
62
256
6
ByLayer
370
-1
48
1
60
0
100
AcDbSpline
70
4
71
3
72
8
73
4
40
0
40
0
40
0
40
0
40
1
40
1
40
1
40
1
41
1
10
123.558972325562
20
-15.4327423718504
30
0
41
1
10
123.556763734252
20
-15.4254931593718
30
0
41
1
10
123.554555132569
20
-15.4182439297336
30
0
41
1
10
123.552346520083
20
-15.4109946822293
30
0
0
SPLINE
5
24E
100
AcDbEntity
8
1
62
256
6
ByLayer
370
-1
48
1
60
0
100
AcDbSpline
70
4
71
3
72
22
73
18
40
0
40
0
40
0
40
0
40
0.0973712659847015
40
0.0973712659847015
40
0.180296832630745
40
0.180296832630745
40
0.307445080803258
40
0.307445080803258
40
0.411978418515307
40
0.411978418515307
40
0.516185210011725
40
0.516185210011725
40
0.620250145292741
40
0.620250145292741
40
0.829289859627324
40
0.829289859627324
40
1
40
1
40
1
40
1
41
1
10
124.240345383679
20
-15.0494673108263
30
0
41
1
10
124.248816949703
20
-15.0622955299346
30
0
41
1
10
124.254908649418
20
-15.0772826878415
30
0
41
1
10
124.260517804789
20
-15.1060407660418
30
0
41
1
10
124.260988997133
20
-15.1199798759908
30
0
41
1
10
124.257793009843
20
-15.154476149444
30
0
41
1
10
124.251869472408
20
-15.1752076033343
30
0
41
1
10
124.237042123169
20
-15.2106763536005
30
0
41
1
10
124.22874142818
20
-15.2261211391039
30
0
41
1
10
124.210195739435
20
-15.255507466464
30
0
41
1
10
124.199895093047
20
-15.269545820961
30
0
41
1
10
124.177921109701
20
-15.2963291302289
30
0
41
1
10
124.166208877189
20
-15.3091212227414
30
0
41
1
10
124.129455220346
20
-15.3458272611974
30
0
41
1
10
124.102726007405
20
-15.3681620211225
30
0
41
1
10
124.051776294799
20
-15.404973835888
30
0
41
1
10
124.027876773409
20
-15.4202075967532
30
0
41
1
10
124.003261697528
20
-15.4340536750476
30
0
0
SPLINE
5
24F
100
AcDbEntity
8
1
62
256
6
ByLayer
370
-1
48
1
60
0
100
AcDbSpline
70
4
71
3
72
24
73
20
40
0
40
0
40
0
40
0
40
0.0380198325536473
40
0.0380198325536473
40
0.246834654677154
40
0.246834654677154
40
0.404726505665271
40
0.404726505665271
40
0.526150637964491
40
0.526150637964491
40
0.621531995505034
40
0.621531995505034
40
0.776890538333121
40
0.776890538333121
40
0.873684213898907
40
0.873684213898907
40
0.97174617225578
40
0.97174617225578
40
1
40
1
40
1
40
1
41
1
10
124.003261697528
20
-15.4340536750476
30
0
41
1
10
123.997773378329
20
-15.4371408764724
30
0
41
1
10
123.992246802784
20
-15.4401600521624
30
0
41
1
10
123.95618482249
20
-15.4592826495897
30
0
41
1
10
123.924520028898
20
-15.4734367456593
30
0
41
1
10
123.867498841719
20
-15.4939151431576
30
0
41
1
10
123.842379974591
20
-15.5013414110251
30
0
41
1
10
123.797339993023
20
-15.5112391674505
30
0
41
1
10
123.777484325177
20
-15.5144732130569
30
0
41
1
10
123.741893780991
20
-15.5177029021253
30
0
41
1
10
123.726129012091
20
-15.5182478067398
30
0
41
1
10
123.685140490576
20
-15.5166634094125
30
0
41
1
10
123.659529265635
20
-15.5126603815982
30
0
41
1
10
123.621280692158
20
-15.4983650607595
30
0
41
1
10
123.607132451337
20
-15.4908156214165
30
0
41
1
10
123.582679700647
20
-15.4713110615961
30
0
41
1
10
123.572148539939
20
-15.4589501545667
30
0
41
1
10
123.56257907191
20
-15.4411739756496
30
0
41
1
10
123.560649743747
20
-15.4370042749241
30
0
41
1
10
123.558972325562
20
-15.4327423718504
30
0
0
SPLINE
5
250
100
AcDbEntity
8
1
62
256
6
ByLayer
370
-1
48
1
60
0
100
AcDbSpline
70
4
71
3
72
8
73
4
40
0
40
0
40
0
40
0
40
1
40
1
40
1
40
1
41
1
10
124.615512358127
20
-13.6269539773156
30
0
41
1
10
124.622249700513
20
-13.6266038097577
30
0
41
1
10
124.62898700663
20
-13.6262536670683
30
0
41
1
10
124.635724277914
20
-13.6259035482615
30
0
0
SPLINE
5
251
100
AcDbEntity
8
1
62
256
6
ByLayer
370
-1
48
1
60
0
100
AcDbSpline
70
4
71
3
72
34
73
30
40
0
40
0
40
0
40
0
40
0.0514465755209277
40
0.0514465755209277
40
0.135786144735372
40
0.135786144735372
40
0.203131635218859
40
0.203131635218859
40
0.270315608875109
40
0.270315608875109
40
0.337431278535969
40
0.337431278535969
40
0.404515897625577
40
0.404515897625577
40
0.499929883690834
40
0.499929883690834
40
0.599210771747841
40
0.599210771747841
40
0.69708301989396
40
0.69708301989396
40
0.780957226922506
40
0.780957226922506
40
0.847546414393046
40
0.847546414393046
40
0.898875235580172
40
0.898875235580172
40
0.980803570703425
40
0.980803570703425
40
1
40
1
40
1
40
1
41
1
10
124.615512358127
20
-14.3790492962802
30
0
41
1
10
124.601845082402
20
-14.3743469058739
30
0
41
1
10
124.587491364928
20
-14.3722136637962
30
0
41
1
10
124.550418312916
20
-14.3718491613794
30
0
41
1
10
124.527481074322
20
-14.3767736159444
30
0
41
1
10
124.488436449032
20
-14.3908826921195
30
0
41
1
10
124.471575113713
20
-14.3991438306356
30
0
41
1
10
124.439267774689
20
-14.4183550932174
30
0
41
1
10
124.4237147141
20
-14.4293677612226
30
0
41
1
10
124.393938593076
20
-14.4534758072903
30
0
41
1
10
124.379650519923
20
-14.4666248613139
30
0
41
1
10
124.352384842248
20
-14.4946236757712
30
0
41
1
10
124.339360397489
20
-14.5095224516082
30
0
41
1
10
124.30945906247
20
-14.5473101106406
30
0
41
1
10
124.293172970625
20
-14.5710411141706
30
0
41
1
10
124.262974223602
20
-14.62171598727
30
0
41
1
10
124.249086394609
20
-14.6489136045335
30
0
41
1
10
124.225173089337
20
-14.7046753380194
30
0
41
1
10
124.215011244586
20
-14.733399547013
30
0
41
1
10
124.200195589019
20
-14.7877692286169
30
0
41
1
10
124.194914552022
20
-14.8134324824606
30
0
41
1
10
124.189130357012
20
-14.8597244611537
30
0
41
1
10
124.187852296276
20
-14.8804281324028
30
0
41
1
10
124.188605413114
20
-14.9167960171525
30
0
41
1
10
124.189950979323
20
-14.9326214673932
30
0
41
1
10
124.196797438672
20
-14.9725212966355
30
0
41
1
10
124.204434420573
20
-14.9967713998363
30
0
41
1
10
124.219784265149
20
-15.0224674756405
30
0
41
1
10
124.223025246386
20
-15.027240276727
30
0
41
1
10
124.226544006026
20
-15.0317559091538
30
0
0
SPLINE
5
252
100
AcDbEntity
8
1
62
256
6
ByLayer
370
-1
48
1
60
0
100
AcDbSpline
70
4
71
3
72
8
73
4
40
0
40
0
40
0
40
0
40
1
40
1
40
1
40
1
41
1
10
124.635724277914
20
-14.386003516243
30
0
41
1
10
124.62898700663
20
-14.3836854333193
30
0
41
1
10
124.622249700513
20
-14.3813673598678
30
0
41
1
10
124.615512358127
20
-14.3790492962803
30
0
0
SPLINE
5
253
100
AcDbEntity
8
1
62
256
6
ByLayer
370
-1
48
1
60
0
100
AcDbSpline
70
4
71
3
72
22
73
18
40
0
40
0
40
0
40
0
40
0.0973712659846718
40
0.0973712659846718
40
0.180296832630705
40
0.180296832630705
40
0.307445080803134
40
0.307445080803134
40
0.411978418515137
40
0.411978418515137
40
0.516185210011529
40
0.516185210011529
40
0.620250145292554
40
0.620250145292554
40
0.829289859627105
40
0.829289859627105
40
1
40
1
40
1
40
1
41
1
10
124.635724277914
20
-13.6259035482615
30
0
41
1
10
124.649719533044
20
-13.6263368008029
30
0
41
1
10
124.664462918889
20
-13.6298231467986
30
0
41
1
10
124.690167932405
20
-13.6412856035433
30
0
41
1
10
124.701670601316
20
-13.6486064081877
30
0
41
1
10
124.728257879337
20
-13.6701640394957
30
0
41
1
10
124.742509710293
20
-13.686277838123
30
0
41
1
10
124.764819271815
20
-13.7175812814164
30
0
41
1
10
124.773719742681
20
-13.7326795710034
30
0
41
1
10
124.789415447365
20
-13.7636120021219
30
0
41
1
10
124.796265132731
20
-13.7795434959266
30
0
41
1
10
124.808270975555
20
-13.8118103845082
30
0
41
1
10
124.813448349767
20
-13.8282026236986
30
0
41
1
10
124.826845674547
20
-13.8777879052807
30
0
41
1
10
124.832971794016
20
-13.9114971441175
30
0
41
1
10
124.839816071385
20
-13.9726785660189
30
0
41
1
10
124.841321569002
20
-14.0002918956418
30
0
41
1
10
124.841321569002
20
-14.0277510359262
30
0
0
SPLINE
5
254
100
AcDbEntity
8
1
62
256
6
ByLayer
370
-1
48
1
60
0
100
AcDbSpline
70
4
71
3
72
24
73
20
40
0
40
0
40
0
40
0
40
0.0380198325534591
40
0.0380198325534591
40
0.246834654677001
40
0.246834654677001
40
0.404726505665118
40
0.404726505665118
40
0.526150637964355
40
0.526150637964355
40
0.621531995504969
40
0.621531995504969
40
0.776890538333095
40
0.776890538333095
40
0.873684213898933
40
0.873684213898933
40
0.971746172255919
40
0.971746172255919
40
1
40
1
40
1
40
1
41
1
10
124.841321569002
20
-14.0277510359262
30
0
41
1
10
124.841321569002
20
-14.0338734841175
30
0
41
1
10
124.841246305988
20
-14.0399909413057
30
0
41
1
10
124.840269376096
20
-14.0796007404396
30
0
41
1
10
124.837193605208
20
-14.1129782257174
30
0
41
1
10
124.82747016988
20
-14.1703994862514
30
0
41
1
10
124.821854773073
20
-14.1948401057077
30
0
41
1
10
124.80896495456
20
-14.2368104303553
30
0
41
1
10
124.802350464362
20
-14.2547004673852
30
0
41
1
10
124.788401162269
20
-14.2853587822262
30
0
41
1
10
124.781500238395
20
-14.2984527614517
30
0
41
1
10
124.761136735728
20
-14.3308332651098
30
0
41
1
10
124.745978909236
20
-14.3493974824607
30
0
41
1
10
124.716736817062
20
-14.3724422245104
30
0
41
1
10
124.70412533311
20
-14.3796932461579
30
0
41
1
10
124.6772419114
20
-14.3885657982875
30
0
41
1
10
124.662544877472
20
-14.390141161892
30
0
41
1
10
124.644053136736
20
-14.3878513461183
30
0
41
1
10
124.639865106592
20
-14.3870565951915
30
0
41
1
10
124.635724277914
20
-14.386003516243
30
0
0
SPLINE
5
255
100
AcDbEntity
8
1
62
256
6
ByLayer
370
-1
48
1
60
0
100
AcDbSpline
70
4
71
3
72
8
73
4
40
0
40
0
40
0
40
0
40
1
40
1
40
1
40
1
41
1
10
123.552346520083
20
-12.60507295093
30
0
41
1
10
123.554555132569
20
-12.5998344702518
30
0
41
1
10
123.556763734253
20
-12.5945960419308
30
0
41
1
10
123.558972325562
20
-12.5893576638929
30
0
0
SPLINE
5
256
100
AcDbEntity
8
1
62
256
6
ByLayer
370
-1
48
1
60
0
100
AcDbSpline
70
4
71
3
72
34
73
30
40
0
40
0
40
0
40
0
40
0.0514465755209135
40
0.0514465755209135
40
0.135786144735399
40
0.135786144735399
40
0.203131635218864
40
0.203131635218864
40
0.270315608875105
40
0.270315608875105
40
0.337431278535949
40
0.337431278535949
40
0.404515897625543
40
0.404515897625543
40
0.499929883690869
40
0.499929883690869
40
0.599210771747846
40
0.599210771747846
40
0.697083019893949
40
0.697083019893949
40
0.780957226922492
40
0.780957226922492
40
0.84754641439301
40
0.84754641439301
40
0.898875235580141
40
0.898875235580141
40
0.980803570703316
40
0.980803570703316
40
1
40
1
40
1
40
1
41
1
10
124.226544006025
20
-12.9779294968192
30
0
41
1
10
124.217211532169
20
-12.9858728016799
30
0
41
1
10
124.209833403654
20
-12.9956657912168
30
0
41
1
10
124.195207739137
20
-13.0236289174959
30
0
41
1
10
124.190591820982
20
-13.043602977472
30
0
41
1
10
124.187594233661
20
-13.080621430009
30
0
41
1
10
124.1881400878
20
-13.0977501720822
30
0
41
1
10
124.192012835335
20
-13.1323809606081
30
0
41
1
10
124.195351860736
20
-13.1499970136727
30
0
41
1
10
124.204233253062
20
-13.1853674912276
30
0
41
1
10
124.2097960268
20
-13.2031996030803
30
0
41
1
10
124.222772294888
20
-13.2388293775022
30
0
41
1
10
124.230208908777
20
-13.2566886988627
30
0
41
1
10
124.250166158135
20
-13.2996806534806
30
0
41
1
10
124.263570381831
20
-13.3248471355734
30
0
41
1
10
124.293769128854
20
-13.3752361350701
30
0
41
1
10
124.31077526364
20
-13.4005822343315
30
0
41
1
10
124.347239680987
20
-13.4491914812777
30
0
41
1
10
124.366778735667
20
-13.4726441527855
30
0
41
1
10
124.405388974224
20
-13.5137322054514
30
0
41
1
10
124.424243807933
20
-13.5318462602959
30
0
41
1
10
124.459708337333
20
-13.5616733203104
30
0
41
1
10
124.476078158759
20
-13.5740170951842
30
0
41
1
10
124.506045314991
20
-13.5933876022037
30
0
41
1
10
124.519497096031
20
-13.601031524613
30
0
41
1
10
124.554842192444
20
-13.6176177753514
30
0
41
1
10
124.577763519456
20
-13.6249951366459
30
0
41
1
10
124.605114490479
20
-13.6271304274419
30
0
41
1
10
124.610359184494
20
-13.6272218090691
30
0
41
1
10
124.615512358127
20
-13.6269539773155
30
0
0
SPLINE
5
257
100
AcDbEntity
8
1
62
256
6
ByLayer
370
-1
48
1
60
0
100
AcDbSpline
70
4
71
3
72
8
73
4
40
0
40
0
40
0
40
0
40
1
40
1
40
1
40
1
41
1
10
124.240345383679
20
-12.9661825708503
30
0
41
1
10
124.235744948073
20
-12.9700981691077
30
0
41
1
10
124.231144489175
20
-12.9740138105041
30
0
41
1
10
124.226544006025
20
-12.9779294968192
30
0
0
SPLINE
5
258
100
AcDbEntity
8
1
62
256
6
ByLayer
370
-1
48
1
60
0
100
AcDbSpline
70
4
71
3
72
22
73
18
40
0
40
0
40
0
40
0
40
0.097371265984664
40
0.097371265984664
40
0.180296832630695
40
0.180296832630695
40
0.307445080803182
40
0.307445080803182
40
0.411978418515197
40
0.411978418515197
40
0.516185210011616
40
0.516185210011616
40
0.620250145292572
40
0.620250145292572
40
0.829289859627142
40
0.829289859627142
40
1
40
1
40
1
40
1
41
1
10
123.558972325562
20
-12.5893576638929
30
0
41
1
10
123.564641696911
20
-12.5790244850258
30
0
41
1
10
123.573438012576
20
-12.5695705622326
30
0
41
1
10
123.593771983599
20
-12.5556448655804
30
0
41
1
10
123.604904378754
20
-12.5504548242829
30
0
41
1
10
123.634911128914
20
-12.5406790817739
30
0
41
1
10
123.655196863114
20
-12.5376233936076
30
0
41
1
10
123.692498562866
20
-12.5357902851724
30
0
41
1
10
123.709761992788
20
-12.5363249899075
30
0
41
1
10
123.744109646162
20
-12.5393749519541
30
0
41
1
10
123.761304324161
20
-12.5418957075122
30
0
41
1
10
123.795359876051
20
-12.5484510053469
30
0
41
1
10
123.812280979214
20
-12.552496909646
30
0
41
1
10
123.862511866679
20
-12.566507031034
30
0
41
1
10
123.895401430262
20
-12.5783659712759
30
0
41
1
10
123.953233459778
20
-12.6032739381637
30
0
41
1
10
123.978646621647
20
-12.6157687498857
30
0
41
1
10
124.003261697528
20
-12.6293818118758
30
0
0
SPLINE
5
259
100
AcDbEntity
8
1
62
256
6
ByLayer
370
-1
48
1
60
0
100
AcDbSpline
70
4
71
3
72
24
73
20
40
0
40
0
40
0
40
0
40
0.0380198325534835
40
0.0380198325534835
40
0.246834654677062
40
0.246834654677062
40
0.404726505665142
40
0.404726505665142
40
0.526150637964337
40
0.526150637964337
40
0.621531995504961
40
0.621531995504961
40
0.77689053833304
40
0.77689053833304
40
0.873684213898879
40
0.873684213898879
40
0.971746172255846
40
0.971746172255846
40
1
40
1
40
1
40
1
41
1
10
124.003261697528
20
-12.6293818118758
30
0
41
1
10
124.008750016727
20
-12.6324170586423
30
0
41
1
10
124.014200918505
20
-12.6355095269182
30
0
41
1
10
124.049280630197
20
-12.6559211717927
30
0
41
1
10
124.077853010773
20
-12.6749090310132
30
0
41
1
10
124.125095661634
20
-12.7110720698342
30
0
41
1
10
124.144566852585
20
-12.7276295832521
30
0
41
1
10
124.17663919831
20
-12.7586008311623
30
0
41
1
10
124.189839484459
20
-12.7726781001026
30
0
41
1
10
124.211390348322
20
-12.7988276357194
30
0
41
1
10
124.220208267484
20
-12.8107267382953
30
0
41
1
10
124.240691791679
20
-12.842689117014
30
0
41
1
10
124.251034873748
20
-12.8636950946446
30
0
41
1
10
124.259806824106
20
-12.8977159265191
30
0
41
1
10
124.261237750887
20
-12.9110186128495
30
0
41
1
10
124.258566649584
20
-12.9359930026125
30
0
41
1
10
124.254261832944
20
-12.9479628576477
30
0
41
1
10
124.245153471104
20
-12.9608155690915
30
0
41
1
10
124.242851897723
20
-12.9635837755924
30
0
41
1
10
124.240345383679
20
-12.9661825708503
30
0
0
SPLINE
5
25A
100
AcDbEntity
8
1
62
256
6
ByLayer
370
-1
48
1
60
0
100
AcDbSpline
70
4
71
3
72
30
73
26
40
0
40
0
40
0
40
0
40
0.0515194889309938
40
0.0515194889309938
40
0.0928771460762771
40
0.0928771460762771
40
0.148185150442087
40
0.148185150442087
40
0.203338923043129
40
0.203338923043129
40
0.287955708682484
40
0.287955708682484
40
0.372427214532375
40
0.372427214532375
40
0.435367147735117
40
0.435367147735117
40
0.498971020783032
40
0.498971020783032
40
0.701334348039121
40
0.701334348039121
40
0.838887327921509
40
0.838887327921509
40
0.925006664597283
40
0.925006664597283
40
1
40
1
40
1
40
1
41
1
10
121.711243977836
20
-14.392795788221
30
0
41
1
10
121.724620138342
20
-14.38796539574
30
0
41
1
10
121.73868316247
20
-14.3856976514544
30
0
41
1
10
121.763650165788
20
-14.3852086153362
30
0
41
1
10
121.774796231038
20
-14.3862616319623
30
0
41
1
10
121.800326605546
20
-14.3909691281301
30
0
41
1
10
121.814674414718
20
-14.395393821382
30
0
41
1
10
121.842431558419
20
-14.4066580816878
30
0
41
1
10
121.855936898361
20
-14.4135319036117
30
0
41
1
10
121.889016840603
20
-14.4332698675802
30
0
41
1
10
121.9081492436
20
-14.4474568442822
30
0
41
1
10
121.944363196083
20
-14.4789154513647
30
0
41
1
10
121.961564908327
20
-14.4962945696617
30
0
41
1
10
121.989832918079
20
-14.5287759161053
30
0
41
1
10
122.001388255128
20
-14.5433847897708
30
0
41
1
10
122.023455340246
20
-14.5739411914083
30
0
41
1
10
122.033983934217
20
-14.589942061094
30
0
41
1
10
122.074989907438
20
-14.6583637728431
30
0
41
1
10
122.100503211373
20
-14.7163306502158
30
0
41
1
10
122.128212999931
20
-14.8172578556833
30
0
41
1
10
122.135523141992
20
-14.860051356299
30
0
41
1
10
122.136535718056
20
-14.9288829504615
30
0
41
1
10
122.134260249148
20
-14.9557149173566
30
0
41
1
10
122.122307899452
20
-15.0029073918022
30
0
41
1
10
122.113336756466
20
-15.024309119164
30
0
41
1
10
122.100212329938
20
-15.0418202687174
30
0
0
SPLINE
5
25B
100
AcDbEntity
8
1
62
256
6
ByLayer
370
-1
48
1
60
0
100
AcDbSpline
70
4
71
3
72
8
73
4
40
0
40
0
40
0
40
0
40
1
40
1
40
1
40
1
41
1
10
121.691462584739
20
-14.3999393046539
30
0
41
1
10
121.698056344762
20
-14.3975581232522
30
0
41
1
10
121.70465014195
20
-14.395176950982
30
0
41
1
10
121.711243977836
20
-14.3927957882209
30
0
0
SPLINE
5
25C
100
AcDbEntity
8
1
62
256
6
ByLayer
370
-1
48
1
60
0
100
AcDbSpline
70
4
71
3
72
30
73
26
40
0
40
0
40
0
40
0
40
0.0511772287528608
40
0.0511772287528608
40
0.135075241067667
40
0.135075241067667
40
0.271834780652141
40
0.271834780652141
40
0.469061266910471
40
0.469061266910471
40
0.500636061959819
40
0.500636061959819
40
0.59980050248921
40
0.59980050248921
40
0.697557955314503
40
0.697557955314503
40
0.781333785463099
40
0.781333785463099
40
0.84784486982209
40
0.84784486982209
40
0.899113486931117
40
0.899113486931117
40
0.939077913069149
40
0.939077913069149
40
1
40
1
40
1
40
1
41
1
10
122.100212329938
20
-12.9879938563828
30
0
41
1
10
122.109253688576
20
-12.9958501941636
30
0
41
1
10
122.116341123745
20
-13.0055747152502
30
0
41
1
10
122.130245780886
20
-13.0334028017239
30
0
41
1
10
122.134445718365
20
-13.0533351344653
30
0
41
1
10
122.1378416384
20
-13.1071509512142
30
0
41
1
10
122.13252366761
20
-13.1431211488405
30
0
41
1
10
122.109391556542
20
-13.2305980434012
30
0
41
1
10
122.086560224758
20
-13.2839044854097
30
0
41
1
10
122.053561719086
20
-13.3435751558253
30
0
41
1
10
122.048796644923
20
-13.3518704485053
30
0
41
1
10
122.028482686687
20
-13.3859581957555
30
0
41
1
10
122.01153752545
20
-13.4114649933948
30
0
41
1
10
121.975313237368
20
-13.4604182907427
30
0
41
1
10
121.955952350185
20
-13.484055083575
30
0
41
1
10
121.917778078973
20
-13.5255065729163
30
0
41
1
10
121.899167266999
20
-13.543797960268
30
0
41
1
10
121.864213957017
20
-13.5739583222143
30
0
41
1
10
121.848097604959
20
-13.5864558607434
30
0
41
1
10
121.818624861515
20
-13.606107708877
30
0
41
1
10
121.805404898461
20
-13.6138778740666
30
0
41
1
10
121.78144325643
20
-13.6255570772117
30
0
41
1
10
121.77073535065
20
-13.6299658826718
30
0
41
1
10
121.743733581023
20
-13.6385017624286
30
0
41
1
10
121.727010997266
20
-13.6413869001701
30
0
41
1
10
121.711243977836
20
-13.6407004692563
30
0
0
SPLINE
5
25D
100
AcDbEntity
8
1
62
256
6
ByLayer
370
-1
48
1
60
0
100
AcDbSpline
70
4
71
3
72
8
73
4
40
0
40
0
40
0
40
0
40
1
40
1
40
1
40
1
41
1
10
121.711243977836
20
-13.6407004692562
30
0
41
1
10
121.70465014195
20
-13.6404134008719
30
0
41
1
10
121.698056344762
20
-13.6401263570012
30
0
41
1
10
121.691462584739
20
-13.6398393366724
30
0
0
SPLINE
5
25E
100
AcDbEntity
8
1
62
256
6
ByLayer
370
-1
48
1
60
0
100
AcDbSpline
70
4
71
3
72
24
73
20
40
0
40
0
40
0
40
0
40
0.0974021566269696
40
0.0974021566269696
40
0.18035403107536
40
0.18035403107536
40
0.307542616517296
40
0.307542616517296
40
0.412109117009829
40
0.412109117009829
40
0.516348967691198
40
0.516348967691198
40
0.620446917153912
40
0.620446917153912
40
0.724476829460634
40
0.724476829460634
40
0.933310901387115
40
0.933310901387115
40
1
40
1
40
1
40
1
41
1
10
121.691462584739
20
-13.6398393366724
30
0
41
1
10
121.677758694095
20
-13.640403694895
30
0
41
1
10
121.66330456732
20
-13.6440282386463
30
0
41
1
10
121.638075779561
20
-13.6557317754142
30
0
41
1
10
121.626774947825
20
-13.6631605136574
30
0
41
1
10
121.600634639502
20
-13.6849677153375
30
0
41
1
10
121.586603540166
20
-13.7012153828165
30
0
41
1
10
121.564623556625
20
-13.7327284575194
30
0
41
1
10
121.555847613893
20
-13.747910413161
30
0
41
1
10
121.540364429099
20
-13.778990420294
30
0
41
1
10
121.533603436222
20
-13.7949863362018
30
0
41
1
10
121.521749044838
20
-13.8273661601165
30
0
41
1
10
121.516634663504
20
-13.843807112276
30
0
41
1
10
121.507823797025
20
-13.8768949031112
30
0
41
1
10
121.504117782348
20
-13.8935790287985
30
0
41
1
10
121.494879931272
20
-13.9438334504059
30
0
41
1
10
121.491206012378
20
-13.9776877335306
30
0
41
1
10
121.489310906217
20
-14.0221219031161
30
0
41
1
10
121.489082083105
20
-14.032880629218
30
0
41
1
10
121.489082083105
20
-14.0436178660679
30
0
0
SPLINE
5
25F
100
AcDbEntity
8
1
62
256
6
ByLayer
370
-1
48
1
60
0
100
AcDbSpline
70
4
71
3
72
22
73
18
40
0
40
0
40
0
40
0
40
0.14205760874053
40
0.14205760874053
40
0.351004812994471
40
0.351004812994471
40
0.487763342943355
40
0.487763342943355
40
0.591529353510628
40
0.591529353510628
40
0.758694969228
40
0.758694969228
40
0.858776631809664
40
0.858776631809664
40
0.960359919518062
40
0.960359919518062
40
1
40
1
40
1
40
1
41
1
10
121.489082083105
20
-14.0436178660679
30
0
41
1
10
121.489082083105
20
-14.0664642613775
30
0
41
1
10
121.490114866162
20
-14.0892513568996
30
0
41
1
10
121.495293100101
20
-14.145000158319
30
0
41
1
10
121.500670935244
20
-14.1778865888978
30
0
41
1
10
121.514007833577
20
-14.2305937984338
30
0
41
1
10
121.520464520038
20
-14.2510949627368
30
0
41
1
10
121.534281449613
20
-14.2857835135522
30
0
41
1
10
121.541072783583
20
-14.3003568472097
30
0
41
1
10
121.561239869506
20
-14.3363187478414
30
0
41
1
10
121.576375965494
20
-14.3570491378519
30
0
41
1
10
121.605709685683
20
-14.3829026705661
30
0
41
1
10
121.618116168043
20
-14.3910628329014
30
0
41
1
10
121.644878529122
20
-14.4017118602691
30
0
41
1
10
121.659687730386
20
-14.4041574274973
30
0
41
1
10
121.679994217938
20
-14.4024925891908
30
0
41
1
10
121.685778326265
20
-14.4014700195088
30
0
41
1
10
121.691462584739
20
-14.3999393046539
30
0
0
SPLINE
5
260
100
AcDbEntity
8
1
62
256
6
ByLayer
370
-1
48
1
60
0
100
AcDbSpline
70
4
71
3
72
8
73
4
40
0
40
0
40
0
40
0
40
1
40
1
40
1
40
1
41
1
10
122.100212329938
20
-12.9879938563827
30
0
41
1
10
122.095755353288
20
-12.9841210408639
30
0
41
1
10
122.091298403319
20
-12.9802482700227
30
0
41
1
10
122.086841478975
20
-12.9763755420891
30
0
0
SPLINE
5
261
100
AcDbEntity
8
1
62
256
6
ByLayer
370
-1
48
1
60
0
100
AcDbSpline
70
4
71
3
72
34
73
30
40
0
40
0
40
0
40
0
40
0.0514465755209305
40
0.0514465755209305
40
0.135786144735405
40
0.135786144735405
40
0.203131635218894
40
0.203131635218894
40
0.270315608875128
40
0.270315608875128
40
0.337431278535981
40
0.337431278535981
40
0.404515897625574
40
0.404515897625574
40
0.499929883690891
40
0.499929883690891
40
0.59921077174791
40
0.59921077174791
40
0.697083019893964
40
0.697083019893964
40
0.780957226922487
40
0.780957226922487
40
0.847546414393044
40
0.847546414393044
40
0.898875235580171
40
0.898875235580171
40
0.980803570703407
40
0.980803570703407
40
1
40
1
40
1
40
1
41
1
10
122.77440981588
20
-12.6087550833072
30
0
41
1
10
122.778599060139
20
-12.6193407547659
30
0
41
1
10
122.785429302425
20
-12.6292099478746
30
0
41
1
10
122.807516186233
20
-12.6524354992358
30
0
41
1
10
122.825629516333
20
-12.6645414931708
30
0
41
1
10
122.86134494539
20
-12.6827577294196
30
0
41
1
10
122.878617399044
20
-12.689718466225
30
0
41
1
10
122.914556158231
20
-12.7017225738262
30
0
41
1
10
122.933340828386
20
-12.7068057417002
30
0
41
1
10
122.971810931565
20
-12.7154158253307
30
0
41
1
10
122.991581368037
20
-12.7189608637753
30
0
41
1
10
123.031689941891
20
-12.7247042597352
30
0
41
1
10
123.052097809397
20
-12.7269120104048
30
0
41
1
10
123.101861162852
20
-12.7307685374185
30
0
41
1
10
123.131523318976
20
-12.7318054860339
30
0
41
1
10
123.191920813022
20
-12.7315196124312
30
0
41
1
10
123.222845263576
20
-12.7300995626385
30
0
41
1
10
123.283343050827
20
-12.7246463070943
30
0
41
1
10
123.313133034007
20
-12.720635539439
30
0
41
1
10
123.366776911803
20
-12.7104389539917
30
0
41
1
10
123.391034793377
20
-12.7046165303579
30
0
41
1
10
123.432539127496
20
-12.6917691627507
30
0
41
1
10
123.450313744342
20
-12.6852028961875
30
0
41
1
10
123.47977499013
20
-12.6717041404776
30
0
41
1
10
123.491997113954
20
-12.6651630303902
30
0
41
1
10
123.520813559361
20
-12.6463472775707
30
0
41
1
10
123.536316752333
20
-12.6325718096958
30
0
41
1
10
123.548598716456
20
-12.6129856180027
30
0
41
1
10
123.550657224367
20
-12.6090796940882
30
0
41
1
10
123.552346520083
20
-12.60507295093
30
0
0
SPLINE
5
262
100
AcDbEntity
8
1
62
256
6
ByLayer
370
-1
48
1
60
0
100
AcDbSpline
70
4
71
3
72
8
73
4
40
0
40
0
40
0
40
0
40
1
40
1
40
1
40
1
41
1
10
122.768214537091
20
-12.593100481065
30
0
41
1
10
122.770279617139
20
-12.5983186309487
30
0
41
1
10
122.772344709894
20
-12.6035368310061
30
0
41
1
10
122.77440981588
20
-12.6087550833072
30
0
0
SPLINE
5
263
100
AcDbEntity
8
1
62
256
6
ByLayer
370
-1
48
1
60
0
100
AcDbSpline
70
4
71
3
72
22
73
18
40
0
40
0
40
0
40
0
40
0.0973712659846568
40
0.0973712659846568
40
0.180296832630702
40
0.180296832630702
40
0.307445080803159
40
0.307445080803159
40
0.411978418515182
40
0.411978418515182
40
0.516185210011543
40
0.516185210011543
40
0.620250145292568
40
0.620250145292568
40
0.829289859627083
40
0.829289859627083
40
1
40
1
40
1
40
1
41
1
10
122.086841478975
20
-12.9763755420892
30
0
41
1
10
122.078661277436
20
-12.9676708983805
30
0
41
1
10
122.072858836791
20
-12.9567775187094
30
0
41
1
10
122.067725907177
20
-12.9347592901162
30
0
41
1
10
122.067456552008
20
-12.9236767081812
30
0
41
1
10
122.071099508996
20
-12.8955062340003
30
0
41
1
10
122.077243778051
20
-12.8778987143035
30
0
41
1
10
122.092400705271
20
-12.8470943611124
30
0
41
1
10
122.100825928394
20
-12.8334119769119
30
0
41
1
10
122.119584137029
20
-12.8070333661284
30
0
41
1
10
122.129973475907
20
-12.7942502441319
30
0
41
1
10
122.152098910693
20
-12.769610371906
30
0
41
1
10
122.163874136083
20
-12.7577097946361
30
0
41
1
10
122.200787604609
20
-12.7232655127037
30
0
41
1
10
122.227585279897
20
-12.7018996754392
30
0
41
1
10
122.278611071584
20
-12.6661645801775
30
0
41
1
10
122.302526878699
20
-12.6511613052408
30
0
41
1
10
122.32714195458
20
-12.6373152269465
30
0
0
SPLINE
5
264
100
AcDbEntity
8
1
62
256
6
ByLayer
370
-1
48
1
60
0
100
AcDbSpline
70
4
71
3
72
24
73
20
40
0
40
0
40
0
40
0
40
0.0380198325534352
40
0.0380198325534352
40
0.246834654677045
40
0.246834654677045
40
0.404726505665082
40
0.404726505665082
40
0.526150637964435
40
0.526150637964435
40
0.621531995504967
40
0.621531995504967
40
0.776890538333109
40
0.776890538333109
40
0.873684213898855
40
0.873684213898855
40
0.971746172255737
40
0.971746172255737
40
1
40
1
40
1
40
1
41
1
10
122.32714195458
20
-12.6373152269465
30
0
41
1
10
122.332630273778
20
-12.6342280255217
30
0
41
1
10
122.338156027819
20
-12.6311972233872
30
0
41
1
10
122.374207330692
20
-12.6119235122958
30
0
41
1
10
122.405838840026
20
-12.5972983562508
30
0
41
1
10
122.462749825227
20
-12.575260310323
30
0
41
1
10
122.487804133614
20
-12.5669203661137
30
0
41
1
10
122.532688480523
20
-12.5548199690644
30
0
41
1
10
122.552462365372
20
-12.5504284784916
30
0
41
1
10
122.587872153098
20
-12.5446406091116
30
0
41
1
10
122.603545070268
20
-12.542795760427
30
0
41
1
10
122.644250602478
20
-12.540375113221
30
0
41
1
10
122.669641194658
20
-12.541255605966
30
0
41
1
10
122.707420706245
20
-12.5489124647768
30
0
41
1
10
122.721357286891
20
-12.5534663547997
30
0
41
1
10
122.745329177016
20
-12.5661654702461
30
0
41
1
10
122.755582450884
20
-12.5745935460779
30
0
41
1
10
122.764779740646
20
-12.587102421596
30
0
41
1
10
122.76662332601
20
-12.5900586357259
30
0
41
1
10
122.768214537091
20
-12.593100481065
30
0
0
SPLINE
5
265
100
AcDbEntity
8
1
62
256
6
ByLayer
370
-1
48
1
60
0
100
AcDbSpline
70
4
71
3
72
10
73
6
40
0
40
0
40
0
40
0
40
0.638091248905444
40
0.638091248905444
40
1
40
1
40
1
40
1
41
1
10
118.880633446743
20
-17.4678449382479
30
0
41
1
10
118.852597831287
20
-17.4574756514364
30
0
41
1
10
118.827831232653
20
-17.4463615524741
30
0
41
1
10
118.796095010705
20
-17.4309769815108
30
0
41
1
10
118.785862334452
20
-17.4257459290082
30
0
41
1
10
118.777217013951
20
-17.4214773545038
30
0
0
SPLINE
5
266
100
AcDbEntity
8
1
62
256
6
ByLayer
370
-1
48
1
60
0
100
AcDbSpline
70
4
71
3
72
10
73
6
40
0
40
0
40
0
40
0
40
0.722254617258735
40
0.722254617258735
40
1
40
1
40
1
40
1
41
1
10
118.880633446743
20
-17.4678449382479
30
0
41
1
10
118.930538123638
20
-17.4921615696966
30
0
41
1
10
118.985508725554
20
-17.5084741975072
30
0
41
1
10
119.062590163714
20
-17.5181415458613
30
0
41
1
10
119.084422801947
20
-17.5194861163459
30
0
41
1
10
119.106211794114
20
-17.5194494029737
30
0
0
SPLINE
5
267
100
AcDbEntity
8
1
62
256
6
ByLayer
370
-1
48
1
60
0
100
AcDbSpline
70
4
71
3
72
8
73
4
40
0
40
0
40
0
40
0
40
1
40
1
40
1
40
1
41
1
10
119.10719474597
20
-17.519575273687
30
0
41
1
10
119.106867448619
20
-17.5195334243282
30
0
41
1
10
119.106539796201
20
-17.5194914679193
30
0
41
1
10
119.106211794115
20
-17.5194494029736
30
0
0
SPLINE
5
268
100
AcDbEntity
8
1
62
256
6
ByLayer
370
-1
48
1
60
0
100
AcDbSpline
70
4
71
1
72
4
73
2
40
0
40
0
40
1
40
1
41
1.08358774580744
10
115.476823391484
20
-11.7031009888918
30
0
41
1.08358774580744
10
115.512561196097
20
-11.8772335187805
30
0
0
SPLINE
5
269
100
AcDbEntity
8
1
62
256
6
ByLayer
370
-1
48
1
60
0
100
AcDbSpline
70
4
71
3
72
12
73
8
40
0
40
0
40
0
40
0
40
0.404644073901364
40
0.404644073901364
40
0.809285947755725
40
0.809285947755725
40
1
40
1
40
1
40
1
41
1
10
118.612873699267
20
-17.0641123213662
30
0
41
1
10
118.612873699267
20
-17.1181595628662
30
0
41
1
10
118.622533894695
20
-17.1729180566476
30
0
41
1
10
118.659573456429
20
-17.274787942225
30
0
41
1
10
118.687463376176
20
-17.3233040845859
30
0
41
1
10
118.739068874512
20
-17.3854398474739
30
0
41
1
10
118.757454001514
20
-17.4042569846192
30
0
41
1
10
118.777217013953
20
-17.421477354506
30
0
0
SPLINE
5
26A
100
AcDbEntity
8
1
62
256
6
ByLayer
370
-1
48
1
60
0
100
AcDbSpline
70
4
71
3
72
14
73
10
40
0
40
0
40
0
40
0
40
0.249606055014944
40
0.249606055014944
40
0.499158243446911
40
0.499158243446911
40
0.746144217743562
40
0.746144217743562
40
1
40
1
40
1
40
1
41
1
10
120.282867821605
20
-10.2101808752032
30
0
41
1
10
120.267212745005
20
-10.2192168589608
30
0
41
1
10
120.251595084699
20
-10.2286483294173
30
0
41
1
10
120.221087954243
20
-10.2478900669254
30
0
41
1
10
120.206092228649
20
-10.2577670402324
30
0
41
1
10
120.177362508984
20
-10.2775263980755
30
0
41
1
10
120.163521697856
20
-10.2874732602233
30
0
41
1
10
120.136918469011
20
-10.307483883019
30
0
41
1
10
120.124104087609
20
-10.3176128890404
30
0
41
1
10
120.112229416391
20
-10.3275179825268
30
0
0
SPLINE
5
26B
100
AcDbEntity
8
1
62
256
6
ByLayer
370
-1
48
1
60
0
100
AcDbSpline
70
4
71
3
72
12
73
8
40
0
40
0
40
0
40
0
40
0.474376698371107
40
0.474376698371107
40
0.706219783413732
40
0.706219783413732
40
1
40
1
40
1
40
1
41
1
10
120.525521341396
20
-17.7760408293623
30
0
41
1
10
120.548027251386
20
-17.7834533540439
30
0
41
1
10
120.57405629961
20
-17.7939292726392
30
0
41
1
10
120.614731543351
20
-17.8126399652501
30
0
41
1
10
120.628608374487
20
-17.8193802989646
30
0
41
1
10
120.660368153907
20
-17.8355693298915
30
0
41
1
10
120.678497719144
20
-17.8453450375598
30
0
41
1
10
120.696485216158
20
-17.8555508083198
30
0
0
SPLINE
5
26C
100
AcDbEntity
8
1
62
256
6
ByLayer
370
-1
48
1
60
0
100
AcDbSpline
70
4
71
3
72
10
73
6
40
0
40
0
40
0
40
0
40
0.709495622816843
40
0.709495622816843
40
1
40
1
40
1
40
1
41
1
10
117.794600903516
20
-11.6665304348051
30
0
41
1
10
117.773802552595
20
-11.6809573743424
30
0
41
1
10
117.755080037533
20
-11.6975436074916
30
0
41
1
10
117.733818683946
20
-11.7223588983821
30
0
41
1
10
117.728116070741
20
-11.7298839475895
30
0
41
1
10
117.722980345486
20
-11.7376224350938
30
0
0
SPLINE
5
26D
100
AcDbEntity
8
1
62
256
6
ByLayer
370
-1
48
1
60
0
100
AcDbSpline
70
4
71
3
72
14
73
10
40
0
40
0
40
0
40
0
40
0.249606055014987
40
0.249606055014987
40
0.499158243446868
40
0.499158243446868
40
0.746144217743598
40
0.746144217743598
40
1
40
1
40
1
40
1
41
1
10
127.912818579706
20
-13.3455504838605
30
0
41
1
10
127.912833406859
20
-13.3282981019065
30
0
41
1
10
127.912874408918
20
-13.3114600655876
30
0
41
1
10
127.913005940546
20
-13.2793013371837
30
0
41
1
10
127.913096908618
20
-13.263868357939
30
0
41
1
10
127.913323755218
20
-13.2350491912627
30
0
41
1
10
127.913459912358
20
-13.2215478140882
30
0
41
1
10
127.9137776668
20
-13.1963948758897
30
0
41
1
10
127.913961528645
20
-13.1847175851102
30
0
41
1
10
127.914164514441
20
-13.1743607887027
30
0
0
SPLINE
5
26E
100
AcDbEntity
8
1
62
256
6
ByLayer
370
-1
48
1
60
0
100
AcDbSpline
70
4
71
3
72
12
73
8
40
0
40
0
40
0
40
0
40
0.47437669837107
40
0.47437669837107
40
0.706219783413752
40
0.706219783413752
40
1
40
1
40
1
40
1
41
1
10
121.015626764055
20
-9.80608433076611
30
0
41
1
10
120.992439371235
20
-9.81369625033958
30
0
41
1
10
120.965879368428
20
-9.82440165525963
30
0
41
1
10
120.924690696352
20
-9.84346958286201
30
0
41
1
10
120.910686950011
20
-9.85033158089931
30
0
41
1
10
120.878739758064
20
-9.86679861415658
30
0
41
1
10
120.860575447904
20
-9.87673269981283
30
0
41
1
10
120.842621958918
20
-9.88709530863383
30
0
0
SPLINE
5
26F
100
AcDbEntity
8
1
62
256
6
ByLayer
370
-1
48
1
60
0
100
AcDbSpline
70
4
71
3
72
10
73
6
40
0
40
0
40
0
40
0
40
0.709495622816723
40
0.709495622816723
40
1
40
1
40
1
40
1
41
1
10
127.915205898842
20
-10.6196308294668
30
0
41
1
10
127.91275343313
20
-10.5950728089116
30
0
41
1
10
127.906130941094
20
-10.5694576979036
30
0
41
1
10
127.892304309376
20
-10.5360319567916
30
0
41
1
10
127.887677828051
20
-10.5264343014397
30
0
41
1
10
127.882542102796
20
-10.5171583036374
30
0
0
SPLINE
5
270
100
AcDbEntity
8
1
62
256
6
ByLayer
370
-1
48
1
60
0
100
AcDbSpline
70
4
71
3
72
14
73
10
40
0
40
0
40
0
40
0
40
0.249606055015001
40
0.249606055015001
40
0.499158243446933
40
0.499158243446933
40
0.746144217743608
40
0.746144217743608
40
1
40
1
40
1
40
1
41
1
10
121.257299656253
20
-18.1737464755703
30
0
41
1
10
121.272984387161
20
-18.1826456997342
30
0
41
1
10
121.288684051586
20
-18.1919405087066
30
0
41
1
10
121.319454245296
20
-18.2109148462967
30
0
41
1
10
121.334631907035
20
-18.220660149995
30
0
41
1
10
121.363815319899
20
-18.240166788466
30
0
41
1
10
121.377928445308
20
-18.2499916661694
30
0
41
1
10
121.405167183036
20
-18.2697673352096
30
0
41
1
10
121.418349288129
20
-18.279782898641
30
0
41
1
10
121.430629930938
20
-18.2895825839837
30
0
0
SPLINE
5
271
100
AcDbEntity
8
1
62
256
6
ByLayer
370
-1
48
1
60
0
100
AcDbSpline
70
4
71
3
72
12
73
8
40
0
40
0
40
0
40
0
40
0.474376698371047
40
0.474376698371047
40
0.70621978341374
40
0.70621978341374
40
1
40
1
40
1
40
1
41
1
10
127.913308893501
20
-14.1699328000278
30
0
41
1
10
127.912968152087
20
-14.1392163969229
30
0
41
1
10
127.912702674795
20
-14.1058092078007
30
0
41
1
10
127.912445960628
20
-14.0562082848666
30
0
41
1
10
127.912382503025
20
-14.0396835784135
30
0
41
1
10
127.912288796761
20
-14.0027121161956
30
0
41
1
10
127.9122714243
20
-13.982202279396
30
0
41
1
10
127.912288428314
20
-13.9624169754141
30
0
0
SPLINE
5
272
100
AcDbEntity
8
1
62
256
6
ByLayer
370
-1
48
1
60
0
100
AcDbSpline
70
4
71
3
72
10
73
6
40
0
40
0
40
0
40
0
40
0.709495622816842
40
0.709495622816842
40
1
40
1
40
1
40
1
41
1
10
123.753803834968
20
-19.6064123582383
30
0
41
1
10
123.777054651599
20
-19.6165434392561
30
0
41
1
10
123.802166127392
20
-19.6219874249782
30
0
41
1
10
123.836803111354
20
-19.6236746442518
30
0
41
1
10
123.846983969744
20
-19.6234717072204
30
0
41
1
10
123.857100846915
20
-19.6226363932798
30
0
0
SPLINE
5
273
100
AcDbEntity
8
1
62
256
6
ByLayer
370
-1
48
1
60
0
100
AcDbSpline
70
4
71
2
72
6
73
3
40
0
40
0
40
0
40
1
40
1
40
1
41
0.500001283713107
10
124.771839904405
20
-19.5713690651681
30
0
41
0.499998716286893
10
124.772437331905
20
-19.57221291814
30
0
41
0.500001283713107
10
124.773033979457
20
-19.573057266447
30
0
0
SPLINE
5
274
100
AcDbEntity
8
1
62
256
6
ByLayer
370
-1
48
1
60
0
100
AcDbSpline
70
4
71
3
72
12
73
8
40
0
40
0
40
0
40
0
40
0.347623173836825
40
0.347623173836825
40
0.696503371294787
40
0.696503371294787
40
1
40
1
40
1
40
1
41
1
10
124.666619400719
20
-19.5202413776193
30
0
41
1
10
124.680667847678
20
-19.5196618326364
30
0
41
1
10
124.6949381549
20
-19.5213832799839
30
0
41
1
10
124.721773159958
20
-19.5294851155642
30
0
41
1
10
124.734717994909
20
-19.5360234807311
30
0
41
1
10
124.755834442797
20
-19.5520379631346
30
0
41
1
10
124.764651984386
20
-19.5612162890357
30
0
41
1
10
124.771839904405
20
-19.5713690651681
30
0
0
SPLINE
5
275
100
AcDbEntity
8
1
62
256
6
ByLayer
370
-1
48
1
60
0
100
AcDbSpline
70
4
71
3
72
24
73
20
40
0
40
0
40
0
40
0
40
0.0154450745970477
40
0.0154450745970477
40
0.0417985895668594
40
0.0417985895668594
40
0.0483972597877271
40
0.0483972597877271
40
0.102103855500592
40
0.102103855500592
40
0.185330321122056
40
0.185330321122056
40
0.354377449491638
40
0.354377449491638
40
0.535348727399443
40
0.535348727399443
40
0.66609150099733
40
0.66609150099733
40
1
40
1
40
1
40
1
41
1
10
121.643511077265
20
-16.9699914613254
30
0
41
1
10
121.641265230563
20
-16.9676806255588
30
0
41
1
10
121.638656978299
20
-16.9656542037167
30
0
41
1
10
121.631099383328
20
-16.9612070506699
30
0
41
1
10
121.625663481738
20
-16.9594055303532
30
0
41
1
10
121.618815819937
20
-16.9581167904758
30
0
41
1
10
121.617420058377
20
-16.957902261072
30
0
41
1
10
121.604801990842
20
-16.9563391443538
30
0
41
1
10
121.593271954699
20
-16.9574213713445
30
0
41
1
10
121.56491939855
20
-16.9624000888381
30
0
41
1
10
121.548117468079
20
-16.9676788661506
30
0
41
1
10
121.498589909594
20
-16.9859528473913
30
0
41
1
10
121.466809848098
20
-17.0015877638019
30
0
41
1
10
121.402569383633
20
-17.0359831363987
30
0
41
1
10
121.370161074521
20
-17.0551773085544
30
0
41
1
10
121.315213851776
20
-17.0894211538427
30
0
41
1
10
121.292427535879
20
-17.1041743754641
30
0
41
1
10
121.212187760204
20
-17.1575603767459
30
0
41
1
10
121.155798424211
20
-17.1976609144383
30
0
41
1
10
121.100190581291
20
-17.2386703754825
30
0
0
SPLINE
5
276
100
AcDbEntity
8
1
62
256
6
ByLayer
370
-1
48
1
60
0
100
AcDbSpline
70
4
71
3
72
18
73
14
40
0
40
0
40
0
40
0
40
0.4396773446057
40
0.4396773446057
40
0.819840138515281
40
0.819840138515281
40
0.920758376963037
40
0.920758376963037
40
0.968467673881576
40
0.968467673881576
40
0.990240013274133
40
0.990240013274133
40
1
40
1
40
1
40
1
41
1
10
121.801713610113
20
-17.9425840128712
30
0
41
1
10
121.857473842138
20
-17.8697113628993
30
0
41
1
10
121.911671839403
20
-17.7956161811196
30
0
41
1
10
122.005132546544
20
-17.6530858931328
30
0
41
1
10
122.047736928388
20
-17.5853959515042
30
0
41
1
10
122.082820811949
20
-17.4925064709322
30
0
41
1
10
122.08922693453
20
-17.4722536057686
30
0
41
1
10
122.092204674419
20
-17.4417288655493
30
0
41
1
10
122.092152522305
20
-17.4315507774569
30
0
41
1
10
122.088257458036
20
-17.4176242567272
30
0
41
1
10
122.08640758542
20
-17.4133062250155
30
0
41
1
10
122.082645365545
20
-17.4077476776194
30
0
41
1
10
122.081314059614
20
-17.4061020704288
30
0
41
1
10
122.079843861619
20
-17.4045893286613
30
0
0
SPLINE
5
277
100
AcDbEntity
8
1
62
256
6
ByLayer
370
-1
48
1
60
0
100
AcDbSpline
70
4
71
3
72
16
73
12
40
0
40
0
40
0
40
0
40
0.0426292751499093
40
0.0426292751499093
40
0.0996436166287589
40
0.0996436166287589
40
0.207156078099359
40
0.207156078099359
40
0.580806890299265
40
0.580806890299265
40
1
40
1
40
1
40
1
41
1
10
122.098616422264
20
-17.3876199113404
30
0
41
1
10
122.105543664921
20
-17.3945196103616
30
0
41
1
10
122.11112040476
20
-17.4028380248574
30
0
41
1
10
122.120554318958
20
-17.4233808439934
30
0
41
1
10
122.123489946984
20
-17.4362644955192
30
0
41
1
10
122.127387513213
20
-17.4731442676574
30
0
41
1
10
122.124789482993
20
-17.4977525804542
30
0
41
1
10
122.10474211927
20
-17.6037487750256
30
0
41
1
10
122.068364510726
20
-17.6817325547145
30
0
41
1
10
121.986593502479
20
-17.8409825910019
30
0
41
1
10
121.937158367111
20
-17.9224470015775
30
0
41
1
10
121.885268522278
20
-18.0021828093749
30
0
0
SPLINE
5
278
100
AcDbEntity
8
1
62
256
6
ByLayer
370
-1
48
1
60
0
100
AcDbSpline
70
4
71
3
72
20
73
16
40
0
40
0
40
0
40
0
40
0.511365204367416
40
0.511365204367416
40
0.617167309555457
40
0.617167309555457
40
0.785488434327099
40
0.785488434327099
40
0.873398812153872
40
0.873398812153872
40
0.935684402254202
40
0.935684402254202
40
0.978722765374121
40
0.978722765374121
40
1
40
1
40
1
40
1
41
1
10
121.046321512804
20
-17.1703386782687
30
0
41
1
10
121.142841975179
20
-17.1068769247207
30
0
41
1
10
121.242099715831
20
-17.0463216852593
30
0
41
1
10
121.368669375634
20
-16.9864233537817
30
0
41
1
10
121.390701916088
20
-16.9766479559551
30
0
41
1
10
121.448552982107
20
-16.9534094047997
30
0
41
1
10
121.485068085153
20
-16.9408311440281
30
0
41
1
10
121.542247026916
20
-16.9289392305923
30
0
41
1
10
121.5623508642
20
-16.9261449966171
30
0
41
1
10
121.596604546802
20
-16.9261542319456
30
0
41
1
10
121.611023505916
20
-16.9276026312924
30
0
41
1
10
121.63398080646
20
-16.9342999489616
30
0
41
1
10
121.643120083717
20
-16.938351584792
30
0
41
1
10
121.65512333365
20
-16.9465359828104
30
0
41
1
10
121.658877509276
20
-16.9496294585906
30
0
41
1
10
121.662283637909
20
-16.9530220440045
30
0
0
SPLINE
5
279
100
AcDbEntity
8
1
62
256
6
ByLayer
370
-1
48
1
60
0
100
AcDbSpline
70
4
71
2
72
6
73
3
40
0
40
0
40
0
40
1
40
1
40
1
41
0.500001283684794
10
117.209426072038
20
-12.3854866600008
30
0
41
0.499998716315206
10
117.208423293561
20
-12.3856472329709
30
0
41
0.500001283684794
10
117.207422131115
20
-12.3858093243473
30
0
0
SPLINE
5
27A
100
AcDbEntity
8
1
62
256
6
ByLayer
370
-1
48
1
60
0
100
AcDbSpline
70
4
71
3
72
12
73
8
40
0
40
0
40
0
40
0
40
0.347623173836782
40
0.347623173836782
40
0.696503371294912
40
0.696503371294912
40
1
40
1
40
1
40
1
41
1
10
117.308563489464
20
-12.3232266796433
30
0
41
1
10
117.301488640584
20
-12.3345209735852
30
0
41
1
10
117.292273482935
20
-12.3449089850807
30
0
41
1
10
117.270891521577
20
-12.3624764381258
30
0
41
1
10
117.258390679593
20
-12.3698942984611
30
0
41
1
10
117.233753341629
20
-12.3801381947361
30
0
41
1
10
117.22149095268
20
-12.3835547340939
30
0
41
1
10
117.209426072038
20
-12.3854866600008
30
0
0
SPLINE
5
27B
100
AcDbEntity
8
1
62
256
6
ByLayer
370
-1
48
1
60
0
100
AcDbSpline
70
4
71
3
72
18
73
14
40
0
40
0
40
0
40
0
40
0.439677344605712
40
0.439677344605712
40
0.8198401385153
40
0.8198401385153
40
0.920758376963044
40
0.920758376963044
40
0.968467673881604
40
0.968467673881604
40
0.990240013274169
40
0.990240013274169
40
1
40
1
40
1
40
1
41
1
10
120.260427074926
20
-10.8451012531877
30
0
41
1
10
120.299039888289
20
-10.9299115288796
30
0
41
1
10
120.33953002862
20
-11.0140127776306
30
0
41
1
10
120.422740625386
20
-11.1665902141965
30
0
41
1
10
120.463135812562
20
-11.2375311720448
30
0
41
1
10
120.530110596876
20
-11.3149709989136
30
0
41
1
10
120.545326951723
20
-11.3307966184966
30
0
41
1
10
120.571557319884
20
-11.3489630054744
30
0
41
1
10
120.580819430522
20
-11.3541305344956
30
0
41
1
10
120.59538032535
20
-11.3579453634003
30
0
41
1
10
120.600212079635
20
-11.3585813792005
30
0
41
1
10
120.607113645342
20
-11.3582242758912
30
0
41
1
10
120.609264226543
20
-11.35793335293
30
0
41
1
10
120.611362800279
20
-11.3574561232627
30
0
0
SPLINE
5
27C
100
AcDbEntity
8
1
62
256
6
ByLayer
370
-1
48
1
60
0
100
AcDbSpline
70
4
71
3
72
16
73
12
40
0
40
0
40
0
40
0
40
0.0426292751499033
40
0.0426292751499033
40
0.099643616628748
40
0.099643616628748
40
0.207156078099369
40
0.207156078099369
40
0.580806890299257
40
0.580806890299257
40
1
40
1
40
1
40
1
41
1
10
120.617701715681
20
-11.3824306906104
30
0
41
1
10
120.608025773908
20
-11.3848035252137
30
0
41
1
10
120.59775856182
20
-11.3853426506991
30
0
41
1
10
120.57458912983
20
-11.3830445080469
30
0
41
1
10
120.561560307487
20
-11.3791091815428
30
0
41
1
10
120.526535477161
20
-11.3640744726873
30
0
41
1
10
120.505784581096
20
-11.3496929334312
30
0
41
1
10
120.420866602542
20
-11.2803368093322
30
0
41
1
10
120.369289303627
20
-11.2112145748934
30
0
41
1
10
120.267735300085
20
-11.0637986261657
30
0
41
1
10
120.219617639365
20
-10.9820250827491
30
0
41
1
10
120.174286538546
20
-10.8990553403869
30
0
0
SPLINE
5
27D
100
AcDbEntity
8
1
62
256
6
ByLayer
370
-1
48
1
60
0
100
AcDbSpline
70
4
71
2
72
6
73
3
40
0
40
0
40
0
40
1
40
1
40
1
41
0.500001284724233
10
127.461986693222
20
-9.62320682869436
30
0
41
0.499998715275767
10
127.462402802599
20
-9.62236755279587
30
0
41
0.500001284724233
10
127.462818403513
20
-9.62153129237075
30
0
0
SPLINE
5
27E
100
AcDbEntity
8
1
62
256
6
ByLayer
370
-1
48
1
60
0
100
AcDbSpline
70
4
71
3
72
12
73
8
40
0
40
0
40
0
40
0
40
0.347623173836909
40
0.347623173836909
40
0.696503371294874
40
0.696503371294874
40
1
40
1
40
1
40
1
41
1
10
127.468125246771
20
-9.73744596379478
30
0
41
1
10
127.461050397891
20
-9.72517693413732
30
0
41
1
10
127.45590072057
20
-9.71161639884744
30
0
41
1
10
127.45033042742
20
-9.68414723749953
30
0
41
1
10
127.449863542846
20
-9.6698396075235
30
0
41
1
10
127.453455112344
20
-9.64466621444794
30
0
41
1
10
127.456980293425
20
-9.6333045359944
30
0
41
1
10
127.461986693222
20
-9.62320682869438
30
0
0
SPLINE
5
27F
100
AcDbEntity
8
1
62
256
6
ByLayer
370
-1
48
1
60
0
100
AcDbSpline
70
4
71
3
72
24
73
20
40
0
40
0
40
0
40
0
40
0.0154450745970414
40
0.0154450745970414
40
0.0417985895668426
40
0.0417985895668426
40
0.0483972597876846
40
0.0483972597876846
40
0.102103855500446
40
0.102103855500446
40
0.185330321121825
40
0.185330321121825
40
0.354377449491156
40
0.354377449491156
40
0.535348727398707
40
0.535348727398707
40
0.66609150100131
40
0.66609150100131
40
1
40
1
40
1
40
1
41
1
10
121.220830495333
20
-11.2079961460988
30
0
41
1
10
121.224036236956
20
-11.2072671390681
30
0
41
1
10
121.227162783436
20
-11.2060838951529
30
0
41
1
10
121.234929401877
20
-11.2019258464519
30
0
41
1
10
121.239247732925
20
-11.1982196234135
30
0
41
1
10
121.243797611313
20
-11.1930486173486
30
0
41
1
10
121.244681313039
20
-11.1919699469062
30
0
41
1
10
121.252328725774
20
-11.1820257518444
30
0
41
1
10
121.257038288966
20
-11.1716532046979
30
0
41
1
10
121.266515742541
20
-11.1449596696619
30
0
41
1
10
121.270018883457
20
-11.1279480994575
30
0
41
1
10
121.277881828472
20
-11.0764117669997
30
0
41
1
10
121.27937853339
20
-11.041339226503
30
0
41
1
10
121.279869402107
20
-10.9690113478091
30
0
41
1
10
121.278444113177
20
-10.9315780567789
30
0
41
1
10
121.274482540138
20
-10.8672378407317
30
0
41
1
10
121.272337820589
20
-10.8402726480246
30
0
41
1
10
121.263482460892
20
-10.7445806869792
30
0
41
1
10
121.254912263989
20
-10.6760051185943
30
0
41
1
10
121.245129274038
20
-10.607626412579
30
0
0
SPLINE
5
280
100
AcDbEntity
8
1
62
256
6
ByLayer
370
-1
48
1
60
0
100
AcDbSpline
70
4
71
3
72
24
73
20
40
0
40
0
40
0
40
0
40
0.0154450745970585
40
0.0154450745970585
40
0.0417985895668783
40
0.0417985895668783
40
0.0483972597877235
40
0.0483972597877235
40
0.102103855500568
40
0.102103855500568
40
0.185330321122076
40
0.185330321122076
40
0.354377449491596
40
0.354377449491596
40
0.535348727399405
40
0.535348727399405
40
0.666091500997295
40
0.666091500997295
40
1
40
1
40
1
40
1
41
1
10
126.599153815492
20
-13.7128168472421
30
0
41
1
10
126.59819440963
20
-13.7158641974977
30
0
41
1
10
126.597675257617
20
-13.7190606953897
30
0
41
1
10
126.597460655687
20
-13.7275802633051
30
0
41
1
10
126.598571180002
20
-13.7329798414603
30
0
41
1
10
126.600857952385
20
-13.7392705592943
30
0
41
1
10
126.60136766302
20
-13.740527697066
30
0
41
1
10
126.606316260756
20
-13.7516964152693
30
0
41
1
10
126.613111106865
20
-13.7605933429263
30
0
41
1
10
126.631918098235
20
-13.7812625990754
30
0
41
1
10
126.645171411149
20
-13.7922972891917
30
0
41
1
10
126.686695919703
20
-13.8234089180133
30
0
41
1
10
126.716880667983
20
-13.8413328259436
30
0
41
1
10
126.78042450035
20
-13.8761066997543
30
0
41
1
10
126.814150078952
20
-13.8926876339007
30
0
41
1
10
126.872871721814
20
-13.9199110577943
30
0
41
1
10
126.89772384824
20
-13.9309117127504
30
0
41
1
10
126.986537683406
20
-13.968899489545
30
0
41
1
10
127.051293338723
20
-13.994244836211
30
0
41
1
10
127.116479471179
20
-14.0184717662535
30
0
0
SPLINE
5
281
100
AcDbEntity
8
1
62
256
6
ByLayer
370
-1
48
1
60
0
100
AcDbSpline
70
4
71
3
72
18
73
14
40
0
40
0
40
0
40
0
40
0.439677344605742
40
0.439677344605742
40
0.819840138515305
40
0.819840138515305
40
0.920758376963024
40
0.920758376963024
40
0.968467673881561
40
0.968467673881561
40
0.990240013274132
40
0.990240013274132
40
1
40
1
40
1
40
1
41
1
10
127.399624369984
20
-13.076557193586
30
0
41
1
10
127.305523417937
20
-13.0687964180292
30
0
41
1
10
127.211106226363
20
-13.062949588978
30
0
41
1
10
127.034933227056
20
-13.0605518141131
30
0
41
1
10
126.952166252144
20
-13.0608713033028
30
0
41
1
10
126.850379454369
20
-13.0804943802452
30
0
41
1
10
126.828813740596
20
-13.0857929932835
30
0
41
1
10
126.799677766156
20
-13.0992586550723
30
0
41
1
10
126.790489760285
20
-13.1046062049178
30
0
41
1
10
126.779846279341
20
-13.1150609811731
30
0
41
1
10
126.776870036082
20
-13.1188295511779
30
0
41
1
10
126.773735168959
20
-13.1248139536509
30
0
41
1
10
126.77291678178
20
-13.1267641167022
30
0
41
1
10
126.772288726191
20
-13.1287590027424
30
0
0
SPLINE
5
282
100
AcDbEntity
8
1
62
256
6
ByLayer
370
-1
48
1
60
0
100
AcDbSpline
70
4
71
3
72
16
73
12
40
0
40
0
40
0
40
0
40
0.0426292751498964
40
0.0426292751498964
40
0.0996436166287692
40
0.0996436166287692
40
0.207156078099315
40
0.207156078099315
40
0.580806890299214
40
0.580806890299214
40
1
40
1
40
1
40
1
41
1
10
126.74729249938
20
-13.1225230205594
30
0
41
1
10
126.750041198497
20
-13.1132504869349
30
0
41
1
10
126.754731670745
20
-13.1043929469536
30
0
41
1
10
126.768467188537
20
-13.0861482704698
30
0
41
1
10
126.778560382855
20
-13.0771999454482
30
0
41
1
10
126.809687646951
20
-13.0553548821654
30
0
41
1
10
126.833036573236
20
-13.0451281086248
30
0
41
1
10
126.938001915513
20
-13.0084880381523
30
0
41
1
10
127.025956822972
20
-12.9996264929022
30
0
41
1
10
127.209281834761
20
-12.9877924053426
30
0
41
1
10
127.306834630849
20
-12.9881015381836
30
0
41
1
10
127.404055576501
20
-12.9913354727484
30
0
0
SPLINE
5
283
100
AcDbEntity
8
1
62
256
6
ByLayer
370
-1
48
1
60
0
100
AcDbSpline
70
4
71
3
72
20
73
16
40
0
40
0
40
0
40
0
40
0.51136520436748
40
0.51136520436748
40
0.617167309555451
40
0.617167309555451
40
0.785488434327108
40
0.785488434327108
40
0.873398812153864
40
0.873398812153864
40
0.935684402254219
40
0.935684402254219
40
0.978722765374129
40
0.978722765374129
40
1
40
1
40
1
40
1
41
1
10
127.074542151504
20
-14.1124185356867
30
0
41
1
10
126.969769331575
20
-14.0636436044816
30
0
41
1
10
126.866244119367
20
-14.0111138962036
30
0
41
1
10
126.749758672692
20
-13.9354025851911
30
0
41
1
10
126.730065454872
20
-13.9218949495323
30
0
41
1
10
126.680534074647
20
-13.8852039064036
30
0
41
1
10
126.651143608656
20
-13.8609917979273
30
0
41
1
10
126.612117332708
20
-13.8191453834224
30
0
41
1
10
126.599639172422
20
-13.8037335101679
30
0
41
1
10
126.582654606745
20
-13.7750704352786
30
0
41
1
10
126.576799947358
20
-13.7622769148394
30
0
41
1
10
126.57141490098
20
-13.739694779362
30
0
41
1
10
126.570513095296
20
-13.7300067148855
30
0
41
1
10
126.571895313485
20
-13.7158399531816
30
0
41
1
10
126.572806051969
20
-13.7111401744185
30
0
41
1
10
126.574157588681
20
-13.7065808650591
30
0
0
SPLINE
5
284
100
AcDbEntity
8
1
62
256
6
ByLayer
370
-1
48
1
60
0
100
AcDbSpline
70
4
71
3
72
20
73
16
40
0
40
0
40
0
40
0
40
0.511365204366865
40
0.511365204366865
40
0.617167309555265
40
0.617167309555265
40
0.785488434326996
40
0.785488434326996
40
0.873398812153789
40
0.873398812153789
40
0.935684402254182
40
0.935684402254182
40
0.978722765374109
40
0.978722765374109
40
1
40
1
40
1
40
1
41
1
10
121.342746973017
20
-10.6098164085548
30
0
41
1
10
121.35099933057
20
-10.7220530933078
30
0
41
1
10
121.355266802128
20
-10.8351380410471
30
0
41
1
10
121.345182589
20
-10.9707476835373
30
0
41
1
10
121.342843266365
20
-10.9940307170226
30
0
41
1
10
121.334523580571
20
-11.0539603113067
30
0
41
1
10
121.327398943516
20
-11.0907506805547
30
0
41
1
10
121.309246277701
20
-11.1444890084954
30
0
41
1
10
121.301620600703
20
-11.1626951157251
30
0
41
1
10
121.284351483778
20
-11.191348955286
30
0
41
1
10
121.275787184051
20
-11.2026940763783
30
0
41
1
10
121.258214929886
20
-11.2185788941865
30
0
41
1
10
121.249977458312
20
-11.2242153228326
30
0
41
1
10
121.23659199019
20
-11.2301976865181
30
0
41
1
10
121.23192707608
20
-11.231803989501
30
0
41
1
10
121.227169410734
20
-11.2329707134465
30
0
0
SPLINE
5
285
100
AcDbEntity
8
SK1
62
256
6
ByLayer
370
-1
48
1
60
0
100
AcDbSpline
70
4
71
3
72
10
73
6
40
0
40
0
40
0
40
0
40
5.76196274664E-05
40
5.76196274664E-05
40
1
40
1
40
1
40
1
41
1
10
-123.314493331238
20
-13.51075
30
0
41
1
10
-123.314494331338
20
-13.51075
30
0
41
1
10
-123.314495331438
20
-13.51075
30
0
41
1
10
-123.317161155606
20
-13.51075
30
0
41
1
10
-122.24051757767
20
-13.51075
30
0
41
1
10
-120.836
20
-13.51075
30
0
0
SPLINE
5
286
100
AcDbEntity
8
SK1
62
256
6
ByLayer
370
-1
48
1
60
0
100
AcDbSpline
70
4
71
3
72
10
73
6
40
0
40
0
40
0
40
0
40
0.5
40
0.5
40
1
40
1
40
1
40
1
41
1
10
-120.836
20
-5.53679650723234
30
0
41
1
10
-121.455109452747
20
-3.74892227266315
30
0
41
1
10
-121.82407495792
20
-1.90868703143693
30
0
41
1
10
-121.82641932943
20
1.89017327916395
30
0
41
1
10
-121.452083151065
20
3.7576616753322
30
0
41
1
10
-120.836
20
5.53679650723237
30
0
0
LINE
5
49
100
AcDbEntity
8
1
62
256
6
ByLayer
370
-1
48
1
60
0
100
AcDbLine
10
125.882302
20
-13.827735
30
0
11
125.859655
21
-13.507211
31
0
39
0
210
0
220
0
230
1
0
LINE
5
4A
100
AcDbEntity
8
1
62
256
6
ByLayer
370
-1
48
1
60
0
100
AcDbLine
10
120.423209
20
-13.891341
30
0
11
120.445856
21
-14.211864
31
0
39
0
210
0
220
0
230
1
0
LINE
5
4B
100
AcDbEntity
8
1
62
256
6
ByLayer
370
-1
48
1
60
0
100
AcDbLine
10
122.135635
20
-13.072275
30
0
11
122.117211
21
-12.811522
31
0
39
0
210
0
220
0
230
1
0
LINE
5
4C
100
AcDbEntity
8
1
62
256
6
ByLayer
370
-1
48
1
60
0
100
AcDbLine
10
124.163282
20
-12.739644
30
0
11
124.188911
21
-13.102362
31
0
39
0
210
0
220
0
230
1
0
LINE
5
4D
100
AcDbEntity
8
1
62
256
6
ByLayer
370
-1
48
1
60
0
100
AcDbLine
10
122.135173
20
-14.879573
30
0
11
122.109525
21
-14.516581
31
0
39
0
210
0
220
0
230
1
0
LINE
5
4E
100
AcDbEntity
8
1
62
256
6
ByLayer
370
-1
48
1
60
0
100
AcDbLine
10
124.16312
20
-14.551176
30
0
11
124.189072
21
-14.918468
31
0
39
0
210
0
220
0
230
1
0
LINE
5
4F
100
AcDbEntity
8
1
62
256
6
ByLayer
370
-1
48
1
60
0
100
AcDbLine
10
127.976475
20
-5.650459
30
0
11
127.977281
21
-5.650463
31
0
39
0
210
0
220
0
230
1
0
LINE
5
50
100
AcDbEntity
8
1
62
256
6
ByLayer
370
-1
48
1
60
0
100
AcDbLine
10
127.258513
20
-7.468439
30
0
11
127.191628
21
-6.441709
31
0
39
0
210
0
220
0
230
1
0
LINE
5
51
100
AcDbEntity
8
1
62
256
6
ByLayer
370
-1
48
1
60
0
100
AcDbLine
10
127.603842
20
-9.291007
30
0
11
127.539968
21
-8.310488
31
0
39
0
210
0
220
0
230
1
0
LINE
5
52
100
AcDbEntity
8
1
62
256
6
ByLayer
370
-1
48
1
60
0
100
AcDbLine
10
127.915867
20
-10.627644
30
0
11
127.846581
21
-9.564049
31
0
39
0
210
0
220
0
230
1
0
LINE
5
53
100
AcDbEntity
8
1
62
256
6
ByLayer
370
-1
48
1
60
0
100
AcDbLine
10
115.216908
20
-12.799424
30
0
11
115.283768
21
-13.82577
31
0
39
0
210
0
220
0
230
1
0
LINE
5
54
100
AcDbEntity
8
1
62
256
6
ByLayer
370
-1
48
1
60
0
100
AcDbLine
10
116.356072
20
-12.186917
30
0
11
116.419895
21
-13.166652
31
0
39
0
210
0
220
0
230
1
0
LINE
5
55
100
AcDbEntity
8
1
62
256
6
ByLayer
370
-1
48
1
60
0
100
AcDbLine
10
95.755644
20
15.78218
30
0
11
95.396988
21
15.98925
31
0
39
0
210
0
220
0
230
1
0
LINE
5
56
100
AcDbEntity
8
1
62
256
6
ByLayer
370
-1
48
1
60
0
100
AcDbLine
10
105.105535
20
-15.675
30
0
11
109.100255
21
-15.675
31
0
39
0
210
0
220
0
230
1
0
LINE
5
57
100
AcDbEntity
8
1
62
256
6
ByLayer
370
-1
48
1
60
0
100
AcDbLine
10
109.100255
20
15.675
30
0
11
96.155644
21
15.675
31
0
39
0
210
0
220
0
230
1
0
LINE
5
58
100
AcDbEntity
8
1
62
256
6
ByLayer
370
-1
48
1
60
0
100
AcDbLine
10
109.477488
20
15.685
30
0
11
109.226351
21
15.685
31
0
39
0
210
0
220
0
230
1
0
LINE
5
59
100
AcDbEntity
8
1
62
256
6
ByLayer
370
-1
48
1
60
0
100
AcDbLine
10
95.396988
20
15.98925
30
0
11
0
21
15.98925
31
0
39
0
210
0
220
0
230
1
0
LINE
5
5A
100
AcDbEntity
8
1
62
256
6
ByLayer
370
-1
48
1
60
0
100
AcDbLine
10
109.713091
20
-15.96077
30
0
11
111.631857
21
-18.247466
31
0
39
0
210
0
220
0
230
1
0
LINE
5
5B
100
AcDbEntity
8
SK1
62
256
6
ByLayer
370
-1
48
1
60
0
100
AcDbLine
10
-120.836
20
15.98925
30
0
11
-123.336
21
13.48925
31
0
39
0
210
0
220
0
230
1
0
LINE
5
5D
100
AcDbEntity
8
SK1
62
256
6
ByLayer
370
-1
48
1
60
0
100
AcDbLine
10
-123.336
20
-13.48925
30
0
11
-123.3145
21
-13.51075
31
0
39
0
210
0
220
0
230
1
0
LINE
5
5E
100
AcDbEntity
8
SK1
62
256
6
ByLayer
370
-1
48
1
60
0
100
AcDbLine
10
0
20
15.98925
30
0
11
-120.836
21
15.98925
31
0
39
0
210
0
220
0
230
1
0
LINE
5
5F
100
AcDbEntity
8
SK4
62
256
6
ByLayer
370
-1
48
0.05
60
0
100
AcDbLine
10
-128.336
20
0
30
0
11
132.914
21
0
31
0
39
0
210
0
220
0
230
1
0
LINE
5
61
100
AcDbEntity
8
80
62
256
6
ByLayer
370
-1
48
1
60
0
100
AcDbLine
10
0
20
0
30
0
11
-5
21
0
31
0
39
0
210
0
220
0
230
1
0
LINE
5
62
100
AcDbEntity
8
81
62
256
6
ByLayer
370
-1
48
1
60
0
100
AcDbLine
10
127.914
20
-21.875
30
0
11
132.914
21
-21.875
31
0
39
0
210
0
220
0
230
1
0
LINE
5
63
100
AcDbEntity
8
1
62
256
6
ByLayer
370
-1
48
1
60
0
100
AcDbLine
10
121.265382
20
3.717905
30
0
11
113.626137
21
-9.097953
31
0
39
0
210
0
220
0
230
1
0
LINE
5
64
100
AcDbEntity
8
1
62
256
6
ByLayer
370
-1
48
1
60
0
100
AcDbLine
10
109.100255
20
-15.675
30
0
11
109.100255
21
-15.152907
31
0
39
0
210
0
220
0
230
1
0
LINE
5
65
100
AcDbEntity
8
1
62
256
6
ByLayer
370
-1
48
1
60
0
100
AcDbLine
10
109.100255
20
4.550343
30
0
11
109.100255
21
15.675
31
0
39
0
210
0
220
0
230
1
0
LINE
5
66
100
AcDbEntity
8
1
62
256
6
ByLayer
370
-1
48
1
60
0
100
AcDbLine
10
0
20
-5.536797
30
0
11
0
21
-13.51075
31
0
39
0
210
0
220
0
230
1
0
LINE
5
67
100
AcDbEntity
8
1
62
256
6
ByLayer
370
-1
48
1
60
0
100
AcDbLine
10
127.346902
20
-2.456066
30
0
11
127.346902
21
-5.889981
31
0
39
0
210
0
220
0
230
1
0
LINE
5
68
100
AcDbEntity
8
1
62
256
6
ByLayer
370
-1
48
1
60
0
100
AcDbLine
10
109.226351
20
15.685
30
0
11
109.226351
21
4.584673
31
0
39
0
210
0
220
0
230
1
0
LINE
5
69
100
AcDbEntity
8
1
62
256
6
ByLayer
370
-1
48
1
60
0
100
AcDbLine
10
102.941285
20
-13.51075
30
0
11
105.105535
21
-15.675
31
0
39
0
210
0
220
0
230
1
0
LINE
5
6A
100
AcDbEntity
8
1
62
256
6
ByLayer
370
-1
48
1
60
0
100
AcDbLine
10
118.322016
20
-16.908401
30
0
11
118.322016
21
-16.601765
31
0
39
0
210
0
220
0
230
1
0
LINE
5
6B
100
AcDbEntity
8
1
62
256
6
ByLayer
370
-1
48
1
60
0
100
AcDbLine
10
95.396988
20
15.98925
30
0
11
95.396988
21
5.536797
31
0
39
0
210
0
220
0
230
1
0
LINE
5
6C
100
AcDbEntity
8
1
62
256
6
ByLayer
370
-1
48
1
60
0
100
AcDbLine
10
121.998344
20
2.973801
30
0
11
110.31715
21
-16.622968
31
0
39
0
210
0
220
0
230
1
0
LINE
5
6D
100
AcDbEntity
8
1
62
256
6
ByLayer
370
-1
48
1
60
0
100
AcDbLine
10
95.755644
20
15.78218
30
0
11
95.755644
21
4.906852
31
0
39
0
210
0
220
0
230
1
0
LINE
5
6E
100
AcDbEntity
8
1
62
256
6
ByLayer
370
-1
48
1
60
0
100
AcDbLine
10
0
20
-5.536797
30
0
11
0
21
5.536797
31
0
39
0
210
0
220
0
230
1
0
LINE
5
6F
100
AcDbEntity
8
1
62
256
6
ByLayer
370
-1
48
1
60
0
100
AcDbLine
10
96.155644
20
4.550343
30
0
11
96.155644
21
15.675
31
0
39
0
210
0
220
0
230
1
0
LINE
5
70
100
AcDbEntity
8
1
62
256
6
ByLayer
370
-1
48
1
60
0
100
AcDbLine
10
0
20
5.536797
30
0
11
95.396988
21
5.536797
31
0
39
0
210
0
220
0
230
1
0
LINE
5
71
100
AcDbEntity
8
1
62
256
6
ByLayer
370
-1
48
1
60
0
100
AcDbLine
10
107.72847
20
-4.550343
30
0
11
115.365127
21
4.584673
31
0
39
0
210
0
220
0
230
1
0
LINE
5
72
100
AcDbEntity
8
1
62
256
6
ByLayer
370
-1
48
1
60
0
100
AcDbLine
10
95.755644
20
-4.906852
30
0
11
95.755644
21
-13.51075
31
0
39
0
210
0
220
0
230
1
0
LINE
5
73
100
AcDbEntity
8
1
62
256
6
ByLayer
370
-1
48
1
60
0
100
AcDbLine
10
118.217782
20
-16.544101
30
0
11
118.351318
21
-17.010823
31
0
39
0
210
0
220
0
230
1
0
LINE
5
74
100
AcDbEntity
8
1
62
256
6
ByLayer
370
-1
48
1
60
0
100
AcDbLine
10
116.755327
20
-11.887517
30
0
11
118.73739
21
-10.772598
31
0
39
0
210
0
220
0
230
1
0
LINE
5
75
100
AcDbEntity
8
1
62
256
6
ByLayer
370
-1
48
1
60
0
100
AcDbLine
10
115.365127
20
4.584673
30
0
11
109.226351
21
4.584673
31
0
39
0
210
0
220
0
230
1
0
LINE
5
76
100
AcDbEntity
8
1
62
256
6
ByLayer
370
-1
48
1
60
0
100
AcDbLine
10
96.155644
20
-4.550343
30
0
11
107.72847
21
-4.550343
31
0
39
0
210
0
220
0
230
1
0
LINE
5
77
100
AcDbEntity
8
1
62
256
6
ByLayer
370
-1
48
1
60
0
100
AcDbLine
10
102.941285
20
-13.51075
30
0
11
96.155644
21
-13.51075
31
0
39
0
210
0
220
0
230
1
0
LINE
5
78
100
AcDbEntity
8
1
62
256
6
ByLayer
370
-1
48
1
60
0
100
AcDbLine
10
127.346902
20
-5.889981
30
0
11
127.333707
21
-5.937135
31
0
39
0
210
0
220
0
230
1
0
LINE
5
79
100
AcDbEntity
8
1
62
256
6
ByLayer
370
-1
48
1
60
0
100
AcDbLine
10
116.567741
20
-11.954083
30
0
11
127.346902
21
-5.889981
31
0
39
0
210
0
220
0
230
1
0
LINE
5
7A
100
AcDbEntity
8
1
62
256
6
ByLayer
370
-1
48
1
60
0
100
AcDbLine
10
109.713091
20
-15.96077
30
0
11
109.713091
21
-15.803633
31
0
39
0
210
0
220
0
230
1
0
LINE
5
7B
100
AcDbEntity
8
1
62
256
6
ByLayer
370
-1
48
1
60
0
100
AcDbLine
10
111.836183
20
-18.470752
30
0
11
118.351318
21
-18.442322
31
0
39
0
210
0
220
0
230
1
0
LINE
5
7C
100
AcDbEntity
8
1
62
256
6
ByLayer
370
-1
48
1
60
0
100
AcDbLine
10
0
20
-13.51075
30
0
11
95.396988
21
-13.51075
31
0
39
0
210
0
220
0
230
1
0
LINE
5
7D
100
AcDbEntity
8
1
62
256
6
ByLayer
370
-1
48
1
60
0
100
AcDbLine
10
118.351318
20
-17.010823
30
0
11
118.351318
21
-18.442322
31
0
39
0
210
0
220
0
230
1
0
LINE
5
7E
100
AcDbEntity
8
1
62
256
6
ByLayer
370
-1
48
1
60
0
100
AcDbLine
10
115.799958
20
-14.678267
30
0
11
114.182384
21
-13.783688
31
0
39
0
210
0
220
0
230
1
0
LINE
5
7F
100
AcDbEntity
8
1
62
256
6
ByLayer
370
-1
48
1
60
0
100
AcDbLine
10
124.798554
20
-7.363169
30
0
11
127.333707
21
-5.937135
31
0
39
0
210
0
220
0
230
1
0
LINE
5
80
100
AcDbEntity
8
1
62
256
6
ByLayer
370
-1
48
1
60
0
100
AcDbLine
10
96.155644
20
-4.550343
30
0
11
96.155644
21
-13.51075
31
0
39
0
210
0
220
0
230
1
0
LINE
5
81
100
AcDbEntity
8
1
62
256
6
ByLayer
370
-1
48
1
60
0
100
AcDbLine
10
0
20
5.536797
30
0
11
0
21
15.98925
31
0
39
0
210
0
220
0
230
1
0
LINE
5
82
100
AcDbEntity
8
1
62
256
6
ByLayer
370
-1
48
1
60
0
100
AcDbLine
10
95.396988
20
-5.536797
30
0
11
95.396988
21
-13.51075
31
0
39
0
210
0
220
0
230
1
0
LINE
5
83
100
AcDbEntity
8
1
62
256
6
ByLayer
370
-1
48
1
60
0
100
AcDbLine
10
121.998344
20
2.973801
30
0
11
121.265383
21
3.717904
31
0
39
0
210
0
220
0
230
1
0
LINE
5
84
100
AcDbEntity
8
1
62
256
6
ByLayer
370
-1
48
1
60
0
100
AcDbLine
10
114.942509
20
-15.124674
30
0
11
118.351318
21
-17.010823
31
0
39
0
210
0
220
0
230
1
0
LINE
5
85
100
AcDbEntity
8
1
62
256
6
ByLayer
370
-1
48
1
60
0
100
AcDbLine
10
119.445977
20
-10.393502
30
0
11
124.18599
21
-7.727226
31
0
39
0
210
0
220
0
230
1
0
LINE
5
86
100
AcDbEntity
8
1
62
256
6
ByLayer
370
-1
48
1
60
0
100
AcDbLine
10
116.755327
20
-11.887517
30
0
11
116.567741
21
-11.954083
31
0
39
0
210
0
220
0
230
1
0
LINE
5
87
100
AcDbEntity
8
1
62
256
6
ByLayer
370
-1
48
1
60
0
100
AcDbLine
10
121.265382
20
3.717905
30
0
11
118.140165
21
6.890633
31
0
39
0
210
0
220
0
230
1
0
LINE
5
88
100
AcDbEntity
8
1
62
256
6
ByLayer
370
-1
48
1
60
0
100
AcDbLine
10
111.796911
20
-12.166725
30
0
11
109.701181
21
-15.682593
31
0
39
0
210
0
220
0
230
1
0
LINE
5
89
100
AcDbEntity
8
1
62
256
6
ByLayer
370
-1
48
1
60
0
100
AcDbLine
10
95.396988
20
-5.536797
30
0
11
0
21
-5.536797
31
0
39
0
210
0
220
0
230
1
0
LINE
5
8A
100
AcDbEntity
8
1
62
256
6
ByLayer
370
-1
48
1
60
0
100
AcDbLine
10
118.140165
20
6.890633
30
0
11
109.477488
21
15.685
31
0
39
0
210
0
220
0
230
1
0
LINE
5
8B
100
AcDbEntity
8
1
62
256
6
ByLayer
370
-1
48
1
60
0
100
AcDbLine
10
127.346902
20
-2.456066
30
0
11
121.998344
21
2.973801
31
0
39
0
210
0
220
0
230
1
0
LINE
5
8C
100
AcDbEntity
8
1
62
256
6
ByLayer
370
-1
48
1
60
0
100
AcDbLine
10
109.100255
20
4.550343
30
0
11
96.155644
21
4.550343
31
0
39
0
210
0
220
0
230
1
0
LINE
5
8D
100
AcDbEntity
8
1
62
256
6
ByLayer
370
-1
48
1
60
0
100
AcDbLine
10
116.535014
20
-11.92474
30
0
11
116.567741
21
-11.954083
31
0
39
0
210
0
220
0
230
1
0
LINE
5
8E
100
AcDbEntity
8
SK1
62
256
6
ByLayer
370
-1
48
1
60
0
100
AcDbLine
10
0
20
-5.536797
30
0
11
-120.836
21
-5.536797
31
0
39
0
210
0
220
0
230
1
0
LINE
5
8F
100
AcDbEntity
8
SK1
62
256
6
ByLayer
370
-1
48
1
60
0
100
AcDbLine
10
0
20
15.98925
30
0
11
0
21
5.536797
31
0
39
0
210
0
220
0
230
1
0
LINE
5
90
100
AcDbEntity
8
1
62
256
6
ByLayer
370
-1
48
1
60
0
100
AcDbLine
10
127.970875
20
-6.906504
30
0
11
128.017149
21
-6.906731
31
0
39
0
210
0
220
0
230
1
0
LINE
5
91
100
AcDbEntity
8
1
62
256
6
ByLayer
370
-1
48
1
60
0
100
AcDbLine
10
127.999376
20
-5.160913
30
0
11
128.001383
21
-5.160923
31
0
39
0
210
0
220
0
230
1
0
LINE
5
92
100
AcDbEntity
8
1
62
256
6
ByLayer
370
-1
48
1
60
0
100
AcDbLine
10
127.966057
20
-6.267125
30
0
11
128.016411
21
-6.267373
31
0
39
0
210
0
220
0
230
1
0
LINE
5
93
100
AcDbEntity
8
1
62
256
6
ByLayer
370
-1
48
1
60
0
100
AcDbLine
10
127.966055
20
-6.265842
30
0
11
128.029218
21
-6.266152
31
0
39
0
210
0
220
0
230
1
0
LINE
5
94
100
AcDbEntity
8
1
62
256
6
ByLayer
370
-1
48
1
60
0
100
AcDbLine
10
127.970623
20
-6.895219
30
0
11
128.00458
21
-6.895386
31
0
39
0
210
0
220
0
230
1
0
LINE
5
95
100
AcDbEntity
8
1
62
256
6
ByLayer
370
-1
48
1
60
0
100
AcDbLine
10
121.684269
20
-14.011034
30
0
11
121.711244
21
-14.392796
31
0
39
0
210
0
220
0
230
1
0
LINE
5
96
100
AcDbEntity
8
1
62
256
6
ByLayer
370
-1
48
1
60
0
100
AcDbLine
10
122.747435
20
-15.032915
30
0
11
122.77441
21
-15.414677
31
0
39
0
210
0
220
0
230
1
0
LINE
5
97
100
AcDbEntity
8
1
62
256
6
ByLayer
370
-1
48
1
60
0
100
AcDbLine
10
122.741025
20
-15.051676
30
0
11
122.747435
21
-15.032915
31
0
39
0
210
0
220
0
230
1
0
LINE
5
98
100
AcDbEntity
8
1
62
256
6
ByLayer
370
-1
48
1
60
0
100
AcDbLine
10
123.525372
20
-15.029232
30
0
11
123.531782
21
-15.047934
31
0
39
0
210
0
220
0
230
1
0
LINE
5
99
100
AcDbEntity
8
1
62
256
6
ByLayer
370
-1
48
1
60
0
100
AcDbLine
10
122.741025
20
-15.051676
30
0
11
122.768215
21
-15.436485
31
0
39
0
210
0
220
0
230
1
0
LINE
5
9A
100
AcDbEntity
8
1
62
256
6
ByLayer
370
-1
48
1
60
0
100
AcDbLine
10
123.525372
20
-15.029232
30
0
11
123.552347
21
-15.410995
31
0
39
0
210
0
220
0
230
1
0
LINE
5
9B
100
AcDbEntity
8
1
62
256
6
ByLayer
370
-1
48
1
60
0
100
AcDbLine
10
123.531782
20
-15.047934
30
0
11
123.558972
21
-15.432742
31
0
39
0
210
0
220
0
230
1
0
LINE
5
9C
100
AcDbEntity
8
1
62
256
6
ByLayer
370
-1
48
1
60
0
100
AcDbLine
10
124.588538
20
-13.997287
30
0
11
124.608534
21
-14.001195
31
0
39
0
210
0
220
0
230
1
0
LINE
5
9D
100
AcDbEntity
8
1
62
256
6
ByLayer
370
-1
48
1
60
0
100
AcDbLine
10
121.664273
20
-14.01513
30
0
11
121.691463
21
-14.399939
31
0
39
0
210
0
220
0
230
1
0
LINE
5
9E
100
AcDbEntity
8
1
62
256
6
ByLayer
370
-1
48
1
60
0
100
AcDbLine
10
124.588538
20
-13.997287
30
0
11
124.615512
21
-14.379049
31
0
39
0
210
0
220
0
230
1
0
LINE
5
9F
100
AcDbEntity
8
1
62
256
6
ByLayer
370
-1
48
1
60
0
100
AcDbLine
10
124.608534
20
-14.001195
30
0
11
124.635724
21
-14.386004
31
0
39
0
210
0
220
0
230
1
0
LINE
5
A0
100
AcDbEntity
8
1
62
256
6
ByLayer
370
-1
48
1
60
0
100
AcDbLine
10
121.664273
20
-14.01513
30
0
11
121.684269
21
-14.011034
31
0
39
0
210
0
220
0
230
1
0
LINE
5
A1
100
AcDbEntity
8
1
62
256
6
ByLayer
370
-1
48
1
60
0
100
AcDbLine
10
122.090645
20
-12.852588
30
0
11
122.100212
21
-12.987994
31
0
39
0
210
0
220
0
230
1
0
LINE
5
A2
100
AcDbEntity
8
1
62
256
6
ByLayer
370
-1
48
1
60
0
100
AcDbLine
10
124.214266
20
-12.804168
30
0
11
124.226544
21
-12.977929
31
0
39
0
210
0
220
0
230
1
0
LINE
5
A3
100
AcDbEntity
8
1
62
256
6
ByLayer
370
-1
48
1
60
0
100
AcDbLine
10
124.230621
20
-12.828553
30
0
11
124.240345
21
-12.966183
31
0
39
0
210
0
220
0
230
1
0
LINE
5
A4
100
AcDbEntity
8
1
62
256
6
ByLayer
370
-1
48
1
60
0
100
AcDbLine
10
122.07992
20
-12.878418
30
0
11
122.086841
21
-12.976376
31
0
39
0
210
0
220
0
230
1
0
LINE
5
A5
100
AcDbEntity
8
SK1
62
256
6
ByLayer
370
-1
48
1
60
0
100
AcDbLine
10
-120.836
20
15.98925
30
0
11
-120.836
21
5.536797
31
0
39
0
210
0
220
0
230
1
0
LINE
5
A6
100
AcDbEntity
8
1
62
256
6
ByLayer
370
-1
48
1
60
0
100
AcDbLine
10
118.536353
20
-16.720391
30
0
11
118.612874
21
-17.064112
31
0
39
0
210
0
220
0
230
1
0
LINE
5
A7
100
AcDbEntity
8
1
62
256
6
ByLayer
370
-1
48
1
60
0
100
AcDbLine
10
118.777217
20
-17.421477
30
0
11
118.777217
21
-16.853651
31
0
39
0
210
0
220
0
230
1
0
LINE
5
A8
100
AcDbEntity
8
1
62
256
6
ByLayer
370
-1
48
1
60
0
100
AcDbLine
10
118.880633
20
-17.467845
30
0
11
118.880633
21
-16.910817
31
0
39
0
210
0
220
0
230
1
0
LINE
5
A9
100
AcDbEntity
8
1
62
256
6
ByLayer
370
-1
48
1
60
0
100
AcDbLine
10
119.106212
20
-17.51945
30
0
11
119.106212
21
-17.035719
31
0
39
0
210
0
220
0
230
1
0
LINE
5
AA
100
AcDbEntity
8
1
62
256
6
ByLayer
370
-1
48
1
60
0
100
AcDbLine
10
119.212354
20
-17.54496
30
0
11
119.212354
21
-17.094386
31
0
39
0
210
0
220
0
230
1
0
LINE
5
AB
100
AcDbEntity
8
1
62
256
6
ByLayer
370
-1
48
1
60
0
100
AcDbLine
10
119.456367
20
-17.62944
30
0
11
119.456367
21
-17.229475
31
0
39
0
210
0
220
0
230
1
0
LINE
5
AC
100
AcDbEntity
8
1
62
256
6
ByLayer
370
-1
48
1
60
0
100
AcDbLine
10
119.641775
20
-17.649778
30
0
11
119.641775
21
-17.332096
31
0
39
0
210
0
220
0
230
1
0
LINE
5
AD
100
AcDbEntity
8
1
62
256
6
ByLayer
370
-1
48
1
60
0
100
AcDbLine
10
115.512561
20
-11.877234
30
0
11
115.512561
21
-12.701386
31
0
39
0
210
0
220
0
230
1
0
LINE
5
AE
100
AcDbEntity
8
1
62
256
6
ByLayer
370
-1
48
1
60
0
100
AcDbLine
10
119.939223
20
-17.648729
30
0
11
119.641775
21
-17.649778
31
0
39
0
210
0
220
0
230
1
0
LINE
5
AF
100
AcDbEntity
8
1
62
256
6
ByLayer
370
-1
48
1
60
0
100
AcDbLine
10
120.12242
20
-17.62709
30
0
11
120.12242
21
-17.598079
31
0
39
0
210
0
220
0
230
1
0
LINE
5
B0
100
AcDbEntity
8
1
62
256
6
ByLayer
370
-1
48
1
60
0
100
AcDbLine
10
119.939223
20
-17.648729
30
0
11
119.939223
21
-17.496736
31
0
39
0
210
0
220
0
230
1
0
LINE
5
B1
100
AcDbEntity
8
1
62
256
6
ByLayer
370
-1
48
1
60
0
100
AcDbLine
10
115.345842
20
-12.704519
30
0
11
115.345842
21
-11.71643
31
0
39
0
210
0
220
0
230
1
0
LINE
5
B2
100
AcDbEntity
8
1
62
256
6
ByLayer
370
-1
48
1
60
0
100
AcDbLine
10
118.612874
20
-16.76273
30
0
11
118.612874
21
-17.064112
31
0
39
0
210
0
220
0
230
1
0
LINE
5
B3
100
AcDbEntity
8
1
62
256
6
ByLayer
370
-1
48
1
60
0
100
AcDbLine
10
120.112229
20
-10.327518
30
0
11
120.019776
21
-10.404637
31
0
39
0
210
0
220
0
230
1
0
LINE
5
B4
100
AcDbEntity
8
1
62
256
6
ByLayer
370
-1
48
1
60
0
100
AcDbLine
10
117.106019
20
-15.731794
30
0
11
116.92653
21
-15.632466
31
0
39
0
210
0
220
0
230
1
0
LINE
5
B5
100
AcDbEntity
8
1
62
256
6
ByLayer
370
-1
48
1
60
0
100
AcDbLine
10
120.363868
20
-17.722799
30
0
11
120.525521
21
-17.776041
31
0
39
0
210
0
220
0
230
1
0
LINE
5
B6
100
AcDbEntity
8
1
62
256
6
ByLayer
370
-1
48
1
60
0
100
AcDbLine
10
117.677593
20
-11.801621
30
0
11
117.570088
21
-11.938032
31
0
39
0
210
0
220
0
230
1
0
LINE
5
B7
100
AcDbEntity
8
1
62
256
6
ByLayer
370
-1
48
1
60
0
100
AcDbLine
10
127.912288
20
-13.962417
30
0
11
127.912819
21
-13.34555
31
0
39
0
210
0
220
0
230
1
0
LINE
5
B8
100
AcDbEntity
8
1
62
256
6
ByLayer
370
-1
48
1
60
0
100
AcDbLine
10
127.914165
20
-13.174361
30
0
11
127.915745
21
-13.093725
31
0
39
0
210
0
220
0
230
1
0
LINE
5
B9
100
AcDbEntity
8
1
62
256
6
ByLayer
370
-1
48
1
60
0
100
AcDbLine
10
120.842622
20
-9.887095
30
0
11
120.282868
21
-10.210181
31
0
39
0
210
0
220
0
230
1
0
LINE
5
BA
100
AcDbEntity
8
1
62
256
6
ByLayer
370
-1
48
1
60
0
100
AcDbLine
10
124.414596
20
-7.732083
30
0
11
124.594085
21
-7.631189
31
0
39
0
210
0
220
0
230
1
0
LINE
5
BB
100
AcDbEntity
8
1
62
256
6
ByLayer
370
-1
48
1
60
0
100
AcDbLine
10
121.182175
20
-9.75141
30
0
11
121.015627
21
-9.806084
31
0
39
0
210
0
220
0
230
1
0
LINE
5
BC
100
AcDbEntity
8
1
62
256
6
ByLayer
370
-1
48
1
60
0
100
AcDbLine
10
127.837154
20
-10.431652
30
0
11
127.729649
21
-10.216928
31
0
39
0
210
0
220
0
230
1
0
LINE
5
BD
100
AcDbEntity
8
1
62
256
6
ByLayer
370
-1
48
1
60
0
100
AcDbLine
10
125.434689
20
-7.262782
30
0
11
125.418512
21
-7.01444
31
0
39
0
210
0
220
0
230
1
0
LINE
5
BE
100
AcDbEntity
8
1
62
256
6
ByLayer
370
-1
48
1
60
0
100
AcDbLine
10
125.292229
20
-7.085461
30
0
11
125.305343
21
-7.286775
31
0
39
0
210
0
220
0
230
1
0
LINE
5
BF
100
AcDbEntity
8
1
62
256
6
ByLayer
370
-1
48
1
60
0
100
AcDbLine
10
127.813585
20
-9.458615
30
0
11
127.882542
21
-10.517158
31
0
39
0
210
0
220
0
230
1
0
LINE
5
C0
100
AcDbEntity
8
1
62
256
6
ByLayer
370
-1
48
1
60
0
100
AcDbLine
10
127.177975
20
-6.401194
30
0
11
127.180014
21
-6.404597
31
0
39
0
210
0
220
0
230
1
0
LINE
5
C1
100
AcDbEntity
8
1
62
256
6
ByLayer
370
-1
48
1
60
0
100
AcDbLine
10
127.59051
20
-9.086324
30
0
11
127.813585
21
-9.458615
31
0
39
0
210
0
220
0
230
1
0
LINE
5
C2
100
AcDbEntity
8
1
62
256
6
ByLayer
370
-1
48
1
60
0
100
AcDbLine
10
127.19178
20
-7.693131
30
0
11
127.516211
21
-8.234576
31
0
39
0
210
0
220
0
230
1
0
LINE
5
C3
100
AcDbEntity
8
1
62
256
6
ByLayer
370
-1
48
1
60
0
100
AcDbLine
10
120.696485
20
-17.855551
30
0
11
121.2573
21
-18.173746
31
0
39
0
210
0
220
0
230
1
0
LINE
5
C4
100
AcDbEntity
8
1
62
256
6
ByLayer
370
-1
48
1
60
0
100
AcDbLine
10
121.43063
20
-18.289583
30
0
11
121.526244
21
-18.365881
31
0
39
0
210
0
220
0
230
1
0
LINE
5
C5
100
AcDbEntity
8
1
62
256
6
ByLayer
370
-1
48
1
60
0
100
AcDbLine
10
127.903042
20
-17.815383
30
0
11
127.903042
21
-18.015604
31
0
39
0
210
0
220
0
230
1
0
LINE
5
C6
100
AcDbEntity
8
1
62
256
6
ByLayer
370
-1
48
1
60
0
100
AcDbLine
10
127.915756
20
-14.390559
30
0
11
127.913309
21
-14.169933
31
0
39
0
210
0
220
0
230
1
0
LINE
5
C7
100
AcDbEntity
8
1
62
256
6
ByLayer
370
-1
48
1
60
0
100
AcDbLine
10
123.945737
20
-19.611298
30
0
11
124.153005
21
-19.570768
31
0
39
0
210
0
220
0
230
1
0
LINE
5
C8
100
AcDbEntity
8
1
62
256
6
ByLayer
370
-1
48
1
60
0
100
AcDbLine
10
127.905489
20
-17.529285
30
0
11
127.915318
21
-17.197685
31
0
39
0
210
0
220
0
230
1
0
LINE
5
C9
100
AcDbEntity
8
1
62
256
6
ByLayer
370
-1
48
1
60
0
100
AcDbLine
10
127.91636
20
-14.50431
30
0
11
127.91636
21
-17.075466
31
0
39
0
210
0
220
0
230
1
0
LINE
5
CA
100
AcDbEntity
8
1
62
256
6
ByLayer
370
-1
48
1
60
0
100
AcDbLine
10
123.732448
20
-19.595882
30
0
11
121.611836
21
-18.42235
31
0
39
0
210
0
220
0
230
1
0
LINE
5
CB
100
AcDbEntity
8
1
62
256
6
ByLayer
370
-1
48
1
60
0
100
AcDbLine
10
124.773034
20
-19.573057
30
0
11
124.95319
21
-19.828006
31
0
39
0
210
0
220
0
230
1
0
LINE
5
CC
100
AcDbEntity
8
1
62
256
6
ByLayer
370
-1
48
1
60
0
100
AcDbLine
10
125.099241
20
-19.904347
30
0
11
125.748103
21
-19.901515
31
0
39
0
210
0
220
0
230
1
0
LINE
5
CD
100
AcDbEntity
8
1
62
256
6
ByLayer
370
-1
48
1
60
0
100
AcDbLine
10
125.893483
20
-19.823903
30
0
11
125.933438
21
-19.7663
31
0
39
0
210
0
220
0
230
1
0
LINE
5
CE
100
AcDbEntity
8
1
62
256
6
ByLayer
370
-1
48
1
60
0
100
AcDbLine
10
126.038434
20
-19.710247
30
0
11
126.28243
21
-19.709182
31
0
39
0
210
0
220
0
230
1
0
LINE
5
CF
100
AcDbEntity
8
1
62
256
6
ByLayer
370
-1
48
1
60
0
100
AcDbLine
10
126.394286
20
-19.77423
30
0
11
126.836385
21
-20.53241
31
0
39
0
210
0
220
0
230
1
0
LINE
5
D0
100
AcDbEntity
8
1
62
256
6
ByLayer
370
-1
48
1
60
0
100
AcDbLine
10
126.912103
20
-20.576442
30
0
11
126.916181
21
-20.576425
31
0
39
0
210
0
220
0
230
1
0
LINE
5
D1
100
AcDbEntity
8
1
62
256
6
ByLayer
370
-1
48
1
60
0
100
AcDbLine
10
127.906524
20
-18.858581
30
0
11
127.903247
21
-18.107538
31
0
39
0
210
0
220
0
230
1
0
LINE
5
D2
100
AcDbEntity
8
1
62
256
6
ByLayer
370
-1
48
1
60
0
100
AcDbLine
10
126.991512
20
-20.531733
30
0
11
127.871697
21
-18.991523
31
0
39
0
210
0
220
0
230
1
0
LINE
5
D3
100
AcDbEntity
8
1
62
256
6
ByLayer
370
-1
48
1
60
0
100
AcDbLine
10
126.270122
20
-19.361018
30
0
11
126.815184
21
-20.295776
31
0
39
0
210
0
220
0
230
1
0
LINE
5
D4
100
AcDbEntity
8
1
62
256
6
ByLayer
370
-1
48
1
60
0
100
AcDbLine
10
126.772245
20
-18.751119
30
0
11
126.46604
21
-18.942477
31
0
39
0
210
0
220
0
230
1
0
LINE
5
D5
100
AcDbEntity
8
1
62
256
6
ByLayer
370
-1
48
1
60
0
100
AcDbLine
10
127.010647
20
-20.294923
30
0
11
127.547532
21
-19.355444
31
0
39
0
210
0
220
0
230
1
0
LINE
5
D6
100
AcDbEntity
8
1
62
256
6
ByLayer
370
-1
48
1
60
0
100
AcDbLine
10
127.347969
20
-18.938628
30
0
11
127.040106
21
-18.74995
31
0
39
0
210
0
220
0
230
1
0
LINE
5
D7
100
AcDbEntity
8
1
62
256
6
ByLayer
370
-1
48
1
60
0
100
AcDbLine
10
127.116479
20
-14.018472
30
0
11
127.915756
21
-14.390559
31
0
39
0
210
0
220
0
230
1
0
LINE
5
D8
100
AcDbEntity
8
1
62
256
6
ByLayer
370
-1
48
1
60
0
100
AcDbLine
10
127.915318
20
-17.197685
30
0
11
123.945737
21
-19.611298
31
0
39
0
210
0
220
0
230
1
0
LINE
5
D9
100
AcDbEntity
8
1
62
256
6
ByLayer
370
-1
48
1
60
0
100
AcDbLine
10
122.079844
20
-17.404589
30
0
11
121.643511
21
-16.969991
31
0
39
0
210
0
220
0
230
1
0
LINE
5
DA
100
AcDbEntity
8
1
62
256
6
ByLayer
370
-1
48
1
60
0
100
AcDbLine
10
121.526244
20
-18.365881
30
0
11
121.801714
21
-17.942584
31
0
39
0
210
0
220
0
230
1
0
LINE
5
DB
100
AcDbEntity
8
1
62
256
6
ByLayer
370
-1
48
1
60
0
100
AcDbLine
10
121.885269
20
-18.002183
30
0
11
121.611836
21
-18.42235
31
0
39
0
210
0
220
0
230
1
0
LINE
5
DC
100
AcDbEntity
8
1
62
256
6
ByLayer
370
-1
48
1
60
0
100
AcDbLine
10
121.662284
20
-16.953022
30
0
11
122.098616
21
-17.38762
31
0
39
0
210
0
220
0
230
1
0
LINE
5
DD
100
AcDbEntity
8
1
62
256
6
ByLayer
370
-1
48
1
60
0
100
AcDbLine
10
123.753804
20
-19.606412
30
0
11
127.91636
21
-17.075466
31
0
39
0
210
0
220
0
230
1
0
LINE
5
DE
100
AcDbEntity
8
1
62
256
6
ByLayer
370
-1
48
1
60
0
100
AcDbLine
10
127.91636
20
-14.50431
30
0
11
127.074542
21
-14.112419
31
0
39
0
210
0
220
0
230
1
0
LINE
5
DF
100
AcDbEntity
8
1
62
256
6
ByLayer
370
-1
48
1
60
0
100
AcDbLine
10
127.537956
20
-17.77069
30
0
11
127.905489
21
-17.529285
31
0
39
0
210
0
220
0
230
1
0
LINE
5
E0
100
AcDbEntity
8
1
62
256
6
ByLayer
370
-1
48
1
60
0
100
AcDbLine
10
124.153005
20
-19.570768
30
0
11
127.537956
21
-17.77069
31
0
39
0
210
0
220
0
230
1
0
LINE
5
E1
100
AcDbEntity
8
1
62
256
6
ByLayer
370
-1
48
1
60
0
100
AcDbLine
10
127.903247
20
-18.107538
30
0
11
127.673085
21
-18.030844
31
0
39
0
210
0
220
0
230
1
0
LINE
5
E2
100
AcDbEntity
8
1
62
256
6
ByLayer
370
-1
48
1
60
0
100
AcDbLine
10
127.673085
20
-18.030844
30
0
11
124.773034
21
-19.573057
31
0
39
0
210
0
220
0
230
1
0
LINE
5
E3
100
AcDbEntity
8
1
62
256
6
ByLayer
370
-1
48
1
60
0
100
AcDbLine
10
127.700807
20
-17.948216
30
0
11
127.903042
21
-18.015604
31
0
39
0
210
0
220
0
230
1
0
LINE
5
E4
100
AcDbEntity
8
1
62
256
6
ByLayer
370
-1
48
1
60
0
100
AcDbLine
10
127.903042
20
-17.815383
30
0
11
127.700807
21
-17.948216
31
0
39
0
210
0
220
0
230
1
0
LINE
5
E5
100
AcDbEntity
8
1
62
256
6
ByLayer
370
-1
48
1
60
0
100
AcDbLine
10
127.913309
20
-14.169933
30
0
11
127.116479
21
-14.018472
31
0
39
0
210
0
220
0
230
1
0
LINE
5
E6
100
AcDbEntity
8
1
62
256
6
ByLayer
370
-1
48
1
60
0
100
AcDbLine
10
120.696485
20
-17.855551
30
0
11
121.643511
21
-16.969991
31
0
39
0
210
0
220
0
230
1
0
LINE
5
E7
100
AcDbEntity
8
1
62
256
6
ByLayer
370
-1
48
1
60
0
100
AcDbLine
10
121.2573
20
-18.173746
30
0
11
122.079844
21
-17.404589
31
0
39
0
210
0
220
0
230
1
0
LINE
5
E8
100
AcDbEntity
8
1
62
256
6
ByLayer
370
-1
48
1
60
0
100
AcDbLine
10
121.43063
20
-18.289583
30
0
11
121.801714
21
-17.942584
31
0
39
0
210
0
220
0
230
1
0
LINE
5
E9
100
AcDbEntity
8
1
62
256
6
ByLayer
370
-1
48
1
60
0
100
AcDbLine
10
127.31133
20
-19.211686
30
0
11
127.006617
21
-19.744895
31
0
39
0
210
0
220
0
230
1
0
LINE
5
EA
100
AcDbEntity
8
1
62
256
6
ByLayer
370
-1
48
1
60
0
100
AcDbLine
10
126.811154
20
-19.745747
30
0
11
126.5018
21
-19.215219
31
0
39
0
210
0
220
0
230
1
0
LINE
5
EB
100
AcDbEntity
8
1
62
256
6
ByLayer
370
-1
48
1
60
0
100
AcDbLine
10
126.598961
20
-19.158361
30
0
11
126.908316
21
-19.688889
31
0
39
0
210
0
220
0
230
1
0
LINE
5
EC
100
AcDbEntity
8
1
62
256
6
ByLayer
370
-1
48
1
60
0
100
AcDbLine
10
126.908316
20
-19.688889
30
0
11
127.213028
21
-19.155681
31
0
39
0
210
0
220
0
230
1
0
LINE
5
ED
100
AcDbEntity
8
1
62
256
6
ByLayer
370
-1
48
1
60
0
100
AcDbLine
10
126.815184
20
-20.295776
30
0
11
126.811154
21
-19.745747
31
0
39
0
210
0
220
0
230
1
0
LINE
5
EE
100
AcDbEntity
8
1
62
256
6
ByLayer
370
-1
48
1
60
0
100
AcDbLine
10
127.006617
20
-19.744895
30
0
11
127.010647
21
-20.294923
31
0
39
0
210
0
220
0
230
1
0
LINE
5
EF
100
AcDbEntity
8
1
62
256
6
ByLayer
370
-1
48
1
60
0
100
AcDbLine
10
127.213028
20
-19.155681
30
0
11
126.905166
21
-18.967002
31
0
39
0
210
0
220
0
230
1
0
LINE
5
F0
100
AcDbEntity
8
1
62
256
6
ByLayer
370
-1
48
1
60
0
100
AcDbLine
10
127.547532
20
-19.355444
30
0
11
127.31133
21
-19.211686
31
0
39
0
210
0
220
0
230
1
0
LINE
5
F1
100
AcDbEntity
8
1
62
256
6
ByLayer
370
-1
48
1
60
0
100
AcDbLine
10
126.598961
20
-19.158361
30
0
11
126.905166
21
-18.967002
31
0
39
0
210
0
220
0
230
1
0
LINE
5
F2
100
AcDbEntity
8
1
62
256
6
ByLayer
370
-1
48
1
60
0
100
AcDbLine
10
126.270122
20
-19.361018
30
0
11
126.5018
21
-19.215219
31
0
39
0
210
0
220
0
230
1
0
LINE
5
F3
100
AcDbEntity
8
1
62
256
6
ByLayer
370
-1
48
1
60
0
100
AcDbLine
10
117.698195
20
-11.357142
30
0
11
117.72298
21
-11.737622
31
0
39
0
210
0
220
0
230
1
0
LINE
5
F4
100
AcDbEntity
8
1
62
256
6
ByLayer
370
-1
48
1
60
0
100
AcDbLine
10
117.814803
20
-11.653887
30
0
11
117.792034
21
-11.304363
31
0
39
0
210
0
220
0
230
1
0
LINE
5
F5
100
AcDbEntity
8
1
62
256
6
ByLayer
370
-1
48
1
60
0
100
AcDbLine
10
116.271166
20
-12.625804
30
0
11
116.37348
21
-12.454157
31
0
39
0
210
0
220
0
230
1
0
LINE
5
F6
100
AcDbEntity
8
1
62
256
6
ByLayer
370
-1
48
1
60
0
100
AcDbLine
10
115.305429
20
-12.705297
30
0
11
116.160566
21
-12.689057
31
0
39
0
210
0
220
0
230
1
0
LINE
5
F7
100
AcDbEntity
8
1
62
256
6
ByLayer
370
-1
48
1
60
0
100
AcDbLine
10
115.228523
20
-12.751535
30
0
11
115.230562
21
-12.748115
31
0
39
0
210
0
220
0
230
1
0
LINE
5
F8
100
AcDbEntity
8
1
62
256
6
ByLayer
370
-1
48
1
60
0
100
AcDbLine
10
116.443787
20
-13.070784
30
0
11
116.379828
21
-12.088963
31
0
39
0
210
0
220
0
230
1
0
LINE
5
F9
100
AcDbEntity
8
1
62
256
6
ByLayer
370
-1
48
1
60
0
100
AcDbLine
10
116.768218
20
-12.526507
30
0
11
116.727242
21
-11.897498
31
0
39
0
210
0
220
0
230
1
0
LINE
5
FA
100
AcDbEntity
8
1
62
256
6
ByLayer
370
-1
48
1
60
0
100
AcDbLine
10
116.905124
20
-12.434752
30
0
11
116.865441
21
-11.825588
31
0
39
0
210
0
220
0
230
1
0
LINE
5
FB
100
AcDbEntity
8
1
62
256
6
ByLayer
370
-1
48
1
60
0
100
AcDbLine
10
117.209426
20
-12.385487
30
0
11
117.162082
21
-11.658722
31
0
39
0
210
0
220
0
230
1
0
LINE
5
FC
100
AcDbEntity
8
1
62
256
6
ByLayer
370
-1
48
1
60
0
100
AcDbLine
10
117.308563
20
-12.323227
30
0
11
117.261628
21
-11.602725
31
0
39
0
210
0
220
0
230
1
0
LINE
5
FD
100
AcDbEntity
8
1
62
256
6
ByLayer
370
-1
48
1
60
0
100
AcDbLine
10
117.398606
20
-15.929913
30
0
11
117.840952
21
-16.320144
31
0
39
0
210
0
220
0
230
1
0
LINE
5
FE
100
AcDbEntity
8
1
62
256
6
ByLayer
370
-1
48
1
60
0
100
AcDbLine
10
120.270809
20
-17.680235
30
0
11
117.965901
21
-16.404715
31
0
39
0
210
0
220
0
230
1
0
LINE
5
FF
100
AcDbEntity
8
1
62
256
6
ByLayer
370
-1
48
1
60
0
100
AcDbLine
10
117.814803
20
-11.653887
30
0
11
119.935415
21
-10.461847
31
0
39
0
210
0
220
0
230
1
0
LINE
5
100
100
AcDbEntity
8
1
62
256
6
ByLayer
370
-1
48
1
60
0
100
AcDbLine
10
117.207422
20
-12.385809
30
0
11
116.905124
21
-12.434752
31
0
39
0
210
0
220
0
230
1
0
LINE
5
101
100
AcDbEntity
8
1
62
256
6
ByLayer
370
-1
48
1
60
0
100
AcDbLine
10
116.768218
20
-12.526507
30
0
11
116.443787
21
-13.070784
31
0
39
0
210
0
220
0
230
1
0
LINE
5
102
100
AcDbEntity
8
1
62
256
6
ByLayer
370
-1
48
1
60
0
100
AcDbLine
10
116.434978
20
-13.223486
30
0
11
116.462656
21
-13.279945
31
0
39
0
210
0
220
0
230
1
0
LINE
5
103
100
AcDbEntity
8
1
62
256
6
ByLayer
370
-1
48
1
60
0
100
AcDbLine
10
116.456294
20
-13.39023
30
0
11
116.334296
21
-13.594898
31
0
39
0
210
0
220
0
230
1
0
LINE
5
104
100
AcDbEntity
8
1
62
256
6
ByLayer
370
-1
48
1
60
0
100
AcDbLine
10
116.223982
20
-13.662541
30
0
11
115.372161
21
-13.729691
31
0
39
0
210
0
220
0
230
1
0
LINE
5
105
100
AcDbEntity
8
1
62
256
6
ByLayer
370
-1
48
1
60
0
100
AcDbLine
10
115.297487
20
-13.77548
30
0
11
115.295449
21
-13.778901
31
0
39
0
210
0
220
0
230
1
0
LINE
5
106
100
AcDbEntity
8
1
62
256
6
ByLayer
370
-1
48
1
60
0
100
AcDbLine
10
116.222234
20
-15.294229
30
0
11
116.847134
21
-15.591554
31
0
39
0
210
0
220
0
230
1
0
LINE
5
107
100
AcDbEntity
8
1
62
256
6
ByLayer
370
-1
48
1
60
0
100
AcDbLine
10
115.294598
20
-13.859814
30
0
11
116.129453
21
-15.211962
31
0
39
0
210
0
220
0
230
1
0
LINE
5
108
100
AcDbEntity
8
1
62
256
6
ByLayer
370
-1
48
1
60
0
100
AcDbLine
10
116.629416
20
-13.723699
30
0
11
115.579208
21
-13.806488
31
0
39
0
210
0
220
0
230
1
0
LINE
5
109
100
AcDbEntity
8
1
62
256
6
ByLayer
370
-1
48
1
60
0
100
AcDbLine
10
116.882658
20
-14.387689
30
0
11
116.878072
21
-14.054919
31
0
39
0
210
0
220
0
230
1
0
LINE
5
10A
100
AcDbEntity
8
1
62
256
6
ByLayer
370
-1
48
1
60
0
100
AcDbLine
10
115.481476
20
-13.970446
30
0
11
115.990711
21
-14.795213
31
0
39
0
210
0
220
0
230
1
0
LINE
5
10B
100
AcDbEntity
8
1
62
256
6
ByLayer
370
-1
48
1
60
0
100
AcDbLine
10
116.437108
20
-14.794696
30
0
11
116.748728
21
-14.612375
31
0
39
0
210
0
220
0
230
1
0
LINE
5
10C
100
AcDbEntity
8
1
62
256
6
ByLayer
370
-1
48
1
60
0
100
AcDbLine
10
121.100191
20
-17.23867
30
0
11
120.363868
21
-17.722799
31
0
39
0
210
0
220
0
230
1
0
LINE
5
10D
100
AcDbEntity
8
1
62
256
6
ByLayer
370
-1
48
1
60
0
100
AcDbLine
10
117.840952
20
-16.320144
30
0
11
117.677593
21
-11.801621
31
0
39
0
210
0
220
0
230
1
0
LINE
5
10E
100
AcDbEntity
8
1
62
256
6
ByLayer
370
-1
48
1
60
0
100
AcDbLine
10
120.611363
20
-11.357456
30
0
11
121.22083
21
-11.207996
31
0
39
0
210
0
220
0
230
1
0
LINE
5
10F
100
AcDbEntity
8
1
62
256
6
ByLayer
370
-1
48
1
60
0
100
AcDbLine
10
120.019776
20
-10.404637
30
0
11
120.260427
21
-10.845101
31
0
39
0
210
0
220
0
230
1
0
LINE
5
110
100
AcDbEntity
8
1
62
256
6
ByLayer
370
-1
48
1
60
0
100
AcDbLine
10
120.174287
20
-10.899055
30
0
11
119.935415
21
-10.461847
31
0
39
0
210
0
220
0
230
1
0
LINE
5
111
100
AcDbEntity
8
1
62
256
6
ByLayer
370
-1
48
1
60
0
100
AcDbLine
10
121.227169
20
-11.232971
30
0
11
120.617702
21
-11.382431
31
0
39
0
210
0
220
0
230
1
0
LINE
5
112
100
AcDbEntity
8
1
62
256
6
ByLayer
370
-1
48
1
60
0
100
AcDbLine
10
117.794601
20
-11.66653
30
0
11
117.965901
21
-16.404715
31
0
39
0
210
0
220
0
230
1
0
LINE
5
113
100
AcDbEntity
8
1
62
256
6
ByLayer
370
-1
48
1
60
0
100
AcDbLine
10
120.270809
20
-17.680235
30
0
11
121.046322
21
-17.170339
31
0
39
0
210
0
220
0
230
1
0
LINE
5
114
100
AcDbEntity
8
1
62
256
6
ByLayer
370
-1
48
1
60
0
100
AcDbLine
10
117.359139
20
-15.490678
30
0
11
117.398606
21
-15.929913
31
0
39
0
210
0
220
0
230
1
0
LINE
5
115
100
AcDbEntity
8
1
62
256
6
ByLayer
370
-1
48
1
60
0
100
AcDbLine
10
117.570088
20
-11.938032
30
0
11
117.359139
21
-15.490678
31
0
39
0
210
0
220
0
230
1
0
LINE
5
116
100
AcDbEntity
8
1
62
256
6
ByLayer
370
-1
48
1
60
0
100
AcDbLine
10
116.847134
20
-15.591554
30
0
11
117.026693
21
-15.429533
31
0
39
0
210
0
220
0
230
1
0
LINE
5
117
100
AcDbEntity
8
1
62
256
6
ByLayer
370
-1
48
1
60
0
100
AcDbLine
10
117.026693
20
-15.429533
30
0
11
117.207422
21
-12.385809
31
0
39
0
210
0
220
0
230
1
0
LINE
5
118
100
AcDbEntity
8
1
62
256
6
ByLayer
370
-1
48
1
60
0
100
AcDbLine
10
117.084302
20
-15.490105
30
0
11
116.92653
21
-15.632466
31
0
39
0
210
0
220
0
230
1
0
LINE
5
119
100
AcDbEntity
8
1
62
256
6
ByLayer
370
-1
48
1
60
0
100
AcDbLine
10
117.106019
20
-15.731794
30
0
11
117.084302
21
-15.490105
31
0
39
0
210
0
220
0
230
1
0
LINE
5
11A
100
AcDbEntity
8
1
62
256
6
ByLayer
370
-1
48
1
60
0
100
AcDbLine
10
120.525521
20
-17.776041
30
0
11
121.100191
21
-17.23867
31
0
39
0
210
0
220
0
230
1
0
LINE
5
11B
100
AcDbEntity
8
1
62
256
6
ByLayer
370
-1
48
1
60
0
100
AcDbLine
10
120.282868
20
-10.210181
30
0
11
120.611363
21
-11.357456
31
0
39
0
210
0
220
0
230
1
0
LINE
5
11C
100
AcDbEntity
8
1
62
256
6
ByLayer
370
-1
48
1
60
0
100
AcDbLine
10
120.112229
20
-10.327518
30
0
11
120.260427
21
-10.845101
31
0
39
0
210
0
220
0
230
1
0
LINE
5
11D
100
AcDbEntity
8
1
62
256
6
ByLayer
370
-1
48
1
60
0
100
AcDbLine
10
116.204083
20
-14.618861
30
0
11
115.915063
21
-14.150758
31
0
39
0
210
0
220
0
230
1
0
LINE
5
11E
100
AcDbEntity
8
1
62
256
6
ByLayer
370
-1
48
1
60
0
100
AcDbLine
10
116.012794
20
-13.986801
30
0
11
116.608848
21
-13.939813
31
0
39
0
210
0
220
0
230
1
0
LINE
5
11F
100
AcDbEntity
8
1
62
256
6
ByLayer
370
-1
48
1
60
0
100
AcDbLine
10
116.602152
20
-14.03669
30
0
11
116.006099
21
-14.083677
31
0
39
0
210
0
220
0
230
1
0
LINE
5
120
100
AcDbEntity
8
1
62
256
6
ByLayer
370
-1
48
1
60
0
100
AcDbLine
10
116.006099
20
-14.083677
30
0
11
116.295119
21
-14.55178
31
0
39
0
210
0
220
0
230
1
0
LINE
5
121
100
AcDbEntity
8
1
62
256
6
ByLayer
370
-1
48
1
60
0
100
AcDbLine
10
115.579208
20
-13.806488
30
0
11
116.012794
21
-13.986801
31
0
39
0
210
0
220
0
230
1
0
LINE
5
122
100
AcDbEntity
8
1
62
256
6
ByLayer
370
-1
48
1
60
0
100
AcDbLine
10
115.915063
20
-14.150758
30
0
11
115.481476
21
-13.970446
31
0
39
0
210
0
220
0
230
1
0
LINE
5
123
100
AcDbEntity
8
1
62
256
6
ByLayer
370
-1
48
1
60
0
100
AcDbLine
10
116.295119
20
-14.55178
30
0
11
116.606739
21
-14.36946
31
0
39
0
210
0
220
0
230
1
0
LINE
5
124
100
AcDbEntity
8
1
62
256
6
ByLayer
370
-1
48
1
60
0
100
AcDbLine
10
115.990711
20
-14.795213
30
0
11
116.204083
21
-14.618861
31
0
39
0
210
0
220
0
230
1
0
LINE
5
125
100
AcDbEntity
8
1
62
256
6
ByLayer
370
-1
48
1
60
0
100
AcDbLine
10
116.602152
20
-14.03669
30
0
11
116.606739
21
-14.36946
31
0
39
0
210
0
220
0
230
1
0
LINE
5
126
100
AcDbEntity
8
1
62
256
6
ByLayer
370
-1
48
1
60
0
100
AcDbLine
10
116.629416
20
-13.723699
30
0
11
116.608848
21
-13.939813
31
0
39
0
210
0
220
0
230
1
0
LINE
5
127
100
AcDbEntity
8
1
62
256
6
ByLayer
370
-1
48
1
60
0
100
AcDbLine
10
115.295449
20
-13.778901
30
0
11
115.228523
21
-12.751535
31
0
39
0
210
0
220
0
230
1
0
LINE
5
128
100
AcDbEntity
8
1
62
256
6
ByLayer
370
-1
48
1
60
0
100
AcDbLine
10
115.297487
20
-13.77548
30
0
11
115.230562
21
-12.748115
31
0
39
0
210
0
220
0
230
1
0
LINE
5
129
100
AcDbEntity
8
1
62
256
6
ByLayer
370
-1
48
1
60
0
100
AcDbLine
10
115.372161
20
-13.729691
30
0
11
115.305429
21
-12.705297
31
0
39
0
210
0
220
0
230
1
0
LINE
5
12A
100
AcDbEntity
8
1
62
256
6
ByLayer
370
-1
48
1
60
0
100
AcDbLine
10
116.223982
20
-13.662541
30
0
11
116.160566
21
-12.689057
31
0
39
0
210
0
220
0
230
1
0
LINE
5
12B
100
AcDbEntity
8
1
62
256
6
ByLayer
370
-1
48
1
60
0
100
AcDbLine
10
116.334296
20
-13.594898
30
0
11
116.271166
21
-12.625804
31
0
39
0
210
0
220
0
230
1
0
LINE
5
12C
100
AcDbEntity
8
1
62
256
6
ByLayer
370
-1
48
1
60
0
100
AcDbLine
10
116.456294
20
-13.39023
30
0
11
116.447033
21
-13.248076
31
0
39
0
210
0
220
0
230
1
0
LINE
5
12D
100
AcDbEntity
8
1
62
256
6
ByLayer
370
-1
48
1
60
0
100
AcDbLine
10
116.379828
20
-12.088963
30
0
11
116.492401
21
-11.900107
31
0
39
0
210
0
220
0
230
1
0
LINE
5
12E
100
AcDbEntity
8
1
62
256
6
ByLayer
370
-1
48
1
60
0
100
AcDbLine
10
127.468125
20
-9.737446
30
0
11
127.460911
21
-9.626705
31
0
39
0
210
0
220
0
230
1
0
LINE
5
12F
100
AcDbEntity
8
1
62
256
6
ByLayer
370
-1
48
1
60
0
100
AcDbLine
10
124.126903
20
-7.932735
30
0
11
123.704214
21
-8.326741
31
0
39
0
210
0
220
0
230
1
0
LINE
5
130
100
AcDbEntity
8
1
62
256
6
ByLayer
370
-1
48
1
60
0
100
AcDbLine
10
121.276442
20
-9.708029
30
0
11
123.581349
21
-8.412393
31
0
39
0
210
0
220
0
230
1
0
LINE
5
131
100
AcDbEntity
8
1
62
256
6
ByLayer
370
-1
48
1
60
0
100
AcDbLine
10
127.91636
20
-10.642805
30
0
11
127.91636
21
-13.008377
31
0
39
0
210
0
220
0
230
1
0
LINE
5
132
100
AcDbEntity
8
1
62
256
6
ByLayer
370
-1
48
1
60
0
100
AcDbLine
10
127.462818
20
-9.621531
30
0
11
127.588308
21
-9.369025
31
0
39
0
210
0
220
0
230
1
0
LINE
5
133
100
AcDbEntity
8
1
62
256
6
ByLayer
370
-1
48
1
60
0
100
AcDbLine
10
127.58017
20
-9.216396
30
0
11
127.255739
21
-8.674951
31
0
39
0
210
0
220
0
230
1
0
LINE
5
134
100
AcDbEntity
8
1
62
256
6
ByLayer
370
-1
48
1
60
0
100
AcDbLine
10
127.118162
20
-8.584394
30
0
11
127.049776
21
-8.573998
31
0
39
0
210
0
220
0
230
1
0
LINE
5
135
100
AcDbEntity
8
1
62
256
6
ByLayer
370
-1
48
1
60
0
100
AcDbLine
10
126.950415
20
-8.508596
30
0
11
126.828417
21
-8.304993
31
0
39
0
210
0
220
0
230
1
0
LINE
5
136
100
AcDbEntity
8
1
62
256
6
ByLayer
370
-1
48
1
60
0
100
AcDbLine
10
126.827731
20
-8.18547
30
0
11
127.247403
21
-7.51287
31
0
39
0
210
0
220
0
230
1
0
LINE
5
137
100
AcDbEntity
8
1
62
256
6
ByLayer
370
-1
48
1
60
0
100
AcDbLine
10
127.24694
20
-7.431962
30
0
11
127.244901
21
-7.42856
31
0
39
0
210
0
220
0
230
1
0
LINE
5
138
100
AcDbEntity
8
1
62
256
6
ByLayer
370
-1
48
1
60
0
100
AcDbLine
10
125.305343
20
-7.286775
30
0
11
124.67389
21
-7.589582
31
0
39
0
210
0
220
0
230
1
0
LINE
5
139
100
AcDbEntity
8
1
62
256
6
ByLayer
370
-1
48
1
60
0
100
AcDbLine
10
127.16984
20
-7.383424
30
0
11
125.434689
21
-7.262782
31
0
39
0
210
0
220
0
230
1
0
LINE
5
13A
100
AcDbEntity
8
1
62
256
6
ByLayer
370
-1
48
1
60
0
100
AcDbLine
10
126.541047
20
-8.454388
30
0
11
127.058459
21
-7.625141
31
0
39
0
210
0
220
0
230
1
0
LINE
5
13B
100
AcDbEntity
8
1
62
256
6
ByLayer
370
-1
48
1
60
0
100
AcDbLine
10
125.777727
20
-8.27819
30
0
11
126.091005
21
-8.457783
31
0
39
0
210
0
220
0
230
1
0
LINE
5
13C
100
AcDbEntity
8
1
62
256
6
ByLayer
370
-1
48
1
60
0
100
AcDbLine
10
126.960728
20
-7.462037
30
0
11
125.902341
21
-7.388449
31
0
39
0
210
0
220
0
230
1
0
LINE
5
13D
100
AcDbEntity
8
1
62
256
6
ByLayer
370
-1
48
1
60
0
100
AcDbLine
10
125.650041
20
-7.721855
30
0
11
125.643796
21
-8.054672
31
0
39
0
210
0
220
0
230
1
0
LINE
5
13E
100
AcDbEntity
8
1
62
256
6
ByLayer
370
-1
48
1
60
0
100
AcDbLine
10
121.245129
20
-10.607626
30
0
11
121.182175
21
-9.75141
31
0
39
0
210
0
220
0
230
1
0
LINE
5
13F
100
AcDbEntity
8
1
62
256
6
ByLayer
370
-1
48
1
60
0
100
AcDbLine
10
123.704214
20
-8.326741
30
0
11
127.837154
21
-10.431652
31
0
39
0
210
0
220
0
230
1
0
LINE
5
140
100
AcDbEntity
8
1
62
256
6
ByLayer
370
-1
48
1
60
0
100
AcDbLine
10
126.772289
20
-13.128759
30
0
11
126.599154
21
-13.712817
31
0
39
0
210
0
220
0
230
1
0
LINE
5
141
100
AcDbEntity
8
1
62
256
6
ByLayer
370
-1
48
1
60
0
100
AcDbLine
10
127.915745
20
-13.093725
30
0
11
127.399624
21
-13.076557
31
0
39
0
210
0
220
0
230
1
0
LINE
5
142
100
AcDbEntity
8
1
62
256
6
ByLayer
370
-1
48
1
60
0
100
AcDbLine
10
127.404056
20
-12.991335
30
0
11
127.91636
21
-13.008377
31
0
39
0
210
0
220
0
230
1
0
LINE
5
143
100
AcDbEntity
8
1
62
256
6
ByLayer
370
-1
48
1
60
0
100
AcDbLine
10
126.574158
20
-13.706581
30
0
11
126.747292
21
-13.122523
31
0
39
0
210
0
220
0
230
1
0
LINE
5
144
100
AcDbEntity
8
1
62
256
6
ByLayer
370
-1
48
1
60
0
100
AcDbLine
10
127.915206
20
-10.619631
30
0
11
123.581349
21
-8.412393
31
0
39
0
210
0
220
0
230
1
0
LINE
5
145
100
AcDbEntity
8
1
62
256
6
ByLayer
370
-1
48
1
60
0
100
AcDbLine
10
121.276442
20
-9.708029
30
0
11
121.342747
21
-10.609816
31
0
39
0
210
0
220
0
230
1
0
LINE
5
146
100
AcDbEntity
8
1
62
256
6
ByLayer
370
-1
48
1
60
0
100
AcDbLine
10
124.532278
20
-8.105635
30
0
11
124.126903
21
-7.932735
31
0
39
0
210
0
220
0
230
1
0
LINE
5
147
100
AcDbEntity
8
1
62
256
6
ByLayer
370
-1
48
1
60
0
100
AcDbLine
10
127.729649
20
-10.216928
30
0
11
124.532278
21
-8.105635
31
0
39
0
210
0
220
0
230
1
0
LINE
5
148
100
AcDbEntity
8
1
62
256
6
ByLayer
370
-1
48
1
60
0
100
AcDbLine
10
124.67389
20
-7.589582
30
0
11
124.723476
21
-7.812684
31
0
39
0
210
0
220
0
230
1
0
LINE
5
149
100
AcDbEntity
8
1
62
256
6
ByLayer
370
-1
48
1
60
0
100
AcDbLine
10
124.723476
20
-7.812684
30
0
11
127.462818
21
-9.621531
31
0
39
0
210
0
220
0
230
1
0
LINE
5
14A
100
AcDbEntity
8
1
62
256
6
ByLayer
370
-1
48
1
60
0
100
AcDbLine
10
124.637654
20
-7.827221
30
0
11
124.594085
21
-7.631189
31
0
39
0
210
0
220
0
230
1
0
LINE
5
14B
100
AcDbEntity
8
1
62
256
6
ByLayer
370
-1
48
1
60
0
100
AcDbLine
10
124.414596
20
-7.732083
30
0
11
124.637654
21
-7.827221
31
0
39
0
210
0
220
0
230
1
0
LINE
5
14C
100
AcDbEntity
8
1
62
256
6
ByLayer
370
-1
48
1
60
0
100
AcDbLine
10
121.015627
20
-9.806084
30
0
11
121.245129
21
-10.607626
31
0
39
0
210
0
220
0
230
1
0
LINE
5
14D
100
AcDbEntity
8
1
62
256
6
ByLayer
370
-1
48
1
60
0
100
AcDbLine
10
120.842622
20
-9.887095
30
0
11
121.22083
21
-11.207996
31
0
39
0
210
0
220
0
230
1
0
LINE
5
14E
100
AcDbEntity
8
1
62
256
6
ByLayer
370
-1
48
1
60
0
100
AcDbLine
10
127.912288
20
-13.962417
30
0
11
126.599154
21
-13.712817
31
0
39
0
210
0
220
0
230
1
0
LINE
5
14F
100
AcDbEntity
8
1
62
256
6
ByLayer
370
-1
48
1
60
0
100
AcDbLine
10
127.912819
20
-13.34555
30
0
11
126.772289
21
-13.128759
31
0
39
0
210
0
220
0
230
1
0
LINE
5
150
100
AcDbEntity
8
1
62
256
6
ByLayer
370
-1
48
1
60
0
100
AcDbLine
10
127.914165
20
-13.174361
30
0
11
127.399624
21
-13.076557
31
0
39
0
210
0
220
0
230
1
0
LINE
5
151
100
AcDbEntity
8
1
62
256
6
ByLayer
370
-1
48
1
60
0
100
AcDbLine
10
125.918387
20
-7.604403
30
0
11
126.519082
21
-7.646168
31
0
39
0
210
0
220
0
230
1
0
LINE
5
152
100
AcDbEntity
8
1
62
256
6
ByLayer
370
-1
48
1
60
0
100
AcDbLine
10
126.616813
20
-7.809273
30
0
11
126.323152
21
-8.279918
31
0
39
0
210
0
220
0
230
1
0
LINE
5
153
100
AcDbEntity
8
1
62
256
6
ByLayer
370
-1
48
1
60
0
100
AcDbLine
10
126.230975
20
-8.213637
30
0
11
126.524636
21
-7.742992
31
0
39
0
210
0
220
0
230
1
0
LINE
5
154
100
AcDbEntity
8
1
62
256
6
ByLayer
370
-1
48
1
60
0
100
AcDbLine
10
126.524636
20
-7.742992
30
0
11
125.923942
21
-7.701226
31
0
39
0
210
0
220
0
230
1
0
LINE
5
155
100
AcDbEntity
8
1
62
256
6
ByLayer
370
-1
48
1
60
0
100
AcDbLine
10
127.058459
20
-7.625141
30
0
11
126.616813
21
-7.809273
31
0
39
0
210
0
220
0
230
1
0
LINE
5
156
100
AcDbEntity
8
1
62
256
6
ByLayer
370
-1
48
1
60
0
100
AcDbLine
10
126.519082
20
-7.646168
30
0
11
126.960728
21
-7.462037
31
0
39
0
210
0
220
0
230
1
0
LINE
5
157
100
AcDbEntity
8
1
62
256
6
ByLayer
370
-1
48
1
60
0
100
AcDbLine
10
125.923942
20
-7.701226
30
0
11
125.917697
21
-8.034044
31
0
39
0
210
0
220
0
230
1
0
LINE
5
158
100
AcDbEntity
8
1
62
256
6
ByLayer
370
-1
48
1
60
0
100
AcDbLine
10
125.902341
20
-7.388449
30
0
11
125.918387
21
-7.604403
31
0
39
0
210
0
220
0
230
1
0
LINE
5
159
100
AcDbEntity
8
1
62
256
6
ByLayer
370
-1
48
1
60
0
100
AcDbLine
10
126.230975
20
-8.213637
30
0
11
125.917697
21
-8.034044
31
0
39
0
210
0
220
0
230
1
0
LINE
5
15A
100
AcDbEntity
8
1
62
256
6
ByLayer
370
-1
48
1
60
0
100
AcDbLine
10
126.541047
20
-8.454388
30
0
11
126.323152
21
-8.279918
31
0
39
0
210
0
220
0
230
1
0
LINE
5
15B
100
AcDbEntity
8
1
62
256
6
ByLayer
370
-1
48
1
60
0
100
AcDbLine
10
127.16984
20
-7.383424
30
0
11
127.103108
21
-6.35903
31
0
39
0
210
0
220
0
230
1
0
LINE
5
15C
100
AcDbEntity
8
1
62
256
6
ByLayer
370
-1
48
1
60
0
100
AcDbLine
10
127.244901
20
-7.42856
30
0
11
127.177975
21
-6.401194
31
0
39
0
210
0
220
0
230
1
0
LINE
5
15D
100
AcDbEntity
8
1
62
256
6
ByLayer
370
-1
48
1
60
0
100
AcDbLine
10
127.24694
20
-7.431962
30
0
11
127.180014
21
-6.404597
31
0
39
0
210
0
220
0
230
1
0
LINE
5
15E
100
AcDbEntity
8
1
62
256
6
ByLayer
370
-1
48
1
60
0
100
AcDbLine
10
126.828417
20
-8.304993
30
0
11
126.82139
21
-8.197135
31
0
39
0
210
0
220
0
230
1
0
LINE
5
15F
100
AcDbEntity
8
1
62
256
6
ByLayer
370
-1
48
1
60
0
100
AcDbLine
10
126.950415
20
-8.508596
30
0
11
126.919757
21
-8.037979
31
0
39
0
210
0
220
0
230
1
0
LINE
5
160
100
AcDbEntity
8
1
62
256
6
ByLayer
370
-1
48
1
60
0
100
AcDbLine
10
127.049776
20
-8.573998
30
0
11
127.005869
21
-7.899987
31
0
39
0
210
0
220
0
230
1
0
LINE
5
161
100
AcDbEntity
8
1
62
256
6
ByLayer
370
-1
48
1
60
0
100
AcDbLine
10
127.118162
20
-8.584394
30
0
11
127.067176
21
-7.80172
31
0
39
0
210
0
220
0
230
1
0
LINE
5
162
100
AcDbEntity
8
1
62
256
6
ByLayer
370
-1
48
1
60
0
100
AcDbLine
10
127.255739
20
-8.674951
30
0
11
127.19178
21
-7.693131
31
0
39
0
210
0
220
0
230
1
0
LINE
5
163
100
AcDbEntity
8
1
62
256
6
ByLayer
370
-1
48
1
60
0
100
AcDbLine
10
127.58017
20
-9.216396
30
0
11
127.516211
21
-8.234576
31
0
39
0
210
0
220
0
230
1
0
LINE
5
164
100
AcDbEntity
8
1
62
256
6
ByLayer
370
-1
48
1
60
0
100
AcDbLine
10
126.592973
20
-6.353794
30
0
11
127.103108
21
-6.35903
31
0
39
0
210
0
220
0
230
1
0
LINE
5
165
100
AcDbEntity
8
1
62
256
6
ByLayer
370
-1
48
1
60
0
100
AcDbLine
10
115.837701
20
-11.694815
30
0
11
115.512561
21
-11.877234
31
0
39
0
210
0
220
0
230
1
0
LINE
5
166
100
AcDbEntity
8
SK1
62
256
6
ByLayer
370
-1
48
1
60
0
100
AcDbLine
10
0
20
-5.536797
30
0
11
0
21
-13.51075
31
0
39
0
210
0
220
0
230
1
0
LINE
5
167
100
AcDbEntity
8
SK1
62
256
6
ByLayer
370
-1
48
1
60
0
100
AcDbLine
10
-123.336
20
13.48925
30
0
11
-123.336
21
-13.48925
31
0
39
0
210
0
220
0
230
1
0
LINE
5
168
100
AcDbEntity
8
SK1
62
256
6
ByLayer
370
-1
48
1
60
0
100
AcDbLine
10
-120.836
20
-5.536797
30
0
11
-120.836
21
-13.51075
31
0
39
0
210
0
220
0
230
1
0
LINE
5
169
100
AcDbEntity
8
SK1
62
256
6
ByLayer
370
-1
48
1
60
0
100
AcDbLine
10
0
20
-5.536797
30
0
11
0
21
5.536797
31
0
39
0
210
0
220
0
230
1
0
LINE
5
16A
100
AcDbEntity
8
SK1
62
256
6
ByLayer
370
-1
48
1
60
0
100
AcDbLine
10
-120.836
20
-13.51075
30
0
11
0
21
-13.51075
31
0
39
0
210
0
220
0
230
1
0
LINE
5
16B
100
AcDbEntity
8
SK1
62
256
6
ByLayer
370
-1
48
1
60
0
100
AcDbLine
10
-120.836
20
5.536797
30
0
11
0
21
5.536797
31
0
39
0
210
0
220
0
230
1
0
MTEXT
5
287
100
AcDbEntity
8
SK6
62
256
6
ByLayer
370
-1
48
1
60
0
100
AcDbMText
10
3.164
20
30.350734
30
0
210
0
220
0
230
1
1
\W00.717;\fsimplex.shx,bigfont.shx;266LKF-32-16 
40
3.5
41
0
44
1.084337
50
0
71
7
72
5
7
DEFAULT
0
DIMENSION
5
2BA
100
AcDbEntity
8
2
62
256
6
ByLayer
370
-3
48
1
60
0
100
AcDbDimension
2
DimnDraft3D1
10
127.914
20
-36.125
30
0
11
109.298695
21
-36.125
31
0
70
32
71
5
72
1
41
1
210
0
220
0
230
1
3
Standard
100
AcDbAlignedDimension
13
95.941285
23
-23.375
33
0
14
127.914
24
-23.375
34
0
50
0
100
AcDbRotatedDimension
1001
ACAD
1000
DSTYLE
1002
{
1070
   279
1070
     0
1070
   172
1070
     1
1070
   173
1070
     1
1070
   340
1005
288
1070
   271
1070
     3
1070
   272
1070
     3
1070
    77
1070
     1
1070
    73
1070
     0
1070
   171
1070
     4
1070
   274
1070
     4
1070
   177
1070
     2
1070
   176
1070
     2
1070
   178
1070
     7
1070
    78
1070
     8
1070
    41
1041
3.0
1070
   147
1041
2.25
1070
    42
1041
1.5
1070
    44
1041
3.0
1070
   140
1041
4.5
1070
   343
1005
2BB
1070
   344
1005
2BB
1002
}
0
DIMENSION
5
2D0
100
AcDbEntity
8
SK2
62
256
6
ByLayer
370
-3
48
1
60
0
100
AcDbDimension
2
DimnDraft3D2
10
-123.336
20
-46.125
30
0
11
-1.429421
21
-46.125
31
0
70
32
71
5
72
1
41
1
210
0
220
0
230
1
3
Standard
100
AcDbAlignedDimension
13
127.914
23
-23.375
33
0
14
-123.336
24
-1.5
34
0
50
0
100
AcDbRotatedDimension
1001
ACAD
1000
DSTYLE
1002
{
1070
   279
1070
     0
1070
   172
1070
     1
1070
   173
1070
     1
1070
   340
1005
288
1070
   271
1070
     3
1070
   272
1070
     3
1070
    77
1070
     1
1070
    73
1070
     0
1070
   171
1070
     4
1070
   274
1070
     4
1070
   177
1070
     2
1070
   176
1070
     2
1070
   178
1070
     7
1070
    78
1070
     8
1070
    41
1041
3.0
1070
   147
1041
2.25
1070
    42
1041
1.5
1070
    44
1041
3.0
1070
   140
1041
4.5
1070
   343
1005
2BB
1070
   344
1005
2BB
1002
}
0
DIMENSION
5
2DE
100
AcDbEntity
8
2
62
256
6
ByLayer
370
-3
48
1
60
0
100
AcDbDimension
2
DimnDraft3D3
10
142.164
20
-21.875
30
0
11
142.164
21
-13.566447
31
0
70
32
71
5
72
1
41
1
210
0
220
0
230
1
3
Standard
100
AcDbAlignedDimension
13
134.414
23
0
33
0
14
129.414
24
-21.875
34
0
50
90
100
AcDbRotatedDimension
1001
ACAD
1000
DSTYLE
1002
{
1070
    74
1070
     0
1070
   279
1070
     0
1070
   172
1070
     1
1070
   173
1070
     1
1070
   340
1005
288
1070
   271
1070
     3
1070
   272
1070
     3
1070
    77
1070
     1
1070
    73
1070
     0
1070
   171
1070
     4
1070
   274
1070
     4
1070
   177
1070
     2
1070
   176
1070
     2
1070
   178
1070
     7
1070
    78
1070
     8
1070
    41
1041
3.0
1070
   147
1041
2.25
1070
    42
1041
1.5
1070
    44
1041
3.0
1070
   140
1041
4.5
1070
   343
1005
2BB
1070
   344
1005
2BB
1002
}
0
DIMENSION
5
2EC
100
AcDbEntity
8
SK2
62
256
6
ByLayer
370
-3
48
1
60
0
100
AcDbDimension
2
DimnDraft3D4
10
-133.086
20
15.98925
30
0
11
-133.086
21
-4.784211
31
0
70
32
71
5
72
1
41
1
210
0
220
0
230
1
3
Standard
100
AcDbAlignedDimension
13
-124.836
23
-15.98925
33
0
14
-124.836
24
15.98925
34
0
50
90
100
AcDbRotatedDimension
1001
ACAD
1000
DSTYLE
1002
{
1070
    74
1070
     0
1070
   279
1070
     0
1070
   172
1070
     1
1070
   173
1070
     1
1070
   340
1005
288
1070
   271
1070
     3
1070
   272
1070
     3
1070
    77
1070
     1
1070
    73
1070
     0
1070
   171
1070
     4
1070
   274
1070
     4
1070
   177
1070
     2
1070
   176
1070
     2
1070
   178
1070
     7
1070
    78
1070
     8
1070
    41
1041
3.0
1070
   147
1041
2.25
1070
    42
1041
1.5
1070
    44
1041
3.0
1070
   140
1041
4.5
1070
   343
1005
2BB
1070
   344
1005
2BB
1002
}
0
ENDSEC
0
SECTION
2
OBJECTS
0
DICTIONARY
5
31d
330
0
100
AcDbDictionary
280
0
281
1
3
ACAD_GROUP
350
31e
3
ACAD_MLINESTYLE
350
31f
0
DICTIONARY
5
31e
330
0
100
AcDbDictionary
280
0
281
1
0
DICTIONARY
5
31f
330
0
100
AcDbDictionary
280
0
281
1
3
Standard
350
18
0
MLINESTYLE
5
18
330
31f
100
AcDbMlineStyle
2
Standard
70
0
3

62
256
51
90
52
90
71
2
49
-0.5
62
256
6
ByLayer
49
0.5
62
256
6
ByLayer
0
RASTERVARIABLES
5
30b
330

100
AcDbRasterVariables
90
0
70
1
71
1
72
1
0
ENDSEC
0
EOF
