0
SECTION
2
HEADER
9
$ACADVER
1
AC1015
9
$DWGCODEPAGE
3
ANSI_1252
9
$HANDSEED
5
32b
9
$ANGBASE
50
0
9
$ANGDIR
70
0
9
$ATTMODE
70
1
9
$AUNITS
70
0
9
$AUPREC
70
0
9
$CECOLOR
62
256
9
$CELTSCALE
40
1
9
$CELTYPE
6
ByLayer
9
$CELWEIGHT
370
-1
9
$CLAYER
8
0
9
$CMLJUST
70
0
9
$CMLSCALE
40
1
9
$CMLSTYLE
2
Standard
9
$DIMSTYLE
2
Standard
9
$TEXTSIZE
40
0.2
9
$TEXTSTYLE
7
Standard
9
$LUNITS
70
2
9
$LUPREC
70
4
9
$EXTNAMES
290
1
9
$INSUNITS
70
4
9
$LTSCALE
40
1
9
$LWDISPLAY
290
0
9
$PDMODE
70
0
9
$PDSIZE
40
0
9
$PLINEGEN
70
0
0
ENDSEC
0
SECTION
2
CLASSES
0
CLASS
1
RASTERVARIABLES
2
AcDbRasterVariables
3
ISM
90
0
280
0
281
0
0
ENDSEC
0
SECTION
2
TABLES
0
TABLE
2
VPORT
5
321
100
AcDbSymbolTable
0
VPORT
5
1
100
AcDbSymbolTableRecord
100
AcDbViewportTableRecord
2
*Active
70
0
10
0
20
0
11
1
21
1
12
-1
22
1
13
0
23
0
14
0.5
24
0.5
15
10
25
10
16
0
26
0
36
1
17
0
27
0
37
0
0
ENDTAB
0
TABLE
2
LTYPE
5
322
100
AcDbSymbolTable
0
LTYPE
5
14
100
AcDbSymbolTableRecord
100
AcDbLinetypeTableRecord
70
0
2
ByBlock
3

72
65
73
0
40
0
0
LTYPE
5
15
100
AcDbSymbolTableRecord
100
AcDbLinetypeTableRecord
70
0
2
ByLayer
3

72
65
73
0
40
0
0
LTYPE
5
16
100
AcDbSymbolTableRecord
100
AcDbLinetypeTableRecord
70
0
2
CONTINUOUS
3
Solid line
72
65
73
0
40
0
0
LTYPE
5
3B
100
AcDbSymbolTableRecord
100
AcDbLinetypeTableRecord
70
0
2
DASHED
3
__ __ __ __ __ __ __ __ __
72
65
73
2
40
25.72
49
12.86
74
0
49
-12.86
74
0
0
LTYPE
5
3C
100
AcDbSymbolTableRecord
100
AcDbLinetypeTableRecord
70
0
2
HIDDEN
3
_ _ _ _ _ _ _ _ _ _ _ _ _ _ _
72
65
73
2
40
0.5
49
0.25
74
0
49
-0.25
74
0
0
LTYPE
5
3D
100
AcDbSymbolTableRecord
100
AcDbLinetypeTableRecord
70
0
2
PHANTOM
3
____ _ _ ____ _ _ _____ _ _ ____
72
65
73
6
40
50.5
49
18
74
0
49
-6.5
74
0
49
6.5
74
0
49
-6.5
74
0
49
6.5
74
0
49
-6.5
74
0
0
LTYPE
5
3E
100
AcDbSymbolTableRecord
100
AcDbLinetypeTableRecord
70
0
2
CENTER
3
____ _ ____ _ ____ _ ____
72
65
73
4
40
47.5
49
22
74
0
49
-8.5
74
0
49
8.5
74
0
49
-8.5
74
0
0
LTYPE
5
3F
100
AcDbSymbolTableRecord
100
AcDbLinetypeTableRecord
70
0
2
DOT
3
.........................
72
65
73
2
40
10
49
0
74
0
49
-10
74
0
0
LTYPE
5
40
100
AcDbSymbolTableRecord
100
AcDbLinetypeTableRecord
70
0
2
DASHDOT
3
_._._._._._._._._._._._._._._._.
72
65
73
4
40
70
49
31
74
0
49
-13
74
0
49
13
74
0
49
-13
74
0
0
ENDTAB
0
TABLE
2
LAYER
5
323
100
AcDbSymbolTable
0
LAYER
5
10
100
AcDbSymbolTableRecord
100
AcDbLayerTableRecord
2
0
70
0
62
7
6
CONTINUOUS
290
1
370
-3
390
0
0
LAYER
5
42
100
AcDbSymbolTableRecord
100
AcDbLayerTableRecord
2
2
70
0
62
7
6
CONTINUOUS
290
1
370
-3
390
0
0
LAYER
5
44
100
AcDbSymbolTableRecord
100
AcDbLayerTableRecord
2
1
70
0
62
4
6
CONTINUOUS
290
1
370
-3
390
0
0
LAYER
5
46
100
AcDbSymbolTableRecord
100
AcDbLayerTableRecord
2
80
70
0
62
-6
6
CONTINUOUS
290
1
370
-3
390
0
0
LAYER
5
48
100
AcDbSymbolTableRecord
100
AcDbLayerTableRecord
2
81
70
0
62
-3
6
CONTINUOUS
290
1
370
-3
390
0
0
LAYER
5
30d
100
AcDbSymbolTableRecord
100
AcDbLayerTableRecord
2
SK1
70
0
62
4
6
CONTINUOUS
290
1
370
-3
390
0
0
LAYER
5
30e
100
AcDbSymbolTableRecord
100
AcDbLayerTableRecord
2
SK4
70
0
62
2
6
CENTER
290
1
370
-3
390
0
0
LAYER
5
30f
100
AcDbSymbolTableRecord
100
AcDbLayerTableRecord
2
SK6
70
0
62
5
6
CONTINUOUS
290
1
370
-3
390
0
0
LAYER
5
310
100
AcDbSymbolTableRecord
100
AcDbLayerTableRecord
2
SK2
70
0
62
7
6
CONTINUOUS
290
1
370
-3
390
0
0
ENDTAB
0
TABLE
2
STYLE
5
324
100
AcDbSymbolTable
0
STYLE
5
11
100
AcDbSymbolTableRecord
100
AcDbTextStyleTableRecord
2
Standard
3
txt
70
0
71
0
40
0
41
1
42
0
50
0
0
STYLE
5
289
100
AcDbSymbolTableRecord
100
AcDbTextStyleTableRecord
2
DEFAULT
3
simplex.shx
70
0
71
0
40
0
41
1
42
0
50
0
0
STYLE
5
2AC
100
AcDbSymbolTableRecord
100
AcDbTextStyleTableRecord
2
DWGDirectTextStyle
3
SIMPLEX
70
0
71
0
40
0
41
1
42
0
50
0
0
ENDTAB
0
TABLE
2
DIMSTYLE
5
325
100
AcDbSymbolTable
100
AcDbDimStyleTable
0
DIMSTYLE
105
27
100
AcDbSymbolTableRecord
100
AcDbDimStyleTableRecord
2
Standard
70
0
3
<>
41
0.18
42
0.0625
44
0.18
140
0.18
147
0.09
73
0
74
0
77
1
271
2
275
0
278
52
280
0
340
11
0
ENDTAB
0
TABLE
2
VIEW
5
326
100
AcDbSymbolTable
0
ENDTAB
0
TABLE
2
UCS
5
327
100
AcDbSymbolTable
0
ENDTAB
0
TABLE
2
APPID
5
328
100
AcDbSymbolTable
0
APPID
5
12
100
AcDbSymbolTableRecord
100
AcDbRegAppTableRecord
2
ACAD
70
0
0
ENDTAB
0
TABLE
2
BLOCK_RECORD
5
329
100
AcDbSymbolTable
0
BLOCK_RECORD
5
1F
100
AcDbSymbolTableRecord
100
AcDbBlockTableRecord
2
*Model_Space
340
0
70
0
0
BLOCK_RECORD
5
1B
100
AcDbSymbolTableRecord
100
AcDbBlockTableRecord
2
*Paper_Space
340
0
70
0
0
BLOCK_RECORD
5
23
100
AcDbSymbolTableRecord
100
AcDbBlockTableRecord
2
*Paper_Space0
340
0
70
0
0
BLOCK_RECORD
5
2AE
100
AcDbSymbolTableRecord
100
AcDbBlockTableRecord
2
DimnDraft3D1
340
0
70
0
0
BLOCK_RECORD
5
2BC
100
AcDbSymbolTableRecord
100
AcDbBlockTableRecord
2
_CLOSED
340
0
70
0
0
BLOCK_RECORD
5
2C3
100
AcDbSymbolTableRecord
100
AcDbBlockTableRecord
2
DimnDraft3D2
340
0
70
0
0
BLOCK_RECORD
5
2D2
100
AcDbSymbolTableRecord
100
AcDbBlockTableRecord
2
DimnDraft3D3
340
0
70
0
0
BLOCK_RECORD
5
2E0
100
AcDbSymbolTableRecord
100
AcDbBlockTableRecord
2
DimnDraft3D4
340
0
70
0
0
ENDTAB
0
ENDSEC
0
SECTION
2
BLOCKS
0
BLOCK
5
20
100
AcDbEntity
8
0
100
AcDbBlockBegin
2
*Model_Space
70
0
10
0
20
0
30
0
3
*Model_Space
0
ENDBLK
5
21
100
AcDbEntity
8
0
100
AcDbBlockEnd
0
BLOCK
5
1C
100
AcDbEntity
8
0
100
AcDbBlockBegin
2
*Paper_Space
70
0
10
0
20
0
30
0
3
*Paper_Space
0
ENDBLK
5
1D
100
AcDbEntity
8
0
100
AcDbBlockEnd
0
BLOCK
5
24
100
AcDbEntity
8
0
100
AcDbBlockBegin
2
*Paper_Space0
70
0
10
0
20
0
30
0
3
*Paper_Space0
0
ENDBLK
5
25
100
AcDbEntity
8
0
100
AcDbBlockEnd
0
BLOCK
5
2B9
100
AcDbEntity
8
0
100
AcDbBlockBegin
2
DimnDraft3D1
70
0
10
0
20
0
30
0
3
DimnDraft3D1
0
MTEXT
5
2AF
100
AcDbEntity
8
2
62
256
6
ByLayer
370
-1
48
1
60
0
100
AcDbMText
10
64.322958
20
-27
30
0
210
0
220
0
230
1
1
\W01.000;\fsimplex.shx,bigfont.shx;28 
40
4.5
41
0
44
1.084337
50
0
71
7
72
5
7
DEFAULT
0
LINE
5
2B0
100
AcDbEntity
8
2
62
256
6
ByLayer
370
-1
48
1
60
0
100
AcDbLine
10
51.723811
20
-15.375
30
0
11
51.723811
21
-31.125
31
0
39
0
210
0
220
0
230
1
0
LINE
5
2B1
100
AcDbEntity
8
2
62
256
6
ByLayer
370
-1
48
1
60
0
100
AcDbLine
10
79.93
20
-15.375
30
0
11
79.93
21
-31.125
31
0
39
0
210
0
220
0
230
1
0
LINE
5
2B2
100
AcDbEntity
8
2
62
256
6
ByLayer
370
-1
48
1
60
0
100
AcDbLine
10
51.723811
20
-28.125
30
0
11
79.93
21
-28.125
31
0
39
0
210
0
220
0
230
1
0
LINE
5
2B3
100
AcDbEntity
8
2
62
256
6
ByLayer
370
-1
48
1
60
0
100
AcDbLine
10
51.723811
20
-28.125
30
0
11
54.72381
21
-27.730043
31
0
39
0
210
0
220
0
230
1
0
LINE
5
2B4
100
AcDbEntity
8
2
62
256
6
ByLayer
370
-1
48
1
60
0
100
AcDbLine
10
51.723811
20
-28.125
30
0
11
54.723813
21
-28.519957
31
0
39
0
210
0
220
0
230
1
0
LINE
5
2B5
100
AcDbEntity
8
2
62
256
6
ByLayer
370
-1
48
1
60
0
100
AcDbLine
10
54.72381
20
-27.730043
30
0
11
54.723813
21
-28.519957
31
0
39
0
210
0
220
0
230
1
0
LINE
5
2B6
100
AcDbEntity
8
2
62
256
6
ByLayer
370
-1
48
1
60
0
100
AcDbLine
10
79.93
20
-28.125
30
0
11
76.930001
21
-28.519957
31
0
39
0
210
0
220
0
230
1
0
LINE
5
2B7
100
AcDbEntity
8
2
62
256
6
ByLayer
370
-1
48
1
60
0
100
AcDbLine
10
79.93
20
-28.125
30
0
11
76.929999
21
-27.730043
31
0
39
0
210
0
220
0
230
1
0
LINE
5
2B8
100
AcDbEntity
8
2
62
256
6
ByLayer
370
-1
48
1
60
0
100
AcDbLine
10
76.930001
20
-28.519957
30
0
11
76.929999
21
-27.730043
31
0
39
0
210
0
220
0
230
1
0
ENDBLK
5
2BA
100
AcDbEntity
8
0
100
AcDbBlockEnd
0
BLOCK
5
2BD
100
AcDbEntity
8
0
100
AcDbBlockBegin
2
_CLOSED
70
0
10
0
20
0
30
0
3
_CLOSED
0
LINE
5
2BF
100
AcDbEntity
8
0
62
256
6
ByLayer
370
-2
48
1
60
0
100
AcDbLine
10
-1
20
0.166667
30
0
11
0
21
0
31
0
39
0
210
0
220
0
230
1
0
LINE
5
2C0
100
AcDbEntity
8
0
62
256
6
ByLayer
370
-2
48
1
60
0
100
AcDbLine
10
0
20
0
30
0
11
-1
21
-0.166667
31
0
39
0
210
0
220
0
230
1
0
LINE
5
2C1
100
AcDbEntity
8
0
62
256
6
ByLayer
370
-2
48
1
60
0
100
AcDbLine
10
-1
20
0.166667
30
0
11
-1
21
-0.166667
31
0
39
0
210
0
220
0
230
1
0
LINE
5
2C2
100
AcDbEntity
8
0
62
256
6
ByLayer
370
-2
48
1
60
0
100
AcDbLine
10
0
20
0
30
0
11
-1
21
0
31
0
39
0
210
0
220
0
230
1
0
ENDBLK
5
2BE
100
AcDbEntity
8
0
100
AcDbBlockEnd
0
BLOCK
5
2CF
100
AcDbEntity
8
0
100
AcDbBlockBegin
2
DimnDraft3D2
70
0
10
0
20
0
30
0
3
DimnDraft3D2
0
MTEXT
5
2C4
100
AcDbEntity
8
SK2
62
256
6
ByLayer
370
-1
48
1
60
0
100
AcDbMText
10
-48.288421
20
-37
30
0
210
0
220
0
230
1
1
\W01.000;\fsimplex.shx,bigfont.shx;251 
40
4.5
41
0
44
1.084337
50
0
71
7
72
5
7
DEFAULT
0
LINE
5
2C6
100
AcDbEntity
8
SK2
62
256
6
ByLayer
370
-1
48
1
60
0
100
AcDbLine
10
79.93
20
-15.375
30
0
11
79.93
21
-41.125
31
0
39
0
210
0
220
0
230
1
0
LINE
5
2C7
100
AcDbEntity
8
SK2
62
256
6
ByLayer
370
-1
48
1
60
0
100
AcDbLine
10
-171.32
20
-1.5
30
0
11
-171.32
21
-41.125
31
0
39
0
210
0
220
0
230
1
0
LINE
5
2C8
100
AcDbEntity
8
SK2
62
256
6
ByLayer
370
-1
48
1
60
0
100
AcDbLine
10
79.93
20
-38.125
30
0
11
-171.32
21
-38.125
31
0
39
0
210
0
220
0
230
1
0
LINE
5
2C9
100
AcDbEntity
8
SK2
62
256
6
ByLayer
370
-1
48
1
60
0
100
AcDbLine
10
79.93
20
-38.125
30
0
11
76.930001
21
-38.519957
31
0
39
0
210
0
220
0
230
1
0
LINE
5
2CA
100
AcDbEntity
8
SK2
62
256
6
ByLayer
370
-1
48
1
60
0
100
AcDbLine
10
79.93
20
-38.125
30
0
11
76.929999
21
-37.730043
31
0
39
0
210
0
220
0
230
1
0
LINE
5
2CB
100
AcDbEntity
8
SK2
62
256
6
ByLayer
370
-1
48
1
60
0
100
AcDbLine
10
76.930001
20
-38.519957
30
0
11
76.929999
21
-37.730043
31
0
39
0
210
0
220
0
230
1
0
LINE
5
2CC
100
AcDbEntity
8
SK2
62
256
6
ByLayer
370
-1
48
1
60
0
100
AcDbLine
10
-171.32
20
-38.125
30
0
11
-168.320001
21
-37.730043
31
0
39
0
210
0
220
0
230
1
0
LINE
5
2CD
100
AcDbEntity
8
SK2
62
256
6
ByLayer
370
-1
48
1
60
0
100
AcDbLine
10
-171.32
20
-38.125
30
0
11
-168.319999
21
-38.519957
31
0
39
0
210
0
220
0
230
1
0
LINE
5
2CE
100
AcDbEntity
8
SK2
62
256
6
ByLayer
370
-1
48
1
60
0
100
AcDbLine
10
-168.320001
20
-37.730043
30
0
11
-168.319999
21
-38.519957
31
0
39
0
210
0
220
0
230
1
0
ENDBLK
5
2D0
100
AcDbEntity
8
0
100
AcDbBlockEnd
0
BLOCK
5
2DD
100
AcDbEntity
8
0
100
AcDbBlockBegin
2
DimnDraft3D3
70
0
10
0
20
0
30
0
3
DimnDraft3D3
0
MTEXT
5
2D3
100
AcDbEntity
8
2
62
256
6
ByLayer
370
-1
48
1
60
0
100
AcDbMText
10
93.055
20
-8.115789
30
0
210
0
220
0
230
1
1
\W01.000;\fsimplex.shx,bigfont.shx;14 
40
4.5
41
0
44
1.084337
50
90
71
7
72
5
7
DEFAULT
0
LINE
5
2D4
100
AcDbEntity
8
2
62
256
6
ByLayer
370
-1
48
1
60
0
100
AcDbLine
10
86.43
20
0
30
0
11
97.18
21
0
31
0
39
0
210
0
220
0
230
1
0
LINE
5
2D5
100
AcDbEntity
8
2
62
256
6
ByLayer
370
-1
48
1
60
0
100
AcDbLine
10
81.43
20
-13.875
30
0
11
97.18
21
-13.875
31
0
39
0
210
0
220
0
230
1
0
LINE
5
2D6
100
AcDbEntity
8
2
62
256
6
ByLayer
370
-1
48
1
60
0
100
AcDbLine
10
94.18
20
0
30
0
11
94.18
21
-13.875
31
0
39
0
210
0
220
0
230
1
0
LINE
5
2D7
100
AcDbEntity
8
2
62
256
6
ByLayer
370
-1
48
1
60
0
100
AcDbLine
10
94.18
20
0
30
0
11
94.574957
21
-2.999999
31
0
39
0
210
0
220
0
230
1
0
LINE
5
2D8
100
AcDbEntity
8
2
62
256
6
ByLayer
370
-1
48
1
60
0
100
AcDbLine
10
94.18
20
0
30
0
11
93.785043
21
-3.000001
31
0
39
0
210
0
220
0
230
1
0
LINE
5
2D9
100
AcDbEntity
8
2
62
256
6
ByLayer
370
-1
48
1
60
0
100
AcDbLine
10
94.574957
20
-2.999999
30
0
11
93.785043
21
-3.000001
31
0
39
0
210
0
220
0
230
1
0
LINE
5
2DA
100
AcDbEntity
8
2
62
256
6
ByLayer
370
-1
48
1
60
0
100
AcDbLine
10
94.18
20
-13.875
30
0
11
93.785043
21
-10.875001
31
0
39
0
210
0
220
0
230
1
0
LINE
5
2DB
100
AcDbEntity
8
2
62
256
6
ByLayer
370
-1
48
1
60
0
100
AcDbLine
10
94.18
20
-13.875
30
0
11
94.574957
21
-10.874999
31
0
39
0
210
0
220
0
230
1
0
LINE
5
2DC
100
AcDbEntity
8
2
62
256
6
ByLayer
370
-1
48
1
60
0
100
AcDbLine
10
93.785043
20
-10.875001
30
0
11
94.574957
21
-10.874999
31
0
39
0
210
0
220
0
230
1
0
ENDBLK
5
2DE
100
AcDbEntity
8
0
100
AcDbBlockEnd
0
BLOCK
5
2EB
100
AcDbEntity
8
0
100
AcDbBlockBegin
2
DimnDraft3D4
70
0
10
0
20
0
30
0
3
DimnDraft3D4
0
MTEXT
5
2E1
100
AcDbEntity
8
SK2
62
256
6
ByLayer
370
-1
48
1
60
0
100
AcDbMText
10
-182.195
20
-3.659211
30
0
210
0
220
0
230
1
1
\W01.000;\fsimplex.shx,bigfont.shx;%%c20 
40
4.5
41
0
44
1.084337
50
90
71
7
72
5
7
DEFAULT
0
LINE
5
2E2
100
AcDbEntity
8
SK2
62
256
6
ByLayer
370
-1
48
1
60
0
100
AcDbLine
10
-172.82
20
-9.99125
30
0
11
-184.07
21
-9.99125
31
0
39
0
210
0
220
0
230
1
0
LINE
5
2E3
100
AcDbEntity
8
SK2
62
256
6
ByLayer
370
-1
48
1
60
0
100
AcDbLine
10
-172.82
20
9.99125
30
0
11
-184.07
21
9.99125
31
0
39
0
210
0
220
0
230
1
0
LINE
5
2E4
100
AcDbEntity
8
SK2
62
256
6
ByLayer
370
-1
48
1
60
0
100
AcDbLine
10
-181.07
20
-9.99125
30
0
11
-181.07
21
9.99125
31
0
39
0
210
0
220
0
230
1
0
LINE
5
2E5
100
AcDbEntity
8
SK2
62
256
6
ByLayer
370
-1
48
1
60
0
100
AcDbLine
10
-181.07
20
-9.99125
30
0
11
-181.464957
21
-6.991251
31
0
39
0
210
0
220
0
230
1
0
LINE
5
2E6
100
AcDbEntity
8
SK2
62
256
6
ByLayer
370
-1
48
1
60
0
100
AcDbLine
10
-181.07
20
-9.99125
30
0
11
-180.675043
21
-6.991249
31
0
39
0
210
0
220
0
230
1
0
LINE
5
2E7
100
AcDbEntity
8
SK2
62
256
6
ByLayer
370
-1
48
1
60
0
100
AcDbLine
10
-181.464957
20
-6.991251
30
0
11
-180.675043
21
-6.991249
31
0
39
0
210
0
220
0
230
1
0
LINE
5
2E8
100
AcDbEntity
8
SK2
62
256
6
ByLayer
370
-1
48
1
60
0
100
AcDbLine
10
-181.07
20
9.99125
30
0
11
-180.675043
21
6.991251
31
0
39
0
210
0
220
0
230
1
0
LINE
5
2E9
100
AcDbEntity
8
SK2
62
256
6
ByLayer
370
-1
48
1
60
0
100
AcDbLine
10
-181.07
20
9.99125
30
0
11
-181.464957
21
6.991249
31
0
39
0
210
0
220
0
230
1
0
LINE
5
2EA
100
AcDbEntity
8
SK2
62
256
6
ByLayer
370
-1
48
1
60
0
100
AcDbLine
10
-180.675043
20
6.991251
30
0
11
-181.464957
21
6.991249
31
0
39
0
210
0
220
0
230
1
0
ENDBLK
5
2EC
100
AcDbEntity
8
0
100
AcDbBlockEnd
0
ENDSEC
0
SECTION
2
ENTITIES
0
ARC
5
16C
100
AcDbEntity
8
1
62
256
6
ByLayer
370
-1
48
1
60
0
100
AcDbCircle
39
0
10
-51.938171
20
10.475
30
0
40
0.79999999999999
210
0
220
0
230
-1
100
AcDbArc
50
270
51
300
0
ARC
5
16D
100
AcDbEntity
8
1
62
256
6
ByLayer
370
-1
48
1
60
0
100
AcDbCircle
39
0
10
-62.824605
20
-10.475
30
0
40
0.8
210
0
220
0
230
-1
100
AcDbArc
50
90
51
140
0
ARC
5
16E
100
AcDbEntity
8
1
62
256
6
ByLayer
370
-1
48
1
60
0
100
AcDbCircle
39
0
10
-62.824605
20
10.475
30
0
40
0.8
210
0
220
0
230
-1
100
AcDbArc
50
260.931278
51
270
0
ELLIPSE
5
16F
100
AcDbEntity
8
1
62
256
6
ByLayer
370
-1
48
1
60
0
100
AcDbEllipse
10
67.674664
20
-5.286369
30
0
11
-1.65306217752379
21
-0.107682693211335
31
0
210
0
220
0
230
1
40
0.965788
41
-2.19115544793875
42
-1.05525226572154
0
ELLIPSE
5
170
100
AcDbEntity
8
1
62
256
6
ByLayer
370
-1
48
1
60
0
100
AcDbEllipse
10
66.888593
20
-4.309758
30
0
11
1.64589647751505
21
0.116296110440485
31
0
210
0
220
0
230
1
40
0.965764
41
-2.07470006325476
42
-1.75362471590281
0
ELLIPSE
5
171
100
AcDbEntity
8
1
62
256
6
ByLayer
370
-1
48
1
60
0
100
AcDbEllipse
10
71.963669
20
-2.583049
30
0
11
-2.65443259484172
21
-1.29855552093463
31
0
210
0
220
0
230
1
40
0.133258
41
-1.4461565281805
42
-1.16354352631538
0
ELLIPSE
5
172
100
AcDbEntity
8
1
62
256
6
ByLayer
370
-1
48
1
60
0
100
AcDbEllipse
10
67.154034
20
-8.062725
30
0
11
-2.24652356214083
21
9.02439621348159
31
0
210
0
220
0
230
1
40
0.041997
41
1.30209406720117
42
1.31703414839164
0
ELLIPSE
5
173
100
AcDbEntity
8
1
62
256
6
ByLayer
370
-1
48
1
60
0
100
AcDbEllipse
10
63.087095
20
-4.416281
30
0
11
-1.43947440699171
21
-1.42723399759434
31
0
210
0
220
0
230
1
40
0.667826
41
-3.13395682040274
42
0.728704501944975
0
ELLIPSE
5
174
100
AcDbEntity
8
1
62
256
6
ByLayer
370
-1
48
1
60
0
100
AcDbEllipse
10
66.842332
20
-3.655055
30
0
11
-1.64589647751503
21
-0.116296110440476
31
0
210
0
220
0
230
1
40
0.965764
41
0.630870826953444
42
1.5026628829815
0
ELLIPSE
5
175
100
AcDbEntity
8
1
62
256
6
ByLayer
370
-1
48
1
60
0
100
AcDbEllipse
10
66.842332
20
-3.655055
30
0
11
-1.64589647751503
21
-0.116296110440476
31
0
210
0
220
0
230
1
40
0.965764
41
1.5026628829815
42
1.75781931569003
0
ELLIPSE
5
176
100
AcDbEntity
8
1
62
256
6
ByLayer
370
-1
48
1
60
0
100
AcDbEllipse
10
67.521913
20
-13.272908
30
0
11
-1.63784993054597
21
7.54195098345323
31
0
210
0
220
0
230
1
40
0.160744
41
-0.653463958031753
42
-0.242557715266734
0
ELLIPSE
5
177
100
AcDbEntity
8
1
62
256
6
ByLayer
370
-1
48
1
60
0
100
AcDbEllipse
10
78.024833
20
0.82638
30
0
11
-2.65443259057093
21
-1.29855551922556
31
0
210
0
220
0
230
1
40
0.133258
41
-1.16354352666529
42
-0.880930524407328
0
ELLIPSE
5
178
100
AcDbEntity
8
1
62
256
6
ByLayer
370
-1
48
1
60
0
100
AcDbEllipse
10
68.093952
20
-3.916499
30
0
11
-2.11145701959825
21
-0.149191788241902
31
0
210
0
220
0
230
1
40
0.965764
41
0.627728021228781
42
1.11762307732674
0
ELLIPSE
5
179
100
AcDbEntity
8
1
62
256
6
ByLayer
370
-1
48
1
60
0
100
AcDbEllipse
10
275.134142
20
0.046287
30
0
11
-575.402416379556
21
-2.52707116435396
31
0
210
0
220
0
230
1
40
0.016314
41
1.19079968769632
42
1.1928179107192
0
ELLIPSE
5
17A
100
AcDbEntity
8
1
62
256
6
ByLayer
370
-1
48
1
60
0
100
AcDbEllipse
10
68.138384
20
-4.545324
30
0
11
-1.99502603335156
21
-0.140964982352091
31
0
210
0
220
0
230
1
40
0.965764
41
0.699701739960695
42
1.26020625214145
0
ELLIPSE
5
17B
100
AcDbEntity
8
1
62
256
6
ByLayer
370
-1
48
1
60
0
100
AcDbEllipse
10
66.974877
20
-5.530904
30
0
11
-1.64651197074788
21
-0.107256010922448
31
0
210
0
220
0
230
1
40
0.965788
41
-1.50863681175309
42
1.49804507945719
0
ELLIPSE
5
17C
100
AcDbEntity
8
1
62
256
6
ByLayer
370
-1
48
1
60
0
100
AcDbEllipse
10
66.844161
20
-3.680933
30
0
11
1.64589647751505
21
0.116296110440485
31
0
210
0
220
0
230
1
40
0.965764
41
-1.86794914054486
42
-1.38386088998109
0
ELLIPSE
5
17D
100
AcDbEntity
8
1
62
256
6
ByLayer
370
-1
48
1
60
0
100
AcDbEllipse
10
70.832901
20
0
30
0
11
-11.5835962052192
21
-8.30554342700261
31
0
210
0
220
0
230
1
40
0.430064
41
-1.84066189220771
42
-1.40888121687618
0
ELLIPSE
5
17E
100
AcDbEntity
8
1
62
256
6
ByLayer
370
-1
48
1
60
0
100
AcDbEllipse
10
70.832901
20
0
30
0
11
-11.5716358579932
21
-8.29696774967137
31
0
210
0
220
0
230
1
40
0.430064
41
-0.654771963668972
42
0.283174664864352
0
ELLIPSE
5
17F
100
AcDbEntity
8
1
62
256
6
ByLayer
370
-1
48
1
60
0
100
AcDbEllipse
10
70.794868
20
-9.317061
30
0
11
-1.8
21
2.20429143688028E-16
31
0
210
0
220
0
230
1
40
0.258819
41
2.41345916410083
42
2.44231040400174
0
ELLIPSE
5
180
100
AcDbEntity
8
1
62
256
6
ByLayer
370
-1
48
1
60
0
100
AcDbEllipse
10
71.012464
20
-9.577587
30
0
11
-0.25
21
3.06151588455594E-17
31
0
210
0
220
0
230
1
40
0.258819
41
-2.61308908164275
42
-2.0296535824112
0
ELLIPSE
5
181
100
AcDbEntity
8
1
62
256
6
ByLayer
370
-1
48
1
60
0
100
AcDbEllipse
10
72.782767
20
-9.310047
30
0
11
-1.8
21
2.20429143688028E-16
31
0
210
0
220
0
230
1
40
0.258819
41
0.528503571946937
42
0.755396374706192
0
ELLIPSE
5
182
100
AcDbEntity
8
1
62
256
6
ByLayer
370
-1
48
1
60
0
100
AcDbEllipse
10
71.654367
20
-9.58508
30
0
11
-0.25
21
3.06151588455594E-17
31
0
210
0
220
0
230
1
40
0.258819
41
0.755396374706275
42
1.58442776940355
0
ELLIPSE
5
183
100
AcDbEntity
8
1
62
256
6
ByLayer
370
-1
48
1
60
0
100
AcDbEllipse
10
71.951815
20
-9.58403
30
0
11
-0.25
21
3.06151588455594E-17
31
0
210
0
220
0
230
1
40
0.258819
41
1.58442776940343
42
2.41345916410084
0
ELLIPSE
5
184
100
AcDbEntity
8
1
62
256
6
ByLayer
370
-1
48
1
60
0
100
AcDbEllipse
10
67.320722
20
-4.793703
30
0
11
-0.0878138722405259
21
-0.00572047569036667
31
0
210
0
220
0
230
1
40
0.965789
41
-0.586430508995146
42
-1.16283420223191E-05
0
ELLIPSE
5
185
100
AcDbEntity
8
1
62
256
6
ByLayer
370
-1
48
1
60
0
100
AcDbEllipse
10
71.948886
20
-2.42303
30
0
11
-0.128769199354523
21
-0.0771501606243858
31
0
210
0
220
0
230
1
40
0.232115
41
1.45206597493858
42
2.1645905534786
0
ELLIPSE
5
186
100
AcDbEntity
8
1
62
256
6
ByLayer
370
-1
48
1
60
0
100
AcDbEllipse
10
68.94006
20
-7.711229
30
0
11
-0.28925915103004
21
0.169069485749137
31
0
210
0
220
0
230
1
40
0.207991
41
-1.45829793476655
42
-1.1826541711616
0
ELLIPSE
5
187
100
AcDbEntity
8
1
62
256
6
ByLayer
370
-1
48
1
60
0
100
AcDbEllipse
10
72.28428
20
-9.641417
30
0
11
-0.143517613737013
21
0.0843322544669748
31
0
210
0
220
0
230
1
40
0.195042
41
1.70241255360519
42
2.40799874314483
0
ELLIPSE
5
188
100
AcDbEntity
8
1
62
256
6
ByLayer
370
-1
48
1
60
0
100
AcDbEllipse
10
69.144334
20
-7.824273
30
0
11
-0.336670866021542
21
0.199900719047748
31
0
210
0
220
0
230
1
40
0.176549
41
-2.3909858652978
42
-1.40038053940641
0
ELLIPSE
5
189
100
AcDbEntity
8
1
62
256
6
ByLayer
370
-1
48
1
60
0
100
AcDbEllipse
10
69.303711
20
-4.448863
30
0
11
-0.352030382715374
21
-0.578101923498924
31
0
210
0
220
0
230
1
40
0.071322
41
-2.60919099825195
42
-1.74625735227021
0
ELLIPSE
5
18A
100
AcDbEntity
8
1
62
256
6
ByLayer
370
-1
48
1
60
0
100
AcDbEllipse
10
69.955785
20
-3.862471
30
0
11
0.249471227956048
21
0.0162513513930859
31
0
210
0
220
0
230
1
40
0.965789
41
2.03156336899617
42
2.12769914672054
0
ELLIPSE
5
18B
100
AcDbEntity
8
1
62
256
6
ByLayer
370
-1
48
1
60
0
100
AcDbEllipse
10
68.363217
20
-7.084554
30
0
11
-0.231053917351813
21
-0.102175827572764
31
0
210
0
220
0
230
1
40
0.908072
41
0.124336566763595
42
0.663075685886584
0
ELLIPSE
5
18C
100
AcDbEntity
8
1
62
256
6
ByLayer
370
-1
48
1
60
0
100
AcDbEllipse
10
75.170537
20
-5.964191
30
0
11
3.07390048262853
21
0.200243680603415
31
0
210
0
220
0
230
1
40
0.965789
41
0
42
6.28318530717959
0
ELLIPSE
5
18D
100
AcDbEntity
8
1
62
256
6
ByLayer
370
-1
48
1
60
0
100
AcDbEllipse
10
79.929831
20
-4.969559
30
0
11
-0.000654095739349707
21
0.150104693822183
31
0
210
0
220
0
230
1
40
0.016273
41
-2.54496627552742
42
-1.83244170198519
0
ELLIPSE
5
18E
100
AcDbEntity
8
1
62
256
6
ByLayer
370
-1
48
1
60
0
100
AcDbEllipse
10
76.623385
20
0.290117
30
0
11
-0.289207308300812
21
-0.169862174315234
31
0
210
0
220
0
230
1
40
0.223196
41
-1.93117354737151
42
-1.65552978805199
0
ELLIPSE
5
18F
100
AcDbEntity
8
1
62
256
6
ByLayer
370
-1
48
1
60
0
100
AcDbEllipse
10
73.289913
20
-1.669211
30
0
11
-0.143360189788583
21
-0.0848352941179593
31
0
210
0
220
0
230
1
40
0.209444
41
0.759403634584153
42
1.46498982422237
0
ELLIPSE
5
190
100
AcDbEntity
8
1
62
256
6
ByLayer
370
-1
48
1
60
0
100
AcDbEllipse
10
76.419111
20
0.17529
30
0
11
-0.33580485894152
21
-0.201414936976959
31
0
210
0
220
0
230
1
40
0.189826
41
-1.71815547219365
42
-0.727550146210406
0
ELLIPSE
5
191
100
AcDbEntity
8
1
62
256
6
ByLayer
370
-1
48
1
60
0
100
AcDbEllipse
10
79.463273
20
-1.775482
30
0
11
-0.352978025609557
21
0.614491679990481
31
0
210
0
220
0
230
1
40
0.052277
41
-2.4018394712069
42
-1.53890582526064
0
ELLIPSE
5
192
100
AcDbEntity
8
1
62
256
6
ByLayer
370
-1
48
1
60
0
100
AcDbEllipse
10
79.682396
20
-2.643896
30
0
11
0.249471227956048
21
0.0162513513930859
31
0
210
0
220
0
230
1
40
0.965789
41
-0.0628317333971479
42
0.0333040443271942
0
ELLIPSE
5
193
100
AcDbEntity
8
1
62
256
6
ByLayer
370
-1
48
1
60
0
100
AcDbEllipse
10
77.446326
20
0.504642
30
0
11
-0.239377603618856
21
0.0826540724585731
31
0
210
0
220
0
230
1
40
0.911082
41
-1.28340322752729
42
-0.744664108319066
0
ELLIPSE
5
194
100
AcDbEntity
8
1
62
256
6
ByLayer
370
-1
48
1
60
0
100
AcDbEllipse
10
79.119814
20
1.55257
30
0
11
-0.0878138722405288
21
-0.00572047569036686
31
0
210
0
220
0
230
1
40
0.965789
41
3.1415791944486
42
-2.68082561138837
0
ELLIPSE
5
195
100
AcDbEntity
8
1
62
256
6
ByLayer
370
-1
48
1
60
0
100
AcDbEllipse
10
79.61311
20
-1.580301
30
0
11
0.249471227956048
21
0.0162513513930859
31
0
210
0
220
0
230
1
40
0.965789
41
1.3191733440673E-06
42
0.460767042201317
0
ELLIPSE
5
196
100
AcDbEntity
8
1
62
256
6
ByLayer
370
-1
48
1
60
0
100
AcDbEllipse
10
79.376349
20
-0.322189
30
0
11
-0.179619284128354
21
-0.0117009730030231
31
0
210
0
220
0
230
1
40
0.965789
41
3.1415815476831
42
-2.68082561138869
0
ELLIPSE
5
197
100
AcDbEntity
8
1
62
256
6
ByLayer
370
-1
48
1
60
0
100
AcDbEllipse
10
79.051918
20
0.219256
30
0
11
-0.179619284128355
21
-0.0117009730030232
31
0
210
0
220
0
230
1
40
0.965789
41
-2.68082561138854
42
-2.39034587768744
0
ELLIPSE
5
198
100
AcDbEntity
8
1
62
256
6
ByLayer
370
-1
48
1
60
0
100
AcDbEllipse
10
73.625307
20
-10.383532
30
0
11
-0.128945792992649
21
0.0768529686951101
31
0
210
0
220
0
230
1
40
0.215846
41
1.00566648808621
42
1.71819106639016
0
ELLIPSE
5
199
100
AcDbEntity
8
1
62
256
6
ByLayer
370
-1
48
1
60
0
100
AcDbEllipse
10
79.924457
20
-10.107527
30
0
11
-0.00147399319280499
21
0.337784675026012
31
0
210
0
220
0
230
1
40
0.015426
41
1.29511890680589
42
1.5707626910363
0
ELLIPSE
5
19A
100
AcDbEntity
8
1
62
256
6
ByLayer
370
-1
48
1
60
0
100
AcDbEllipse
10
79.929831
20
-6.465493
30
0
11
-0.000592402742270497
21
0.165729209965345
31
0
210
0
220
0
230
1
40
0.014833
41
-1.80726703816703
42
-1.10168084508559
0
ELLIPSE
5
19B
100
AcDbEntity
8
1
62
256
6
ByLayer
370
-1
48
1
60
0
100
AcDbEllipse
10
79.924457
20
-9.879656
30
0
11
-0.000910734201734808
21
0.382239909741575
31
0
210
0
220
0
230
1
40
0.013965
41
0.411204772665758
42
1.40181009776218
0
ELLIPSE
5
19C
100
AcDbEntity
8
1
62
256
6
ByLayer
370
-1
48
1
60
0
100
AcDbEllipse
10
76.740296
20
-11.601735
30
0
11
-0.704940313666848
21
-0.0225354790913513
31
0
210
0
220
0
230
1
40
0.11846
41
-1.49267477965565
42
-0.629741133708252
0
ELLIPSE
5
19D
100
AcDbEntity
8
1
62
256
6
ByLayer
370
-1
48
1
60
0
100
AcDbEllipse
10
75.87343
20
-11.386207
30
0
11
0.249471227956048
21
0.0162513513930859
31
0
210
0
220
0
230
1
40
0.965789
41
-2.15722683579026
42
-2.06109105806599
0
ELLIPSE
5
19E
100
AcDbEntity
8
1
62
256
6
ByLayer
370
-1
48
1
60
0
100
AcDbEllipse
10
79.672559
20
-10.859672
30
0
11
-0.00112718778844031
21
0.258816590399795
31
0
210
0
220
0
230
1
40
0.965798
41
-2.10952713476664
42
-1.57078801551543
0
ELLIPSE
5
19F
100
AcDbEntity
8
1
62
256
6
ByLayer
370
-1
48
1
60
0
100
AcDbEllipse
10
79.929831
20
-9.036648
30
0
11
-0.000560354042069406
21
0.175204025682629
31
0
210
0
220
0
230
1
40
0.014074
41
-2.73672801774242
42
-1.79425022212155
0
ELLIPSE
5
1A0
100
AcDbEntity
8
1
62
256
6
ByLayer
370
-1
48
1
60
0
100
AcDbEllipse
10
75.731281
20
-11.58948
30
0
11
-0.283033031704183
21
-0.00090522294378984
31
0
210
0
220
0
230
1
40
0.13718
41
2.09519462504056
42
2.5217697402906
0
ELLIPSE
5
1A1
100
AcDbEntity
8
1
62
256
6
ByLayer
370
-1
48
1
60
0
100
AcDbEllipse
10
77.114428
20
-11.717999
30
0
11
-0.000811575289497948
21
0.186347945093528
31
0
210
0
220
0
230
1
40
0.965798
41
2.19805264580221
42
-3.14158434276445
0
ELLIPSE
5
1A2
100
AcDbEntity
8
1
62
256
6
ByLayer
370
-1
48
1
60
0
100
AcDbEllipse
10
77.76329
20
-11.715167
30
0
11
-0.000811575341729951
21
0.186347945103124
31
0
210
0
220
0
230
1
40
0.965798
41
-3.14158434303401
42
-2.19803602444877
0
ELLIPSE
5
1A3
100
AcDbEntity
8
1
62
256
6
ByLayer
370
-1
48
1
60
0
100
AcDbEllipse
10
78.055021
20
-11.844831
30
0
11
-0.00058613772217585
21
0.134584627014961
31
0
210
0
220
0
230
1
40
0.965798
41
8.31073189000457E-06
42
0.943556629332947
0
ELLIPSE
5
1A4
100
AcDbEntity
8
1
62
256
6
ByLayer
370
-1
48
1
60
0
100
AcDbEllipse
10
78.299017
20
-11.843767
30
0
11
-0.000586137682680125
21
0.134584627016157
31
0
210
0
220
0
230
1
40
0.965798
41
-1.03204889653248
42
8.3110145457201E-06
0
ELLIPSE
5
1A5
100
AcDbEntity
8
1
62
256
6
ByLayer
370
-1
48
1
60
0
100
AcDbEllipse
10
78.927706
20
-12.485339
30
0
11
-0.000396770117078601
21
0.0911034398269323
31
0
210
0
220
0
230
1
40
0.965798
41
2.10954375713078
42
-3.14158434250627
0
ELLIPSE
5
1A6
100
AcDbEntity
8
1
62
256
6
ByLayer
370
-1
48
1
60
0
100
AcDbEllipse
10
78.931783
20
-12.485321
30
0
11
-0.000396770142075488
21
0.0911034398246542
31
0
210
0
220
0
230
1
40
0.965798
41
-3.14158434277067
42
-2.10952713521312
0
ELLIPSE
5
1A7
100
AcDbEntity
8
1
62
256
6
ByLayer
370
-1
48
1
60
0
100
AcDbEllipse
10
79.106381
20
-10.852472
30
0
11
-0.818470076652881
21
-0.511508916890158
31
0
210
0
220
0
230
1
40
0.341899
41
-0.82693649321169
42
-0.0104869071737829
0
ELLIPSE
5
1A8
100
AcDbEntity
8
1
62
256
6
ByLayer
370
-1
48
1
60
0
100
AcDbEllipse
10
78.616922
20
-11.158503
30
0
11
1.55866942272947E-17
21
0.254558441227155
31
0
210
0
220
0
230
1
40
0.999867
41
0.55849359383695
42
0.863312072454428
0
ELLIPSE
5
1A9
100
AcDbEntity
8
1
62
256
6
ByLayer
370
-1
48
1
60
0
100
AcDbEllipse
10
78.921235
20
-10.534955
30
0
11
-0.00804175809620436
21
1.84310051253117
31
0
210
0
220
0
230
1
40
0.179021
41
2.84088306243931
42
-2.84088284843039
0
ELLIPSE
5
1AA
100
AcDbEntity
8
1
62
256
6
ByLayer
370
-1
48
1
60
0
100
AcDbEllipse
10
78.923126
20
-10.967145
30
0
11
1.55866942272947E-17
21
0.254558441227155
31
0
210
0
220
0
230
1
40
0.999867
41
-0.549766437173629
42
0.558493593836855
0
ELLIPSE
5
1AB
100
AcDbEntity
8
1
62
256
6
ByLayer
370
-1
48
1
60
0
100
AcDbEllipse
10
78.738867
20
-10.854076
30
0
11
-0.822902478282598
21
0.504346294687035
31
0
210
0
220
0
230
1
40
0.3419
41
-3.13110594625876
42
-2.3146563602234
0
ELLIPSE
5
1AC
100
AcDbEntity
8
1
62
256
6
ByLayer
370
-1
48
1
60
0
100
AcDbEllipse
10
79.230989
20
-11.155823
30
0
11
1.55866942272947E-17
21
0.254558441227155
31
0
210
0
220
0
230
1
40
0.999867
41
-0.85458525875284
42
-0.549766437173735
0
ELLIPSE
5
1AD
100
AcDbEntity
8
1
62
256
6
ByLayer
370
-1
48
1
60
0
100
AcDbEllipse
10
79.694296
20
-10.030832
30
0
11
0.150248298123991
21
-0.282533978329765
31
0
210
0
220
0
230
1
40
0.014394
41
-2.74837435945529
42
-1.57841055121141
0
ELLIPSE
5
1AE
100
AcDbEntity
8
1
62
256
6
ByLayer
370
-1
48
1
60
0
100
AcDbEllipse
10
79.694296
20
-10.030832
30
0
11
-0.175677408214784
21
0.267464854220019
31
0
210
0
220
0
230
1
40
0.203761
41
-1.3926853202012
42
-0.402079994214729
0
ELLIPSE
5
1AF
100
AcDbEntity
8
1
62
256
6
ByLayer
370
-1
48
1
60
0
100
AcDbEllipse
10
79.694296
20
-10.030832
30
0
11
-0.101161855390454
21
-0.303588996859176
31
0
210
0
220
0
230
1
40
0.015437
41
-1.84125864988204
42
-1.56561488893599
0
ELLIPSE
5
1B0
100
AcDbEntity
8
1
62
256
6
ByLayer
370
-1
48
1
60
0
100
AcDbEllipse
10
79.088013
20
-6.073601
30
0
11
0.0633059060388958
21
0.135986625300411
31
0
210
0
220
0
230
1
40
0.127852
41
-1.80029716860946
42
-1.09471097891119
0
ELLIPSE
5
1B1
100
AcDbEntity
8
1
62
256
6
ByLayer
370
-1
48
1
60
0
100
AcDbEllipse
10
73.675755
20
-8.914205
30
0
11
0.105854520827006
21
0.106277092642229
31
0
210
0
220
0
230
1
40
0.19749
41
-1.9176348685019
42
-1.74310194330202
0
ELLIPSE
5
1B2
100
AcDbEntity
8
1
62
256
6
ByLayer
370
-1
48
1
60
0
100
AcDbEllipse
10
74.112088
20
-9.348803
30
0
11
0.105854520827006
21
0.106277092642229
31
0
210
0
220
0
230
1
40
0.19749
41
-1.91763486850119
42
-1.74310194330173
0
ELLIPSE
5
1B3
100
AcDbEntity
8
1
62
256
6
ByLayer
370
-1
48
1
60
0
100
AcDbEllipse
10
73.89874
20
-9.963365
30
0
11
0.125722164389598
21
-0.0818164859988195
31
0
210
0
220
0
230
1
40
0.210253
41
-2.12740956439784
42
-1.41488498587132
0
ELLIPSE
5
1B4
100
AcDbEntity
8
1
62
256
6
ByLayer
370
-1
48
1
60
0
100
AcDbEllipse
10
78.929689
20
-11.688877
30
0
11
-0.329991143274648
21
-0.00241771799247096
31
0
210
0
220
0
230
1
40
0.178986
41
1.25353512295924
42
1.85495451927
0
ELLIPSE
5
1B5
100
AcDbEntity
8
1
62
256
6
ByLayer
370
-1
48
1
60
0
100
AcDbEllipse
10
78.620335
20
-11.158349
30
0
11
0.174886668864498
21
-0.279847553238329
31
0
210
0
220
0
230
1
40
0.013828
41
-2.46041722001705
42
-1.57939589399709
0
ELLIPSE
5
1B6
100
AcDbEntity
8
1
62
256
6
ByLayer
370
-1
48
1
60
0
100
AcDbEllipse
10
78.620335
20
-11.158349
30
0
11
-0.175765810909964
21
0.279296222164144
31
0
210
0
220
0
230
1
40
0.354829
41
0.734708662349701
42
1.55115824838684
0
ELLIPSE
5
1B7
100
AcDbEntity
8
1
62
256
6
ByLayer
370
-1
48
1
60
0
100
AcDbEllipse
10
79.234402
20
-11.155669
30
0
11
-0.171567193481963
21
-0.281894835214699
31
0
210
0
220
0
230
1
40
0.328804
41
1.57219616046266
42
2.38864574650017
0
ELLIPSE
5
1B8
100
AcDbEntity
8
1
62
256
6
ByLayer
370
-1
48
1
60
0
100
AcDbEllipse
10
79.234402
20
-11.155669
30
0
11
0.172437766515797
21
0.281363140228146
31
0
210
0
220
0
230
1
40
0.013865
41
0.698314144512559
42
1.57933547052249
0
ELLIPSE
5
1B9
100
AcDbEntity
8
1
62
256
6
ByLayer
370
-1
48
1
60
0
100
AcDbEllipse
10
78.926539
20
-10.966991
30
0
11
-0.172437766515797
21
-0.281363140228146
31
0
210
0
220
0
230
1
40
0.013865
41
-2.44327850907723
42
-1.56225718306743
0
ELLIPSE
5
1BA
100
AcDbEntity
8
1
62
256
6
ByLayer
370
-1
48
1
60
0
100
AcDbEllipse
10
78.926539
20
-10.966991
30
0
11
-0.174886668864497
21
0.279847553238329
31
0
210
0
220
0
230
1
40
0.013828
41
0.68117543358231
42
1.56219675959275
0
ELLIPSE
5
1BB
100
AcDbEntity
8
1
62
256
6
ByLayer
370
-1
48
1
60
0
100
AcDbEllipse
10
78.620335
20
-11.158349
30
0
11
-0.285075263893939
21
-0.166229040530833
31
0
210
0
220
0
230
1
40
0.008173
41
-1.5567112438361
42
-1.20764539343343
0
ELLIPSE
5
1BC
100
AcDbEntity
8
1
62
256
6
ByLayer
370
-1
48
1
60
0
100
AcDbEllipse
10
78.929689
20
-11.688877
30
0
11
-0.285075263893939
21
-0.166229040530833
31
0
210
0
220
0
230
1
40
0.008173
41
-1.55671124383602
42
-1.20764539343724
0
ELLIPSE
5
1BD
100
AcDbEntity
8
1
62
256
6
ByLayer
370
-1
48
1
60
0
100
AcDbEllipse
10
78.929689
20
-11.688877
30
0
11
0.28651500664999
21
-0.163735002257783
31
0
210
0
220
0
230
1
40
0.008111
41
-1.58491693353027
42
-1.23585108313175
0
ELLIPSE
5
1BE
100
AcDbEntity
8
1
62
256
6
ByLayer
370
-1
48
1
60
0
100
AcDbEllipse
10
79.234402
20
-11.155669
30
0
11
0.28651500664999
21
-0.163735002257783
31
0
210
0
220
0
230
1
40
0.008111
41
-1.58491693353027
42
-1.23585108313368
0
ELLIPSE
5
1BF
100
AcDbEntity
8
1
62
256
6
ByLayer
370
-1
48
1
60
0
100
AcDbEllipse
10
68.174599
20
-4.56351
30
0
11
0.129725038537145
21
0.00845070272440464
31
0
210
0
220
0
230
1
40
0.965789
41
-1.61848771655645
42
-0.586430508995096
0
ELLIPSE
5
1C0
100
AcDbEntity
8
1
62
256
6
ByLayer
370
-1
48
1
60
0
100
AcDbEllipse
10
67.322761
20
-4.790283
30
0
11
-0.0878138722405288
21
-0.00572047569036686
31
0
210
0
220
0
230
1
40
0.965789
41
-1.61848771655731
42
-0.586430508995172
0
ELLIPSE
5
1C1
100
AcDbEntity
8
1
62
256
6
ByLayer
370
-1
48
1
60
0
100
AcDbEllipse
10
69.979373
20
-8.365898
30
0
11
-0.152300321263697
21
0.0888973533534377
31
0
210
0
220
0
230
1
40
0.184283
41
0.751981040703859
42
1.6944588366922
0
ELLIPSE
5
1C2
100
AcDbEntity
8
1
62
256
6
ByLayer
370
-1
48
1
60
0
100
AcDbEllipse
10
69.806591
20
-3.586741
30
0
11
-0.140264069525478
21
-0.240302574122729
31
0
210
0
220
0
230
1
40
0.078706
41
0.512153286813151
42
0.938728402675305
0
ELLIPSE
5
1C3
100
AcDbEntity
8
1
62
256
6
ByLayer
370
-1
48
1
60
0
100
AcDbEllipse
10
68.939267
20
-4.600279
30
0
11
-0.166358820496493
21
-0.0735665956904875
31
0
210
0
220
0
230
1
40
0.908072
41
-1.85126895862109
42
-0.907720640044523
0
ELLIPSE
5
1C4
100
AcDbEntity
8
1
62
256
6
ByLayer
370
-1
48
1
60
0
100
AcDbEllipse
10
68.614837
20
-5.144555
30
0
11
-0.166358820518373
21
-0.0735665956707469
31
0
210
0
220
0
230
1
40
0.908072
41
-0.907720639850127
42
0.0358276787070397
0
ELLIPSE
5
1C5
100
AcDbEntity
8
1
62
256
6
ByLayer
370
-1
48
1
60
0
100
AcDbEllipse
10
68.360314
20
-5.336951
30
0
11
-0.120148037025472
21
-0.0531314302205469
31
0
210
0
220
0
230
1
40
0.908072
41
2.23387201357609
42
-3.10576497501205
0
ELLIPSE
5
1C6
100
AcDbEntity
8
1
62
256
6
ByLayer
370
-1
48
1
60
0
100
AcDbEllipse
10
68.238316
20
-5.541619
30
0
11
-0.120148037023093
21
-0.0531314302251999
31
0
210
0
220
0
230
1
40
0.908072
41
1.20181480598068
42
2.23387201350495
0
ELLIPSE
5
1C7
100
AcDbEntity
8
1
62
256
6
ByLayer
370
-1
48
1
60
0
100
AcDbEllipse
10
67.389289
20
-5.811547
30
0
11
-0.0813309789048127
21
-0.0359658912305868
31
0
210
0
220
0
230
1
40
0.908072
41
-1.93977784764968
42
-0.907720640094811
0
ELLIPSE
5
1C8
100
AcDbEntity
8
1
62
256
6
ByLayer
370
-1
48
1
60
0
100
AcDbEllipse
10
67.38725
20
-5.814967
30
0
11
-0.0813309788902997
21
-0.0359658912416933
31
0
210
0
220
0
230
1
40
0.908072
41
-0.907720640300363
42
0.124336567312043
0
ELLIPSE
5
1C9
100
AcDbEntity
8
1
62
256
6
ByLayer
370
-1
48
1
60
0
100
AcDbEllipse
10
68.654331
20
-6.613498
30
0
11
-0.000207326154166169
21
-0.890157524681013
31
0
210
0
220
0
230
1
40
0.360082
41
2.35360549925667
42
-3.11313022187966
0
ELLIPSE
5
1CA
100
AcDbEntity
8
1
62
256
6
ByLayer
370
-1
48
1
60
0
100
AcDbEllipse
10
68.647
20
-6.081568
30
0
11
0.214135434812111
21
0.137644526072878
31
0
210
0
220
0
230
1
40
0.895737
41
-0.509329721976728
42
-0.204511071699879
0
ELLIPSE
5
1CB
100
AcDbEntity
8
1
62
256
6
ByLayer
370
-1
48
1
60
0
100
AcDbEllipse
10
69.011064
20
-6.585376
30
0
11
-1.53630689168177
21
0.724448865227657
31
0
210
0
220
0
230
1
40
0.188839
41
-0.319063412219781
42
0.282355984097747
0
ELLIPSE
5
1CC
100
AcDbEntity
8
1
62
256
6
ByLayer
370
-1
48
1
60
0
100
AcDbEllipse
10
68.651586
20
-6.414338
30
0
11
0.214135434812111
21
0.137644526072878
31
0
210
0
220
0
230
1
40
0.895737
41
-1.61758975637614
42
-0.50932972197665
0
ELLIPSE
5
1CD
100
AcDbEntity
8
1
62
256
6
ByLayer
370
-1
48
1
60
0
100
AcDbEllipse
10
68.838088
20
-6.305221
30
0
11
-0.83243724954593
21
-0.488229794595342
31
0
210
0
220
0
230
1
40
0.306363
41
0.0069548950525379
42
0.823404481090348
0
ELLIPSE
5
1CE
100
AcDbEntity
8
1
62
256
6
ByLayer
370
-1
48
1
60
0
100
AcDbEllipse
10
68.339966
20
-6.596658
30
0
11
0.214135434812111
21
0.137644526072878
31
0
210
0
220
0
230
1
40
0.895737
41
-1.92240840665296
42
-1.61758975637614
0
ELLIPSE
5
1CF
100
AcDbEntity
8
1
62
256
6
ByLayer
370
-1
48
1
60
0
100
AcDbEllipse
10
69.119619
20
-7.549209
30
0
11
-0.319437373112233
21
0.0189674631713383
31
0
210
0
220
0
230
1
40
0.372092
41
-2.4755207844133
42
-1.30555697618074
0
ELLIPSE
5
1D0
100
AcDbEntity
8
1
62
256
6
ByLayer
370
-1
48
1
60
0
100
AcDbEllipse
10
69.119619
20
-7.549209
30
0
11
0.3187160302586
21
0.0286372494524019
31
0
210
0
220
0
230
1
40
0.189541
41
0.623798962615294
42
1.61440428860234
0
ELLIPSE
5
1D1
100
AcDbEntity
8
1
62
256
6
ByLayer
370
-1
48
1
60
0
100
AcDbEllipse
10
69.119619
20
-7.549209
30
0
11
-0.214373568568197
21
0.237579403777635
31
0
210
0
220
0
230
1
40
0.080191
41
-1.39228185157714
42
-1.11663809063041
0
ELLIPSE
5
1D2
100
AcDbEntity
8
1
62
256
6
ByLayer
370
-1
48
1
60
0
100
AcDbEllipse
10
73.059793
20
-9.131521
30
0
11
0.0824075344049277
21
-0.125335542737488
31
0
210
0
220
0
230
1
40
0.131471
41
-1.34334808187588
42
-0.637761892177669
0
ELLIPSE
5
1D3
100
AcDbEntity
8
1
62
256
6
ByLayer
370
-1
48
1
60
0
100
AcDbEllipse
10
73.240641
20
-3.194153
30
0
11
0.0357259918071445
21
-0.145683401626252
31
0
210
0
220
0
230
1
40
0.046814
41
-1.48711924791819
42
-1.31258632271952
0
ELLIPSE
5
1D4
100
AcDbEntity
8
1
62
256
6
ByLayer
370
-1
48
1
60
0
100
AcDbEllipse
10
72.631173
20
-3.343613
30
0
11
0.0357259918071445
21
-0.145683401626252
31
0
210
0
220
0
230
1
40
0.046814
41
-1.48711924791867
42
-1.31258632272059
0
ELLIPSE
5
1D5
100
AcDbEntity
8
1
62
256
6
ByLayer
370
-1
48
1
60
0
100
AcDbEllipse
10
72.187758
20
-2.860238
30
0
11
-0.131634364356025
21
-0.0719193584550444
31
0
210
0
220
0
230
1
40
0.236597
41
1.46129512665364
42
2.17381970518025
0
ELLIPSE
5
1D6
100
AcDbEntity
8
1
62
256
6
ByLayer
370
-1
48
1
60
0
100
AcDbEllipse
10
68.101429
20
-6.207093
30
0
11
0.126714333577781
21
0.304702277093459
31
0
210
0
220
0
230
1
40
0.542683
41
1.00999969353905
42
1.61141908984985
0
ELLIPSE
5
1D7
100
AcDbEntity
8
1
62
256
6
ByLayer
370
-1
48
1
60
0
100
AcDbEllipse
10
68.697483
20
-6.160105
30
0
11
-0.329968661514939
21
-0.00454779265573889
31
0
210
0
220
0
230
1
40
0.388155
41
-2.21437408675451
42
-1.33335276074515
0
ELLIPSE
5
1D8
100
AcDbEntity
8
1
62
256
6
ByLayer
370
-1
48
1
60
0
100
AcDbEllipse
10
68.697483
20
-6.160105
30
0
11
0.328515456278559
21
-0.0312665154133021
31
0
210
0
220
0
230
1
40
0.671
41
1.04060477834378
42
1.85705436438107
0
ELLIPSE
5
1D9
100
AcDbEntity
8
1
62
256
6
ByLayer
370
-1
48
1
60
0
100
AcDbEllipse
10
68.390449
20
-6.675195
30
0
11
-0.21023359508877
21
0.25436555485374
31
0
210
0
220
0
230
1
40
0.325777
41
1.09225975093559
42
1.90870933697278
0
ELLIPSE
5
1DA
100
AcDbEntity
8
1
62
256
6
ByLayer
370
-1
48
1
60
0
100
AcDbEllipse
10
68.390449
20
-6.675195
30
0
11
0.166646788342776
21
-0.284831262215084
31
0
210
0
220
0
230
1
40
0.020796
41
-2.03107132206068
42
-1.15004999605239
0
ELLIPSE
5
1DB
100
AcDbEntity
8
1
62
256
6
ByLayer
370
-1
48
1
60
0
100
AcDbEllipse
10
68.702069
20
-6.492875
30
0
11
-0.166646788342776
21
0.284831262215084
31
0
210
0
220
0
230
1
40
0.020796
41
1.11052133152734
42
1.99154265753913
0
ELLIPSE
5
1DC
100
AcDbEntity
8
1
62
256
6
ByLayer
370
-1
48
1
60
0
100
AcDbEllipse
10
68.702069
20
-6.492875
30
0
11
0.329968661514939
21
0.00454779265573912
31
0
210
0
220
0
230
1
40
0.388155
41
0.927218566835443
42
1.80823989284473
0
ELLIPSE
5
1DD
100
AcDbEntity
8
1
62
256
6
ByLayer
370
-1
48
1
60
0
100
AcDbEllipse
10
68.697483
20
-6.160105
30
0
11
-0.0259338634078748
21
0.328979383440272
31
0
210
0
220
0
230
1
40
0.228524
41
0.819228148582292
42
1.16829399898124
0
ELLIPSE
5
1DE
100
AcDbEntity
8
1
62
256
6
ByLayer
370
-1
48
1
60
0
100
AcDbEllipse
10
68.101429
20
-6.207093
30
0
11
-0.0259338634078748
21
0.328979383440272
31
0
210
0
220
0
230
1
40
0.228524
41
0.819228148582467
42
1.16829399898105
0
ELLIPSE
5
1DF
100
AcDbEntity
8
1
62
256
6
ByLayer
370
-1
48
1
60
0
100
AcDbEllipse
10
68.101429
20
-6.207093
30
0
11
-0.280790684040499
21
-0.173368370114241
31
0
210
0
220
0
230
1
40
0.444526
41
-1.56272537110598
42
-1.21365952070708
0
ELLIPSE
5
1E0
100
AcDbEntity
8
1
62
256
6
ByLayer
370
-1
48
1
60
0
100
AcDbEllipse
10
68.390449
20
-6.675195
30
0
11
-0.280790684040499
21
-0.173368370114241
31
0
210
0
220
0
230
1
40
0.444526
41
-1.56272537110598
42
-1.21365952070717
0
ELLIPSE
5
1E1
100
AcDbEntity
8
1
62
256
6
ByLayer
370
-1
48
1
60
0
100
AcDbEllipse
10
68.551691
20
-4.175216
30
0
11
-0.179619284128355
21
-0.0117009730030232
31
0
210
0
220
0
230
1
40
0.965789
41
-0.586430508995299
42
-9.08050215299711E-07
0
ELLIPSE
5
1E2
100
AcDbEntity
8
1
62
256
6
ByLayer
370
-1
48
1
60
0
100
AcDbEllipse
10
75.59482
20
-0.373575
30
0
11
-0.152152475767965
21
-0.0895179785218032
31
0
210
0
220
0
230
1
40
0.197758
41
1.47147641495892
42
2.41395421088291
0
ELLIPSE
5
1E3
100
AcDbEntity
8
1
62
256
6
ByLayer
370
-1
48
1
60
0
100
AcDbEllipse
10
79.966153
20
-2.5999
30
0
11
-0.140714191244602
21
0.239169974060389
31
0
210
0
220
0
230
1
40
0.063581
41
0.753835099370578
42
1.18041021865948
0
ELLIPSE
5
1E4
100
AcDbEntity
8
1
62
256
6
ByLayer
370
-1
48
1
60
0
100
AcDbEllipse
10
79.439494
20
-1.291528
30
0
11
-0.172351874628594
21
0.0595109321125443
31
0
210
0
220
0
230
1
40
0.911082
41
3.02417655314562
42
-2.31546043546094
0
ELLIPSE
5
1E5
100
AcDbEntity
8
1
62
256
6
ByLayer
370
-1
48
1
60
0
100
AcDbEllipse
10
79.115064
20
-0.750084
30
0
11
-0.172351874621268
21
0.0595109321159753
31
0
210
0
220
0
230
1
40
0.911082
41
-2.31546043538535
42
-1.37191211681546
0
ELLIPSE
5
1E6
100
AcDbEntity
8
1
62
256
6
ByLayer
370
-1
48
1
60
0
100
AcDbEllipse
10
79.079569
20
-0.454334
30
0
11
-0.12447635387504
21
0.0429801176623802
31
0
210
0
220
0
230
1
40
0.911082
41
0.826132218380766
42
1.76968053701929
0
ELLIPSE
5
1E7
100
AcDbEntity
8
1
62
256
6
ByLayer
370
-1
48
1
60
0
100
AcDbEllipse
10
78.957571
20
-0.250731
30
0
11
-0.124476353896948
21
0.0429801176406963
31
0
210
0
220
0
230
1
40
0.911082
41
-0.205924989364681
42
0.826132218157989
0
ELLIPSE
5
1E8
100
AcDbEntity
8
1
62
256
6
ByLayer
370
-1
48
1
60
0
100
AcDbEllipse
10
79.186343
20
0.531307
30
0
11
-0.0842609164674364
21
0.0290942334922066
31
0
210
0
220
0
230
1
40
0.911082
41
2.93566766438742
42
-2.31546043519918
0
ELLIPSE
5
1E9
100
AcDbEntity
8
1
62
256
6
ByLayer
370
-1
48
1
60
0
100
AcDbEllipse
10
79.184304
20
0.534709
30
0
11
-0.0842609164806781
21
0.029094233478742
31
0
210
0
220
0
230
1
40
0.911082
41
-2.31546043539292
42
-1.28340322786483
0
ELLIPSE
5
1EA
100
AcDbEntity
8
1
62
256
6
ByLayer
370
-1
48
1
60
0
100
AcDbEllipse
10
77.721263
20
0.028328
30
0
11
-0.837564038369265
21
0.479739159396324
31
0
210
0
220
0
230
1
40
0.308746
41
2.31350331955092
42
3.12995290557986
0
ELLIPSE
5
1EB
100
AcDbEntity
8
1
62
256
6
ByLayer
370
-1
48
1
60
0
100
AcDbEllipse
10
78.222036
20
-0.25875
30
0
11
0.222782340523561
21
-0.123158551269667
31
0
210
0
220
0
230
1
40
0.903036
41
-1.58799132119631
42
-1.28317267091937
0
ELLIPSE
5
1EC
100
AcDbEntity
8
1
62
256
6
ByLayer
370
-1
48
1
60
0
100
AcDbEllipse
10
77.545509
20
-0.253349
30
0
11
-1.55232594745425
21
-0.738057643111081
31
0
210
0
220
0
230
1
40
0.185907
41
2.85878495008488
42
-2.8229809607797
0
ELLIPSE
5
1ED
100
AcDbEntity
8
1
62
256
6
ByLayer
370
-1
48
1
60
0
100
AcDbEllipse
10
77.908758
20
-0.079157
30
0
11
0.222782340523561
21
-0.123158551269667
31
0
210
0
220
0
230
1
40
0.903036
41
-2.69625135559558
42
-1.58799132119608
0
ELLIPSE
5
1EE
100
AcDbEntity
8
1
62
256
6
ByLayer
370
-1
48
1
60
0
100
AcDbEllipse
10
77.90502
20
-0.278345
30
0
11
-0.00595811941989323
21
-0.890176669421991
31
0
210
0
220
0
230
1
40
0.362985
41
3.11879900341344
42
-2.34793671774109
0
ELLIPSE
5
1EF
100
AcDbEntity
8
1
62
256
6
ByLayer
370
-1
48
1
60
0
100
AcDbEllipse
10
77.915002
20
0.253661
30
0
11
0.222782340523561
21
-0.123158551269667
31
0
210
0
220
0
230
1
40
0.903036
41
-3.0010700058725
42
-2.69625135559558
0
ELLIPSE
5
1F0
100
AcDbEntity
8
1
62
256
6
ByLayer
370
-1
48
1
60
0
100
AcDbEllipse
10
76.672971
20
0.067014
30
0
11
0.176329317764098
21
0.267035525158822
31
0
210
0
220
0
230
1
40
0.03732
41
1.12825396992039
42
2.29821777815371
0
ELLIPSE
5
1F1
100
AcDbEntity
8
1
62
256
6
ByLayer
370
-1
48
1
60
0
100
AcDbEllipse
10
76.672971
20
0.067014
30
0
11
-0.125543597399466
21
-0.294344704644063
31
0
210
0
220
0
230
1
40
0.19293
41
-1.85493786330962
42
-0.864332537322583
0
ELLIPSE
5
1F2
100
AcDbEntity
8
1
62
256
6
ByLayer
370
-1
48
1
60
0
100
AcDbEllipse
10
76.672971
20
0.067014
30
0
11
0.312377620717914
21
0.0694278191693725
31
0
210
0
220
0
230
1
40
0.335766
41
1.28237066486839
42
1.55801442581507
0
ELLIPSE
5
1F3
100
AcDbEntity
8
1
62
256
6
ByLayer
370
-1
48
1
60
0
100
AcDbEllipse
10
73.356218
20
-2.570999
30
0
11
-0.149596176921153
21
-0.0109992659107354
31
0
210
0
220
0
230
1
40
0.259322
41
0.863046553738648
42
1.56863274343696
0
ELLIPSE
5
1F4
100
AcDbEntity
8
1
62
256
6
ByLayer
370
-1
48
1
60
0
100
AcDbEllipse
10
78.587629
20
-5.667764
30
0
11
-0.143814300897885
21
0.0426315242192027
31
0
210
0
220
0
230
1
40
0.244304
41
1.66062836463021
42
1.83516128982923
0
ELLIPSE
5
1F5
100
AcDbEntity
8
1
62
256
6
ByLayer
370
-1
48
1
60
0
100
AcDbEllipse
10
78.760764
20
-5.083706
30
0
11
-0.143814300897885
21
0.0426315242192027
31
0
210
0
220
0
230
1
40
0.244304
41
1.6606283646304
42
1.83516128982923
0
ELLIPSE
5
1F6
100
AcDbEntity
8
1
62
256
6
ByLayer
370
-1
48
1
60
0
100
AcDbEllipse
10
79.417527
20
-4.952518
30
0
11
0.00498680642490541
21
0.149917082954814
31
0
210
0
220
0
230
1
40
0.026344
41
-2.54435398120655
42
-1.83182940267769
0
ELLIPSE
5
1F7
100
AcDbEntity
8
1
62
256
6
ByLayer
370
-1
48
1
60
0
100
AcDbEllipse
10
78.472053
20
0.132947
30
0
11
0.126989212138566
21
-0.304587819849097
31
0
210
0
220
0
230
1
40
0.517188
41
1.54493633139595
42
2.14635572770701
0
ELLIPSE
5
1F8
100
AcDbEntity
8
1
62
256
6
ByLayer
370
-1
48
1
60
0
100
AcDbEllipse
10
78.178392
20
-0.337698
30
0
11
0.164123276904415
21
0.286292769692419
31
0
210
0
220
0
230
1
40
0.007386
41
1.12684352003377
42
2.00786484604328
0
ELLIPSE
5
1F9
100
AcDbEntity
8
1
62
256
6
ByLayer
370
-1
48
1
60
0
100
AcDbEllipse
10
78.178392
20
-0.337698
30
0
11
-0.206260449892316
21
-0.257597800476284
31
0
210
0
220
0
230
1
40
0.301789
41
1.21123745370823
42
2.02768703974599
0
ELLIPSE
5
1FA
100
AcDbEntity
8
1
62
256
6
ByLayer
370
-1
48
1
60
0
100
AcDbEllipse
10
77.871358
20
0.174713
30
0
11
0.329092877421673
21
0.0244515445386071
31
0
210
0
220
0
230
1
40
0.673036
41
1.32836245256576
42
2.14481203860304
0
ELLIPSE
5
1FB
100
AcDbEntity
8
1
62
256
6
ByLayer
370
-1
48
1
60
0
100
AcDbEllipse
10
77.871358
20
0.174713
30
0
11
-0.329941928492634
21
0.00619062376193207
31
0
210
0
220
0
230
1
40
0.387666
41
-1.77290903562753
42
-0.891887709618126
0
ELLIPSE
5
1FC
100
AcDbEntity
8
1
62
256
6
ByLayer
370
-1
48
1
60
0
100
AcDbEllipse
10
77.865114
20
-0.158105
30
0
11
0.329941928492634
21
-0.00619062376193211
31
0
210
0
220
0
230
1
40
0.387666
41
1.36868361796226
42
2.24970494397172
0
ELLIPSE
5
1FD
100
AcDbEntity
8
1
62
256
6
ByLayer
370
-1
48
1
60
0
100
AcDbEllipse
10
77.865114
20
-0.158105
30
0
11
-0.164123276904415
21
-0.286292769692419
31
0
210
0
220
0
230
1
40
0.007386
41
-2.01474913356604
42
-1.13372780754656
0
ELLIPSE
5
1FE
100
AcDbEntity
8
1
62
256
6
ByLayer
370
-1
48
1
60
0
100
AcDbEllipse
10
78.178392
20
-0.337698
30
0
11
0.279970847001606
21
-0.174689223563457
31
0
210
0
220
0
230
1
40
0.429075
41
1.24442079787153
42
1.5934866482703
0
ELLIPSE
5
1FF
100
AcDbEntity
8
1
62
256
6
ByLayer
370
-1
48
1
60
0
100
AcDbEllipse
10
78.472053
20
0.132947
30
0
11
0.279970847001606
21
-0.174689223563457
31
0
210
0
220
0
230
1
40
0.429075
41
1.24442079787166
42
1.59348664827048
0
ELLIPSE
5
200
100
AcDbEntity
8
1
62
256
6
ByLayer
370
-1
48
1
60
0
100
AcDbEllipse
10
78.472053
20
0.132947
30
0
11
0.022889102046237
21
0.329205238426604
31
0
210
0
220
0
230
1
40
0.196789
41
-1.17075955002708
42
-0.821693699627937
0
ELLIPSE
5
201
100
AcDbEntity
8
1
62
256
6
ByLayer
370
-1
48
1
60
0
100
AcDbEllipse
10
77.871358
20
0.174713
30
0
11
0.022889102046237
21
0.329205238426604
31
0
210
0
220
0
230
1
40
0.196789
41
-1.1707595500269
42
-0.821693699628231
0
ELLIPSE
5
202
100
AcDbEntity
8
1
62
256
6
ByLayer
370
-1
48
1
60
0
100
AcDbEllipse
10
75.153552
20
-5.703454
30
0
11
-3.00359442768437
21
-0.195663719967012
31
0
210
0
220
0
230
1
40
0.965789
41
-0.220303902658787
42
-3.05532299243592E-16
0
ELLIPSE
5
203
100
AcDbEntity
8
1
62
256
6
ByLayer
370
-1
48
1
60
0
100
AcDbEllipse
10
75.153552
20
-5.703454
30
0
11
-3.00359442768437
21
-0.195663719967012
31
0
210
0
220
0
230
1
40
0.965789
41
0
42
0.371395246320573
0
ELLIPSE
5
204
100
AcDbEntity
8
1
62
256
6
ByLayer
370
-1
48
1
60
0
100
AcDbEllipse
10
75.153552
20
-5.703454
30
0
11
-3.00359442768437
21
-0.195663719967012
31
0
210
0
220
0
230
1
40
0.965789
41
2.07963614906329
42
-2.92128857577828
0
ELLIPSE
5
205
100
AcDbEntity
8
1
62
256
6
ByLayer
370
-1
48
1
60
0
100
AcDbEllipse
10
75.149312
20
-5.638373
30
0
11
-2.91486949082832
21
-0.189883894622058
31
0
210
0
220
0
230
1
40
0.965789
41
-0.440509960029912
42
-3.14832315605617E-16
0
ELLIPSE
5
206
100
AcDbEntity
8
1
62
256
6
ByLayer
370
-1
48
1
60
0
100
AcDbEllipse
10
75.149312
20
-5.638373
30
0
11
-2.91486949082832
21
-0.189883894622058
31
0
210
0
220
0
230
1
40
0.965789
41
0
42
0.59130688192502
0
ELLIPSE
5
207
100
AcDbEntity
8
1
62
256
6
ByLayer
370
-1
48
1
60
0
100
AcDbEllipse
10
75.149312
20
-5.638373
30
0
11
-2.91486949082832
21
-0.189883894622058
31
0
210
0
220
0
230
1
40
0.965789
41
2.57777504098303
42
-2.70108219353849
0
ELLIPSE
5
208
100
AcDbEntity
8
1
62
256
6
ByLayer
370
-1
48
1
60
0
100
AcDbEllipse
10
79.117776
20
1.555973
30
0
11
-0.0878138722405259
21
-0.00572047569036667
31
0
210
0
220
0
230
1
40
0.965789
41
-2.68082561138842
42
-1.64876840382667
0
ELLIPSE
5
209
100
AcDbEntity
8
1
62
256
6
ByLayer
370
-1
48
1
60
0
100
AcDbEllipse
10
80.05537
20
1.732294
30
0
11
0.00693407685584083
21
1.40968294611877
31
0
210
0
220
0
230
1
40
0.052006
41
1.83287963693157
42
2.8800771881278
0
ELLIPSE
5
20A
100
AcDbEntity
8
1
62
256
6
ByLayer
370
-1
48
1
60
0
100
AcDbEllipse
10
80.05537
20
1.732294
30
0
11
0.00693407685584083
21
1.40968294611877
31
0
210
0
220
0
230
1
40
0.052006
41
2.8800771881278
42
-2.35591056785486
0
ELLIPSE
5
20B
100
AcDbEntity
8
1
62
256
6
ByLayer
370
-1
48
1
60
0
100
AcDbEllipse
10
80.05537
20
1.732294
30
0
11
0.00693407685584083
21
1.40968294611877
31
0
210
0
220
0
230
1
40
0.052006
41
-2.35591056785486
42
-1.30871301665803
0
ELLIPSE
5
20C
100
AcDbEntity
8
1
62
256
6
ByLayer
370
-1
48
1
60
0
100
AcDbEllipse
10
80.05537
20
1.732294
30
0
11
0.00693407685584083
21
1.40968294611877
31
0
210
0
220
0
230
1
40
0.052006
41
-1.30871301665803
42
-0.261515465460901
0
ELLIPSE
5
20D
100
AcDbEntity
8
1
62
256
6
ByLayer
370
-1
48
1
60
0
100
AcDbEllipse
10
80.05537
20
1.732294
30
0
11
0.00693407685584083
21
1.40968294611877
31
0
210
0
220
0
230
1
40
0.052006
41
-0.261515465460901
42
0.785682085735219
0
ELLIPSE
5
20E
100
AcDbEntity
8
1
62
256
6
ByLayer
370
-1
48
1
60
0
100
AcDbEllipse
10
80.05537
20
1.732294
30
0
11
0.00693407685584083
21
1.40968294611877
31
0
210
0
220
0
230
1
40
0.052006
41
0.785682085735219
42
1.83287963693157
0
ELLIPSE
5
20F
100
AcDbEntity
8
1
62
256
6
ByLayer
370
-1
48
1
60
0
100
AcDbEllipse
10
78.956871
20
1.737697
30
0
11
-0.0152483778485567
21
-3.09996249767203
31
0
210
0
220
0
230
1
40
0.052006
41
-1.57486025232775
42
-1.54049916725785
0
ELLIPSE
5
210
100
AcDbEntity
8
1
62
256
6
ByLayer
370
-1
48
1
60
0
100
AcDbEllipse
10
80.05537
20
1.732294
30
0
11
-0.00836201365888592
21
-1.69997943420724
31
0
210
0
220
0
230
1
40
0.052006
41
0
42
6.28318530717959
0
ELLIPSE
5
211
100
AcDbEntity
8
1
62
256
6
ByLayer
370
-1
48
1
60
0
100
AcDbEllipse
10
75.157432
20
-5.699276
30
0
11
-2.71822297044151
21
-0.192064788454725
31
0
210
0
220
0
230
1
40
0.965764
41
-3.14149459685376
42
-3.37491389979683E-16
0
ELLIPSE
5
212
100
AcDbEntity
8
1
62
256
6
ByLayer
370
-1
48
1
60
0
100
AcDbEllipse
10
75.180079
20
-6.019799
30
0
11
-2.71822297044151
21
-0.192064788454725
31
0
210
0
220
0
230
1
40
0.965764
41
0
42
6.28318530717959
0
ELLIPSE
5
213
100
AcDbEntity
8
1
62
256
6
ByLayer
370
-1
48
1
60
0
100
AcDbEllipse
10
75.181202
20
-6.035684
30
0
11
-1.79552343001641
21
-0.126868484116883
31
0
210
0
220
0
230
1
40
0.965764
41
0
42
6.28318530717959
0
ELLIPSE
5
214
100
AcDbEntity
8
1
62
256
6
ByLayer
370
-1
48
1
60
0
100
AcDbEllipse
10
73.868043
20
-6.350571
30
0
11
-0.200051044282407
21
0.326957883011437
31
0
210
0
220
0
230
1
40
0.499975
41
-2.37462779239195
42
-1.58915102711889
0
ELLIPSE
5
215
100
AcDbEntity
8
1
62
256
6
ByLayer
370
-1
48
1
60
0
100
AcDbEllipse
10
75.152404
20
-7.06087
30
0
11
-0.394032475315773
21
-0.00240287603037814
31
0
210
0
220
0
230
1
40
0.473102
41
-1.57368137364966
42
-0.163407912190453
0
ELLIPSE
5
216
100
AcDbEntity
8
1
62
256
6
ByLayer
370
-1
48
1
60
0
100
AcDbEllipse
10
75.152404
20
-5.628113
30
0
11
-1.28709104541676
21
-0.0909435583644523
31
0
210
0
220
0
230
1
40
0.965764
41
-0.963568993454475
42
-0.732792704623336
0
ELLIPSE
5
217
100
AcDbEntity
8
1
62
256
6
ByLayer
370
-1
48
1
60
0
100
AcDbEllipse
10
75.89398
20
-6.865491
30
0
11
-0.34284533015679
21
-0.189166589712735
31
0
210
0
220
0
230
1
40
0.479089
41
-0.0400244433152643
42
2.35411703749004
0
ELLIPSE
5
218
100
AcDbEntity
8
1
62
256
6
ByLayer
370
-1
48
1
60
0
100
AcDbEllipse
10
75.152404
20
-7.06087
30
0
11
-0.394032475314779
21
-0.00240287603010259
31
0
210
0
220
0
230
1
40
0.473102
41
-2.98395483510981
42
-1.57368137364851
0
ELLIPSE
5
219
100
AcDbEntity
8
1
62
256
6
ByLayer
370
-1
48
1
60
0
100
AcDbEllipse
10
75.152404
20
-5.628113
30
0
11
-1.28709104541676
21
-0.0909435583644523
31
0
210
0
220
0
230
1
40
0.965764
41
1.50266276576789
42
2.54986031696439
0
ELLIPSE
5
21A
100
AcDbEntity
8
1
62
256
6
ByLayer
370
-1
48
1
60
0
100
AcDbEllipse
10
76.436764
20
-6.338412
30
0
11
-0.200517583766076
21
-0.328568772581371
31
0
210
0
220
0
230
1
40
0.495781
41
-1.54958265945254
42
-0.608513246078167
0
ELLIPSE
5
21B
100
AcDbEntity
8
1
62
256
6
ByLayer
370
-1
48
1
60
0
100
AcDbEllipse
10
74.410828
20
-6.872511
30
0
11
-0.343133849056966
21
0.18539127632995
31
0
210
0
220
0
230
1
40
0.48292
41
0.966396763246629
42
-3.10477118287781
0
ELLIPSE
5
21C
100
AcDbEntity
8
1
62
256
6
ByLayer
370
-1
48
1
60
0
100
AcDbEllipse
10
76.635556
20
-5.621093
30
0
11
-0.00062310306850501
21
-0.380672332819596
31
0
210
0
220
0
230
1
40
0.50691
41
-0.0539160509657126
42
1.20422847250882
0
ELLIPSE
5
21D
100
AcDbEntity
8
1
62
256
6
ByLayer
370
-1
48
1
60
0
100
AcDbEllipse
10
76.436764
20
-6.338412
30
0
11
-0.200517583763297
21
-0.328568772582843
31
0
210
0
220
0
230
1
40
0.495781
41
-2.95985612092366
42
-1.54958265947236
0
ELLIPSE
5
21E
100
AcDbEntity
8
1
62
256
6
ByLayer
370
-1
48
1
60
0
100
AcDbEllipse
10
75.152404
20
-5.628113
30
0
11
-1.28709104541676
21
-0.0909435583644523
31
0
210
0
220
0
230
1
40
0.965764
41
2.5498603169645
42
-3.12691571093305
0
ELLIPSE
5
21F
100
AcDbEntity
8
1
62
256
6
ByLayer
370
-1
48
1
60
0
100
AcDbEllipse
10
73.669252
20
-5.635133
30
0
11
-0.000623103068506023
21
-0.380672332819595
31
0
210
0
220
0
230
1
40
0.50691
41
-0.903672283967454
42
0.0603741684580112
0
ELLIPSE
5
220
100
AcDbEntity
8
1
62
256
6
ByLayer
370
-1
48
1
60
0
100
AcDbEllipse
10
75.152404
20
-5.628113
30
0
11
-1.28709104541676
21
-0.0909435583644523
31
0
210
0
220
0
230
1
40
0.965764
41
-2.5725065839242
42
-2.12648206047477
0
ELLIPSE
5
221
100
AcDbEntity
8
1
62
256
6
ByLayer
370
-1
48
1
60
0
100
AcDbEllipse
10
75.152404
20
-5.628113
30
0
11
-1.28709104541676
21
-0.0909435583644523
31
0
210
0
220
0
230
1
40
0.965764
41
-0.12492758658374
42
0.455465214571105
0
ELLIPSE
5
222
100
AcDbEntity
8
1
62
256
6
ByLayer
370
-1
48
1
60
0
100
AcDbEllipse
10
73.868043
20
-6.350571
30
0
11
-0.200051044280385
21
0.326957883008761
31
0
210
0
220
0
230
1
40
0.499975
41
-1.58915102711631
42
-0.178877565653117
0
ELLIPSE
5
223
100
AcDbEntity
8
1
62
256
6
ByLayer
370
-1
48
1
60
0
100
AcDbEllipse
10
75.181202
20
-6.035684
30
0
11
1.67223082115528
21
0.118156848207532
31
0
210
0
220
0
230
1
40
0.965764
41
3.07345909256255
42
-2.16252866342039
0
ELLIPSE
5
224
100
AcDbEntity
8
1
62
256
6
ByLayer
370
-1
48
1
60
0
100
AcDbEllipse
10
75.181202
20
-6.035684
30
0
11
1.67223082115528
21
0.118156848207532
31
0
210
0
220
0
230
1
40
0.965764
41
-2.16252866342039
42
-1.11533111222383
0
ELLIPSE
5
225
100
AcDbEntity
8
1
62
256
6
ByLayer
370
-1
48
1
60
0
100
AcDbEllipse
10
75.181202
20
-6.035684
30
0
11
1.67223082115528
21
0.118156848207532
31
0
210
0
220
0
230
1
40
0.965764
41
-1.11533111222383
42
-0.0681335610272183
0
ELLIPSE
5
226
100
AcDbEntity
8
1
62
256
6
ByLayer
370
-1
48
1
60
0
100
AcDbEllipse
10
75.181202
20
-6.035684
30
0
11
1.67223082115528
21
0.118156848207532
31
0
210
0
220
0
230
1
40
0.965764
41
-0.0681335610272183
42
0.979063990169393
0
ELLIPSE
5
227
100
AcDbEntity
8
1
62
256
6
ByLayer
370
-1
48
1
60
0
100
AcDbEllipse
10
75.181202
20
-6.035684
30
0
11
1.67223082115528
21
0.118156848207532
31
0
210
0
220
0
230
1
40
0.965764
41
0.979063990169393
42
2.02626154136596
0
ELLIPSE
5
228
100
AcDbEntity
8
1
62
256
6
ByLayer
370
-1
48
1
60
0
100
AcDbEllipse
10
75.181202
20
-6.035684
30
0
11
1.67223082115528
21
0.118156848207532
31
0
210
0
220
0
230
1
40
0.965764
41
2.02626154136596
42
3.07345909256255
0
ELLIPSE
5
229
100
AcDbEntity
8
1
62
256
6
ByLayer
370
-1
48
1
60
0
100
AcDbEllipse
10
75.152404
20
-5.628113
30
0
11
1.28709104541676
21
0.0909435583644585
31
0
210
0
220
0
230
1
40
0.965764
41
-2.68612743901859
42
-1.6389298878221
0
POINT
5
41
100
AcDbEntity
8
2
62
256
6
ByLayer
370
-1
48
1
60
0
100
AcDbPoint
10
79.93
20
13.875
30
0
39
0
210
0
220
0
230
1
50
360
0
POINT
5
43
100
AcDbEntity
8
1
62
256
6
ByLayer
370
-1
48
1
60
0
100
AcDbPoint
10
78.930142
20
12.576468
30
0
39
0
210
0
220
0
230
1
50
360
0
POINT
5
45
100
AcDbEntity
8
80
62
256
6
ByLayer
370
-1
48
1
60
0
100
AcDbPoint
10
0
20
0
30
0
39
0
210
0
220
0
230
1
50
360
0
POINT
5
47
100
AcDbEntity
8
81
62
256
6
ByLayer
370
-1
48
1
60
0
100
AcDbPoint
10
79.93
20
-13.875
30
0
39
0
210
0
220
0
230
1
50
360
0
SPLINE
5
22A
100
AcDbEntity
8
1
62
256
6
ByLayer
370
-1
48
1
60
0
100
AcDbSpline
70
4
71
3
72
12
73
8
40
0
40
0
40
0
40
0
40
0.0872628089565816
40
0.400415072221909
40
0.698270663092338
40
0.979152116075873
40
1
40
1
40
1
40
1
41
1
10
79.3667983514598
20
4.48632018845916
30
0
41
1
10
79.392673613486
20
4.45895111341878
30
0
41
1
10
79.5094257530988
20
4.33141906891734
30
0
41
1
10
79.6996823546095
20
4.097769525442
30
0
41
1
10
79.9035882705729
20
3.77177134817404
30
0
41
1
10
80.0261942194797
20
3.54315925123953
30
0
41
1
10
80.0726649874479
20
3.42182255922384
30
0
41
1
10
80.0758294784422
20
3.41341757584124
30
0
0
SPLINE
5
22B
100
AcDbEntity
8
1
62
256
6
ByLayer
370
-1
48
1
60
0
100
AcDbSpline
70
4
71
3
72
10
73
6
40
0
40
0
40
0
40
0
40
0.192317600867931
40
0.659510602097676
40
1
40
1
40
1
40
1
41
1
10
80.0629019600503
20
0.0744629439514597
30
0
41
1
10
80.0417235997115
20
0.0178597620855214
30
0
41
1
10
79.9629179246984
20
-0.173047677621696
30
0
41
1
10
79.8013593275678
20
-0.443636020421735
30
0
41
1
10
79.6529657673827
20
-0.648848075028127
30
0
41
1
10
79.5869026443793
20
-0.732673258057275
30
0
0
SPLINE
5
22C
100
AcDbEntity
8
1
62
256
6
ByLayer
370
-1
48
1
60
0
100
AcDbSpline
70
4
71
1
72
4
73
2
40
0
40
0
40
1
40
1
41
1
10
70.5406558379374
20
-8.71392697973715
30
0
41
1
10
70.6493348472747
20
-9.20210101484599
30
0
0
SPLINE
5
22D
100
AcDbEntity
8
1
62
256
6
ByLayer
370
-1
48
1
60
0
100
AcDbSpline
70
4
71
3
72
8
73
4
40
0
40
0
40
0
40
0
40
1
40
1
40
1
40
1
41
1
10
60.7191061671114
20
-9.35699814720843
30
0
41
1
10
60.6998452263606
20
-9.37326905874664
30
0
41
1
10
60.684949881154
20
-9.38937169990191
30
0
41
1
10
60.6753991117469
20
-9.40498248122941
30
0
0
SPLINE
5
22E
100
AcDbEntity
8
1
62
256
6
ByLayer
370
-1
48
1
60
0
100
AcDbSpline
70
4
71
3
72
18
73
14
40
0
40
0
40
0
40
0
40
0.0001964882992128
40
0.0001964882992128
40
0.240934126656338
40
0.240934126656338
40
0.444784248378463
40
0.444784248378463
40
0.632883865569321
40
0.632883865569321
40
0.839153204420847
40
0.839153204420847
40
1
40
1
40
1
40
1
41
1
10
60.6633406976538
20
-9.44613305008855
30
0
41
1
10
60.6633422580996
20
-9.44615589788725
30
0
41
1
10
60.6633438341394
20
-9.44617874371946
30
0
41
1
10
60.6652845951366
20
-9.47403337468432
30
0
41
1
10
60.69136801989
20
-9.49970422917357
30
0
41
1
10
60.7868039782059
20
-9.53854001777398
30
0
41
1
10
60.8503116947105
20
-9.55358834100605
30
0
41
1
10
60.9979343321291
20
-9.5762184700173
30
0
41
1
10
61.0817032386083
20
-9.58463207790189
30
0
41
1
10
61.2694501536055
20
-9.59780804905989
30
0
41
1
10
61.3766703126873
20
-9.60234171549058
30
0
41
1
10
61.5709766520176
20
-9.60724068878793
30
0
41
1
10
61.6584794502438
20
-9.60832727384229
30
0
41
1
10
61.7456894815109
20
-9.6085125115147
30
0
0
SPLINE
5
22F
100
AcDbEntity
8
1
62
256
6
ByLayer
370
-1
48
1
60
0
100
AcDbSpline
70
4
71
3
72
14
73
10
40
0
40
0
40
0
40
0
40
0.411539000015186
40
0.411539000015186
40
0.713971529095424
40
0.713971529095424
40
0.92875857159208
40
0.92875857159208
40
1
40
1
40
1
40
1
41
1
10
51.5381705748912
20
3.83288914782202
30
0
41
1
10
51.5772644433494
20
3.77528451738027
30
0
41
1
10
51.6212572366347
20
3.72017515085741
30
0
41
1
10
51.7094973136297
20
3.63783097761046
30
0
41
1
10
51.751366778849
20
3.60656281934703
30
0
41
1
10
51.8300583388705
20
3.56853249040654
30
0
41
1
10
51.8655899411004
20
3.55720204027105
30
0
41
1
10
51.913743915189
20
3.55120642275841
30
0
41
1
10
51.9259686442552
20
3.55044011356242
30
0
41
1
10
51.9381705737391
20
3.55044011356242
30
0
0
SPLINE
5
230
100
AcDbEntity
8
1
62
256
6
ByLayer
370
-1
48
1
60
0
100
AcDbSpline
70
4
71
3
72
8
73
4
40
0
40
0
40
0
40
0
40
1
40
1
40
1
40
1
41
1
10
63.6712133542865
20
-10.2393105180939
30
0
41
1
10
63.7362669581643
20
-10.3168362928823
30
0
41
1
10
63.811212078903
20
-10.393905930128
30
0
41
1
10
63.89505671389
20
-10.470565175053
30
0
0
SPLINE
5
231
100
AcDbEntity
8
1
62
256
6
ByLayer
370
-1
48
1
60
0
100
AcDbSpline
70
4
71
3
72
8
73
4
40
0
40
0
40
0
40
0
40
1
40
1
40
1
40
1
41
1
10
66.4696364608439
20
-5.23486879167603
30
0
41
1
10
66.5473725817543
20
-5.4583146833964
30
0
41
1
10
66.6241312865125
20
-5.67783386888388
30
0
41
1
10
66.6997923643458
20
-5.89395765533075
30
0
0
SPLINE
5
232
100
AcDbEntity
8
1
62
256
6
ByLayer
370
-1
48
1
60
0
100
AcDbSpline
70
4
71
3
72
8
73
4
40
0
40
0
40
0
40
0
40
1
40
1
40
1
40
1
41
1
10
63.89505671389
20
-10.470565175053
30
0
41
1
10
63.7421569550224
20
-10.2833691116602
30
0
41
1
10
63.5895968530504
20
-10.0959129226137
30
0
41
1
10
63.4374405327868
20
-9.90815112580898
30
0
0
SPLINE
5
233
100
AcDbEntity
8
1
62
256
6
ByLayer
370
-1
48
1
60
0
100
AcDbSpline
70
4
71
3
72
10
73
6
40
0
40
0
40
0
40
0
40
0.74834338406584
40
0.74834338406584
40
1
40
1
40
1
40
1
41
1
10
62.9507001804208
20
3.57760045281748
30
0
41
1
10
62.9211383243958
20
3.56482692210312
30
0
41
1
10
62.8894703178306
20
3.55586346518084
30
0
41
1
10
62.8465638788772
20
3.55105877483166
30
0
41
1
10
62.8355760796664
20
3.55044011356267
30
0
41
1
10
62.8246049782917
20
3.55044011356267
30
0
0
SPLINE
5
234
100
AcDbEntity
8
1
62
256
6
ByLayer
370
-1
48
1
60
0
100
AcDbSpline
70
4
71
3
72
12
73
8
40
0
40
0
40
0
40
0
40
0.397656544300546
40
0.397656544300546
40
0.803093046614344
40
0.803093046614344
40
1
40
1
40
1
40
1
41
1
10
51.5381705748878
20
-8.50874999999999
30
0
41
1
10
51.5787093927857
20
-8.50874999999999
30
0
41
1
10
51.6241013775257
20
-8.50874999999999
30
0
41
1
10
51.725896700656
20
-8.50874999999999
30
0
41
1
10
51.7842173059963
20
-8.50874999999999
30
0
41
1
10
51.8757564227795
20
-8.50874999999999
30
0
41
1
10
51.9070653372947
20
-8.50874999999999
30
0
41
1
10
51.9381705737378
20
-8.50874999999999
30
0
0
SPLINE
5
235
100
AcDbEntity
8
1
62
256
6
ByLayer
370
-1
48
1
60
0
100
AcDbSpline
70
4
71
3
72
12
73
8
40
0
40
0
40
0
40
0
40
0.219572376335939
40
0.219572376335939
40
0.498708299768107
40
0.498708299768107
40
1
40
1
40
1
40
1
41
1
10
51.9381705737391
20
-3.55044011356347
30
0
41
1
10
51.9010012143476
20
-3.55044011356347
30
0
41
1
10
51.863366688687
20
-3.55789454344128
30
0
41
1
10
51.7843154190224
20
-3.58754117354593
30
0
41
1
10
51.7431826683326
20
-3.61322045528269
30
0
41
1
10
51.6405652242549
20
-3.69600787721964
30
0
41
1
10
51.5856724238057
20
-3.76289539791503
30
0
41
1
10
51.5381705748811
20
-3.83288914784595
30
0
0
SPLINE
5
236
100
AcDbEntity
8
1
62
256
6
ByLayer
370
-1
48
1
60
0
100
AcDbSpline
70
4
71
3
72
8
73
4
40
0
40
0
40
0
40
0
40
1
40
1
40
1
40
1
41
1
10
51.1760501502794
20
-8.50874999999999
30
0
41
1
10
51.2987427989896
20
-8.50874999999999
30
0
41
1
10
51.4195471733005
20
-8.50874999999999
30
0
41
1
10
51.5381705748928
20
-8.50874999999999
30
0
0
SPLINE
5
237
100
AcDbEntity
8
1
62
256
6
ByLayer
370
-1
48
1
60
0
100
AcDbSpline
70
4
71
3
72
8
73
4
40
0
40
0
40
0
40
0
40
1
40
1
40
1
40
1
41
1
10
51.1760501505084
20
4.33878745302189
30
0
41
1
10
51.3005690724034
20
4.17323860112975
30
0
41
1
10
51.4215068119776
20
4.00479265120993
30
0
41
1
10
51.5381705748952
20
3.83288914782537
30
0
0
SPLINE
5
238
100
AcDbEntity
8
1
62
256
6
ByLayer
370
-1
48
1
60
0
100
AcDbSpline
70
4
71
3
72
12
73
8
40
0
40
0
40
0
40
0
40
0.475342619062425
40
0.475342619062425
40
0.927454988620465
40
0.927454988620465
40
1
40
1
40
1
40
1
41
1
10
70.4784759135854
20
7.01565385129635
30
0
41
1
10
70.5299020439735
20
7.15125490382385
30
0
41
1
10
70.619528472585
20
7.27729717909475
30
0
41
1
10
70.8453828630143
20
7.48867352134406
30
0
41
1
10
70.9822279380165
20
7.5786339544228
30
0
41
1
10
71.1605306442603
20
7.66305979527451
30
0
41
1
10
71.1858537236716
20
7.674402289043
30
0
41
1
10
71.2116155537733
20
7.68531127189883
30
0
0
SPLINE
5
239
100
AcDbEntity
8
1
62
256
6
ByLayer
370
-1
48
1
60
0
100
AcDbSpline
70
4
71
3
72
8
73
4
40
0
40
0
40
0
40
0
40
1
40
1
40
1
40
1
41
1
10
51.5381705748811
20
-3.83288914784597
30
0
41
1
10
51.4212645141163
20
-4.00514967596263
30
0
41
1
10
51.300326211682
20
-4.17356148630225
30
0
41
1
10
51.1760501505082
20
-4.33878745302187
30
0
0
SPLINE
5
23A
100
AcDbEntity
8
1
62
256
6
ByLayer
370
-1
48
1
60
0
100
AcDbSpline
70
4
71
3
72
12
73
8
40
0
40
0
40
0
40
0
40
0.386304391156014
40
0.386304391156014
40
0.774421074664068
40
0.774421074664068
40
1
40
1
40
1
40
1
41
1
10
63.4374405327868
20
-9.90815112580898
30
0
41
1
10
63.3814485589793
20
-9.8390566998232
30
0
41
1
10
63.3129185536619
20
-9.77787997135442
30
0
41
1
10
63.1601187210147
20
-9.6823915625755
30
0
41
1
10
63.0735337793487
20
-9.6469217152281
30
0
41
1
10
62.9321344797524
20
-9.6166845474512
30
0
41
1
10
62.8782379484057
20
-9.61089545874682
30
0
41
1
10
62.824604978292
20
-9.6107835859824
30
0
0
SPLINE
5
23B
100
AcDbEntity
8
1
62
256
6
ByLayer
370
-1
48
1
60
0
100
AcDbSpline
70
4
71
3
72
8
73
4
40
0
40
0
40
0
40
0
40
1
40
1
40
1
40
1
41
1
10
64.5192495459986
20
-2.98174782846513
30
0
41
1
10
64.5070311154436
20
-2.98461219740003
30
0
41
1
10
64.4972404378935
20
-2.99307831769363
30
0
41
1
10
64.4894508113821
20
-3.00656369452923
30
0
0
SPLINE
5
23C
100
AcDbEntity
8
1
62
256
6
ByLayer
370
-1
48
1
60
0
100
AcDbSpline
70
4
71
3
72
26
73
22
40
0
40
0
40
0
40
0
40
0.0002289345017562
40
0.0002289345017562
40
0.0906839170399363
40
0.0906839170399363
40
0.236823178712521
40
0.236823178712521
40
0.388550656111309
40
0.388550656111309
40
0.472846024187611
40
0.472846024187611
40
0.556900526689856
40
0.556900526689856
40
0.705314316283791
40
0.705314316283791
40
0.864450913522425
40
0.864450913522425
40
0.956577964749149
40
0.956577964749149
40
1
40
1
40
1
40
1
41
1
10
64.4700875621782
20
-3.07070480498211
30
0
41
1
10
64.4700671824414
20
-3.07083364568044
30
0
41
1
10
64.4700468461453
20
-3.07096261111661
30
0
41
1
10
64.4619738762157
20
-3.12231748457921
30
0
41
1
10
64.460334167411
20
-3.19381064094512
30
0
41
1
10
64.4618493177897
20
-3.41270389380679
30
0
41
1
10
64.4688410351943
20
-3.58302389867924
30
0
41
1
10
64.4628406180919
20
-3.95824200181383
30
0
41
1
10
64.4515005102049
20
-4.1720823352349
30
0
41
1
10
64.3572001704438
20
-4.49801013634107
30
0
41
1
10
64.3047212045198
20
-4.61501573579167
30
0
41
1
10
64.1608296254703
20
-4.82405818546826
30
0
41
1
10
64.0690942517327
20
-4.91840059421423
30
0
41
1
10
63.7992311493141
20
-5.15073130934096
30
0
41
1
10
63.6054527333755
20
-5.27665705954493
30
0
41
1
10
63.2308526050742
20
-5.5283281235082
30
0
41
1
10
63.0425963088827
20
-5.65675021994934
30
0
41
1
10
62.814317852932
20
-5.86026428400811
30
0
41
1
10
62.7436657885475
20
-5.93695453007584
30
0
41
1
10
62.6753312789846
20
-6.04891166303255
30
0
41
1
10
62.6585474149585
20
-6.08517700611628
30
0
41
1
10
62.647894862121
20
-6.12119635852727
30
0
0
SPLINE
5
23D
100
AcDbEntity
8
1
62
256
6
ByLayer
370
-1
48
1
60
0
100
AcDbSpline
70
4
71
3
72
10
73
6
40
0
40
0
40
0
40
0
40
0.638091248905443
40
0.638091248905443
40
1
40
1
40
1
40
1
41
1
10
70.8966334467428
20
-9.46784493824796
30
0
41
1
10
70.8685978312876
20
-9.45747565143645
30
0
41
1
10
70.8438312326531
20
-9.44636155247406
30
0
41
1
10
70.8120950107052
20
-9.43097698151084
30
0
41
1
10
70.8018623344524
20
-9.42574592900823
30
0
41
1
10
70.7932170139509
20
-9.42147735450376
30
0
0
SPLINE
5
23E
100
AcDbEntity
8
1
62
256
6
ByLayer
370
-1
48
1
60
0
100
AcDbSpline
70
4
71
3
72
10
73
6
40
0
40
0
40
0
40
0
40
0.722254617258735
40
0.722254617258735
40
1
40
1
40
1
40
1
41
1
10
70.8966334467428
20
-9.46784493824794
30
0
41
1
10
70.9465381236386
20
-9.49216156969666
30
0
41
1
10
71.0015087255541
20
-9.50847419750727
30
0
41
1
10
71.0785901637136
20
-9.51814154586128
30
0
41
1
10
71.1004228019471
20
-9.51948611634597
30
0
41
1
10
71.1222117941136
20
-9.51944940297369
30
0
0
SPLINE
5
23F
100
AcDbEntity
8
1
62
256
6
ByLayer
370
-1
48
1
60
0
100
AcDbSpline
70
4
71
3
72
8
73
4
40
0
40
0
40
0
40
0
40
1
40
1
40
1
40
1
41
1
10
71.1231947459698
20
-9.51957527368697
30
0
41
1
10
71.1228674486193
20
-9.51953342432819
30
0
41
1
10
71.1225397962008
20
-9.51949146791929
30
0
41
1
10
71.1222117941147
20
-9.51944940297366
30
0
0
SPLINE
5
240
100
AcDbEntity
8
1
62
256
6
ByLayer
370
-1
48
1
60
0
100
AcDbSpline
70
4
71
1
72
4
73
2
40
0
40
0
40
1
40
1
41
1.08358774580744
10
67.4996640803816
20
-3.73643226026592
30
0
41
1.08358774580744
10
67.5285611960972
20
-3.87723351878057
30
0
0
SPLINE
5
241
100
AcDbEntity
8
1
62
256
6
ByLayer
370
-1
48
1
60
0
100
AcDbSpline
70
4
71
3
72
12
73
8
40
0
40
0
40
0
40
0
40
0.404644073901368
40
0.404644073901368
40
0.809285947755721
40
0.809285947755721
40
1
40
1
40
1
40
1
41
1
10
70.6288736992669
20
-9.06411232136625
30
0
41
1
10
70.6288736992669
20
-9.1181595628662
30
0
41
1
10
70.6385338946952
20
-9.17291805664763
30
0
41
1
10
70.6755734564293
20
-9.27478794222506
30
0
41
1
10
70.7034633761762
20
-9.32330408458594
30
0
41
1
10
70.7550688745125
20
-9.38543984747389
30
0
41
1
10
70.7734540015143
20
-9.4042569846192
30
0
41
1
10
70.7932170139529
20
-9.42147735450601
30
0
0
SPLINE
5
242
100
AcDbEntity
8
1
62
256
6
ByLayer
370
-1
48
1
60
0
100
AcDbSpline
70
4
71
3
72
14
73
10
40
0
40
0
40
0
40
0
40
0.249606055014945
40
0.249606055014945
40
0.499158243446913
40
0.499158243446913
40
0.746144217743565
40
0.746144217743565
40
1
40
1
40
1
40
1
41
1
10
72.2988678216052
20
-2.21018087520321
30
0
41
1
10
72.2832127450052
20
-2.21921685896078
30
0
41
1
10
72.2675950846987
20
-2.2286483294173
30
0
41
1
10
72.2370879542434
20
-2.24789006692544
30
0
41
1
10
72.2220922286485
20
-2.25776704023244
30
0
41
1
10
72.1933625089835
20
-2.27752639807554
30
0
41
1
10
72.179521697856
20
-2.28747326022329
30
0
41
1
10
72.1529184690107
20
-2.30748388301905
30
0
41
1
10
72.1401040876088
20
-2.31761288904039
30
0
41
1
10
72.1282294163911
20
-2.32751798252679
30
0
0
SPLINE
5
243
100
AcDbEntity
8
1
62
256
6
ByLayer
370
-1
48
1
60
0
100
AcDbSpline
70
4
71
3
72
12
73
8
40
0
40
0
40
0
40
0
40
0.47437669837111
40
0.47437669837111
40
0.706219783413731
40
0.706219783413731
40
1
40
1
40
1
40
1
41
1
10
72.5415213413959
20
-9.7760408293623
30
0
41
1
10
72.5640272513861
20
-9.78345335404396
30
0
41
1
10
72.5900562996099
20
-9.79392927263916
30
0
41
1
10
72.6307315433508
20
-9.8126399652501
30
0
41
1
10
72.6446083744865
20
-9.81938029896463
30
0
41
1
10
72.6763681539067
20
-9.83556932989148
30
0
41
1
10
72.6944977191442
20
-9.84534503755987
30
0
41
1
10
72.7124852161581
20
-9.85555080831978
30
0
0
SPLINE
5
244
100
AcDbEntity
8
1
62
256
6
ByLayer
370
-1
48
1
60
0
100
AcDbSpline
70
4
71
3
72
10
73
6
40
0
40
0
40
0
40
0
40
0.709495622816842
40
0.709495622816842
40
1
40
1
40
1
40
1
41
1
10
69.8106009035155
20
-3.66653043480505
30
0
41
1
10
69.7898025525954
20
-3.6809573743424
30
0
41
1
10
69.7710800375326
20
-3.69754360749167
30
0
41
1
10
69.749818683946
20
-3.72235889838217
30
0
41
1
10
69.7441160707407
20
-3.72988394758954
30
0
41
1
10
69.7389803454861
20
-3.73762243509384
30
0
0
SPLINE
5
245
100
AcDbEntity
8
1
62
256
6
ByLayer
370
-1
48
1
60
0
100
AcDbSpline
70
4
71
3
72
14
73
10
40
0
40
0
40
0
40
0
40
0.249606055014983
40
0.249606055014983
40
0.499158243446868
40
0.499158243446868
40
0.746144217743593
40
0.746144217743593
40
1
40
1
40
1
40
1
41
1
10
79.9288185797055
20
-5.34555048386051
30
0
41
1
10
79.9288334068592
20
-5.32829810190654
30
0
41
1
10
79.9288744089185
20
-5.31146006558768
30
0
41
1
10
79.9290059405457
20
-5.27930133718368
30
0
41
1
10
79.9290969086179
20
-5.26386835793897
30
0
41
1
10
79.9293237552176
20
-5.23504919126265
30
0
41
1
10
79.9294599123583
20
-5.22154781408824
30
0
41
1
10
79.9297776667996
20
-5.19639487588967
30
0
41
1
10
79.929961528645
20
-5.18471758511021
30
0
41
1
10
79.9301645144408
20
-5.17436078870267
30
0
0
SPLINE
5
246
100
AcDbEntity
8
1
62
256
6
ByLayer
370
-1
48
1
60
0
100
AcDbSpline
70
4
71
3
72
12
73
8
40
0
40
0
40
0
40
0
40
0.47437669837107
40
0.47437669837107
40
0.706219783413751
40
0.706219783413751
40
1
40
1
40
1
40
1
41
1
10
73.0316267640547
20
-1.80608433076614
30
0
41
1
10
73.0084393712354
20
-1.8136962503396
30
0
41
1
10
72.9818793684277
20
-1.82440165525963
30
0
41
1
10
72.9406906963517
20
-1.84346958286204
30
0
41
1
10
72.9266869500108
20
-1.85033158089934
30
0
41
1
10
72.8947397580637
20
-1.86679861415661
30
0
41
1
10
72.8765754479039
20
-1.87673269981286
30
0
41
1
10
72.858621958918
20
-1.88709530863383
30
0
0
SPLINE
5
247
100
AcDbEntity
8
1
62
256
6
ByLayer
370
-1
48
1
60
0
100
AcDbSpline
70
4
71
3
72
10
73
6
40
0
40
0
40
0
40
0
40
0.709495622816731
40
0.709495622816731
40
1
40
1
40
1
40
1
41
1
10
79.9312058988419
20
-2.61963082946679
30
0
41
1
10
79.9287534331305
20
-2.59507280891162
30
0
41
1
10
79.9221309410939
20
-2.5694576979036
30
0
41
1
10
79.9083043093756
20
-2.53603195679162
30
0
41
1
10
79.9036778280507
20
-2.52643430143974
30
0
41
1
10
79.8985421027961
20
-2.51715830363739
30
0
0
SPLINE
5
248
100
AcDbEntity
8
1
62
256
6
ByLayer
370
-1
48
1
60
0
100
AcDbSpline
70
4
71
3
72
14
73
10
40
0
40
0
40
0
40
0
40
0.249606055015
40
0.249606055015
40
0.499158243446936
40
0.499158243446936
40
0.746144217743615
40
0.746144217743615
40
1
40
1
40
1
40
1
41
1
10
73.2732996562534
20
-10.1737464755704
30
0
41
1
10
73.2889843871608
20
-10.1826456997342
30
0
41
1
10
73.304684051586
20
-10.1919405087066
30
0
41
1
10
73.3354542452958
20
-10.2109148462967
30
0
41
1
10
73.3506319070349
20
-10.220660149995
30
0
41
1
10
73.3798153198994
20
-10.240166788466
30
0
41
1
10
73.3939284453082
20
-10.2499916661694
30
0
41
1
10
73.4211671830362
20
-10.2697673352096
30
0
41
1
10
73.434349288129
20
-10.279782898641
30
0
41
1
10
73.4466299309381
20
-10.2895825839837
30
0
0
SPLINE
5
249
100
AcDbEntity
8
1
62
256
6
ByLayer
370
-1
48
1
60
0
100
AcDbSpline
70
4
71
3
72
12
73
8
40
0
40
0
40
0
40
0
40
0.474376698371047
40
0.474376698371047
40
0.706219783413744
40
0.706219783413744
40
1
40
1
40
1
40
1
41
1
10
79.9293088935015
20
-6.16993280002782
30
0
41
1
10
79.928968152087
20
-6.13921639692291
30
0
41
1
10
79.9287026747951
20
-6.10580920780072
30
0
41
1
10
79.9284459606277
20
-6.05620828486656
30
0
41
1
10
79.9283825030249
20
-6.03968357841353
30
0
41
1
10
79.9282887967614
20
-6.00271211619565
30
0
41
1
10
79.9282714243002
20
-5.98220227939606
30
0
41
1
10
79.9282884283142
20
-5.96241697541413
30
0
0
SPLINE
5
24A
100
AcDbEntity
8
1
62
256
6
ByLayer
370
-1
48
1
60
0
100
AcDbSpline
70
4
71
3
72
10
73
6
40
0
40
0
40
0
40
0
40
0.709495622816838
40
0.709495622816838
40
1
40
1
40
1
40
1
41
1
10
75.7698038349676
20
-11.6064123582383
30
0
41
1
10
75.7930546515992
20
-11.6165434392561
30
0
41
1
10
75.818166127392
20
-11.6219874249782
30
0
41
1
10
75.8528031113537
20
-11.6236746442518
30
0
41
1
10
75.8629839697443
20
-11.6234717072204
30
0
41
1
10
75.8731008469153
20
-11.6226363932798
30
0
0
SPLINE
5
24B
100
AcDbEntity
8
1
62
256
6
ByLayer
370
-1
48
1
60
0
100
AcDbSpline
70
4
71
2
72
6
73
3
40
0
40
0
40
0
40
1
40
1
40
1
41
0.500001283674893
10
76.7878399044045
20
-11.5713690651681
30
0
41
0.499998716325107
10
76.7884373319051
20
-11.57221291814
30
0
41
0.500001283674893
10
76.7890339794569
20
-11.573057266447
30
0
0
SPLINE
5
24C
100
AcDbEntity
8
1
62
256
6
ByLayer
370
-1
48
1
60
0
100
AcDbSpline
70
4
71
3
72
12
73
8
40
0
40
0
40
0
40
0
40
0.347623173836825
40
0.347623173836825
40
0.696503371294804
40
0.696503371294804
40
1
40
1
40
1
40
1
41
1
10
76.6826194007186
20
-11.5202413776193
30
0
41
1
10
76.6966678476776
20
-11.5196618326365
30
0
41
1
10
76.7109381549005
20
-11.5213832799839
30
0
41
1
10
76.7377731599582
20
-11.5294851155643
30
0
41
1
10
76.7507179949087
20
-11.5360234807312
30
0
41
1
10
76.7718344427971
20
-11.5520379631346
30
0
41
1
10
76.7806519843863
20
-11.5612162890357
30
0
41
1
10
76.7878399044045
20
-11.5713690651681
30
0
0
SPLINE
5
24D
100
AcDbEntity
8
1
62
256
6
ByLayer
370
-1
48
1
60
0
100
AcDbSpline
70
4
71
3
72
24
73
20
40
0
40
0
40
0
40
0
40
0.0154450745970494
40
0.0154450745970494
40
0.0417985895668606
40
0.0417985895668606
40
0.0483972597877282
40
0.0483972597877282
40
0.102103855500593
40
0.102103855500593
40
0.185330321122057
40
0.185330321122057
40
0.354377449491638
40
0.354377449491638
40
0.535348727399442
40
0.535348727399442
40
0.666091500997331
40
0.666091500997331
40
1
40
1
40
1
40
1
41
1
10
73.6595110772648
20
-8.96999146132544
30
0
41
1
10
73.6572652305627
20
-8.96768062555881
30
0
41
1
10
73.6546569782996
20
-8.96565420371672
30
0
41
1
10
73.6470993833281
20
-8.96120705066994
30
0
41
1
10
73.6416634817384
20
-8.95940553035325
30
0
41
1
10
73.6348158199375
20
-8.95811679047586
30
0
41
1
10
73.6334200583771
20
-8.95790226107201
30
0
41
1
10
73.6208019908416
20
-8.95633914435379
30
0
41
1
10
73.609271954699
20
-8.95742137134454
30
0
41
1
10
73.5809193985498
20
-8.96240008883808
30
0
41
1
10
73.5641174680789
20
-8.96767886615061
30
0
41
1
10
73.5145899095937
20
-8.98595284739127
30
0
41
1
10
73.4828098480983
20
-9.00158776380195
30
0
41
1
10
73.4185693836333
20
-9.0359831363987
30
0
41
1
10
73.386161074521
20
-9.05517730855439
30
0
41
1
10
73.3312138517763
20
-9.08942115384272
30
0
41
1
10
73.3084275358792
20
-9.10417437546405
30
0
41
1
10
73.2281877602042
20
-9.15756037674595
30
0
41
1
10
73.1717984242114
20
-9.1976609144383
30
0
41
1
10
73.1161905812906
20
-9.23867037548257
30
0
0
SPLINE
5
24E
100
AcDbEntity
8
1
62
256
6
ByLayer
370
-1
48
1
60
0
100
AcDbSpline
70
4
71
3
72
18
73
14
40
0
40
0
40
0
40
0
40
0.439677344605699
40
0.439677344605699
40
0.81984013851528
40
0.81984013851528
40
0.920758376963033
40
0.920758376963033
40
0.968467673881572
40
0.968467673881572
40
0.990240013274133
40
0.990240013274133
40
1
40
1
40
1
40
1
41
1
10
73.8177136101133
20
-9.94258401287118
30
0
41
1
10
73.8734738421378
20
-9.8697113628993
30
0
41
1
10
73.9276718394034
20
-9.79561618111961
30
0
41
1
10
74.0211325465436
20
-9.65308589313284
30
0
41
1
10
74.0637369283883
20
-9.58539595150421
30
0
41
1
10
74.0988208119491
20
-9.49250647093217
30
0
41
1
10
74.1052269345296
20
-9.47225360576857
30
0
41
1
10
74.108204674419
20
-9.44172886554929
30
0
41
1
10
74.1081525223055
20
-9.43155077745692
30
0
41
1
10
74.1042574580355
20
-9.41762425672721
30
0
41
1
10
74.1024075854197
20
-9.4133062250155
30
0
41
1
10
74.0986453655449
20
-9.4077476776194
30
0
41
1
10
74.097314059614
20
-9.40610207042883
30
0
41
1
10
74.0958438616195
20
-9.40458932866133
30
0
0
SPLINE
5
24F
100
AcDbEntity
8
1
62
256
6
ByLayer
370
-1
48
1
60
0
100
AcDbSpline
70
4
71
3
72
16
73
12
40
0
40
0
40
0
40
0
40
0.0426292751499061
40
0.0426292751499061
40
0.09964361662876
40
0.09964361662876
40
0.207156078099356
40
0.207156078099356
40
0.580806890299265
40
0.580806890299265
40
1
40
1
40
1
40
1
41
1
10
74.114616422264
20
-9.38761991134041
30
0
41
1
10
74.1215436649207
20
-9.39451961036156
30
0
41
1
10
74.1271204047605
20
-9.40283802485737
30
0
41
1
10
74.136554318958
20
-9.42338084399341
30
0
41
1
10
74.1394899469837
20
-9.43626449551917
30
0
41
1
10
74.1433875132128
20
-9.47314426765737
30
0
41
1
10
74.1407894829927
20
-9.49775258045415
30
0
41
1
10
74.1207421192701
20
-9.60374877502559
30
0
41
1
10
74.0843645107256
20
-9.68173255471453
30
0
41
1
10
74.0025935024792
20
-9.84098259100188
30
0
41
1
10
73.9531583671108
20
-9.92244700157747
30
0
41
1
10
73.9012685222777
20
-10.0021828093749
30
0
0
SPLINE
5
250
100
AcDbEntity
8
1
62
256
6
ByLayer
370
-1
48
1
60
0
100
AcDbSpline
70
4
71
3
72
20
73
16
40
0
40
0
40
0
40
0
40
0.511365204367417
40
0.511365204367417
40
0.617167309555458
40
0.617167309555458
40
0.785488434327098
40
0.785488434327098
40
0.873398812153871
40
0.873398812153871
40
0.935684402254202
40
0.935684402254202
40
0.978722765374119
40
0.978722765374119
40
1
40
1
40
1
40
1
41
1
10
73.0623215128036
20
-9.17033867826868
30
0
41
1
10
73.1588419751794
20
-9.10687692472072
30
0
41
1
10
73.2580997158312
20
-9.04632168525933
30
0
41
1
10
73.3846693756342
20
-8.9864233537817
30
0
41
1
10
73.4067019160876
20
-8.97664795595509
30
0
41
1
10
73.4645529821068
20
-8.95340940479974
30
0
41
1
10
73.5010680851527
20
-8.94083114402818
30
0
41
1
10
73.5582470269165
20
-8.92893923059233
30
0
41
1
10
73.5783508642
20
-8.92614499661713
30
0
41
1
10
73.6126045468015
20
-8.92615423194562
30
0
41
1
10
73.627023505916
20
-8.92760263129247
30
0
41
1
10
73.6499808064596
20
-8.93429994896161
30
0
41
1
10
73.6591200837171
20
-8.93835158479203
30
0
41
1
10
73.6711233336504
20
-8.94653598281045
30
0
41
1
10
73.6748775092763
20
-8.94962945859058
30
0
41
1
10
73.6782836379094
20
-8.95302204400448
30
0
0
SPLINE
5
251
100
AcDbEntity
8
1
62
256
6
ByLayer
370
-1
48
1
60
0
100
AcDbSpline
70
4
71
2
72
6
73
3
40
0
40
0
40
0
40
1
40
1
40
1
41
0.500001284887857
10
69.2254260720382
20
-4.38548666000087
30
0
41
0.499998715112143
10
69.2244232935623
20
-4.38564723297073
30
0
41
0.500001284887857
10
69.2234221311148
20
-4.38580932434728
30
0
0
SPLINE
5
252
100
AcDbEntity
8
1
62
256
6
ByLayer
370
-1
48
1
60
0
100
AcDbSpline
70
4
71
3
72
12
73
8
40
0
40
0
40
0
40
0
40
0.347623173836782
40
0.347623173836782
40
0.696503371294914
40
0.696503371294914
40
1
40
1
40
1
40
1
41
1
10
69.324563489464
20
-4.32322667964328
30
0
41
1
10
69.3174886405837
20
-4.3345209735852
30
0
41
1
10
69.3082734829347
20
-4.34490898508074
30
0
41
1
10
69.2868915215767
20
-4.36247643812581
30
0
41
1
10
69.2743906795926
20
-4.36989429846111
30
0
41
1
10
69.249753341629
20
-4.38013819473605
30
0
41
1
10
69.2374909526799
20
-4.38355473409388
30
0
41
1
10
69.2254260720381
20
-4.38548666000085
30
0
0
SPLINE
5
253
100
AcDbEntity
8
1
62
256
6
ByLayer
370
-1
48
1
60
0
100
AcDbSpline
70
4
71
3
72
18
73
14
40
0
40
0
40
0
40
0
40
0.439677344605712
40
0.439677344605712
40
0.819840138515299
40
0.819840138515299
40
0.920758376963043
40
0.920758376963043
40
0.968467673881603
40
0.968467673881603
40
0.990240013274168
40
0.990240013274168
40
1
40
1
40
1
40
1
41
1
10
72.2764270749263
20
-2.84510125318778
30
0
41
1
10
72.3150398882892
20
-2.92991152887959
30
0
41
1
10
72.3555300286196
20
-3.01401277763065
30
0
41
1
10
72.4387406253859
20
-3.16659021419645
30
0
41
1
10
72.4791358125622
20
-3.23753117204478
30
0
41
1
10
72.5461105968758
20
-3.31497099891359
30
0
41
1
10
72.5613269517235
20
-3.33079661849666
30
0
41
1
10
72.5875573198841
20
-3.34896300547442
30
0
41
1
10
72.596819430522
20
-3.35413053449557
30
0
41
1
10
72.6113803253504
20
-3.35794536340029
30
0
41
1
10
72.6162120796345
20
-3.35858137920056
30
0
41
1
10
72.6231136453418
20
-3.35822427589116
30
0
41
1
10
72.6252642265428
20
-3.35793335293002
30
0
41
1
10
72.6273628002793
20
-3.35745612326269
30
0
0
SPLINE
5
254
100
AcDbEntity
8
1
62
256
6
ByLayer
370
-1
48
1
60
0
100
AcDbSpline
70
4
71
3
72
16
73
12
40
0
40
0
40
0
40
0
40
0.0426292751499035
40
0.0426292751499035
40
0.099643616628748
40
0.099643616628748
40
0.207156078099369
40
0.207156078099369
40
0.580806890299256
40
0.580806890299256
40
1
40
1
40
1
40
1
41
1
10
72.6337017156807
20
-3.38243069061036
30
0
41
1
10
72.6240257739078
20
-3.38480352521367
30
0
41
1
10
72.6137585618197
20
-3.38534265069913
30
0
41
1
10
72.5905891298297
20
-3.38304450804688
30
0
41
1
10
72.5775603074865
20
-3.37910918154279
30
0
41
1
10
72.5425354771614
20
-3.36407447268735
30
0
41
1
10
72.5217845810963
20
-3.34969293343121
30
0
41
1
10
72.4368666025425
20
-3.28033680933226
30
0
41
1
10
72.3852893036275
20
-3.21121457489346
30
0
41
1
10
72.2837353000847
20
-3.06379862616569
30
0
41
1
10
72.2356176393653
20
-2.98202508274909
30
0
41
1
10
72.1902865385463
20
-2.89905534038689
30
0
0
SPLINE
5
255
100
AcDbEntity
8
1
62
256
6
ByLayer
370
-1
48
1
60
0
100
AcDbSpline
70
4
71
2
72
6
73
3
40
0
40
0
40
0
40
1
40
1
40
1
41
0.500001284471514
10
79.4779866932225
20
-1.62320682869437
30
0
41
0.499998715528486
10
79.478402802599
20
-1.62236755279568
30
0
41
0.500001284471514
10
79.4788184035136
20
-1.62153129237077
30
0
0
SPLINE
5
256
100
AcDbEntity
8
1
62
256
6
ByLayer
370
-1
48
1
60
0
100
AcDbSpline
70
4
71
3
72
12
73
8
40
0
40
0
40
0
40
0
40
0.347623173836916
40
0.347623173836916
40
0.696503371294879
40
0.696503371294879
40
1
40
1
40
1
40
1
41
1
10
79.4841252467711
20
-1.73744596379478
30
0
41
1
10
79.4770503978908
20
-1.72517693413732
30
0
41
1
10
79.4719007205695
20
-1.71161639884747
30
0
41
1
10
79.4663304274205
20
-1.68414723749956
30
0
41
1
10
79.465863542846
20
-1.66983960752353
30
0
41
1
10
79.4694551123435
20
-1.64466621444794
30
0
41
1
10
79.4729802934248
20
-1.6333045359944
30
0
41
1
10
79.4779866932225
20
-1.62320682869438
30
0
0
SPLINE
5
257
100
AcDbEntity
8
1
62
256
6
ByLayer
370
-1
48
1
60
0
100
AcDbSpline
70
4
71
3
72
24
73
20
40
0
40
0
40
0
40
0
40
0.0154450745970415
40
0.0154450745970415
40
0.0417985895668443
40
0.0417985895668443
40
0.0483972597876848
40
0.0483972597876848
40
0.102103855500448
40
0.102103855500448
40
0.185330321121825
40
0.185330321121825
40
0.354377449491156
40
0.354377449491156
40
0.535348727398708
40
0.535348727398708
40
0.66609150100131
40
0.66609150100131
40
1
40
1
40
1
40
1
41
1
10
73.2368304953329
20
-3.20799614609885
30
0
41
1
10
73.2400362369561
20
-3.20726713906814
30
0
41
1
10
73.2431627834357
20
-3.20608389515291
30
0
41
1
10
73.2509294018768
20
-3.20192584645193
30
0
41
1
10
73.2552477329253
20
-3.19821962341345
30
0
41
1
10
73.2597976113132
20
-3.19304861734867
30
0
41
1
10
73.2606813130395
20
-3.1919699469062
30
0
41
1
10
73.268328725774
20
-3.18202575184438
30
0
41
1
10
73.2730382889657
20
-3.17165320469786
30
0
41
1
10
73.2825157425412
20
-3.14495966966189
30
0
41
1
10
73.2860188834566
20
-3.12794809945754
30
0
41
1
10
73.2938818284723
20
-3.07641176699968
30
0
41
1
10
73.2953785333895
20
-3.041339226503
30
0
41
1
10
73.2958694021075
20
-2.96901134780916
30
0
41
1
10
73.2944441131766
20
-2.93157805677888
30
0
41
1
10
73.2904825401377
20
-2.86723784073172
30
0
41
1
10
73.2883378205896
20
-2.84027264802467
30
0
41
1
10
73.2794824608917
20
-2.74458068697925
30
0
41
1
10
73.2709122639889
20
-2.67600511859433
30
0
41
1
10
73.2611292740382
20
-2.60762641257898
30
0
0
SPLINE
5
258
100
AcDbEntity
8
1
62
256
6
ByLayer
370
-1
48
1
60
0
100
AcDbSpline
70
4
71
3
72
24
73
20
40
0
40
0
40
0
40
0
40
0.0154450745970599
40
0.0154450745970599
40
0.0417985895668798
40
0.0417985895668798
40
0.0483972597877239
40
0.0483972597877239
40
0.102103855500571
40
0.102103855500571
40
0.185330321122077
40
0.185330321122077
40
0.354377449491597
40
0.354377449491597
40
0.535348727399406
40
0.535348727399406
40
0.666091500997295
40
0.666091500997295
40
1
40
1
40
1
40
1
41
1
10
78.6151538154919
20
-5.71281684724212
30
0
41
1
10
78.6141944096306
20
-5.71586419749775
30
0
41
1
10
78.6136752576173
20
-5.71906069538969
30
0
41
1
10
78.6134606556868
20
-5.72758026330513
30
0
41
1
10
78.614571180002
20
-5.73297984146035
30
0
41
1
10
78.6168579523848
20
-5.73927055929431
30
0
41
1
10
78.6173676630204
20
-5.74052769706606
30
0
41
1
10
78.6223162607559
20
-5.75169641526935
30
0
41
1
10
78.6291111068649
20
-5.76059334292631
30
0
41
1
10
78.6479180982349
20
-5.7812625990754
30
0
41
1
10
78.6611714111494
20
-5.79229728919177
30
0
41
1
10
78.7026959197032
20
-5.82340891801331
30
0
41
1
10
78.7328806679834
20
-5.8413328259436
30
0
41
1
10
78.7964245003498
20
-5.87610669975433
30
0
41
1
10
78.8301500789516
20
-5.89268763390072
30
0
41
1
10
78.888871721814
20
-5.91991105779431
30
0
41
1
10
78.9137238482398
20
-5.9309117127504
30
0
41
1
10
79.0025376834062
20
-5.96889948954507
30
0
41
1
10
79.0672933387235
20
-5.99424483621101
30
0
41
1
10
79.1324794711794
20
-6.01847176625355
30
0
0
SPLINE
5
259
100
AcDbEntity
8
1
62
256
6
ByLayer
370
-1
48
1
60
0
100
AcDbSpline
70
4
71
3
72
18
73
14
40
0
40
0
40
0
40
0
40
0.439677344605749
40
0.439677344605749
40
0.819840138515318
40
0.819840138515318
40
0.920758376963038
40
0.920758376963038
40
0.968467673881577
40
0.968467673881577
40
0.990240013274147
40
0.990240013274147
40
1
40
1
40
1
40
1
41
1
10
79.4156243699837
20
-5.07655719358604
30
0
41
1
10
79.3215234179367
20
-5.06879641802925
30
0
41
1
10
79.2271062263632
20
-5.062949588978
30
0
41
1
10
79.0509332270556
20
-5.06055181411315
30
0
41
1
10
78.9681662521438
20
-5.06087130330283
30
0
41
1
10
78.866379454369
20
-5.0804943802452
30
0
41
1
10
78.8448137405958
20
-5.08579299328355
30
0
41
1
10
78.8156777661562
20
-5.09925865507233
30
0
41
1
10
78.8064897602854
20
-5.10460620491781
30
0
41
1
10
78.795846279341
20
-5.11506098117314
30
0
41
1
10
78.7928700360823
20
-5.11882955117795
30
0
41
1
10
78.7897351689592
20
-5.12481395365086
30
0
41
1
10
78.7889167817797
20
-5.12676411670225
30
0
41
1
10
78.7882887261908
20
-5.12875900274238
30
0
0
SPLINE
5
25A
100
AcDbEntity
8
1
62
256
6
ByLayer
370
-1
48
1
60
0
100
AcDbSpline
70
4
71
3
72
16
73
12
40
0
40
0
40
0
40
0
40
0.0426292751498981
40
0.0426292751498981
40
0.09964361662877
40
0.09964361662877
40
0.207156078099316
40
0.207156078099316
40
0.580806890299215
40
0.580806890299215
40
1
40
1
40
1
40
1
41
1
10
78.7632924993804
20
-5.12252302055938
30
0
41
1
10
78.7660411984967
20
-5.1132504869349
30
0
41
1
10
78.7707316707447
20
-5.10439294695365
30
0
41
1
10
78.7844671885374
20
-5.08614827046983
30
0
41
1
10
78.7945603828549
20
-5.0771999454482
30
0
41
1
10
78.8256876469509
20
-5.05535488216543
30
0
41
1
10
78.8490365732361
20
-5.0451281086248
30
0
41
1
10
78.9540019155125
20
-5.00848803815231
30
0
41
1
10
79.0419568229719
20
-4.99962649290217
30
0
41
1
10
79.2252818347611
20
-4.98779240534259
30
0
41
1
10
79.3228346308489
20
-4.9881015381836
30
0
41
1
10
79.4200555765012
20
-4.99133547274835
30
0
0
SPLINE
5
25B
100
AcDbEntity
8
1
62
256
6
ByLayer
370
-1
48
1
60
0
100
AcDbSpline
70
4
71
3
72
20
73
16
40
0
40
0
40
0
40
0
40
0.511365204367481
40
0.511365204367481
40
0.617167309555452
40
0.617167309555452
40
0.785488434327109
40
0.785488434327109
40
0.873398812153864
40
0.873398812153864
40
0.935684402254219
40
0.935684402254219
40
0.97872276537413
40
0.97872276537413
40
1
40
1
40
1
40
1
41
1
10
79.0905421515043
20
-6.11241853568671
30
0
41
1
10
78.9857693315754
20
-6.06364360448157
30
0
41
1
10
78.8822441193674
20
-6.01111389620365
30
0
41
1
10
78.7657586726924
20
-5.93540258519116
30
0
41
1
10
78.7460654548722
20
-5.92189494953234
30
0
41
1
10
78.6965340746469
20
-5.88520390640363
30
0
41
1
10
78.6671436086564
20
-5.86099179792731
30
0
41
1
10
78.6281173327077
20
-5.81914538342244
30
0
41
1
10
78.6156391724223
20
-5.80373351016792
30
0
41
1
10
78.5986546067453
20
-5.77507043527856
30
0
41
1
10
78.5927999473585
20
-5.76227691483942
30
0
41
1
10
78.5874149009798
20
-5.73969477936197
30
0
41
1
10
78.5865130952956
20
-5.73000671488549
30
0
41
1
10
78.5878953134845
20
-5.71583995318161
30
0
41
1
10
78.5888060519692
20
-5.71114017441855
30
0
41
1
10
78.5901575886813
20
-5.70658086505912
30
0
0
SPLINE
5
25C
100
AcDbEntity
8
1
62
256
6
ByLayer
370
-1
48
1
60
0
100
AcDbSpline
70
4
71
3
72
20
73
16
40
0
40
0
40
0
40
0
40
0.511365204366866
40
0.511365204366866
40
0.617167309555266
40
0.617167309555266
40
0.785488434326997
40
0.785488434326997
40
0.873398812153788
40
0.873398812153788
40
0.935684402254182
40
0.935684402254182
40
0.978722765374109
40
0.978722765374109
40
1
40
1
40
1
40
1
41
1
10
73.3587469730172
20
-2.60981640855476
30
0
41
1
10
73.3669993305703
20
-2.72205309330784
30
0
41
1
10
73.3712668021278
20
-2.83513804104709
30
0
41
1
10
73.3611825890001
20
-2.97074768353727
30
0
41
1
10
73.3588432663653
20
-2.99403071702264
30
0
41
1
10
73.3505235805715
20
-3.05396031130678
30
0
41
1
10
73.343398943516
20
-3.09075068055466
30
0
41
1
10
73.3252462777009
20
-3.14448900849538
30
0
41
1
10
73.3176206007028
20
-3.16269511572511
30
0
41
1
10
73.3003514837783
20
-3.19134895528597
30
0
41
1
10
73.2917871840506
20
-3.20269407637829
30
0
41
1
10
73.2742149298857
20
-3.21857889418658
30
0
41
1
10
73.2659774583123
20
-3.22421532283261
30
0
41
1
10
73.2525919901901
20
-3.23019768651813
30
0
41
1
10
73.2479270760795
20
-3.23180398950103
30
0
41
1
10
73.2431694107344
20
-3.23297071344655
30
0
0
SPLINE
5
25D
100
AcDbEntity
8
1
62
256
6
ByLayer
370
-1
48
1
60
0
100
AcDbSpline
70
4
71
3
72
8
73
4
40
0
40
0
40
0
40
0
40
1
40
1
40
1
40
1
41
1
10
80.020580085623
20
1.10461413107004
30
0
41
1
10
80.0247697997178
20
1.10083228633763
30
0
41
1
10
80.0289596056796
20
1.09705047117106
30
0
41
1
10
80.0331494991758
20
1.09326868417867
30
0
0
SPLINE
5
25E
100
AcDbEntity
8
1
62
256
6
ByLayer
370
-1
48
1
60
0
100
AcDbSpline
70
4
71
3
72
16
73
12
40
0
40
0
40
0
40
0
40
0.0023448809043995
40
0.0023448809043995
40
0.244769775799325
40
0.244769775799325
40
0.487038716339501
40
0.487038716339501
40
0.973677497833819
40
0.973677497833819
40
1
40
1
40
1
40
1
41
1
10
80.0614810547482
20
3.11381877530559
30
0
41
1
10
80.0615060050832
20
3.11382993140202
30
0
41
1
10
80.0615309254937
20
3.11384101164018
30
0
41
1
10
80.064130383555
20
3.11499027683911
30
0
41
1
10
80.0663939175981
20
3.11532182835302
30
0
41
1
10
80.070419821861
20
3.11462335582385
30
0
41
1
10
80.0721865200235
20
3.11359223781804
30
0
41
1
10
80.0768661470128
20
3.10869150149003
30
0
41
1
10
80.0791756946847
20
3.10301061723121
30
0
41
1
10
80.0808557739443
20
3.09481529440186
30
0
41
1
10
80.0809400619355
20
3.09438741278481
30
0
41
1
10
80.0810222070449
20
3.09395326142661
30
0
0
SPLINE
5
25F
100
AcDbEntity
8
1
62
256
6
ByLayer
370
-1
48
1
60
0
100
AcDbSpline
70
4
71
3
72
22
73
18
40
0
40
0
40
0
40
0
40
0.208266363443177
40
0.208266363443177
40
0.317899168105945
40
0.317899168105945
40
0.427584739862358
40
0.427584739862358
40
0.53737725373355
40
0.53737725373355
40
0.64740222873158
40
0.64740222873158
40
0.811583680502663
40
0.811583680502663
40
0.90663602213185
40
0.90663602213185
40
1
40
1
40
1
40
1
41
1
10
80.0810222070449
20
3.09395326142661
30
0
41
1
10
80.0824545852159
20
3.08638289073534
30
0
41
1
10
80.0832530999981
20
3.07689868616626
30
0
41
1
10
80.0833327326731
20
3.05949287472646
30
0
41
1
10
80.0831500633947
20
3.05293338446964
30
0
41
1
10
80.0822799531899
20
3.03866901284053
30
0
41
1
10
80.0815920683562
20
3.03094836822896
30
0
41
1
10
80.079571821067
20
3.01424933734125
30
0
41
1
10
80.0782369158067
20
3.00524346899775
30
0
41
1
10
80.0746960969101
20
2.9858184466494
30
0
41
1
10
80.0724805049699
20
2.97534317214752
30
0
41
1
10
80.0654805548146
20
2.94750037550557
30
0
41
1
10
80.0598377966859
20
2.9287060321858
30
0
41
1
10
80.0476688257102
20
2.89720195014334
30
0
41
1
10
80.0423698654825
20
2.88497569219121
30
0
41
1
10
80.0306553776919
20
2.86135810803967
30
0
41
1
10
80.0241055088808
20
2.84967348050134
30
0
41
1
10
80.0173828003316
20
2.8390769991494
30
0
0
SPLINE
5
260
100
AcDbEntity
8
1
62
256
6
ByLayer
370
-1
48
1
60
0
100
AcDbSpline
70
4
71
3
72
8
73
4
40
0
40
0
40
0
40
0
40
1
40
1
40
1
40
1
41
1
10
80.0267351440364
20
2.36113987314525
30
0
41
1
10
80.0309803002594
20
2.36414570836186
30
0
41
1
10
80.0352255479069
20
2.36715151897312
30
0
41
1
10
80.0394708826671
20
2.37015730613723
30
0
0
SPLINE
5
261
100
AcDbEntity
8
1
62
256
6
ByLayer
370
-1
48
1
60
0
100
AcDbSpline
70
4
71
3
72
10
73
6
40
0
40
0
40
0
40
0
40
0.425586067181084
40
0.425586067181084
40
1
40
1
40
1
40
1
41
1
10
80.032411353721
20
1.73262694463992
30
0
41
1
10
80.0245990655104
20
1.73188219152868
30
0
41
1
10
80.0167910806478
20
1.72866874554055
30
0
41
1
10
79.9995423170444
20
1.71728917325714
30
0
41
1
10
79.9902142079951
20
1.70773101447213
30
0
41
1
10
79.981728316024
20
1.69649311806376
30
0
0
SPLINE
5
262
100
AcDbEntity
8
1
62
256
6
ByLayer
370
-1
48
1
60
0
100
AcDbSpline
70
4
71
3
72
10
73
6
40
0
40
0
40
0
40
0
40
0.74705217531711
40
0.74705217531711
40
1
40
1
40
1
40
1
41
1
10
79.9868932564665
20
1.14847389694287
30
0
41
1
10
79.9945785809977
20
1.13541389459564
30
0
41
1
10
80.0028916857417
20
1.12345164013223
30
0
41
1
10
80.0145041047394
20
1.11044288364513
30
0
41
1
10
80.0175333851048
20
1.10736423478718
30
0
41
1
10
80.020580085623
20
1.10461413107007
30
0
0
SPLINE
5
263
100
AcDbEntity
8
1
62
256
6
ByLayer
370
-1
48
1
60
0
100
AcDbSpline
70
4
71
3
72
8
73
4
40
0
40
0
40
0
40
0
40
1
40
1
40
1
40
1
41
1
10
80.0452175052289
20
1.73384773055304
30
0
41
1
10
80.0409486996911
20
1.73344080565806
30
0
41
1
10
80.0366799810875
20
1.733033877081
30
0
41
1
10
80.032411353721
20
1.73262694463992
30
0
0
SPLINE
5
264
100
AcDbEntity
8
1
62
256
6
ByLayer
370
-1
48
1
60
0
100
AcDbSpline
70
4
71
3
72
24
73
20
40
0
40
0
40
0
40
0
40
0.10400044820167
40
0.10400044820167
40
0.192499055460825
40
0.192499055460825
40
0.32850051874657
40
0.32850051874657
40
0.438682575665191
40
0.438682575665191
40
0.54853315817162
40
0.54853315817162
40
0.658237202769651
40
0.658237202769651
40
0.767870673660779
40
0.767870673660779
40
0.988088331634129
40
0.988088331634129
40
1
40
1
40
1
40
1
41
1
10
80.0394708826671
20
2.37015730613723
30
0
41
1
10
80.0472606490928
20
2.37455693758869
30
0
41
1
10
80.0550321279213
20
2.3763290437519
30
0
41
1
10
80.0679000772805
20
2.37440261522056
30
0
41
1
10
80.0733861225741
20
2.37150355768389
30
0
41
1
10
80.0856303635549
20
2.36049664525427
30
0
41
1
10
80.0917583409072
20
2.35035413358355
30
0
41
1
10
80.1009196027538
20
2.32898777328748
30
0
41
1
10
80.1043949547577
20
2.31816590358099
30
0
41
1
10
80.1103689918492
20
2.29517825953107
30
0
41
1
10
80.1128876771352
20
2.28294123827803
30
0
41
1
10
80.1172109351901
20
2.25756857430898
30
0
41
1
10
80.1190227554445
20
2.24438647275133
30
0
41
1
10
80.1220885542556
20
2.21738305314685
30
0
41
1
10
80.123345686941
20
2.20352889849025
30
0
41
1
10
80.1264239626848
20
2.16119138295372
30
0
41
1
10
80.1275663486084
20
2.13185775639298
30
0
41
1
10
80.1279425464667
20
2.10042408612043
30
0
41
1
10
80.1279595398582
20
2.09880531382513
30
0
41
1
10
80.1279741742683
20
2.09718488109195
30
0
0
SPLINE
5
265
100
AcDbEntity
8
1
62
256
6
ByLayer
370
-1
48
1
60
0
100
AcDbSpline
70
4
71
3
72
22
73
18
40
0
40
0
40
0
40
0
40
0.208266363442834
40
0.208266363442834
40
0.317899168105534
40
0.317899168105534
40
0.427584739861867
40
0.427584739861867
40
0.53737725373299
40
0.53737725373299
40
0.6474022287309
40
0.6474022287309
40
0.8115836805023
40
0.8115836805023
40
0.90663602213152
40
0.90663602213152
40
1
40
1
40
1
40
1
41
1
10
80.1279741742683
20
2.09718488109195
30
0
41
1
10
80.128229356954
20
2.06892912134757
30
0
41
1
10
80.1277819576905
20
2.04008753271003
30
0
41
1
10
80.1258764597109
20
1.99579248662525
30
0
41
1
10
80.1249916311288
20
1.98041616293668
30
0
41
1
10
80.1226883530761
20
1.9496652596637
30
0
41
1
10
80.1212678533107
20
1.93425604618417
30
0
41
1
10
80.1177565368566
20
1.9036073876112
30
0
41
1
10
80.1156607116849
20
1.88831715938071
30
0
41
1
10
80.1105788350014
20
1.85820959470357
30
0
41
1
10
80.1075787453152
20
1.84330791339539
30
0
41
1
10
80.0986368528946
20
1.8078071376539
30
0
41
1
10
80.0918032198159
20
1.78728389610342
30
0
41
1
10
80.0779185904757
20
1.76093194431564
30
0
41
1
10
80.0720127345699
20
1.75239603769077
30
0
41
1
10
80.0592635927507
20
1.7398593920571
30
0
41
1
10
80.0522716951121
20
1.7356622005928
30
0
41
1
10
80.0452175052312
20
1.73384773055324
30
0
0
SPLINE
5
266
100
AcDbEntity
8
1
62
256
6
ByLayer
370
-1
48
1
60
0
100
AcDbSpline
70
4
71
3
72
24
73
20
40
0
40
0
40
0
40
0
40
0.104000448201687
40
0.104000448201687
40
0.192499055460841
40
0.192499055460841
40
0.328500518746438
40
0.328500518746438
40
0.43868257566507
40
0.43868257566507
40
0.5485331581715
40
0.5485331581715
40
0.658237202769573
40
0.658237202769573
40
0.767870673660712
40
0.767870673660712
40
0.988088331634102
40
0.988088331634102
40
1
40
1
40
1
40
1
41
1
10
80.0331494991758
20
1.09326868417867
30
0
41
1
10
80.0407721018049
20
1.08525881218384
30
0
41
1
10
80.0482232728751
20
1.07475503587085
30
0
41
1
10
80.0602805574532
20
1.05283503068378
30
0
41
1
10
80.0653014040293
20
1.04156095355077
30
0
41
1
10
80.0762523120471
20
1.01235985466059
30
0
41
1
10
80.0814729874097
20
0.993634801656839
30
0
41
1
10
80.0889428158417
20
0.960512010262335
30
0
41
1
10
80.0916296393536
20
0.945695912156708
30
0
41
1
10
80.0960175041134
20
0.916776715762779
30
0
41
1
10
80.097733456574
20
0.902579027687977
30
0
41
1
10
80.1004539087457
20
0.874911426141438
30
0
41
1
10
80.1014627117311
20
0.861390588946932
30
0
41
1
10
80.1029315909847
20
0.835073693960453
30
0
41
1
10
80.1033928879761
20
0.82224588174293
30
0
41
1
10
80.1041001733909
20
0.78479774660218
30
0
41
1
10
80.1036795418804
20
0.761141332199287
30
0
41
1
10
80.1024543610015
20
0.737902597636776
30
0
41
1
10
80.1023890902339
20
0.736711697003528
30
0
41
1
10
80.1023215795346
20
0.735525415628558
30
0
0
SPLINE
5
267
100
AcDbEntity
8
1
62
256
6
ByLayer
370
-1
48
1
60
0
100
AcDbSpline
70
4
71
3
72
22
73
18
40
0
40
0
40
0
40
0
40
0.208266363442873
40
0.208266363442873
40
0.317899168105591
40
0.317899168105591
40
0.427584739861966
40
0.427584739861966
40
0.537377253733112
40
0.537377253733112
40
0.647402228731089
40
0.647402228731089
40
0.81158368050239
40
0.81158368050239
40
0.906636022131613
40
0.906636022131613
40
1
40
1
40
1
40
1
41
1
10
80.1023215795346
20
0.735525415628558
30
0
41
1
10
80.1011443840492
20
0.714840026575445
30
0
41
1
10
80.0992962053805
20
0.695485604981002
30
0
41
1
10
80.0953384580202
20
0.668606073422723
30
0
41
1
10
80.0937592713556
20
0.659793553992984
30
0
41
1
10
80.0901073349776
20
0.643317936229806
30
0
41
1
10
80.0880310055169
20
0.63563597694727
30
0
41
1
10
80.0832620868334
20
0.621702472646689
30
0
41
1
10
80.0805623989053
20
0.615427649348362
30
0
41
1
10
80.0743504654911
20
0.604768082547963
30
0
41
1
10
80.070821075532
20
0.600355177567479
30
0
41
1
10
80.0607188679147
20
0.592737337924319
30
0
41
1
10
80.053308517068
20
0.591039032618085
30
0
41
1
10
80.0389403208749
20
0.596253399328162
30
0
41
1
10
80.0329482830562
20
0.59997023958303
30
0
41
1
10
80.0202698512771
20
0.611108452575337
30
0
41
1
10
80.0134332768993
20
0.618627342722391
30
0
41
1
10
80.0066394790461
20
0.627441141465852
30
0
0
SPLINE
5
268
100
AcDbEntity
8
1
62
256
6
ByLayer
370
-1
48
1
60
0
100
AcDbSpline
70
4
71
3
72
8
73
4
40
0
40
0
40
0
40
0
40
1
40
1
40
1
40
1
41
1
10
74.79040981588
20
-7.41467681460651
30
0
41
1
10
74.7883447098941
20
-7.42194629048797
30
0
41
1
10
74.7862796171391
20
-7.42921574838968
30
0
41
1
10
74.7842145370911
20
-7.43648518902245
30
0
0
SPLINE
5
269
100
AcDbEntity
8
1
62
256
6
ByLayer
370
-1
48
1
60
0
100
AcDbSpline
70
4
71
3
72
8
73
4
40
0
40
0
40
0
40
0
40
1
40
1
40
1
40
1
41
1
10
74.1028414789748
20
-7.05966028206504
30
0
41
1
10
74.1072984033188
20
-7.05371362121281
30
0
41
1
10
74.1117553532876
20
-7.04776695023565
30
0
41
1
10
74.1162123299377
20
-7.04182026871734
30
0
0
SPLINE
5
26A
100
AcDbEntity
8
1
62
256
6
ByLayer
370
-1
48
1
60
0
100
AcDbSpline
70
4
71
3
72
22
73
18
40
0
40
0
40
0
40
0
40
0.0973712659847469
40
0.0973712659847469
40
0.180296832630754
40
0.180296832630754
40
0.307445080803245
40
0.307445080803245
40
0.411978418515204
40
0.411978418515204
40
0.516185210011503
40
0.516185210011503
40
0.620250145292505
40
0.620250145292505
40
0.829289859626953
40
0.829289859626953
40
1
40
1
40
1
40
1
41
1
10
74.7842145370911
20
-7.43648518902248
30
0
41
1
10
74.778836530228
20
-7.45094194328925
30
0
41
1
10
74.7703294736335
20
-7.46448964431835
30
0
41
1
10
74.7504717283667
20
-7.48515519057764
30
0
41
1
10
74.739541170388
20
-7.49320175988913
30
0
41
1
10
74.7099813899255
20
-7.50930330167043
30
0
41
1
10
74.6899163873448
20
-7.51548292403032
30
0
41
1
10
74.6529442655744
20
-7.52198042954058
30
0
41
1
10
74.6358053637859
20
-7.52320812610833
30
0
41
1
10
74.6016702303023
20
-7.52316588063837
30
0
41
1
10
74.5845642447933
20
-7.52190035758076
30
0
41
1
10
74.5506601443436
20
-7.51748849678813
30
0
41
1
10
74.5338020340576
20
-7.51433410773163
30
0
41
1
10
74.4837309582761
20
-7.50258574286724
30
0
41
1
10
74.45090985704
20
-7.49169572528589
30
0
41
1
10
74.3931539066052
20
-7.46786447790203
30
0
41
1
10
74.3677570304604
20
-7.45560015210859
30
0
41
1
10
74.3431419545796
20
-7.44198709011849
30
0
0
SPLINE
5
26B
100
AcDbEntity
8
1
62
256
6
ByLayer
370
-1
48
1
60
0
100
AcDbSpline
70
4
71
3
72
24
73
20
40
0
40
0
40
0
40
0
40
0.0380198325531531
40
0.0380198325531531
40
0.246834654676463
40
0.246834654676463
40
0.40472650566465
40
0.40472650566465
40
0.526150637963915
40
0.526150637963915
40
0.621531995504568
40
0.621531995504568
40
0.776890538332758
40
0.776890538332758
40
0.873684213898568
40
0.873684213898568
40
0.971746172255497
40
0.971746172255497
40
1
40
1
40
1
40
1
41
1
10
74.3431419545796
20
-7.44198709011849
30
0
41
1
10
74.3376536353808
20
-7.43895184335199
30
0
41
1
10
74.3322019120986
20
-7.4358477486316
30
0
41
1
10
74.2971115229847
20
-7.415284990093
30
0
41
1
10
74.2685058581513
20
-7.39582607089713
30
0
41
1
10
74.2211530053125
20
-7.35810338364669
30
0
41
1
10
74.2016172556209
20
-7.34063219388699
30
0
41
1
10
74.1693892752362
20
-7.30745830535284
30
0
41
1
10
74.1561072060891
20
-7.29222359144615
30
0
41
1
10
74.1343755857667
20
-7.26351587551761
30
0
41
1
10
74.1254658148749
20
-7.25031682887163
30
0
41
1
10
74.1046993013746
20
-7.2143494056196
30
0
41
1
10
74.0941355865451
20
-7.19022089291968
30
0
41
1
10
74.0848945742966
20
-7.14956159901732
30
0
41
1
10
74.0832519873412
20
-7.13326336336687
30
0
41
1
10
74.0854422280791
20
-7.10148352922982
30
0
41
1
10
74.0894691578788
20
-7.08558084299702
30
0
41
1
10
74.0982053414522
20
-7.06746082815408
30
0
41
1
10
74.1004211720346
20
-7.06347913505758
30
0
41
1
10
74.1028414789748
20
-7.05966028206504
30
0
0
SPLINE
5
26C
100
AcDbEntity
8
1
62
256
6
ByLayer
370
-1
48
1
60
0
100
AcDbSpline
70
4
71
3
72
8
73
4
40
0
40
0
40
0
40
0
40
1
40
1
40
1
40
1
41
1
10
76.2425440060255
20
-7.03175590915384
30
0
41
1
10
76.2471444891754
20
-7.03765971987582
30
0
41
1
10
76.2517449480729
20
-7.04356352029771
30
0
41
1
10
76.2563453836785
20
-7.04946731082626
30
0
0
SPLINE
5
26D
100
AcDbEntity
8
1
62
256
6
ByLayer
370
-1
48
1
60
0
100
AcDbSpline
70
4
71
3
72
34
73
30
40
0
40
0
40
0
40
0
40
0.0514465755209305
40
0.0514465755209305
40
0.135786144735431
40
0.135786144735431
40
0.203131635218867
40
0.203131635218867
40
0.270315608875088
40
0.270315608875088
40
0.337431278535952
40
0.337431278535952
40
0.404515897625558
40
0.404515897625558
40
0.499929883690839
40
0.499929883690839
40
0.599210771747923
40
0.599210771747923
40
0.697083019893974
40
0.697083019893974
40
0.780957226922539
40
0.780957226922539
40
0.847546414393095
40
0.847546414393095
40
0.898875235580212
40
0.898875235580212
40
0.980803570703417
40
0.980803570703417
40
1
40
1
40
1
40
1
41
1
10
75.5683465200831
20
-7.41099468222933
30
0
41
1
10
75.5638661606056
20
-7.39628896315392
30
0
41
1
10
75.5567452249734
20
-7.38230569303329
30
0
41
1
10
75.533937333791
20
-7.34887598700269
30
0
41
1
10
75.5154080230134
20
-7.33088277011566
30
0
41
1
10
75.479029376132
20
-7.30328025364042
30
0
41
1
10
75.4614874508687
20
-7.29250578333168
30
0
41
1
10
75.4250660369405
20
-7.27367083904488
30
0
41
1
10
75.406066535114
20
-7.2655472367999
30
0
41
1
10
75.3672216115945
20
-7.251632457456
30
0
41
1
10
75.3472903542819
20
-7.24581138024232
30
0
41
1
10
75.3069150366132
20
-7.23629285627308
30
0
41
1
10
75.2864007868229
20
-7.23257951589579
30
0
41
1
10
75.23644697152
20
-7.22602745173856
30
0
41
1
10
75.2067284965645
20
-7.2241934432283
30
0
41
1
10
75.1463310025185
20
-7.22447931683101
30
0
41
1
10
75.1154675255138
20
-7.22676230304251
30
0
41
1
10
75.0552098675276
20
-7.23561402057771
30
0
41
1
10
75.025598051844
20
-7.24214632789398
30
0
41
1
10
74.9723901413922
20
-7.25851300032267
30
0
41
1
10
74.9483762815555
20
-7.26778897468728
30
0
41
1
10
74.9073831668539
20
-7.28787144443726
30
0
41
1
10
74.889862019376
20
-7.29802497062474
30
0
41
1
10
74.8608951863761
20
-7.3185209703752
30
0
41
1
10
74.8489048805374
20
-7.32834291595071
30
0
41
1
10
74.820724051817
20
-7.35615432013887
30
0
41
1
10
74.8056585545665
20
-7.37612433607649
30
0
41
1
10
74.793938265797
20
-7.40365971439991
30
0
41
1
10
74.7919893481507
20
-7.40911662940383
30
0
41
1
10
74.7904098158801
20
-7.41467681460651
30
0
0
SPLINE
5
26E
100
AcDbEntity
8
1
62
256
6
ByLayer
370
-1
48
1
60
0
100
AcDbSpline
70
4
71
3
72
8
73
4
40
0
40
0
40
0
40
0
40
1
40
1
40
1
40
1
41
1
10
75.5749723255621
20
-7.43274237185034
30
0
41
1
10
75.5727637342525
20
-7.42549315937183
30
0
41
1
10
75.5705551325687
20
-7.41824392973359
30
0
41
1
10
75.5683465200831
20
-7.41099468222936
30
0
0
SPLINE
5
26F
100
AcDbEntity
8
1
62
256
6
ByLayer
370
-1
48
1
60
0
100
AcDbSpline
70
4
71
3
72
22
73
18
40
0
40
0
40
0
40
0
40
0.097371265984712
40
0.097371265984712
40
0.180296832630738
40
0.180296832630738
40
0.307445080803161
40
0.307445080803161
40
0.411978418515129
40
0.411978418515129
40
0.516185210011439
40
0.516185210011439
40
0.62025014529236
40
0.62025014529236
40
0.829289859626709
40
0.829289859626709
40
1
40
1
40
1
40
1
41
1
10
76.2563453836785
20
-7.04946731082626
30
0
41
1
10
76.2648169497028
20
-7.06229552993463
30
0
41
1
10
76.2709086494181
20
-7.07728268784149
30
0
41
1
10
76.2765178047886
20
-7.10604076604184
30
0
41
1
10
76.2769889971333
20
-7.11997987599079
30
0
41
1
10
76.2737930098431
20
-7.15447614944398
30
0
41
1
10
76.2678694724083
20
-7.17520760333431
30
0
41
1
10
76.2530421231693
20
-7.21067635360049
30
0
41
1
10
76.2447414281801
20
-7.22612113910381
30
0
41
1
10
76.2261957394356
20
-7.25550746646394
30
0
41
1
10
76.2158950930475
20
-7.2695458209609
30
0
41
1
10
76.1939211097013
20
-7.2963291302288
30
0
41
1
10
76.1822088771891
20
-7.30912122274137
30
0
41
1
10
76.1454552203462
20
-7.34582726119729
30
0
41
1
10
76.118726007405
20
-7.36816202112237
30
0
41
1
10
76.067776294799
20
-7.40497383588797
30
0
41
1
10
76.0438767734088
20
-7.42020759675327
30
0
41
1
10
76.019261697528
20
-7.43405367504761
30
0
0
SPLINE
5
270
100
AcDbEntity
8
1
62
256
6
ByLayer
370
-1
48
1
60
0
100
AcDbSpline
70
4
71
3
72
24
73
20
40
0
40
0
40
0
40
0
40
0.0380198325528616
40
0.0380198325528616
40
0.246834654676215
40
0.246834654676215
40
0.404726505664463
40
0.404726505664463
40
0.526150637963846
40
0.526150637963846
40
0.621531995504494
40
0.621531995504494
40
0.776890538332772
40
0.776890538332772
40
0.873684213898503
40
0.873684213898503
40
0.971746172255364
40
0.971746172255364
40
1
40
1
40
1
40
1
41
1
10
76.019261697528
20
-7.43405367504761
30
0
41
1
10
76.0137733783292
20
-7.43714087647237
30
0
41
1
10
76.0082468027846
20
-7.44016005216233
30
0
41
1
10
75.9721848224901
20
-7.45928264958957
30
0
41
1
10
75.940520028898
20
-7.47343674565917
30
0
41
1
10
75.8834988417196
20
-7.49391514315755
30
0
41
1
10
75.8583799745913
20
-7.50134141102501
30
0
41
1
10
75.8133399930231
20
-7.51123916745047
30
0
41
1
10
75.793484325177
20
-7.5144732130569
30
0
41
1
10
75.7578937809914
20
-7.51770290212528
30
0
41
1
10
75.7421290120912
20
-7.51824780673985
30
0
41
1
10
75.7011404905757
20
-7.51666340941256
30
0
41
1
10
75.6755292656354
20
-7.51266038159824
30
0
41
1
10
75.6372806921578
20
-7.49836506075957
30
0
41
1
10
75.6231324513371
20
-7.49081562141663
30
0
41
1
10
75.5986797006474
20
-7.47131106159628
30
0
41
1
10
75.588148539939
20
-7.45895015456682
30
0
41
1
10
75.5785790719103
20
-7.44117397564969
30
0
41
1
10
75.5766497437475
20
-7.43700427492414
30
0
41
1
10
75.5749723255621
20
-7.43274237185037
30
0
0
SPLINE
5
271
100
AcDbEntity
8
1
62
256
6
ByLayer
370
-1
48
1
60
0
100
AcDbSpline
70
4
71
3
72
8
73
4
40
0
40
0
40
0
40
0
40
1
40
1
40
1
40
1
41
1
10
76.6315123581271
20
-5.62695397731562
30
0
41
1
10
76.6382497005127
20
-5.62660380975777
30
0
41
1
10
76.6449870066296
20
-5.62625366706828
30
0
41
1
10
76.651724277914
20
-5.6259035482615
30
0
0
SPLINE
5
272
100
AcDbEntity
8
1
62
256
6
ByLayer
370
-1
48
1
60
0
100
AcDbSpline
70
4
71
3
72
34
73
30
40
0
40
0
40
0
40
0
40
0.051446575520929
40
0.051446575520929
40
0.135786144735374
40
0.135786144735374
40
0.203131635218861
40
0.203131635218861
40
0.270315608875111
40
0.270315608875111
40
0.337431278535971
40
0.337431278535971
40
0.404515897625577
40
0.404515897625577
40
0.499929883690835
40
0.499929883690835
40
0.599210771747847
40
0.599210771747847
40
0.697083019893967
40
0.697083019893967
40
0.780957226922511
40
0.780957226922511
40
0.847546414393048
40
0.847546414393048
40
0.898875235580176
40
0.898875235580176
40
0.980803570703411
40
0.980803570703411
40
1
40
1
40
1
40
1
41
1
10
76.6315123581269
20
-6.37904929628024
30
0
41
1
10
76.6178450824021
20
-6.37434690587389
30
0
41
1
10
76.6034913649278
20
-6.37221366379623
30
0
41
1
10
76.5664183129163
20
-6.37184916137937
30
0
41
1
10
76.5434810743218
20
-6.37677361594444
30
0
41
1
10
76.5044364490324
20
-6.39088269211948
30
0
41
1
10
76.4875751137126
20
-6.39914383063558
30
0
41
1
10
76.4552677746895
20
-6.41835509321746
30
0
41
1
10
76.4397147140999
20
-6.42936776122258
30
0
41
1
10
76.4099385930762
20
-6.45347580729029
30
0
41
1
10
76.3956505199228
20
-6.4666248613139
30
0
41
1
10
76.3683848422485
20
-6.49462367577124
30
0
41
1
10
76.3553603974894
20
-6.50952245160826
30
0
41
1
10
76.3254590624695
20
-6.54731011064061
30
0
41
1
10
76.3091729706252
20
-6.57104111417064
30
0
41
1
10
76.2789742236022
20
-6.62171598726999
30
0
41
1
10
76.2650863946088
20
-6.64891360453356
30
0
41
1
10
76.2411730893373
20
-6.70467533801943
30
0
41
1
10
76.2310112445857
20
-6.73339954701302
30
0
41
1
10
76.2161955890187
20
-6.78776922861692
30
0
41
1
10
76.2109145520224
20
-6.81343248246063
30
0
41
1
10
76.2051303570116
20
-6.85972446115375
30
0
41
1
10
76.2038522962759
20
-6.88042813240287
30
0
41
1
10
76.2046054131142
20
-6.91679601715254
30
0
41
1
10
76.2059509793227
20
-6.93262146739326
30
0
41
1
10
76.2127974386725
20
-6.97252129663556
30
0
41
1
10
76.2204344205731
20
-6.99677139983629
30
0
41
1
10
76.2357842651492
20
-7.0224674756405
30
0
41
1
10
76.2390252463858
20
-7.02724027672699
30
0
41
1
10
76.2425440060256
20
-7.03175590915376
30
0
0
SPLINE
5
273
100
AcDbEntity
8
1
62
256
6
ByLayer
370
-1
48
1
60
0
100
AcDbSpline
70
4
71
3
72
8
73
4
40
0
40
0
40
0
40
0
40
1
40
1
40
1
40
1
41
1
10
76.651724277914
20
-6.38600351624302
30
0
41
1
10
76.6449870066296
20
-6.38368543331927
30
0
41
1
10
76.6382497005126
20
-6.38136735986782
30
0
41
1
10
76.631512358127
20
-6.3790492962803
30
0
0
SPLINE
5
274
100
AcDbEntity
8
1
62
256
6
ByLayer
370
-1
48
1
60
0
100
AcDbSpline
70
4
71
3
72
22
73
18
40
0
40
0
40
0
40
0
40
0.0973712659847194
40
0.0973712659847194
40
0.180296832630765
40
0.180296832630765
40
0.307445080803122
40
0.307445080803122
40
0.411978418515059
40
0.411978418515059
40
0.51618521001135
40
0.51618521001135
40
0.620250145292276
40
0.620250145292276
40
0.829289859626618
40
0.829289859626618
40
1
40
1
40
1
40
1
41
1
10
76.651724277914
20
-5.6259035482615
30
0
41
1
10
76.6657195330441
20
-5.62633680080296
30
0
41
1
10
76.6804629188894
20
-5.62982314679866
30
0
41
1
10
76.7061679324046
20
-5.64128560354325
30
0
41
1
10
76.7176706013162
20
-5.6486064081877
30
0
41
1
10
76.7442578793372
20
-5.67016403949572
30
0
41
1
10
76.7585097102931
20
-5.68627783812295
30
0
41
1
10
76.7808192718149
20
-5.71758128141641
30
0
41
1
10
76.7897197426809
20
-5.73267957100339
30
0
41
1
10
76.8054154473652
20
-5.76361200212179
30
0
41
1
10
76.8122651327313
20
-5.77954349592656
30
0
41
1
10
76.8242709755547
20
-5.81181038450811
30
0
41
1
10
76.8294483497672
20
-5.82820262369847
30
0
41
1
10
76.8428456745474
20
-5.87778790528057
30
0
41
1
10
76.8489717940161
20
-5.91149714411728
30
0
41
1
10
76.8558160713852
20
-5.97267856601874
30
0
41
1
10
76.8573215690021
20
-6.00029189564174
30
0
41
1
10
76.8573215690021
20
-6.02775103592626
30
0
0
SPLINE
5
275
100
AcDbEntity
8
1
62
256
6
ByLayer
370
-1
48
1
60
0
100
AcDbSpline
70
4
71
3
72
24
73
20
40
0
40
0
40
0
40
0
40
0.0380198325527606
40
0.0380198325527606
40
0.246834654676099
40
0.246834654676099
40
0.404726505664357
40
0.404726505664357
40
0.526150637963728
40
0.526150637963728
40
0.621531995504429
40
0.621531995504429
40
0.776890538332678
40
0.776890538332678
40
0.873684213898552
40
0.873684213898552
40
0.971746172255543
40
0.971746172255543
40
1
40
1
40
1
40
1
41
1
10
76.8573215690021
20
-6.02775103592626
30
0
41
1
10
76.8573215690021
20
-6.03387348411746
30
0
41
1
10
76.8572463059878
20
-6.03999094130555
30
0
41
1
10
76.856269376096
20
-6.07960074043925
30
0
41
1
10
76.8531936052084
20
-6.112978225717
30
0
41
1
10
76.8434701698803
20
-6.17039948625109
30
0
41
1
10
76.8378547730729
20
-6.19484010570736
30
0
41
1
10
76.8249649545599
20
-6.23681043035504
30
0
41
1
10
76.8183504643621
20
-6.25470046738494
30
0
41
1
10
76.8044011622692
20
-6.28535878222604
30
0
41
1
10
76.7975002383957
20
-6.29845276145156
30
0
41
1
10
76.7771367357277
20
-6.33083326510967
30
0
41
1
10
76.7619789092366
20
-6.3493974824606
30
0
41
1
10
76.7327368170624
20
-6.37244222451039
30
0
41
1
10
76.7201253331102
20
-6.37969324615787
30
0
41
1
10
76.6932419113999
20
-6.38856579828757
30
0
41
1
10
76.6785448774717
20
-6.39014116189207
30
0
41
1
10
76.6600531367364
20
-6.38785134611834
30
0
41
1
10
76.6558651065915
20
-6.38705659519155
30
0
41
1
10
76.651724277914
20
-6.38600351624302
30
0
0
SPLINE
5
276
100
AcDbEntity
8
1
62
256
6
ByLayer
370
-1
48
1
60
0
100
AcDbSpline
70
4
71
3
72
8
73
4
40
0
40
0
40
0
40
0
40
1
40
1
40
1
40
1
41
1
10
75.5683465200831
20
-4.60507295093007
30
0
41
1
10
75.5705551325688
20
-4.59983447025184
30
0
41
1
10
75.5727637342525
20
-4.59459604193083
30
0
41
1
10
75.5749723255621
20
-4.58935766389297
30
0
0
SPLINE
5
277
100
AcDbEntity
8
1
62
256
6
ByLayer
370
-1
48
1
60
0
100
AcDbSpline
70
4
71
3
72
34
73
30
40
0
40
0
40
0
40
0
40
0.0514465755209145
40
0.0514465755209145
40
0.135786144735403
40
0.135786144735403
40
0.203131635218866
40
0.203131635218866
40
0.270315608875105
40
0.270315608875105
40
0.337431278535947
40
0.337431278535947
40
0.404515897625541
40
0.404515897625541
40
0.499929883690869
40
0.499929883690869
40
0.599210771747867
40
0.599210771747867
40
0.697083019893991
40
0.697083019893991
40
0.780957226922519
40
0.780957226922519
40
0.847546414393059
40
0.847546414393059
40
0.898875235580179
40
0.898875235580179
40
0.980803570703384
40
0.980803570703384
40
1
40
1
40
1
40
1
41
1
10
76.2425440060254
20
-4.97792949681917
30
0
41
1
10
76.2332115321688
20
-4.9858728016799
30
0
41
1
10
76.2258334036537
20
-4.99566579121688
30
0
41
1
10
76.2112077391371
20
-5.02362891749593
30
0
41
1
10
76.2065918209818
20
-5.043602977472
30
0
41
1
10
76.2035942336614
20
-5.08062143000907
30
0
41
1
10
76.2041400878002
20
-5.09775017208221
30
0
41
1
10
76.208012835335
20
-5.13238096060812
30
0
41
1
10
76.2113518607361
20
-5.14999701367273
30
0
41
1
10
76.2202332530616
20
-5.18536749122765
30
0
41
1
10
76.2257960268002
20
-5.20319960308035
30
0
41
1
10
76.2387722948876
20
-5.23882937750227
30
0
41
1
10
76.2462089087766
20
-5.25668869886275
30
0
41
1
10
76.2661661581355
20
-5.29968065348058
30
0
41
1
10
76.2795703818311
20
-5.32484713557346
30
0
41
1
10
76.3097691288542
20
-5.37523613507008
30
0
41
1
10
76.3267752636397
20
-5.40058223433155
30
0
41
1
10
76.3632396809867
20
-5.44919148127775
30
0
41
1
10
76.382778735667
20
-5.47264415278556
30
0
41
1
10
76.4213889742243
20
-5.51373220545142
30
0
41
1
10
76.4402438079331
20
-5.53184626029594
30
0
41
1
10
76.4757083373325
20
-5.56167332031046
30
0
41
1
10
76.492078158759
20
-5.57401709518427
30
0
41
1
10
76.5220453149911
20
-5.59338760220373
30
0
41
1
10
76.5354970960312
20
-5.60103152461301
30
0
41
1
10
76.5708421924446
20
-5.61761777535145
30
0
41
1
10
76.5937635194563
20
-5.62499513664591
30
0
41
1
10
76.6211144904788
20
-5.6271304274419
30
0
41
1
10
76.6263591844941
20
-5.62722180906917
30
0
41
1
10
76.6315123581271
20
-5.62695397731551
30
0
0
SPLINE
5
278
100
AcDbEntity
8
1
62
256
6
ByLayer
370
-1
48
1
60
0
100
AcDbSpline
70
4
71
3
72
8
73
4
40
0
40
0
40
0
40
0
40
1
40
1
40
1
40
1
41
1
10
76.2563453836785
20
-4.96618257085038
30
0
41
1
10
76.2517449480729
20
-4.9700981691077
30
0
41
1
10
76.2471444891753
20
-4.97401381050412
30
0
41
1
10
76.2425440060254
20
-4.9779294968192
30
0
0
SPLINE
5
279
100
AcDbEntity
8
1
62
256
6
ByLayer
370
-1
48
1
60
0
100
AcDbSpline
70
4
71
3
72
22
73
18
40
0
40
0
40
0
40
0
40
0.0973712659847094
40
0.0973712659847094
40
0.180296832630727
40
0.180296832630727
40
0.307445080803175
40
0.307445080803175
40
0.411978418515252
40
0.411978418515252
40
0.516185210011621
40
0.516185210011621
40
0.620250145292634
40
0.620250145292634
40
0.829289859627095
40
0.829289859627095
40
1
40
1
40
1
40
1
41
1
10
75.5749723255621
20
-4.58935766389297
30
0
41
1
10
75.5806416969106
20
-4.57902448502588
30
0
41
1
10
75.589438012576
20
-4.56957056223263
30
0
41
1
10
75.6097719835988
20
-4.55564486558043
30
0
41
1
10
75.6209043787537
20
-4.55045482428289
30
0
41
1
10
75.6509111289137
20
-4.54067908177387
30
0
41
1
10
75.6711968631145
20
-4.53762339360759
30
0
41
1
10
75.7084985628655
20
-4.53579028517242
30
0
41
1
10
75.7257619927877
20
-4.53632498990748
30
0
41
1
10
75.7601096461618
20
-4.5393749519541
30
0
41
1
10
75.7773043241613
20
-4.54189570751217
30
0
41
1
10
75.8113598760506
20
-4.54845100534686
30
0
41
1
10
75.8282809792141
20
-4.55249690964595
30
0
41
1
10
75.8785118666788
20
-4.56650703103395
30
0
41
1
10
75.9114014302625
20
-4.57836597127587
30
0
41
1
10
75.9692334597776
20
-4.60327393816365
30
0
41
1
10
75.9946466216472
20
-4.6157687498856
30
0
41
1
10
76.019261697528
20
-4.62938181187573
30
0
0
SPLINE
5
27A
100
AcDbEntity
8
1
62
256
6
ByLayer
370
-1
48
1
60
0
100
AcDbSpline
70
4
71
3
72
24
73
20
40
0
40
0
40
0
40
0
40
0.0380198325534548
40
0.0380198325534548
40
0.246834654676997
40
0.246834654676997
40
0.404726505665045
40
0.404726505665045
40
0.526150637964216
40
0.526150637964216
40
0.621531995504797
40
0.621531995504797
40
0.776890538332874
40
0.776890538332874
40
0.873684213898678
40
0.873684213898678
40
0.971746172255602
40
0.971746172255602
40
1
40
1
40
1
40
1
41
1
10
76.019261697528
20
-4.62938181187573
30
0
41
1
10
76.0247500167267
20
-4.63241705864223
30
0
41
1
10
76.0302009185052
20
-4.63550952691819
30
0
41
1
10
76.065280630197
20
-4.65592117179264
30
0
41
1
10
76.0938530107725
20
-4.67490903101313
30
0
41
1
10
76.1410956616342
20
-4.71107206983413
30
0
41
1
10
76.1605668525845
20
-4.72762958325205
30
0
41
1
10
76.19263919831
20
-4.75860083116228
30
0
41
1
10
76.2058394844595
20
-4.77267810010255
30
0
41
1
10
76.2273903483223
20
-4.79882763571942
30
0
41
1
10
76.236208267484
20
-4.8107267382953
30
0
41
1
10
76.2566917916786
20
-4.842689117014
30
0
41
1
10
76.2670348737476
20
-4.86369509464458
30
0
41
1
10
76.2758068241057
20
-4.89771592651903
30
0
41
1
10
76.2772377508873
20
-4.91101861284943
30
0
41
1
10
76.274566649584
20
-4.93599300261249
30
0
41
1
10
76.2702618329442
20
-4.94796285764767
30
0
41
1
10
76.2611534711044
20
-4.96081556909152
30
0
41
1
10
76.2588518977228
20
-4.96358377559244
30
0
41
1
10
76.2563453836785
20
-4.96618257085038
30
0
0
SPLINE
5
27B
100
AcDbEntity
8
1
62
256
6
ByLayer
370
-1
48
1
60
0
100
AcDbSpline
70
4
71
3
72
30
73
26
40
0
40
0
40
0
40
0
40
0.0515194889309942
40
0.0515194889309942
40
0.0928771460763128
40
0.0928771460763128
40
0.148185150442133
40
0.148185150442133
40
0.203338923043218
40
0.203338923043218
40
0.287955708682622
40
0.287955708682622
40
0.372427214532539
40
0.372427214532539
40
0.435367147735198
40
0.435367147735198
40
0.498971020783011
40
0.498971020783011
40
0.701334348039107
40
0.701334348039107
40
0.838887327921502
40
0.838887327921502
40
0.925006664597275
40
0.925006664597275
40
1
40
1
40
1
40
1
41
1
10
73.7272439778361
20
-6.39279578822104
30
0
41
1
10
73.7406201383424
20
-6.38796539573997
30
0
41
1
10
73.7546831624705
20
-6.38569765145439
30
0
41
1
10
73.7796501657884
20
-6.38520861533624
30
0
41
1
10
73.7907962310385
20
-6.38626163196236
30
0
41
1
10
73.8163266055464
20
-6.39096912813005
30
0
41
1
10
73.8306744147182
20
-6.39539382138207
30
0
41
1
10
73.8584315584191
20
-6.40665808168782
30
0
41
1
10
73.8719368983614
20
-6.41353190361178
30
0
41
1
10
73.9050168406034
20
-6.43326986758032
30
0
41
1
10
73.9241492436003
20
-6.44745684428233
30
0
41
1
10
73.9603631960831
20
-6.47891545136483
30
0
41
1
10
73.9775649083274
20
-6.49629456966179
30
0
41
1
10
74.0058329180789
20
-6.52877591610542
30
0
41
1
10
74.0173882551284
20
-6.54338478977087
30
0
41
1
10
74.0394553402459
20
-6.57394119140838
30
0
41
1
10
74.0499839342167
20
-6.58994206109404
30
0
41
1
10
74.0909899074377
20
-6.65836377284313
30
0
41
1
10
74.1165032113726
20
-6.71633065021584
30
0
41
1
10
74.1442129999313
20
-6.81725785568329
30
0
41
1
10
74.1515231419924
20
-6.86005135629901
30
0
41
1
10
74.1525357180564
20
-6.92888295046154
30
0
41
1
10
74.1502602491483
20
-6.95571491735663
30
0
41
1
10
74.1383078994521
20
-7.00290739180218
30
0
41
1
10
74.1293367564664
20
-7.024309119164
30
0
41
1
10
74.1162123299379
20
-7.0418202687174
30
0
0
SPLINE
5
27C
100
AcDbEntity
8
1
62
256
6
ByLayer
370
-1
48
1
60
0
100
AcDbSpline
70
4
71
3
72
8
73
4
40
0
40
0
40
0
40
0
40
1
40
1
40
1
40
1
41
1
10
73.7074625847393
20
-6.39993930465391
30
0
41
1
10
73.7140563447621
20
-6.39755812325223
30
0
41
1
10
73.7206501419502
20
-6.39517695098203
30
0
41
1
10
73.7272439778361
20
-6.39279578822092
30
0
0
SPLINE
5
27D
100
AcDbEntity
8
1
62
256
6
ByLayer
370
-1
48
1
60
0
100
AcDbSpline
70
4
71
3
72
30
73
26
40
0
40
0
40
0
40
0
40
0.0511772287529128
40
0.0511772287529128
40
0.135075241067698
40
0.135075241067698
40
0.271834780652141
40
0.271834780652141
40
0.469061266910445
40
0.469061266910445
40
0.500636061959857
40
0.500636061959857
40
0.59980050248925
40
0.59980050248925
40
0.697557955314556
40
0.697557955314556
40
0.781333785463147
40
0.781333785463147
40
0.847844869822107
40
0.847844869822107
40
0.899113486931126
40
0.899113486931126
40
0.93907791306919
40
0.93907791306919
40
1
40
1
40
1
40
1
41
1
10
74.1162123299375
20
-4.98799385638281
30
0
41
1
10
74.1252536885756
20
-4.99585019416358
30
0
41
1
10
74.1323411237448
20
-5.00557471525025
30
0
41
1
10
74.1462457808865
20
-5.03340280172392
30
0
41
1
10
74.1504457183651
20
-5.05333513446533
30
0
41
1
10
74.1538416383999
20
-5.10715095121412
30
0
41
1
10
74.1485236676095
20
-5.14312114884049
30
0
41
1
10
74.1253915565417
20
-5.23059804340122
30
0
41
1
10
74.1025602247581
20
-5.28390448540964
30
0
41
1
10
74.0695617190861
20
-5.34357515582528
30
0
41
1
10
74.0647966449234
20
-5.35187044850525
30
0
41
1
10
74.0444826866866
20
-5.38595819575551
30
0
41
1
10
74.0275375254499
20
-5.41146499339479
30
0
41
1
10
73.9913132373676
20
-5.46041829074278
30
0
41
1
10
73.9719523501854
20
-5.48405508357502
30
0
41
1
10
73.9337780789729
20
-5.52550657291636
30
0
41
1
10
73.9151672669994
20
-5.54379796026802
30
0
41
1
10
73.880213957017
20
-5.57395832221437
30
0
41
1
10
73.8640976049595
20
-5.58645586074343
30
0
41
1
10
73.8346248615151
20
-5.60610770887698
30
0
41
1
10
73.8214048984609
20
-5.61387787406662
30
0
41
1
10
73.7974432564297
20
-5.62555707721174
30
0
41
1
10
73.7867353506504
20
-5.62996588267177
30
0
41
1
10
73.7597335810228
20
-5.6385017624286
30
0
41
1
10
73.7430109972663
20
-5.64138690017009
30
0
41
1
10
73.7272439778362
20
-5.64070046925627
30
0
0
SPLINE
5
27E
100
AcDbEntity
8
1
62
256
6
ByLayer
370
-1
48
1
60
0
100
AcDbSpline
70
4
71
3
72
8
73
4
40
0
40
0
40
0
40
0
40
1
40
1
40
1
40
1
41
1
10
73.7272439778362
20
-5.64070046925625
30
0
41
1
10
73.7206501419503
20
-5.64041340087195
30
0
41
1
10
73.7140563447621
20
-5.64012635700124
30
0
41
1
10
73.7074625847393
20
-5.63983933667242
30
0
0
SPLINE
5
27F
100
AcDbEntity
8
1
62
256
6
ByLayer
370
-1
48
1
60
0
100
AcDbSpline
70
4
71
3
72
24
73
20
40
0
40
0
40
0
40
0
40
0.0974021566269604
40
0.0974021566269604
40
0.180354031075276
40
0.180354031075276
40
0.307542616517193
40
0.307542616517193
40
0.412109117009617
40
0.412109117009617
40
0.5163489676909
40
0.5163489676909
40
0.62044691715354
40
0.62044691715354
40
0.724476829460179
40
0.724476829460179
40
0.933310901386485
40
0.933310901386485
40
1
40
1
40
1
40
1
41
1
10
73.7074625847393
20
-5.6398393366724
30
0
41
1
10
73.6937586940945
20
-5.64040369489499
30
0
41
1
10
73.6793045673201
20
-5.64402823864631
30
0
41
1
10
73.6540757795609
20
-5.65573177541415
30
0
41
1
10
73.6427749478256
20
-5.66316051365732
30
0
41
1
10
73.6166346395021
20
-5.68496771533748
30
0
41
1
10
73.6026035401663
20
-5.7012153828164
30
0
41
1
10
73.5806235566253
20
-5.7327284575193
30
0
41
1
10
73.5718476138929
20
-5.74791041316089
30
0
41
1
10
73.5563644290991
20
-5.77899042029384
30
0
41
1
10
73.5496034362222
20
-5.79498633620162
30
0
41
1
10
73.5377490448385
20
-5.8273661601163
30
0
41
1
10
73.5326346635044
20
-5.84380711227584
30
0
41
1
10
73.5238237970248
20
-5.87689490311098
30
0
41
1
10
73.5201177823478
20
-5.89357902879831
30
0
41
1
10
73.5108799312721
20
-5.94383345040566
30
0
41
1
10
73.5072060123785
20
-5.9776877335303
30
0
41
1
10
73.5053109062171
20
-6.0221219031159
30
0
41
1
10
73.5050820831053
20
-6.03288062921794
30
0
41
1
10
73.5050820831053
20
-6.04361786606788
30
0
0
SPLINE
5
280
100
AcDbEntity
8
1
62
256
6
ByLayer
370
-1
48
1
60
0
100
AcDbSpline
70
4
71
3
72
22
73
18
40
0
40
0
40
0
40
0
40
0.142057608739701
40
0.142057608739701
40
0.351004812993436
40
0.351004812993436
40
0.487763342942466
40
0.487763342942466
40
0.591529353509893
40
0.591529353509893
40
0.75869496922738
40
0.75869496922738
40
0.858776631809157
40
0.858776631809157
40
0.960359919517632
40
0.960359919517632
40
1
40
1
40
1
40
1
41
1
10
73.5050820831053
20
-6.04361786606788
30
0
41
1
10
73.5050820831053
20
-6.06646426137738
30
0
41
1
10
73.5061148661618
20
-6.08925135689933
30
0
41
1
10
73.511293100101
20
-6.14500015831865
30
0
41
1
10
73.5166709352441
20
-6.17788658889734
30
0
41
1
10
73.5300078335766
20
-6.2305937984334
30
0
41
1
10
73.5364645200376
20
-6.2510949627364
30
0
41
1
10
73.5502814496133
20
-6.28578351355188
30
0
41
1
10
73.5570727835831
20
-6.3003568472094
30
0
41
1
10
73.5772398695059
20
-6.3363187478412
30
0
41
1
10
73.5923759654941
20
-6.35704913785173
30
0
41
1
10
73.621709685683
20
-6.38290267056598
30
0
41
1
10
73.6341161680425
20
-6.39106283290135
30
0
41
1
10
73.6608785291215
20
-6.40171186026913
30
0
41
1
10
73.6756877303862
20
-6.40415742749732
30
0
41
1
10
73.6959942179379
20
-6.40249258919084
30
0
41
1
10
73.7017783262652
20
-6.40147001950876
30
0
41
1
10
73.7074625847393
20
-6.39993930465391
30
0
0
SPLINE
5
281
100
AcDbEntity
8
1
62
256
6
ByLayer
370
-1
48
1
60
0
100
AcDbSpline
70
4
71
3
72
8
73
4
40
0
40
0
40
0
40
0
40
1
40
1
40
1
40
1
41
1
10
74.1162123299376
20
-4.9879938563827
30
0
41
1
10
74.1117553532875
20
-4.98412104086395
30
0
41
1
10
74.1072984033187
20
-4.9802482700228
30
0
41
1
10
74.1028414789748
20
-4.97637554208919
30
0
0
SPLINE
5
282
100
AcDbEntity
8
1
62
256
6
ByLayer
370
-1
48
1
60
0
100
AcDbSpline
70
4
71
3
72
34
73
30
40
0
40
0
40
0
40
0
40
0.0514465755209292
40
0.0514465755209292
40
0.13578614473543
40
0.13578614473543
40
0.203131635218902
40
0.203131635218902
40
0.270315608875137
40
0.270315608875137
40
0.337431278535993
40
0.337431278535993
40
0.404515897625589
40
0.404515897625589
40
0.499929883690851
40
0.499929883690851
40
0.599210771747934
40
0.599210771747934
40
0.697083019893992
40
0.697083019893992
40
0.780957226922553
40
0.780957226922553
40
0.847546414393083
40
0.847546414393083
40
0.898875235580215
40
0.898875235580215
40
0.98080357070347
40
0.98080357070347
40
1
40
1
40
1
40
1
41
1
10
74.79040981588
20
-4.60875508330719
30
0
41
1
10
74.794599060139
20
-4.61934075476591
30
0
41
1
10
74.801429302425
20
-4.62920994787459
30
0
41
1
10
74.8235161862327
20
-4.65243549923582
30
0
41
1
10
74.8416295163335
20
-4.66454149317082
30
0
41
1
10
74.87734494539
20
-4.68275772941959
30
0
41
1
10
74.894617399044
20
-4.68971846622497
30
0
41
1
10
74.9305561582315
20
-4.70172257382626
30
0
41
1
10
74.9493408283864
20
-4.70680574170021
30
0
41
1
10
74.9878109315652
20
-4.71541582533075
30
0
41
1
10
75.0075813680366
20
-4.71896086377527
30
0
41
1
10
75.0476899418912
20
-4.72470425973518
30
0
41
1
10
75.0680978093972
20
-4.72691201040485
30
0
41
1
10
75.1178611628519
20
-4.73076853741856
30
0
41
1
10
75.1475233189763
20
-4.73180548603392
30
0
41
1
10
75.2079208130223
20
-4.73151961243119
30
0
41
1
10
75.2388452635757
20
-4.73009956263849
30
0
41
1
10
75.2993430508267
20
-4.72464630709433
30
0
41
1
10
75.3291330340067
20
-4.72063553943903
30
0
41
1
10
75.3827769118033
20
-4.71043895399168
30
0
41
1
10
75.4070347933769
20
-4.70461653035792
30
0
41
1
10
75.4485391274956
20
-4.69176916275066
30
0
41
1
10
75.4663137443424
20
-4.68520289618755
30
0
41
1
10
75.49577499013
20
-4.67170414047757
30
0
41
1
10
75.5079971139544
20
-4.6651630303902
30
0
41
1
10
75.5368135593613
20
-4.6463472775707
30
0
41
1
10
75.5523167523328
20
-4.63257180969578
30
0
41
1
10
75.5645987164561
20
-4.61298561800271
30
0
41
1
10
75.5666572243674
20
-4.60907969408822
30
0
41
1
10
75.568346520083
20
-4.60507295093007
30
0
0
SPLINE
5
283
100
AcDbEntity
8
1
62
256
6
ByLayer
370
-1
48
1
60
0
100
AcDbSpline
70
4
71
3
72
8
73
4
40
0
40
0
40
0
40
0
40
1
40
1
40
1
40
1
41
1
10
74.7842145370911
20
-4.59310048106508
30
0
41
1
10
74.7862796171391
20
-4.59831863094868
30
0
41
1
10
74.7883447098941
20
-4.60353683100618
30
0
41
1
10
74.79040981588
20
-4.60875508330719
30
0
0
SPLINE
5
284
100
AcDbEntity
8
1
62
256
6
ByLayer
370
-1
48
1
60
0
100
AcDbSpline
70
4
71
3
72
22
73
18
40
0
40
0
40
0
40
0
40
0.097371265984696
40
0.097371265984696
40
0.180296832630722
40
0.180296832630722
40
0.307445080803105
40
0.307445080803105
40
0.411978418515035
40
0.411978418515035
40
0.516185210011327
40
0.516185210011327
40
0.620250145292196
40
0.620250145292196
40
0.829289859626562
40
0.829289859626562
40
1
40
1
40
1
40
1
41
1
10
74.1028414789748
20
-4.97637554208919
30
0
41
1
10
74.0946612774358
20
-4.9676708983805
30
0
41
1
10
74.0888588367913
20
-4.95677751870946
30
0
41
1
10
74.0837259071769
20
-4.93475929011621
30
0
41
1
10
74.0834565520084
20
-4.92367670818123
30
0
41
1
10
74.0870995089961
20
-4.89550623400032
30
0
41
1
10
74.093243778051
20
-4.87789871430363
30
0
41
1
10
74.1084007052706
20
-4.84709436111251
30
0
41
1
10
74.1168259283934
20
-4.833411976912
30
0
41
1
10
74.1355841370285
20
-4.80703336612854
30
0
41
1
10
74.145973475907
20
-4.79425024413206
30
0
41
1
10
74.1680989106928
20
-4.7696103719062
30
0
41
1
10
74.1798741360824
20
-4.75770979463618
30
0
41
1
10
74.2167876046086
20
-4.72326551270388
30
0
41
1
10
74.2435852798973
20
-4.70189967543936
30
0
41
1
10
74.2946110715837
20
-4.66616458017765
30
0
41
1
10
74.3185268786987
20
-4.65116130524089
30
0
41
1
10
74.3431419545796
20
-4.6373152269465
30
0
0
SPLINE
5
285
100
AcDbEntity
8
1
62
256
6
ByLayer
370
-1
48
1
60
0
100
AcDbSpline
70
4
71
3
72
24
73
20
40
0
40
0
40
0
40
0
40
0.0380198325526611
40
0.0380198325526611
40
0.246834654675964
40
0.246834654675964
40
0.404726505664153
40
0.404726505664153
40
0.526150637963607
40
0.526150637963607
40
0.621531995504276
40
0.621531995504276
40
0.776890538332578
40
0.776890538332578
40
0.87368421389841
40
0.87368421389841
40
0.971746172255311
40
0.971746172255311
40
1
40
1
40
1
40
1
41
1
10
74.3431419545796
20
-4.6373152269465
30
0
41
1
10
74.3486302737783
20
-4.63422802552176
30
0
41
1
10
74.354156027819
20
-4.63119722338735
30
0
41
1
10
74.3902073306914
20
-4.61192351229596
30
0
41
1
10
74.4218388400255
20
-4.59729835625095
30
0
41
1
10
74.4787498252268
20
-4.57526031032313
30
0
41
1
10
74.5038041336139
20
-4.56692036611386
30
0
41
1
10
74.5486884805228
20
-4.55481996906454
30
0
41
1
10
74.5684623653714
20
-4.55042847849171
30
0
41
1
10
74.6038721530975
20
-4.54464060911161
30
0
41
1
10
74.6195450702675
20
-4.542795760427
30
0
41
1
10
74.6602506024773
20
-4.54037511322096
30
0
41
1
10
74.6856411946573
20
-4.54125560596594
30
0
41
1
10
74.7234207062444
20
-4.54891246477672
30
0
41
1
10
74.7373572868913
20
-4.55346635479958
30
0
41
1
10
74.7613291770157
20
-4.56616547024598
30
0
41
1
10
74.771582450884
20
-4.57459354607784
30
0
41
1
10
74.7807797406462
20
-4.58710242159592
30
0
41
1
10
74.78262332601
20
-4.59005863572591
30
0
41
1
10
74.7842145370911
20
-4.59310048106508
30
0
0
SPLINE
5
286
100
AcDbEntity
8
SK1
62
256
6
ByLayer
370
-1
48
1
60
0
100
AcDbSpline
70
4
71
3
72
8
73
4
40
0
40
0
40
0
40
0
40
1
40
1
40
1
40
1
41
1
10
-170.802499986183
20
-8.50874999999999
30
0
41
1
10
-170.8025760234
20
-8.50874999999999
30
0
41
1
10
-170.174914121542
20
-8.50874999999999
30
0
41
1
10
-169.32
20
-8.50874999999999
30
0
0
SPLINE
5
287
100
AcDbEntity
8
SK1
62
256
6
ByLayer
370
-1
48
1
60
0
100
AcDbSpline
70
4
71
3
72
10
73
6
40
0
40
0
40
0
40
0
40
0.5
40
0.5
40
1
40
1
40
1
40
1
41
1
10
-169.32
20
-4.33878745302189
30
0
41
1
10
-169.919233025873
20
-2.95888879825199
30
0
41
1
10
-170.310991214146
20
-1.50358877622816
30
0
41
1
10
-170.311508518976
20
1.50048916054567
30
0
41
1
10
-169.920392105394
20
2.95621969924954
30
0
41
1
10
-169.32
20
4.33878745302192
30
0
0
LINE
5
49
100
AcDbEntity
8
1
62
256
6
ByLayer
370
-1
48
1
60
0
100
AcDbLine
10
77.898302
20
-5.827735
30
0
11
77.875655
21
-5.507211
31
0
39
0
210
0
220
0
230
1
0
LINE
5
4A
100
AcDbEntity
8
1
62
256
6
ByLayer
370
-1
48
1
60
0
100
AcDbLine
10
72.439209
20
-5.891341
30
0
11
72.461856
21
-6.211864
31
0
39
0
210
0
220
0
230
1
0
LINE
5
4B
100
AcDbEntity
8
1
62
256
6
ByLayer
370
-1
48
1
60
0
100
AcDbLine
10
74.151635
20
-5.072275
30
0
11
74.133211
21
-4.811522
31
0
39
0
210
0
220
0
230
1
0
LINE
5
4C
100
AcDbEntity
8
1
62
256
6
ByLayer
370
-1
48
1
60
0
100
AcDbLine
10
76.179282
20
-4.739644
30
0
11
76.204911
21
-5.102362
31
0
39
0
210
0
220
0
230
1
0
LINE
5
4D
100
AcDbEntity
8
1
62
256
6
ByLayer
370
-1
48
1
60
0
100
AcDbLine
10
74.151173
20
-6.879573
30
0
11
74.125525
21
-6.516581
31
0
39
0
210
0
220
0
230
1
0
LINE
5
4E
100
AcDbEntity
8
1
62
256
6
ByLayer
370
-1
48
1
60
0
100
AcDbLine
10
76.17912
20
-6.551176
30
0
11
76.205072
21
-6.918468
31
0
39
0
210
0
220
0
230
1
0
LINE
5
4F
100
AcDbEntity
8
1
62
256
6
ByLayer
370
-1
48
1
60
0
100
AcDbLine
10
79.992475
20
2.349541
30
0
11
79.993281
21
2.349537
31
0
39
0
210
0
220
0
230
1
0
LINE
5
50
100
AcDbEntity
8
1
62
256
6
ByLayer
370
-1
48
1
60
0
100
AcDbLine
10
79.274513
20
0.531561
30
0
11
79.207628
21
1.558291
31
0
39
0
210
0
220
0
230
1
0
LINE
5
51
100
AcDbEntity
8
1
62
256
6
ByLayer
370
-1
48
1
60
0
100
AcDbLine
10
79.619842
20
-1.291007
30
0
11
79.555968
21
-0.310488
31
0
39
0
210
0
220
0
230
1
0
LINE
5
52
100
AcDbEntity
8
1
62
256
6
ByLayer
370
-1
48
1
60
0
100
AcDbLine
10
79.931867
20
-2.627644
30
0
11
79.862581
21
-1.564049
31
0
39
0
210
0
220
0
230
1
0
LINE
5
53
100
AcDbEntity
8
1
62
256
6
ByLayer
370
-1
48
1
60
0
100
AcDbLine
10
67.232908
20
-4.799424
30
0
11
67.299768
21
-5.82577
31
0
39
0
210
0
220
0
230
1
0
LINE
5
54
100
AcDbEntity
8
1
62
256
6
ByLayer
370
-1
48
1
60
0
100
AcDbLine
10
68.372072
20
-4.186917
30
0
11
68.435895
21
-5.166652
31
0
39
0
210
0
220
0
230
1
0
LINE
5
55
100
AcDbEntity
8
1
62
256
6
ByLayer
370
-1
48
1
60
0
100
AcDbLine
10
51.538171
20
9.78218
30
0
11
51.17605
21
9.99125
31
0
39
0
210
0
220
0
230
1
0
LINE
5
56
100
AcDbEntity
8
1
62
256
6
ByLayer
370
-1
48
1
60
0
100
AcDbLine
10
59.890061
20
-9.675
30
0
11
62.824605
21
-9.675
31
0
39
0
210
0
220
0
230
1
0
LINE
5
57
100
AcDbEntity
8
1
62
256
6
ByLayer
370
-1
48
1
60
0
100
AcDbLine
10
62.824605
20
9.675
30
0
11
51.938171
21
9.675
31
0
39
0
210
0
220
0
230
1
0
LINE
5
58
100
AcDbEntity
8
1
62
256
6
ByLayer
370
-1
48
1
60
0
100
AcDbLine
10
51.17605
20
9.99125
30
0
11
0
21
9.99125
31
0
39
0
210
0
220
0
230
1
0
LINE
5
59
100
AcDbEntity
8
1
62
256
6
ByLayer
370
-1
48
1
60
0
100
AcDbLine
10
63.19888
20
9.685
30
0
11
62.9507
21
9.685
31
0
39
0
210
0
220
0
230
1
0
LINE
5
5A
100
AcDbEntity
8
1
62
256
6
ByLayer
370
-1
48
1
60
0
100
AcDbLine
10
63.437441
20
-9.96077
30
0
11
63.674868
21
-10.243725
31
0
39
0
210
0
220
0
230
1
0
LINE
5
5B
100
AcDbEntity
8
SK1
62
256
6
ByLayer
370
-1
48
1
60
0
100
AcDbLine
10
-169.32
20
9.99125
30
0
11
-171.32
21
7.99125
31
0
39
0
210
0
220
0
230
1
0
LINE
5
5D
100
AcDbEntity
8
SK1
62
256
6
ByLayer
370
-1
48
1
60
0
100
AcDbLine
10
-171.32
20
-7.99125
30
0
11
-170.8025
21
-8.50875
31
0
39
0
210
0
220
0
230
1
0
LINE
5
5E
100
AcDbEntity
8
SK1
62
256
6
ByLayer
370
-1
48
1
60
0
100
AcDbLine
10
0
20
9.99125
30
0
11
-169.32
21
9.99125
31
0
39
0
210
0
220
0
230
1
0
LINE
5
5F
100
AcDbEntity
8
SK4
62
256
6
ByLayer
370
-1
48
0.05
60
0
100
AcDbLine
10
-176.32
20
0
30
0
11
84.93
21
0
31
0
39
0
210
0
220
0
230
1
0
LINE
5
61
100
AcDbEntity
8
80
62
256
6
ByLayer
370
-1
48
1
60
0
100
AcDbLine
10
0
20
0
30
0
11
-5
21
0
31
0
39
0
210
0
220
0
230
1
0
LINE
5
62
100
AcDbEntity
8
81
62
256
6
ByLayer
370
-1
48
1
60
0
100
AcDbLine
10
79.93
20
-13.875
30
0
11
84.93
21
-13.875
31
0
39
0
210
0
220
0
230
1
0
LINE
5
63
100
AcDbEntity
8
1
62
256
6
ByLayer
370
-1
48
1
60
0
100
AcDbLine
10
62.824605
20
-9.675
30
0
11
62.824605
21
-9.610784
31
0
39
0
210
0
220
0
230
1
0
LINE
5
64
100
AcDbEntity
8
1
62
256
6
ByLayer
370
-1
48
1
60
0
100
AcDbLine
10
62.824605
20
3.55044
30
0
11
62.824605
21
9.675
31
0
39
0
210
0
220
0
230
1
0
LINE
5
65
100
AcDbEntity
8
1
62
256
6
ByLayer
370
-1
48
1
60
0
100
AcDbLine
10
70.367318
20
-9.010823
30
0
11
66.958509
21
-7.124674
31
0
39
0
210
0
220
0
230
1
0
LINE
5
66
100
AcDbEntity
8
1
62
256
6
ByLayer
370
-1
48
1
60
0
100
AcDbLine
10
71.461977
20
-2.393502
30
0
11
76.20199
21
0.272774
31
0
39
0
210
0
220
0
230
1
0
LINE
5
67
100
AcDbEntity
8
1
62
256
6
ByLayer
370
-1
48
1
60
0
100
AcDbLine
10
62.647895
20
-6.121196
30
0
11
60.719106
21
-9.356998
31
0
39
0
210
0
220
0
230
1
0
LINE
5
68
100
AcDbEntity
8
1
62
256
6
ByLayer
370
-1
48
1
60
0
100
AcDbLine
10
0
20
4.338787
30
0
11
0
21
9.99125
31
0
39
0
210
0
220
0
230
1
0
LINE
5
69
100
AcDbEntity
8
1
62
256
6
ByLayer
370
-1
48
1
60
0
100
AcDbLine
10
51.17605
20
-4.338787
30
0
11
0
21
-4.338787
31
0
39
0
210
0
220
0
230
1
0
LINE
5
6A
100
AcDbEntity
8
1
62
256
6
ByLayer
370
-1
48
1
60
0
100
AcDbLine
10
59.48146
20
-3.55044
30
0
11
65.440333
21
3.5776
31
0
39
0
210
0
220
0
230
1
0
LINE
5
6B
100
AcDbEntity
8
1
62
256
6
ByLayer
370
-1
48
1
60
0
100
AcDbLine
10
68.583741
20
-3.954083
30
0
11
68.551014
21
-3.92474
31
0
39
0
210
0
220
0
230
1
0
LINE
5
6C
100
AcDbEntity
8
1
62
256
6
ByLayer
370
-1
48
1
60
0
100
AcDbLine
10
0
20
4.338787
30
0
11
51.17605
21
4.338787
31
0
39
0
210
0
220
0
230
1
0
LINE
5
6D
100
AcDbEntity
8
1
62
256
6
ByLayer
370
-1
48
1
60
0
100
AcDbLine
10
70.478476
20
7.015654
30
0
11
64.51925
21
-2.981748
31
0
39
0
210
0
220
0
230
1
0
LINE
5
6E
100
AcDbEntity
8
1
62
256
6
ByLayer
370
-1
48
1
60
0
100
AcDbLine
10
63.19888
20
9.685
30
0
11
71.211616
21
7.685311
31
0
39
0
210
0
220
0
230
1
0
LINE
5
6F
100
AcDbEntity
8
1
62
256
6
ByLayer
370
-1
48
1
60
0
100
AcDbLine
10
71.945045
20
7.502274
30
0
11
71.211616
21
7.685311
31
0
39
0
210
0
220
0
230
1
0
LINE
5
70
100
AcDbEntity
8
1
62
256
6
ByLayer
370
-1
48
1
60
0
100
AcDbLine
10
0
20
-4.338787
30
0
11
0
21
-8.50875
31
0
39
0
210
0
220
0
230
1
0
LINE
5
71
100
AcDbEntity
8
1
62
256
6
ByLayer
370
-1
48
1
60
0
100
AcDbLine
10
58.723811
20
-8.50875
30
0
11
51.938171
21
-8.50875
31
0
39
0
210
0
220
0
230
1
0
LINE
5
72
100
AcDbEntity
8
1
62
256
6
ByLayer
370
-1
48
1
60
0
100
AcDbLine
10
51.938171
20
9.675
30
0
11
51.938171
21
3.55044
31
0
39
0
210
0
220
0
230
1
0
LINE
5
73
100
AcDbEntity
8
1
62
256
6
ByLayer
370
-1
48
1
60
0
100
AcDbLine
10
59.890061
20
-9.675
30
0
11
58.723811
21
-8.50875
31
0
39
0
210
0
220
0
230
1
0
LINE
5
74
100
AcDbEntity
8
1
62
256
6
ByLayer
370
-1
48
1
60
0
100
AcDbLine
10
71.945045
20
7.502274
30
0
11
61.745689
21
-9.608513
31
0
39
0
210
0
220
0
230
1
0
LINE
5
75
100
AcDbEntity
8
1
62
256
6
ByLayer
370
-1
48
1
60
0
100
AcDbLine
10
71.945045
20
7.502274
30
0
11
79.362902
21
5.651045
31
0
39
0
210
0
220
0
230
1
0
LINE
5
76
100
AcDbEntity
8
1
62
256
6
ByLayer
370
-1
48
1
60
0
100
AcDbLine
10
51.17605
20
9.99125
30
0
11
51.17605
21
4.338787
31
0
39
0
210
0
220
0
230
1
0
LINE
5
77
100
AcDbEntity
8
1
62
256
6
ByLayer
370
-1
48
1
60
0
100
AcDbLine
10
0
20
-4.338787
30
0
11
0
21
4.338787
31
0
39
0
210
0
220
0
230
1
0
LINE
5
78
100
AcDbEntity
8
1
62
256
6
ByLayer
370
-1
48
1
60
0
100
AcDbLine
10
0
20
-8.50875
30
0
11
51.17605
21
-8.50875
31
0
39
0
210
0
220
0
230
1
0
LINE
5
79
100
AcDbEntity
8
1
62
256
6
ByLayer
370
-1
48
1
60
0
100
AcDbLine
10
63.437441
20
-9.908151
30
0
11
63.437441
21
-9.96077
31
0
39
0
210
0
220
0
230
1
0
LINE
5
7A
100
AcDbEntity
8
1
62
256
6
ByLayer
370
-1
48
1
60
0
100
AcDbLine
10
70.233782
20
-8.544101
30
0
11
70.367318
21
-9.010823
31
0
39
0
210
0
220
0
230
1
0
LINE
5
7B
100
AcDbEntity
8
1
62
256
6
ByLayer
370
-1
48
1
60
0
100
AcDbLine
10
79.362902
20
2.110019
30
0
11
79.362902
21
5.651045
31
0
39
0
210
0
220
0
230
1
0
LINE
5
7C
100
AcDbEntity
8
1
62
256
6
ByLayer
370
-1
48
1
60
0
100
AcDbLine
10
68.771327
20
-3.887517
30
0
11
70.75339
21
-2.772598
31
0
39
0
210
0
220
0
230
1
0
LINE
5
7D
100
AcDbEntity
8
1
62
256
6
ByLayer
370
-1
48
1
60
0
100
AcDbLine
10
51.17605
20
-4.338787
30
0
11
51.17605
21
-8.50875
31
0
39
0
210
0
220
0
230
1
0
LINE
5
7E
100
AcDbEntity
8
1
62
256
6
ByLayer
370
-1
48
1
60
0
100
AcDbLine
10
68.771327
20
-3.887517
30
0
11
68.583741
21
-3.954083
31
0
39
0
210
0
220
0
230
1
0
LINE
5
7F
100
AcDbEntity
8
1
62
256
6
ByLayer
370
-1
48
1
60
0
100
AcDbLine
10
62.824605
20
3.55044
30
0
11
51.938171
21
3.55044
31
0
39
0
210
0
220
0
230
1
0
LINE
5
80
100
AcDbEntity
8
1
62
256
6
ByLayer
370
-1
48
1
60
0
100
AcDbLine
10
51.538171
20
9.78218
30
0
11
51.538171
21
3.832889
31
0
39
0
210
0
220
0
230
1
0
LINE
5
81
100
AcDbEntity
8
1
62
256
6
ByLayer
370
-1
48
1
60
0
100
AcDbLine
10
79.362902
20
2.110019
30
0
11
79.349707
21
2.062865
31
0
39
0
210
0
220
0
230
1
0
LINE
5
82
100
AcDbEntity
8
1
62
256
6
ByLayer
370
-1
48
1
60
0
100
AcDbLine
10
65.440333
20
3.5776
30
0
11
62.9507
21
3.5776
31
0
39
0
210
0
220
0
230
1
0
LINE
5
83
100
AcDbEntity
8
1
62
256
6
ByLayer
370
-1
48
1
60
0
100
AcDbLine
10
70.367318
20
-10.442322
30
0
11
63.895057
21
-10.470565
31
0
39
0
210
0
220
0
230
1
0
LINE
5
84
100
AcDbEntity
8
1
62
256
6
ByLayer
370
-1
48
1
60
0
100
AcDbLine
10
51.938171
20
-3.55044
30
0
11
51.938171
21
-8.50875
31
0
39
0
210
0
220
0
230
1
0
LINE
5
85
100
AcDbEntity
8
1
62
256
6
ByLayer
370
-1
48
1
60
0
100
AcDbLine
10
62.9507
20
9.685
30
0
11
62.9507
21
3.5776
31
0
39
0
210
0
220
0
230
1
0
LINE
5
86
100
AcDbEntity
8
1
62
256
6
ByLayer
370
-1
48
1
60
0
100
AcDbLine
10
51.538171
20
-3.832889
30
0
11
51.538171
21
-8.50875
31
0
39
0
210
0
220
0
230
1
0
LINE
5
87
100
AcDbEntity
8
1
62
256
6
ByLayer
370
-1
48
1
60
0
100
AcDbLine
10
51.938171
20
-3.55044
30
0
11
59.48146
21
-3.55044
31
0
39
0
210
0
220
0
230
1
0
LINE
5
88
100
AcDbEntity
8
1
62
256
6
ByLayer
370
-1
48
1
60
0
100
AcDbLine
10
70.367318
20
-10.442322
30
0
11
70.367318
21
-9.010823
31
0
39
0
210
0
220
0
230
1
0
LINE
5
89
100
AcDbEntity
8
1
62
256
6
ByLayer
370
-1
48
1
60
0
100
AcDbLine
10
79.362902
20
2.110019
30
0
11
68.583741
21
-3.954083
31
0
39
0
210
0
220
0
230
1
0
LINE
5
8A
100
AcDbEntity
8
1
62
256
6
ByLayer
370
-1
48
1
60
0
100
AcDbLine
10
67.815958
20
-6.678267
30
0
11
66.198384
21
-5.783688
31
0
39
0
210
0
220
0
230
1
0
LINE
5
8B
100
AcDbEntity
8
1
62
256
6
ByLayer
370
-1
48
1
60
0
100
AcDbLine
10
76.814554
20
0.636831
30
0
11
79.349707
21
2.062865
31
0
39
0
210
0
220
0
230
1
0
LINE
5
8C
100
AcDbEntity
8
1
62
256
6
ByLayer
370
-1
48
1
60
0
100
AcDbLine
10
70.338016
20
-8.908401
30
0
11
70.338016
21
-8.601765
31
0
39
0
210
0
220
0
230
1
0
LINE
5
8D
100
AcDbEntity
8
SK1
62
256
6
ByLayer
370
-1
48
1
60
0
100
AcDbLine
10
0
20
-4.338787
30
0
11
0
21
-8.50875
31
0
39
0
210
0
220
0
230
1
0
LINE
5
8E
100
AcDbEntity
8
1
62
256
6
ByLayer
370
-1
48
1
60
0
100
AcDbLine
10
70.552353
20
-8.720391
30
0
11
70.628874
21
-9.064112
31
0
39
0
210
0
220
0
230
1
0
LINE
5
8F
100
AcDbEntity
8
1
62
256
6
ByLayer
370
-1
48
1
60
0
100
AcDbLine
10
70.793217
20
-9.421477
30
0
11
70.793217
21
-8.853651
31
0
39
0
210
0
220
0
230
1
0
LINE
5
90
100
AcDbEntity
8
1
62
256
6
ByLayer
370
-1
48
1
60
0
100
AcDbLine
10
70.896633
20
-9.467845
30
0
11
70.896633
21
-8.910817
31
0
39
0
210
0
220
0
230
1
0
LINE
5
91
100
AcDbEntity
8
1
62
256
6
ByLayer
370
-1
48
1
60
0
100
AcDbLine
10
71.122212
20
-9.51945
30
0
11
71.122212
21
-9.035719
31
0
39
0
210
0
220
0
230
1
0
LINE
5
92
100
AcDbEntity
8
1
62
256
6
ByLayer
370
-1
48
1
60
0
100
AcDbLine
10
71.228354
20
-9.54496
30
0
11
71.228354
21
-9.094386
31
0
39
0
210
0
220
0
230
1
0
LINE
5
93
100
AcDbEntity
8
1
62
256
6
ByLayer
370
-1
48
1
60
0
100
AcDbLine
10
71.472367
20
-9.62944
30
0
11
71.472367
21
-9.229475
31
0
39
0
210
0
220
0
230
1
0
LINE
5
94
100
AcDbEntity
8
1
62
256
6
ByLayer
370
-1
48
1
60
0
100
AcDbLine
10
71.657775
20
-9.649778
30
0
11
71.657775
21
-9.332096
31
0
39
0
210
0
220
0
230
1
0
LINE
5
95
100
AcDbEntity
8
1
62
256
6
ByLayer
370
-1
48
1
60
0
100
AcDbLine
10
67.528561
20
-3.877234
30
0
11
67.528561
21
-4.701386
31
0
39
0
210
0
220
0
230
1
0
LINE
5
96
100
AcDbEntity
8
1
62
256
6
ByLayer
370
-1
48
1
60
0
100
AcDbLine
10
71.955223
20
-9.648729
30
0
11
71.657775
21
-9.649778
31
0
39
0
210
0
220
0
230
1
0
LINE
5
97
100
AcDbEntity
8
1
62
256
6
ByLayer
370
-1
48
1
60
0
100
AcDbLine
10
72.13842
20
-9.62709
30
0
11
72.13842
21
-9.598079
31
0
39
0
210
0
220
0
230
1
0
LINE
5
98
100
AcDbEntity
8
1
62
256
6
ByLayer
370
-1
48
1
60
0
100
AcDbLine
10
71.955223
20
-9.648729
30
0
11
71.955223
21
-9.496736
31
0
39
0
210
0
220
0
230
1
0
LINE
5
99
100
AcDbEntity
8
1
62
256
6
ByLayer
370
-1
48
1
60
0
100
AcDbLine
10
67.361842
20
-4.704519
30
0
11
67.361842
21
-3.71643
31
0
39
0
210
0
220
0
230
1
0
LINE
5
9A
100
AcDbEntity
8
1
62
256
6
ByLayer
370
-1
48
1
60
0
100
AcDbLine
10
70.628874
20
-8.76273
30
0
11
70.628874
21
-9.064112
31
0
39
0
210
0
220
0
230
1
0
LINE
5
9B
100
AcDbEntity
8
1
62
256
6
ByLayer
370
-1
48
1
60
0
100
AcDbLine
10
72.128229
20
-2.327518
30
0
11
72.035776
21
-2.404637
31
0
39
0
210
0
220
0
230
1
0
LINE
5
9C
100
AcDbEntity
8
1
62
256
6
ByLayer
370
-1
48
1
60
0
100
AcDbLine
10
69.122019
20
-7.731794
30
0
11
68.94253
21
-7.632466
31
0
39
0
210
0
220
0
230
1
0
LINE
5
9D
100
AcDbEntity
8
1
62
256
6
ByLayer
370
-1
48
1
60
0
100
AcDbLine
10
72.379868
20
-9.722799
30
0
11
72.541521
21
-9.776041
31
0
39
0
210
0
220
0
230
1
0
LINE
5
9E
100
AcDbEntity
8
1
62
256
6
ByLayer
370
-1
48
1
60
0
100
AcDbLine
10
69.693593
20
-3.801621
30
0
11
69.586088
21
-3.938032
31
0
39
0
210
0
220
0
230
1
0
LINE
5
9F
100
AcDbEntity
8
1
62
256
6
ByLayer
370
-1
48
1
60
0
100
AcDbLine
10
79.928288
20
-5.962417
30
0
11
79.928819
21
-5.34555
31
0
39
0
210
0
220
0
230
1
0
LINE
5
A0
100
AcDbEntity
8
1
62
256
6
ByLayer
370
-1
48
1
60
0
100
AcDbLine
10
79.930165
20
-5.174361
30
0
11
79.931745
21
-5.093725
31
0
39
0
210
0
220
0
230
1
0
LINE
5
A1
100
AcDbEntity
8
1
62
256
6
ByLayer
370
-1
48
1
60
0
100
AcDbLine
10
72.858622
20
-1.887095
30
0
11
72.298868
21
-2.210181
31
0
39
0
210
0
220
0
230
1
0
LINE
5
A2
100
AcDbEntity
8
1
62
256
6
ByLayer
370
-1
48
1
60
0
100
AcDbLine
10
76.430596
20
0.267917
30
0
11
76.610085
21
0.368811
31
0
39
0
210
0
220
0
230
1
0
LINE
5
A3
100
AcDbEntity
8
1
62
256
6
ByLayer
370
-1
48
1
60
0
100
AcDbLine
10
73.198175
20
-1.75141
30
0
11
73.031627
21
-1.806084
31
0
39
0
210
0
220
0
230
1
0
LINE
5
A4
100
AcDbEntity
8
1
62
256
6
ByLayer
370
-1
48
1
60
0
100
AcDbLine
10
79.853154
20
-2.431652
30
0
11
79.745649
21
-2.216928
31
0
39
0
210
0
220
0
230
1
0
LINE
5
A5
100
AcDbEntity
8
1
62
256
6
ByLayer
370
-1
48
1
60
0
100
AcDbLine
10
77.450689
20
0.737218
30
0
11
77.434512
21
0.98556
31
0
39
0
210
0
220
0
230
1
0
LINE
5
A6
100
AcDbEntity
8
1
62
256
6
ByLayer
370
-1
48
1
60
0
100
AcDbLine
10
77.308229
20
0.914539
30
0
11
77.321343
21
0.713225
31
0
39
0
210
0
220
0
230
1
0
LINE
5
A7
100
AcDbEntity
8
1
62
256
6
ByLayer
370
-1
48
1
60
0
100
AcDbLine
10
79.829585
20
-1.458615
30
0
11
79.898542
21
-2.517158
31
0
39
0
210
0
220
0
230
1
0
LINE
5
A8
100
AcDbEntity
8
1
62
256
6
ByLayer
370
-1
48
1
60
0
100
AcDbLine
10
79.193975
20
1.598806
30
0
11
79.196014
21
1.595403
31
0
39
0
210
0
220
0
230
1
0
LINE
5
A9
100
AcDbEntity
8
1
62
256
6
ByLayer
370
-1
48
1
60
0
100
AcDbLine
10
79.60651
20
-1.086324
30
0
11
79.829585
21
-1.458615
31
0
39
0
210
0
220
0
230
1
0
LINE
5
AA
100
AcDbEntity
8
1
62
256
6
ByLayer
370
-1
48
1
60
0
100
AcDbLine
10
79.20778
20
0.306869
30
0
11
79.532211
21
-0.234576
31
0
39
0
210
0
220
0
230
1
0
LINE
5
AB
100
AcDbEntity
8
1
62
256
6
ByLayer
370
-1
48
1
60
0
100
AcDbLine
10
72.712485
20
-9.855551
30
0
11
73.2733
21
-10.173746
31
0
39
0
210
0
220
0
230
1
0
LINE
5
AC
100
AcDbEntity
8
1
62
256
6
ByLayer
370
-1
48
1
60
0
100
AcDbLine
10
73.44663
20
-10.289583
30
0
11
73.542244
21
-10.365881
31
0
39
0
210
0
220
0
230
1
0
LINE
5
AD
100
AcDbEntity
8
1
62
256
6
ByLayer
370
-1
48
1
60
0
100
AcDbLine
10
79.919042
20
-9.815383
30
0
11
79.919042
21
-10.015604
31
0
39
0
210
0
220
0
230
1
0
LINE
5
AE
100
AcDbEntity
8
1
62
256
6
ByLayer
370
-1
48
1
60
0
100
AcDbLine
10
79.931756
20
-6.390559
30
0
11
79.929309
21
-6.169933
31
0
39
0
210
0
220
0
230
1
0
LINE
5
AF
100
AcDbEntity
8
1
62
256
6
ByLayer
370
-1
48
1
60
0
100
AcDbLine
10
75.961737
20
-11.611298
30
0
11
76.169005
21
-11.570768
31
0
39
0
210
0
220
0
230
1
0
LINE
5
B0
100
AcDbEntity
8
1
62
256
6
ByLayer
370
-1
48
1
60
0
100
AcDbLine
10
79.921489
20
-9.529285
30
0
11
79.931318
21
-9.197685
31
0
39
0
210
0
220
0
230
1
0
LINE
5
B1
100
AcDbEntity
8
1
62
256
6
ByLayer
370
-1
48
1
60
0
100
AcDbLine
10
79.93236
20
-6.50431
30
0
11
79.93236
21
-9.075466
31
0
39
0
210
0
220
0
230
1
0
LINE
5
B2
100
AcDbEntity
8
1
62
256
6
ByLayer
370
-1
48
1
60
0
100
AcDbLine
10
75.748448
20
-11.595882
30
0
11
73.627836
21
-10.42235
31
0
39
0
210
0
220
0
230
1
0
LINE
5
B3
100
AcDbEntity
8
1
62
256
6
ByLayer
370
-1
48
1
60
0
100
AcDbLine
10
76.789034
20
-11.573057
30
0
11
76.96919
21
-11.828006
31
0
39
0
210
0
220
0
230
1
0
LINE
5
B4
100
AcDbEntity
8
1
62
256
6
ByLayer
370
-1
48
1
60
0
100
AcDbLine
10
77.115241
20
-11.904347
30
0
11
77.764103
21
-11.901515
31
0
39
0
210
0
220
0
230
1
0
LINE
5
B5
100
AcDbEntity
8
1
62
256
6
ByLayer
370
-1
48
1
60
0
100
AcDbLine
10
77.909483
20
-11.823903
30
0
11
77.949438
21
-11.7663
31
0
39
0
210
0
220
0
230
1
0
LINE
5
B6
100
AcDbEntity
8
1
62
256
6
ByLayer
370
-1
48
1
60
0
100
AcDbLine
10
78.054434
20
-11.710247
30
0
11
78.29843
21
-11.709182
31
0
39
0
210
0
220
0
230
1
0
LINE
5
B7
100
AcDbEntity
8
1
62
256
6
ByLayer
370
-1
48
1
60
0
100
AcDbLine
10
78.410286
20
-11.77423
30
0
11
78.852385
21
-12.53241
31
0
39
0
210
0
220
0
230
1
0
LINE
5
B8
100
AcDbEntity
8
1
62
256
6
ByLayer
370
-1
48
1
60
0
100
AcDbLine
10
78.928103
20
-12.576442
30
0
11
78.932181
21
-12.576425
31
0
39
0
210
0
220
0
230
1
0
LINE
5
B9
100
AcDbEntity
8
1
62
256
6
ByLayer
370
-1
48
1
60
0
100
AcDbLine
10
79.922524
20
-10.858581
30
0
11
79.919247
21
-10.107538
31
0
39
0
210
0
220
0
230
1
0
LINE
5
BA
100
AcDbEntity
8
1
62
256
6
ByLayer
370
-1
48
1
60
0
100
AcDbLine
10
79.007512
20
-12.531733
30
0
11
79.887697
21
-10.991523
31
0
39
0
210
0
220
0
230
1
0
LINE
5
BB
100
AcDbEntity
8
1
62
256
6
ByLayer
370
-1
48
1
60
0
100
AcDbLine
10
78.286122
20
-11.361018
30
0
11
78.831184
21
-12.295776
31
0
39
0
210
0
220
0
230
1
0
LINE
5
BC
100
AcDbEntity
8
1
62
256
6
ByLayer
370
-1
48
1
60
0
100
AcDbLine
10
78.788245
20
-10.751119
30
0
11
78.48204
21
-10.942477
31
0
39
0
210
0
220
0
230
1
0
LINE
5
BD
100
AcDbEntity
8
1
62
256
6
ByLayer
370
-1
48
1
60
0
100
AcDbLine
10
79.026647
20
-12.294923
30
0
11
79.563532
21
-11.355444
31
0
39
0
210
0
220
0
230
1
0
LINE
5
BE
100
AcDbEntity
8
1
62
256
6
ByLayer
370
-1
48
1
60
0
100
AcDbLine
10
79.363969
20
-10.938628
30
0
11
79.056106
21
-10.74995
31
0
39
0
210
0
220
0
230
1
0
LINE
5
BF
100
AcDbEntity
8
1
62
256
6
ByLayer
370
-1
48
1
60
0
100
AcDbLine
10
79.132479
20
-6.018472
30
0
11
79.931756
21
-6.390559
31
0
39
0
210
0
220
0
230
1
0
LINE
5
C0
100
AcDbEntity
8
1
62
256
6
ByLayer
370
-1
48
1
60
0
100
AcDbLine
10
79.931318
20
-9.197685
30
0
11
75.961737
21
-11.611298
31
0
39
0
210
0
220
0
230
1
0
LINE
5
C1
100
AcDbEntity
8
1
62
256
6
ByLayer
370
-1
48
1
60
0
100
AcDbLine
10
74.095844
20
-9.404589
30
0
11
73.659511
21
-8.969991
31
0
39
0
210
0
220
0
230
1
0
LINE
5
C2
100
AcDbEntity
8
1
62
256
6
ByLayer
370
-1
48
1
60
0
100
AcDbLine
10
73.542244
20
-10.365881
30
0
11
73.817714
21
-9.942584
31
0
39
0
210
0
220
0
230
1
0
LINE
5
C3
100
AcDbEntity
8
1
62
256
6
ByLayer
370
-1
48
1
60
0
100
AcDbLine
10
73.901269
20
-10.002183
30
0
11
73.627836
21
-10.42235
31
0
39
0
210
0
220
0
230
1
0
LINE
5
C4
100
AcDbEntity
8
1
62
256
6
ByLayer
370
-1
48
1
60
0
100
AcDbLine
10
73.678284
20
-8.953022
30
0
11
74.114616
21
-9.38762
31
0
39
0
210
0
220
0
230
1
0
LINE
5
C5
100
AcDbEntity
8
1
62
256
6
ByLayer
370
-1
48
1
60
0
100
AcDbLine
10
75.769804
20
-11.606412
30
0
11
79.93236
21
-9.075466
31
0
39
0
210
0
220
0
230
1
0
LINE
5
C6
100
AcDbEntity
8
1
62
256
6
ByLayer
370
-1
48
1
60
0
100
AcDbLine
10
79.93236
20
-6.50431
30
0
11
79.090542
21
-6.112419
31
0
39
0
210
0
220
0
230
1
0
LINE
5
C7
100
AcDbEntity
8
1
62
256
6
ByLayer
370
-1
48
1
60
0
100
AcDbLine
10
79.553956
20
-9.77069
30
0
11
79.921489
21
-9.529285
31
0
39
0
210
0
220
0
230
1
0
LINE
5
C8
100
AcDbEntity
8
1
62
256
6
ByLayer
370
-1
48
1
60
0
100
AcDbLine
10
76.169005
20
-11.570768
30
0
11
79.553956
21
-9.77069
31
0
39
0
210
0
220
0
230
1
0
LINE
5
C9
100
AcDbEntity
8
1
62
256
6
ByLayer
370
-1
48
1
60
0
100
AcDbLine
10
79.919247
20
-10.107538
30
0
11
79.689085
21
-10.030844
31
0
39
0
210
0
220
0
230
1
0
LINE
5
CA
100
AcDbEntity
8
1
62
256
6
ByLayer
370
-1
48
1
60
0
100
AcDbLine
10
79.689085
20
-10.030844
30
0
11
76.789034
21
-11.573057
31
0
39
0
210
0
220
0
230
1
0
LINE
5
CB
100
AcDbEntity
8
1
62
256
6
ByLayer
370
-1
48
1
60
0
100
AcDbLine
10
79.716807
20
-9.948216
30
0
11
79.919042
21
-10.015604
31
0
39
0
210
0
220
0
230
1
0
LINE
5
CC
100
AcDbEntity
8
1
62
256
6
ByLayer
370
-1
48
1
60
0
100
AcDbLine
10
79.919042
20
-9.815383
30
0
11
79.716807
21
-9.948216
31
0
39
0
210
0
220
0
230
1
0
LINE
5
CD
100
AcDbEntity
8
1
62
256
6
ByLayer
370
-1
48
1
60
0
100
AcDbLine
10
79.929309
20
-6.169933
30
0
11
79.132479
21
-6.018472
31
0
39
0
210
0
220
0
230
1
0
LINE
5
CE
100
AcDbEntity
8
1
62
256
6
ByLayer
370
-1
48
1
60
0
100
AcDbLine
10
72.712485
20
-9.855551
30
0
11
73.659511
21
-8.969991
31
0
39
0
210
0
220
0
230
1
0
LINE
5
CF
100
AcDbEntity
8
1
62
256
6
ByLayer
370
-1
48
1
60
0
100
AcDbLine
10
73.2733
20
-10.173746
30
0
11
74.095844
21
-9.404589
31
0
39
0
210
0
220
0
230
1
0
LINE
5
D0
100
AcDbEntity
8
1
62
256
6
ByLayer
370
-1
48
1
60
0
100
AcDbLine
10
73.44663
20
-10.289583
30
0
11
73.817714
21
-9.942584
31
0
39
0
210
0
220
0
230
1
0
LINE
5
D1
100
AcDbEntity
8
1
62
256
6
ByLayer
370
-1
48
1
60
0
100
AcDbLine
10
79.32733
20
-11.211686
30
0
11
79.022617
21
-11.744895
31
0
39
0
210
0
220
0
230
1
0
LINE
5
D2
100
AcDbEntity
8
1
62
256
6
ByLayer
370
-1
48
1
60
0
100
AcDbLine
10
78.827154
20
-11.745747
30
0
11
78.5178
21
-11.215219
31
0
39
0
210
0
220
0
230
1
0
LINE
5
D3
100
AcDbEntity
8
1
62
256
6
ByLayer
370
-1
48
1
60
0
100
AcDbLine
10
78.614961
20
-11.158361
30
0
11
78.924316
21
-11.688889
31
0
39
0
210
0
220
0
230
1
0
LINE
5
D4
100
AcDbEntity
8
1
62
256
6
ByLayer
370
-1
48
1
60
0
100
AcDbLine
10
78.924316
20
-11.688889
30
0
11
79.229028
21
-11.155681
31
0
39
0
210
0
220
0
230
1
0
LINE
5
D5
100
AcDbEntity
8
1
62
256
6
ByLayer
370
-1
48
1
60
0
100
AcDbLine
10
78.831184
20
-12.295776
30
0
11
78.827154
21
-11.745747
31
0
39
0
210
0
220
0
230
1
0
LINE
5
D6
100
AcDbEntity
8
1
62
256
6
ByLayer
370
-1
48
1
60
0
100
AcDbLine
10
79.022617
20
-11.744895
30
0
11
79.026647
21
-12.294923
31
0
39
0
210
0
220
0
230
1
0
LINE
5
D7
100
AcDbEntity
8
1
62
256
6
ByLayer
370
-1
48
1
60
0
100
AcDbLine
10
79.229028
20
-11.155681
30
0
11
78.921166
21
-10.967002
31
0
39
0
210
0
220
0
230
1
0
LINE
5
D8
100
AcDbEntity
8
1
62
256
6
ByLayer
370
-1
48
1
60
0
100
AcDbLine
10
79.563532
20
-11.355444
30
0
11
79.32733
21
-11.211686
31
0
39
0
210
0
220
0
230
1
0
LINE
5
D9
100
AcDbEntity
8
1
62
256
6
ByLayer
370
-1
48
1
60
0
100
AcDbLine
10
78.614961
20
-11.158361
30
0
11
78.921166
21
-10.967002
31
0
39
0
210
0
220
0
230
1
0
LINE
5
DA
100
AcDbEntity
8
1
62
256
6
ByLayer
370
-1
48
1
60
0
100
AcDbLine
10
78.286122
20
-11.361018
30
0
11
78.5178
21
-11.215219
31
0
39
0
210
0
220
0
230
1
0
LINE
5
DB
100
AcDbEntity
8
1
62
256
6
ByLayer
370
-1
48
1
60
0
100
AcDbLine
10
69.714195
20
-3.357142
30
0
11
69.73898
21
-3.737622
31
0
39
0
210
0
220
0
230
1
0
LINE
5
DC
100
AcDbEntity
8
1
62
256
6
ByLayer
370
-1
48
1
60
0
100
AcDbLine
10
69.830803
20
-3.653887
30
0
11
69.808034
21
-3.304363
31
0
39
0
210
0
220
0
230
1
0
LINE
5
DD
100
AcDbEntity
8
1
62
256
6
ByLayer
370
-1
48
1
60
0
100
AcDbLine
10
68.287166
20
-4.625804
30
0
11
68.38948
21
-4.454157
31
0
39
0
210
0
220
0
230
1
0
LINE
5
DE
100
AcDbEntity
8
1
62
256
6
ByLayer
370
-1
48
1
60
0
100
AcDbLine
10
67.321429
20
-4.705297
30
0
11
68.176566
21
-4.689057
31
0
39
0
210
0
220
0
230
1
0
LINE
5
DF
100
AcDbEntity
8
1
62
256
6
ByLayer
370
-1
48
1
60
0
100
AcDbLine
10
67.244523
20
-4.751535
30
0
11
67.246562
21
-4.748115
31
0
39
0
210
0
220
0
230
1
0
LINE
5
E0
100
AcDbEntity
8
1
62
256
6
ByLayer
370
-1
48
1
60
0
100
AcDbLine
10
68.459787
20
-5.070784
30
0
11
68.395828
21
-4.088963
31
0
39
0
210
0
220
0
230
1
0
LINE
5
E1
100
AcDbEntity
8
1
62
256
6
ByLayer
370
-1
48
1
60
0
100
AcDbLine
10
68.784218
20
-4.526507
30
0
11
68.743242
21
-3.897498
31
0
39
0
210
0
220
0
230
1
0
LINE
5
E2
100
AcDbEntity
8
1
62
256
6
ByLayer
370
-1
48
1
60
0
100
AcDbLine
10
68.921124
20
-4.434752
30
0
11
68.881441
21
-3.825588
31
0
39
0
210
0
220
0
230
1
0
LINE
5
E3
100
AcDbEntity
8
1
62
256
6
ByLayer
370
-1
48
1
60
0
100
AcDbLine
10
69.225426
20
-4.385487
30
0
11
69.178082
21
-3.658722
31
0
39
0
210
0
220
0
230
1
0
LINE
5
E4
100
AcDbEntity
8
1
62
256
6
ByLayer
370
-1
48
1
60
0
100
AcDbLine
10
69.324563
20
-4.323227
30
0
11
69.277628
21
-3.602725
31
0
39
0
210
0
220
0
230
1
0
LINE
5
E5
100
AcDbEntity
8
1
62
256
6
ByLayer
370
-1
48
1
60
0
100
AcDbLine
10
69.414606
20
-7.929913
30
0
11
69.856952
21
-8.320144
31
0
39
0
210
0
220
0
230
1
0
LINE
5
E6
100
AcDbEntity
8
1
62
256
6
ByLayer
370
-1
48
1
60
0
100
AcDbLine
10
72.286809
20
-9.680235
30
0
11
69.981901
21
-8.404715
31
0
39
0
210
0
220
0
230
1
0
LINE
5
E7
100
AcDbEntity
8
1
62
256
6
ByLayer
370
-1
48
1
60
0
100
AcDbLine
10
69.830803
20
-3.653887
30
0
11
71.951415
21
-2.461847
31
0
39
0
210
0
220
0
230
1
0
LINE
5
E8
100
AcDbEntity
8
1
62
256
6
ByLayer
370
-1
48
1
60
0
100
AcDbLine
10
69.223422
20
-4.385809
30
0
11
68.921124
21
-4.434752
31
0
39
0
210
0
220
0
230
1
0
LINE
5
E9
100
AcDbEntity
8
1
62
256
6
ByLayer
370
-1
48
1
60
0
100
AcDbLine
10
68.784218
20
-4.526507
30
0
11
68.459787
21
-5.070784
31
0
39
0
210
0
220
0
230
1
0
LINE
5
EA
100
AcDbEntity
8
1
62
256
6
ByLayer
370
-1
48
1
60
0
100
AcDbLine
10
68.450978
20
-5.223486
30
0
11
68.478656
21
-5.279945
31
0
39
0
210
0
220
0
230
1
0
LINE
5
EB
100
AcDbEntity
8
1
62
256
6
ByLayer
370
-1
48
1
60
0
100
AcDbLine
10
68.472294
20
-5.39023
30
0
11
68.350296
21
-5.594898
31
0
39
0
210
0
220
0
230
1
0
LINE
5
EC
100
AcDbEntity
8
1
62
256
6
ByLayer
370
-1
48
1
60
0
100
AcDbLine
10
68.239982
20
-5.662541
30
0
11
67.388161
21
-5.729691
31
0
39
0
210
0
220
0
230
1
0
LINE
5
ED
100
AcDbEntity
8
1
62
256
6
ByLayer
370
-1
48
1
60
0
100
AcDbLine
10
67.313487
20
-5.77548
30
0
11
67.311449
21
-5.778901
31
0
39
0
210
0
220
0
230
1
0
LINE
5
EE
100
AcDbEntity
8
1
62
256
6
ByLayer
370
-1
48
1
60
0
100
AcDbLine
10
68.238234
20
-7.294229
30
0
11
68.863134
21
-7.591554
31
0
39
0
210
0
220
0
230
1
0
LINE
5
EF
100
AcDbEntity
8
1
62
256
6
ByLayer
370
-1
48
1
60
0
100
AcDbLine
10
67.310598
20
-5.859814
30
0
11
68.145453
21
-7.211962
31
0
39
0
210
0
220
0
230
1
0
LINE
5
F0
100
AcDbEntity
8
1
62
256
6
ByLayer
370
-1
48
1
60
0
100
AcDbLine
10
68.645416
20
-5.723699
30
0
11
67.595208
21
-5.806488
31
0
39
0
210
0
220
0
230
1
0
LINE
5
F1
100
AcDbEntity
8
1
62
256
6
ByLayer
370
-1
48
1
60
0
100
AcDbLine
10
68.898658
20
-6.387689
30
0
11
68.894072
21
-6.054919
31
0
39
0
210
0
220
0
230
1
0
LINE
5
F2
100
AcDbEntity
8
1
62
256
6
ByLayer
370
-1
48
1
60
0
100
AcDbLine
10
67.497476
20
-5.970446
30
0
11
68.006711
21
-6.795213
31
0
39
0
210
0
220
0
230
1
0
LINE
5
F3
100
AcDbEntity
8
1
62
256
6
ByLayer
370
-1
48
1
60
0
100
AcDbLine
10
68.453108
20
-6.794696
30
0
11
68.764728
21
-6.612375
31
0
39
0
210
0
220
0
230
1
0
LINE
5
F4
100
AcDbEntity
8
1
62
256
6
ByLayer
370
-1
48
1
60
0
100
AcDbLine
10
73.116191
20
-9.23867
30
0
11
72.379868
21
-9.722799
31
0
39
0
210
0
220
0
230
1
0
LINE
5
F5
100
AcDbEntity
8
1
62
256
6
ByLayer
370
-1
48
1
60
0
100
AcDbLine
10
69.856952
20
-8.320144
30
0
11
69.693593
21
-3.801621
31
0
39
0
210
0
220
0
230
1
0
LINE
5
F6
100
AcDbEntity
8
1
62
256
6
ByLayer
370
-1
48
1
60
0
100
AcDbLine
10
72.627363
20
-3.357456
30
0
11
73.23683
21
-3.207996
31
0
39
0
210
0
220
0
230
1
0
LINE
5
F7
100
AcDbEntity
8
1
62
256
6
ByLayer
370
-1
48
1
60
0
100
AcDbLine
10
72.035776
20
-2.404637
30
0
11
72.276427
21
-2.845101
31
0
39
0
210
0
220
0
230
1
0
LINE
5
F8
100
AcDbEntity
8
1
62
256
6
ByLayer
370
-1
48
1
60
0
100
AcDbLine
10
72.190287
20
-2.899055
30
0
11
71.951415
21
-2.461847
31
0
39
0
210
0
220
0
230
1
0
LINE
5
F9
100
AcDbEntity
8
1
62
256
6
ByLayer
370
-1
48
1
60
0
100
AcDbLine
10
73.243169
20
-3.232971
30
0
11
72.633702
21
-3.382431
31
0
39
0
210
0
220
0
230
1
0
LINE
5
FA
100
AcDbEntity
8
1
62
256
6
ByLayer
370
-1
48
1
60
0
100
AcDbLine
10
69.810601
20
-3.66653
30
0
11
69.981901
21
-8.404715
31
0
39
0
210
0
220
0
230
1
0
LINE
5
FB
100
AcDbEntity
8
1
62
256
6
ByLayer
370
-1
48
1
60
0
100
AcDbLine
10
72.286809
20
-9.680235
30
0
11
73.062322
21
-9.170339
31
0
39
0
210
0
220
0
230
1
0
LINE
5
FC
100
AcDbEntity
8
1
62
256
6
ByLayer
370
-1
48
1
60
0
100
AcDbLine
10
69.375139
20
-7.490678
30
0
11
69.414606
21
-7.929913
31
0
39
0
210
0
220
0
230
1
0
LINE
5
FD
100
AcDbEntity
8
1
62
256
6
ByLayer
370
-1
48
1
60
0
100
AcDbLine
10
69.586088
20
-3.938032
30
0
11
69.375139
21
-7.490678
31
0
39
0
210
0
220
0
230
1
0
LINE
5
FE
100
AcDbEntity
8
1
62
256
6
ByLayer
370
-1
48
1
60
0
100
AcDbLine
10
68.863134
20
-7.591554
30
0
11
69.042693
21
-7.429533
31
0
39
0
210
0
220
0
230
1
0
LINE
5
FF
100
AcDbEntity
8
1
62
256
6
ByLayer
370
-1
48
1
60
0
100
AcDbLine
10
69.042693
20
-7.429533
30
0
11
69.223422
21
-4.385809
31
0
39
0
210
0
220
0
230
1
0
LINE
5
100
100
AcDbEntity
8
1
62
256
6
ByLayer
370
-1
48
1
60
0
100
AcDbLine
10
69.100302
20
-7.490105
30
0
11
68.94253
21
-7.632466
31
0
39
0
210
0
220
0
230
1
0
LINE
5
101
100
AcDbEntity
8
1
62
256
6
ByLayer
370
-1
48
1
60
0
100
AcDbLine
10
69.122019
20
-7.731794
30
0
11
69.100302
21
-7.490105
31
0
39
0
210
0
220
0
230
1
0
LINE
5
102
100
AcDbEntity
8
1
62
256
6
ByLayer
370
-1
48
1
60
0
100
AcDbLine
10
72.541521
20
-9.776041
30
0
11
73.116191
21
-9.23867
31
0
39
0
210
0
220
0
230
1
0
LINE
5
103
100
AcDbEntity
8
1
62
256
6
ByLayer
370
-1
48
1
60
0
100
AcDbLine
10
72.298868
20
-2.210181
30
0
11
72.627363
21
-3.357456
31
0
39
0
210
0
220
0
230
1
0
LINE
5
104
100
AcDbEntity
8
1
62
256
6
ByLayer
370
-1
48
1
60
0
100
AcDbLine
10
72.128229
20
-2.327518
30
0
11
72.276427
21
-2.845101
31
0
39
0
210
0
220
0
230
1
0
LINE
5
105
100
AcDbEntity
8
1
62
256
6
ByLayer
370
-1
48
1
60
0
100
AcDbLine
10
68.220083
20
-6.618861
30
0
11
67.931063
21
-6.150758
31
0
39
0
210
0
220
0
230
1
0
LINE
5
106
100
AcDbEntity
8
1
62
256
6
ByLayer
370
-1
48
1
60
0
100
AcDbLine
10
68.028794
20
-5.986801
30
0
11
68.624848
21
-5.939813
31
0
39
0
210
0
220
0
230
1
0
LINE
5
107
100
AcDbEntity
8
1
62
256
6
ByLayer
370
-1
48
1
60
0
100
AcDbLine
10
68.618152
20
-6.03669
30
0
11
68.022099
21
-6.083677
31
0
39
0
210
0
220
0
230
1
0
LINE
5
108
100
AcDbEntity
8
1
62
256
6
ByLayer
370
-1
48
1
60
0
100
AcDbLine
10
68.022099
20
-6.083677
30
0
11
68.311119
21
-6.55178
31
0
39
0
210
0
220
0
230
1
0
LINE
5
109
100
AcDbEntity
8
1
62
256
6
ByLayer
370
-1
48
1
60
0
100
AcDbLine
10
67.595208
20
-5.806488
30
0
11
68.028794
21
-5.986801
31
0
39
0
210
0
220
0
230
1
0
LINE
5
10A
100
AcDbEntity
8
1
62
256
6
ByLayer
370
-1
48
1
60
0
100
AcDbLine
10
67.931063
20
-6.150758
30
0
11
67.497476
21
-5.970446
31
0
39
0
210
0
220
0
230
1
0
LINE
5
10B
100
AcDbEntity
8
1
62
256
6
ByLayer
370
-1
48
1
60
0
100
AcDbLine
10
68.311119
20
-6.55178
30
0
11
68.622739
21
-6.36946
31
0
39
0
210
0
220
0
230
1
0
LINE
5
10C
100
AcDbEntity
8
1
62
256
6
ByLayer
370
-1
48
1
60
0
100
AcDbLine
10
68.006711
20
-6.795213
30
0
11
68.220083
21
-6.618861
31
0
39
0
210
0
220
0
230
1
0
LINE
5
10D
100
AcDbEntity
8
1
62
256
6
ByLayer
370
-1
48
1
60
0
100
AcDbLine
10
68.618152
20
-6.03669
30
0
11
68.622739
21
-6.36946
31
0
39
0
210
0
220
0
230
1
0
LINE
5
10E
100
AcDbEntity
8
1
62
256
6
ByLayer
370
-1
48
1
60
0
100
AcDbLine
10
68.645416
20
-5.723699
30
0
11
68.624848
21
-5.939813
31
0
39
0
210
0
220
0
230
1
0
LINE
5
10F
100
AcDbEntity
8
1
62
256
6
ByLayer
370
-1
48
1
60
0
100
AcDbLine
10
67.311449
20
-5.778901
30
0
11
67.244523
21
-4.751535
31
0
39
0
210
0
220
0
230
1
0
LINE
5
110
100
AcDbEntity
8
1
62
256
6
ByLayer
370
-1
48
1
60
0
100
AcDbLine
10
67.313487
20
-5.77548
30
0
11
67.246562
21
-4.748115
31
0
39
0
210
0
220
0
230
1
0
LINE
5
111
100
AcDbEntity
8
1
62
256
6
ByLayer
370
-1
48
1
60
0
100
AcDbLine
10
67.388161
20
-5.729691
30
0
11
67.321429
21
-4.705297
31
0
39
0
210
0
220
0
230
1
0
LINE
5
112
100
AcDbEntity
8
1
62
256
6
ByLayer
370
-1
48
1
60
0
100
AcDbLine
10
68.239982
20
-5.662541
30
0
11
68.176566
21
-4.689057
31
0
39
0
210
0
220
0
230
1
0
LINE
5
113
100
AcDbEntity
8
1
62
256
6
ByLayer
370
-1
48
1
60
0
100
AcDbLine
10
68.350296
20
-5.594898
30
0
11
68.287166
21
-4.625804
31
0
39
0
210
0
220
0
230
1
0
LINE
5
114
100
AcDbEntity
8
1
62
256
6
ByLayer
370
-1
48
1
60
0
100
AcDbLine
10
68.472294
20
-5.39023
30
0
11
68.463033
21
-5.248076
31
0
39
0
210
0
220
0
230
1
0
LINE
5
115
100
AcDbEntity
8
1
62
256
6
ByLayer
370
-1
48
1
60
0
100
AcDbLine
10
68.395828
20
-4.088963
30
0
11
68.508401
21
-3.900107
31
0
39
0
210
0
220
0
230
1
0
LINE
5
116
100
AcDbEntity
8
1
62
256
6
ByLayer
370
-1
48
1
60
0
100
AcDbLine
10
79.484125
20
-1.737446
30
0
11
79.476911
21
-1.626705
31
0
39
0
210
0
220
0
230
1
0
LINE
5
117
100
AcDbEntity
8
1
62
256
6
ByLayer
370
-1
48
1
60
0
100
AcDbLine
10
76.142903
20
0.067265
30
0
11
75.720214
21
-0.326741
31
0
39
0
210
0
220
0
230
1
0
LINE
5
118
100
AcDbEntity
8
1
62
256
6
ByLayer
370
-1
48
1
60
0
100
AcDbLine
10
73.292442
20
-1.708029
30
0
11
75.597349
21
-0.412393
31
0
39
0
210
0
220
0
230
1
0
LINE
5
119
100
AcDbEntity
8
1
62
256
6
ByLayer
370
-1
48
1
60
0
100
AcDbLine
10
79.93236
20
-2.642805
30
0
11
79.93236
21
-5.008377
31
0
39
0
210
0
220
0
230
1
0
LINE
5
11A
100
AcDbEntity
8
1
62
256
6
ByLayer
370
-1
48
1
60
0
100
AcDbLine
10
79.478818
20
-1.621531
30
0
11
79.604308
21
-1.369025
31
0
39
0
210
0
220
0
230
1
0
LINE
5
11B
100
AcDbEntity
8
1
62
256
6
ByLayer
370
-1
48
1
60
0
100
AcDbLine
10
79.59617
20
-1.216396
30
0
11
79.271739
21
-0.674951
31
0
39
0
210
0
220
0
230
1
0
LINE
5
11C
100
AcDbEntity
8
1
62
256
6
ByLayer
370
-1
48
1
60
0
100
AcDbLine
10
79.134162
20
-0.584394
30
0
11
79.065776
21
-0.573998
31
0
39
0
210
0
220
0
230
1
0
LINE
5
11D
100
AcDbEntity
8
1
62
256
6
ByLayer
370
-1
48
1
60
0
100
AcDbLine
10
78.966415
20
-0.508596
30
0
11
78.844417
21
-0.304993
31
0
39
0
210
0
220
0
230
1
0
LINE
5
11E
100
AcDbEntity
8
1
62
256
6
ByLayer
370
-1
48
1
60
0
100
AcDbLine
10
78.843731
20
-0.18547
30
0
11
79.263403
21
0.48713
31
0
39
0
210
0
220
0
230
1
0
LINE
5
11F
100
AcDbEntity
8
1
62
256
6
ByLayer
370
-1
48
1
60
0
100
AcDbLine
10
79.26294
20
0.568038
30
0
11
79.260901
21
0.57144
31
0
39
0
210
0
220
0
230
1
0
LINE
5
120
100
AcDbEntity
8
1
62
256
6
ByLayer
370
-1
48
1
60
0
100
AcDbLine
10
77.321343
20
0.713225
30
0
11
76.68989
21
0.410418
31
0
39
0
210
0
220
0
230
1
0
LINE
5
121
100
AcDbEntity
8
1
62
256
6
ByLayer
370
-1
48
1
60
0
100
AcDbLine
10
79.18584
20
0.616576
30
0
11
77.450689
21
0.737218
31
0
39
0
210
0
220
0
230
1
0
LINE
5
122
100
AcDbEntity
8
1
62
256
6
ByLayer
370
-1
48
1
60
0
100
AcDbLine
10
78.557047
20
-0.454388
30
0
11
79.074459
21
0.374859
31
0
39
0
210
0
220
0
230
1
0
LINE
5
123
100
AcDbEntity
8
1
62
256
6
ByLayer
370
-1
48
1
60
0
100
AcDbLine
10
77.793727
20
-0.27819
30
0
11
78.107005
21
-0.457783
31
0
39
0
210
0
220
0
230
1
0
LINE
5
124
100
AcDbEntity
8
1
62
256
6
ByLayer
370
-1
48
1
60
0
100
AcDbLine
10
78.976728
20
0.537963
30
0
11
77.918341
21
0.611551
31
0
39
0
210
0
220
0
230
1
0
LINE
5
125
100
AcDbEntity
8
1
62
256
6
ByLayer
370
-1
48
1
60
0
100
AcDbLine
10
77.666041
20
0.278145
30
0
11
77.659796
21
-0.054672
31
0
39
0
210
0
220
0
230
1
0
LINE
5
126
100
AcDbEntity
8
1
62
256
6
ByLayer
370
-1
48
1
60
0
100
AcDbLine
10
73.261129
20
-2.607626
30
0
11
73.198175
21
-1.75141
31
0
39
0
210
0
220
0
230
1
0
LINE
5
127
100
AcDbEntity
8
1
62
256
6
ByLayer
370
-1
48
1
60
0
100
AcDbLine
10
75.720214
20
-0.326741
30
0
11
79.853154
21
-2.431652
31
0
39
0
210
0
220
0
230
1
0
LINE
5
128
100
AcDbEntity
8
1
62
256
6
ByLayer
370
-1
48
1
60
0
100
AcDbLine
10
78.788289
20
-5.128759
30
0
11
78.615154
21
-5.712817
31
0
39
0
210
0
220
0
230
1
0
LINE
5
129
100
AcDbEntity
8
1
62
256
6
ByLayer
370
-1
48
1
60
0
100
AcDbLine
10
79.931745
20
-5.093725
30
0
11
79.415624
21
-5.076557
31
0
39
0
210
0
220
0
230
1
0
LINE
5
12A
100
AcDbEntity
8
1
62
256
6
ByLayer
370
-1
48
1
60
0
100
AcDbLine
10
79.420056
20
-4.991335
30
0
11
79.93236
21
-5.008377
31
0
39
0
210
0
220
0
230
1
0
LINE
5
12B
100
AcDbEntity
8
1
62
256
6
ByLayer
370
-1
48
1
60
0
100
AcDbLine
10
78.590158
20
-5.706581
30
0
11
78.763292
21
-5.122523
31
0
39
0
210
0
220
0
230
1
0
LINE
5
12C
100
AcDbEntity
8
1
62
256
6
ByLayer
370
-1
48
1
60
0
100
AcDbLine
10
79.931206
20
-2.619631
30
0
11
75.597349
21
-0.412393
31
0
39
0
210
0
220
0
230
1
0
LINE
5
12D
100
AcDbEntity
8
1
62
256
6
ByLayer
370
-1
48
1
60
0
100
AcDbLine
10
73.292442
20
-1.708029
30
0
11
73.358747
21
-2.609816
31
0
39
0
210
0
220
0
230
1
0
LINE
5
12E
100
AcDbEntity
8
1
62
256
6
ByLayer
370
-1
48
1
60
0
100
AcDbLine
10
76.548278
20
-0.105635
30
0
11
76.142903
21
0.067265
31
0
39
0
210
0
220
0
230
1
0
LINE
5
12F
100
AcDbEntity
8
1
62
256
6
ByLayer
370
-1
48
1
60
0
100
AcDbLine
10
79.745649
20
-2.216928
30
0
11
76.548278
21
-0.105635
31
0
39
0
210
0
220
0
230
1
0
LINE
5
130
100
AcDbEntity
8
1
62
256
6
ByLayer
370
-1
48
1
60
0
100
AcDbLine
10
76.68989
20
0.410418
30
0
11
76.739476
21
0.187316
31
0
39
0
210
0
220
0
230
1
0
LINE
5
131
100
AcDbEntity
8
1
62
256
6
ByLayer
370
-1
48
1
60
0
100
AcDbLine
10
76.739476
20
0.187316
30
0
11
79.478818
21
-1.621531
31
0
39
0
210
0
220
0
230
1
0
LINE
5
132
100
AcDbEntity
8
1
62
256
6
ByLayer
370
-1
48
1
60
0
100
AcDbLine
10
76.653654
20
0.172779
30
0
11
76.610085
21
0.368811
31
0
39
0
210
0
220
0
230
1
0
LINE
5
133
100
AcDbEntity
8
1
62
256
6
ByLayer
370
-1
48
1
60
0
100
AcDbLine
10
76.430596
20
0.267917
30
0
11
76.653654
21
0.172779
31
0
39
0
210
0
220
0
230
1
0
LINE
5
134
100
AcDbEntity
8
1
62
256
6
ByLayer
370
-1
48
1
60
0
100
AcDbLine
10
73.031627
20
-1.806084
30
0
11
73.261129
21
-2.607626
31
0
39
0
210
0
220
0
230
1
0
LINE
5
135
100
AcDbEntity
8
1
62
256
6
ByLayer
370
-1
48
1
60
0
100
AcDbLine
10
72.858622
20
-1.887095
30
0
11
73.23683
21
-3.207996
31
0
39
0
210
0
220
0
230
1
0
LINE
5
136
100
AcDbEntity
8
1
62
256
6
ByLayer
370
-1
48
1
60
0
100
AcDbLine
10
79.928288
20
-5.962417
30
0
11
78.615154
21
-5.712817
31
0
39
0
210
0
220
0
230
1
0
LINE
5
137
100
AcDbEntity
8
1
62
256
6
ByLayer
370
-1
48
1
60
0
100
AcDbLine
10
79.928819
20
-5.34555
30
0
11
78.788289
21
-5.128759
31
0
39
0
210
0
220
0
230
1
0
LINE
5
138
100
AcDbEntity
8
1
62
256
6
ByLayer
370
-1
48
1
60
0
100
AcDbLine
10
79.930165
20
-5.174361
30
0
11
79.415624
21
-5.076557
31
0
39
0
210
0
220
0
230
1
0
LINE
5
139
100
AcDbEntity
8
1
62
256
6
ByLayer
370
-1
48
1
60
0
100
AcDbLine
10
77.934387
20
0.395597
30
0
11
78.535082
21
0.353832
31
0
39
0
210
0
220
0
230
1
0
LINE
5
13A
100
AcDbEntity
8
1
62
256
6
ByLayer
370
-1
48
1
60
0
100
AcDbLine
10
78.632813
20
0.190727
30
0
11
78.339152
21
-0.279918
31
0
39
0
210
0
220
0
230
1
0
LINE
5
13B
100
AcDbEntity
8
1
62
256
6
ByLayer
370
-1
48
1
60
0
100
AcDbLine
10
78.246975
20
-0.213637
30
0
11
78.540636
21
0.257008
31
0
39
0
210
0
220
0
230
1
0
LINE
5
13C
100
AcDbEntity
8
1
62
256
6
ByLayer
370
-1
48
1
60
0
100
AcDbLine
10
78.540636
20
0.257008
30
0
11
77.939942
21
0.298774
31
0
39
0
210
0
220
0
230
1
0
LINE
5
13D
100
AcDbEntity
8
1
62
256
6
ByLayer
370
-1
48
1
60
0
100
AcDbLine
10
79.074459
20
0.374859
30
0
11
78.632813
21
0.190727
31
0
39
0
210
0
220
0
230
1
0
LINE
5
13E
100
AcDbEntity
8
1
62
256
6
ByLayer
370
-1
48
1
60
0
100
AcDbLine
10
78.535082
20
0.353832
30
0
11
78.976728
21
0.537963
31
0
39
0
210
0
220
0
230
1
0
LINE
5
13F
100
AcDbEntity
8
1
62
256
6
ByLayer
370
-1
48
1
60
0
100
AcDbLine
10
77.939942
20
0.298774
30
0
11
77.933697
21
-0.034044
31
0
39
0
210
0
220
0
230
1
0
LINE
5
140
100
AcDbEntity
8
1
62
256
6
ByLayer
370
-1
48
1
60
0
100
AcDbLine
10
77.918341
20
0.611551
30
0
11
77.934387
21
0.395597
31
0
39
0
210
0
220
0
230
1
0
LINE
5
141
100
AcDbEntity
8
1
62
256
6
ByLayer
370
-1
48
1
60
0
100
AcDbLine
10
78.246975
20
-0.213637
30
0
11
77.933697
21
-0.034044
31
0
39
0
210
0
220
0
230
1
0
LINE
5
142
100
AcDbEntity
8
1
62
256
6
ByLayer
370
-1
48
1
60
0
100
AcDbLine
10
78.557047
20
-0.454388
30
0
11
78.339152
21
-0.279918
31
0
39
0
210
0
220
0
230
1
0
LINE
5
143
100
AcDbEntity
8
1
62
256
6
ByLayer
370
-1
48
1
60
0
100
AcDbLine
10
79.18584
20
0.616576
30
0
11
79.119108
21
1.64097
31
0
39
0
210
0
220
0
230
1
0
LINE
5
144
100
AcDbEntity
8
1
62
256
6
ByLayer
370
-1
48
1
60
0
100
AcDbLine
10
79.260901
20
0.57144
30
0
11
79.193975
21
1.598806
31
0
39
0
210
0
220
0
230
1
0
LINE
5
145
100
AcDbEntity
8
1
62
256
6
ByLayer
370
-1
48
1
60
0
100
AcDbLine
10
79.26294
20
0.568038
30
0
11
79.196014
21
1.595403
31
0
39
0
210
0
220
0
230
1
0
LINE
5
146
100
AcDbEntity
8
1
62
256
6
ByLayer
370
-1
48
1
60
0
100
AcDbLine
10
78.844417
20
-0.304993
30
0
11
78.83739
21
-0.197135
31
0
39
0
210
0
220
0
230
1
0
LINE
5
147
100
AcDbEntity
8
1
62
256
6
ByLayer
370
-1
48
1
60
0
100
AcDbLine
10
78.966415
20
-0.508596
30
0
11
78.935757
21
-0.037979
31
0
39
0
210
0
220
0
230
1
0
LINE
5
148
100
AcDbEntity
8
1
62
256
6
ByLayer
370
-1
48
1
60
0
100
AcDbLine
10
79.065776
20
-0.573998
30
0
11
79.021869
21
0.100013
31
0
39
0
210
0
220
0
230
1
0
LINE
5
149
100
AcDbEntity
8
1
62
256
6
ByLayer
370
-1
48
1
60
0
100
AcDbLine
10
79.134162
20
-0.584394
30
0
11
79.083176
21
0.19828
31
0
39
0
210
0
220
0
230
1
0
LINE
5
14A
100
AcDbEntity
8
1
62
256
6
ByLayer
370
-1
48
1
60
0
100
AcDbLine
10
79.271739
20
-0.674951
30
0
11
79.20778
21
0.306869
31
0
39
0
210
0
220
0
230
1
0
LINE
5
14B
100
AcDbEntity
8
1
62
256
6
ByLayer
370
-1
48
1
60
0
100
AcDbLine
10
79.59617
20
-1.216396
30
0
11
79.532211
21
-0.234576
31
0
39
0
210
0
220
0
230
1
0
LINE
5
14C
100
AcDbEntity
8
1
62
256
6
ByLayer
370
-1
48
1
60
0
100
AcDbLine
10
78.608973
20
1.646206
30
0
11
79.119108
21
1.64097
31
0
39
0
210
0
220
0
230
1
0
LINE
5
14D
100
AcDbEntity
8
1
62
256
6
ByLayer
370
-1
48
1
60
0
100
AcDbLine
10
79.986875
20
1.093496
30
0
11
80.033149
21
1.093269
31
0
39
0
210
0
220
0
230
1
0
LINE
5
14E
100
AcDbEntity
8
1
62
256
6
ByLayer
370
-1
48
1
60
0
100
AcDbLine
10
80.015376
20
2.839087
30
0
11
80.017383
21
2.839077
31
0
39
0
210
0
220
0
230
1
0
LINE
5
14F
100
AcDbEntity
8
1
62
256
6
ByLayer
370
-1
48
1
60
0
100
AcDbLine
10
79.982057
20
1.732875
30
0
11
80.032411
21
1.732627
31
0
39
0
210
0
220
0
230
1
0
LINE
5
150
100
AcDbEntity
8
1
62
256
6
ByLayer
370
-1
48
1
60
0
100
AcDbLine
10
79.982055
20
1.734158
30
0
11
80.045218
21
1.733848
31
0
39
0
210
0
220
0
230
1
0
LINE
5
151
100
AcDbEntity
8
1
62
256
6
ByLayer
370
-1
48
1
60
0
100
AcDbLine
10
79.986623
20
1.104781
30
0
11
80.02058
21
1.104614
31
0
39
0
210
0
220
0
230
1
0
LINE
5
152
100
AcDbEntity
8
1
62
256
6
ByLayer
370
-1
48
1
60
0
100
AcDbLine
10
73.700269
20
-6.011034
30
0
11
73.727244
21
-6.392796
31
0
39
0
210
0
220
0
230
1
0
LINE
5
153
100
AcDbEntity
8
1
62
256
6
ByLayer
370
-1
48
1
60
0
100
AcDbLine
10
74.763435
20
-7.032915
30
0
11
74.79041
21
-7.414677
31
0
39
0
210
0
220
0
230
1
0
LINE
5
154
100
AcDbEntity
8
1
62
256
6
ByLayer
370
-1
48
1
60
0
100
AcDbLine
10
74.757025
20
-7.051676
30
0
11
74.763435
21
-7.032915
31
0
39
0
210
0
220
0
230
1
0
LINE
5
155
100
AcDbEntity
8
1
62
256
6
ByLayer
370
-1
48
1
60
0
100
AcDbLine
10
75.541372
20
-7.029232
30
0
11
75.547782
21
-7.047934
31
0
39
0
210
0
220
0
230
1
0
LINE
5
156
100
AcDbEntity
8
1
62
256
6
ByLayer
370
-1
48
1
60
0
100
AcDbLine
10
74.757025
20
-7.051676
30
0
11
74.784215
21
-7.436485
31
0
39
0
210
0
220
0
230
1
0
LINE
5
157
100
AcDbEntity
8
1
62
256
6
ByLayer
370
-1
48
1
60
0
100
AcDbLine
10
75.541372
20
-7.029232
30
0
11
75.568347
21
-7.410995
31
0
39
0
210
0
220
0
230
1
0
LINE
5
158
100
AcDbEntity
8
1
62
256
6
ByLayer
370
-1
48
1
60
0
100
AcDbLine
10
75.547782
20
-7.047934
30
0
11
75.574972
21
-7.432742
31
0
39
0
210
0
220
0
230
1
0
LINE
5
159
100
AcDbEntity
8
1
62
256
6
ByLayer
370
-1
48
1
60
0
100
AcDbLine
10
76.604538
20
-5.997287
30
0
11
76.624534
21
-6.001195
31
0
39
0
210
0
220
0
230
1
0
LINE
5
15A
100
AcDbEntity
8
1
62
256
6
ByLayer
370
-1
48
1
60
0
100
AcDbLine
10
73.680273
20
-6.01513
30
0
11
73.707463
21
-6.399939
31
0
39
0
210
0
220
0
230
1
0
LINE
5
15B
100
AcDbEntity
8
1
62
256
6
ByLayer
370
-1
48
1
60
0
100
AcDbLine
10
76.604538
20
-5.997287
30
0
11
76.631512
21
-6.379049
31
0
39
0
210
0
220
0
230
1
0
LINE
5
15C
100
AcDbEntity
8
1
62
256
6
ByLayer
370
-1
48
1
60
0
100
AcDbLine
10
76.624534
20
-6.001195
30
0
11
76.651724
21
-6.386004
31
0
39
0
210
0
220
0
230
1
0
LINE
5
15D
100
AcDbEntity
8
1
62
256
6
ByLayer
370
-1
48
1
60
0
100
AcDbLine
10
73.680273
20
-6.01513
30
0
11
73.700269
21
-6.011034
31
0
39
0
210
0
220
0
230
1
0
LINE
5
15E
100
AcDbEntity
8
1
62
256
6
ByLayer
370
-1
48
1
60
0
100
AcDbLine
10
74.106645
20
-4.852588
30
0
11
74.116212
21
-4.987994
31
0
39
0
210
0
220
0
230
1
0
LINE
5
15F
100
AcDbEntity
8
1
62
256
6
ByLayer
370
-1
48
1
60
0
100
AcDbLine
10
76.230266
20
-4.804168
30
0
11
76.242544
21
-4.977929
31
0
39
0
210
0
220
0
230
1
0
LINE
5
160
100
AcDbEntity
8
1
62
256
6
ByLayer
370
-1
48
1
60
0
100
AcDbLine
10
76.246621
20
-4.828553
30
0
11
76.256345
21
-4.966183
31
0
39
0
210
0
220
0
230
1
0
LINE
5
161
100
AcDbEntity
8
1
62
256
6
ByLayer
370
-1
48
1
60
0
100
AcDbLine
10
74.09592
20
-4.878418
30
0
11
74.102841
21
-4.976376
31
0
39
0
210
0
220
0
230
1
0
LINE
5
162
100
AcDbEntity
8
SK1
62
256
6
ByLayer
370
-1
48
1
60
0
100
AcDbLine
10
-169.32
20
9.99125
30
0
11
-169.32
21
4.338787
31
0
39
0
210
0
220
0
230
1
0
LINE
5
163
100
AcDbEntity
8
SK1
62
256
6
ByLayer
370
-1
48
1
60
0
100
AcDbLine
10
-171.32
20
0
30
0
11
-171.32
21
-7.99125
31
0
39
0
210
0
220
0
230
1
0
LINE
5
164
100
AcDbEntity
8
SK1
62
256
6
ByLayer
370
-1
48
1
60
0
100
AcDbLine
10
-171.32
20
7.99125
30
0
11
-171.32
21
0
31
0
39
0
210
0
220
0
230
1
0
LINE
5
165
100
AcDbEntity
8
1
62
256
6
ByLayer
370
-1
48
1
60
0
100
AcDbLine
10
67.853701
20
-3.694815
30
0
11
67.528561
21
-3.877234
31
0
39
0
210
0
220
0
230
1
0
LINE
5
166
100
AcDbEntity
8
SK1
62
256
6
ByLayer
370
-1
48
1
60
0
100
AcDbLine
10
0
20
4.338787
30
0
11
0
21
9.99125
31
0
39
0
210
0
220
0
230
1
0
LINE
5
167
100
AcDbEntity
8
SK1
62
256
6
ByLayer
370
-1
48
1
60
0
100
AcDbLine
10
0
20
-4.338787
30
0
11
0
21
4.338787
31
0
39
0
210
0
220
0
230
1
0
LINE
5
168
100
AcDbEntity
8
SK1
62
256
6
ByLayer
370
-1
48
1
60
0
100
AcDbLine
10
-169.32
20
-4.338787
30
0
11
-169.32
21
-8.50875
31
0
39
0
210
0
220
0
230
1
0
LINE
5
169
100
AcDbEntity
8
SK1
62
256
6
ByLayer
370
-1
48
1
60
0
100
AcDbLine
10
-169.32
20
4.338787
30
0
11
0
21
4.338787
31
0
39
0
210
0
220
0
230
1
0
LINE
5
16A
100
AcDbEntity
8
SK1
62
256
6
ByLayer
370
-1
48
1
60
0
100
AcDbLine
10
-169.32
20
-8.50875
30
0
11
0
21
-8.50875
31
0
39
0
210
0
220
0
230
1
0
LINE
5
16B
100
AcDbEntity
8
SK1
62
256
6
ByLayer
370
-1
48
1
60
0
100
AcDbLine
10
0
20
-4.338787
30
0
11
-169.32
21
-4.338787
31
0
39
0
210
0
220
0
230
1
0
MTEXT
5
288
100
AcDbEntity
8
SK6
62
256
6
ByLayer
370
-1
48
1
60
0
100
AcDbMText
10
-44.82
20
22.350734
30
0
210
0
220
0
230
1
1
\W00.717;\fsimplex.shx,bigfont.shx;266LKF-20-16 
40
3.5
41
0
44
1.084337
50
0
71
7
72
5
7
DEFAULT
0
DIMENSION
5
2BB
100
AcDbEntity
8
2
62
256
6
ByLayer
370
-3
48
1
60
0
100
AcDbDimension
2
DimnDraft3D1
10
79.93
20
-28.125
30
0
11
63.197958
21
-28.125
31
0
70
32
71
5
72
1
41
1
210
0
220
0
230
1
3
Standard
100
AcDbAlignedDimension
13
51.723811
23
-15.375
33
0
14
79.93
24
-15.375
34
0
50
0
100
AcDbRotatedDimension
1001
ACAD
1000
DSTYLE
1002
{
1070
   279
1070
     0
1070
   172
1070
     1
1070
   173
1070
     1
1070
   340
1005
289
1070
   271
1070
     3
1070
   272
1070
     3
1070
    77
1070
     1
1070
    73
1070
     0
1070
   171
1070
     4
1070
   274
1070
     4
1070
   177
1070
     2
1070
   176
1070
     2
1070
   178
1070
     7
1070
    78
1070
     8
1070
    41
1041
3.0
1070
   147
1041
2.25
1070
    42
1041
1.5
1070
    44
1041
3.0
1070
   140
1041
4.5
1070
   343
1005
2BC
1070
   344
1005
2BC
1002
}
0
DIMENSION
5
2D1
100
AcDbEntity
8
SK2
62
256
6
ByLayer
370
-3
48
1
60
0
100
AcDbDimension
2
DimnDraft3D2
10
-171.32
20
-38.125
30
0
11
-49.413421
21
-38.125
31
0
70
32
71
5
72
1
41
1
210
0
220
0
230
1
3
Standard
100
AcDbAlignedDimension
13
79.93
23
-15.375
33
0
14
-171.32
24
-1.5
34
0
50
0
100
AcDbRotatedDimension
1001
ACAD
1000
DSTYLE
1002
{
1070
   279
1070
     0
1070
   172
1070
     1
1070
   173
1070
     1
1070
   340
1005
289
1070
   271
1070
     3
1070
   272
1070
     3
1070
    77
1070
     1
1070
    73
1070
     0
1070
   171
1070
     4
1070
   274
1070
     4
1070
   177
1070
     2
1070
   176
1070
     2
1070
   178
1070
     7
1070
    78
1070
     8
1070
    41
1041
3.0
1070
   147
1041
2.25
1070
    42
1041
1.5
1070
    44
1041
3.0
1070
   140
1041
4.5
1070
   343
1005
2BC
1070
   344
1005
2BC
1002
}
0
DIMENSION
5
2DF
100
AcDbEntity
8
2
62
256
6
ByLayer
370
-3
48
1
60
0
100
AcDbDimension
2
DimnDraft3D3
10
94.18
20
-13.875
30
0
11
94.18
21
-9.240789
31
0
70
32
71
5
72
1
41
1
210
0
220
0
230
1
3
Standard
100
AcDbAlignedDimension
13
86.43
23
0
33
0
14
81.43
24
-13.875
34
0
50
90
100
AcDbRotatedDimension
1001
ACAD
1000
DSTYLE
1002
{
1070
    74
1070
     0
1070
   279
1070
     0
1070
   172
1070
     1
1070
   173
1070
     1
1070
   340
1005
289
1070
   271
1070
     3
1070
   272
1070
     3
1070
    77
1070
     1
1070
    73
1070
     0
1070
   171
1070
     4
1070
   274
1070
     4
1070
   177
1070
     2
1070
   176
1070
     2
1070
   178
1070
     7
1070
    78
1070
     8
1070
    41
1041
3.0
1070
   147
1041
2.25
1070
    42
1041
1.5
1070
    44
1041
3.0
1070
   140
1041
4.5
1070
   343
1005
2BC
1070
   344
1005
2BC
1002
}
0
DIMENSION
5
2ED
100
AcDbEntity
8
SK2
62
256
6
ByLayer
370
-3
48
1
60
0
100
AcDbDimension
2
DimnDraft3D4
10
-181.07
20
9.99125
30
0
11
-181.07
21
-4.784211
31
0
70
32
71
5
72
1
41
1
210
0
220
0
230
1
3
Standard
100
AcDbAlignedDimension
13
-172.82
23
-9.99125
33
0
14
-172.82
24
9.99125
34
0
50
90
100
AcDbRotatedDimension
1001
ACAD
1000
DSTYLE
1002
{
1070
    74
1070
     0
1070
   279
1070
     0
1070
   172
1070
     1
1070
   173
1070
     1
1070
   340
1005
289
1070
   271
1070
     3
1070
   272
1070
     3
1070
    77
1070
     1
1070
    73
1070
     0
1070
   171
1070
     4
1070
   274
1070
     4
1070
   177
1070
     2
1070
   176
1070
     2
1070
   178
1070
     7
1070
    78
1070
     8
1070
    41
1041
3.0
1070
   147
1041
2.25
1070
    42
1041
1.5
1070
    44
1041
3.0
1070
   140
1041
4.5
1070
   343
1005
2BC
1070
   344
1005
2BC
1002
}
0
ENDSEC
0
SECTION
2
OBJECTS
0
DICTIONARY
5
31e
330
0
100
AcDbDictionary
280
0
281
1
3
ACAD_GROUP
350
31f
3
ACAD_MLINESTYLE
350
320
0
DICTIONARY
5
31f
330
0
100
AcDbDictionary
280
0
281
1
0
DICTIONARY
5
320
330
0
100
AcDbDictionary
280
0
281
1
3
Standard
350
18
0
MLINESTYLE
5
18
330
320
100
AcDbMlineStyle
2
Standard
70
0
3

62
256
51
90
52
90
71
2
49
-0.5
62
256
6
ByLayer
49
0.5
62
256
6
ByLayer
0
RASTERVARIABLES
5
30c
330

100
AcDbRasterVariables
90
0
70
1
71
1
72
1
0
ENDSEC
0
EOF
