0
SECTION
2
HEADER
9
$ACADVER
1
AC1015
9
$DWGCODEPAGE
3
ANSI_1252
9
$HANDSEED
5
30f
9
$ANGBASE
50
0
9
$ANGDIR
70
0
9
$ATTMODE
70
1
9
$AUNITS
70
0
9
$AUPREC
70
0
9
$CECOLOR
62
256
9
$CELTSCALE
40
1
9
$CELTYPE
6
ByLayer
9
$CELWEIGHT
370
-1
9
$CLAYER
8
0
9
$CMLJUST
70
0
9
$CMLSCALE
40
1
9
$CMLSTYLE
2
Standard
9
$DIMSTYLE
2
Standard
9
$TEXTSIZE
40
0.2
9
$TEXTSTYLE
7
Standard
9
$LUNITS
70
2
9
$LUPREC
70
4
9
$EXTNAMES
290
1
9
$INSUNITS
70
4
9
$LTSCALE
40
1
9
$LWDISPLAY
290
0
9
$PDMODE
70
0
9
$PDSIZE
40
0
9
$PLINEGEN
70
0
0
ENDSEC
0
SECTION
2
CLASSES
0
CLASS
1
RASTERVARIABLES
2
AcDbRasterVariables
3
ISM
90
0
280
0
281
0
0
ENDSEC
0
SECTION
2
TABLES
0
TABLE
2
VPORT
5
305
100
AcDbSymbolTable
0
VPORT
5
1
100
AcDbSymbolTableRecord
100
AcDbViewportTableRecord
2
*Active
70
0
10
0
20
0
11
1
21
1
12
-1
22
1
13
0
23
0
14
0.5
24
0.5
15
10
25
10
16
0
26
0
36
1
17
0
27
0
37
0
0
ENDTAB
0
TABLE
2
LTYPE
5
306
100
AcDbSymbolTable
0
LTYPE
5
14
100
AcDbSymbolTableRecord
100
AcDbLinetypeTableRecord
70
0
2
ByBlock
3

72
65
73
0
40
0
0
LTYPE
5
15
100
AcDbSymbolTableRecord
100
AcDbLinetypeTableRecord
70
0
2
ByLayer
3

72
65
73
0
40
0
0
LTYPE
5
16
100
AcDbSymbolTableRecord
100
AcDbLinetypeTableRecord
70
0
2
CONTINUOUS
3
Solid line
72
65
73
0
40
0
0
LTYPE
5
3B
100
AcDbSymbolTableRecord
100
AcDbLinetypeTableRecord
70
0
2
DASHED
3
__ __ __ __ __ __ __ __ __
72
65
73
2
40
25.72
49
12.86
74
0
49
-12.86
74
0
0
LTYPE
5
3C
100
AcDbSymbolTableRecord
100
AcDbLinetypeTableRecord
70
0
2
HIDDEN
3
_ _ _ _ _ _ _ _ _ _ _ _ _ _ _
72
65
73
2
40
0.5
49
0.25
74
0
49
-0.25
74
0
0
LTYPE
5
3D
100
AcDbSymbolTableRecord
100
AcDbLinetypeTableRecord
70
0
2
PHANTOM
3
____ _ _ ____ _ _ _____ _ _ ____
72
65
73
6
40
50.5
49
18
74
0
49
-6.5
74
0
49
6.5
74
0
49
-6.5
74
0
49
6.5
74
0
49
-6.5
74
0
0
LTYPE
5
3E
100
AcDbSymbolTableRecord
100
AcDbLinetypeTableRecord
70
0
2
CENTER
3
____ _ ____ _ ____ _ ____
72
65
73
4
40
47.5
49
22
74
0
49
-8.5
74
0
49
8.5
74
0
49
-8.5
74
0
0
LTYPE
5
3F
100
AcDbSymbolTableRecord
100
AcDbLinetypeTableRecord
70
0
2
DOT
3
.........................
72
65
73
2
40
10
49
0
74
0
49
-10
74
0
0
LTYPE
5
40
100
AcDbSymbolTableRecord
100
AcDbLinetypeTableRecord
70
0
2
DASHDOT
3
_._._._._._._._._._._._._._._._.
72
65
73
4
40
70
49
31
74
0
49
-13
74
0
49
13
74
0
49
-13
74
0
0
ENDTAB
0
TABLE
2
LAYER
5
307
100
AcDbSymbolTable
0
LAYER
5
10
100
AcDbSymbolTableRecord
100
AcDbLayerTableRecord
2
0
70
0
62
7
6
CONTINUOUS
290
1
370
-3
390
0
0
LAYER
5
42
100
AcDbSymbolTableRecord
100
AcDbLayerTableRecord
2
1
70
0
62
4
6
CONTINUOUS
290
1
370
-3
390
0
0
LAYER
5
44
100
AcDbSymbolTableRecord
100
AcDbLayerTableRecord
2
80
70
0
62
-6
6
CONTINUOUS
290
1
370
-3
390
0
0
LAYER
5
46
100
AcDbSymbolTableRecord
100
AcDbLayerTableRecord
2
81
70
0
62
-3
6
CONTINUOUS
290
1
370
-3
390
0
0
LAYER
5
48
100
AcDbSymbolTableRecord
100
AcDbLayerTableRecord
2
2
70
0
62
7
6
CONTINUOUS
290
1
370
-3
390
0
0
LAYER
5
2f1
100
AcDbSymbolTableRecord
100
AcDbLayerTableRecord
2
SK1
70
0
62
4
6
CONTINUOUS
290
1
370
-3
390
0
0
LAYER
5
2f2
100
AcDbSymbolTableRecord
100
AcDbLayerTableRecord
2
SK4
70
0
62
2
6
CENTER
290
1
370
-3
390
0
0
LAYER
5
2f3
100
AcDbSymbolTableRecord
100
AcDbLayerTableRecord
2
SK6
70
0
62
5
6
CONTINUOUS
290
1
370
-3
390
0
0
LAYER
5
2f4
100
AcDbSymbolTableRecord
100
AcDbLayerTableRecord
2
SK2
70
0
62
7
6
CONTINUOUS
290
1
370
-3
390
0
0
ENDTAB
0
TABLE
2
STYLE
5
308
100
AcDbSymbolTable
0
STYLE
5
11
100
AcDbSymbolTableRecord
100
AcDbTextStyleTableRecord
2
Standard
3
txt
70
0
71
0
40
0
41
1
42
0
50
0
0
STYLE
5
26D
100
AcDbSymbolTableRecord
100
AcDbTextStyleTableRecord
2
DEFAULT
3
simplex.shx
70
0
71
0
40
0
41
1
42
0
50
0
0
STYLE
5
290
100
AcDbSymbolTableRecord
100
AcDbTextStyleTableRecord
2
DWGDirectTextStyle
3
SIMPLEX
70
0
71
0
40
0
41
1
42
0
50
0
0
ENDTAB
0
TABLE
2
DIMSTYLE
5
309
100
AcDbSymbolTable
100
AcDbDimStyleTable
0
DIMSTYLE
105
27
100
AcDbSymbolTableRecord
100
AcDbDimStyleTableRecord
2
Standard
70
0
3
<>
41
0.18
42
0.0625
44
0.18
140
0.18
147
0.09
73
0
74
0
77
1
271
2
275
0
278
52
280
0
340
11
0
ENDTAB
0
TABLE
2
VIEW
5
30a
100
AcDbSymbolTable
0
ENDTAB
0
TABLE
2
UCS
5
30b
100
AcDbSymbolTable
0
ENDTAB
0
TABLE
2
APPID
5
30c
100
AcDbSymbolTable
0
APPID
5
12
100
AcDbSymbolTableRecord
100
AcDbRegAppTableRecord
2
ACAD
70
0
0
ENDTAB
0
TABLE
2
BLOCK_RECORD
5
30d
100
AcDbSymbolTable
0
BLOCK_RECORD
5
1F
100
AcDbSymbolTableRecord
100
AcDbBlockTableRecord
2
*Model_Space
340
0
70
0
0
BLOCK_RECORD
5
1B
100
AcDbSymbolTableRecord
100
AcDbBlockTableRecord
2
*Paper_Space
340
0
70
0
0
BLOCK_RECORD
5
23
100
AcDbSymbolTableRecord
100
AcDbBlockTableRecord
2
*Paper_Space0
340
0
70
0
0
BLOCK_RECORD
5
292
100
AcDbSymbolTableRecord
100
AcDbBlockTableRecord
2
DimnDraft3D1
340
0
70
0
0
BLOCK_RECORD
5
2A0
100
AcDbSymbolTableRecord
100
AcDbBlockTableRecord
2
_CLOSED
340
0
70
0
0
BLOCK_RECORD
5
2A7
100
AcDbSymbolTableRecord
100
AcDbBlockTableRecord
2
DimnDraft3D2
340
0
70
0
0
BLOCK_RECORD
5
2B6
100
AcDbSymbolTableRecord
100
AcDbBlockTableRecord
2
DimnDraft3D3
340
0
70
0
0
BLOCK_RECORD
5
2C4
100
AcDbSymbolTableRecord
100
AcDbBlockTableRecord
2
DimnDraft3D4
340
0
70
0
0
ENDTAB
0
ENDSEC
0
SECTION
2
BLOCKS
0
BLOCK
5
20
100
AcDbEntity
8
0
100
AcDbBlockBegin
2
*Model_Space
70
0
10
0
20
0
30
0
3
*Model_Space
0
ENDBLK
5
21
100
AcDbEntity
8
0
100
AcDbBlockEnd
0
BLOCK
5
1C
100
AcDbEntity
8
0
100
AcDbBlockBegin
2
*Paper_Space
70
0
10
0
20
0
30
0
3
*Paper_Space
0
ENDBLK
5
1D
100
AcDbEntity
8
0
100
AcDbBlockEnd
0
BLOCK
5
24
100
AcDbEntity
8
0
100
AcDbBlockBegin
2
*Paper_Space0
70
0
10
0
20
0
30
0
3
*Paper_Space0
0
ENDBLK
5
25
100
AcDbEntity
8
0
100
AcDbBlockEnd
0
BLOCK
5
29D
100
AcDbEntity
8
0
100
AcDbBlockBegin
2
DimnDraft3D1
70
0
10
0
20
0
30
0
3
DimnDraft3D1
0
MTEXT
5
293
100
AcDbEntity
8
2
62
256
6
ByLayer
370
-1
48
1
60
0
100
AcDbMText
10
49.004964
20
-25
30
0
210
0
220
0
230
1
1
\W01.000;\fsimplex.shx,bigfont.shx;27 
40
4.5
41
0
44
1.084337
50
0
71
7
72
5
7
DEFAULT
0
LINE
5
294
100
AcDbEntity
8
2
62
256
6
ByLayer
370
-1
48
1
60
0
100
AcDbLine
10
37.077823
20
-13.375
30
0
11
37.077823
21
-29.125
31
0
39
0
210
0
220
0
230
1
0
LINE
5
295
100
AcDbEntity
8
2
62
256
6
ByLayer
370
-1
48
1
60
0
100
AcDbLine
10
63.94
20
-13.375
30
0
11
63.94
21
-29.125
31
0
39
0
210
0
220
0
230
1
0
LINE
5
296
100
AcDbEntity
8
2
62
256
6
ByLayer
370
-1
48
1
60
0
100
AcDbLine
10
37.077823
20
-26.125
30
0
11
63.94
21
-26.125
31
0
39
0
210
0
220
0
230
1
0
LINE
5
297
100
AcDbEntity
8
2
62
256
6
ByLayer
370
-1
48
1
60
0
100
AcDbLine
10
37.077823
20
-26.125
30
0
11
40.077821
21
-25.730043
31
0
39
0
210
0
220
0
230
1
0
LINE
5
298
100
AcDbEntity
8
2
62
256
6
ByLayer
370
-1
48
1
60
0
100
AcDbLine
10
37.077823
20
-26.125
30
0
11
40.077824
21
-26.519957
31
0
39
0
210
0
220
0
230
1
0
LINE
5
299
100
AcDbEntity
8
2
62
256
6
ByLayer
370
-1
48
1
60
0
100
AcDbLine
10
40.077821
20
-25.730043
30
0
11
40.077824
21
-26.519957
31
0
39
0
210
0
220
0
230
1
0
LINE
5
29A
100
AcDbEntity
8
2
62
256
6
ByLayer
370
-1
48
1
60
0
100
AcDbLine
10
63.94
20
-26.125
30
0
11
60.940001
21
-26.519957
31
0
39
0
210
0
220
0
230
1
0
LINE
5
29B
100
AcDbEntity
8
2
62
256
6
ByLayer
370
-1
48
1
60
0
100
AcDbLine
10
63.94
20
-26.125
30
0
11
60.939999
21
-25.730043
31
0
39
0
210
0
220
0
230
1
0
LINE
5
29C
100
AcDbEntity
8
2
62
256
6
ByLayer
370
-1
48
1
60
0
100
AcDbLine
10
60.940001
20
-26.519957
30
0
11
60.939999
21
-25.730043
31
0
39
0
210
0
220
0
230
1
0
ENDBLK
5
29E
100
AcDbEntity
8
0
100
AcDbBlockEnd
0
BLOCK
5
2A1
100
AcDbEntity
8
0
100
AcDbBlockBegin
2
_CLOSED
70
0
10
0
20
0
30
0
3
_CLOSED
0
LINE
5
2A3
100
AcDbEntity
8
0
62
256
6
ByLayer
370
-2
48
1
60
0
100
AcDbLine
10
-1
20
0.166667
30
0
11
0
21
0
31
0
39
0
210
0
220
0
230
1
0
LINE
5
2A4
100
AcDbEntity
8
0
62
256
6
ByLayer
370
-2
48
1
60
0
100
AcDbLine
10
0
20
0
30
0
11
-1
21
-0.166667
31
0
39
0
210
0
220
0
230
1
0
LINE
5
2A5
100
AcDbEntity
8
0
62
256
6
ByLayer
370
-2
48
1
60
0
100
AcDbLine
10
-1
20
0.166667
30
0
11
-1
21
-0.166667
31
0
39
0
210
0
220
0
230
1
0
LINE
5
2A6
100
AcDbEntity
8
0
62
256
6
ByLayer
370
-2
48
1
60
0
100
AcDbLine
10
0
20
0
30
0
11
-1
21
0
31
0
39
0
210
0
220
0
230
1
0
ENDBLK
5
2A2
100
AcDbEntity
8
0
100
AcDbBlockEnd
0
BLOCK
5
2B3
100
AcDbEntity
8
0
100
AcDbBlockBegin
2
DimnDraft3D2
70
0
10
0
20
0
30
0
3
DimnDraft3D2
0
MTEXT
5
2A8
100
AcDbEntity
8
SK2
62
256
6
ByLayer
370
-1
48
1
60
0
100
AcDbMText
10
-39.278421
20
-35
30
0
210
0
220
0
230
1
1
\W01.000;\fsimplex.shx,bigfont.shx;201 
40
4.5
41
0
44
1.084337
50
0
71
7
72
5
7
DEFAULT
0
LINE
5
2AA
100
AcDbEntity
8
SK2
62
256
6
ByLayer
370
-1
48
1
60
0
100
AcDbLine
10
63.94
20
-13.375
30
0
11
63.94
21
-39.125
31
0
39
0
210
0
220
0
230
1
0
LINE
5
2AB
100
AcDbEntity
8
SK2
62
256
6
ByLayer
370
-1
48
1
60
0
100
AcDbLine
10
-137.31
20
-1.5
30
0
11
-137.31
21
-39.125
31
0
39
0
210
0
220
0
230
1
0
LINE
5
2AC
100
AcDbEntity
8
SK2
62
256
6
ByLayer
370
-1
48
1
60
0
100
AcDbLine
10
63.94
20
-36.125
30
0
11
-137.31
21
-36.125
31
0
39
0
210
0
220
0
230
1
0
LINE
5
2AD
100
AcDbEntity
8
SK2
62
256
6
ByLayer
370
-1
48
1
60
0
100
AcDbLine
10
63.94
20
-36.125
30
0
11
60.940001
21
-36.519957
31
0
39
0
210
0
220
0
230
1
0
LINE
5
2AE
100
AcDbEntity
8
SK2
62
256
6
ByLayer
370
-1
48
1
60
0
100
AcDbLine
10
63.94
20
-36.125
30
0
11
60.939999
21
-35.730043
31
0
39
0
210
0
220
0
230
1
0
LINE
5
2AF
100
AcDbEntity
8
SK2
62
256
6
ByLayer
370
-1
48
1
60
0
100
AcDbLine
10
60.940001
20
-36.519957
30
0
11
60.939999
21
-35.730043
31
0
39
0
210
0
220
0
230
1
0
LINE
5
2B0
100
AcDbEntity
8
SK2
62
256
6
ByLayer
370
-1
48
1
60
0
100
AcDbLine
10
-137.31
20
-36.125
30
0
11
-134.310001
21
-35.730043
31
0
39
0
210
0
220
0
230
1
0
LINE
5
2B1
100
AcDbEntity
8
SK2
62
256
6
ByLayer
370
-1
48
1
60
0
100
AcDbLine
10
-137.31
20
-36.125
30
0
11
-134.309999
21
-36.519957
31
0
39
0
210
0
220
0
230
1
0
LINE
5
2B2
100
AcDbEntity
8
SK2
62
256
6
ByLayer
370
-1
48
1
60
0
100
AcDbLine
10
-134.310001
20
-35.730043
30
0
11
-134.309999
21
-36.519957
31
0
39
0
210
0
220
0
230
1
0
ENDBLK
5
2B4
100
AcDbEntity
8
0
100
AcDbBlockEnd
0
BLOCK
5
2C1
100
AcDbEntity
8
0
100
AcDbBlockBegin
2
DimnDraft3D3
70
0
10
0
20
0
30
0
3
DimnDraft3D3
0
MTEXT
5
2B7
100
AcDbEntity
8
2
62
256
6
ByLayer
370
-1
48
1
60
0
100
AcDbMText
10
77.065
20
-6.878947
30
0
210
0
220
0
230
1
1
\W01.000;\fsimplex.shx,bigfont.shx;12 
40
4.5
41
0
44
1.084337
50
90
71
7
72
5
7
DEFAULT
0
LINE
5
2B8
100
AcDbEntity
8
2
62
256
6
ByLayer
370
-1
48
1
60
0
100
AcDbLine
10
70.44
20
0
30
0
11
81.19
21
0
31
0
39
0
210
0
220
0
230
1
0
LINE
5
2B9
100
AcDbEntity
8
2
62
256
6
ByLayer
370
-1
48
1
60
0
100
AcDbLine
10
65.44
20
-11.875
30
0
11
81.19
21
-11.875
31
0
39
0
210
0
220
0
230
1
0
LINE
5
2BA
100
AcDbEntity
8
2
62
256
6
ByLayer
370
-1
48
1
60
0
100
AcDbLine
10
78.19
20
11.25
30
0
11
78.19
21
-23.125
31
0
39
0
210
0
220
0
230
1
0
LINE
5
2BB
100
AcDbEntity
8
2
62
256
6
ByLayer
370
-1
48
1
60
0
100
AcDbLine
10
78.19
20
0
30
0
11
77.795043
21
2.999999
31
0
39
0
210
0
220
0
230
1
0
LINE
5
2BC
100
AcDbEntity
8
2
62
256
6
ByLayer
370
-1
48
1
60
0
100
AcDbLine
10
78.19
20
0
30
0
11
78.584957
21
3.000001
31
0
39
0
210
0
220
0
230
1
0
LINE
5
2BD
100
AcDbEntity
8
2
62
256
6
ByLayer
370
-1
48
1
60
0
100
AcDbLine
10
77.795043
20
2.999999
30
0
11
78.584957
21
3.000001
31
0
39
0
210
0
220
0
230
1
0
LINE
5
2BE
100
AcDbEntity
8
2
62
256
6
ByLayer
370
-1
48
1
60
0
100
AcDbLine
10
78.19
20
-11.875
30
0
11
78.584957
21
-14.874999
31
0
39
0
210
0
220
0
230
1
0
LINE
5
2BF
100
AcDbEntity
8
2
62
256
6
ByLayer
370
-1
48
1
60
0
100
AcDbLine
10
78.19
20
-11.875
30
0
11
77.795043
21
-14.875001
31
0
39
0
210
0
220
0
230
1
0
LINE
5
2C0
100
AcDbEntity
8
2
62
256
6
ByLayer
370
-1
48
1
60
0
100
AcDbLine
10
78.584957
20
-14.874999
30
0
11
77.795043
21
-14.875001
31
0
39
0
210
0
220
0
230
1
0
ENDBLK
5
2C2
100
AcDbEntity
8
0
100
AcDbBlockEnd
0
BLOCK
5
2CF
100
AcDbEntity
8
0
100
AcDbBlockBegin
2
DimnDraft3D4
70
0
10
0
20
0
30
0
3
DimnDraft3D4
0
MTEXT
5
2C5
100
AcDbEntity
8
SK2
62
256
6
ByLayer
370
-1
48
1
60
0
100
AcDbMText
10
-148.185
20
-3.096711
30
0
210
0
220
0
230
1
1
\W01.000;\fsimplex.shx,bigfont.shx;%%c16 
40
4.5
41
0
44
1.084337
50
90
71
7
72
5
7
DEFAULT
0
LINE
5
2C6
100
AcDbEntity
8
SK2
62
256
6
ByLayer
370
-1
48
1
60
0
100
AcDbLine
10
-138.81
20
-7.9925
30
0
11
-150.06
21
-7.9925
31
0
39
0
210
0
220
0
230
1
0
LINE
5
2C7
100
AcDbEntity
8
SK2
62
256
6
ByLayer
370
-1
48
1
60
0
100
AcDbLine
10
-138.81
20
7.9925
30
0
11
-150.06
21
7.9925
31
0
39
0
210
0
220
0
230
1
0
LINE
5
2C8
100
AcDbEntity
8
SK2
62
256
6
ByLayer
370
-1
48
1
60
0
100
AcDbLine
10
-147.06
20
-19.2425
30
0
11
-147.06
21
19.2425
31
0
39
0
210
0
220
0
230
1
0
LINE
5
2C9
100
AcDbEntity
8
SK2
62
256
6
ByLayer
370
-1
48
1
60
0
100
AcDbLine
10
-147.06
20
-7.9925
30
0
11
-146.665043
21
-10.992499
31
0
39
0
210
0
220
0
230
1
0
LINE
5
2CA
100
AcDbEntity
8
SK2
62
256
6
ByLayer
370
-1
48
1
60
0
100
AcDbLine
10
-147.06
20
-7.9925
30
0
11
-147.454957
21
-10.992501
31
0
39
0
210
0
220
0
230
1
0
LINE
5
2CB
100
AcDbEntity
8
SK2
62
256
6
ByLayer
370
-1
48
1
60
0
100
AcDbLine
10
-146.665043
20
-10.992499
30
0
11
-147.454957
21
-10.992501
31
0
39
0
210
0
220
0
230
1
0
LINE
5
2CC
100
AcDbEntity
8
SK2
62
256
6
ByLayer
370
-1
48
1
60
0
100
AcDbLine
10
-147.06
20
7.9925
30
0
11
-147.454957
21
10.992499
31
0
39
0
210
0
220
0
230
1
0
LINE
5
2CD
100
AcDbEntity
8
SK2
62
256
6
ByLayer
370
-1
48
1
60
0
100
AcDbLine
10
-147.06
20
7.9925
30
0
11
-146.665043
21
10.992501
31
0
39
0
210
0
220
0
230
1
0
LINE
5
2CE
100
AcDbEntity
8
SK2
62
256
6
ByLayer
370
-1
48
1
60
0
100
AcDbLine
10
-147.454957
20
10.992499
30
0
11
-146.665043
21
10.992501
31
0
39
0
210
0
220
0
230
1
0
ENDBLK
5
2D0
100
AcDbEntity
8
0
100
AcDbBlockEnd
0
ENDSEC
0
SECTION
2
ENTITIES
0
ARC
5
165
100
AcDbEntity
8
1
62
256
6
ByLayer
370
-1
48
1
60
0
100
AcDbCircle
39
0
10
-37.292182
20
8.575
30
0
40
0.800000000000008
210
0
220
0
230
-1
100
AcDbArc
50
270
51
300
0
ARC
5
166
100
AcDbEntity
8
1
62
256
6
ByLayer
370
-1
48
1
60
0
100
AcDbCircle
39
0
10
-48.56897
20
-8.575
30
0
40
0.8
210
0
220
0
230
-1
100
AcDbArc
50
90
51
140
0
ELLIPSE
5
167
100
AcDbEntity
8
1
62
256
6
ByLayer
370
-1
48
1
60
0
100
AcDbEllipse
10
53.513869
20
0
30
0
11
-8.97925096892209
21
-6.74596103881729
31
0
210
0
220
0
230
1
40
0.4305
41
-0.783692041361549
42
0.122140649826118
0
ELLIPSE
5
168
100
AcDbEntity
8
1
62
256
6
ByLayer
370
-1
48
1
60
0
100
AcDbEllipse
10
53.097559
20
4.216125
30
0
11
-1.38544360459097
21
-0.00318113077569281
31
0
210
0
220
0
230
1
40
0.224206
41
-1.54210764121084
42
0.0286886855845801
0
ELLIPSE
5
169
100
AcDbEntity
8
1
62
256
6
ByLayer
370
-1
48
1
60
0
100
AcDbEllipse
10
51.039156
20
-2.464631
30
0
11
-1.74257041965986
21
-0.161084861257984
31
0
210
0
220
0
230
1
40
0.965649
41
0.361985546288753
42
1.48176705713797
0
ELLIPSE
5
16A
100
AcDbEntity
8
1
62
256
6
ByLayer
370
-1
48
1
60
0
100
AcDbEllipse
10
51.039156
20
-2.464631
30
0
11
-1.74257041965986
21
-0.161084861257984
31
0
210
0
220
0
230
1
40
0.965649
41
1.48176648555683
42
1.71502976258593
0
ELLIPSE
5
16B
100
AcDbEntity
8
1
62
256
6
ByLayer
370
-1
48
1
60
0
100
AcDbEllipse
10
53.513969
20
-4.3E-05
30
0
11
-8.97936381203159
21
-6.74601054435642
31
0
210
0
220
0
230
1
40
0.430504
41
-1.33208629829448
42
-1.31720731051445
0
ELLIPSE
5
16C
100
AcDbEntity
8
1
62
256
6
ByLayer
370
-1
48
1
60
0
100
AcDbEllipse
10
68.605439
20
0
30
0
11
-7.74296019742679
21
7.73431243142981
31
0
210
0
220
0
230
1
40
0.114546
41
-0.714179676948189
42
-0.626125313910565
0
ELLIPSE
5
16D
100
AcDbEntity
8
1
62
256
6
ByLayer
370
-1
48
1
60
0
100
AcDbEllipse
10
47.553634
20
-2.63692
30
0
11
-1.01349729777742
21
-1.11852782979867
31
0
210
0
220
0
230
1
40
0.637698
41
-2.91527140762393
42
0.389152506460575
0
ELLIPSE
5
16E
100
AcDbEntity
8
1
62
256
6
ByLayer
370
-1
48
1
60
0
100
AcDbEllipse
10
150.691362
20
0.000615
30
0
11
-255.47936012302
21
-2.23297133874238
31
0
210
0
220
0
230
1
40
0.03258
41
1.16389693101287
42
1.16885369250738
0
ELLIPSE
5
16F
100
AcDbEntity
8
1
62
256
6
ByLayer
370
-1
48
1
60
0
100
AcDbEllipse
10
55.743073
20
4.41391
30
0
11
-2.5
21
3.06151588455594E-16
31
0
210
0
220
0
230
1
40
0.258819
41
-1.57079641371849
42
-1.32653760136537
0
ELLIPSE
5
170
100
AcDbEntity
8
1
62
256
6
ByLayer
370
-1
48
1
60
0
100
AcDbEllipse
10
55.743073
20
4.41391
30
0
11
-2.5
21
3.06151588455594E-16
31
0
210
0
220
0
230
1
40
0.258819
41
-1.81505523101821
42
-1.5707964137185
0
ELLIPSE
5
171
100
AcDbEntity
8
1
62
256
6
ByLayer
370
-1
48
1
60
0
100
AcDbEllipse
10
54.598348
20
0
30
0
11
-7.73338880557637
21
7.72437152650421
31
0
210
0
220
0
230
1
40
0.114547
41
-0.417925701428158
42
0.713160204710446
0
ELLIPSE
5
172
100
AcDbEntity
8
1
62
256
6
ByLayer
370
-1
48
1
60
0
100
AcDbEllipse
10
53.513869
20
0
30
0
11
-8.99079984524988
21
-6.7546375163112
31
0
210
0
220
0
230
1
40
0.4305
41
-1.5856993498698
42
-1.34846559076692
0
ELLIPSE
5
173
100
AcDbEntity
8
1
62
256
6
ByLayer
370
-1
48
1
60
0
100
AcDbEllipse
10
52.436152
20
-3.810733
30
0
11
-2.62944302282417
21
-0.342136838579439
31
0
210
0
220
0
230
1
40
0.965322
41
0.347488388863435
42
0.926207607499766
0
ELLIPSE
5
174
100
AcDbEntity
8
1
62
256
6
ByLayer
370
-1
48
1
60
0
100
AcDbEllipse
10
55.743073
20
5.669614
30
0
11
-2.5
21
3.06151588455594E-16
31
0
210
0
220
0
230
1
40
0.258819
41
0
42
6.28318530717959
0
ELLIPSE
5
175
100
AcDbEntity
8
1
62
256
6
ByLayer
370
-1
48
1
60
0
100
AcDbEllipse
10
51.046332
20
-2.542255
30
0
11
-1.74257041965987
21
-0.161084861257987
31
0
210
0
220
0
230
1
40
0.965649
41
-2.7364939910624
42
-2.58138529640607
0
ELLIPSE
5
176
100
AcDbEntity
8
1
62
256
6
ByLayer
370
-1
48
1
60
0
100
AcDbEllipse
10
51.046332
20
-2.542255
30
0
11
-1.74257041965987
21
-0.161084861257987
31
0
210
0
220
0
230
1
40
0.965649
41
1.38638694454977
42
1.73574788151887
0
ELLIPSE
5
177
100
AcDbEntity
8
1
62
256
6
ByLayer
370
-1
48
1
60
0
100
AcDbEllipse
10
51.148936
20
-3.652201
30
0
11
-1.73544496038009
21
-0.22587648477437
31
0
210
0
220
0
230
1
40
0.965332
41
-1.73189265793643
42
0.785662798824831
0
ELLIPSE
5
178
100
AcDbEntity
8
1
62
256
6
ByLayer
370
-1
48
1
60
0
100
AcDbEllipse
10
52.414845
20
-3.449163
30
0
11
1.99150905103983
21
0.184096984294829
31
0
210
0
220
0
230
1
40
0.965649
41
-2.32546972911173
42
-2.18342468365587
0
ELLIPSE
5
179
100
AcDbEntity
8
1
62
256
6
ByLayer
370
-1
48
1
60
0
100
AcDbEllipse
10
150.684317
20
1.5E-05
30
0
11
-230.501259872821
21
-2.01446449579746
31
0
210
0
220
0
230
1
40
0.032579
41
1.0983449644077
42
1.11155352248056
0
ELLIPSE
5
17A
100
AcDbEntity
8
1
62
256
6
ByLayer
370
-1
48
1
60
0
100
AcDbEllipse
10
54.155012
20
-7.504488
30
0
11
-0.550000000000001
21
6.73533494602309E-17
31
0
210
0
220
0
230
1
40
0.258819
41
-2.30333179725797
42
-1.67885588430875
0
ELLIPSE
5
17B
100
AcDbEntity
8
1
62
256
6
ByLayer
370
-1
48
1
60
0
100
AcDbEllipse
10
59.124357
20
-3.506432
30
0
11
2.71343108204177
21
0.250832141101706
31
0
210
0
220
0
230
1
40
0.965649
41
2.45850750358196
42
-3.14157793635479
0
ELLIPSE
5
17C
100
AcDbEntity
8
1
62
256
6
ByLayer
370
-1
48
1
60
0
100
AcDbEllipse
10
59.124357
20
-3.506432
30
0
11
2.71343108204177
21
0.250832141101706
31
0
210
0
220
0
230
1
40
0.965649
41
0
42
0.772356010362428
0
ELLIPSE
5
17D
100
AcDbEntity
8
1
62
256
6
ByLayer
370
-1
48
1
60
0
100
AcDbEllipse
10
60.825954
20
-2.688211
30
0
11
-0.68308760450666
21
-0.0631452656131299
31
0
210
0
220
0
230
1
40
0.965649
41
-0.305084662145583
42
-8.35022136671805E-06
0
ELLIPSE
5
17E
100
AcDbEntity
8
1
62
256
6
ByLayer
370
-1
48
1
60
0
100
AcDbEllipse
10
57.742427
20
-3.367213
30
0
11
-0.290760321451815
21
-0.0268781597070465
31
0
210
0
220
0
230
1
40
0.965649
41
0.706408371968757
42
1.14221105037674
0
ELLIPSE
5
17F
100
AcDbEntity
8
1
62
256
6
ByLayer
370
-1
48
1
60
0
100
AcDbEllipse
10
60.500307
20
-3.580964
30
0
11
-0.290760321451815
21
-0.0268781597070465
31
0
210
0
220
0
230
1
40
0.965649
41
1.65995890038703
42
2.45158099496407
0
ELLIPSE
5
180
100
AcDbEntity
8
1
62
256
6
ByLayer
370
-1
48
1
60
0
100
AcDbEllipse
10
60.673608
20
-4.509608
30
0
11
-0.68308760450666
21
-0.0631452656131299
31
0
210
0
220
0
230
1
40
0.965649
41
-0.697643109581829
42
-2.33267830612538E-06
0
ELLIPSE
5
181
100
AcDbEntity
8
1
62
256
6
ByLayer
370
-1
48
1
60
0
100
AcDbEllipse
10
58.334793
20
-4.579347
30
0
11
-0.290760321451815
21
-0.0268781597070465
31
0
210
0
220
0
230
1
40
0.965649
41
0.590655893284067
42
2.18353318411358
0
ELLIPSE
5
182
100
AcDbEntity
8
1
62
256
6
ByLayer
370
-1
48
1
60
0
100
AcDbEllipse
10
57.41678
20
-4.259967
30
0
11
-0.68308760450666
21
-0.0631452656131299
31
0
210
0
220
0
230
1
40
0.965649
41
3.14158430336905
42
-2.91225697935097
0
ELLIPSE
5
183
100
AcDbEntity
8
1
62
256
6
ByLayer
370
-1
48
1
60
0
100
AcDbEllipse
10
59.710885
20
-4.680396
30
0
11
-0.290760321451815
21
-0.0268781597070465
31
0
210
0
220
0
230
1
40
0.965649
41
0.615551896871973
42
2.98343750540901
0
ELLIPSE
5
184
100
AcDbEntity
8
1
62
256
6
ByLayer
370
-1
48
1
60
0
100
AcDbEllipse
10
59.121367
20
-3.474089
30
0
11
-1.20137783503978
21
-0.111056505775863
31
0
210
0
220
0
230
1
40
0.965649
41
-1.33171253167583
42
-0.88472276050083
0
ELLIPSE
5
185
100
AcDbEntity
8
1
62
256
6
ByLayer
370
-1
48
1
60
0
100
AcDbEllipse
10
59.121367
20
-3.474089
30
0
11
-1.20137783503978
21
-0.111056505775863
31
0
210
0
220
0
230
1
40
0.965649
41
-2.68646852043297
42
-2.2195550778402
0
ELLIPSE
5
186
100
AcDbEntity
8
1
62
256
6
ByLayer
370
-1
48
1
60
0
100
AcDbEllipse
10
59.121367
20
-3.474089
30
0
11
-1.20137783503978
21
-0.111056505775863
31
0
210
0
220
0
230
1
40
0.965649
41
2.44394954400798
42
-3.13490110247098
0
ELLIPSE
5
187
100
AcDbEntity
8
1
62
256
6
ByLayer
370
-1
48
1
60
0
100
AcDbEllipse
10
59.121367
20
-3.474089
30
0
11
1.20137783503978
21
0.111056505775856
31
0
210
0
220
0
230
1
40
0.965649
41
2.91571454107014
42
-2.85967557154607
0
ELLIPSE
5
188
100
AcDbEntity
8
1
62
256
6
ByLayer
370
-1
48
1
60
0
100
AcDbEllipse
10
63.063222
20
3.54889
30
0
11
-0.087262052175307
21
-0.0113725217148175
31
0
210
0
220
0
230
1
40
0.965377
41
3.14158326083863
42
-2.74315005139811
0
ELLIPSE
5
189
100
AcDbEntity
8
1
62
256
6
ByLayer
370
-1
48
1
60
0
100
AcDbEllipse
10
59.15096
20
-3.724324
30
0
11
-2.98471991924173
21
-0.388986864829087
31
0
210
0
220
0
230
1
40
0.965377
41
-0.218324187844659
42
-3.05662693180145E-16
0
ELLIPSE
5
18A
100
AcDbEntity
8
1
62
256
6
ByLayer
370
-1
48
1
60
0
100
AcDbEllipse
10
59.15096
20
-3.724324
30
0
11
-2.98471991924173
21
-0.388986864829087
31
0
210
0
220
0
230
1
40
0.965377
41
0
42
1.44563999607125
0
ELLIPSE
5
18B
100
AcDbEntity
8
1
62
256
6
ByLayer
370
-1
48
1
60
0
100
AcDbEllipse
10
59.15096
20
-3.724324
30
0
11
-2.98471991924173
21
-0.388986864829087
31
0
210
0
220
0
230
1
40
0.965377
41
1.44564022103247
42
-2.92323519617558
0
ELLIPSE
5
18C
100
AcDbEntity
8
1
62
256
6
ByLayer
370
-1
48
1
60
0
100
AcDbEllipse
10
63.319646
20
1.67525
30
0
11
-0.178490561267673
21
-0.0232619762348539
31
0
210
0
220
0
230
1
40
0.965377
41
3.14159189304623
42
-2.99145125087395
0
ELLIPSE
5
18D
100
AcDbEntity
8
1
62
256
6
ByLayer
370
-1
48
1
60
0
100
AcDbEllipse
10
63.556307
20
0.418171
30
0
11
0.247903557316213
21
0.0323083003261876
31
0
210
0
220
0
230
1
40
0.965377
41
2.00176314541383E-06
42
0.398442602191366
0
ELLIPSE
5
18E
100
AcDbEntity
8
1
62
256
6
ByLayer
370
-1
48
1
60
0
100
AcDbEllipse
10
52.823896
20
-1.679311
30
0
11
-0.178490561267673
21
-0.0232619762348539
31
0
210
0
220
0
230
1
40
0.965377
41
-0.953432544077384
42
-0.64875494900532
0
ELLIPSE
5
18F
100
AcDbEntity
8
1
62
256
6
ByLayer
370
-1
48
1
60
0
100
AcDbEllipse
10
51.26916
20
-2.84886
30
0
11
-0.0872620521753041
21
-0.0113725217148171
31
0
210
0
220
0
230
1
40
0.965377
41
-0.648754949005709
42
-1.39142656416176E-05
0
ELLIPSE
5
190
100
AcDbEntity
8
1
62
256
6
ByLayer
370
-1
48
1
60
0
100
AcDbEllipse
10
52.499604
20
-2.225002
30
0
11
-0.178490561267674
21
-0.0232619762348539
31
0
210
0
220
0
230
1
40
0.965377
41
-0.648754949005394
42
-7.37471380485965E-06
0
ELLIPSE
5
191
100
AcDbEntity
8
1
62
256
6
ByLayer
370
-1
48
1
60
0
100
AcDbEllipse
10
59.142482
20
-3.65927
30
0
11
-2.89655252755701
21
-0.377496353759521
31
0
210
0
220
0
230
1
40
0.965377
41
-0.436762742985913
42
-3.14966678568509E-16
0
ELLIPSE
5
192
100
AcDbEntity
8
1
62
256
6
ByLayer
370
-1
48
1
60
0
100
AcDbEllipse
10
59.142482
20
-3.65927
30
0
11
-2.89655252755701
21
-0.377496353759521
31
0
210
0
220
0
230
1
40
0.965377
41
0
42
1.44563999298636
0
ELLIPSE
5
193
100
AcDbEntity
8
1
62
256
6
ByLayer
370
-1
48
1
60
0
100
AcDbEllipse
10
59.142482
20
-3.65927
30
0
11
-2.89655252755701
21
-0.377496353759521
31
0
210
0
220
0
230
1
40
0.965377
41
1.44564016416405
42
-2.70479652769068
0
ELLIPSE
5
194
100
AcDbEntity
8
1
62
256
6
ByLayer
370
-1
48
1
60
0
100
AcDbEllipse
10
52.122672
20
-2.614941
30
0
11
0.128909849804431
21
0.0168003161696176
31
0
210
0
220
0
230
1
40
0.965377
41
-1.68081215656687
42
-0.648754949005311
0
ELLIPSE
5
195
100
AcDbEntity
8
1
62
256
6
ByLayer
370
-1
48
1
60
0
100
AcDbEllipse
10
51.271198
20
-2.845431
30
0
11
-0.087262052175307
21
-0.0113725217148175
31
0
210
0
220
0
230
1
40
0.965377
41
-1.68081215656674
42
-0.648754949005375
0
ELLIPSE
5
196
100
AcDbEntity
8
1
62
256
6
ByLayer
370
-1
48
1
60
0
100
AcDbEllipse
10
59.6065
20
1.607511
30
0
11
-0.152071064480073
21
-0.0898102043747616
31
0
210
0
220
0
230
1
40
0.204506
41
1.48361984586602
42
2.42609764212867
0
ELLIPSE
5
197
100
AcDbEntity
8
1
62
256
6
ByLayer
370
-1
48
1
60
0
100
AcDbEllipse
10
63.975969
20
-0.599742
30
0
11
-0.140909607234913
21
0.238595092142826
31
0
210
0
220
0
230
1
40
0.055966
41
0.758535352062395
42
1.18511047041076
0
ELLIPSE
5
198
100
AcDbEntity
8
1
62
256
6
ByLayer
370
-1
48
1
60
0
100
AcDbEllipse
10
63.445923
20
0.706323
30
0
11
-0.174929491486787
21
0.052264830274666
31
0
210
0
220
0
230
1
40
0.912025
41
2.98319186115409
42
-2.35644512748299
0
ELLIPSE
5
199
100
AcDbEntity
8
1
62
256
6
ByLayer
370
-1
48
1
60
0
100
AcDbEllipse
10
63.12163
20
1.246353
30
0
11
-0.174929491439696
21
0.0522648303276778
31
0
210
0
220
0
230
1
40
0.912025
41
-2.35644512710789
42
-1.4128968084712
0
ELLIPSE
5
19A
100
AcDbEntity
8
1
62
256
6
ByLayer
370
-1
48
1
60
0
100
AcDbEllipse
10
63.086722
20
1.541949
30
0
11
-0.126337966040278
21
0.0377468219032485
31
0
210
0
220
0
230
1
40
0.912025
41
0.785147526483378
42
1.72869584511623
0
ELLIPSE
5
19B
100
AcDbEntity
8
1
62
256
6
ByLayer
370
-1
48
1
60
0
100
AcDbEllipse
10
62.964776
20
1.74502
30
0
11
-0.126337966042319
21
0.0377468218962785
31
0
210
0
220
0
230
1
40
0.912025
41
-0.246909681131859
42
0.785147526442682
0
ELLIPSE
5
19C
100
AcDbEntity
8
1
62
256
6
ByLayer
370
-1
48
1
60
0
100
AcDbEllipse
10
63.196262
20
2.528061
30
0
11
-0.0855210847140597
21
0.0255516948120804
31
0
210
0
220
0
230
1
40
0.912025
41
2.89468297234295
42
-2.35644512729439
0
ELLIPSE
5
19D
100
AcDbEntity
8
1
62
256
6
ByLayer
370
-1
48
1
60
0
100
AcDbEllipse
10
63.194224
20
2.531455
30
0
11
-0.0855210847051198
21
0.0255516948243212
31
0
210
0
220
0
230
1
40
0.912025
41
-2.35644512714001
42
-1.32438791955336
0
ELLIPSE
5
19E
100
AcDbEntity
8
1
62
256
6
ByLayer
370
-1
48
1
60
0
100
AcDbEllipse
10
61.724685
20
2.018676
30
0
11
-0.839757204387307
21
0.47549838520002
31
0
210
0
220
0
230
1
40
0.309981
41
2.3112633504744
42
3.12771293651699
0
ELLIPSE
5
19F
100
AcDbEntity
8
1
62
256
6
ByLayer
370
-1
48
1
60
0
100
AcDbEllipse
10
62.22657
20
1.733785
30
0
11
0.226945289156952
21
-0.115307570130788
31
0
210
0
220
0
230
1
40
0.906288
41
-1.62175668323855
42
-1.31693803296157
0
ELLIPSE
5
1A0
100
AcDbEntity
8
1
62
256
6
ByLayer
370
-1
48
1
60
0
100
AcDbEllipse
10
61.547617
20
1.736229
30
0
11
-1.55966722545346
21
-0.744929034942749
31
0
210
0
220
0
230
1
40
0.184513
41
2.85850182614938
42
-2.82326408472505
0
ELLIPSE
5
1A1
100
AcDbEntity
8
1
62
256
6
ByLayer
370
-1
48
1
60
0
100
AcDbEllipse
10
61.912596
20
1.91201
30
0
11
0.226945289156952
21
-0.115307570130788
31
0
210
0
220
0
230
1
40
0.906288
41
-2.73001671763805
42
-1.62175668323855
0
ELLIPSE
5
1A2
100
AcDbEntity
8
1
62
256
6
ByLayer
370
-1
48
1
60
0
100
AcDbEllipse
10
61.908364
20
1.712804
30
0
11
-0.00905888302127029
21
-0.890201608198192
31
0
210
0
220
0
230
1
40
0.36425
41
3.12166294991561
42
-2.34507277123374
0
ELLIPSE
5
1A3
100
AcDbEntity
8
1
62
256
6
ByLayer
370
-1
48
1
60
0
100
AcDbEllipse
10
61.919667
20
2.244856
30
0
11
0.226945289156952
21
-0.115307570130788
31
0
210
0
220
0
230
1
40
0.906288
41
-3.0348353679149
42
-2.73001671763814
0
ELLIPSE
5
1A4
100
AcDbEntity
8
1
62
256
6
ByLayer
370
-1
48
1
60
0
100
AcDbEllipse
10
60.678477
20
2.052792
30
0
11
0.175268193866217
21
0.267733188489724
31
0
210
0
220
0
230
1
40
0.050915
41
1.13720909497216
42
2.30717290320477
0
ELLIPSE
5
1A5
100
AcDbEntity
8
1
62
256
6
ByLayer
370
-1
48
1
60
0
100
AcDbEllipse
10
60.678477
20
2.052792
30
0
11
-0.124641651684533
21
-0.294727770434602
31
0
210
0
220
0
230
1
40
0.207616
41
-1.84844026175845
42
-0.857834935771326
0
ELLIPSE
5
1A6
100
AcDbEntity
8
1
62
256
6
ByLayer
370
-1
48
1
60
0
100
AcDbEllipse
10
60.678477
20
2.052792
30
0
11
0.312470068413981
21
0.069010552420352
31
0
210
0
220
0
230
1
40
0.339082
41
1.29926058602082
42
1.57490434696752
0
ELLIPSE
5
1A7
100
AcDbEntity
8
1
62
256
6
ByLayer
370
-1
48
1
60
0
100
AcDbEllipse
10
57.368852
20
-0.599679
30
0
11
-0.149596261873752
21
-0.0109981104467948
31
0
210
0
220
0
230
1
40
0.260475
41
0.879865607663652
42
1.58545179736163
0
ELLIPSE
5
1A8
100
AcDbEntity
8
1
62
256
6
ByLayer
370
-1
48
1
60
0
100
AcDbEllipse
10
62.598033
20
-3.67362
30
0
11
-0.143834238271019
21
0.0425642091550602
31
0
210
0
220
0
230
1
40
0.239817
41
1.67672138416127
42
1.85125430936017
0
ELLIPSE
5
1A9
100
AcDbEntity
8
1
62
256
6
ByLayer
370
-1
48
1
60
0
100
AcDbEllipse
10
62.771094
20
-3.088807
30
0
11
-0.143834238271019
21
0.0425642091550602
31
0
210
0
220
0
230
1
40
0.239817
41
1.67672138416108
42
1.85125430936042
0
ELLIPSE
5
1AA
100
AcDbEntity
8
1
62
256
6
ByLayer
370
-1
48
1
60
0
100
AcDbEllipse
10
63.427577
20
-2.954754
30
0
11
0.00433519637841722
21
0.149937340487153
31
0
210
0
220
0
230
1
40
0.042612
41
-2.54384765808705
42
-1.8313230795564
0
ELLIPSE
5
1AB
100
AcDbEntity
8
1
62
256
6
ByLayer
370
-1
48
1
60
0
100
AcDbEllipse
10
62.482222
20
2.126586
30
0
11
0.127183466692521
21
-0.304506758217404
31
0
210
0
220
0
230
1
40
0.504267
41
1.55223094315052
42
2.15365033946146
0
ELLIPSE
5
1AC
100
AcDbEntity
8
1
62
256
6
ByLayer
370
-1
48
1
60
0
100
AcDbEllipse
10
62.186364
20
1.654654
30
0
11
0.162905930262464
21
0.286987208574392
31
0
210
0
220
0
230
1
40
0.02153
41
1.13491346575434
42
2.01593479176743
0
ELLIPSE
5
1AD
100
AcDbEntity
8
1
62
256
6
ByLayer
370
-1
48
1
60
0
100
AcDbEllipse
10
62.186364
20
1.654654
30
0
11
-0.20432276702833
21
-0.259137428546875
31
0
210
0
220
0
230
1
40
0.289609
41
1.20063241215632
42
2.01708199819369
0
ELLIPSE
5
1AE
100
AcDbEntity
8
1
62
256
6
ByLayer
370
-1
48
1
60
0
100
AcDbEllipse
10
61.879462
20
2.165725
30
0
11
0.329330157514379
21
0.021015407480088
31
0
210
0
220
0
230
1
40
0.673866
41
1.35033981543257
42
2.16678940147009
0
ELLIPSE
5
1AF
100
AcDbEntity
8
1
62
256
6
ByLayer
370
-1
48
1
60
0
100
AcDbEllipse
10
61.879462
20
2.165725
30
0
11
-0.329925556072602
21
0.00700909767262944
31
0
210
0
220
0
230
1
40
0.387366
41
-1.75524732150683
42
-0.874225995497559
0
ELLIPSE
5
1B0
100
AcDbEntity
8
1
62
256
6
ByLayer
370
-1
48
1
60
0
100
AcDbEllipse
10
61.872391
20
1.832879
30
0
11
0.329925556072602
21
-0.00700909767262977
31
0
210
0
220
0
230
1
40
0.387366
41
1.38634533208287
42
2.26736665809224
0
ELLIPSE
5
1B1
100
AcDbEntity
8
1
62
256
6
ByLayer
370
-1
48
1
60
0
100
AcDbEllipse
10
61.872391
20
1.832879
30
0
11
-0.162905930262464
21
-0.286987208574392
31
0
210
0
220
0
230
1
40
0.02153
41
-2.00667918783371
42
-1.12565786182578
0
ELLIPSE
5
1B2
100
AcDbEntity
8
1
62
256
6
ByLayer
370
-1
48
1
60
0
100
AcDbEllipse
10
62.186364
20
1.654654
30
0
11
0.279599485899564
21
-0.175282992571156
31
0
210
0
220
0
230
1
40
0.421259
41
1.2596751174186
42
1.60874096781736
0
ELLIPSE
5
1B3
100
AcDbEntity
8
1
62
256
6
ByLayer
370
-1
48
1
60
0
100
AcDbEllipse
10
62.482222
20
2.126586
30
0
11
0.279599485899564
21
-0.175282992571156
31
0
210
0
220
0
230
1
40
0.421259
41
1.25967511741865
42
1.60874096781754
0
ELLIPSE
5
1B4
100
AcDbEntity
8
1
62
256
6
ByLayer
370
-1
48
1
60
0
100
AcDbEllipse
10
62.482222
20
2.126586
30
0
11
0.021383191366392
21
0.329306482060387
31
0
210
0
220
0
230
1
40
0.180834
41
-1.17187192918116
42
-0.82280607878231
0
ELLIPSE
5
1B5
100
AcDbEntity
8
1
62
256
6
ByLayer
370
-1
48
1
60
0
100
AcDbEllipse
10
61.879462
20
2.165725
30
0
11
0.021383191366392
21
0.329306482060387
31
0
210
0
220
0
230
1
40
0.180834
41
-1.17187192918099
42
-0.822806078782371
0
ELLIPSE
5
1B6
100
AcDbEntity
8
1
62
256
6
ByLayer
370
-1
48
1
60
0
100
AcDbEllipse
10
53.993447
20
-6.40931
30
0
11
-0.152366796097944
21
0.088568954667428
31
0
210
0
220
0
230
1
40
0.177556
41
0.764184097428099
42
1.70666189355589
0
ELLIPSE
5
1B7
100
AcDbEntity
8
1
62
256
6
ByLayer
370
-1
48
1
60
0
100
AcDbEllipse
10
53.820739
20
-1.630907
30
0
11
-0.140009178080794
21
-0.240860355591637
31
0
210
0
220
0
230
1
40
0.086219
41
0.516801864011367
42
0.943376976534478
0
ELLIPSE
5
1B8
100
AcDbEntity
8
1
62
256
6
ByLayer
370
-1
48
1
60
0
100
AcDbEllipse
10
52.950173
20
-2.648237
30
0
11
-0.163001787041948
21
-0.0802780296920492
31
0
210
0
220
0
230
1
40
0.905973
41
-1.89138242319329
42
-0.947834104618818
0
ELLIPSE
5
1B9
100
AcDbEntity
8
1
62
256
6
ByLayer
370
-1
48
1
60
0
100
AcDbEllipse
10
52.62588
20
-3.193928
30
0
11
-0.163001787082256
21
-0.0802780296521002
31
0
210
0
220
0
230
1
40
0.905973
41
-0.947834104267412
42
-0.00428578573257737
0
ELLIPSE
5
1BA
100
AcDbEntity
8
1
62
256
6
ByLayer
370
-1
48
1
60
0
100
AcDbEllipse
10
52.372037
20
-3.387433
30
0
11
-0.117723512829761
21
-0.0579785770293218
31
0
210
0
220
0
230
1
40
0.905973
41
2.19375854864893
42
3.13730686731225
0
ELLIPSE
5
1BB
100
AcDbEntity
8
1
62
256
6
ByLayer
370
-1
48
1
60
0
100
AcDbEllipse
10
52.250091
20
-3.592633
30
0
11
-0.117723512866344
21
-0.0579785770006721
31
0
210
0
220
0
230
1
40
0.905973
41
1.16170134146203
42
2.19375854895911
0
ELLIPSE
5
1BC
100
AcDbEntity
8
1
62
256
6
ByLayer
370
-1
48
1
60
0
100
AcDbEllipse
10
51.404239
20
-3.866259
30
0
11
-0.0796897625411017
21
-0.0392470367466334
31
0
210
0
220
0
230
1
40
0.905973
41
-1.97989131234101
42
-0.94783410472252
0
ELLIPSE
5
1BD
100
AcDbEntity
8
1
62
256
6
ByLayer
370
-1
48
1
60
0
100
AcDbEllipse
10
51.402201
20
-3.869688
30
0
11
-0.0796897625377106
21
-0.0392470367483133
31
0
210
0
220
0
230
1
40
0.905973
41
-0.947834104809796
42
0.0842231027949175
0
ELLIPSE
5
1BE
100
AcDbEntity
8
1
62
256
6
ByLayer
370
-1
48
1
60
0
100
AcDbEllipse
10
52.661619
20
-4.662707
30
0
11
-0.00326779055109085
21
-0.890163367045751
31
0
210
0
220
0
230
1
40
0.358446
41
2.35640519755503
42
-3.11033052360073
0
ELLIPSE
5
1BF
100
AcDbEntity
8
1
62
256
6
ByLayer
370
-1
48
1
60
0
100
AcDbEllipse
10
52.655616
20
-4.130806
30
0
11
0.209711886300685
21
0.144294576281327
31
0
210
0
220
0
230
1
40
0.89169
41
-0.539554511565063
42
-0.23473586128822
0
ELLIPSE
5
1C0
100
AcDbEntity
8
1
62
256
6
ByLayer
370
-1
48
1
60
0
100
AcDbEllipse
10
53.016811
20
-4.633032
30
0
11
-1.52763275140445
21
0.717715517773062
31
0
210
0
220
0
230
1
40
0.19038
41
-0.319230007772961
42
0.282189388543213
0
ELLIPSE
5
1C1
100
AcDbEntity
8
1
62
256
6
ByLayer
370
-1
48
1
60
0
100
AcDbEllipse
10
52.659371
20
-4.463558
30
0
11
0.209711886300685
21
0.144294576281327
31
0
210
0
220
0
230
1
40
0.89169
41
-1.64781454596462
42
-0.539554511565114
0
ELLIPSE
5
1C2
100
AcDbEntity
8
1
62
256
6
ByLayer
370
-1
48
1
60
0
100
AcDbEllipse
10
52.845297
20
-4.353628
30
0
11
-0.829504793136392
21
-0.492477579213122
31
0
210
0
220
0
230
1
40
0.305211
41
0.00450811621337014
42
0.820957702252861
0
ELLIPSE
5
1C3
100
AcDbEntity
8
1
62
256
6
ByLayer
370
-1
48
1
60
0
100
AcDbEllipse
10
52.348713
20
-4.647235
30
0
11
0.209711886300685
21
0.144294576281327
31
0
210
0
220
0
230
1
40
0.89169
41
-1.95263319624153
42
-1.64781454596439
0
ELLIPSE
5
1C4
100
AcDbEntity
8
1
62
256
6
ByLayer
370
-1
48
1
60
0
100
AcDbEllipse
10
53.128346
20
-5.596384
30
0
11
-0.319395980548361
21
0.0196521655181072
31
0
210
0
220
0
230
1
40
0.37118
41
-2.45801148530618
42
-1.28804767707367
0
ELLIPSE
5
1C5
100
AcDbEntity
8
1
62
256
6
ByLayer
370
-1
48
1
60
0
100
AcDbEllipse
10
53.128346
20
-5.596384
30
0
11
0.318680845545932
21
0.0290261723644354
31
0
210
0
220
0
230
1
40
0.190982
41
0.64031941230836
42
1.63092473829557
0
ELLIPSE
5
1C6
100
AcDbEntity
8
1
62
256
6
ByLayer
370
-1
48
1
60
0
100
AcDbEllipse
10
53.128346
20
-5.596384
30
0
11
-0.215215761079828
21
0.236816756549933
31
0
210
0
220
0
230
1
40
0.068153
41
-1.38132073512252
42
-1.10567697417539
0
ELLIPSE
5
1C7
100
AcDbEntity
8
1
62
256
6
ByLayer
370
-1
48
1
60
0
100
AcDbEllipse
10
57.072553
20
-7.161494
30
0
11
0.0828127045743335
21
-0.125068205236519
31
0
210
0
220
0
230
1
40
0.117984
41
-1.33430889524909
42
-0.628722705550598
0
ELLIPSE
5
1C8
100
AcDbEntity
8
1
62
256
6
ByLayer
370
-1
48
1
60
0
100
AcDbEllipse
10
57.253324
20
-1.223337
30
0
11
0.0363391848132797
21
-0.145531658573337
31
0
210
0
220
0
230
1
40
0.031018
41
-1.48320439880932
42
-1.30867147361077
0
ELLIPSE
5
1C9
100
AcDbEntity
8
1
62
256
6
ByLayer
370
-1
48
1
60
0
100
AcDbEllipse
10
56.644116
20
-1.375456
30
0
11
0.0363391848132797
21
-0.145531658573337
31
0
210
0
220
0
230
1
40
0.031018
41
-1.48320439880932
42
-1.30867147361073
0
ELLIPSE
5
1CA
100
AcDbEntity
8
1
62
256
6
ByLayer
370
-1
48
1
60
0
100
AcDbEllipse
10
56.20089
20
-0.894015
30
0
11
-0.13157497754103
21
-0.0720279479443735
31
0
210
0
220
0
230
1
40
0.244182
41
1.47601452887174
42
2.18853910739836
0
ELLIPSE
5
1CB
100
AcDbEntity
8
1
62
256
6
ByLayer
370
-1
48
1
60
0
100
AcDbEllipse
10
52.116019
20
-4.258698
30
0
11
0.126635808899252
21
0.304734920717059
31
0
210
0
220
0
230
1
40
0.555252
41
1.01747861494655
42
1.61889801125759
0
ELLIPSE
5
1CC
100
AcDbEntity
8
1
62
256
6
ByLayer
370
-1
48
1
60
0
100
AcDbEllipse
10
52.709498
20
-4.209115
30
0
11
-0.329978987874474
21
-0.0037239174719496
31
0
210
0
220
0
230
1
40
0.388343
41
-2.19670431702285
42
-1.31568299101343
0
ELLIPSE
5
1CD
100
AcDbEntity
8
1
62
256
6
ByLayer
370
-1
48
1
60
0
100
AcDbEllipse
10
52.709498
20
-4.209115
30
0
11
0.328176800678817
21
-0.0346408356743357
31
0
210
0
220
0
230
1
40
0.669793
41
1.06244249096487
42
1.87889207700229
0
ELLIPSE
5
1CE
100
AcDbEntity
8
1
62
256
6
ByLayer
370
-1
48
1
60
0
100
AcDbEllipse
10
52.402595
20
-4.725545
30
0
11
-0.212269097715289
21
0.252669408823342
31
0
210
0
220
0
230
1
40
0.337579
41
1.08120929264106
42
1.89765887867864
0
ELLIPSE
5
1CF
100
AcDbEntity
8
1
62
256
6
ByLayer
370
-1
48
1
60
0
100
AcDbEllipse
10
52.402595
20
-4.725545
30
0
11
0.167953352766761
21
-0.284062794632462
31
0
210
0
220
0
230
1
40
0.034828
41
-2.03933042831832
42
-1.15830910230804
0
ELLIPSE
5
1D0
100
AcDbEntity
8
1
62
256
6
ByLayer
370
-1
48
1
60
0
100
AcDbEllipse
10
52.713253
20
-4.541867
30
0
11
-0.167953352766761
21
0.284062794632462
31
0
210
0
220
0
230
1
40
0.034828
41
1.10226222527249
42
1.98328355128173
0
ELLIPSE
5
1D1
100
AcDbEntity
8
1
62
256
6
ByLayer
370
-1
48
1
60
0
100
AcDbEllipse
10
52.713253
20
-4.541867
30
0
11
0.329978987874474
21
0.00372391747194953
31
0
210
0
220
0
230
1
40
0.388343
41
0.944888336566947
42
1.82590966257628
0
ELLIPSE
5
1D2
100
AcDbEntity
8
1
62
256
6
ByLayer
370
-1
48
1
60
0
100
AcDbEllipse
10
52.709498
20
-4.209115
30
0
11
-0.0274746039317563
21
0.328854293173729
31
0
210
0
220
0
230
1
40
0.244295
41
0.817871906210612
42
1.16693775660933
0
ELLIPSE
5
1D3
100
AcDbEntity
8
1
62
256
6
ByLayer
370
-1
48
1
60
0
100
AcDbEllipse
10
52.116019
20
-4.258698
30
0
11
-0.0274746039317563
21
0.328854293173729
31
0
210
0
220
0
230
1
40
0.244295
41
0.817871906210374
42
1.16693775660922
0
ELLIPSE
5
1D4
100
AcDbEntity
8
1
62
256
6
ByLayer
370
-1
48
1
60
0
100
AcDbEllipse
10
52.116019
20
-4.258698
30
0
11
-0.281239163946538
21
-0.172639893022014
31
0
210
0
220
0
230
1
40
0.452158
41
-1.5472111100397
42
-1.19814525964074
0
ELLIPSE
5
1D5
100
AcDbEntity
8
1
62
256
6
ByLayer
370
-1
48
1
60
0
100
AcDbEllipse
10
52.402595
20
-4.725545
30
0
11
-0.281239163946538
21
-0.172639893022014
31
0
210
0
220
0
230
1
40
0.452158
41
-1.54721111003961
42
-1.19814525964086
0
ELLIPSE
5
1D6
100
AcDbEntity
8
1
62
256
6
ByLayer
370
-1
48
1
60
0
100
AcDbEllipse
10
63.061184
20
3.552283
30
0
11
-0.0872620521753041
21
-0.0113725217148171
31
0
210
0
220
0
230
1
40
0.965377
41
-2.74315005139859
42
-1.71109284383733
0
ELLIPSE
5
1D7
100
AcDbEntity
8
1
62
256
6
ByLayer
370
-1
48
1
60
0
100
AcDbEllipse
10
57.637826
20
-8.411038
30
0
11
-0.129047565266498
21
0.0766809847273835
31
0
210
0
220
0
230
1
40
0.207713
41
1.01997516923562
42
1.73249974784741
0
ELLIPSE
5
1D8
100
AcDbEntity
8
1
62
256
6
ByLayer
370
-1
48
1
60
0
100
AcDbEllipse
10
63.928916
20
-8.107563
30
0
11
-0.00294868006385431
21
0.337775014856192
31
0
210
0
220
0
230
1
40
0.030848
41
1.29501788984134
42
1.57066167860397
0
ELLIPSE
5
1D9
100
AcDbEntity
8
1
62
256
6
ByLayer
370
-1
48
1
60
0
100
AcDbEllipse
10
63.939663
20
-4.465494
30
0
11
-0.00118496601779537
21
0.16572533127578
31
0
210
0
220
0
230
1
40
0.029663
41
-1.8073290268305
42
-1.10174283554235
0
ELLIPSE
5
1DA
100
AcDbEntity
8
1
62
256
6
ByLayer
370
-1
48
1
60
0
100
AcDbEllipse
10
63.928916
20
-7.879693
30
0
11
-0.00182133631796255
21
0.382233948072081
31
0
210
0
220
0
230
1
40
0.027927
41
0.411196376249944
42
1.40180170246835
0
ELLIPSE
5
1DB
100
AcDbEntity
8
1
62
256
6
ByLayer
370
-1
48
1
60
0
100
AcDbEllipse
10
60.752572
20
-9.615649
30
0
11
-0.703412698163357
21
-0.0249980102923117
31
0
210
0
220
0
230
1
40
0.118947
41
-1.48537429368499
42
-0.622440647752899
0
ELLIPSE
5
1DC
100
AcDbEntity
8
1
62
256
6
ByLayer
370
-1
48
1
60
0
100
AcDbEllipse
10
59.88752
20
-9.4039
30
0
11
0.247903557316213
21
0.0323083003261876
31
0
210
0
220
0
230
1
40
0.965377
41
-2.21955127580023
42
-2.12341549807577
0
ELLIPSE
5
1DD
100
AcDbEntity
8
1
62
256
6
ByLayer
370
-1
48
1
60
0
100
AcDbEllipse
10
63.675191
20
-8.860812
30
0
11
-0.00224182665321581
21
0.258809333187482
31
0
210
0
220
0
230
1
40
0.965414
41
-2.10946969253387
42
-1.57073057313625
0
ELLIPSE
5
1DE
100
AcDbEntity
8
1
62
256
6
ByLayer
370
-1
48
1
60
0
100
AcDbEllipse
10
63.939663
20
-7.03665
30
0
11
-0.00112078330023185
21
0.175200356768792
31
0
210
0
220
0
230
1
40
0.028145
41
-2.73677093594621
42
-1.79429313929284
0
ELLIPSE
5
1DF
100
AcDbEntity
8
1
62
256
6
ByLayer
370
-1
48
1
60
0
100
AcDbEllipse
10
59.742902
20
-9.607799
30
0
11
-0.282946175361609
21
-0.00181004970728227
31
0
210
0
220
0
230
1
40
0.13726
41
2.10369367120452
42
2.5302687867309
0
ELLIPSE
5
1E0
100
AcDbEntity
8
1
62
256
6
ByLayer
370
-1
48
1
60
0
100
AcDbEllipse
10
61.121848
20
-9.730291
30
0
11
-0.00161411556377912
21
0.186342719962832
31
0
210
0
220
0
230
1
40
0.965414
41
2.19811008656498
42
-3.14152690203576
0
ELLIPSE
5
1E1
100
AcDbEntity
8
1
62
256
6
ByLayer
370
-1
48
1
60
0
100
AcDbEllipse
10
61.770433
20
-9.724628
30
0
11
-0.00161411560391463
21
0.186342719947422
31
0
210
0
220
0
230
1
40
0.965414
41
-3.14152690224415
42
-2.19797858362218
0
ELLIPSE
5
1E2
100
AcDbEntity
8
1
62
256
6
ByLayer
370
-1
48
1
60
0
100
AcDbEllipse
10
62.062611
20
-9.853018
30
0
11
-0.00116575017544378
21
0.134580853297356
31
0
210
0
220
0
230
1
40
0.965414
41
6.57512241539658E-05
42
0.943614069837194
0
ELLIPSE
5
1E3
100
AcDbEntity
8
1
62
256
6
ByLayer
370
-1
48
1
60
0
100
AcDbEllipse
10
62.306503
20
-9.850889
30
0
11
-0.00116575016279475
21
0.134580853300885
31
0
210
0
220
0
230
1
40
0.965414
41
-1.03199145623499
42
6.57513146304669E-05
0
ELLIPSE
5
1E4
100
AcDbEntity
8
1
62
256
6
ByLayer
370
-1
48
1
60
0
100
AcDbEllipse
10
62.937736
20
-10.489713
30
0
11
-0.00078912321882211
21
0.0911008853067141
31
0
210
0
220
0
230
1
40
0.965414
41
2.10960119699128
42
-3.14152690261031
0
ELLIPSE
5
1E5
100
AcDbEntity
8
1
62
256
6
ByLayer
370
-1
48
1
60
0
100
AcDbEllipse
10
62.941811
20
-10.489677
30
0
11
-0.000789123155351667
21
0.0911008853034888
31
0
210
0
220
0
230
1
40
0.965414
41
-3.14152690194024
42
-2.10946969433789
0
ELLIPSE
5
1E6
100
AcDbEntity
8
1
62
256
6
ByLayer
370
-1
48
1
60
0
100
AcDbEllipse
10
63.109212
20
-8.856082
30
0
11
-0.815880123398574
21
-0.515113493596561
31
0
210
0
220
0
230
1
40
0.341959
41
-0.827075079789503
42
-0.0106254937590121
0
ELLIPSE
5
1E7
100
AcDbEntity
8
1
62
256
6
ByLayer
370
-1
48
1
60
0
100
AcDbEllipse
10
62.621281
20
-9.164098
30
0
11
-0.00111084561864769
21
0.25455601745394
31
0
210
0
220
0
230
1
40
0.99947
41
0.558493844770992
42
0.863312495047814
0
ELLIPSE
5
1E8
100
AcDbEntity
8
1
62
256
6
ByLayer
370
-1
48
1
60
0
100
AcDbEllipse
10
62.922756
20
-8.539376
30
0
11
-0.0160813469131444
21
1.84304788192901
31
0
210
0
220
0
230
1
40
0.178949
41
2.84088381131763
42
-2.84088209954943
0
ELLIPSE
5
1E9
100
AcDbEntity
8
1
62
256
6
ByLayer
370
-1
48
1
60
0
100
AcDbEllipse
10
62.926526
20
-8.971406
30
0
11
-0.00111084561864769
21
0.25455601745394
31
0
210
0
220
0
230
1
40
0.99947
41
-0.549766189628459
42
0.558493844770924
0
ELLIPSE
5
1EA
100
AcDbEntity
8
1
62
256
6
ByLayer
370
-1
48
1
60
0
100
AcDbEllipse
10
62.741855
20
-8.859289
30
0
11
-0.824744730986893
21
0.500790074721248
31
0
210
0
220
0
230
1
40
0.341962
41
-3.13096875787628
42
-2.31451917187379
0
ELLIPSE
5
1EB
100
AcDbEntity
8
1
62
256
6
ByLayer
370
-1
48
1
60
0
100
AcDbEllipse
10
63.235086
20
-9.15874
30
0
11
-0.00111084561864769
21
0.25455601745394
31
0
210
0
220
0
230
1
40
0.99947
41
-0.854584839905483
42
-0.549766189628459
0
ELLIPSE
5
1EC
100
AcDbEntity
8
1
62
256
6
ByLayer
370
-1
48
1
60
0
100
AcDbEllipse
10
63.698513
20
-8.031874
30
0
11
0.151526441011303
21
-0.281850559116792
31
0
210
0
220
0
230
1
40
0.028752
41
-2.75605480879948
42
-1.58609100057057
0
ELLIPSE
5
1ED
100
AcDbEntity
8
1
62
256
6
ByLayer
370
-1
48
1
60
0
100
AcDbEllipse
10
63.698513
20
-8.031874
30
0
11
-0.176362263404766
21
0.267013767522852
31
0
210
0
220
0
230
1
40
0.190428
41
-1.38354843995794
42
-0.392943113970654
0
ELLIPSE
5
1EE
100
AcDbEntity
8
1
62
256
6
ByLayer
370
-1
48
1
60
0
100
AcDbEllipse
10
63.698513
20
-8.031874
30
0
11
-0.0998721853702699
21
-0.304015701221773
31
0
210
0
220
0
230
1
40
0.030894
41
-1.83614197170457
42
-1.56049821075755
0
ELLIPSE
5
1EF
100
AcDbEntity
8
1
62
256
6
ByLayer
370
-1
48
1
60
0
100
AcDbEllipse
10
63.098204
20
-4.077275
30
0
11
0.0628391801251593
21
0.136202927432555
31
0
210
0
220
0
230
1
40
0.142491
41
-1.79338625418432
42
-1.08780006448493
0
ELLIPSE
5
1F0
100
AcDbEntity
8
1
62
256
6
ByLayer
370
-1
48
1
60
0
100
AcDbEllipse
10
57.688253
20
-6.94149
30
0
11
0.10564371339657
21
0.106486646204035
31
0
210
0
220
0
230
1
40
0.208799
41
-1.90590966770949
42
-1.73137674251017
0
ELLIPSE
5
1F1
100
AcDbEntity
8
1
62
256
6
ByLayer
370
-1
48
1
60
0
100
AcDbEllipse
10
58.1244
20
-7.374185
30
0
11
0.10564371339657
21
0.106486646204035
31
0
210
0
220
0
230
1
40
0.208799
41
-1.90590966770969
42
-1.73137674251003
0
ELLIPSE
5
1F2
100
AcDbEntity
8
1
62
256
6
ByLayer
370
-1
48
1
60
0
100
AcDbEllipse
10
57.911143
20
-7.989678
30
0
11
0.12584393714589
21
-0.0816290602887306
31
0
210
0
220
0
230
1
40
0.201571
41
-2.11345478371635
42
-1.40093020518971
0
ELLIPSE
5
1F3
100
AcDbEntity
8
1
62
256
6
ByLayer
370
-1
48
1
60
0
100
AcDbEllipse
10
62.939662
20
-9.693242
30
0
11
-0.329964582601559
21
-0.00483469012230859
31
0
210
0
220
0
230
1
40
0.17881
41
1.23698418946284
42
1.83840358577365
0
ELLIPSE
5
1F4
100
AcDbEntity
8
1
62
256
6
ByLayer
370
-1
48
1
60
0
100
AcDbEllipse
10
62.628119
20
-9.164069
30
0
11
0.176156251761359
21
-0.279050129842989
31
0
210
0
220
0
230
1
40
0.027615
41
-2.46908070208616
42
-1.5880593760777
0
ELLIPSE
5
1F5
100
AcDbEntity
8
1
62
256
6
ByLayer
370
-1
48
1
60
0
100
AcDbEllipse
10
62.628119
20
-9.164069
30
0
11
-0.17792356673326
21
0.277926616934966
31
0
210
0
220
0
230
1
40
0.36765
41
0.725349681265675
42
1.54179926730302
0
ELLIPSE
5
1F6
100
AcDbEntity
8
1
62
256
6
ByLayer
370
-1
48
1
60
0
100
AcDbEllipse
10
63.241924
20
-9.15871
30
0
11
-0.16952511551803
21
-0.283127595279229
31
0
210
0
220
0
230
1
40
0.315606
41
1.56330588196816
42
2.3797554680055
0
ELLIPSE
5
1F7
100
AcDbEntity
8
1
62
256
6
ByLayer
370
-1
48
1
60
0
100
AcDbEllipse
10
63.241924
20
-9.15871
30
0
11
0.171258174322715
21
0.282082678886263
31
0
210
0
220
0
230
1
40
0.027765
41
0.706796320594899
42
1.58781764660458
0
ELLIPSE
5
1F8
100
AcDbEntity
8
1
62
256
6
ByLayer
370
-1
48
1
60
0
100
AcDbEllipse
10
62.933364
20
-8.971376
30
0
11
-0.171258174322715
21
-0.282082678886263
31
0
210
0
220
0
230
1
40
0.027765
41
-2.43479633299719
42
-1.55377500698521
0
ELLIPSE
5
1F9
100
AcDbEntity
8
1
62
256
6
ByLayer
370
-1
48
1
60
0
100
AcDbEllipse
10
62.933364
20
-8.971376
30
0
11
-0.176156251761359
21
0.279050129842989
31
0
210
0
220
0
230
1
40
0.027615
41
0.672511951503635
42
1.55353327751214
0
ELLIPSE
5
1FA
100
AcDbEntity
8
1
62
256
6
ByLayer
370
-1
48
1
60
0
100
AcDbEllipse
10
62.628119
20
-9.164069
30
0
11
-0.284376105461712
21
-0.167422312259834
31
0
210
0
220
0
230
1
40
0.016405
41
-1.54265949171741
42
-1.19359364131731
0
ELLIPSE
5
1FB
100
AcDbEntity
8
1
62
256
6
ByLayer
370
-1
48
1
60
0
100
AcDbEllipse
10
62.939662
20
-9.693242
30
0
11
-0.284376105461712
21
-0.167422312259834
31
0
210
0
220
0
230
1
40
0.016405
41
-1.54265949171739
42
-1.19359364131922
0
ELLIPSE
5
1FC
100
AcDbEntity
8
1
62
256
6
ByLayer
370
-1
48
1
60
0
100
AcDbEllipse
10
62.939662
20
-9.693242
30
0
11
0.287254667490145
21
-0.162433851167563
31
0
210
0
220
0
230
1
40
0.016158
41
-1.59907522440308
42
-1.25000937400459
0
ELLIPSE
5
1FD
100
AcDbEntity
8
1
62
256
6
ByLayer
370
-1
48
1
60
0
100
AcDbEllipse
10
63.241924
20
-9.15871
30
0
11
0.287254667490145
21
-0.162433851167563
31
0
210
0
220
0
230
1
40
0.016158
41
-1.59907522440299
42
-1.25000937400459
0
ELLIPSE
5
1FE
100
AcDbEntity
8
1
62
256
6
ByLayer
370
-1
48
1
60
0
100
AcDbEllipse
10
55.96212
20
-0.45785
30
0
11
-0.128694594690662
21
-0.0772752475664924
31
0
210
0
220
0
230
1
40
0.240247
41
1.46642711687005
42
2.17895169569813
0
ELLIPSE
5
1FF
100
AcDbEntity
8
1
62
256
6
ByLayer
370
-1
48
1
60
0
100
AcDbEllipse
10
52.949202
20
-5.759187
30
0
11
-0.289302537064113
21
0.168627450444963
31
0
210
0
220
0
230
1
40
0.200375
41
-1.44441105867468
42
-1.16876729746804
0
ELLIPSE
5
200
100
AcDbEntity
8
1
62
256
6
ByLayer
370
-1
48
1
60
0
100
AcDbEllipse
10
56.297371
20
-7.674774
30
0
11
-0.143596299209976
21
0.0840609519162682
31
0
210
0
220
0
230
1
40
0.187849
41
1.71533367281747
42
2.42091986254934
0
ELLIPSE
5
201
100
AcDbEntity
8
1
62
256
6
ByLayer
370
-1
48
1
60
0
100
AcDbEllipse
10
53.153389
20
-5.87134
30
0
11
-0.337077373760715
21
0.199105137787462
31
0
210
0
220
0
230
1
40
0.169944
41
-2.37943050142527
42
-1.38882517546429
0
ELLIPSE
5
202
100
AcDbEntity
8
1
62
256
6
ByLayer
370
-1
48
1
60
0
100
AcDbEllipse
10
53.319158
20
-2.495221
30
0
11
-0.352818355795782
21
-0.579522284482304
31
0
210
0
220
0
230
1
40
0.077955
41
-2.60472539840678
42
-1.74179175244006
0
ELLIPSE
5
203
100
AcDbEntity
8
1
62
256
6
ByLayer
370
-1
48
1
60
0
100
AcDbEllipse
10
53.972398
20
-1.90598
30
0
11
0.247903557316213
21
0.0323083003261876
31
0
210
0
220
0
230
1
40
0.965377
41
1.96923892898624
42
2.06537470671049
0
ELLIPSE
5
204
100
AcDbEntity
8
1
62
256
6
ByLayer
370
-1
48
1
60
0
100
AcDbEllipse
10
52.37067
20
-5.135033
30
0
11
-0.226391370868687
21
-0.111497263382653
31
0
210
0
220
0
230
1
40
0.905973
41
0.0842231031793358
42
0.622962222465155
0
ELLIPSE
5
205
100
AcDbEntity
8
1
62
256
6
ByLayer
370
-1
48
1
60
0
100
AcDbEllipse
10
59.121367
20
-3.474089
30
0
11
1.20137783503978
21
0.111056505775856
31
0
210
0
220
0
230
1
40
0.965649
41
-2.85967557154607
42
-2.72161030472253
0
ELLIPSE
5
206
100
AcDbEntity
8
1
62
256
6
ByLayer
370
-1
48
1
60
0
100
AcDbEllipse
10
59.14896
20
-3.772589
30
0
11
1.20137783503978
21
0.111056505775857
31
0
210
0
220
0
230
1
40
0.965649
41
-2.85967557154607
42
-2.72161030472254
0
ELLIPSE
5
207
100
AcDbEntity
8
1
62
256
6
ByLayer
370
-1
48
1
60
0
100
AcDbEllipse
10
59.14896
20
-3.772589
30
0
11
1.20137783503978
21
0.111056505775857
31
0
210
0
220
0
230
1
40
0.965649
41
0.281917082043344
42
0.419982348867604
0
ELLIPSE
5
208
100
AcDbEntity
8
1
62
256
6
ByLayer
370
-1
48
1
60
0
100
AcDbEllipse
10
59.155451
20
-3.8428
30
0
11
1.66938246203413
21
0.154319297085141
31
0
210
0
220
0
230
1
40
0.965649
41
1.92174604225042
42
2.9661530457657
0
ELLIPSE
5
209
100
AcDbEntity
8
1
62
256
6
ByLayer
370
-1
48
1
60
0
100
AcDbEllipse
10
59.155451
20
-3.8428
30
0
11
1.66938246203413
21
0.154319297085141
31
0
210
0
220
0
230
1
40
0.965649
41
2.9661530457657
42
-2.26425361485468
0
ELLIPSE
5
20A
100
AcDbEntity
8
1
62
256
6
ByLayer
370
-1
48
1
60
0
100
AcDbEllipse
10
59.155451
20
-3.8428
30
0
11
1.66938246203413
21
0.154319297085141
31
0
210
0
220
0
230
1
40
0.965649
41
-2.26425361485468
42
-1.21984661133942
0
ELLIPSE
5
20B
100
AcDbEntity
8
1
62
256
6
ByLayer
370
-1
48
1
60
0
100
AcDbEllipse
10
59.155451
20
-3.8428
30
0
11
1.66938246203413
21
0.154319297085141
31
0
210
0
220
0
230
1
40
0.965649
41
-1.21984661133942
42
-0.175439607824201
0
ELLIPSE
5
20C
100
AcDbEntity
8
1
62
256
6
ByLayer
370
-1
48
1
60
0
100
AcDbEllipse
10
59.155451
20
-3.8428
30
0
11
1.66938246203413
21
0.154319297085141
31
0
210
0
220
0
230
1
40
0.965649
41
-0.175439607824201
42
0.87733903873509
0
ELLIPSE
5
20D
100
AcDbEntity
8
1
62
256
6
ByLayer
370
-1
48
1
60
0
100
AcDbEllipse
10
59.155451
20
-3.8428
30
0
11
1.66938246203413
21
0.154319297085141
31
0
210
0
220
0
230
1
40
0.965649
41
0.87733903873509
42
1.92174604225042
0
ELLIPSE
5
20E
100
AcDbEntity
8
1
62
256
6
ByLayer
370
-1
48
1
60
0
100
AcDbEllipse
10
59.121367
20
-3.474089
30
0
11
-1.20137783503978
21
-0.111056505775863
31
0
210
0
220
0
230
1
40
0.965649
41
1.39954254049273
42
2.44394954400798
0
ELLIPSE
5
20F
100
AcDbEntity
8
1
62
256
6
ByLayer
370
-1
48
1
60
0
100
AcDbEllipse
10
59.121367
20
-3.474089
30
0
11
-1.20137783503978
21
-0.111056505775863
31
0
210
0
220
0
230
1
40
0.965649
41
0.419982348867265
42
1.39954254049273
0
ELLIPSE
5
210
100
AcDbEntity
8
1
62
256
6
ByLayer
370
-1
48
1
60
0
100
AcDbEllipse
10
58.965977
20
-5.29689
30
0
11
-0.68308760450666
21
-0.0631452656131299
31
0
210
0
220
0
230
1
40
0.965649
41
-1.74205011309707
42
-0.958059469476248
0
ELLIPSE
5
211
100
AcDbEntity
8
1
62
256
6
ByLayer
370
-1
48
1
60
0
100
AcDbEllipse
10
58.965977
20
-5.29689
30
0
11
-0.68308760450666
21
-0.0631452656131299
31
0
210
0
220
0
230
1
40
0.965649
41
-2.52604075671784
42
-1.74205011309707
0
ELLIPSE
5
212
100
AcDbEntity
8
1
62
256
6
ByLayer
370
-1
48
1
60
0
100
AcDbEllipse
10
60.673608
20
-4.509608
30
0
11
-0.68308760450666
21
-0.0631452656131299
31
0
210
0
220
0
230
1
40
0.965649
41
-1.48163375320266
42
-0.697643109581829
0
ELLIPSE
5
213
100
AcDbEntity
8
1
62
256
6
ByLayer
370
-1
48
1
60
0
100
AcDbEllipse
10
57.41678
20
-4.259967
30
0
11
-0.68308760450666
21
-0.0631452656131299
31
0
210
0
220
0
230
1
40
0.965649
41
-2.66902889691764
42
-1.99938160321308
0
ELLIPSE
5
214
100
AcDbEntity
8
1
62
256
6
ByLayer
370
-1
48
1
60
0
100
AcDbEllipse
10
59.147874
20
-3.760831
30
0
11
2.71343108204177
21
0.250832141101705
31
0
210
0
220
0
230
1
40
0.965649
41
0
42
6.28318530717959
0
ELLIPSE
5
215
100
AcDbEntity
8
1
62
256
6
ByLayer
370
-1
48
1
60
0
100
AcDbEllipse
10
59.155451
20
-3.8428
30
0
11
1.79235814593588
21
0.16568728586535
31
0
210
0
220
0
230
1
40
0.965649
41
0
42
6.28318530717959
0
ELLIPSE
5
216
100
AcDbEntity
8
1
62
256
6
ByLayer
370
-1
48
1
60
0
100
AcDbEllipse
10
59.184927
20
-3.98495
30
0
11
3.05458417278442
21
0.398091999543421
31
0
210
0
220
0
230
1
40
0.965377
41
0
42
6.28318530717959
0
ELLIPSE
5
217
100
AcDbEntity
8
1
62
256
6
ByLayer
370
-1
48
1
60
0
100
AcDbEllipse
10
63.939663
20
-2.96956
30
0
11
-0.00130855131535387
21
0.150100408000833
31
0
210
0
220
0
230
1
40
0.032542
41
-2.54507254812511
42
-1.83254797038988
0
ELLIPSE
5
218
100
AcDbEntity
8
1
62
256
6
ByLayer
370
-1
48
1
60
0
100
AcDbEllipse
10
60.629251
20
2.275679
30
0
11
-0.289198814729468
21
-0.170212776850402
31
0
210
0
220
0
230
1
40
0.230783
41
-1.91729094146832
42
-1.64164718250317
0
ELLIPSE
5
219
100
AcDbEntity
8
1
62
256
6
ByLayer
370
-1
48
1
60
0
100
AcDbEllipse
10
57.302576
20
0.30182
30
0
11
-0.143281482002327
21
-0.0850670080372365
31
0
210
0
220
0
230
1
40
0.216652
41
0.77229650076856
42
1.47788269054541
0
ELLIPSE
5
21A
100
AcDbEntity
8
1
62
256
6
ByLayer
370
-1
48
1
60
0
100
AcDbEllipse
10
60.425064
20
2.159961
30
0
11
-0.335345611875903
21
-0.202133482172128
31
0
210
0
220
0
230
1
40
0.196502
41
-1.70665050977233
42
-0.716045183827924
0
ELLIPSE
5
21B
100
AcDbEntity
8
1
62
256
6
ByLayer
370
-1
48
1
60
0
100
AcDbEllipse
10
63.474388
20
0.222483
30
0
11
-0.354581940668905
21
0.613012806251243
31
0
210
0
220
0
230
1
40
0.045947
41
-2.39810500422646
42
-1.5351713580894
0
ELLIPSE
5
21C
100
AcDbEntity
8
1
62
256
6
ByLayer
370
-1
48
1
60
0
100
AcDbEllipse
10
63.694862
20
-0.644971
30
0
11
0.247903557316213
21
0.0323083003261876
31
0
210
0
220
0
230
1
40
0.965377
41
-0.125156173406997
42
-0.0290203956827399
0
ELLIPSE
5
21D
100
AcDbEntity
8
1
62
256
6
ByLayer
370
-1
48
1
60
0
100
AcDbEllipse
10
61.449907
20
2.49379
30
0
11
-0.242957627006489
21
0.0725900423101558
31
0
210
0
220
0
230
1
40
0.912025
41
-1.32438791878011
42
-0.785648799637915
0
POINT
5
41
100
AcDbEntity
8
1
62
256
6
ByLayer
370
-1
48
1
60
0
100
AcDbPoint
10
62.940569
20
10.58083
30
0
39
0
210
0
220
0
230
1
50
360
0
POINT
5
43
100
AcDbEntity
8
80
62
256
6
ByLayer
370
-1
48
1
60
0
100
AcDbPoint
10
0
20
0
30
0
39
0
210
0
220
0
230
1
50
360
0
POINT
5
45
100
AcDbEntity
8
81
62
256
6
ByLayer
370
-1
48
1
60
0
100
AcDbPoint
10
63.94
20
-11.875
30
0
39
0
210
0
220
0
230
1
50
360
0
POINT
5
47
100
AcDbEntity
8
2
62
256
6
ByLayer
370
-1
48
1
60
0
100
AcDbPoint
10
63.94
20
11.875
30
0
39
0
210
0
220
0
230
1
50
360
0
SPLINE
5
21E
100
AcDbEntity
8
1
62
256
6
ByLayer
370
-1
48
1
60
0
100
AcDbSpline
70
4
71
3
72
12
73
8
40
0
40
0
40
0
40
0
40
0.379913249930068
40
0.379913249930068
40
0.690136527032354
40
0.690136527032354
40
1
40
1
40
1
40
1
41
1
10
50.7405614719232
20
-4.46312578007857
30
0
41
1
10
50.7853402163162
20
-4.47808630627549
30
0
41
1
10
50.8302940980089
20
-4.49145584390033
30
0
41
1
10
50.9119914476148
20
-4.51284450343925
30
0
41
1
10
50.9487594633139
20
-4.52140321285967
30
0
41
1
10
51.0221597212278
20
-4.53640260820299
30
0
41
1
10
51.0588179574992
20
-4.54285089674869
30
0
41
1
10
51.0953665019764
20
-4.54825998758909
30
0
0
SPLINE
5
21F
100
AcDbEntity
8
1
62
256
6
ByLayer
370
-1
48
1
60
0
100
AcDbSpline
70
4
71
3
72
8
73
4
40
0
40
0
40
0
40
0
40
1
40
1
40
1
40
1
41
1
10
48.5689701268623
20
4.82083787699591
30
0
41
1
10
48.6117327624376
20
4.78065166210968
30
0
41
1
10
48.6538623420406
20
4.74179863252505
30
0
41
1
10
48.6950653289915
20
4.70428462881432
30
0
0
SPLINE
5
220
100
AcDbEntity
8
1
62
256
6
ByLayer
370
-1
48
1
60
0
100
AcDbSpline
70
4
71
3
72
12
73
8
40
0
40
0
40
0
40
0
40
0.0205120532886611
40
0.0205120532886611
40
0.506212079378759
40
0.506212079378759
40
1
40
1
40
1
40
1
41
1
10
52.8232347263409
20
-1.56292518492918
30
0
41
1
10
52.829490618387
20
-1.56162703771591
30
0
41
1
10
52.8357162591813
20
-1.56035047128003
30
0
41
1
10
52.9882608225279
20
-1.52944101990317
30
0
41
1
10
53.1186495574582
20
-1.5112159835061
30
0
41
1
10
53.3575223522994
20
-1.4897940898912
30
0
41
1
10
53.4660129329191
20
-1.48691910746751
30
0
41
1
10
53.5640933205322
20
-1.49041054170874
30
0
0
SPLINE
5
221
100
AcDbEntity
8
1
62
256
6
ByLayer
370
-1
48
1
60
0
100
AcDbSpline
70
4
71
1
72
4
73
2
40
0
40
0
40
1
40
1
41
1
10
51.2712671685951
20
-4.50914189187949
30
0
41
1
10
51.2236733364636
20
-4.61897755205987
30
0
0
SPLINE
5
222
100
AcDbEntity
8
1
62
256
6
ByLayer
370
-1
48
1
60
0
100
AcDbSpline
70
4
71
3
72
18
73
14
40
0
40
0
40
0
40
0
40
0.221110780268686
40
0.221110780268686
40
0.385027377623166
40
0.385027377623166
40
0.55070973819488
40
0.55070973819488
40
0.693890382484043
40
0.693890382484043
40
0.839012251879171
40
0.839012251879171
40
1
40
1
40
1
40
1
41
1
10
44.9553442490805
20
-7.16667452580987
30
0
41
1
10
44.901718780913
20
-7.2212758895688
30
0
41
1
10
44.8649378201619
20
-7.27572930273297
30
0
41
1
10
44.850098935048
20
-7.36352149975573
30
0
41
1
10
44.8596582376641
20
-7.39944606566084
30
0
41
1
10
44.918305926727
20
-7.46318828757887
30
0
41
1
10
44.969149336432
20
-7.49181169385068
30
0
41
1
10
45.096839960384
20
-7.53474487258688
30
0
41
1
10
45.1707066350242
20
-7.55109768899359
30
0
41
1
10
45.3347739446693
20
-7.57645976598101
30
0
41
1
10
45.426953485659
20
-7.58574110449734
30
0
41
1
10
45.6273079071477
20
-7.59911882678364
30
0
41
1
10
45.7381826192603
20
-7.60272322830465
30
0
41
1
10
45.8484384374514
20
-7.60359524145218
30
0
0
SPLINE
5
223
100
AcDbEntity
8
1
62
256
6
ByLayer
370
-1
48
1
60
0
100
AcDbSpline
70
4
71
3
72
16
73
12
40
0
40
0
40
0
40
0
40
0.152555841468573
40
0.152555841468573
40
0.567662197697801
40
0.567662197697801
40
0.852718567478571
40
0.852718567478571
40
0.924352960795895
40
0.924352960795895
40
1
40
1
40
1
40
1
41
1
10
36.8921821714291
20
-7.00749999999999
30
0
41
1
10
36.9074266872005
20
-7.00749999999999
30
0
41
1
10
36.9233357899531
20
-7.00749999999999
30
0
41
1
10
36.9849989131303
20
-7.00749999999999
30
0
41
1
10
37.0361091132827
20
-7.00749999999999
30
0
41
1
10
37.1329191653224
20
-7.00749999999999
30
0
41
1
10
37.1762595515224
20
-7.00749999999999
30
0
41
1
10
37.2323996974933
20
-7.00749999999999
30
0
41
1
10
37.2439241017969
20
-7.00749999999999
30
0
41
1
10
37.2676740216869
20
-7.00749999999999
30
0
41
1
10
37.2799364650112
20
-7.00749999999999
30
0
41
1
10
37.2921821719437
20
-7.00749999999999
30
0
0
SPLINE
5
224
100
AcDbEntity
8
1
62
256
6
ByLayer
370
-1
48
1
60
0
100
AcDbSpline
70
4
71
3
72
12
73
8
40
0
40
0
40
0
40
0
40
0.41134928082728
40
0.41134928082728
40
0.934600685136327
40
0.934600685136327
40
1
40
1
40
1
40
1
41
1
10
48.6950653290159
20
7.0486313195203
30
0
41
1
10
48.8730465973093
20
6.98629875982567
30
0
41
1
10
49.0720387486411
20
6.92945989306071
30
0
41
1
10
49.5513092316275
20
6.830068838177
30
0
41
1
10
49.8467693617676
20
6.79497100733187
30
0
41
1
10
50.1775077022164
20
6.78732526681031
30
0
41
1
10
50.2148706298057
20
6.78689384658063
30
0
41
1
10
50.2522231405799
20
6.78689384658063
30
0
0
SPLINE
5
225
100
AcDbEntity
8
1
62
256
6
ByLayer
370
-1
48
1
60
0
100
AcDbSpline
70
4
71
3
72
8
73
4
40
0
40
0
40
0
40
0
40
1
40
1
40
1
40
1
41
1
10
36.8921821714292
20
-2.42461470439355
30
0
41
1
10
36.8314292909912
20
-2.53864226746808
30
0
41
1
10
36.7676213898925
20
-2.65113163078104
30
0
41
1
10
36.7011017676804
20
-2.76225564530148
30
0
0
SPLINE
5
226
100
AcDbEntity
8
1
62
256
6
ByLayer
370
-1
48
1
60
0
100
AcDbSpline
70
4
71
3
72
12
73
8
40
0
40
0
40
0
40
0
40
0.400658766884219
40
0.400658766884219
40
0.799339344047671
40
0.799339344047671
40
1
40
1
40
1
40
1
41
1
10
50.6192371233747
20
3.97077319024612
30
0
41
1
10
50.33002906734
20
3.97077319024612
30
0
41
1
10
50.0366688905695
20
4.01805833428344
30
0
41
1
10
49.4955343029258
20
4.18969155190334
30
0
41
1
10
49.2401501915766
20
4.31555811712809
30
0
41
1
10
48.9017965450207
20
4.53847778568198
30
0
41
1
10
48.7947344828817
20
4.61950913742669
30
0
41
1
10
48.6950653289915
20
4.70428462881435
30
0
0
SPLINE
5
227
100
AcDbEntity
8
1
62
256
6
ByLayer
370
-1
48
1
60
0
100
AcDbSpline
70
4
71
3
72
8
73
4
40
0
40
0
40
0
40
0
40
1
40
1
40
1
40
1
41
1
10
51.0953665019638
20
-4.54825998758938
30
0
41
1
10
51.1236815328865
20
-4.69110715772328
30
0
41
1
10
51.1519154276254
20
-4.83376773905877
30
0
41
1
10
51.1800673669405
20
-4.9762474439749
30
0
0
SPLINE
5
228
100
AcDbEntity
8
1
62
256
6
ByLayer
370
-1
48
1
60
0
100
AcDbSpline
70
4
71
3
72
8
73
4
40
0
40
0
40
0
40
0
40
1
40
1
40
1
40
1
41
1
10
49.6486922476805
20
-8.53305895695334
30
0
41
1
10
49.5166224245138
20
-8.42885498419545
30
0
41
1
10
49.4013965734162
20
-8.32177241351857
30
0
41
1
10
49.3098176484402
20
-8.21309481249219
30
0
0
SPLINE
5
229
100
AcDbEntity
8
1
62
256
6
ByLayer
370
-1
48
1
60
0
100
AcDbSpline
70
4
71
3
72
12
73
8
40
0
40
0
40
0
40
0
40
0.0568896321845489
40
0.0568896321845489
40
0.659912698789661
40
0.659912698789661
40
1
40
1
40
1
40
1
41
1
10
50.0763383378847
20
-4.99679307680509
30
0
41
1
10
50.0966079236998
20
-5.00605802272963
30
0
41
1
10
50.1170563016951
20
-5.01466279376712
30
0
41
1
10
50.3533105314275
20
-5.10602259288245
30
0
41
1
10
50.5860380697607
20
-5.11958919530005
30
0
41
1
10
50.9349074600973
20
-5.06289978734318
30
0
41
1
10
51.0596707738736
20
-5.02618329766648
30
0
41
1
10
51.1800673669409
20
-4.9762474439764
30
0
0
SPLINE
5
22A
100
AcDbEntity
8
1
62
256
6
ByLayer
370
-1
48
1
60
0
100
AcDbSpline
70
4
71
2
72
6
73
3
40
0
40
0
40
0
40
1
40
1
40
1
41
1
10
50.8797178413245
20
-4.22597065392895
30
0
41
1
10
51.0599550089973
20
-4.39144739605428
30
0
41
1
10
51.2711914507562
20
-4.50926823252203
30
0
0
SPLINE
5
22B
100
AcDbEntity
8
1
62
256
6
ByLayer
370
-1
48
1
60
0
100
AcDbSpline
70
4
71
3
72
8
73
4
40
0
40
0
40
0
40
0
40
1
40
1
40
1
40
1
41
1
10
36.7011017686594
20
-7.00749999999999
30
0
41
1
10
36.7656939355974
20
-7.00749999999999
30
0
41
1
10
36.8294188201203
20
-7.00749999999999
30
0
41
1
10
36.8921821714291
20
-7.00749999999999
30
0
0
SPLINE
5
22C
100
AcDbEntity
8
1
62
256
6
ByLayer
370
-1
48
1
60
0
100
AcDbSpline
70
4
71
3
72
8
73
4
40
0
40
0
40
0
40
0
40
1
40
1
40
1
40
1
41
1
10
49.6486922476805
20
-8.52700012380589
30
0
41
1
10
49.49233718211
20
-8.33020715631199
30
0
41
1
10
49.3366523455804
20
-8.13291181012346
30
0
41
1
10
49.1818056813576
20
-7.93500237958239
30
0
0
SPLINE
5
22D
100
AcDbEntity
8
1
62
256
6
ByLayer
370
-1
48
1
60
0
100
AcDbSpline
70
4
71
3
72
8
73
4
40
0
40
0
40
0
40
0
40
1
40
1
40
1
40
1
41
1
10
36.7011017684101
20
2.76225564408281
30
0
41
1
10
36.7673163007588
20
2.65164129582962
30
0
41
1
10
36.8311366292526
20
2.53919156660626
30
0
41
1
10
36.8921821714292
20
2.42461470439358
30
0
0
SPLINE
5
22E
100
AcDbEntity
8
1
62
256
6
ByLayer
370
-1
48
1
60
0
100
AcDbSpline
70
4
71
3
72
12
73
8
40
0
40
0
40
0
40
0
40
0.36466449085842
40
0.36466449085842
40
0.755372010027819
40
0.755372010027819
40
1
40
1
40
1
40
1
41
1
10
51.2120796114995
20
-1.96238139850467
30
0
41
1
10
51.3739618582019
20
-1.8357046930179
30
0
41
1
10
51.5585900094932
20
-1.73246901867984
30
0
41
1
10
51.9603393643453
20
-1.58224435680043
30
0
41
1
10
52.1846537549108
20
-1.538089016073
30
0
41
1
10
52.546038071827
20
-1.52769975050481
30
0
41
1
10
52.6864667992525
20
-1.53824958751554
30
0
41
1
10
52.8232347263409
20
-1.5629251849291
30
0
0
SPLINE
5
22F
100
AcDbEntity
8
1
62
256
6
ByLayer
370
-1
48
1
60
0
100
AcDbSpline
70
4
71
3
72
8
73
4
40
0
40
0
40
0
40
0
40
1
40
1
40
1
40
1
41
1
10
48.1707368475506
20
5.26238858299001
30
0
41
1
10
48.2860892536764
20
5.11200557636002
30
0
41
1
10
48.4186167325661
20
4.96213257810084
30
0
41
1
10
48.5689701268623
20
4.82083787699594
30
0
0
SPLINE
5
230
100
AcDbEntity
8
1
62
256
6
ByLayer
370
-1
48
1
60
0
100
AcDbSpline
70
4
71
3
72
8
73
4
40
0
40
0
40
0
40
0
40
1
40
1
40
1
40
1
41
1
10
50.7190347022496
20
-4.23025528080467
30
0
41
1
10
50.7721885481264
20
-4.23129906481634
30
0
41
1
10
50.8258302928583
20
-4.22988273683751
30
0
41
1
10
50.8797187117243
20
-4.22597435596478
30
0
0
SPLINE
5
231
100
AcDbEntity
8
1
62
256
6
ByLayer
370
-1
48
1
60
0
100
AcDbSpline
70
4
71
3
72
8
73
4
40
0
40
0
40
0
40
0
40
1
40
1
40
1
40
1
41
1
10
48.6950653289915
20
2.28585151481792
30
0
41
1
10
48.6540900528697
20
2.24270992712229
30
0
41
1
10
48.6119836859676
20
2.20087227991337
30
0
41
1
10
48.5689701268641
20
2.16090517960677
30
0
0
SPLINE
5
232
100
AcDbEntity
8
1
62
256
6
ByLayer
370
-1
48
1
60
0
100
AcDbSpline
70
4
71
3
72
12
73
8
40
0
40
0
40
0
40
0
40
0.390708295402974
40
0.390708295402974
40
0.784021364508762
40
0.784021364508762
40
1
40
1
40
1
40
1
41
1
10
49.1818056813576
20
-7.93500237958241
30
0
41
1
10
49.125860819645
20
-7.86349928470594
30
0
41
1
10
49.0572126592811
20
-7.79970234726554
30
0
41
1
10
48.9029106421222
20
-7.69942383814177
30
0
41
1
10
48.8147637880198
20
-7.66177069575599
30
0
41
1
10
48.6731130477315
20
-7.63067492480741
30
0
41
1
10
48.6209445726547
20
-7.62475937170942
30
0
41
1
10
48.5689701268629
20
-7.62437631964326
30
0
0
SPLINE
5
233
100
AcDbEntity
8
1
62
256
6
ByLayer
370
-1
48
1
60
0
100
AcDbSpline
70
4
71
3
72
8
73
4
40
0
40
0
40
0
40
0
40
1
40
1
40
1
40
1
41
1
10
48.6950653290147
20
7.04863131952098
30
0
41
1
10
48.6541190838129
20
7.0604663593497
30
0
41
1
10
48.6119851462467
20
7.0745215494569
30
0
41
1
10
48.5689701268636
20
7.09101675932337
30
0
0
SPLINE
5
234
100
AcDbEntity
8
1
62
256
6
ByLayer
370
-1
48
1
60
0
100
AcDbSpline
70
4
71
3
72
28
73
24
40
0
40
0
40
0
40
0
40
0.0320223746152652
40
0.0320223746152652
40
0.111448835480326
40
0.111448835480326
40
0.217393610509611
40
0.217393610509611
40
0.360438418580467
40
0.360438418580467
40
0.452493833635435
40
0.452493833635435
40
0.520186467370457
40
0.520186467370457
40
0.587968835719746
40
0.587968835719746
40
0.696398878370014
40
0.696398878370014
40
0.814099724619541
40
0.814099724619541
40
0.916057858939652
40
0.916057858939652
40
1
40
1
40
1
40
1
41
1
10
48.375048742176
20
-1.38183745435043
30
0
41
1
10
48.3752305077451
20
-1.38177242219362
30
0
41
1
10
48.3763849094118
20
-1.38468791510377
30
0
41
1
10
48.3832764606003
20
-1.40539100919551
30
0
41
1
10
48.3932618026724
20
-1.43889755975272
30
0
41
1
10
48.4210305351641
20
-1.54920614915091
30
0
41
1
10
48.44065603289
20
-1.6379498082585
30
0
41
1
10
48.4812764790089
20
-1.87757488233169
30
0
41
1
10
48.5022942073653
20
-2.0434230219839
30
0
41
1
10
48.5024926244993
20
-2.33185189125314
30
0
41
1
10
48.4937188080751
20
-2.45180153188795
30
0
41
1
10
48.4415050427012
20
-2.65565573889546
30
0
41
1
10
48.4062853780469
20
-2.74210603701954
30
0
41
1
10
48.307171349109
20
-2.89820871032796
30
0
41
1
10
48.2424743227155
20
-2.96931096066356
30
0
41
1
10
48.0582807560107
20
-3.13038244233593
30
0
41
1
10
47.927595565061
20
-3.2116539790423
30
0
41
1
10
47.6602316051126
20
-3.36523889086939
30
0
41
1
10
47.5194198701581
20
-3.43797193362926
30
0
41
1
10
47.2810398667329
20
-3.56713497503861
30
0
41
1
10
47.1777241870752
20
-3.62550439495513
30
0
41
1
10
47.0262221102499
20
-3.72680352624906
30
0
41
1
10
46.9702452473007
20
-3.7716638079745
30
0
41
1
10
46.9344173929629
20
-3.81380486621561
30
0
0
SPLINE
5
235
100
AcDbEntity
8
1
62
256
6
ByLayer
370
-1
48
1
60
0
100
AcDbSpline
70
4
71
3
72
8
73
4
40
0
40
0
40
0
40
0
40
1
40
1
40
1
40
1
41
1
10
46.9084012521705
20
-3.84966326813279
30
0
41
1
10
46.8945790264065
20
-3.87283212439399
30
0
41
1
10
46.8871344237165
20
-3.89536595340755
30
0
41
1
10
46.8865375326215
20
-3.91702798323101
30
0
0
SPLINE
5
236
100
AcDbEntity
8
1
62
256
6
ByLayer
370
-1
48
1
60
0
100
AcDbSpline
70
4
71
3
72
16
73
12
40
0
40
0
40
0
40
0
40
0.085543940935641
40
0.085543940935641
40
0.583560087684766
40
0.583560087684766
40
0.754138589355241
40
0.754138589355241
40
0.927634542567999
40
0.927634542567999
40
1
40
1
40
1
40
1
41
1
10
36.8921821714292
20
2.42461470439355
30
0
41
1
10
36.8998595294415
20
2.41020501025753
30
0
41
1
10
36.9077185262117
20
2.39589023791888
30
0
41
1
10
36.9624399296575
20
2.2994861125427
30
0
41
1
10
37.0155784210481
20
2.21891160419645
30
0
41
1
10
37.1063312054303
20
2.12981126583728
30
0
41
1
10
37.1316853000606
20
2.10861655447235
30
0
41
1
10
37.1872874737318
20
2.07376104162375
30
0
41
1
10
37.2184516311826
20
2.05994587465801
30
0
41
1
10
37.2644034382803
20
2.05093398150174
30
0
41
1
10
37.2783230612313
20
2.04954263190601
30
0
41
1
10
37.2921821719436
20
2.04954263190601
30
0
0
SPLINE
5
237
100
AcDbEntity
8
1
62
256
6
ByLayer
370
-1
48
1
60
0
100
AcDbSpline
70
4
71
4
72
10
73
5
40
0
40
0
40
0
40
0
40
0
40
1
40
1
40
1
40
1
40
1
41
1
10
51.2236733364636
20
-4.61897755205987
30
0
41
0.980980006765745
10
51.0882668045276
20
-4.54428124839452
30
0
41
0.965560299484697
10
50.9573240094026
20
-4.45399082513616
30
0
41
0.953740878156856
10
50.8334648488131
20
-4.34888022833788
30
0
41
0.945521742782222
10
50.7190347022487
20
-4.23025528080597
30
0
0
SPLINE
5
238
100
AcDbEntity
8
1
62
256
6
ByLayer
370
-1
48
1
60
0
100
AcDbSpline
70
4
71
3
72
10
73
6
40
0
40
0
40
0
40
0
40
0.5
40
0.5
40
1
40
1
40
1
40
1
41
1
10
37.292182171915
20
-2.04954263190595
30
0
41
1
10
37.1952670925767
20
-2.04954263191911
30
0
41
1
10
37.113073373851
20
-2.11613217847966
30
0
41
1
10
36.987212662548
20
-2.25881724511677
30
0
41
1
10
36.9366666756239
20
-2.34112138568267
30
0
41
1
10
36.8921821714219
20
-2.42461470439045
30
0
0
SPLINE
5
239
100
AcDbEntity
8
1
62
256
6
ByLayer
370
-1
48
1
60
0
100
AcDbSpline
70
4
71
3
72
8
73
4
40
0
40
0
40
0
40
0
40
1
40
1
40
1
40
1
41
1
10
48.5689701268624
20
7.09101675932615
30
0
41
1
10
48.2898308093017
20
7.19805987336406
30
0
41
1
10
48.0626616192744
20
7.31717119713849
30
0
41
1
10
47.889662693023
20
7.41908769973534
30
0
0
SPLINE
5
23A
100
AcDbEntity
8
1
62
256
6
ByLayer
370
-1
48
1
60
0
100
AcDbSpline
70
4
71
3
72
8
73
4
40
0
40
0
40
0
40
0
40
1
40
1
40
1
40
1
41
1
10
51.0953665019633
20
-4.54825998758707
30
0
41
1
10
51.1787770651077
20
-4.61331822626423
30
0
41
1
10
51.2678752278701
20
-4.67209261067106
30
0
41
1
10
51.3609769255119
20
-4.72345167422128
30
0
0
SPLINE
5
23B
100
AcDbEntity
8
SK1
62
256
6
ByLayer
370
-1
48
1
60
0
100
AcDbSpline
70
4
71
3
72
8
73
4
40
0
40
0
40
0
40
0
40
1
40
1
40
1
40
1
41
1
10
-136.29499996058
20
-7.00749999999999
30
0
41
1
10
-136.295103063175
20
-7.00749999999999
30
0
41
1
10
-135.89070139811
20
-7.00749999999999
30
0
41
1
10
-135.31
20
-7.00749999999999
30
0
0
SPLINE
5
23C
100
AcDbEntity
8
1
62
256
6
ByLayer
370
-1
48
1
60
0
100
AcDbSpline
70
4
71
2
72
6
73
3
40
0
40
0
40
0
40
1
40
1
40
1
41
0.500001284267338
10
63.4837527197047
20
0.374811512827623
30
0
41
0.499998715732662
10
63.4841722384595
20
0.375652611913834
30
0
41
0.500001284267338
10
63.4845913581956
20
0.376490693546763
30
0
0
SPLINE
5
23D
100
AcDbEntity
8
1
62
256
6
ByLayer
370
-1
48
1
60
0
100
AcDbSpline
70
4
71
3
72
12
73
8
40
0
40
0
40
0
40
0
40
0.347623173836877
40
0.347623173836877
40
0.696503371294891
40
0.696503371294891
40
1
40
1
40
1
40
1
41
1
10
63.4899071485165
20
0.260599198766329
30
0
41
1
10
63.4828015596063
20
0.272837289302146
30
0
41
1
10
63.4776225628728
20
0.286375289314378
30
0
41
1
10
63.472015554358
20
0.313820063834413
30
0
41
1
10
63.471541236911
20
0.328125640279779
30
0
41
1
10
63.4751548392351
20
0.353314753722429
30
0
41
1
10
63.4787053001364
20
0.364691869932614
30
0
41
1
10
63.4837527197047
20
0.37481151282762
30
0
0
SPLINE
5
23E
100
AcDbEntity
8
1
62
256
6
ByLayer
370
-1
48
1
60
0
100
AcDbSpline
70
4
71
3
72
24
73
20
40
0
40
0
40
0
40
0
40
0.0154450745970531
40
0.0154450745970531
40
0.0417985895668013
40
0.0417985895668013
40
0.0483972597876597
40
0.0483972597876597
40
0.102103855500445
40
0.102103855500445
40
0.185330321121806
40
0.185330321121806
40
0.354377449491142
40
0.354377449491142
40
0.535348727398697
40
0.535348727398697
40
0.666091501001303
40
0.666091501001303
40
1
40
1
40
1
40
1
41
1
10
57.2520062894038
20
-1.23719139678912
30
0
41
1
10
57.2552108272865
20
-1.23644840370099
30
0
41
1
10
57.2583357547566
20
-1.23525152021301
30
0
41
1
10
57.2660972020187
20
-1.23105959211279
30
0
41
1
10
57.2704113427449
20
-1.22733453459981
30
0
41
1
10
57.2749556102457
20
-1.222143686772
30
0
41
1
10
57.2758381519902
20
-1.22106116270936
30
0
41
1
10
57.2834749504969
20
-1.21108362029412
30
0
41
1
10
57.2881739618902
20
-1.20069054535873
30
0
41
1
10
57.2976246667996
20
-1.17395571254292
30
0
41
1
10
57.301111152473
20
-1.15692889225178
30
0
41
1
10
57.3089240348856
20
-1.10535835800562
30
0
41
1
10
57.310387226227
20
-1.07027935955668
30
0
41
1
10
57.3108092853196
20
-0.997949489021323
30
0
41
1
10
57.3093485910035
20
-0.960522494678656
30
0
41
1
10
57.3053263112901
20
-0.896199697937931
30
0
41
1
10
57.3031561983477
20
-0.869243919406159
30
0
41
1
10
57.2942108303051
20
-0.773590796292865
30
0
41
1
10
57.2855763157345
20
-0.705052765441621
30
0
41
1
10
57.275729250876
20
-0.636716888615496
30
0
0
SPLINE
5
23F
100
AcDbEntity
8
1
62
256
6
ByLayer
370
-1
48
1
60
0
100
AcDbSpline
70
4
71
3
72
24
73
20
40
0
40
0
40
0
40
0
40
0.0154450745970577
40
0.0154450745970577
40
0.0417985895668776
40
0.0417985895668776
40
0.0483972597877144
40
0.0483972597877144
40
0.102103855500586
40
0.102103855500586
40
0.185330321122053
40
0.185330321122053
40
0.35437744949164
40
0.35437744949164
40
0.53534872739944
40
0.53534872739944
40
0.66609150099733
40
0.66609150099733
40
1
40
1
40
1
40
1
41
1
10
62.6280365239123
20
-3.71854806547199
30
0
41
1
10
62.6270776901501
20
-3.72159960097559
30
0
41
1
10
62.6265584734965
20
-3.72479836439806
30
0
41
1
10
62.6263421032358
20
-3.733318872616
30
0
41
1
10
62.6274498048995
20
-3.73871361100785
30
0
41
1
10
62.6297319312863
20
-3.74499436034037
30
0
41
1
10
62.6302406413937
20
-3.74624927610432
30
0
41
1
10
62.6351797755601
20
-3.75739642108511
30
0
41
1
10
62.6419631807957
20
-3.7662637234811
30
0
41
1
10
62.6607394457862
20
-3.78685097983887
30
0
41
1
10
62.6739719464048
20
-3.79782788275443
30
0
41
1
10
62.7154320405132
20
-3.82875845435106
30
0
41
1
10
62.7455710438702
20
-3.84655074688862
30
0
41
1
10
62.8090191835406
20
-3.8810475474435
30
0
41
1
10
62.8426943699397
20
-3.8974814254484
30
0
41
1
10
62.9013285807014
20
-3.924448800334
30
0
41
1
10
62.9261438034397
20
-3.93534109021852
30
0
41
1
10
63.0148259883189
20
-3.97294160316187
30
0
41
1
10
63.0794860629799
20
-3.99800458837544
30
0
41
1
10
63.1445761569199
20
-4.02194727951982
30
0
0
SPLINE
5
240
100
AcDbEntity
8
1
62
256
6
ByLayer
370
-1
48
1
60
0
100
AcDbSpline
70
4
71
3
72
18
73
14
40
0
40
0
40
0
40
0
40
0.439677344605711
40
0.439677344605711
40
0.819840138515286
40
0.819840138515286
40
0.920758376963017
40
0.920758376963017
40
0.968467673881562
40
0.968467673881562
40
0.990240013274131
40
0.990240013274131
40
1
40
1
40
1
40
1
41
1
10
63.4275889090044
20
-3.07879745440957
30
0
41
1
10
63.3336187919256
20
-3.07144701552699
30
0
41
1
10
63.2393321876422
20
-3.06601190364395
30
0
41
1
10
63.0634004328388
20
-3.0643823569518
30
0
41
1
10
62.9807462917562
20
-3.06506276476068
30
0
41
1
10
62.8790935314365
20
-3.08512970960925
30
0
41
1
10
62.8575559370353
20
-3.09052236618234
30
0
41
1
10
62.8284564338566
20
-3.10411508713187
30
0
41
1
10
62.819279664246
20
-3.10950270555853
30
0
41
1
10
62.808648172458
20
-3.12000389991312
30
0
41
1
10
62.8056750779552
20
-3.12378545028477
30
0
41
1
10
62.8025430405808
20
-3.12978352599706
30
0
41
1
10
62.8017252984108
20
-3.13173725878343
30
0
41
1
10
62.8010976173349
20
-3.13373488461127
30
0
0
SPLINE
5
241
100
AcDbEntity
8
1
62
256
6
ByLayer
370
-1
48
1
60
0
100
AcDbSpline
70
4
71
3
72
16
73
12
40
0
40
0
40
0
40
0
40
0.0426292751499057
40
0.0426292751499057
40
0.0996436166287511
40
0.0996436166287511
40
0.207156078099333
40
0.207156078099333
40
0.580806890299249
40
0.580806890299249
40
1
40
1
40
1
40
1
41
1
10
62.7761504712793
20
-3.12760786973311
30
0
41
1
10
62.7788979984685
20
-3.11832334434814
30
0
41
1
10
62.7835864709011
20
-3.10944534122498
30
0
41
1
10
62.7973161324599
20
-3.0911407407433
30
0
41
1
10
62.8074050234736
20
-3.08214838210281
30
0
41
1
10
62.8385190162436
20
-3.06016751978163
30
0
41
1
10
62.8618579875512
20
-3.04983888178779
30
0
41
1
10
62.9667785771221
20
-3.0127408786006
30
0
41
1
10
63.0546959843934
20
-3.00349561212718
30
0
41
1
10
63.2379428342854
20
-2.99086173181223
30
0
41
1
10
63.3354540380585
20
-2.99074527068322
30
0
41
1
10
63.4326335328824
20
-2.99355505904313
30
0
0
SPLINE
5
242
100
AcDbEntity
8
1
62
256
6
ByLayer
370
-1
48
1
60
0
100
AcDbSpline
70
4
71
3
72
20
73
16
40
0
40
0
40
0
40
0
40
0.511365204367454
40
0.511365204367454
40
0.617167309555447
40
0.617167309555447
40
0.785488434327117
40
0.785488434327117
40
0.87339881215386
40
0.87339881215386
40
0.935684402254222
40
0.935684402254222
40
0.978722765374128
40
0.978722765374128
40
1
40
1
40
1
40
1
41
1
10
63.103260598232
20
-4.11607569150641
30
0
41
1
10
62.9985324489255
20
-4.06775785309793
30
0
41
1
10
62.8950513754137
20
-4.0156797946735
30
0
41
1
10
62.7786155931211
20
-3.9404766751808
30
0
41
1
10
62.7589307716416
20
-3.92705495520141
30
0
41
1
10
62.7094205094656
20
-3.89058000282151
30
0
41
1
10
62.6800425743053
20
-3.86649611624762
30
0
41
1
10
62.6410329374814
20
-3.82481996183145
30
0
41
1
10
62.6285600973468
20
-3.80946252709626
30
0
41
1
10
62.6115827731578
20
-3.78087355083889
30
0
41
1
10
62.6057306099457
20
-3.76810557254544
30
0
41
1
10
62.6003478595191
20
-3.74554693043117
30
0
41
1
10
62.5994464383261
20
-3.73586280026592
30
0
41
1
10
62.6008280671966
20
-3.72169000835325
30
0
41
1
10
62.6017384173817
20
-3.71698625630779
30
0
41
1
10
62.6030893778566
20
-3.7124210505938
30
0
0
SPLINE
5
243
100
AcDbEntity
8
1
62
256
6
ByLayer
370
-1
48
1
60
0
100
AcDbSpline
70
4
71
3
72
20
73
16
40
0
40
0
40
0
40
0
40
0.51136520436688
40
0.51136520436688
40
0.617167309555278
40
0.617167309555278
40
0.78548843432702
40
0.78548843432702
40
0.873398812153797
40
0.873398812153797
40
0.935684402254187
40
0.935684402254187
40
0.978722765374131
40
0.978722765374131
40
1
40
1
40
1
40
1
41
1
10
57.373909210587
20
-0.638479689911861
30
0
41
1
10
57.38215804969
20
-0.750680372071912
30
0
41
1
10
57.3864237017811
20
-0.863746702096108
30
0
41
1
10
57.376343788128
20
-0.999400339022856
30
0
41
1
10
57.3740054628798
20
-1.02269357828035
30
0
41
1
10
57.3656893242419
20
-1.08265946889065
30
0
41
1
10
57.3585677248252
20
-1.11948092082088
30
0
41
1
10
57.3404227985257
20
-1.17329844346864
30
0
41
1
10
57.3328003727882
20
-1.19153781926966
30
0
41
1
10
57.3155386186721
20
-1.22026699887536
30
0
41
1
10
57.3069779703933
20
-1.23164948347201
30
0
41
1
10
57.2894132082815
20
-1.24761096382318
30
0
41
1
10
57.2811792488116
20
-1.2532833301191
30
0
41
1
10
57.2677994876771
20
-1.25932409063941
30
0
41
1
10
57.263136562485
20
-1.26095074526162
30
0
41
1
10
57.2583809256037
20
-1.26213822549258
30
0
0
SPLINE
5
244
100
AcDbEntity
8
1
62
256
6
ByLayer
370
-1
48
1
60
0
100
AcDbSpline
70
4
71
2
72
6
73
3
40
0
40
0
40
0
40
1
40
1
40
1
41
0.500001282010759
10
53.235563349232
20
-2.43219720532655
30
0
41
0.499998717989241
10
53.2345645850863
20
-2.43236214529657
30
0
41
0.500001282010759
10
53.2335675455082
20
-2.43252859638423
30
0
0
SPLINE
5
245
100
AcDbEntity
8
1
62
256
6
ByLayer
370
-1
48
1
60
0
100
AcDbSpline
70
4
71
3
72
12
73
8
40
0
40
0
40
0
40
0
40
0.347623173836887
40
0.347623173836887
40
0.696503371294896
40
0.696503371294896
40
1
40
1
40
1
40
1
41
1
10
53.3346769912069
20
-2.36950467741795
30
0
41
1
10
53.3275714022967
20
-2.38082991048151
30
0
41
1
10
53.3183286585814
20
-2.39125819374183
30
0
41
1
10
53.2969167232726
20
-2.40891901524233
30
0
41
1
10
53.2844135791777
20
-2.41639142970197
30
0
41
1
10
53.2598103096322
20
-2.42674275997629
30
0
41
1
10
53.2475799316437
20
-2.43021273807179
30
0
41
1
10
53.235563349232
20
-2.43219720532656
30
0
0
SPLINE
5
246
100
AcDbEntity
8
1
62
256
6
ByLayer
370
-1
48
1
60
0
100
AcDbSpline
70
4
71
3
72
18
73
14
40
0
40
0
40
0
40
0
40
0.439677344605713
40
0.439677344605713
40
0.819840138515273
40
0.819840138515273
40
0.920758376963014
40
0.920758376963014
40
0.968467673881579
40
0.968467673881579
40
0.990240013274099
40
0.990240013274099
40
1
40
1
40
1
40
1
41
1
10
56.2914354604952
20
-0.878487718339471
30
0
41
1
10
56.330122525387
20
-0.963129339835263
30
0
41
1
10
56.3706857343258
20
-1.04705374500307
30
0
41
1
10
56.4540269855914
20
-1.19926779589918
30
0
41
1
10
56.4944824955504
20
-1.27003235231413
30
0
41
1
10
56.5615193646417
20
-1.34717979026627
30
0
41
1
10
56.57674815657
20
-1.36293898410756
30
0
41
1
10
56.6029913901653
20
-1.3809908832838
30
0
41
1
10
56.6122568707277
20
-1.3861179884897
30
0
41
1
10
56.6268190086511
20
-1.38986927626362
30
0
41
1
10
56.6316505826967
20
-1.39048420844893
30
0
41
1
10
56.6385506990495
20
-1.39009699239364
30
0
41
1
10
56.6407006594196
20
-1.38979668643736
30
0
41
1
10
56.6427984451517
20
-1.3893103010812
30
0
0
SPLINE
5
247
100
AcDbEntity
8
1
62
256
6
ByLayer
370
-1
48
1
60
0
100
AcDbSpline
70
4
71
3
72
16
73
12
40
0
40
0
40
0
40
0
40
0.0426292751499453
40
0.0426292751499453
40
0.0996436166287649
40
0.0996436166287649
40
0.207156078099363
40
0.207156078099363
40
0.580806890299284
40
0.580806890299284
40
1
40
1
40
1
40
1
41
1
10
56.6491730813516
20
-1.41425712978463
30
0
41
1
10
56.6395012649839
20
-1.41667217765743
30
0
41
1
10
56.6292384303934
20
-1.41725609594977
30
0
41
1
10
56.6060788768522
20
-1.41505903467026
30
0
41
1
10
56.5930556094384
20
-1.41118054906101
30
0
41
1
10
56.5580457121939
20
-1.39629864317163
30
0
41
1
10
56.537303663418
20
-1.38200763393198
30
0
41
1
10
56.4524218902364
20
-1.31302198183457
30
0
41
1
10
56.4008665816625
20
-1.2441247638821
30
0
41
1
10
56.2993558763773
20
-1.09715186520802
30
0
41
1
10
56.251258730958
20
-1.01558824490047
30
0
41
1
10
56.2059469573699
20
-0.932816268711434
30
0
0
SPLINE
5
248
100
AcDbEntity
8
1
62
256
6
ByLayer
370
-1
48
1
60
0
100
AcDbSpline
70
4
71
3
72
14
73
10
40
0
40
0
40
0
40
0
40
0.249606055015007
40
0.249606055015007
40
0.499158243446922
40
0.499158243446922
40
0.746144217743659
40
0.746144217743659
40
1
40
1
40
1
40
1
41
1
10
57.2849561504531
20
-8.20279026665159
30
0
41
1
10
57.3006490239321
20
-8.2116210306217
30
0
41
1
10
57.3163830042557
20
-8.22084725713054
30
0
41
1
10
57.3472716345667
20
-8.23968706644422
30
0
41
1
10
57.3625338099167
20
-8.24936595598547
30
0
41
1
10
57.3919316683258
20
-8.26874478083718
30
0
41
1
10
57.4061749585526
20
-8.27850779002816
30
0
41
1
10
57.4337198954223
20
-8.29816393111039
30
0
41
1
10
57.4470802757115
20
-8.30812158369338
30
0
41
1
10
57.4595587055102
20
-8.31786724926818
30
0
0
SPLINE
5
249
100
AcDbEntity
8
1
62
256
6
ByLayer
370
-1
48
1
60
0
100
AcDbSpline
70
4
71
3
72
12
73
8
40
0
40
0
40
0
40
0
40
0.474376698371046
40
0.474376698371046
40
0.706219783413744
40
0.706219783413744
40
1
40
1
40
1
40
1
41
1
10
63.9386179552386
20
-4.16993732326463
30
0
41
1
10
63.9379365553561
20
-4.13922315028506
30
0
41
1
10
63.9374056653973
20
-4.10581769869057
30
0
41
1
10
63.9368922995541
20
-4.05621845593015
30
0
41
1
10
63.9367653997961
20
-4.03969416480206
30
0
41
1
10
63.93657801008
20
-4.00272331588417
30
0
41
1
10
63.9365432693867
20
-3.98221359278594
30
0
41
1
10
63.9365772732754
20
-3.96242817751411
30
0
0
SPLINE
5
24A
100
AcDbEntity
8
1
62
256
6
ByLayer
370
-1
48
1
60
0
100
AcDbSpline
70
4
71
3
72
10
73
6
40
0
40
0
40
0
40
0
40
0.709495622816743
40
0.709495622816743
40
1
40
1
40
1
40
1
41
1
10
59.783938101632
20
-9.62455691226998
30
0
41
1
10
59.8071790051159
20
-9.63458655685795
30
0
41
1
10
59.8322019164472
20
-9.63992115851698
30
0
41
1
10
59.866673771408
20
-9.6414575949442
30
0
41
1
10
59.8768008680334
20
-9.64121034966931
30
0
41
1
10
59.8868618979319
20
-9.64033101122615
30
0
0
SPLINE
5
24B
100
AcDbEntity
8
1
62
256
6
ByLayer
370
-1
48
1
60
0
100
AcDbSpline
70
4
71
2
72
6
73
3
40
0
40
0
40
0
40
1
40
1
40
1
41
0.500001283767554
10
60.7947528937283
20
-9.58508703770138
30
0
41
0.499998716232446
10
60.7953536533014
20
-9.58592827644873
30
0
41
0.500001283767554
10
60.795953742484
20
-9.5867700136946
30
0
0
SPLINE
5
24C
100
AcDbEntity
8
1
62
256
6
ByLayer
370
-1
48
1
60
0
100
AcDbSpline
70
4
71
3
72
12
73
8
40
0
40
0
40
0
40
0
40
0.34762317383688
40
0.34762317383688
40
0.696503371294857
40
0.696503371294857
40
1
40
1
40
1
40
1
41
1
10
60.6895957440162
20
-9.53441835571371
30
0
41
1
10
60.703604444881
20
-9.53377759516601
30
0
41
1
10
60.7178371528457
20
-9.53543685414758
30
0
41
1
10
60.7446216263128
20
-9.54342170183293
30
0
41
1
10
60.7575533102108
20
-9.54990360916858
30
0
41
1
10
60.7786843190716
20
-9.56582591534854
30
0
41
1
10
60.787524884046
20
-9.57496571449082
30
0
41
1
10
60.7947528937283
20
-9.58508703770138
30
0
0
SPLINE
5
24D
100
AcDbEntity
8
1
62
256
6
ByLayer
370
-1
48
1
60
0
100
AcDbSpline
70
4
71
3
72
24
73
20
40
0
40
0
40
0
40
0
40
0.0154450745970768
40
0.0154450745970768
40
0.0417985895668705
40
0.0417985895668705
40
0.0483972597877152
40
0.0483972597877152
40
0.1021038555006
40
0.1021038555006
40
0.185330321122084
40
0.185330321122084
40
0.35437744949165
40
0.35437744949165
40
0.535348727399468
40
0.535348727399468
40
0.666091500997354
40
0.666091500997354
40
1
40
1
40
1
40
1
41
1
10
57.6745066585223
20
-6.99734268176604
30
0
41
1
10
57.6722619324023
20
-6.99504164360798
30
0
41
1
10
57.6696545062011
20
-6.99302660142234
30
0
41
1
10
57.6620982736359
20
-6.98861242398289
30
0
41
1
10
57.6566623405091
20
-6.98683462402107
30
0
41
1
10
57.6498139272417
20
-6.98557576647443
30
0
41
1
10
57.6484179775646
20
-6.98536732807392
30
0
41
1
10
57.6357979361301
20
-6.98385927629334
30
0
41
1
10
57.6242642720555
20
-6.98499182405956
30
0
41
1
10
57.5959010963287
20
-6.99009428490663
30
0
41
1
10
57.5790911678246
20
-6.99544639714773
30
0
41
1
10
57.5295380155777
20
-7.01393655437715
30
0
41
1
10
57.4977386282878
20
-7.02971018951624
30
0
41
1
10
57.4334569528526
20
-7.06438597391528
30
0
41
1
10
57.4010264481819
20
-7.08372161250347
30
0
41
1
10
57.34604025685
20
-7.11820531239422
30
0
41
1
10
57.3232373482474
20
-7.13305800136504
30
0
41
1
10
57.2429379994712
20
-7.18679426965352
30
0
41
1
10
57.1865047338338
20
-7.22714096562711
30
0
41
1
10
57.1308523537508
20
-7.26839317612823
30
0
0
SPLINE
5
24E
100
AcDbEntity
8
1
62
256
6
ByLayer
370
-1
48
1
60
0
100
AcDbSpline
70
4
71
3
72
18
73
14
40
0
40
0
40
0
40
0
40
0.439677344605704
40
0.439677344605704
40
0.819840138515265
40
0.819840138515265
40
0.920758376963021
40
0.920758376963021
40
0.968467673881564
40
0.968467673881564
40
0.990240013274126
40
0.990240013274126
40
1
40
1
40
1
40
1
41
1
10
57.8320648574206
20
-7.96924630114847
30
0
41
1
10
57.8878920300525
20
-7.89613018786923
30
0
41
1
10
57.9421572514861
20
-7.82179835918453
30
0
41
1
10
58.0357442429195
20
-7.67885996733091
30
0
41
1
10
58.0784080056414
20
-7.61098398620658
30
0
41
1
10
58.1135675708877
20
-7.51794124727692
30
0
41
1
10
58.1199898868529
20
-7.49766039280678
30
0
41
1
10
58.1229904060972
20
-7.46712260911951
30
0
41
1
10
58.1229455951089
20
-7.45694473258288
30
0
41
1
10
58.1190596427608
20
-7.44303518860826
30
0
41
1
10
58.1172124386649
20
-7.43872522324173
30
0
41
1
10
58.1134533160149
20
-7.43318308603935
30
0
41
1
10
58.1121228737799
20
-7.43154328629643
30
0
41
1
10
58.1106534093518
20
-7.43003695833468
30
0
0
SPLINE
5
24F
100
AcDbEntity
8
1
62
256
6
ByLayer
370
-1
48
1
60
0
100
AcDbSpline
70
4
71
3
72
16
73
12
40
0
40
0
40
0
40
0
40
0.0426292751498966
40
0.0426292751498966
40
0.0996436166287393
40
0.0996436166287393
40
0.20715607809934
40
0.20715607809934
40
0.580806890299256
40
0.580806890299256
40
1
40
1
40
1
40
1
41
1
10
58.1294563896234
20
-7.41298555805613
30
0
41
1
10
58.1363806788019
20
-7.4198550355683
30
0
41
1
10
58.1419550409599
20
-7.42814912039913
30
0
41
1
10
58.1513849329422
20
-7.44865078216029
30
0
41
1
10
58.1543193093425
20
-7.46152162641005
30
0
41
1
10
58.158215213817
20
-7.49838439462059
30
0
41
1
10
58.1556182912852
20
-7.52300404185411
30
0
41
1
10
58.1355794748959
20
-7.62908769713871
30
0
41
1
10
58.0992173761985
20
-7.7072301815646
30
0
41
1
10
58.0174812315916
20
-7.86683696055363
30
0
41
1
10
57.968067173238
20
-7.94851704199019
30
0
41
1
10
57.916199452002
20
-8.02847922981931
30
0
0
SPLINE
5
250
100
AcDbEntity
8
1
62
256
6
ByLayer
370
-1
48
1
60
0
100
AcDbSpline
70
4
71
3
72
20
73
16
40
0
40
0
40
0
40
0
40
0.511365204367436
40
0.511365204367436
40
0.617167309555464
40
0.617167309555464
40
0.785488434327114
40
0.785488434327114
40
0.873398812153872
40
0.873398812153872
40
0.935684402254211
40
0.935684402254211
40
0.97872276537412
40
0.97872276537412
40
1
40
1
40
1
40
1
41
1
10
57.0776101334354
20
-7.20029517615563
30
0
41
1
10
57.1740894436389
20
-7.13641233240401
30
0
41
1
10
57.2733048650609
20
-7.07542406080415
30
0
41
1
10
57.3998205610069
20
-7.01497354337016
30
0
41
1
10
57.421843707733
20
-7.005102024092
30
0
41
1
10
57.4796701085468
20
-6.98161108586172
30
0
41
1
10
57.5161696431239
20
-6.96887352050538
30
0
41
1
10
57.5733242062472
20
-6.95673215227376
30
0
41
1
10
57.5934194721195
20
-6.95385021120794
30
0
41
1
10
57.6276585504245
20
-6.95371000785963
30
0
41
1
10
57.6420713619153
20
-6.95509550155643
30
0
41
1
10
57.6650188744538
20
-6.96169266331952
30
0
41
1
10
57.6741542551167
20
-6.96570442718885
30
0
41
1
10
57.6861523873807
20
-6.97383645858119
30
0
41
1
10
57.6899049623876
20
-6.97691355600446
30
0
41
1
10
57.693309638794
20
-6.9802912814875
30
0
0
SPLINE
5
251
100
AcDbEntity
8
1
62
256
6
ByLayer
370
-1
48
1
60
0
100
AcDbSpline
70
4
71
3
72
14
73
10
40
0
40
0
40
0
40
0
40
0.249606055015065
40
0.249606055015065
40
0.499158243446934
40
0.499158243446934
40
0.746144217743602
40
0.746144217743602
40
1
40
1
40
1
40
1
41
1
10
56.3109397716122
20
-0.243475823910643
30
0
41
1
10
56.2953061995294
20
-0.252580073776869
30
0
41
1
10
56.279736207481
20
-0.262079589986541
30
0
41
1
10
56.2493736396413
20
-0.281454134043145
30
0
41
1
10
56.2344752922913
20
-0.291396330749649
30
0
41
1
10
56.2059847098389
20
-0.311280532826231
30
0
41
1
10
56.1922859818853
20
-0.321287481211215
30
0
41
1
10
56.1660119080794
20
-0.341413472609986
30
0
41
1
10
56.1533868856572
20
-0.351597982757539
30
0
41
1
10
56.1417203002158
20
-0.361554438960212
30
0
0
SPLINE
5
252
100
AcDbEntity
8
1
62
256
6
ByLayer
370
-1
48
1
60
0
100
AcDbSpline
70
4
71
3
72
12
73
8
40
0
40
0
40
0
40
0
40
0.474376698371054
40
0.474376698371054
40
0.706219783413802
40
0.706219783413802
40
1
40
1
40
1
40
1
41
1
10
56.5539802378708
20
-7.80827608262672
30
0
41
1
10
56.5761357485638
20
-7.81559116425711
30
0
41
1
10
56.6018881732662
20
-7.82595410514938
30
0
41
1
10
56.6422893137058
20
-7.84448790391906
30
0
41
1
10
56.656096759147
20
-7.85116783560559
30
0
41
1
10
56.6877492741589
20
-7.86721851250428
30
0
41
1
10
56.7058537340908
20
-7.87691516415703
30
0
41
1
10
56.7238505691343
20
-7.88704242368601
30
0
0
SPLINE
5
253
100
AcDbEntity
8
1
62
256
6
ByLayer
370
-1
48
1
60
0
100
AcDbSpline
70
4
71
3
72
10
73
6
40
0
40
0
40
0
40
0
40
0.709495622816678
40
0.709495622816678
40
1
40
1
40
1
40
1
41
1
10
53.8272759179032
20
-1.71067322707907
30
0
41
1
10
53.806486434505
20
-1.72519090366435
30
0
41
1
10
53.7876940439084
20
-1.74185898747623
30
0
41
1
10
53.7662913939669
20
-1.76676736341909
30
0
41
1
10
53.7605417910251
20
-1.77431739926746
30
0
41
1
10
53.7553567215516
20
-1.78207840485814
30
0
0
SPLINE
5
254
100
AcDbEntity
8
1
62
256
6
ByLayer
370
-1
48
1
60
0
100
AcDbSpline
70
4
71
3
72
12
73
8
40
0
40
0
40
0
40
0
40
0.490787175648461
40
0.490787175648461
40
0.896528991139563
40
0.896528991139563
40
1
40
1
40
1
40
1
41
1
10
60.6289714018163
20
-3.65448921499509
30
0
41
1
10
60.5614877290378
20
-3.62264174050424
30
0
41
1
10
60.4955486661115
20
-3.58045428388797
30
0
41
1
10
60.3865365212857
20
-3.48739694580806
30
0
41
1
10
60.340350017921
20
-3.43816944440701
30
0
41
1
10
60.2915983394183
20
-3.37131547503086
30
0
41
1
10
60.2820799675874
20
-3.35735358200313
30
0
41
1
10
60.2730782146126
20
-3.34317660764111
30
0
0
SPLINE
5
255
100
AcDbEntity
8
1
62
256
6
ByLayer
370
-1
48
1
60
0
100
AcDbSpline
70
4
71
3
72
16
73
12
40
0
40
0
40
0
40
0
40
0.0856128173191885
40
0.0856128173191885
40
0.393132353245468
40
0.393132353245468
40
0.672172529937321
40
0.672172529937321
40
0.918309377350019
40
0.918309377350019
40
1
40
1
40
1
40
1
41
1
10
60.6289714018167
20
-3.65448921499299
30
0
41
1
10
60.638767168594
20
-3.65911211738867
30
0
41
1
10
60.6484396976378
20
-3.66422568789534
30
0
41
1
10
60.6916145185195
20
-3.68967400269284
30
0
41
1
10
60.7235021275741
20
-3.71614252193112
30
0
41
1
10
60.7735849873045
20
-3.77561018636584
30
0
41
1
10
60.7935022584844
20
-3.80876033258568
30
0
41
1
10
60.8184283801368
20
-3.87449925939768
30
0
41
1
10
60.8252393847511
20
-3.9076737935082
30
0
41
1
10
60.8264920222911
20
-3.95078298292202
30
0
41
1
10
60.8261717138278
20
-3.96157351589795
30
0
41
1
10
60.8252180147081
20
-3.97221674795017
30
0
0
SPLINE
5
256
100
AcDbEntity
8
1
62
256
6
ByLayer
370
-1
48
1
60
0
100
AcDbSpline
70
4
71
3
72
16
73
12
40
0
40
0
40
0
40
0
40
0.145457764402228
40
0.145457764402228
40
0.367748871215448
40
0.367748871215448
40
0.597390748780766
40
0.597390748780766
40
0.845144964192526
40
0.845144964192526
40
1
40
1
40
1
40
1
41
1
10
60.8252180147081
20
-3.97221674795017
30
0
41
1
10
60.8235478696513
20
-3.9908554790058
30
0
41
1
10
60.8199011827202
20
-4.0092128457251
30
0
41
1
10
60.8060823820354
20
-4.05325011305499
30
0
41
1
10
60.793241320288
20
-4.07822617577949
30
0
41
1
10
60.7605278231446
20
-4.12202139655906
30
0
41
1
10
60.7400469271821
20
-4.14117872889113
30
0
41
1
10
60.693153168029
20
-4.17234496975445
30
0
41
1
10
60.6658346341481
20
-4.18408779585909
30
0
41
1
10
60.6199948934594
20
-4.19540223908515
30
0
41
1
10
60.6018008540662
20
-4.19796017151563
30
0
41
1
10
60.5835272943044
20
-4.19875120433923
30
0
0
SPLINE
5
257
100
AcDbEntity
8
1
62
256
6
ByLayer
370
-1
48
1
60
0
100
AcDbSpline
70
4
71
3
72
18
73
14
40
0
40
0
40
0
40
0
40
0.193074235867568
40
0.193074235867568
40
0.370703002326344
40
0.370703002326344
40
0.550239146903984
40
0.550239146903984
40
0.704018777510548
40
0.704018777510548
40
0.903544112173332
40
0.903544112173332
40
1
40
1
40
1
40
1
41
1
10
60.0298023822235
20
-4.96992749992435
30
0
41
1
10
60.0177540216717
20
-4.90000998140715
30
0
41
1
10
60.01447993344
20
-4.8271621751083
30
0
41
1
10
60.0280399758798
20
-4.68919337919289
30
0
41
1
10
60.0436228567479
20
-4.62236743082622
30
0
41
1
10
60.0938288723643
20
-4.49804389241524
30
0
41
1
10
60.1296363184453
20
-4.43891470919269
30
0
41
1
10
60.2094606206961
20
-4.34769557046988
30
0
41
1
10
60.2524573909499
20
-4.31176711344389
30
0
41
1
10
60.3568310822112
20
-4.24755386300845
30
0
41
1
10
60.4215029637504
20
-4.22334977412589
30
0
41
1
10
60.5187296244212
20
-4.20396181612495
30
0
41
1
10
60.5510978712812
20
-4.20015502156934
30
0
41
1
10
60.5835272943043
20
-4.19875120433855
30
0
0
SPLINE
5
258
100
AcDbEntity
8
1
62
256
6
ByLayer
370
-1
48
1
60
0
100
AcDbSpline
70
4
71
3
72
14
73
10
40
0
40
0
40
0
40
0
40
0.220607082023585
40
0.220607082023585
40
0.521405208892021
40
0.521405208892021
40
0.786696551790825
40
0.786696551790825
40
1
40
1
40
1
40
1
41
1
10
60.0298023822288
20
-4.96992749992452
30
0
41
1
10
60.0346651158448
20
-4.9981462991642
30
0
41
1
10
60.0361376998345
20
-5.02737273886811
30
0
41
1
10
60.0307029614755
20
-5.09551658691319
30
0
41
1
10
60.0203107296069
20
-5.13528684471271
30
0
41
1
10
59.9873773709245
20
-5.2026609948754
30
0
41
1
10
59.9658487853508
20
-5.2321420400263
30
0
41
1
10
59.9191660687873
20
-5.27542462350811
30
0
41
1
10
59.8950110156403
20
-5.29167371077847
30
0
41
1
10
59.8693027437332
20
-5.30352617884361
30
0
0
SPLINE
5
259
100
AcDbEntity
8
1
62
256
6
ByLayer
370
-1
48
1
60
0
100
AcDbSpline
70
4
71
3
72
18
73
14
40
0
40
0
40
0
40
0
40
0.0234665480132087
40
0.0234665480132087
40
0.247226260572586
40
0.247226260572586
40
0.471497900203242
40
0.471497900203242
40
0.708371043968192
40
0.708371043968192
40
0.96744522625336
40
0.96744522625336
40
1
40
1
40
1
40
1
41
1
10
59.8693027437332
20
-5.30352617884361
30
0
41
1
10
59.8664507766087
20
-5.30484104160013
30
0
41
1
10
59.8635760135578
20
-5.30610529783189
30
0
41
1
10
59.8333868753134
20
-5.31874969590655
30
0
41
1
10
59.803853099051
20
-5.32559786997325
30
0
41
1
10
59.7451380496012
20
-5.32932742799093
30
0
41
1
10
59.7152090636204
20
-5.32625595515754
30
0
41
1
10
59.657091788977
20
-5.31098823235106
30
0
41
1
10
59.6283610960562
20
-5.2981286394326
30
0
41
1
10
59.5743704364613
20
-5.26351549674896
30
0
41
1
10
59.5489934525264
20
-5.24063851146963
30
0
41
1
10
59.5251407304301
20
-5.21165710959659
30
0
41
1
10
59.5225172985844
20
-5.20834423036368
30
0
41
1
10
59.5199575808585
20
-5.20498488722669
30
0
0
SPLINE
5
25A
100
AcDbEntity
8
1
62
256
6
ByLayer
370
-1
48
1
60
0
100
AcDbSpline
70
4
71
3
72
18
73
14
40
0
40
0
40
0
40
0
40
0.180072176690327
40
0.180072176690327
40
0.36015002103258
40
0.36015002103258
40
0.542283515089062
40
0.542283515089062
40
0.696761270862153
40
0.696761270862153
40
0.894183387266335
40
0.894183387266335
40
1
40
1
40
1
40
1
41
1
10
58.5547228105804
20
-5.13410541408663
30
0
41
1
10
58.5999022154022
20
-5.08824069161432
30
0
41
1
10
58.6514740288902
20
-5.04765708918831
30
0
41
1
10
58.7644530304294
20
-4.9829345196691
30
0
41
1
10
58.8272925348237
20
-4.95821767758289
30
0
41
1
10
58.958556444507
20
-4.9313978121713
30
0
41
1
10
59.0291459542801
20
-4.92945842327774
30
0
41
1
10
59.1542040582977
20
-4.94903699007389
30
0
41
1
10
59.2110051642711
20
-4.96717563587657
30
0
41
1
10
59.3294999839451
20
-5.02391895300039
30
0
41
1
10
59.3902527420098
20
-5.06747012444282
30
0
41
1
10
59.4704369166687
20
-5.1447411499889
30
0
41
1
10
59.496401087278
20
-5.17406962487672
30
0
41
1
10
59.5199575808585
20
-5.20498488722669
30
0
0
SPLINE
5
25B
100
AcDbEntity
8
1
62
256
6
ByLayer
370
-1
48
1
60
0
100
AcDbSpline
70
4
71
3
72
14
73
10
40
0
40
0
40
0
40
0
40
0.275155145054106
40
0.275155145054106
40
0.562584571426142
40
0.562584571426142
40
0.822642906837015
40
0.822642906837015
40
1
40
1
40
1
40
1
41
1
10
58.5547228105804
20
-5.13410541408663
30
0
41
1
10
58.5303204476568
20
-5.15887793173198
30
0
41
1
10
58.5015730637968
20
-5.1799872643916
30
0
41
1
10
58.4377784417508
20
-5.21133132094488
30
0
41
1
10
58.4014808821915
20
-5.22146348646422
30
0
41
1
10
58.3318670564605
20
-5.22607637759629
30
0
41
1
10
58.297543208382
20
-5.2219621519711
30
0
41
1
10
58.2436639944797
20
-5.20428156267073
30
0
41
1
10
58.222423861421
20
-5.19401704909708
30
0
41
1
10
58.2029831744713
20
-5.18116438999274
30
0
0
SPLINE
5
25C
100
AcDbEntity
8
1
62
256
6
ByLayer
370
-1
48
1
60
0
100
AcDbSpline
70
4
71
3
72
18
73
14
40
0
40
0
40
0
40
0
40
0.0561848879348959
40
0.0561848879348959
40
0.277050979500622
40
0.277050979500622
40
0.500334478296748
40
0.500334478296748
40
0.737651830052844
40
0.737651830052844
40
0.998111856583214
40
0.998111856583214
40
1
40
1
40
1
40
1
41
1
10
58.2029831744713
20
-5.18116438999274
30
0
41
1
10
58.1967370460829
20
-5.17703493926371
30
0
41
1
10
58.1906503694417
20
-5.17262806956731
30
0
41
1
10
58.1617573528843
20
-5.14978673285802
30
0
41
1
10
58.1414026812735
20
-5.12734837372122
30
0
41
1
10
58.1087819836004
20
-5.07755760493777
30
0
41
1
10
58.0961720655361
20
-5.04953408026935
30
0
41
1
10
58.0791665459985
20
-4.99013004380916
30
0
41
1
10
58.0750936894329
20
-4.95791582581487
30
0
41
1
10
58.0759178727233
20
-4.89177666071302
30
0
41
1
10
58.0817028474083
20
-4.85716006547929
30
0
41
1
10
58.0919891530829
20
-4.82453734978307
30
0
41
1
10
58.0920642375677
20
-4.82430007773593
30
0
41
1
10
58.0921395612725
20
-4.82406290260843
30
0
0
SPLINE
5
25D
100
AcDbEntity
8
1
62
256
6
ByLayer
370
-1
48
1
60
0
100
AcDbSpline
70
4
71
3
72
12
73
8
40
0
40
0
40
0
40
0
40
0.288397152495964
40
0.288397152495964
40
0.747888205370407
40
0.747888205370407
40
1
40
1
40
1
40
1
41
1
10
58.0957142047964
20
-4.34702227590199
30
0
41
1
10
58.1104321229653
20
-4.39104224190362
30
0
41
1
10
58.1206028073662
20
-4.43753156515527
30
0
41
1
10
58.1349944705407
20
-4.55811958741486
30
0
41
1
10
58.132435721883
20
-4.63414688779636
30
0
41
1
10
58.1138022460007
20
-4.74652337159481
30
0
41
1
10
58.1042579232664
20
-4.78590527268076
30
0
41
1
10
58.0921395612726
20
-4.82406290260846
30
0
0
SPLINE
5
25E
100
AcDbEntity
8
1
62
256
6
ByLayer
370
-1
48
1
60
0
100
AcDbSpline
70
4
71
3
72
12
73
8
40
0
40
0
40
0
40
0
40
0.318843621614128
40
0.318843621614128
40
0.786729030551795
40
0.786729030551795
40
1
40
1
40
1
40
1
41
1
10
60.2022067699818
20
-3.19815527315623
30
0
41
1
10
60.1861895174945
20
-3.15236348336478
30
0
41
1
10
60.176005432978
20
-3.10624350297923
30
0
41
1
10
60.1651719760292
20
-2.99754268047289
30
0
41
1
10
60.1708503297274
20
-2.93545548754264
30
0
41
1
10
60.1933456379895
20
-2.85307899608398
30
0
41
1
10
60.2024790259281
20
-2.82812636661359
30
0
41
1
10
60.2134675050709
20
-2.80426060876775
30
0
0
SPLINE
5
25F
100
AcDbEntity
8
1
62
256
6
ByLayer
370
-1
48
1
60
0
100
AcDbSpline
70
4
71
3
72
16
73
12
40
0
40
0
40
0
40
0
40
0.208885931401704
40
0.208885931401704
40
0.430059582832595
40
0.430059582832595
40
0.661905004958524
40
0.661905004958524
40
0.914359083999816
40
0.914359083999816
40
1
40
1
40
1
40
1
41
1
10
60.1079186637412
20
-2.50443646430523
30
0
41
1
10
60.130962337309
20
-2.51967113588066
30
0
41
1
10
60.1518767334875
20
-2.5378901553878
30
0
41
1
10
60.187554375904
20
-2.57865730041542
30
0
41
1
10
60.2023400278849
20
-2.60191672432708
30
0
41
1
10
60.2236353201171
20
-2.65036014774645
30
0
41
1
10
60.2300065616562
20
-2.6761825440233
30
0
41
1
10
60.2338998008605
20
-2.72829806399815
30
0
41
1
10
60.2306687401955
20
-2.75508078662665
30
0
41
1
10
60.2202971036412
20
-2.78810598728367
30
0
41
1
10
60.2171271735092
20
-2.79631221485408
30
0
41
1
10
60.2134675050712
20
-2.80426060876783
30
0
0
SPLINE
5
260
100
AcDbEntity
8
1
62
256
6
ByLayer
370
-1
48
1
60
0
100
AcDbSpline
70
4
71
3
72
12
73
8
40
0
40
0
40
0
40
0
40
0.437085561807631
40
0.437085561807631
40
0.852488469801235
40
0.852488469801235
40
1
40
1
40
1
40
1
41
1
10
57.6766356645277
20
-3.97383429637966
30
0
41
1
10
57.7352004268457
20
-3.98523194225783
30
0
41
1
10
57.7925145478161
20
-4.00559642045766
30
0
41
1
10
57.8958540656184
20
-4.06404281164345
30
0
41
1
10
57.9434213832479
20
-4.10206822584661
30
0
41
1
10
57.9984819694949
20
-4.16537711736868
30
0
41
1
10
58.0121635979143
20
-4.18319010841208
30
0
41
1
10
58.024842760166
20
-4.20200094141785
30
0
0
SPLINE
5
261
100
AcDbEntity
8
1
62
256
6
ByLayer
370
-1
48
1
60
0
100
AcDbSpline
70
4
71
3
72
16
73
12
40
0
40
0
40
0
40
0
40
0.155969714281529
40
0.155969714281529
40
0.456068661957232
40
0.456068661957232
40
0.727325577536983
40
0.727325577536983
40
0.967741962601968
40
0.967741962601968
40
1
40
1
40
1
40
1
41
1
10
57.676635664526
20
-3.97383429638586
30
0
41
1
10
57.6593206725951
20
-3.97046452011426
30
0
41
1
10
57.6423651975788
20
-3.96530876006449
30
0
41
1
10
57.5953363469069
20
-3.94517809899233
30
0
41
1
10
57.5666928952569
20
-3.92500247436644
30
0
41
1
10
57.5231836576552
20
-3.87591543898679
30
0
41
1
10
57.5066416469144
20
-3.84721922197662
30
0
41
1
10
57.4876061220351
20
-3.78790938178946
30
0
41
1
10
57.4834908648601
20
-3.75701224089031
30
0
41
1
10
57.4850241129742
20
-3.7218290080651
30
0
41
1
10
57.4853053201702
20
-3.71760818366403
30
0
41
1
10
57.4856838235043
20
-3.71338410634792
30
0
0
SPLINE
5
262
100
AcDbEntity
8
1
62
256
6
ByLayer
370
-1
48
1
60
0
100
AcDbSpline
70
4
71
3
72
16
73
12
40
0
40
0
40
0
40
0
40
0.193107886882322
40
0.193107886882322
40
0.416052070570424
40
0.416052070570424
40
0.648855494404521
40
0.648855494404521
40
0.901755104733871
40
0.901755104733871
40
1
40
1
40
1
40
1
41
1
10
57.4856838235043
20
-3.71338410634792
30
0
41
1
10
57.4878971766751
20
-3.68868320129064
30
0
41
1
10
57.4935439837691
20
-3.66357320280861
30
0
41
1
10
57.5122009294847
20
-3.61189930322246
30
0
41
1
10
57.5264707006525
20
-3.58505652987674
30
0
41
1
10
57.5616012658035
20
-3.53579396504904
30
0
41
1
10
57.5831444796043
20
-3.51298759010152
30
0
41
1
10
57.6317684888349
20
-3.47300463833324
30
0
41
1
10
57.6597556959689
20
-3.45595758727342
30
0
41
1
10
57.699457906693
20
-3.43841860253485
30
0
41
1
10
57.7107914004067
20
-3.43411829970108
30
0
41
1
10
57.7221629691127
20
-3.43047230942338
30
0
0
SPLINE
5
263
100
AcDbEntity
8
1
62
256
6
ByLayer
370
-1
48
1
60
0
100
AcDbSpline
70
4
71
3
72
20
73
16
40
0
40
0
40
0
40
0
40
0.107233627294108
40
0.107233627294108
40
0.302419289169695
40
0.302419289169695
40
0.462343507929992
40
0.462343507929992
40
0.622893589417192
40
0.622893589417192
40
0.775828883159843
40
0.775828883159843
40
0.995908765001103
40
0.995908765001103
40
1
40
1
40
1
40
1
41
1
10
58.2758878811921
20
-2.65929601383277
30
0
41
1
10
58.281706335743
20
-2.68859377431073
30
0
41
1
10
58.2848358430315
20
-2.71898218096206
30
0
41
1
10
58.2853997056276
20
-2.80671225101335
30
0
41
1
10
58.2759242102071
20
-2.86701680024169
30
0
41
1
10
58.2387706546101
20
-2.9775714856618
30
0
41
1
10
58.2141305879522
20
-3.02890960071551
30
0
41
1
10
58.1513962580327
20
-3.12701164218146
30
0
41
1
10
58.1124093575053
20
-3.17499768357891
30
0
41
1
10
58.0285814490756
20
-3.25835716503875
30
0
41
1
10
57.983197693898
20
-3.29523121155128
30
0
41
1
10
57.8693608594991
20
-3.37127427195429
30
0
41
1
10
57.7975424187573
20
-3.40588092194179
30
0
41
1
10
57.724849976548
20
-3.42960692318337
30
0
41
1
10
57.723506572069
20
-3.43004151896315
30
0
41
1
10
57.7221629691127
20
-3.43047230942332
30
0
0
SPLINE
5
264
100
AcDbEntity
8
1
62
256
6
ByLayer
370
-1
48
1
60
0
100
AcDbSpline
70
4
71
3
72
16
73
12
40
0
40
0
40
0
40
0
40
0.174528471009263
40
0.174528471009263
40
0.47438639249888
40
0.47438639249888
40
0.745259933827551
40
0.745259933827551
40
0.985919484389049
40
0.985919484389049
40
1
40
1
40
1
40
1
41
1
10
59.750967452834
20
-2.49511809967294
30
0
41
1
10
59.7669867016072
20
-2.48491627726719
30
0
41
1
10
59.7846650244148
20
-2.47604543937294
30
0
41
1
10
59.8358742291757
20
-2.45667487355604
30
0
41
1
10
59.8727264506748
20
-2.44929452167582
30
0
41
1
10
59.9449319706427
20
-2.44756594116575
30
0
41
1
10
59.981208918994
20
-2.45206585476913
30
0
41
1
10
60.046340635572
20
-2.47090131693616
30
0
41
1
10
60.0764997274051
20
-2.48438541698695
30
0
41
1
10
60.1047796732748
20
-2.50238086282238
30
0
41
1
10
60.1063545964627
20
-2.50340242555967
30
0
41
1
10
60.1079186637412
20
-2.50443646430523
30
0
0
SPLINE
5
265
100
AcDbEntity
8
1
62
256
6
ByLayer
370
-1
48
1
60
0
100
AcDbSpline
70
4
71
3
72
14
73
10
40
0
40
0
40
0
40
0
40
0.195364289315709
40
0.195364289315709
40
0.492714238387365
40
0.492714238387365
40
0.761276334579628
40
0.761276334579628
40
1
40
1
40
1
40
1
41
1
10
58.2758878811898
20
-2.65929601383414
30
0
41
1
10
58.2721453019777
20
-2.64045094280075
30
0
41
1
10
58.2710477307
20
-2.62061618241293
30
0
41
1
10
58.2755913471967
20
-2.57007919753522
30
0
41
1
10
58.2852479524089
20
-2.53818393606554
30
0
41
1
10
58.3166634861353
20
-2.48130199121533
30
0
41
1
10
58.3377069624752
20
-2.45509486728028
30
0
41
1
10
58.3859217762218
20
-2.41279769218926
30
0
41
1
10
58.4128627630804
20
-2.39532319139676
30
0
41
1
10
58.4415990944793
20
-2.38207467545436
30
0
0
SPLINE
5
266
100
AcDbEntity
8
1
62
256
6
ByLayer
370
-1
48
1
60
0
100
AcDbSpline
70
4
71
3
72
18
73
14
40
0
40
0
40
0
40
0
40
0.0003949354607812
40
0.0003949354607812
40
0.224892743043044
40
0.224892743043044
40
0.448534607133783
40
0.448534607133783
40
0.683663168903527
40
0.683663168903527
40
0.940146663974959
40
0.940146663974959
40
1
40
1
40
1
40
1
41
1
10
58.4415990944793
20
-2.38207467545436
30
0
41
1
10
58.4416472353379
20
-2.38205248073072
30
0
41
1
10
58.4416953822291
20
-2.38203029688978
30
0
41
1
10
58.4687238467315
20
-2.3695845101812
30
0
41
1
10
58.4980198841404
20
-2.36052729895329
30
0
41
1
10
58.5562225152322
20
-2.35041994302162
30
0
41
1
10
58.5858744389237
20
-2.34919166618974
30
0
41
1
10
58.6434078436459
20
-2.35403356202542
30
0
41
1
10
58.671847629026
20
-2.3605156667393
30
0
41
1
10
58.725299352823
20
-2.38057134509222
30
0
41
1
10
58.750451680499
20
-2.39495795590915
30
0
41
1
10
58.7764467391766
20
-2.41583788801552
30
0
41
1
10
58.781199386615
20
-2.41997220516794
30
0
41
1
10
58.7857326825583
20
-2.42423862653499
30
0
0
SPLINE
5
267
100
AcDbEntity
8
1
62
256
6
ByLayer
370
-1
48
1
60
0
100
AcDbSpline
70
4
71
3
72
18
73
14
40
0
40
0
40
0
40
0
40
0.209924360555884
40
0.209924360555884
40
0.384465818849746
40
0.384465818849746
40
0.560718190081113
40
0.560718190081113
40
0.713743773314895
40
0.713743773314895
40
0.916120716083126
40
0.916120716083126
40
1
40
1
40
1
40
1
41
1
10
59.7509674528366
20
-2.49511809967529
30
0
41
1
10
59.6965567173023
20
-2.52976945372731
30
0
41
1
10
59.6333775575139
20
-2.55839129299665
30
0
41
1
10
59.5066360701874
20
-2.59535223065856
30
0
41
1
10
59.4434387204989
20
-2.60662101036004
30
0
41
1
10
59.3136735761871
20
-2.61531909673923
30
0
41
1
10
59.2451332709998
20
-2.61263599221766
30
0
41
1
10
59.1240533818324
20
-2.59470729041658
30
0
41
1
10
59.0691316837468
20
-2.5809919647769
30
0
41
1
10
58.9532805065895
20
-2.53970291385701
30
0
41
1
10
58.8940091201458
20
-2.50850016081205
30
0
41
1
10
58.8231499581422
20
-2.4572214064186
30
0
41
1
10
58.8036832246883
20
-2.4411324224518
30
0
41
1
10
58.7857326825579
20
-2.42423862653521
30
0
0
SPLINE
5
268
100
AcDbEntity
8
1
62
256
6
ByLayer
370
-1
48
1
60
0
100
AcDbSpline
70
4
71
3
72
14
73
10
40
0
40
0
40
0
40
0
40
0.249606055014985
40
0.249606055014985
40
0.499158243446869
40
0.499158243446869
40
0.746144217743596
40
0.746144217743596
40
1
40
1
40
1
40
1
41
1
10
63.9376374470034
20
-3.34555821616195
30
0
41
1
10
63.9376670977014
20
-3.32830573716547
30
0
41
1
10
63.9377490918391
20
-3.31146743249138
30
0
41
1
10
63.9380121230748
20
-3.27930784322339
30
0
41
1
10
63.9381940370748
20
-3.26387426859992
30
0
41
1
10
63.9386476750531
20
-3.2350536172307
30
0
41
1
10
63.9389199561898
20
-3.22155134891867
30
0
41
1
10
63.9395553877217
20
-3.19639633104265
30
0
41
1
10
63.9399230666551
20
-3.18471783690208
30
0
41
1
10
63.9403289888338
20
-3.17435971196872
30
0
0
SPLINE
5
269
100
AcDbEntity
8
1
62
256
6
ByLayer
370
-1
48
1
60
0
100
AcDbSpline
70
4
71
3
72
12
73
8
40
0
40
0
40
0
40
0
40
0.474376698371002
40
0.474376698371002
40
0.706219783413671
40
0.706219783413671
40
1
40
1
40
1
40
1
41
1
10
57.0438767006651
20
0.163818600838908
30
0
41
1
10
57.0203583902069
20
0.156104777963492
30
0
41
1
10
56.9935441855865
20
0.145282920285098
30
0
41
1
10
56.9521163134605
20
0.126034738494013
30
0
41
1
10
56.9380550685037
20
0.119111507778854
30
0
41
1
10
56.9060277740598
20
0.102504893893354
30
0
41
1
10
56.8878538327412
20
0.0924915248187403
30
0
41
1
10
56.8699250054749
20
0.0820506273466322
30
0
0
SPLINE
5
26A
100
AcDbEntity
8
1
62
256
6
ByLayer
370
-1
48
1
60
0
100
AcDbSpline
70
4
71
3
72
10
73
6
40
0
40
0
40
0
40
0
40
0.709495622816739
40
0.709495622816739
40
1
40
1
40
1
40
1
41
1
10
63.9435659227191
20
-0.619620418224855
30
0
41
1
10
63.9411145026335
20
-0.595073097051568
30
0
41
1
10
63.9344169761341
20
-0.569487047887719
30
0
41
1
10
63.9204458782153
20
-0.536121956337553
30
0
41
1
10
63.9157719483376
20
-0.526544592781846
30
0
41
1
10
63.9105868788639
20
-0.51729111306588
30
0
0
SPLINE
5
26B
100
AcDbEntity
8
SK1
62
256
6
ByLayer
370
-1
48
1
60
0
100
AcDbSpline
70
4
71
3
72
10
73
6
40
0
40
0
40
0
40
0
40
0.5
40
0.5
40
1
40
1
40
1
40
1
41
1
10
-135.31
20
-2.76225564530151
30
0
41
1
10
-135.618496949467
20
-1.86962940601529
30
0
41
1
10
-135.802263903757
20
-0.947191057260341
30
0
41
1
10
-135.802735629345
20
0.943448469663423
30
0
41
1
10
-135.615124150977
20
1.87938849257091
30
0
41
1
10
-135.31
20
2.76225564530154
30
0
0
LINE
5
49
100
AcDbEntity
8
1
62
256
6
ByLayer
370
-1
48
1
60
0
100
AcDbLine
10
63.284257
20
2.533812
30
0
11
63.150484
21
3.560262
31
0
39
0
210
0
220
0
230
1
0
LINE
5
4A
100
AcDbEntity
8
1
62
256
6
ByLayer
370
-1
48
1
60
0
100
AcDbLine
10
63.625912
20
0.718087
30
0
11
63.498137
21
1.698511
31
0
39
0
210
0
220
0
230
1
0
LINE
5
4B
100
AcDbEntity
8
1
62
256
6
ByLayer
370
-1
48
1
60
0
100
AcDbLine
10
63.94273
20
-0.612395
30
0
11
63.80421
21
0.450479
31
0
39
0
210
0
220
0
230
1
0
LINE
5
4C
100
AcDbEntity
8
1
62
256
6
ByLayer
370
-1
48
1
60
0
100
AcDbLine
10
51.181898
20
-2.860233
30
0
11
51.315572
21
-3.885921
31
0
39
0
210
0
220
0
230
1
0
LINE
5
4D
100
AcDbEntity
8
1
62
256
6
ByLayer
370
-1
48
1
60
0
100
AcDbLine
10
52.321113
20
-2.248264
30
0
11
52.448685
21
-3.227132
31
0
39
0
210
0
220
0
230
1
0
LINE
5
4E
100
AcDbEntity
8
1
62
256
6
ByLayer
370
-1
48
1
60
0
100
AcDbLine
10
44.845323
20
-7.775
30
0
11
48.56897
21
-7.775
31
0
39
0
210
0
220
0
230
1
0
LINE
5
4F
100
AcDbEntity
8
1
62
256
6
ByLayer
370
-1
48
1
60
0
100
AcDbLine
10
47.016127
20
7.775
30
0
11
37.292182
21
7.775
31
0
39
0
210
0
220
0
230
1
0
LINE
5
50
100
AcDbEntity
8
1
62
256
6
ByLayer
370
-1
48
1
60
0
100
AcDbLine
10
36.892182
20
7.88218
30
0
11
36.701102
21
7.9925
31
0
39
0
210
0
220
0
230
1
0
LINE
5
51
100
AcDbEntity
8
1
62
256
6
ByLayer
370
-1
48
1
60
0
100
AcDbLine
10
36.701102
20
7.9925
30
0
11
0
21
7.9925
31
0
39
0
210
0
220
0
230
1
0
LINE
5
52
100
AcDbEntity
8
1
62
256
6
ByLayer
370
-1
48
1
60
0
100
AcDbLine
10
49.181806
20
-8.06077
30
0
11
49.313131
21
-8.217278
31
0
39
0
210
0
220
0
230
1
0
LINE
5
53
100
AcDbEntity
8
SK1
62
256
6
ByLayer
370
-1
48
1
60
0
100
AcDbLine
10
-135.31
20
7.9925
30
0
11
-137.31
21
5.9925
31
0
39
0
210
0
220
0
230
1
0
LINE
5
55
100
AcDbEntity
8
SK1
62
256
6
ByLayer
370
-1
48
1
60
0
100
AcDbLine
10
-137.31
20
-5.9925
30
0
11
-136.295
21
-7.0075
31
0
39
0
210
0
220
0
230
1
0
LINE
5
56
100
AcDbEntity
8
SK1
62
256
6
ByLayer
370
-1
48
1
60
0
100
AcDbLine
10
0
20
7.9925
30
0
11
-135.31
21
7.9925
31
0
39
0
210
0
220
0
230
1
0
LINE
5
57
100
AcDbEntity
8
1
62
256
6
ByLayer
370
-1
48
1
60
0
100
AcDbLine
10
56.410926
20
-3.757264
30
0
11
56.434443
21
-4.011664
31
0
39
0
210
0
220
0
230
1
0
LINE
5
58
100
AcDbEntity
8
1
62
256
6
ByLayer
370
-1
48
1
60
0
100
AcDbLine
10
61.861305
20
-3.509999
30
0
11
61.837788
21
-3.2556
31
0
39
0
210
0
220
0
230
1
0
LINE
5
59
100
AcDbEntity
8
1
62
256
6
ByLayer
370
-1
48
1
60
0
100
AcDbLine
10
58.282997
20
-2.70843
30
0
11
58.272983
21
-2.600109
31
0
39
0
210
0
220
0
230
1
0
LINE
5
5A
100
AcDbEntity
8
1
62
256
6
ByLayer
370
-1
48
1
60
0
100
AcDbLine
10
60.142867
20
-2.751356
30
0
11
60.171245
21
-3.058341
31
0
39
0
210
0
220
0
230
1
0
LINE
5
5B
100
AcDbEntity
8
1
62
256
6
ByLayer
370
-1
48
1
60
0
100
AcDbLine
10
59.990521
20
-4.572754
30
0
11
60.021347
21
-4.906221
31
0
39
0
210
0
220
0
230
1
0
LINE
5
5C
100
AcDbEntity
8
1
62
256
6
ByLayer
370
-1
48
1
60
0
100
AcDbLine
10
58.128275
20
-4.504131
30
0
11
58.099867
21
-4.196822
31
0
39
0
210
0
220
0
230
1
0
LINE
5
5D
100
AcDbEntity
8
SK4
62
256
6
ByLayer
370
-1
48
0.05
60
0
100
AcDbLine
10
-142.31
20
0
30
0
11
68.94
21
0
31
0
39
0
210
0
220
0
230
1
0
LINE
5
5F
100
AcDbEntity
8
80
62
256
6
ByLayer
370
-1
48
1
60
0
100
AcDbLine
10
0
20
0
30
0
11
-5
21
0
31
0
39
0
210
0
220
0
230
1
0
LINE
5
60
100
AcDbEntity
8
81
62
256
6
ByLayer
370
-1
48
1
60
0
100
AcDbLine
10
63.94
20
-11.875
30
0
11
68.94
21
-11.875
31
0
39
0
210
0
220
0
230
1
0
LINE
5
61
100
AcDbEntity
8
1
62
256
6
ByLayer
370
-1
48
1
60
0
100
AcDbLine
10
49.181806
20
-8.06077
30
0
11
49.181806
21
-7.935002
31
0
39
0
210
0
220
0
230
1
0
LINE
5
62
100
AcDbEntity
8
1
62
256
6
ByLayer
370
-1
48
1
60
0
100
AcDbLine
10
62.992913
20
5.693796
30
0
11
61.693285
21
5.685748
31
0
39
0
210
0
220
0
230
1
0
LINE
5
63
100
AcDbEntity
8
1
62
256
6
ByLayer
370
-1
48
1
60
0
100
AcDbLine
10
51.360977
20
-4.723452
30
0
11
51.415131
21
-5.128386
31
0
39
0
210
0
220
0
230
1
0
LINE
5
64
100
AcDbEntity
8
1
62
256
6
ByLayer
370
-1
48
1
60
0
100
AcDbLine
10
48.449924
20
2.049543
30
0
11
37.292182
21
2.049543
31
0
39
0
210
0
220
0
230
1
0
LINE
5
65
100
AcDbEntity
8
1
62
256
6
ByLayer
370
-1
48
1
60
0
100
AcDbLine
10
51.271267
20
-4.509142
30
0
11
51.905296
21
-4.858901
31
0
39
0
210
0
220
0
230
1
0
LINE
5
66
100
AcDbEntity
8
1
62
256
6
ByLayer
370
-1
48
1
60
0
100
AcDbLine
10
37.292182
20
-2.049543
30
0
11
45.103727
21
-2.049543
31
0
39
0
210
0
220
0
230
1
0
LINE
5
67
100
AcDbEntity
8
1
62
256
6
ByLayer
370
-1
48
1
60
0
100
AcDbLine
10
62.850454
20
6.786894
30
0
11
50.252223
21
6.786894
31
0
39
0
210
0
220
0
230
1
0
LINE
5
68
100
AcDbEntity
8
1
62
256
6
ByLayer
370
-1
48
1
60
0
100
AcDbLine
10
0
20
-2.762256
30
0
11
0
21
2.762256
31
0
39
0
210
0
220
0
230
1
0
LINE
5
69
100
AcDbEntity
8
1
62
256
6
ByLayer
370
-1
48
1
60
0
100
AcDbLine
10
61.332816
20
3.216054
30
0
11
52.823235
21
-1.562925
31
0
39
0
210
0
220
0
230
1
0
LINE
5
6A
100
AcDbEntity
8
1
62
256
6
ByLayer
370
-1
48
1
60
0
100
AcDbLine
10
0
20
2.762256
30
0
11
36.701102
21
2.762256
31
0
39
0
210
0
220
0
230
1
0
LINE
5
6B
100
AcDbEntity
8
1
62
256
6
ByLayer
370
-1
48
1
60
0
100
AcDbLine
10
61.617232
20
5.426384
30
0
11
61.843499
21
5.370559
31
0
39
0
210
0
220
0
230
1
0
LINE
5
6C
100
AcDbEntity
8
1
62
256
6
ByLayer
370
-1
48
1
60
0
100
AcDbLine
10
46.886538
20
-3.917028
30
0
11
44.955344
21
-7.166675
31
0
39
0
210
0
220
0
230
1
0
LINE
5
6D
100
AcDbEntity
8
1
62
256
6
ByLayer
370
-1
48
1
60
0
100
AcDbLine
10
36.701102
20
7.9925
30
0
11
36.701102
21
2.762256
31
0
39
0
210
0
220
0
230
1
0
LINE
5
6E
100
AcDbEntity
8
1
62
256
6
ByLayer
370
-1
48
1
60
0
100
AcDbLine
10
51.120201
20
-6.045263
30
0
11
53.601502
21
-7.395436
31
0
39
0
210
0
220
0
230
1
0
LINE
5
6F
100
AcDbEntity
8
1
62
256
6
ByLayer
370
-1
48
1
60
0
100
AcDbLine
10
37.292182
20
-2.049543
30
0
11
37.292182
21
-7.0075
31
0
39
0
210
0
220
0
230
1
0
LINE
5
70
100
AcDbEntity
8
1
62
256
6
ByLayer
370
-1
48
1
60
0
100
AcDbLine
10
51.712706
20
4.204035
30
0
11
50.740303
21
3.970773
31
0
39
0
210
0
220
0
230
1
0
LINE
5
71
100
AcDbEntity
8
1
62
256
6
ByLayer
370
-1
48
1
60
0
100
AcDbLine
10
61.332816
20
4.598779
30
0
11
61.332816
21
3.216054
31
0
39
0
210
0
220
0
230
1
0
LINE
5
72
100
AcDbEntity
8
1
62
256
6
ByLayer
370
-1
48
1
60
0
100
AcDbLine
10
63.49277
20
5.213928
30
0
11
63.49277
21
1.723578
31
0
39
0
210
0
220
0
230
1
0
LINE
5
73
100
AcDbEntity
8
1
62
256
6
ByLayer
370
-1
48
1
60
0
100
AcDbLine
10
45.103727
20
-2.049543
30
0
11
48.449924
21
2.049543
31
0
39
0
210
0
220
0
230
1
0
LINE
5
74
100
AcDbEntity
8
1
62
256
6
ByLayer
370
-1
48
1
60
0
100
AcDbLine
10
61.912127
20
4.941491
30
0
11
61.912127
21
3.218127
31
0
39
0
210
0
220
0
230
1
0
LINE
5
75
100
AcDbEntity
8
1
62
256
6
ByLayer
370
-1
48
1
60
0
100
AcDbLine
10
61.843499
20
5.370559
30
0
11
61.912127
21
4.941491
31
0
39
0
210
0
220
0
230
1
0
LINE
5
76
100
AcDbEntity
8
1
62
256
6
ByLayer
370
-1
48
1
60
0
100
AcDbLine
10
37.292182
20
2.049543
30
0
11
37.292182
21
7.775
31
0
39
0
210
0
220
0
230
1
0
LINE
5
77
100
AcDbEntity
8
1
62
256
6
ByLayer
370
-1
48
1
60
0
100
AcDbLine
10
51.712706
20
4.204035
30
0
11
48.381229
21
-1.40189
31
0
39
0
210
0
220
0
230
1
0
LINE
5
78
100
AcDbEntity
8
1
62
256
6
ByLayer
370
-1
48
1
60
0
100
AcDbLine
10
0
20
-2.762256
30
0
11
0
21
-7.0075
31
0
39
0
210
0
220
0
230
1
0
LINE
5
79
100
AcDbEntity
8
1
62
256
6
ByLayer
370
-1
48
1
60
0
100
AcDbLine
10
61.912127
20
3.218127
30
0
11
57.73811
21
0.863858
31
0
39
0
210
0
220
0
230
1
0
LINE
5
7A
100
AcDbEntity
8
1
62
256
6
ByLayer
370
-1
48
1
60
0
100
AcDbLine
10
53.797056
20
-1.359013
30
0
11
53.564093
21
-1.490411
31
0
39
0
210
0
220
0
230
1
0
LINE
5
7B
100
AcDbEntity
8
1
62
256
6
ByLayer
370
-1
48
1
60
0
100
AcDbLine
10
61.693285
20
5.685748
30
0
11
61.693285
21
5.407612
31
0
39
0
210
0
220
0
230
1
0
LINE
5
7C
100
AcDbEntity
8
1
62
256
6
ByLayer
370
-1
48
1
60
0
100
AcDbLine
10
50.813027
20
-8.533059
30
0
11
53.601502
21
-8.508715
31
0
39
0
210
0
220
0
230
1
0
LINE
5
7D
100
AcDbEntity
8
1
62
256
6
ByLayer
370
-1
48
1
60
0
100
AcDbLine
10
53.057105
20
4.526531
30
0
11
45.848438
21
-7.603595
31
0
39
0
210
0
220
0
230
1
0
LINE
5
7E
100
AcDbEntity
8
1
62
256
6
ByLayer
370
-1
48
1
60
0
100
AcDbLine
10
51.360977
20
-4.723452
30
0
11
52.058289
21
-5.10812
31
0
39
0
210
0
220
0
230
1
0
LINE
5
7F
100
AcDbEntity
8
1
62
256
6
ByLayer
370
-1
48
1
60
0
100
AcDbLine
10
48.695065
20
4.704285
30
0
11
48.695065
21
2.285852
31
0
39
0
210
0
220
0
230
1
0
LINE
5
80
100
AcDbEntity
8
1
62
256
6
ByLayer
370
-1
48
1
60
0
100
AcDbLine
10
54.21433
20
-8.146175
30
0
11
54.21433
21
-6.672549
31
0
39
0
210
0
220
0
230
1
0
LINE
5
81
100
AcDbEntity
8
1
62
256
6
ByLayer
370
-1
48
1
60
0
100
AcDbLine
10
44.077823
20
-7.0075
30
0
11
37.292182
21
-7.0075
31
0
39
0
210
0
220
0
230
1
0
LINE
5
82
100
AcDbEntity
8
1
62
256
6
ByLayer
370
-1
48
1
60
0
100
AcDbLine
10
36.892182
20
-2.424615
30
0
11
36.892182
21
-7.0075
31
0
39
0
210
0
220
0
230
1
0
LINE
5
83
100
AcDbEntity
8
1
62
256
6
ByLayer
370
-1
48
1
60
0
100
AcDbLine
10
61.912127
20
4.941491
30
0
11
61.332816
21
4.598779
31
0
39
0
210
0
220
0
230
1
0
LINE
5
84
100
AcDbEntity
8
1
62
256
6
ByLayer
370
-1
48
1
60
0
100
AcDbLine
10
44.845323
20
-7.775
30
0
11
44.077823
21
-7.0075
31
0
39
0
210
0
220
0
230
1
0
LINE
5
85
100
AcDbEntity
8
1
62
256
6
ByLayer
370
-1
48
1
60
0
100
AcDbLine
10
53.057105
20
4.526531
30
0
11
61.332816
21
4.598779
31
0
39
0
210
0
220
0
230
1
0
LINE
5
86
100
AcDbEntity
8
1
62
256
6
ByLayer
370
-1
48
1
60
0
100
AcDbLine
10
50.813027
20
-8.533059
30
0
11
49.648692
21
-8.533059
31
0
39
0
210
0
220
0
230
1
0
LINE
5
87
100
AcDbEntity
8
1
62
256
6
ByLayer
370
-1
48
1
60
0
100
AcDbLine
10
50.719035
20
-4.230255
30
0
11
50.740561
21
-4.463126
31
0
39
0
210
0
220
0
230
1
0
LINE
5
88
100
AcDbEntity
8
1
62
256
6
ByLayer
370
-1
48
1
60
0
100
AcDbLine
10
53.601502
20
-7.395436
30
0
11
54.21433
21
-6.672549
31
0
39
0
210
0
220
0
230
1
0
LINE
5
89
100
AcDbEntity
8
1
62
256
6
ByLayer
370
-1
48
1
60
0
100
AcDbLine
10
55.715654
20
-7.391266
30
0
11
54.522828
21
-7.398653
31
0
39
0
210
0
220
0
230
1
0
LINE
5
8A
100
AcDbEntity
8
1
62
256
6
ByLayer
370
-1
48
1
60
0
100
AcDbLine
10
51.120201
20
-6.045263
30
0
11
51.415131
21
-5.128386
31
0
39
0
210
0
220
0
230
1
0
LINE
5
8B
100
AcDbEntity
8
1
62
256
6
ByLayer
370
-1
48
1
60
0
100
AcDbLine
10
36.701102
20
-2.762256
30
0
11
36.701102
21
-7.0075
31
0
39
0
210
0
220
0
230
1
0
LINE
5
8C
100
AcDbEntity
8
1
62
256
6
ByLayer
370
-1
48
1
60
0
100
AcDbLine
10
54.522828
20
-7.398653
30
0
11
54.522828
21
-6.736102
31
0
39
0
210
0
220
0
230
1
0
LINE
5
8D
100
AcDbEntity
8
1
62
256
6
ByLayer
370
-1
48
1
60
0
100
AcDbLine
10
0
20
-7.0075
30
0
11
36.701102
21
-7.0075
31
0
39
0
210
0
220
0
230
1
0
LINE
5
8E
100
AcDbEntity
8
1
62
256
6
ByLayer
370
-1
48
1
60
0
100
AcDbLine
10
36.892182
20
7.88218
30
0
11
36.892182
21
2.424615
31
0
39
0
210
0
220
0
230
1
0
LINE
5
8F
100
AcDbEntity
8
1
62
256
6
ByLayer
370
-1
48
1
60
0
100
AcDbLine
10
63.334907
20
6.42522
30
0
11
63.49277
21
5.213928
31
0
39
0
210
0
220
0
230
1
0
LINE
5
90
100
AcDbEntity
8
1
62
256
6
ByLayer
370
-1
48
1
60
0
100
AcDbLine
10
0
20
2.762256
30
0
11
0
21
7.9925
31
0
39
0
210
0
220
0
230
1
0
LINE
5
91
100
AcDbEntity
8
1
62
256
6
ByLayer
370
-1
48
1
60
0
100
AcDbLine
10
36.701102
20
-2.762256
30
0
11
0
21
-2.762256
31
0
39
0
210
0
220
0
230
1
0
LINE
5
92
100
AcDbEntity
8
1
62
256
6
ByLayer
370
-1
48
1
60
0
100
AcDbLine
10
62.850454
20
6.786894
30
0
11
62.992913
21
5.693796
31
0
39
0
210
0
220
0
230
1
0
LINE
5
93
100
AcDbEntity
8
1
62
256
6
ByLayer
370
-1
48
1
60
0
100
AcDbLine
10
48.56897
20
-7.775
30
0
11
48.56897
21
-7.624376
31
0
39
0
210
0
220
0
230
1
0
LINE
5
94
100
AcDbEntity
8
1
62
256
6
ByLayer
370
-1
48
1
60
0
100
AcDbLine
10
61.595705
20
5.659255
30
0
11
61.693285
21
5.685748
31
0
39
0
210
0
220
0
230
1
0
LINE
5
95
100
AcDbEntity
8
1
62
256
6
ByLayer
370
-1
48
1
60
0
100
AcDbLine
10
48.170737
20
5.262389
30
0
11
47.889663
21
7.419088
31
0
39
0
210
0
220
0
230
1
0
LINE
5
96
100
AcDbEntity
8
1
62
256
6
ByLayer
370
-1
48
1
60
0
100
AcDbLine
10
49.648692
20
-8.527
30
0
11
49.648692
21
-8.533059
31
0
39
0
210
0
220
0
230
1
0
LINE
5
97
100
AcDbEntity
8
1
62
256
6
ByLayer
370
-1
48
1
60
0
100
AcDbLine
10
62.992913
20
5.693796
30
0
11
63.49277
21
5.213928
31
0
39
0
210
0
220
0
230
1
0
LINE
5
98
100
AcDbEntity
8
1
62
256
6
ByLayer
370
-1
48
1
60
0
100
AcDbLine
10
54.194962
20
-6.556016
30
0
11
54.21433
21
-6.672549
31
0
39
0
210
0
220
0
230
1
0
LINE
5
99
100
AcDbEntity
8
1
62
256
6
ByLayer
370
-1
48
1
60
0
100
AcDbLine
10
61.332816
20
3.216054
30
0
11
61.912127
21
3.218127
31
0
39
0
210
0
220
0
230
1
0
LINE
5
9A
100
AcDbEntity
8
1
62
256
6
ByLayer
370
-1
48
1
60
0
100
AcDbLine
10
52.031603
20
-5.064668
30
0
11
51.223673
21
-4.618978
31
0
39
0
210
0
220
0
230
1
0
LINE
5
9B
100
AcDbEntity
8
1
62
256
6
ByLayer
370
-1
48
1
60
0
100
AcDbLine
10
53.601502
20
-8.508715
30
0
11
53.601502
21
-7.395436
31
0
39
0
210
0
220
0
230
1
0
LINE
5
9C
100
AcDbEntity
8
1
62
256
6
ByLayer
370
-1
48
1
60
0
100
AcDbLine
10
61.595705
20
5.659255
30
0
11
61.617232
21
5.426384
31
0
39
0
210
0
220
0
230
1
0
LINE
5
9D
100
AcDbEntity
8
1
62
256
6
ByLayer
370
-1
48
1
60
0
100
AcDbLine
10
50.619237
20
3.970773
30
0
11
50.740303
21
3.970773
31
0
39
0
210
0
220
0
230
1
0
LINE
5
9E
100
AcDbEntity
8
1
62
256
6
ByLayer
370
-1
48
1
60
0
100
AcDbLine
10
51.415131
20
-5.128386
30
0
11
54.21433
21
-6.672549
31
0
39
0
210
0
220
0
230
1
0
LINE
5
9F
100
AcDbEntity
8
1
62
256
6
ByLayer
370
-1
48
1
60
0
100
AcDbLine
10
53.601502
20
-8.508715
30
0
11
54.21433
21
-8.146175
31
0
39
0
210
0
220
0
230
1
0
LINE
5
A0
100
AcDbEntity
8
1
62
256
6
ByLayer
370
-1
48
1
60
0
100
AcDbLine
10
50.619237
20
3.970773
30
0
11
50.252223
21
6.786894
31
0
39
0
210
0
220
0
230
1
0
LINE
5
A1
100
AcDbEntity
8
1
62
256
6
ByLayer
370
-1
48
1
60
0
100
AcDbLine
10
48.56897
20
4.820838
30
0
11
48.56897
21
2.160905
31
0
39
0
210
0
220
0
230
1
0
LINE
5
A2
100
AcDbEntity
8
SK1
62
256
6
ByLayer
370
-1
48
1
60
0
100
AcDbLine
10
-137.31
20
0
30
0
11
-137.31
21
-5.9925
31
0
39
0
210
0
220
0
230
1
0
LINE
5
A3
100
AcDbEntity
8
SK1
62
256
6
ByLayer
370
-1
48
1
60
0
100
AcDbLine
10
-137.31
20
5.9925
30
0
11
-137.31
21
0
31
0
39
0
210
0
220
0
230
1
0
LINE
5
A4
100
AcDbEntity
8
SK1
62
256
6
ByLayer
370
-1
48
1
60
0
100
AcDbLine
10
-135.31
20
7.9925
30
0
11
-135.31
21
2.762256
31
0
39
0
210
0
220
0
230
1
0
LINE
5
A5
100
AcDbEntity
8
1
62
256
6
ByLayer
370
-1
48
1
60
0
100
AcDbLine
10
60.194291
20
-2.596811
30
0
11
60.213468
21
-2.804261
31
0
39
0
210
0
220
0
230
1
0
LINE
5
A6
100
AcDbEntity
8
1
62
256
6
ByLayer
370
-1
48
1
60
0
100
AcDbLine
10
61.302501
20
2.874293
30
0
11
61.324978
21
2.701828
31
0
39
0
210
0
220
0
230
1
0
LINE
5
A7
100
AcDbEntity
8
1
62
256
6
ByLayer
370
-1
48
1
60
0
100
AcDbLine
10
53.847469
20
-1.697942
30
0
11
53.802863
21
-1.355676
31
0
39
0
210
0
220
0
230
1
0
LINE
5
A8
100
AcDbEntity
8
1
62
256
6
ByLayer
370
-1
48
1
60
0
100
AcDbLine
10
61.91213
20
3.644078
30
0
11
63.062515
21
3.637287
31
0
39
0
210
0
220
0
230
1
0
LINE
5
A9
100
AcDbEntity
8
1
62
256
6
ByLayer
370
-1
48
1
60
0
100
AcDbLine
10
61.454848
20
2.726387
30
0
11
61.426462
21
2.944198
31
0
39
0
210
0
220
0
230
1
0
LINE
5
AA
100
AcDbEntity
8
1
62
256
6
ByLayer
370
-1
48
1
60
0
100
AcDbLine
10
62.851083
20
1.690263
30
0
11
62.838851
21
1.784119
31
0
39
0
210
0
220
0
230
1
0
LINE
5
AB
100
AcDbEntity
8
1
62
256
6
ByLayer
370
-1
48
1
60
0
100
AcDbLine
10
62.973029
20
1.487192
30
0
11
62.917166
21
1.915834
31
0
39
0
210
0
220
0
230
1
0
LINE
5
AC
100
AcDbEntity
8
1
62
256
6
ByLayer
370
-1
48
1
60
0
100
AcDbLine
10
63.279052
20
1.32217
30
0
11
63.152717
21
2.29155
31
0
39
0
210
0
220
0
230
1
0
LINE
5
AD
100
AcDbEntity
8
1
62
256
6
ByLayer
370
-1
48
1
60
0
100
AcDbLine
10
63.141198
20
1.412126
30
0
11
63.048293
21
2.124986
31
0
39
0
210
0
220
0
230
1
0
LINE
5
AE
100
AcDbEntity
8
1
62
256
6
ByLayer
370
-1
48
1
60
0
100
AcDbLine
10
63.07259
20
1.422224
30
0
11
62.992583
21
2.036129
31
0
39
0
210
0
220
0
230
1
0
LINE
5
AF
100
AcDbEntity
8
1
62
256
6
ByLayer
370
-1
48
1
60
0
100
AcDbLine
10
63.155604
20
2.296155
30
0
11
63.242844
21
2.150879
31
0
39
0
210
0
220
0
230
1
0
LINE
5
B0
100
AcDbEntity
8
1
62
256
6
ByLayer
370
-1
48
1
60
0
100
AcDbLine
10
63.603345
20
0.782141
30
0
11
63.47552
21
1.762945
31
0
39
0
210
0
220
0
230
1
0
LINE
5
B1
100
AcDbEntity
8
1
62
256
6
ByLayer
370
-1
48
1
60
0
100
AcDbLine
10
53.706849
20
-1.409878
30
0
11
53.755357
21
-1.782078
31
0
39
0
210
0
220
0
230
1
0
LINE
5
B2
100
AcDbEntity
8
1
62
256
6
ByLayer
370
-1
48
1
60
0
100
AcDbLine
10
53.334677
20
-2.369505
30
0
11
53.221732
21
-1.502868
31
0
39
0
210
0
220
0
230
1
0
LINE
5
B3
100
AcDbEntity
8
1
62
256
6
ByLayer
370
-1
48
1
60
0
100
AcDbLine
10
63.614736
20
0.803834
30
0
11
63.77269
21
0.540801
31
0
39
0
210
0
220
0
230
1
0
LINE
5
B4
100
AcDbEntity
8
1
62
256
6
ByLayer
370
-1
48
1
60
0
100
AcDbLine
10
63.489907
20
0.260599
30
0
11
63.477608
21
0.35497
31
0
39
0
210
0
220
0
230
1
0
LINE
5
B5
100
AcDbEntity
8
1
62
256
6
ByLayer
370
-1
48
1
60
0
100
AcDbLine
10
52.932514
20
-2.482788
30
0
11
52.812528
21
-1.562125
31
0
39
0
210
0
220
0
230
1
0
LINE
5
B6
100
AcDbEntity
8
1
62
256
6
ByLayer
370
-1
48
1
60
0
100
AcDbLine
10
53.235563
20
-2.432197
30
0
11
53.116478
21
-1.51845
31
0
39
0
210
0
220
0
230
1
0
LINE
5
B7
100
AcDbEntity
8
1
62
256
6
ByLayer
370
-1
48
1
60
0
100
AcDbLine
10
52.483382
20
-3.440225
30
0
11
52.461319
21
-3.270933
31
0
39
0
210
0
220
0
230
1
0
LINE
5
B8
100
AcDbEntity
8
1
62
256
6
ByLayer
370
-1
48
1
60
0
100
AcDbLine
10
52.235192
20
-2.676744
30
0
11
52.351458
21
-2.481101
31
0
39
0
210
0
220
0
230
1
0
LINE
5
B9
100
AcDbEntity
8
SK1
62
256
6
ByLayer
370
-1
48
1
60
0
100
AcDbLine
10
0
20
2.762256
30
0
11
0
21
7.9925
31
0
39
0
210
0
220
0
230
1
0
LINE
5
BA
100
AcDbEntity
8
1
62
256
6
ByLayer
370
-1
48
1
60
0
100
AcDbLine
10
51.269866
20
-2.760451
30
0
11
52.12464
21
-2.74048
31
0
39
0
210
0
220
0
230
1
0
LINE
5
BB
100
AcDbEntity
8
1
62
256
6
ByLayer
370
-1
48
1
60
0
100
AcDbLine
10
51.192993
20
-2.807024
30
0
11
51.195031
21
-2.803595
31
0
39
0
210
0
220
0
230
1
0
LINE
5
BC
100
AcDbEntity
8
1
62
256
6
ByLayer
370
-1
48
1
60
0
100
AcDbLine
10
52.47171
20
-3.120831
30
0
11
52.343808
21
-2.139429
31
0
39
0
210
0
220
0
230
1
0
LINE
5
BD
100
AcDbEntity
8
1
62
256
6
ByLayer
370
-1
48
1
60
0
100
AcDbLine
10
52.796003
20
-2.575139
30
0
11
52.6681
21
-1.593737
31
0
39
0
210
0
220
0
230
1
0
LINE
5
BE
100
AcDbEntity
8
1
62
256
6
ByLayer
370
-1
48
1
60
0
100
AcDbLine
10
52.343808
20
-2.139429
30
0
11
52.6681
21
-1.593737
31
0
39
0
210
0
220
0
230
1
0
LINE
5
BF
100
AcDbEntity
8
1
62
256
6
ByLayer
370
-1
48
1
60
0
100
AcDbLine
10
60.146005
20
2.050725
30
0
11
59.733327
21
1.654896
31
0
39
0
210
0
220
0
230
1
0
LINE
5
C0
100
AcDbEntity
8
1
62
256
6
ByLayer
370
-1
48
1
60
0
100
AcDbLine
10
57.307632
20
0.263019
30
0
11
59.611557
21
1.56871
31
0
39
0
210
0
220
0
230
1
0
LINE
5
C1
100
AcDbEntity
8
1
62
256
6
ByLayer
370
-1
48
1
60
0
100
AcDbLine
10
63.94472
20
-0.64279
30
0
11
63.94472
21
-3.008361
31
0
39
0
210
0
220
0
230
1
0
LINE
5
C2
100
AcDbEntity
8
1
62
256
6
ByLayer
370
-1
48
1
60
0
100
AcDbLine
10
63.484591
20
0.376491
30
0
11
63.611143
21
0.629547
31
0
39
0
210
0
220
0
230
1
0
LINE
5
C3
100
AcDbEntity
8
1
62
256
6
ByLayer
370
-1
48
1
60
0
100
AcDbLine
10
63.603345
20
0.782141
30
0
11
63.279052
21
1.32217
31
0
39
0
210
0
220
0
230
1
0
LINE
5
C4
100
AcDbEntity
8
1
62
256
6
ByLayer
370
-1
48
1
60
0
100
AcDbLine
10
63.141198
20
1.412126
30
0
11
63.07259
21
1.422224
31
0
39
0
210
0
220
0
230
1
0
LINE
5
C5
100
AcDbEntity
8
1
62
256
6
ByLayer
370
-1
48
1
60
0
100
AcDbLine
10
62.973029
20
1.487192
30
0
11
62.851083
21
1.690263
31
0
39
0
210
0
220
0
230
1
0
LINE
5
C6
100
AcDbEntity
8
1
62
256
6
ByLayer
370
-1
48
1
60
0
100
AcDbLine
10
62.850684
20
1.809784
30
0
11
63.273494
21
2.484221
31
0
39
0
210
0
220
0
230
1
0
LINE
5
C7
100
AcDbEntity
8
1
62
256
6
ByLayer
370
-1
48
1
60
0
100
AcDbLine
10
63.273224
20
2.565128
30
0
11
63.271186
21
2.568521
31
0
39
0
210
0
220
0
230
1
0
LINE
5
C8
100
AcDbEntity
8
1
62
256
6
ByLayer
370
-1
48
1
60
0
100
AcDbLine
10
61.324978
20
2.701828
30
0
11
60.690516
21
2.396259
31
0
39
0
210
0
220
0
230
1
0
LINE
5
C9
100
AcDbEntity
8
1
62
256
6
ByLayer
370
-1
48
1
60
0
100
AcDbLine
10
63.195964
20
2.613329
30
0
11
61.454848
21
2.726387
31
0
39
0
210
0
220
0
230
1
0
LINE
5
CA
100
AcDbEntity
8
1
62
256
6
ByLayer
370
-1
48
1
60
0
100
AcDbLine
10
62.562316
20
1.53961
30
0
11
63.083597
21
2.371123
31
0
39
0
210
0
220
0
230
1
0
LINE
5
CB
100
AcDbEntity
8
1
62
256
6
ByLayer
370
-1
48
1
60
0
100
AcDbLine
10
61.796669
20
1.712473
30
0
11
62.110643
21
1.534248
31
0
39
0
210
0
220
0
230
1
0
LINE
5
CC
100
AcDbEntity
8
1
62
256
6
ByLayer
370
-1
48
1
60
0
100
AcDbLine
10
62.985907
20
2.533802
30
0
11
61.923883
21
2.602763
31
0
39
0
210
0
220
0
230
1
0
LINE
5
CD
100
AcDbEntity
8
1
62
256
6
ByLayer
370
-1
48
1
60
0
100
AcDbLine
10
61.669867
20
2.268252
30
0
11
61.662796
21
1.935406
31
0
39
0
210
0
220
0
230
1
0
LINE
5
CE
100
AcDbEntity
8
1
62
256
6
ByLayer
370
-1
48
1
60
0
100
AcDbLine
10
57.275729
20
-0.636717
30
0
11
57.212802
21
0.219225
31
0
39
0
210
0
220
0
230
1
0
LINE
5
CF
100
AcDbEntity
8
1
62
256
6
ByLayer
370
-1
48
1
60
0
100
AcDbLine
10
59.733327
20
1.654896
30
0
11
63.864505
21
-0.431984
31
0
39
0
210
0
220
0
230
1
0
LINE
5
D0
100
AcDbEntity
8
1
62
256
6
ByLayer
370
-1
48
1
60
0
100
AcDbLine
10
62.801098
20
-3.133735
30
0
11
62.628037
21
-3.718548
31
0
39
0
210
0
220
0
230
1
0
LINE
5
D1
100
AcDbEntity
8
1
62
256
6
ByLayer
370
-1
48
1
60
0
100
AcDbLine
10
63.943489
20
-3.093714
30
0
11
63.427589
21
-3.078797
31
0
39
0
210
0
220
0
230
1
0
LINE
5
D2
100
AcDbEntity
8
1
62
256
6
ByLayer
370
-1
48
1
60
0
100
AcDbLine
10
63.432634
20
-2.993555
30
0
11
63.94472
21
-3.008361
31
0
39
0
210
0
220
0
230
1
0
LINE
5
D3
100
AcDbEntity
8
1
62
256
6
ByLayer
370
-1
48
1
60
0
100
AcDbLine
10
62.603089
20
-3.712421
30
0
11
62.77615
21
-3.127608
31
0
39
0
210
0
220
0
230
1
0
LINE
5
D4
100
AcDbEntity
8
1
62
256
6
ByLayer
370
-1
48
1
60
0
100
AcDbLine
10
63.943566
20
-0.61962
30
0
11
59.611557
21
1.56871
31
0
39
0
210
0
220
0
230
1
0
LINE
5
D5
100
AcDbEntity
8
1
62
256
6
ByLayer
370
-1
48
1
60
0
100
AcDbLine
10
57.307632
20
0.263019
30
0
11
57.373909
21
-0.63848
31
0
39
0
210
0
220
0
230
1
0
LINE
5
D6
100
AcDbEntity
8
1
62
256
6
ByLayer
370
-1
48
1
60
0
100
AcDbLine
10
60.550666
20
1.879592
30
0
11
60.146005
21
2.050725
31
0
39
0
210
0
220
0
230
1
0
LINE
5
D7
100
AcDbEntity
8
1
62
256
6
ByLayer
370
-1
48
1
60
0
100
AcDbLine
10
63.754465
20
-0.217735
30
0
11
60.550666
21
1.879592
31
0
39
0
210
0
220
0
230
1
0
LINE
5
D8
100
AcDbEntity
8
1
62
256
6
ByLayer
370
-1
48
1
60
0
100
AcDbLine
10
60.690516
20
2.396259
30
0
11
60.739742
21
2.173372
31
0
39
0
210
0
220
0
230
1
0
LINE
5
D9
100
AcDbEntity
8
1
62
256
6
ByLayer
370
-1
48
1
60
0
100
AcDbLine
10
60.739742
20
2.173372
30
0
11
63.484591
21
0.376491
31
0
39
0
210
0
220
0
230
1
0
LINE
5
DA
100
AcDbEntity
8
1
62
256
6
ByLayer
370
-1
48
1
60
0
100
AcDbLine
10
60.653793
20
2.15846
30
0
11
60.61054
21
2.354303
31
0
39
0
210
0
220
0
230
1
0
LINE
5
DB
100
AcDbEntity
8
1
62
256
6
ByLayer
370
-1
48
1
60
0
100
AcDbLine
10
60.431129
20
2.252626
30
0
11
60.653793
21
2.15846
31
0
39
0
210
0
220
0
230
1
0
LINE
5
DC
100
AcDbEntity
8
1
62
256
6
ByLayer
370
-1
48
1
60
0
100
AcDbLine
10
57.043877
20
0.163819
30
0
11
57.275729
21
-0.636717
31
0
39
0
210
0
220
0
230
1
0
LINE
5
DD
100
AcDbEntity
8
1
62
256
6
ByLayer
370
-1
48
1
60
0
100
AcDbLine
10
56.869925
20
0.082051
30
0
11
57.252006
21
-1.237191
31
0
39
0
210
0
220
0
230
1
0
LINE
5
DE
100
AcDbEntity
8
1
62
256
6
ByLayer
370
-1
48
1
60
0
100
AcDbLine
10
63.936577
20
-3.962428
30
0
11
62.628037
21
-3.718548
31
0
39
0
210
0
220
0
230
1
0
LINE
5
DF
100
AcDbEntity
8
1
62
256
6
ByLayer
370
-1
48
1
60
0
100
AcDbLine
10
63.937637
20
-3.345558
30
0
11
62.801098
21
-3.133735
31
0
39
0
210
0
220
0
230
1
0
LINE
5
E0
100
AcDbEntity
8
1
62
256
6
ByLayer
370
-1
48
1
60
0
100
AcDbLine
10
63.940329
20
-3.17436
30
0
11
63.427589
21
-3.078797
31
0
39
0
210
0
220
0
230
1
0
LINE
5
E1
100
AcDbEntity
8
1
62
256
6
ByLayer
370
-1
48
1
60
0
100
AcDbLine
10
61.937659
20
2.386874
30
0
11
62.540419
21
2.347734
31
0
39
0
210
0
220
0
230
1
0
LINE
5
E2
100
AcDbEntity
8
1
62
256
6
ByLayer
370
-1
48
1
60
0
100
AcDbLine
10
62.638109
20
2.185056
30
0
11
62.342252
21
1.713125
31
0
39
0
210
0
220
0
230
1
0
LINE
5
E3
100
AcDbEntity
8
1
62
256
6
ByLayer
370
-1
48
1
60
0
100
AcDbLine
10
62.249544
20
1.779003
30
0
11
62.545401
21
2.250934
31
0
39
0
210
0
220
0
230
1
0
LINE
5
E4
100
AcDbEntity
8
1
62
256
6
ByLayer
370
-1
48
1
60
0
100
AcDbLine
10
62.545401
20
2.250934
30
0
11
61.942641
21
2.290074
31
0
39
0
210
0
220
0
230
1
0
LINE
5
E5
100
AcDbEntity
8
1
62
256
6
ByLayer
370
-1
48
1
60
0
100
AcDbLine
10
63.083597
20
2.371123
30
0
11
62.638109
21
2.185056
31
0
39
0
210
0
220
0
230
1
0
LINE
5
E6
100
AcDbEntity
8
1
62
256
6
ByLayer
370
-1
48
1
60
0
100
AcDbLine
10
62.540419
20
2.347734
30
0
11
62.985907
21
2.533802
31
0
39
0
210
0
220
0
230
1
0
LINE
5
E7
100
AcDbEntity
8
1
62
256
6
ByLayer
370
-1
48
1
60
0
100
AcDbLine
10
61.942641
20
2.290074
30
0
11
61.93557
21
1.957228
31
0
39
0
210
0
220
0
230
1
0
LINE
5
E8
100
AcDbEntity
8
1
62
256
6
ByLayer
370
-1
48
1
60
0
100
AcDbLine
10
61.923883
20
2.602763
30
0
11
61.937659
21
2.386874
31
0
39
0
210
0
220
0
230
1
0
LINE
5
E9
100
AcDbEntity
8
1
62
256
6
ByLayer
370
-1
48
1
60
0
100
AcDbLine
10
62.249544
20
1.779003
30
0
11
61.93557
21
1.957228
31
0
39
0
210
0
220
0
230
1
0
LINE
5
EA
100
AcDbEntity
8
1
62
256
6
ByLayer
370
-1
48
1
60
0
100
AcDbLine
10
62.562316
20
1.53961
30
0
11
62.342252
21
1.713125
31
0
39
0
210
0
220
0
230
1
0
LINE
5
EB
100
AcDbEntity
8
1
62
256
6
ByLayer
370
-1
48
1
60
0
100
AcDbLine
10
53.420576
20
-5.975808
30
0
11
53.872564
21
-6.364087
31
0
39
0
210
0
220
0
230
1
0
LINE
5
EC
100
AcDbEntity
8
1
62
256
6
ByLayer
370
-1
48
1
60
0
100
AcDbLine
10
56.302428
20
-7.713575
30
0
11
53.998503
21
-6.448111
31
0
39
0
210
0
220
0
230
1
0
LINE
5
ED
100
AcDbEntity
8
1
62
256
6
ByLayer
370
-1
48
1
60
0
100
AcDbLine
10
53.847469
20
-1.697942
30
0
11
55.967177
21
-0.49665
31
0
39
0
210
0
220
0
230
1
0
LINE
5
EE
100
AcDbEntity
8
1
62
256
6
ByLayer
370
-1
48
1
60
0
100
AcDbLine
10
53.233568
20
-2.432529
30
0
11
52.932514
21
-2.482788
31
0
39
0
210
0
220
0
230
1
0
LINE
5
EF
100
AcDbEntity
8
1
62
256
6
ByLayer
370
-1
48
1
60
0
100
AcDbLine
10
52.796003
20
-2.575139
30
0
11
52.47171
21
-3.120831
31
0
39
0
210
0
220
0
230
1
0
LINE
5
F0
100
AcDbEntity
8
1
62
256
6
ByLayer
370
-1
48
1
60
0
100
AcDbLine
10
52.462568
20
-3.273573
30
0
11
52.489985
21
-3.329912
31
0
39
0
210
0
220
0
230
1
0
LINE
5
F1
100
AcDbEntity
8
1
62
256
6
ByLayer
370
-1
48
1
60
0
100
AcDbLine
10
52.483382
20
-3.440225
30
0
11
52.361436
21
-3.645426
31
0
39
0
210
0
220
0
230
1
0
LINE
5
F2
100
AcDbEntity
8
1
62
256
6
ByLayer
370
-1
48
1
60
0
100
AcDbLine
10
52.251456
20
-3.713549
30
0
11
51.403315
21
-3.784408
31
0
39
0
210
0
220
0
230
1
0
LINE
5
F3
100
AcDbEntity
8
1
62
256
6
ByLayer
370
-1
48
1
60
0
100
AcDbLine
10
51.328867
20
-3.830523
30
0
11
51.326829
21
-3.833952
31
0
39
0
210
0
220
0
230
1
0
LINE
5
F4
100
AcDbEntity
8
1
62
256
6
ByLayer
370
-1
48
1
60
0
100
AcDbLine
10
52.245742
20
-5.345253
30
0
11
52.867097
21
-5.639859
31
0
39
0
210
0
220
0
230
1
0
LINE
5
F5
100
AcDbEntity
8
1
62
256
6
ByLayer
370
-1
48
1
60
0
100
AcDbLine
10
51.325784
20
-3.91487
30
0
11
52.153579
21
-5.263389
31
0
39
0
210
0
220
0
230
1
0
LINE
5
F6
100
AcDbEntity
8
1
62
256
6
ByLayer
370
-1
48
1
60
0
100
AcDbLine
10
52.654911
20
-3.772942
30
0
11
51.60924
21
-3.860304
31
0
39
0
210
0
220
0
230
1
0
LINE
5
F7
100
AcDbEntity
8
1
62
256
6
ByLayer
370
-1
48
1
60
0
100
AcDbLine
10
52.905394
20
-4.435833
30
0
11
52.901638
21
-4.103081
31
0
39
0
210
0
220
0
230
1
0
LINE
5
F8
100
AcDbEntity
8
1
62
256
6
ByLayer
370
-1
48
1
60
0
100
AcDbLine
10
51.51155
20
-4.024688
30
0
11
52.016479
21
-4.847242
31
0
39
0
210
0
220
0
230
1
0
LINE
5
F9
100
AcDbEntity
8
1
62
256
6
ByLayer
370
-1
48
1
60
0
100
AcDbLine
10
52.460862
20
-4.844781
30
0
11
52.77152
21
-4.661104
31
0
39
0
210
0
220
0
230
1
0
LINE
5
FA
100
AcDbEntity
8
1
62
256
6
ByLayer
370
-1
48
1
60
0
100
AcDbLine
10
57.130852
20
-7.268393
30
0
11
56.394844
21
-7.755734
31
0
39
0
210
0
220
0
230
1
0
LINE
5
FB
100
AcDbEntity
8
1
62
256
6
ByLayer
370
-1
48
1
60
0
100
AcDbLine
10
53.872564
20
-6.364087
30
0
11
53.709275
21
-1.846277
31
0
39
0
210
0
220
0
230
1
0
LINE
5
FC
100
AcDbEntity
8
1
62
256
6
ByLayer
370
-1
48
1
60
0
100
AcDbLine
10
56.642798
20
-1.38931
30
0
11
57.252006
21
-1.237191
31
0
39
0
210
0
220
0
230
1
0
LINE
5
FD
100
AcDbEntity
8
1
62
256
6
ByLayer
370
-1
48
1
60
0
100
AcDbLine
10
56.050887
20
-0.439073
30
0
11
56.291435
21
-0.878488
31
0
39
0
210
0
220
0
230
1
0
LINE
5
FE
100
AcDbEntity
8
1
62
256
6
ByLayer
370
-1
48
1
60
0
100
AcDbLine
10
56.205947
20
-0.932816
30
0
11
55.967177
21
-0.49665
31
0
39
0
210
0
220
0
230
1
0
LINE
5
FF
100
AcDbEntity
8
1
62
256
6
ByLayer
370
-1
48
1
60
0
100
AcDbLine
10
57.258381
20
-1.262138
30
0
11
56.649173
21
-1.414257
31
0
39
0
210
0
220
0
230
1
0
LINE
5
100
100
AcDbEntity
8
1
62
256
6
ByLayer
370
-1
48
1
60
0
100
AcDbLine
10
53.827276
20
-1.710673
30
0
11
53.998503
21
-6.448111
31
0
39
0
210
0
220
0
230
1
0
LINE
5
101
100
AcDbEntity
8
1
62
256
6
ByLayer
370
-1
48
1
60
0
100
AcDbLine
10
56.302428
20
-7.713575
30
0
11
57.07761
21
-7.200295
31
0
39
0
210
0
220
0
230
1
0
LINE
5
102
100
AcDbEntity
8
1
62
256
6
ByLayer
370
-1
48
1
60
0
100
AcDbLine
10
53.380586
20
-5.536746
30
0
11
53.420576
21
-5.975808
31
0
39
0
210
0
220
0
230
1
0
LINE
5
103
100
AcDbEntity
8
1
62
256
6
ByLayer
370
-1
48
1
60
0
100
AcDbLine
10
53.599235
20
-1.983162
30
0
11
53.380586
21
-5.536746
31
0
39
0
210
0
220
0
230
1
0
LINE
5
104
100
AcDbEntity
8
1
62
256
6
ByLayer
370
-1
48
1
60
0
100
AcDbLine
10
52.867097
20
-5.639859
30
0
11
53.04624
21
-5.477056
31
0
39
0
210
0
220
0
230
1
0
LINE
5
105
100
AcDbEntity
8
1
62
256
6
ByLayer
370
-1
48
1
60
0
100
AcDbLine
10
53.04624
20
-5.477056
30
0
11
53.233568
21
-2.432529
31
0
39
0
210
0
220
0
230
1
0
LINE
5
106
100
AcDbEntity
8
1
62
256
6
ByLayer
370
-1
48
1
60
0
100
AcDbLine
10
53.103662
20
-5.537376
30
0
11
52.946255
21
-5.680425
31
0
39
0
210
0
220
0
230
1
0
LINE
5
107
100
AcDbEntity
8
1
62
256
6
ByLayer
370
-1
48
1
60
0
100
AcDbLine
10
53.125667
20
-5.77897
30
0
11
53.103662
21
-5.537376
31
0
39
0
210
0
220
0
230
1
0
LINE
5
108
100
AcDbEntity
8
1
62
256
6
ByLayer
370
-1
48
1
60
0
100
AcDbLine
10
56.55398
20
-7.808276
30
0
11
57.130852
21
-7.268393
31
0
39
0
210
0
220
0
230
1
0
LINE
5
109
100
AcDbEntity
8
1
62
256
6
ByLayer
370
-1
48
1
60
0
100
AcDbLine
10
56.31094
20
-0.243476
30
0
11
56.642798
21
-1.38931
31
0
39
0
210
0
220
0
230
1
0
LINE
5
10A
100
AcDbEntity
8
1
62
256
6
ByLayer
370
-1
48
1
60
0
100
AcDbLine
10
56.14172
20
-0.361554
30
0
11
56.291435
21
-0.878488
31
0
39
0
210
0
220
0
230
1
0
LINE
5
10B
100
AcDbEntity
8
1
62
256
6
ByLayer
370
-1
48
1
60
0
100
AcDbLine
10
52.227497
20
-4.669964
30
0
11
51.940921
21
-4.203118
31
0
39
0
210
0
220
0
230
1
0
LINE
5
10C
100
AcDbEntity
8
1
62
256
6
ByLayer
370
-1
48
1
60
0
100
AcDbLine
10
52.038611
20
-4.038734
30
0
11
52.632089
21
-3.989151
31
0
39
0
210
0
220
0
230
1
0
LINE
5
10D
100
AcDbEntity
8
1
62
256
6
ByLayer
370
-1
48
1
60
0
100
AcDbLine
10
52.624826
20
-4.086058
30
0
11
52.031348
21
-4.135641
31
0
39
0
210
0
220
0
230
1
0
LINE
5
10E
100
AcDbEntity
8
1
62
256
6
ByLayer
370
-1
48
1
60
0
100
AcDbLine
10
52.031348
20
-4.135641
30
0
11
52.317924
21
-4.602487
31
0
39
0
210
0
220
0
230
1
0
LINE
5
10F
100
AcDbEntity
8
1
62
256
6
ByLayer
370
-1
48
1
60
0
100
AcDbLine
10
51.60924
20
-3.860304
30
0
11
52.038611
21
-4.038734
31
0
39
0
210
0
220
0
230
1
0
LINE
5
110
100
AcDbEntity
8
1
62
256
6
ByLayer
370
-1
48
1
60
0
100
AcDbLine
10
51.940921
20
-4.203118
30
0
11
51.51155
21
-4.024688
31
0
39
0
210
0
220
0
230
1
0
LINE
5
111
100
AcDbEntity
8
1
62
256
6
ByLayer
370
-1
48
1
60
0
100
AcDbLine
10
52.317924
20
-4.602487
30
0
11
52.628582
21
-4.418809
31
0
39
0
210
0
220
0
230
1
0
LINE
5
112
100
AcDbEntity
8
1
62
256
6
ByLayer
370
-1
48
1
60
0
100
AcDbLine
10
52.016479
20
-4.847242
30
0
11
52.227497
21
-4.669964
31
0
39
0
210
0
220
0
230
1
0
LINE
5
113
100
AcDbEntity
8
1
62
256
6
ByLayer
370
-1
48
1
60
0
100
AcDbLine
10
52.624826
20
-4.086058
30
0
11
52.628582
21
-4.418809
31
0
39
0
210
0
220
0
230
1
0
LINE
5
114
100
AcDbEntity
8
1
62
256
6
ByLayer
370
-1
48
1
60
0
100
AcDbLine
10
52.654911
20
-3.772942
30
0
11
52.632089
21
-3.989151
31
0
39
0
210
0
220
0
230
1
0
LINE
5
115
100
AcDbEntity
8
1
62
256
6
ByLayer
370
-1
48
1
60
0
100
AcDbLine
10
63.137351
20
3.595449
30
0
11
63.139389
21
3.592055
31
0
39
0
210
0
220
0
230
1
0
LINE
5
116
100
AcDbEntity
8
1
62
256
6
ByLayer
370
-1
48
1
60
0
100
AcDbLine
10
56.723851
20
-7.887042
30
0
11
57.284956
21
-8.20279
31
0
39
0
210
0
220
0
230
1
0
LINE
5
117
100
AcDbEntity
8
1
62
256
6
ByLayer
370
-1
48
1
60
0
100
AcDbLine
10
57.459559
20
-8.317867
30
0
11
57.556713
21
-8.393745
31
0
39
0
210
0
220
0
230
1
0
LINE
5
118
100
AcDbEntity
8
1
62
256
6
ByLayer
370
-1
48
1
60
0
100
AcDbLine
10
63.918087
20
-7.815454
30
0
11
63.918087
21
-8.015676
31
0
39
0
210
0
220
0
230
1
0
LINE
5
119
100
AcDbEntity
8
1
62
256
6
ByLayer
370
-1
48
1
60
0
100
AcDbLine
10
63.943512
20
-4.390548
30
0
11
63.938618
21
-4.169937
31
0
39
0
210
0
220
0
230
1
0
LINE
5
11A
100
AcDbEntity
8
1
62
256
6
ByLayer
370
-1
48
1
60
0
100
AcDbLine
10
59.974747
20
-9.628607
30
0
11
60.179345
21
-9.587178
31
0
39
0
210
0
220
0
230
1
0
LINE
5
11B
100
AcDbEntity
8
1
62
256
6
ByLayer
370
-1
48
1
60
0
100
AcDbLine
10
63.92298
20
-7.529341
30
0
11
63.942635
21
-7.197676
31
0
39
0
210
0
220
0
230
1
0
LINE
5
11C
100
AcDbEntity
8
1
62
256
6
ByLayer
370
-1
48
1
60
0
100
AcDbLine
10
63.94472
20
-4.504295
30
0
11
63.94472
21
-7.07545
31
0
39
0
210
0
220
0
230
1
0
LINE
5
11D
100
AcDbEntity
8
1
62
256
6
ByLayer
370
-1
48
1
60
0
100
AcDbLine
10
59.762591
20
-9.614119
30
0
11
57.642883
21
-8.449839
31
0
39
0
210
0
220
0
230
1
0
LINE
5
11E
100
AcDbEntity
8
1
62
256
6
ByLayer
370
-1
48
1
60
0
100
AcDbLine
10
60.795954
20
-9.58677
30
0
11
60.977149
21
-9.84093
31
0
39
0
210
0
220
0
230
1
0
LINE
5
11F
100
AcDbEntity
8
1
62
256
6
ByLayer
370
-1
48
1
60
0
100
AcDbLine
10
61.123474
20
-9.916633
30
0
11
61.772059
21
-9.910971
31
0
39
0
210
0
220
0
230
1
0
LINE
5
120
100
AcDbEntity
8
1
62
256
6
ByLayer
370
-1
48
1
60
0
100
AcDbLine
10
61.917041
20
-9.832725
30
0
11
61.956728
21
-9.774949
31
0
39
0
210
0
220
0
230
1
0
LINE
5
121
100
AcDbEntity
8
1
62
256
6
ByLayer
370
-1
48
1
60
0
100
AcDbLine
10
62.061437
20
-9.718437
30
0
11
62.305329
21
-9.716308
31
0
39
0
210
0
220
0
230
1
0
LINE
5
122
100
AcDbEntity
8
1
62
256
6
ByLayer
370
-1
48
1
60
0
100
AcDbLine
10
62.417424
20
-9.780868
30
0
11
62.862651
21
-10.537111
31
0
39
0
210
0
220
0
230
1
0
LINE
5
123
100
AcDbEntity
8
1
62
256
6
ByLayer
370
-1
48
1
60
0
100
AcDbLine
10
62.93853
20
-10.580813
30
0
11
62.942606
21
-10.580778
31
0
39
0
210
0
220
0
230
1
0
LINE
5
124
100
AcDbEntity
8
1
62
256
6
ByLayer
370
-1
48
1
60
0
100
AcDbLine
10
63.925049
20
-8.85863
30
0
11
63.918496
21
-8.107609
31
0
39
0
210
0
220
0
230
1
0
LINE
5
125
100
AcDbEntity
8
1
62
256
6
ByLayer
370
-1
48
1
60
0
100
AcDbLine
10
63.017712
20
-10.535758
30
0
11
63.890817
21
-8.991722
31
0
39
0
210
0
220
0
230
1
0
LINE
5
126
100
AcDbEntity
8
1
62
256
6
ByLayer
370
-1
48
1
60
0
100
AcDbLine
10
62.291506
20
-9.368202
30
0
11
62.840426
21
-10.300572
31
0
39
0
210
0
220
0
230
1
0
LINE
5
127
100
AcDbEntity
8
1
62
256
6
ByLayer
370
-1
48
1
60
0
100
AcDbLine
10
62.790763
20
-8.756117
30
0
11
62.485519
21
-8.948809
31
0
39
0
210
0
220
0
230
1
0
LINE
5
128
100
AcDbEntity
8
1
62
256
6
ByLayer
370
-1
48
1
60
0
100
AcDbLine
10
63.035806
20
-10.298867
30
0
11
63.568372
21
-9.357054
31
0
39
0
210
0
220
0
230
1
0
LINE
5
129
100
AcDbEntity
8
1
62
256
6
ByLayer
370
-1
48
1
60
0
100
AcDbLine
10
63.367071
20
-8.941113
30
0
11
63.05851
21
-8.75378
31
0
39
0
210
0
220
0
230
1
0
LINE
5
12A
100
AcDbEntity
8
1
62
256
6
ByLayer
370
-1
48
1
60
0
100
AcDbLine
10
63.144576
20
-4.021947
30
0
11
63.943512
21
-4.390548
31
0
39
0
210
0
220
0
230
1
0
LINE
5
12B
100
AcDbEntity
8
1
62
256
6
ByLayer
370
-1
48
1
60
0
100
AcDbLine
10
63.942635
20
-7.197676
30
0
11
59.974747
21
-9.628607
31
0
39
0
210
0
220
0
230
1
0
LINE
5
12C
100
AcDbEntity
8
1
62
256
6
ByLayer
370
-1
48
1
60
0
100
AcDbLine
10
58.110653
20
-7.430037
30
0
11
57.674507
21
-6.997343
31
0
39
0
210
0
220
0
230
1
0
LINE
5
12D
100
AcDbEntity
8
1
62
256
6
ByLayer
370
-1
48
1
60
0
100
AcDbLine
10
57.556713
20
-8.393745
30
0
11
57.832065
21
-7.969246
31
0
39
0
210
0
220
0
230
1
0
LINE
5
12E
100
AcDbEntity
8
1
62
256
6
ByLayer
370
-1
48
1
60
0
100
AcDbLine
10
57.916199
20
-8.028479
30
0
11
57.642883
21
-8.449839
31
0
39
0
210
0
220
0
230
1
0
LINE
5
12F
100
AcDbEntity
8
1
62
256
6
ByLayer
370
-1
48
1
60
0
100
AcDbLine
10
57.69331
20
-6.980291
30
0
11
58.129456
21
-7.412986
31
0
39
0
210
0
220
0
230
1
0
LINE
5
130
100
AcDbEntity
8
1
62
256
6
ByLayer
370
-1
48
1
60
0
100
AcDbLine
10
59.783938
20
-9.624557
30
0
11
63.94472
21
-7.07545
31
0
39
0
210
0
220
0
230
1
0
LINE
5
131
100
AcDbEntity
8
1
62
256
6
ByLayer
370
-1
48
1
60
0
100
AcDbLine
10
63.94472
20
-4.504295
30
0
11
63.103261
21
-4.116076
31
0
39
0
210
0
220
0
230
1
0
LINE
5
132
100
AcDbEntity
8
1
62
256
6
ByLayer
370
-1
48
1
60
0
100
AcDbLine
10
63.555062
20
-7.77235
30
0
11
63.92298
21
-7.529341
31
0
39
0
210
0
220
0
230
1
0
LINE
5
133
100
AcDbEntity
8
1
62
256
6
ByLayer
370
-1
48
1
60
0
100
AcDbLine
10
60.179345
20
-9.587178
30
0
11
63.555062
21
-7.77235
31
0
39
0
210
0
220
0
230
1
0
LINE
5
134
100
AcDbEntity
8
1
62
256
6
ByLayer
370
-1
48
1
60
0
100
AcDbLine
10
63.918496
20
-8.107609
30
0
11
63.688093
21
-8.031919
31
0
39
0
210
0
220
0
230
1
0
LINE
5
135
100
AcDbEntity
8
1
62
256
6
ByLayer
370
-1
48
1
60
0
100
AcDbLine
10
63.688093
20
-8.031919
30
0
11
60.795954
21
-9.58677
31
0
39
0
210
0
220
0
230
1
0
LINE
5
136
100
AcDbEntity
8
1
62
256
6
ByLayer
370
-1
48
1
60
0
100
AcDbLine
10
63.715641
20
-7.94917
30
0
11
63.918087
21
-8.015676
31
0
39
0
210
0
220
0
230
1
0
LINE
5
137
100
AcDbEntity
8
1
62
256
6
ByLayer
370
-1
48
1
60
0
100
AcDbLine
10
63.918087
20
-7.815454
30
0
11
63.715641
21
-7.94917
31
0
39
0
210
0
220
0
230
1
0
LINE
5
138
100
AcDbEntity
8
1
62
256
6
ByLayer
370
-1
48
1
60
0
100
AcDbLine
10
63.938618
20
-4.169937
30
0
11
63.144576
21
-4.021947
31
0
39
0
210
0
220
0
230
1
0
LINE
5
139
100
AcDbEntity
8
1
62
256
6
ByLayer
370
-1
48
1
60
0
100
AcDbLine
10
56.723851
20
-7.887042
30
0
11
57.674507
21
-6.997343
31
0
39
0
210
0
220
0
230
1
0
LINE
5
13A
100
AcDbEntity
8
1
62
256
6
ByLayer
370
-1
48
1
60
0
100
AcDbLine
10
57.284956
20
-8.20279
30
0
11
58.110653
21
-7.430037
31
0
39
0
210
0
220
0
230
1
0
LINE
5
13B
100
AcDbEntity
8
1
62
256
6
ByLayer
370
-1
48
1
60
0
100
AcDbLine
10
57.459559
20
-8.317867
30
0
11
57.832065
21
-7.969246
31
0
39
0
210
0
220
0
230
1
0
LINE
5
13C
100
AcDbEntity
8
1
62
256
6
ByLayer
370
-1
48
1
60
0
100
AcDbLine
10
63.330009
20
-9.214332
30
0
11
63.027747
21
-9.748865
31
0
39
0
210
0
220
0
230
1
0
LINE
5
13D
100
AcDbEntity
8
1
62
256
6
ByLayer
370
-1
48
1
60
0
100
AcDbLine
10
62.832367
20
-9.75057
30
0
11
62.520824
21
-9.221397
31
0
39
0
210
0
220
0
230
1
0
LINE
5
13E
100
AcDbEntity
8
1
62
256
6
ByLayer
370
-1
48
1
60
0
100
AcDbLine
10
62.617373
20
-9.164115
30
0
11
62.928917
21
-9.693289
31
0
39
0
210
0
220
0
230
1
0
LINE
5
13F
100
AcDbEntity
8
1
62
256
6
ByLayer
370
-1
48
1
60
0
100
AcDbLine
10
62.928917
20
-9.693289
30
0
11
63.231179
21
-9.158757
31
0
39
0
210
0
220
0
230
1
0
LINE
5
140
100
AcDbEntity
8
1
62
256
6
ByLayer
370
-1
48
1
60
0
100
AcDbLine
10
62.840426
20
-10.300572
30
0
11
62.832367
21
-9.75057
31
0
39
0
210
0
220
0
230
1
0
LINE
5
141
100
AcDbEntity
8
1
62
256
6
ByLayer
370
-1
48
1
60
0
100
AcDbLine
10
63.027747
20
-9.748865
30
0
11
63.035806
21
-10.298867
31
0
39
0
210
0
220
0
230
1
0
LINE
5
142
100
AcDbEntity
8
1
62
256
6
ByLayer
370
-1
48
1
60
0
100
AcDbLine
10
63.231179
20
-9.158757
30
0
11
62.922618
21
-8.971423
31
0
39
0
210
0
220
0
230
1
0
LINE
5
143
100
AcDbEntity
8
1
62
256
6
ByLayer
370
-1
48
1
60
0
100
AcDbLine
10
63.568372
20
-9.357054
30
0
11
63.330009
21
-9.214332
31
0
39
0
210
0
220
0
230
1
0
LINE
5
144
100
AcDbEntity
8
1
62
256
6
ByLayer
370
-1
48
1
60
0
100
AcDbLine
10
62.617373
20
-9.164115
30
0
11
62.922618
21
-8.971423
31
0
39
0
210
0
220
0
230
1
0
LINE
5
145
100
AcDbEntity
8
1
62
256
6
ByLayer
370
-1
48
1
60
0
100
AcDbLine
10
62.291506
20
-9.368202
30
0
11
62.520824
21
-9.221397
31
0
39
0
210
0
220
0
230
1
0
LINE
5
146
100
AcDbEntity
8
1
62
256
6
ByLayer
370
-1
48
1
60
0
100
AcDbLine
10
56.14172
20
-0.361554
30
0
11
56.050887
21
-0.439073
31
0
39
0
210
0
220
0
230
1
0
LINE
5
147
100
AcDbEntity
8
1
62
256
6
ByLayer
370
-1
48
1
60
0
100
AcDbLine
10
53.125667
20
-5.77897
30
0
11
52.946255
21
-5.680425
31
0
39
0
210
0
220
0
230
1
0
LINE
5
148
100
AcDbEntity
8
1
62
256
6
ByLayer
370
-1
48
1
60
0
100
AcDbLine
10
56.394844
20
-7.755734
30
0
11
56.55398
21
-7.808276
31
0
39
0
210
0
220
0
230
1
0
LINE
5
149
100
AcDbEntity
8
1
62
256
6
ByLayer
370
-1
48
1
60
0
100
AcDbLine
10
53.709275
20
-1.846277
30
0
11
53.599235
21
-1.983162
31
0
39
0
210
0
220
0
230
1
0
LINE
5
14A
100
AcDbEntity
8
1
62
256
6
ByLayer
370
-1
48
1
60
0
100
AcDbLine
10
51.326829
20
-3.833952
30
0
11
51.192993
21
-2.807024
31
0
39
0
210
0
220
0
230
1
0
LINE
5
14B
100
AcDbEntity
8
1
62
256
6
ByLayer
370
-1
48
1
60
0
100
AcDbLine
10
51.328867
20
-3.830523
30
0
11
51.195031
21
-2.803595
31
0
39
0
210
0
220
0
230
1
0
LINE
5
14C
100
AcDbEntity
8
1
62
256
6
ByLayer
370
-1
48
1
60
0
100
AcDbLine
10
51.403315
20
-3.784408
30
0
11
51.269866
21
-2.760451
31
0
39
0
210
0
220
0
230
1
0
LINE
5
14D
100
AcDbEntity
8
1
62
256
6
ByLayer
370
-1
48
1
60
0
100
AcDbLine
10
52.251456
20
-3.713549
30
0
11
52.12464
21
-2.74048
31
0
39
0
210
0
220
0
230
1
0
LINE
5
14E
100
AcDbEntity
8
1
62
256
6
ByLayer
370
-1
48
1
60
0
100
AcDbLine
10
52.361436
20
-3.645426
30
0
11
52.235192
21
-2.676744
31
0
39
0
210
0
220
0
230
1
0
LINE
5
14F
100
AcDbEntity
8
1
62
256
6
ByLayer
370
-1
48
1
60
0
100
AcDbLine
10
63.77269
20
0.540801
30
0
11
63.910587
21
-0.517291
31
0
39
0
210
0
220
0
230
1
0
LINE
5
150
100
AcDbEntity
8
1
62
256
6
ByLayer
370
-1
48
1
60
0
100
AcDbLine
10
63.195964
20
2.613329
30
0
11
63.062515
21
3.637287
31
0
39
0
210
0
220
0
230
1
0
LINE
5
151
100
AcDbEntity
8
1
62
256
6
ByLayer
370
-1
48
1
60
0
100
AcDbLine
10
63.271186
20
2.568521
30
0
11
63.137351
21
3.595449
31
0
39
0
210
0
220
0
230
1
0
LINE
5
152
100
AcDbEntity
8
1
62
256
6
ByLayer
370
-1
48
1
60
0
100
AcDbLine
10
63.273224
20
2.565128
30
0
11
63.139389
21
3.592055
31
0
39
0
210
0
220
0
230
1
0
LINE
5
153
100
AcDbEntity
8
1
62
256
6
ByLayer
370
-1
48
1
60
0
100
AcDbLine
10
58.068121
20
-4.048522
30
0
11
58.095714
21
-4.347022
31
0
39
0
210
0
220
0
230
1
0
LINE
5
154
100
AcDbEntity
8
1
62
256
6
ByLayer
370
-1
48
1
60
0
100
AcDbLine
10
58.024843
20
-4.202001
30
0
11
57.997249
21
-3.903501
31
0
39
0
210
0
220
0
230
1
0
LINE
5
155
100
AcDbEntity
8
1
62
256
6
ByLayer
370
-1
48
1
60
0
100
AcDbLine
10
60.552049
20
-3.858228
30
0
11
60.583527
21
-4.198751
31
0
39
0
210
0
220
0
230
1
0
LINE
5
156
100
AcDbEntity
8
1
62
256
6
ByLayer
370
-1
48
1
60
0
100
AcDbLine
10
59.488479
20
-4.864462
30
0
11
59.519958
21
-5.204985
31
0
39
0
210
0
220
0
230
1
0
LINE
5
157
100
AcDbEntity
8
1
62
256
6
ByLayer
370
-1
48
1
60
0
100
AcDbLine
10
58.523245
20
-4.793582
30
0
11
58.554723
21
-5.134105
31
0
39
0
210
0
220
0
230
1
0
LINE
5
158
100
AcDbEntity
8
1
62
256
6
ByLayer
370
-1
48
1
60
0
100
AcDbLine
10
57.645199
20
-3.633761
30
0
11
57.676636
21
-3.973834
31
0
39
0
210
0
220
0
230
1
0
LINE
5
159
100
AcDbEntity
8
SK1
62
256
6
ByLayer
370
-1
48
1
60
0
100
AcDbLine
10
-135.31
20
-2.762256
30
0
11
-135.31
21
-7.0075
31
0
39
0
210
0
220
0
230
1
0
LINE
5
15A
100
AcDbEntity
8
SK1
62
256
6
ByLayer
370
-1
48
1
60
0
100
AcDbLine
10
0
20
-2.762256
30
0
11
0
21
-7.0075
31
0
39
0
210
0
220
0
230
1
0
LINE
5
15B
100
AcDbEntity
8
1
62
256
6
ByLayer
370
-1
48
1
60
0
100
AcDbLine
10
63.936577
20
-3.962428
30
0
11
63.937637
21
-3.345558
31
0
39
0
210
0
220
0
230
1
0
LINE
5
15C
100
AcDbEntity
8
1
62
256
6
ByLayer
370
-1
48
1
60
0
100
AcDbLine
10
63.940329
20
-3.17436
30
0
11
63.943489
21
-3.093714
31
0
39
0
210
0
220
0
230
1
0
LINE
5
15D
100
AcDbEntity
8
1
62
256
6
ByLayer
370
-1
48
1
60
0
100
AcDbLine
10
56.869925
20
0.082051
30
0
11
56.31094
21
-0.243476
31
0
39
0
210
0
220
0
230
1
0
LINE
5
15E
100
AcDbEntity
8
1
62
256
6
ByLayer
370
-1
48
1
60
0
100
AcDbLine
10
60.431129
20
2.252626
30
0
11
60.61054
21
2.354303
31
0
39
0
210
0
220
0
230
1
0
LINE
5
15F
100
AcDbEntity
8
1
62
256
6
ByLayer
370
-1
48
1
60
0
100
AcDbLine
10
57.212802
20
0.219225
30
0
11
57.043877
21
0.163819
31
0
39
0
210
0
220
0
230
1
0
LINE
5
160
100
AcDbEntity
8
1
62
256
6
ByLayer
370
-1
48
1
60
0
100
AcDbLine
10
63.864505
20
-0.431984
30
0
11
63.754465
21
-0.217735
31
0
39
0
210
0
220
0
230
1
0
LINE
5
161
100
AcDbEntity
8
SK1
62
256
6
ByLayer
370
-1
48
1
60
0
100
AcDbLine
10
0
20
-2.762256
30
0
11
0
21
2.762256
31
0
39
0
210
0
220
0
230
1
0
LINE
5
162
100
AcDbEntity
8
SK1
62
256
6
ByLayer
370
-1
48
1
60
0
100
AcDbLine
10
0
20
-2.762256
30
0
11
-135.31
21
-2.762256
31
0
39
0
210
0
220
0
230
1
0
LINE
5
163
100
AcDbEntity
8
SK1
62
256
6
ByLayer
370
-1
48
1
60
0
100
AcDbLine
10
-135.31
20
-7.0075
30
0
11
0
21
-7.0075
31
0
39
0
210
0
220
0
230
1
0
LINE
5
164
100
AcDbEntity
8
SK1
62
256
6
ByLayer
370
-1
48
1
60
0
100
AcDbLine
10
-135.31
20
2.762256
30
0
11
0
21
2.762256
31
0
39
0
210
0
220
0
230
1
0
MTEXT
5
26C
100
AcDbEntity
8
SK6
62
256
6
ByLayer
370
-1
48
1
60
0
100
AcDbMText
10
-35.81
20
20.352915
30
0
210
0
220
0
230
1
1
\W00.695;\fsimplex.shx,bigfont.shx;266LKF-16-16 
40
3.5
41
0
44
1.084337
50
0
71
7
72
5
7
DEFAULT
0
DIMENSION
5
29F
100
AcDbEntity
8
2
62
256
6
ByLayer
370
-3
48
1
60
0
100
AcDbDimension
2
DimnDraft3D1
10
63.94
20
-26.125
30
0
11
47.879964
21
-26.125
31
0
70
32
71
5
72
1
41
1
210
0
220
0
230
1
3
Standard
100
AcDbAlignedDimension
13
37.077823
23
-13.375
33
0
14
63.94
24
-13.375
34
0
50
0
100
AcDbRotatedDimension
1001
ACAD
1000
DSTYLE
1002
{
1070
   279
1070
     0
1070
   172
1070
     1
1070
   173
1070
     1
1070
   340
1005
26D
1070
   271
1070
     3
1070
   272
1070
     3
1070
    77
1070
     1
1070
    73
1070
     0
1070
   171
1070
     4
1070
   274
1070
     4
1070
   177
1070
     2
1070
   176
1070
     2
1070
   178
1070
     7
1070
    78
1070
     8
1070
    41
1041
3.0
1070
   147
1041
2.25
1070
    42
1041
1.5
1070
    44
1041
3.0
1070
   140
1041
4.5
1070
   343
1005
2A0
1070
   344
1005
2A0
1002
}
0
DIMENSION
5
2B5
100
AcDbEntity
8
SK2
62
256
6
ByLayer
370
-3
48
1
60
0
100
AcDbDimension
2
DimnDraft3D2
10
-137.31
20
-36.125
30
0
11
-40.403421
21
-36.125
31
0
70
32
71
5
72
1
41
1
210
0
220
0
230
1
3
Standard
100
AcDbAlignedDimension
13
63.94
23
-13.375
33
0
14
-137.31
24
-1.5
34
0
50
0
100
AcDbRotatedDimension
1001
ACAD
1000
DSTYLE
1002
{
1070
   279
1070
     0
1070
   172
1070
     1
1070
   173
1070
     1
1070
   340
1005
26D
1070
   271
1070
     3
1070
   272
1070
     3
1070
    77
1070
     1
1070
    73
1070
     0
1070
   171
1070
     4
1070
   274
1070
     4
1070
   177
1070
     2
1070
   176
1070
     2
1070
   178
1070
     7
1070
    78
1070
     8
1070
    41
1041
3.0
1070
   147
1041
2.25
1070
    42
1041
1.5
1070
    44
1041
3.0
1070
   140
1041
4.5
1070
   343
1005
2A0
1070
   344
1005
2A0
1002
}
0
DIMENSION
5
2C3
100
AcDbEntity
8
2
62
256
6
ByLayer
370
-3
48
1
60
0
100
AcDbDimension
2
DimnDraft3D3
10
78.19
20
-11.875
30
0
11
78.19
21
-8.003947
31
0
70
32
71
5
72
1
41
1
210
0
220
0
230
1
3
Standard
100
AcDbAlignedDimension
13
70.44
23
0
33
0
14
65.44
24
-11.875
34
0
50
90
100
AcDbRotatedDimension
1001
ACAD
1000
DSTYLE
1002
{
1070
    74
1070
     0
1070
   279
1070
     0
1070
   172
1070
     1
1070
   173
1070
     1
1070
   340
1005
26D
1070
   271
1070
     3
1070
   272
1070
     3
1070
    77
1070
     1
1070
    73
1070
     0
1070
   171
1070
     4
1070
   274
1070
     4
1070
   177
1070
     2
1070
   176
1070
     2
1070
   178
1070
     7
1070
    78
1070
     8
1070
    41
1041
3.0
1070
   147
1041
2.25
1070
    42
1041
1.5
1070
    44
1041
3.0
1070
   140
1041
4.5
1070
   343
1005
2A0
1070
   344
1005
2A0
1002
}
0
DIMENSION
5
2D1
100
AcDbEntity
8
SK2
62
256
6
ByLayer
370
-3
48
1
60
0
100
AcDbDimension
2
DimnDraft3D4
10
-147.06
20
7.9925
30
0
11
-147.06
21
-4.221711
31
0
70
32
71
5
72
1
41
1
210
0
220
0
230
1
3
Standard
100
AcDbAlignedDimension
13
-138.81
23
-7.9925
33
0
14
-138.81
24
7.9925
34
0
50
90
100
AcDbRotatedDimension
1001
ACAD
1000
DSTYLE
1002
{
1070
    74
1070
     0
1070
   279
1070
     0
1070
   172
1070
     1
1070
   173
1070
     1
1070
   340
1005
26D
1070
   271
1070
     3
1070
   272
1070
     3
1070
    77
1070
     1
1070
    73
1070
     0
1070
   171
1070
     4
1070
   274
1070
     4
1070
   177
1070
     2
1070
   176
1070
     2
1070
   178
1070
     7
1070
    78
1070
     8
1070
    41
1041
3.0
1070
   147
1041
2.25
1070
    42
1041
1.5
1070
    44
1041
3.0
1070
   140
1041
4.5
1070
   343
1005
2A0
1070
   344
1005
2A0
1002
}
0
ENDSEC
0
SECTION
2
OBJECTS
0
DICTIONARY
5
302
330
0
100
AcDbDictionary
280
0
281
1
3
ACAD_GROUP
350
303
3
ACAD_MLINESTYLE
350
304
0
DICTIONARY
5
303
330
0
100
AcDbDictionary
280
0
281
1
0
DICTIONARY
5
304
330
0
100
AcDbDictionary
280
0
281
1
3
Standard
350
18
0
MLINESTYLE
5
18
330
304
100
AcDbMlineStyle
2
Standard
70
0
3

62
256
51
90
52
90
71
2
49
-0.5
62
256
6
ByLayer
49
0.5
62
256
6
ByLayer
0
RASTERVARIABLES
5
2f0
330

100
AcDbRasterVariables
90
0
70
1
71
1
72
1
0
ENDSEC
0
EOF
