0
SECTION
2
HEADER
9
$ACADVER
1
AC1015
9
$DWGCODEPAGE
3
ANSI_1252
9
$HANDSEED
5
2ff
9
$ANGBASE
50
0
9
$ANGDIR
70
0
9
$ATTMODE
70
1
9
$AUNITS
70
0
9
$AUPREC
70
0
9
$CECOLOR
62
256
9
$CELTSCALE
40
1
9
$CELTYPE
6
ByLayer
9
$CELWEIGHT
370
-1
9
$CLAYER
8
0
9
$CMLJUST
70
0
9
$CMLSCALE
40
1
9
$CMLSTYLE
2
Standard
9
$DIMSTYLE
2
Standard
9
$TEXTSIZE
40
0.2
9
$TEXTSTYLE
7
Standard
9
$LUNITS
70
2
9
$LUPREC
70
4
9
$EXTNAMES
290
1
9
$INSUNITS
70
4
9
$LTSCALE
40
1
9
$LWDISPLAY
290
0
9
$PDMODE
70
0
9
$PDSIZE
40
0
9
$PLINEGEN
70
0
0
ENDSEC
0
SECTION
2
CLASSES
0
CLASS
1
RASTERVARIABLES
2
AcDbRasterVariables
3
ISM
90
0
280
0
281
0
0
ENDSEC
0
SECTION
2
TABLES
0
TABLE
2
VPORT
5
2f5
100
AcDbSymbolTable
0
VPORT
5
1
100
AcDbSymbolTableRecord
100
AcDbViewportTableRecord
2
*Active
70
0
10
0
20
0
11
1
21
1
12
-1
22
1
13
0
23
0
14
0.5
24
0.5
15
10
25
10
16
0
26
0
36
1
17
0
27
0
37
0
0
ENDTAB
0
TABLE
2
LTYPE
5
2f6
100
AcDbSymbolTable
0
LTYPE
5
14
100
AcDbSymbolTableRecord
100
AcDbLinetypeTableRecord
70
0
2
ByBlock
3

72
65
73
0
40
0
0
LTYPE
5
15
100
AcDbSymbolTableRecord
100
AcDbLinetypeTableRecord
70
0
2
ByLayer
3

72
65
73
0
40
0
0
LTYPE
5
16
100
AcDbSymbolTableRecord
100
AcDbLinetypeTableRecord
70
0
2
CONTINUOUS
3
Solid line
72
65
73
0
40
0
0
LTYPE
5
3B
100
AcDbSymbolTableRecord
100
AcDbLinetypeTableRecord
70
0
2
DASHED
3
__ __ __ __ __ __ __ __ __
72
65
73
2
40
25.72
49
12.86
74
0
49
-12.86
74
0
0
LTYPE
5
3C
100
AcDbSymbolTableRecord
100
AcDbLinetypeTableRecord
70
0
2
HIDDEN
3
_ _ _ _ _ _ _ _ _ _ _ _ _ _ _
72
65
73
2
40
0.5
49
0.25
74
0
49
-0.25
74
0
0
LTYPE
5
3D
100
AcDbSymbolTableRecord
100
AcDbLinetypeTableRecord
70
0
2
PHANTOM
3
____ _ _ ____ _ _ _____ _ _ ____
72
65
73
6
40
50.5
49
18
74
0
49
-6.5
74
0
49
6.5
74
0
49
-6.5
74
0
49
6.5
74
0
49
-6.5
74
0
0
LTYPE
5
3E
100
AcDbSymbolTableRecord
100
AcDbLinetypeTableRecord
70
0
2
CENTER
3
____ _ ____ _ ____ _ ____
72
65
73
4
40
47.5
49
22
74
0
49
-8.5
74
0
49
8.5
74
0
49
-8.5
74
0
0
LTYPE
5
3F
100
AcDbSymbolTableRecord
100
AcDbLinetypeTableRecord
70
0
2
DOT
3
.........................
72
65
73
2
40
10
49
0
74
0
49
-10
74
0
0
LTYPE
5
40
100
AcDbSymbolTableRecord
100
AcDbLinetypeTableRecord
70
0
2
DASHDOT
3
_._._._._._._._._._._._._._._._.
72
65
73
4
40
70
49
31
74
0
49
-13
74
0
49
13
74
0
49
-13
74
0
0
ENDTAB
0
TABLE
2
LAYER
5
2f7
100
AcDbSymbolTable
0
LAYER
5
10
100
AcDbSymbolTableRecord
100
AcDbLayerTableRecord
2
0
70
0
62
7
6
CONTINUOUS
290
1
370
-3
390
0
0
LAYER
5
42
100
AcDbSymbolTableRecord
100
AcDbLayerTableRecord
2
81
70
0
62
-3
6
CONTINUOUS
290
1
370
-3
390
0
0
LAYER
5
44
100
AcDbSymbolTableRecord
100
AcDbLayerTableRecord
2
2
70
0
62
7
6
CONTINUOUS
290
1
370
-3
390
0
0
LAYER
5
47
100
AcDbSymbolTableRecord
100
AcDbLayerTableRecord
2
80
70
0
62
-6
6
CONTINUOUS
290
1
370
-3
390
0
0
LAYER
5
4A
100
AcDbSymbolTableRecord
100
AcDbLayerTableRecord
2
1
70
0
62
4
6
CONTINUOUS
290
1
370
-3
390
0
0
LAYER
5
2e2
100
AcDbSymbolTableRecord
100
AcDbLayerTableRecord
2
SK1
70
0
62
4
6
CONTINUOUS
290
1
370
-3
390
0
0
LAYER
5
2e3
100
AcDbSymbolTableRecord
100
AcDbLayerTableRecord
2
SK6
70
0
62
5
6
CONTINUOUS
290
1
370
-3
390
0
0
LAYER
5
2e4
100
AcDbSymbolTableRecord
100
AcDbLayerTableRecord
2
SK2
70
0
62
7
6
CONTINUOUS
290
1
370
-3
390
0
0
ENDTAB
0
TABLE
2
STYLE
5
2f8
100
AcDbSymbolTable
0
STYLE
5
11
100
AcDbSymbolTableRecord
100
AcDbTextStyleTableRecord
2
Standard
3
txt
70
0
71
0
40
0
41
1
42
0
50
0
0
STYLE
5
25E
100
AcDbSymbolTableRecord
100
AcDbTextStyleTableRecord
2
DEFAULT
3
simplex.shx
70
0
71
0
40
0
41
1
42
0
50
0
0
STYLE
5
281
100
AcDbSymbolTableRecord
100
AcDbTextStyleTableRecord
2
DWGDirectTextStyle
3
SIMPLEX
70
0
71
0
40
0
41
1
42
0
50
0
0
ENDTAB
0
TABLE
2
DIMSTYLE
5
2f9
100
AcDbSymbolTable
100
AcDbDimStyleTable
0
DIMSTYLE
105
27
100
AcDbSymbolTableRecord
100
AcDbDimStyleTableRecord
2
Standard
70
0
3
<>
41
0.18
42
0.0625
44
0.18
140
0.18
147
0.09
73
0
74
0
77
1
271
2
275
0
278
52
280
0
340
11
0
ENDTAB
0
TABLE
2
VIEW
5
2fa
100
AcDbSymbolTable
0
ENDTAB
0
TABLE
2
UCS
5
2fb
100
AcDbSymbolTable
0
ENDTAB
0
TABLE
2
APPID
5
2fc
100
AcDbSymbolTable
0
APPID
5
12
100
AcDbSymbolTableRecord
100
AcDbRegAppTableRecord
2
ACAD
70
0
0
ENDTAB
0
TABLE
2
BLOCK_RECORD
5
2fd
100
AcDbSymbolTable
0
BLOCK_RECORD
5
1F
100
AcDbSymbolTableRecord
100
AcDbBlockTableRecord
2
*Model_Space
340
0
70
0
0
BLOCK_RECORD
5
1B
100
AcDbSymbolTableRecord
100
AcDbBlockTableRecord
2
*Paper_Space
340
0
70
0
0
BLOCK_RECORD
5
23
100
AcDbSymbolTableRecord
100
AcDbBlockTableRecord
2
*Paper_Space0
340
0
70
0
0
BLOCK_RECORD
5
283
100
AcDbSymbolTableRecord
100
AcDbBlockTableRecord
2
DimnDraft3D1
340
0
70
0
0
BLOCK_RECORD
5
291
100
AcDbSymbolTableRecord
100
AcDbBlockTableRecord
2
_CLOSED
340
0
70
0
0
BLOCK_RECORD
5
298
100
AcDbSymbolTableRecord
100
AcDbBlockTableRecord
2
DimnDraft3D2
340
0
70
0
0
BLOCK_RECORD
5
2A7
100
AcDbSymbolTableRecord
100
AcDbBlockTableRecord
2
DimnDraft3D3
340
0
70
0
0
BLOCK_RECORD
5
2B5
100
AcDbSymbolTableRecord
100
AcDbBlockTableRecord
2
DimnDraft3D4
340
0
70
0
0
ENDTAB
0
ENDSEC
0
SECTION
2
BLOCKS
0
BLOCK
5
20
100
AcDbEntity
8
0
100
AcDbBlockBegin
2
*Model_Space
70
0
10
0
20
0
30
0
3
*Model_Space
0
ENDBLK
5
21
100
AcDbEntity
8
0
100
AcDbBlockEnd
0
BLOCK
5
1C
100
AcDbEntity
8
0
100
AcDbBlockBegin
2
*Paper_Space
70
0
10
0
20
0
30
0
3
*Paper_Space
0
ENDBLK
5
1D
100
AcDbEntity
8
0
100
AcDbBlockEnd
0
BLOCK
5
24
100
AcDbEntity
8
0
100
AcDbBlockBegin
2
*Paper_Space0
70
0
10
0
20
0
30
0
3
*Paper_Space0
0
ENDBLK
5
25
100
AcDbEntity
8
0
100
AcDbBlockEnd
0
BLOCK
5
28E
100
AcDbEntity
8
0
100
AcDbBlockBegin
2
DimnDraft3D1
70
0
10
0
20
0
30
0
3
DimnDraft3D1
0
MTEXT
5
284
100
AcDbEntity
8
2
62
256
6
ByLayer
370
-1
48
1
60
0
100
AcDbMText
10
10.173953
20
-26.5375
30
0
210
0
220
0
230
1
1
\W01.000;\fsimplex.shx,bigfont.shx;23 
40
4.5
41
0
44
1.084337
50
0
71
7
72
5
7
DEFAULT
0
LINE
5
285
100
AcDbEntity
8
2
62
256
6
ByLayer
370
-1
48
1
60
0
100
AcDbLine
10
0
20
-13.9375
30
0
11
0
21
-30.6625
31
0
39
0
210
0
220
0
230
1
0
LINE
5
286
100
AcDbEntity
8
2
62
256
6
ByLayer
370
-1
48
1
60
0
100
AcDbLine
10
23.355801
20
-14.9125
30
0
11
23.355801
21
-30.6625
31
0
39
0
210
0
220
0
230
1
0
LINE
5
287
100
AcDbEntity
8
2
62
256
6
ByLayer
370
-1
48
1
60
0
100
AcDbLine
10
0
20
-27.6625
30
0
11
23.355801
21
-27.6625
31
0
39
0
210
0
220
0
230
1
0
LINE
5
288
100
AcDbEntity
8
2
62
256
6
ByLayer
370
-1
48
1
60
0
100
AcDbLine
10
0
20
-27.6625
30
0
11
2.999999
21
-27.267543
31
0
39
0
210
0
220
0
230
1
0
LINE
5
289
100
AcDbEntity
8
2
62
256
6
ByLayer
370
-1
48
1
60
0
100
AcDbLine
10
0
20
-27.6625
30
0
11
3.000001
21
-28.057457
31
0
39
0
210
0
220
0
230
1
0
LINE
5
28A
100
AcDbEntity
8
2
62
256
6
ByLayer
370
-1
48
1
60
0
100
AcDbLine
10
2.999999
20
-27.267543
30
0
11
3.000001
21
-28.057457
31
0
39
0
210
0
220
0
230
1
0
LINE
5
28B
100
AcDbEntity
8
2
62
256
6
ByLayer
370
-1
48
1
60
0
100
AcDbLine
10
23.355801
20
-27.6625
30
0
11
20.355803
21
-28.057457
31
0
39
0
210
0
220
0
230
1
0
LINE
5
28C
100
AcDbEntity
8
2
62
256
6
ByLayer
370
-1
48
1
60
0
100
AcDbLine
10
23.355801
20
-27.6625
30
0
11
20.3558
21
-27.267543
31
0
39
0
210
0
220
0
230
1
0
LINE
5
28D
100
AcDbEntity
8
2
62
256
6
ByLayer
370
-1
48
1
60
0
100
AcDbLine
10
20.355803
20
-28.057457
30
0
11
20.3558
21
-27.267543
31
0
39
0
210
0
220
0
230
1
0
ENDBLK
5
28F
100
AcDbEntity
8
0
100
AcDbBlockEnd
0
BLOCK
5
292
100
AcDbEntity
8
0
100
AcDbBlockBegin
2
_CLOSED
70
0
10
0
20
0
30
0
3
_CLOSED
0
LINE
5
294
100
AcDbEntity
8
0
62
256
6
ByLayer
370
-2
48
1
60
0
100
AcDbLine
10
-1
20
0.166667
30
0
11
0
21
0
31
0
39
0
210
0
220
0
230
1
0
LINE
5
295
100
AcDbEntity
8
0
62
256
6
ByLayer
370
-2
48
1
60
0
100
AcDbLine
10
0
20
0
30
0
11
-1
21
-0.166667
31
0
39
0
210
0
220
0
230
1
0
LINE
5
296
100
AcDbEntity
8
0
62
256
6
ByLayer
370
-2
48
1
60
0
100
AcDbLine
10
-1
20
0.166667
30
0
11
-1
21
-0.166667
31
0
39
0
210
0
220
0
230
1
0
LINE
5
297
100
AcDbEntity
8
0
62
256
6
ByLayer
370
-2
48
1
60
0
100
AcDbLine
10
0
20
0
30
0
11
-1
21
0
31
0
39
0
210
0
220
0
230
1
0
ENDBLK
5
293
100
AcDbEntity
8
0
100
AcDbBlockEnd
0
BLOCK
5
2A4
100
AcDbEntity
8
0
100
AcDbBlockBegin
2
DimnDraft3D2
70
0
10
0
20
0
30
0
3
DimnDraft3D2
0
MTEXT
5
299
100
AcDbEntity
8
SK2
62
256
6
ByLayer
370
-1
48
1
60
0
100
AcDbMText
10
-54.35012
20
-36.5375
30
0
210
0
220
0
230
1
1
\W01.000;\fsimplex.shx,bigfont.shx;151 
40
4.5
41
0
44
1.084337
50
0
71
7
72
5
7
DEFAULT
0
LINE
5
29B
100
AcDbEntity
8
SK2
62
256
6
ByLayer
370
-1
48
1
60
0
100
AcDbLine
10
-127.994199
20
-13.9375
30
0
11
-127.994199
21
-40.6625
31
0
39
0
210
0
220
0
230
1
0
LINE
5
29C
100
AcDbEntity
8
SK2
62
256
6
ByLayer
370
-1
48
1
60
0
100
AcDbLine
10
23.355801
20
-14.9125
30
0
11
23.355801
21
-40.6625
31
0
39
0
210
0
220
0
230
1
0
LINE
5
29D
100
AcDbEntity
8
SK2
62
256
6
ByLayer
370
-1
48
1
60
0
100
AcDbLine
10
-127.994199
20
-37.6625
30
0
11
23.355801
21
-37.6625
31
0
39
0
210
0
220
0
230
1
0
LINE
5
29E
100
AcDbEntity
8
SK2
62
256
6
ByLayer
370
-1
48
1
60
0
100
AcDbLine
10
-127.994199
20
-37.6625
30
0
11
-124.9942
21
-37.267543
31
0
39
0
210
0
220
0
230
1
0
LINE
5
29F
100
AcDbEntity
8
SK2
62
256
6
ByLayer
370
-1
48
1
60
0
100
AcDbLine
10
-127.994199
20
-37.6625
30
0
11
-124.994197
21
-38.057457
31
0
39
0
210
0
220
0
230
1
0
LINE
5
2A0
100
AcDbEntity
8
SK2
62
256
6
ByLayer
370
-1
48
1
60
0
100
AcDbLine
10
-124.9942
20
-37.267543
30
0
11
-124.994197
21
-38.057457
31
0
39
0
210
0
220
0
230
1
0
LINE
5
2A1
100
AcDbEntity
8
SK2
62
256
6
ByLayer
370
-1
48
1
60
0
100
AcDbLine
10
23.355801
20
-37.6625
30
0
11
20.355803
21
-38.057457
31
0
39
0
210
0
220
0
230
1
0
LINE
5
2A2
100
AcDbEntity
8
SK2
62
256
6
ByLayer
370
-1
48
1
60
0
100
AcDbLine
10
23.355801
20
-37.6625
30
0
11
20.3558
21
-37.267543
31
0
39
0
210
0
220
0
230
1
0
LINE
5
2A3
100
AcDbEntity
8
SK2
62
256
6
ByLayer
370
-1
48
1
60
0
100
AcDbLine
10
20.355803
20
-38.057457
30
0
11
20.3558
21
-37.267543
31
0
39
0
210
0
220
0
230
1
0
ENDBLK
5
2A5
100
AcDbEntity
8
0
100
AcDbBlockEnd
0
BLOCK
5
2B2
100
AcDbEntity
8
0
100
AcDbBlockBegin
2
DimnDraft3D3
70
0
10
0
20
0
30
0
3
DimnDraft3D3
0
MTEXT
5
2A8
100
AcDbEntity
8
SK2
62
256
6
ByLayer
370
-1
48
1
60
0
100
AcDbMText
10
-138.869199
20
-1.503947
30
0
210
0
220
0
230
1
1
\W01.000;\fsimplex.shx,bigfont.shx;25 
40
4.5
41
0
44
1.084337
50
90
71
7
72
5
7
DEFAULT
0
LINE
5
2A9
100
AcDbEntity
8
SK2
62
256
6
ByLayer
370
-1
48
1
60
0
100
AcDbLine
10
-129.494199
20
12.4375
30
0
11
-140.744199
21
12.4375
31
0
39
0
210
0
220
0
230
1
0
LINE
5
2AA
100
AcDbEntity
8
SK2
62
256
6
ByLayer
370
-1
48
1
60
0
100
AcDbLine
10
-129.494199
20
-12.4375
30
0
11
-140.744199
21
-12.4375
31
0
39
0
210
0
220
0
230
1
0
LINE
5
2AB
100
AcDbEntity
8
SK2
62
256
6
ByLayer
370
-1
48
1
60
0
100
AcDbLine
10
-137.744199
20
12.4375
30
0
11
-137.744199
21
-12.4375
31
0
39
0
210
0
220
0
230
1
0
LINE
5
2AC
100
AcDbEntity
8
SK2
62
256
6
ByLayer
370
-1
48
1
60
0
100
AcDbLine
10
-137.744199
20
12.4375
30
0
11
-137.349241
21
9.437501
31
0
39
0
210
0
220
0
230
1
0
LINE
5
2AD
100
AcDbEntity
8
SK2
62
256
6
ByLayer
370
-1
48
1
60
0
100
AcDbLine
10
-137.744199
20
12.4375
30
0
11
-138.139156
21
9.437499
31
0
39
0
210
0
220
0
230
1
0
LINE
5
2AE
100
AcDbEntity
8
SK2
62
256
6
ByLayer
370
-1
48
1
60
0
100
AcDbLine
10
-137.349241
20
9.437501
30
0
11
-138.139156
21
9.437499
31
0
39
0
210
0
220
0
230
1
0
LINE
5
2AF
100
AcDbEntity
8
SK2
62
256
6
ByLayer
370
-1
48
1
60
0
100
AcDbLine
10
-137.744199
20
-12.4375
30
0
11
-138.139156
21
-9.437501
31
0
39
0
210
0
220
0
230
1
0
LINE
5
2B0
100
AcDbEntity
8
SK2
62
256
6
ByLayer
370
-1
48
1
60
0
100
AcDbLine
10
-137.744199
20
-12.4375
30
0
11
-137.349241
21
-9.437499
31
0
39
0
210
0
220
0
230
1
0
LINE
5
2B1
100
AcDbEntity
8
SK2
62
256
6
ByLayer
370
-1
48
1
60
0
100
AcDbLine
10
-138.139156
20
-9.437501
30
0
11
-137.349241
21
-9.437499
31
0
39
0
210
0
220
0
230
1
0
ENDBLK
5
2B3
100
AcDbEntity
8
0
100
AcDbBlockEnd
0
BLOCK
5
2C0
100
AcDbEntity
8
0
100
AcDbBlockBegin
2
DimnDraft3D4
70
0
10
0
20
0
30
0
3
DimnDraft3D4
0
MTEXT
5
2B6
100
AcDbEntity
8
2
62
256
6
ByLayer
370
-1
48
1
60
0
100
AcDbMText
10
36.480801
20
-1.991447
30
0
210
0
220
0
230
1
1
\W01.000;\fsimplex.shx,bigfont.shx;26 
40
4.5
41
0
44
1.084337
50
90
71
7
72
5
7
DEFAULT
0
LINE
5
2B7
100
AcDbEntity
8
2
62
256
6
ByLayer
370
-1
48
1
60
0
100
AcDbLine
10
1.5
20
12.4375
30
0
11
40.605801
21
12.4375
31
0
39
0
210
0
220
0
230
1
0
LINE
5
2B8
100
AcDbEntity
8
2
62
256
6
ByLayer
370
-1
48
1
60
0
100
AcDbLine
10
24.855801
20
-13.4125
30
0
11
40.605801
21
-13.4125
31
0
39
0
210
0
220
0
230
1
0
LINE
5
2B9
100
AcDbEntity
8
2
62
256
6
ByLayer
370
-1
48
1
60
0
100
AcDbLine
10
37.605801
20
12.4375
30
0
11
37.605801
21
-13.4125
31
0
39
0
210
0
220
0
230
1
0
LINE
5
2BA
100
AcDbEntity
8
2
62
256
6
ByLayer
370
-1
48
1
60
0
100
AcDbLine
10
37.605801
20
12.4375
30
0
11
38.000759
21
9.437501
31
0
39
0
210
0
220
0
230
1
0
LINE
5
2BB
100
AcDbEntity
8
2
62
256
6
ByLayer
370
-1
48
1
60
0
100
AcDbLine
10
37.605801
20
12.4375
30
0
11
37.210844
21
9.437499
31
0
39
0
210
0
220
0
230
1
0
LINE
5
2BC
100
AcDbEntity
8
2
62
256
6
ByLayer
370
-1
48
1
60
0
100
AcDbLine
10
38.000759
20
9.437501
30
0
11
37.210844
21
9.437499
31
0
39
0
210
0
220
0
230
1
0
LINE
5
2BD
100
AcDbEntity
8
2
62
256
6
ByLayer
370
-1
48
1
60
0
100
AcDbLine
10
37.605801
20
-13.4125
30
0
11
37.210844
21
-10.412501
31
0
39
0
210
0
220
0
230
1
0
LINE
5
2BE
100
AcDbEntity
8
2
62
256
6
ByLayer
370
-1
48
1
60
0
100
AcDbLine
10
37.605801
20
-13.4125
30
0
11
38.000759
21
-10.412499
31
0
39
0
210
0
220
0
230
1
0
LINE
5
2BF
100
AcDbEntity
8
2
62
256
6
ByLayer
370
-1
48
1
60
0
100
AcDbLine
10
37.210844
20
-10.412501
30
0
11
38.000759
21
-10.412499
31
0
39
0
210
0
220
0
230
1
0
ENDBLK
5
2C1
100
AcDbEntity
8
0
100
AcDbBlockEnd
0
ENDSEC
0
SECTION
2
ENTITIES
0
ELLIPSE
5
148
100
AcDbEntity
8
1
62
256
6
ByLayer
370
-1
48
1
60
0
100
AcDbEllipse
10
12.038104
20
-1.922245
30
0
11
-0.17589297652933
21
-1.640597958309
31
0
210
0
220
0
230
1
40
0.984637
41
1.67601486685154
42
2.74150556221244
0
ELLIPSE
5
149
100
AcDbEntity
8
1
62
256
6
ByLayer
370
-1
48
1
60
0
100
AcDbEllipse
10
12.055466
20
-1.924106
30
0
11
-0.17589297652933
21
-1.640597958309
31
0
210
0
220
0
230
1
40
0.984637
41
1.66264846869928
42
2.29876619249654
0
ELLIPSE
5
14A
100
AcDbEntity
8
1
62
256
6
ByLayer
370
-1
48
1
60
0
100
AcDbEllipse
10
12.055466
20
-1.924106
30
0
11
-0.17589297652933
21
-1.640597958309
31
0
210
0
220
0
230
1
40
0.984637
41
-0.307652873361873
42
-0.268133898578505
0
ELLIPSE
5
14B
100
AcDbEntity
8
1
62
256
6
ByLayer
370
-1
48
1
60
0
100
AcDbEllipse
10
12.99847
20
-3.106952
30
0
11
-0.163166420942106
21
-1.64837617406095
31
0
210
0
220
0
230
1
40
0.984661
41
-2.09407219883053
42
-0.688188761689839
0
ELLIPSE
5
14C
100
AcDbEntity
8
1
62
256
6
ByLayer
370
-1
48
1
60
0
100
AcDbEllipse
10
13.260381
20
-2.053289
30
0
11
-0.660755627411928
21
-1.57699022878935
31
0
210
0
220
0
230
1
40
0.398781
41
2.67750236179534
42
2.87794875847423
0
ELLIPSE
5
14D
100
AcDbEntity
8
1
62
256
6
ByLayer
370
-1
48
1
60
0
100
AcDbEllipse
10
12.477357
20
-1.969338
30
0
11
-0.17589297652933
21
-1.640597958309
31
0
210
0
220
0
230
1
40
0.984637
41
2.00968035900541
42
2.66369769273186
0
ELLIPSE
5
14E
100
AcDbEntity
8
1
62
256
6
ByLayer
370
-1
48
1
60
0
100
AcDbEllipse
10
11.977272
20
-2.533446
30
0
11
-0.225646305867065
21
-2.10465975395979
31
0
210
0
220
0
230
1
40
0.984637
41
2.00190252288008
42
2.51293385636397
0
ELLIPSE
5
14F
100
AcDbEntity
8
1
62
256
6
ByLayer
370
-1
48
1
60
0
100
AcDbEllipse
10
12.399164
20
-2.578679
30
0
11
-0.21320360791434
21
-1.98860358582909
31
0
210
0
220
0
230
1
40
0.984637
41
2.05487671456089
42
2.28851603275343
0
ELLIPSE
5
150
100
AcDbEntity
8
1
62
256
6
ByLayer
370
-1
48
1
60
0
100
AcDbEllipse
10
13.297046
20
-2.05722
30
0
11
-0.162533016835512
21
-1.6419770125729
31
0
210
0
220
0
230
1
40
0.984661
41
2.75150159356863
42
-1.42097263516235
0
ELLIPSE
5
151
100
AcDbEntity
8
1
62
256
6
ByLayer
370
-1
48
1
60
0
100
AcDbEllipse
10
12.122876
20
-1.931333
30
0
11
-7.40839191813736
21
1.35677416798858
31
0
210
0
220
0
230
1
40
0.206678
41
-1.80750029657762
42
-1.70287293307467
0
ELLIPSE
5
152
100
AcDbEntity
8
1
62
256
6
ByLayer
370
-1
48
1
60
0
100
AcDbEllipse
10
15.137485
20
-8.639917
30
0
11
-0.29651450870287
21
-2.99532017044199
31
0
210
0
220
0
230
1
40
0.984662
41
-0.378600334657464
42
0
0
ELLIPSE
5
153
100
AcDbEntity
8
1
62
256
6
ByLayer
370
-1
48
1
60
0
100
AcDbEllipse
10
15.137485
20
-8.639917
30
0
11
-0.29651450870287
21
-2.99532017044199
31
0
210
0
220
0
230
1
40
0.984662
41
0
42
0.100198039212819
0
ELLIPSE
5
154
100
AcDbEntity
8
1
62
256
6
ByLayer
370
-1
48
1
60
0
100
AcDbEllipse
10
15.137485
20
-8.639917
30
0
11
-0.29651450870287
21
-2.99532017044199
31
0
210
0
220
0
230
1
40
0.984662
41
0.10019800813773
42
-2.76306926675983
0
ELLIPSE
5
155
100
AcDbEntity
8
1
62
256
6
ByLayer
370
-1
48
1
60
0
100
AcDbEllipse
10
15.09382
20
-8.635595
30
0
11
-0.287755592778976
21
-2.90683965172196
31
0
210
0
220
0
230
1
40
0.984662
41
-0.769434284012815
42
0
0
ELLIPSE
5
156
100
AcDbEntity
8
1
62
256
6
ByLayer
370
-1
48
1
60
0
100
AcDbEllipse
10
15.09382
20
-8.635595
30
0
11
-0.287755592778976
21
-2.90683965172196
31
0
210
0
220
0
230
1
40
0.984662
41
0
42
0.100197943764271
0
ELLIPSE
5
157
100
AcDbEntity
8
1
62
256
6
ByLayer
370
-1
48
1
60
0
100
AcDbEllipse
10
15.09382
20
-8.635595
30
0
11
-0.287755592778976
21
-2.90683965172196
31
0
210
0
220
0
230
1
40
0.984662
41
2.21723854779097
42
-2.37233365126411
0
ELLIPSE
5
158
100
AcDbEntity
8
1
62
256
6
ByLayer
370
-1
48
1
60
0
100
AcDbEllipse
10
15.09382
20
-8.635595
30
0
11
-0.287755592778976
21
-2.90683965172196
31
0
210
0
220
0
230
1
40
0.984662
41
0.100197965451142
42
0.879509281826172
0
ELLIPSE
5
159
100
AcDbEntity
8
1
62
256
6
ByLayer
370
-1
48
1
60
0
100
AcDbEllipse
10
10.839327
20
-12.813124
30
0
11
-0.27977516988896
21
-0.155721789669972
31
0
210
0
220
0
230
1
40
0.100809
41
-2.07070911029424
42
-1.27416717389294
0
ELLIPSE
5
15A
100
AcDbEntity
8
1
62
256
6
ByLayer
370
-1
48
1
60
0
100
AcDbEllipse
10
11.015556
20
-12.826027
30
0
11
-0.161138499285896
21
-0.0281531779274253
31
0
210
0
220
0
230
1
40
0.776532
41
-2.34161154476515
42
-1.99680325423535
0
ELLIPSE
5
15B
100
AcDbEntity
8
1
62
256
6
ByLayer
370
-1
48
1
60
0
100
AcDbEllipse
10
9.602719
20
-9.123374
30
0
11
-0.0889897064735463
21
-0.152707630849531
31
0
210
0
220
0
230
1
40
0.134911
41
0.597441874982375
42
1.63242212150855
0
ELLIPSE
5
15C
100
AcDbEntity
8
1
62
256
6
ByLayer
370
-1
48
1
60
0
100
AcDbEllipse
10
10.471629
20
-12.841566
30
0
11
-0.038725524500139
21
0.124900306203939
31
0
210
0
220
0
230
1
40
0.960584
41
2.33004026972384
42
-2.91260164378981
0
ELLIPSE
5
15D
100
AcDbEntity
8
1
62
256
6
ByLayer
370
-1
48
1
60
0
100
AcDbEllipse
10
9.898601
20
-12.505085
30
0
11
-0.0387255245477466
21
0.124900306180503
31
0
210
0
220
0
230
1
40
0.960584
41
1.37732059237107
42
2.33004026934493
0
ELLIPSE
5
15E
100
AcDbEntity
8
1
62
256
6
ByLayer
370
-1
48
1
60
0
100
AcDbEllipse
10
9.64208
20
-12.476626
30
0
11
-0.0387255244863181
21
0.124900306210307
31
0
210
0
220
0
230
1
40
0.960584
41
-1.76427206066638
42
-0.811552383767971
0
ELLIPSE
5
15F
100
AcDbEntity
8
1
62
256
6
ByLayer
370
-1
48
1
60
0
100
AcDbEllipse
10
9.592875
20
-12.447733
30
0
11
-0.0387255245057161
21
0.124900306200054
31
0
210
0
220
0
230
1
40
0.960584
41
-0.811552383920303
42
0.22899100975426
0
ELLIPSE
5
160
100
AcDbEntity
8
1
62
256
6
ByLayer
370
-1
48
1
60
0
100
AcDbEllipse
10
8.731178
20
-12.576854
30
0
11
-0.0595777299951702
21
0.192154317238792
31
0
210
0
220
0
230
1
40
0.960584
41
2.33004026975063
42
-2.91260164376451
0
ELLIPSE
5
161
100
AcDbEntity
8
1
62
256
6
ByLayer
370
-1
48
1
60
0
100
AcDbEllipse
10
8.710008
20
-12.564423
30
0
11
-0.0595777299836433
21
0.192154317243612
31
0
210
0
220
0
230
1
40
0.960584
41
1.28949687614771
42
2.3300402698003
0
ELLIPSE
5
162
100
AcDbEntity
8
1
62
256
6
ByLayer
370
-1
48
1
60
0
100
AcDbEllipse
10
12.412494
20
-13.219061
30
0
11
0.0197022175593593
21
0.199027190663094
31
0
210
0
220
0
230
1
40
0.984662
41
2.71516118948899
42
-3.04442534209219
0
ELLIPSE
5
163
100
AcDbEntity
8
1
62
256
6
ByLayer
370
-1
48
1
60
0
100
AcDbEllipse
10
9.359876
20
-11.374424
30
0
11
0.117321608038475
21
-0.225910690953896
31
0
210
0
220
0
230
1
40
0.957172
41
1.61459250743363
42
2.68850656753892
0
ELLIPSE
5
164
100
AcDbEntity
8
1
62
256
6
ByLayer
370
-1
48
1
60
0
100
AcDbEllipse
10
8.952194
20
-11.377867
30
0
11
0.117321608038475
21
-0.225910690953896
31
0
210
0
220
0
230
1
40
0.957172
41
2.68850656753892
42
2.9934438325199
0
ELLIPSE
5
165
100
AcDbEntity
8
1
62
256
6
ByLayer
370
-1
48
1
60
0
100
AcDbEllipse
10
9.570003
20
-11.740643
30
0
11
0.117321608038475
21
-0.225910690953896
31
0
210
0
220
0
230
1
40
0.957172
41
1.30965524245271
42
1.61459250743368
0
ELLIPSE
5
166
100
AcDbEntity
8
1
62
256
6
ByLayer
370
-1
48
1
60
0
100
AcDbEllipse
10
9.509304
20
-11.373162
30
0
11
-0.931737718909372
21
-0.00335270464577404
31
0
210
0
220
0
230
1
40
0.351081
41
-0.81304643761636
42
0.009234784718424
0
ELLIPSE
5
167
100
AcDbEntity
8
1
62
256
6
ByLayer
370
-1
48
1
60
0
100
AcDbEllipse
10
9.282858
20
-11.240194
30
0
11
-0.479796040732148
21
0.837102468415415
31
0
210
0
220
0
230
1
40
0.327398
41
-3.13561932875524
42
-2.31333810641291
0
ELLIPSE
5
168
100
AcDbEntity
8
1
62
256
6
ByLayer
370
-1
48
1
60
0
100
AcDbEllipse
10
8.647002
20
-9.849262
30
0
11
-0.0930395424716383
21
2.80197791692892
31
0
210
0
220
0
230
1
40
0.29268
41
3.13459107103335
42
-2.98099856126121
0
ELLIPSE
5
169
100
AcDbEntity
8
1
62
256
6
ByLayer
370
-1
48
1
60
0
100
AcDbEllipse
10
10.972989
20
-11.215077
30
0
11
-2.32265021871809
21
-1.38987250427896
31
0
210
0
220
0
230
1
40
0.313983
41
-0.173594383307602
42
-0.00599870851647124
0
ELLIPSE
5
16A
100
AcDbEntity
8
1
62
256
6
ByLayer
370
-1
48
1
60
0
100
AcDbEllipse
10
9.513627
20
-10.615373
30
0
11
-0.283825226656983
21
-0.147794589593503
31
0
210
0
220
0
230
1
40
0.096468
41
-2.4591951738847
42
-1.42421492745192
0
ELLIPSE
5
16B
100
AcDbEntity
8
1
62
256
6
ByLayer
370
-1
48
1
60
0
100
AcDbEllipse
10
9.513627
20
-10.615373
30
0
11
0.274009264363063
21
0.165284370232679
31
0
210
0
220
0
230
1
40
0.019277
41
0.678763114626136
42
1.86390773976951
0
ELLIPSE
5
16C
100
AcDbEntity
8
1
62
256
6
ByLayer
370
-1
48
1
60
0
100
AcDbEllipse
10
9.513627
20
-10.615373
30
0
11
0.162033669206493
21
0.275943998020397
31
0
210
0
220
0
230
1
40
0.158847
41
1.64395516572782
42
1.8184880909272
0
ELLIPSE
5
16D
100
AcDbEntity
8
1
62
256
6
ByLayer
370
-1
48
1
60
0
100
AcDbEllipse
10
11.889532
20
-6.864517
30
0
11
-0.0109764751846191
21
-0.149597850895397
31
0
210
0
220
0
230
1
40
0.174416
41
1.56636013641395
42
2.27514962593634
0
ELLIPSE
5
16E
100
AcDbEntity
8
1
62
256
6
ByLayer
370
-1
48
1
60
0
100
AcDbEllipse
10
15.032847
20
-12.032681
30
0
11
0.0367833786735518
21
-0.14542002287635
31
0
210
0
220
0
230
1
40
0.164395
41
1.33698998545145
42
1.51152291065077
0
ELLIPSE
5
16F
100
AcDbEntity
8
1
62
256
6
ByLayer
370
-1
48
1
60
0
100
AcDbEllipse
10
14.4321
20
-12.184638
30
0
11
0.0367833786735518
21
-0.14542002287635
31
0
210
0
220
0
230
1
40
0.164395
41
1.33698998545103
42
1.51152291065077
0
ELLIPSE
5
170
100
AcDbEntity
8
1
62
256
6
ByLayer
370
-1
48
1
60
0
100
AcDbEllipse
10
14.296587
20
-12.832588
30
0
11
0.149914929437486
21
0.00505113172998779
31
0
210
0
220
0
230
1
40
0.023376
41
-1.3969770881146
42
-0.688187598591753
0
ELLIPSE
5
171
100
AcDbEntity
8
1
62
256
6
ByLayer
370
-1
48
1
60
0
100
AcDbEllipse
10
9.006151
20
-11.349846
30
0
11
0.0152761950655649
21
0.329646231381945
31
0
210
0
220
0
230
1
40
0.571959
41
0.899070261318156
42
1.72135148365324
0
ELLIPSE
5
172
100
AcDbEntity
8
1
62
256
6
ByLayer
370
-1
48
1
60
0
100
AcDbEllipse
10
9.006151
20
-11.349846
30
0
11
0.0027867245394549
21
-0.329988233375588
31
0
210
0
220
0
230
1
40
0.260309
41
-2.32017699363684
42
-1.43915566762721
0
ELLIPSE
5
173
100
AcDbEntity
8
1
62
256
6
ByLayer
370
-1
48
1
60
0
100
AcDbEllipse
10
9.62396
20
-11.712621
30
0
11
0.286230603216351
21
0.164231671069875
31
0
210
0
220
0
230
1
40
0.012676
41
0.983235704908256
42
1.86425703091959
0
ELLIPSE
5
174
100
AcDbEntity
8
1
62
256
6
ByLayer
370
-1
48
1
60
0
100
AcDbEllipse
10
9.62396
20
-11.712621
30
0
11
-0.267549920942348
21
-0.193176188500921
31
0
210
0
220
0
230
1
40
0.315435
41
1.26563178175833
42
2.08791300409326
0
ELLIPSE
5
175
100
AcDbEntity
8
1
62
256
6
ByLayer
370
-1
48
1
60
0
100
AcDbEllipse
10
8.949238
20
-12.441919
30
0
11
-0.753374504812538
21
-0.876499822221162
31
0
210
0
220
0
230
1
40
0.023719
41
-1.47677024584261
42
-1.30917457896757
0
ELLIPSE
5
176
100
AcDbEntity
8
1
62
256
6
ByLayer
370
-1
48
1
60
0
100
AcDbEllipse
10
8.949238
20
-12.441919
30
0
11
-0.289742088129907
21
-1.14609607161805
31
0
210
0
220
0
230
1
40
0.218444
41
-1.54458118960888
42
-1.37698551066559
0
ELLIPSE
5
177
100
AcDbEntity
8
1
62
256
6
ByLayer
370
-1
48
1
60
0
100
AcDbEllipse
10
9.413833
20
-11.346403
30
0
11
0.0027867245394549
21
-0.329988233375588
31
0
210
0
220
0
230
1
40
0.260309
41
-2.32017699363662
42
-1.43915566762721
0
ELLIPSE
5
178
100
AcDbEntity
8
1
62
256
6
ByLayer
370
-1
48
1
60
0
100
AcDbEllipse
10
9.413833
20
-11.346403
30
0
11
-0.286230603216351
21
-0.164231671069875
31
0
210
0
220
0
230
1
40
0.012676
41
-2.15835694868154
42
-1.27733562266918
0
ELLIPSE
5
179
100
AcDbEntity
8
1
62
256
6
ByLayer
370
-1
48
1
60
0
100
AcDbEllipse
10
9.006151
20
-11.349846
30
0
11
-0.329852530264881
21
-0.00986449582370365
31
0
210
0
220
0
230
1
40
0.130201
41
0.957866680452038
42
1.30693253085087
0
ELLIPSE
5
17A
100
AcDbEntity
8
1
62
256
6
ByLayer
370
-1
48
1
60
0
100
AcDbEllipse
10
9.62396
20
-11.712621
30
0
11
-0.169295514592362
21
0.283264944422898
31
0
210
0
220
0
230
1
40
0.289048
41
1.55351963324696
42
1.90258548364584
0
ELLIPSE
5
17B
100
AcDbEntity
8
1
62
256
6
ByLayer
370
-1
48
1
60
0
100
AcDbEllipse
10
9.027659
20
-12.069006
30
0
11
-0.329852530264881
21
-0.00986449582370365
31
0
210
0
220
0
230
1
40
0.130201
41
0.957866680452123
42
1.30693253085097
0
ELLIPSE
5
17C
100
AcDbEntity
8
1
62
256
6
ByLayer
370
-1
48
1
60
0
100
AcDbEllipse
10
9.027659
20
-12.069006
30
0
11
-0.169295514592362
21
0.283264944422898
31
0
210
0
220
0
230
1
40
0.289048
41
1.55351963324684
42
1.90258548364566
0
ELLIPSE
5
17D
100
AcDbEntity
8
1
62
256
6
ByLayer
370
-1
48
1
60
0
100
AcDbEllipse
10
9.027659
20
-12.069006
30
0
11
-0.295892073361189
21
0.146109140446505
31
0
210
0
220
0
230
1
40
0.409519
41
1.09507804810173
42
1.69649744441252
0
ELLIPSE
5
17E
100
AcDbEntity
8
1
62
256
6
ByLayer
370
-1
48
1
60
0
100
AcDbEllipse
10
8.880074
20
-12.367886
30
0
11
0.295892073361189
21
-0.146109140446505
31
0
210
0
220
0
230
1
40
0.409519
41
-2.04651460548809
42
-1.44509520917741
0
ELLIPSE
5
17F
100
AcDbEntity
8
1
62
256
6
ByLayer
370
-1
48
1
60
0
100
AcDbEllipse
10
13.949374
20
-2.687768
30
0
11
-0.00204490914870529
21
-0.320085891128935
31
0
210
0
220
0
230
1
40
0.174338
41
-1.7392717564982
42
-0.942729820100595
0
ELLIPSE
5
180
100
AcDbEntity
8
1
62
256
6
ByLayer
370
-1
48
1
60
0
100
AcDbEllipse
10
13.767959
20
-2.873994
30
0
11
-0.104265505975309
21
0.108729638968212
31
0
210
0
220
0
230
1
40
0.746902
41
3.04463327578535
42
-2.8937437396136
0
ELLIPSE
5
181
100
AcDbEntity
8
1
62
256
6
ByLayer
370
-1
48
1
60
0
100
AcDbEllipse
10
17.743304
20
-3.424143
30
0
11
-0.0885670091590553
21
0.152805304685044
31
0
210
0
220
0
230
1
40
0.12071
41
-1.65747816782935
42
-0.622497921375466
0
ELLIPSE
5
182
100
AcDbEntity
8
1
62
256
6
ByLayer
370
-1
48
1
60
0
100
AcDbEllipse
10
14.029618
20
-2.387313
30
0
11
-0.0541571275742858
21
-0.118791534235545
31
0
210
0
220
0
230
1
40
0.958576
41
-2.20447064130258
42
-1.16392724763312
0
ELLIPSE
5
183
100
AcDbEntity
8
1
62
256
6
ByLayer
370
-1
48
1
60
0
100
AcDbEllipse
10
14.604655
20
-2.050832
30
0
11
-0.0541571275762466
21
-0.118791534234307
31
0
210
0
220
0
230
1
40
0.958576
41
3.12599498897345
42
-2.20447064128354
0
ELLIPSE
5
184
100
AcDbEntity
8
1
62
256
6
ByLayer
370
-1
48
1
60
0
100
AcDbEllipse
10
14.763064
20
-1.837044
30
0
11
-0.0541571275960923
21
-0.118791534221254
31
0
210
0
220
0
230
1
40
0.958576
41
-0.0155976644452535
42
0.9371220124928
0
ELLIPSE
5
185
100
AcDbEntity
8
1
62
256
6
ByLayer
370
-1
48
1
60
0
100
AcDbEllipse
10
14.812442
20
-1.808151
30
0
11
-0.054157127572716
21
-0.118791534237308
31
0
210
0
220
0
230
1
40
0.958576
41
0.937122012275058
42
1.97766540593627
0
ELLIPSE
5
186
100
AcDbEntity
8
1
62
256
6
ByLayer
370
-1
48
1
60
0
100
AcDbEllipse
10
15.162442
20
-0.973827
30
0
11
-0.0833186578167068
21
-0.182756206510004
31
0
210
0
220
0
230
1
40
0.958576
41
-2.20447064124594
42
-1.16392724756876
0
ELLIPSE
5
187
100
AcDbEntity
8
1
62
256
6
ByLayer
370
-1
48
1
60
0
100
AcDbEllipse
10
15.183686
20
-0.961397
30
0
11
-0.0833186578001533
21
-0.182756206521136
31
0
210
0
220
0
230
1
40
0.958576
41
3.03817127217121
42
-2.20447064134398
0
ELLIPSE
5
188
100
AcDbEntity
8
1
62
256
6
ByLayer
370
-1
48
1
60
0
100
AcDbEllipse
10
12.878744
20
-3.83852
30
0
11
0.0197022175593593
21
0.199027190663094
31
0
210
0
220
0
230
1
40
0.984662
41
0.620766087096043
42
1.1443648626945
0
ELLIPSE
5
189
100
AcDbEntity
8
1
62
256
6
ByLayer
370
-1
48
1
60
0
100
AcDbEllipse
10
15.80523
20
-2.155482
30
0
11
-0.139234821942718
21
-0.213104820120474
31
0
210
0
220
0
230
1
40
0.952081
41
0.551305267921979
42
1.62521932802718
0
ELLIPSE
5
18A
100
AcDbEntity
8
1
62
256
6
ByLayer
370
-1
48
1
60
0
100
AcDbEllipse
10
16.017539
20
-1.790553
30
0
11
-0.139234821942718
21
-0.213104820120474
31
0
210
0
220
0
230
1
40
0.952081
41
1.62521932802707
42
1.93015659300807
0
ELLIPSE
5
18B
100
AcDbEntity
8
1
62
256
6
ByLayer
370
-1
48
1
60
0
100
AcDbEllipse
10
15.397565
20
-2.153329
30
0
11
-0.139234821942718
21
-0.213104820120474
31
0
210
0
220
0
230
1
40
0.952081
41
0.246368002941129
42
0.551305267922023
0
ELLIPSE
5
18C
100
AcDbEntity
8
1
62
256
6
ByLayer
370
-1
48
1
60
0
100
AcDbEllipse
10
15.727413
20
-2.28924
30
0
11
-0.485696724119472
21
-0.833628738624972
31
0
210
0
220
0
230
1
40
0.325694
41
2.31668708576915
42
3.13896830808627
0
ELLIPSE
5
18D
100
AcDbEntity
8
1
62
256
6
ByLayer
370
-1
48
1
60
0
100
AcDbEllipse
10
15.954652
20
-2.156271
30
0
11
-0.931731630000496
21
-0.000752989033019674
31
0
210
0
220
0
230
1
40
0.349223
41
-0.0128707429207034
42
0.809410479424495
0
ELLIPSE
5
18E
100
AcDbEntity
8
1
62
256
6
ByLayer
370
-1
48
1
60
0
100
AcDbEllipse
10
17.41741
20
-2.308955
30
0
11
-2.31577439526538
21
1.3729538592846
31
0
210
0
220
0
230
1
40
0.315702
41
0.00284592210093119
42
0.170441597369564
0
ELLIPSE
5
18F
100
AcDbEntity
8
1
62
256
6
ByLayer
370
-1
48
1
60
0
100
AcDbEllipse
10
15.083268
20
-3.674769
30
0
11
-0.112213697307668
21
-2.78730395196214
31
0
210
0
220
0
230
1
40
0.294044
41
2.9840359573549
42
-3.13155367478207
0
ELLIPSE
5
190
100
AcDbEntity
8
1
62
256
6
ByLayer
370
-1
48
1
60
0
100
AcDbEllipse
10
16.429985
20
-2.643071
30
0
11
0.0113394317527845
21
0.319799026401776
31
0
210
0
220
0
230
1
40
0.174133
41
1.55977199377876
42
2.59475224021069
0
ELLIPSE
5
191
100
AcDbEntity
8
1
62
256
6
ByLayer
370
-1
48
1
60
0
100
AcDbEllipse
10
16.429985
20
-2.643071
30
0
11
0.00576500800462796
21
-0.319948065602383
31
0
210
0
220
0
230
1
40
0.256807
41
-1.7435273246007
42
-0.558382699456799
0
ELLIPSE
5
192
100
AcDbEntity
8
1
62
256
6
ByLayer
370
-1
48
1
60
0
100
AcDbEllipse
10
16.429985
20
-2.643071
30
0
11
0.161612197743497
21
-0.276191052607641
31
0
210
0
220
0
230
1
40
0.141921
41
-1.84803003572419
42
-1.67349711052476
0
ELLIPSE
5
193
100
AcDbEntity
8
1
62
256
6
ByLayer
370
-1
48
1
60
0
100
AcDbEllipse
10
18.520706
20
-6.558335
30
0
11
-0.124577066842044
21
0.0835497122498513
31
0
210
0
220
0
230
1
40
0.083425
41
-2.43396755360181
42
-1.72517806407866
0
ELLIPSE
5
194
100
AcDbEntity
8
1
62
256
6
ByLayer
370
-1
48
1
60
0
100
AcDbEllipse
10
12.532342
20
-6.751594
30
0
11
-0.14423995968499
21
0.0411683620037578
31
0
210
0
220
0
230
1
40
0.031593
41
-1.74332349145008
42
-1.56879056625077
0
ELLIPSE
5
195
100
AcDbEntity
8
1
62
256
6
ByLayer
370
-1
48
1
60
0
100
AcDbEllipse
10
12.704673
20
-6.147804
30
0
11
-0.14423995968499
21
0.0411683620037578
31
0
210
0
220
0
230
1
40
0.031593
41
-1.74332349144981
42
-1.56879056625077
0
ELLIPSE
5
196
100
AcDbEntity
8
1
62
256
6
ByLayer
370
-1
48
1
60
0
100
AcDbEllipse
10
12.220083
20
-5.706379
30
0
11
-0.0710352023429512
21
-0.132113587598309
31
0
210
0
220
0
230
1
40
0.161422
41
0.929141453722354
42
1.63793094324462
0
ELLIPSE
5
197
100
AcDbEntity
8
1
62
256
6
ByLayer
370
-1
48
1
60
0
100
AcDbEllipse
10
16.071308
20
-1.825683
30
0
11
0.265031506044517
21
-0.196617142700669
31
0
210
0
220
0
230
1
40
0.341239
41
1.07484731081071
42
1.89712853314555
0
ELLIPSE
5
198
100
AcDbEntity
8
1
62
256
6
ByLayer
370
-1
48
1
60
0
100
AcDbEllipse
10
16.071308
20
-1.825683
30
0
11
-0.28523948360115
21
0.165947090950547
31
0
210
0
220
0
230
1
40
0.016637
41
-2.14142123805484
42
-1.26039991204656
0
ELLIPSE
5
199
100
AcDbEntity
8
1
62
256
6
ByLayer
370
-1
48
1
60
0
100
AcDbEllipse
10
15.451334
20
-2.188459
30
0
11
-0.00174325584072283
21
-0.329995395511928
31
0
210
0
220
0
230
1
40
0.260533
41
-1.7375002313237
42
-0.856478905314156
0
ELLIPSE
5
19A
100
AcDbEntity
8
1
62
256
6
ByLayer
370
-1
48
1
60
0
100
AcDbEllipse
10
15.451334
20
-2.188459
30
0
11
-0.0210607048197567
21
0.329327263846307
31
0
210
0
220
0
230
1
40
0.570429
41
1.37905832978614
42
2.2013395521213
0
ELLIPSE
5
19B
100
AcDbEntity
8
1
62
256
6
ByLayer
370
-1
48
1
60
0
100
AcDbEllipse
10
15.400854
20
-1.125387
30
0
11
-0.289480310815711
21
1.13400220269991
31
0
210
0
220
0
230
1
40
0.21433
41
1.3504603776969
42
1.51805605579952
0
ELLIPSE
5
19C
100
AcDbEntity
8
1
62
256
6
ByLayer
370
-1
48
1
60
0
100
AcDbEllipse
10
15.400853
20
-1.125387
30
0
11
-0.748440082053804
21
0.867905628847546
31
0
210
0
220
0
230
1
40
0.005689
41
1.28797639614304
42
1.45557217485598
0
ELLIPSE
5
19D
100
AcDbEntity
8
1
62
256
6
ByLayer
370
-1
48
1
60
0
100
AcDbEllipse
10
15.858999
20
-2.190613
30
0
11
-0.28523948360115
21
0.165947090950547
31
0
210
0
220
0
230
1
40
0.016637
41
-2.14142123805478
42
-1.26039991204577
0
ELLIPSE
5
19E
100
AcDbEntity
8
1
62
256
6
ByLayer
370
-1
48
1
60
0
100
AcDbEllipse
10
15.858999
20
-2.190613
30
0
11
0.00174325584072279
21
0.329995395511928
31
0
210
0
220
0
230
1
40
0.260533
41
1.40409242226616
42
2.28511374827543
0
ELLIPSE
5
19F
100
AcDbEntity
8
1
62
256
6
ByLayer
370
-1
48
1
60
0
100
AcDbEllipse
10
16.071308
20
-1.825683
30
0
11
0.168419751761705
21
0.283786516974513
31
0
210
0
220
0
230
1
40
0.305589
41
1.2085432978106
42
1.55760914820949
0
ELLIPSE
5
1A0
100
AcDbEntity
8
1
62
256
6
ByLayer
370
-1
48
1
60
0
100
AcDbEllipse
10
15.451334
20
-2.188459
30
0
11
0.329785795493604
21
-0.011888191227035
31
0
210
0
220
0
230
1
40
0.163668
41
1.83578810473251
42
2.18485395513138
0
ELLIPSE
5
1A1
100
AcDbEntity
8
1
62
256
6
ByLayer
370
-1
48
1
60
0
100
AcDbEllipse
10
15.477123
20
-1.47305
30
0
11
0.168419751761705
21
0.283786516974513
31
0
210
0
220
0
230
1
40
0.305589
41
1.20854329781068
42
1.55760914820953
0
ELLIPSE
5
1A2
100
AcDbEntity
8
1
62
256
6
ByLayer
370
-1
48
1
60
0
100
AcDbEllipse
10
15.477123
20
-1.47305
30
0
11
0.329785795493604
21
-0.011888191227035
31
0
210
0
220
0
230
1
40
0.163668
41
1.83578810473252
42
2.1848539551314
0
ELLIPSE
5
1A3
100
AcDbEntity
8
1
62
256
6
ByLayer
370
-1
48
1
60
0
100
AcDbEllipse
10
15.477123
20
-1.47305
30
0
11
0.29573971933096
21
0.146417274971382
31
0
210
0
220
0
230
1
40
0.437013
41
1.42853383235124
42
2.02995322866206
0
ELLIPSE
5
1A4
100
AcDbEntity
8
1
62
256
6
ByLayer
370
-1
48
1
60
0
100
AcDbEllipse
10
15.33131
20
-1.17853
30
0
11
-0.29573971933096
21
-0.146417274971382
31
0
210
0
220
0
230
1
40
0.437013
41
-1.71305882123855
42
-1.1116394249276
0
ELLIPSE
5
1A5
100
AcDbEntity
8
1
62
256
6
ByLayer
370
-1
48
1
60
0
100
AcDbEllipse
10
14.316259
20
-13.416453
30
0
11
-0.150100165890399
21
0.000447445837156477
31
0
210
0
220
0
230
1
40
0.016915
41
1.74523598133578
42
2.45402547084859
0
ELLIPSE
5
1A6
100
AcDbEntity
8
1
62
256
6
ByLayer
370
-1
48
1
60
0
100
AcDbEllipse
10
8.899198
20
-10.254581
30
0
11
-0.162033669206488
21
-0.2759439980204
31
0
210
0
220
0
230
1
40
0.158847
41
-1.49763748786196
42
-1.3231045626625
0
ELLIPSE
5
1A7
100
AcDbEntity
8
1
62
256
6
ByLayer
370
-1
48
1
60
0
100
AcDbEllipse
10
9.122419
20
-9.864095
30
0
11
-0.189844707151314
21
-0.325776279163254
31
0
210
0
220
0
230
1
40
0.134911
41
-2.54415077861009
42
-1.50917053212828
0
ELLIPSE
5
1A8
100
AcDbEntity
8
1
62
256
6
ByLayer
370
-1
48
1
60
0
100
AcDbEllipse
10
10.934066
20
-6.794412
30
0
11
-0.0840441179029307
21
-0.143868673196401
31
0
210
0
220
0
230
1
40
0.143076
41
1.63632518108567
42
2.34511467077062
0
ELLIPSE
5
1A9
100
AcDbEntity
8
1
62
256
6
ByLayer
370
-1
48
1
60
0
100
AcDbEllipse
10
11.620276
20
-12.997897
30
0
11
-0.242332973096181
21
0.141218484132027
31
0
210
0
220
0
230
1
40
0.03895
41
-1.65575193163167
42
-0.620771685072332
0
ELLIPSE
5
1AA
100
AcDbEntity
8
1
62
256
6
ByLayer
370
-1
48
1
60
0
100
AcDbEllipse
10
8.663324
20
-11.003394
30
0
11
-0.0595777310100052
21
0.192154317041341
31
0
210
0
220
0
230
1
40
0.960584
41
0.759243937956053
42
1.28949687084125
0
ELLIPSE
5
1AB
100
AcDbEntity
8
1
62
256
6
ByLayer
370
-1
48
1
60
0
100
AcDbEllipse
10
14.500527
20
-0.893769
30
0
11
0.0197022175593593
21
0.199027190663094
31
0
210
0
220
0
230
1
40
0.984662
41
-9.77236671946651E-07
42
0.620766087096029
0
ELLIPSE
5
1AC
100
AcDbEntity
8
1
62
256
6
ByLayer
370
-1
48
1
60
0
100
AcDbEllipse
10
8.048019
20
-12.509226
30
0
11
0.0197022175593593
21
0.199027190663094
31
0
210
0
220
0
230
1
40
0.984662
41
2.71516118948942
42
-3.14157835546836
0
ELLIPSE
5
1AD
100
AcDbEntity
8
1
62
256
6
ByLayer
370
-1
48
1
60
0
100
AcDbEllipse
10
11.657236
20
-13.144296
30
0
11
0.0197022175593593
21
0.199027190663094
31
0
210
0
220
0
230
1
40
0.984662
41
2.71516118948912
42
3.14159171806154
0
ELLIPSE
5
1AE
100
AcDbEntity
8
1
62
256
6
ByLayer
370
-1
48
1
60
0
100
AcDbEllipse
10
9.808779
20
-12.775949
30
0
11
-0.0128064414135824
21
-0.129367673931012
31
0
210
0
220
0
230
1
40
0.984662
41
-0.426431464100545
42
8.82963173305915E-06
0
ELLIPSE
5
1AF
100
AcDbEntity
8
1
62
256
6
ByLayer
370
-1
48
1
60
0
100
AcDbEllipse
10
21.023141
20
-10.458397
30
0
11
-0.276760933549868
21
0.16065879585712
31
0
210
0
220
0
230
1
40
0.073503
41
0.766553402266208
42
1.56309533882438
0
ELLIPSE
5
1B0
100
AcDbEntity
8
1
62
256
6
ByLayer
370
-1
48
1
60
0
100
AcDbEllipse
10
20.873641
20
-10.243955
30
0
11
-0.0461022229304839
21
-0.123922179418211
31
0
210
0
220
0
230
1
40
0.697513
41
-1.29197441376631
42
-0.947166123385894
0
ELLIPSE
5
1B1
100
AcDbEntity
8
1
62
256
6
ByLayer
370
-1
48
1
60
0
100
AcDbEllipse
10
18.513104
20
-13.416453
30
0
11
-0.176125739403768
21
0.000381298909771862
31
0
210
0
220
0
230
1
40
0.014477
41
1.71923999930391
42
2.75422024574634
0
ELLIPSE
5
1B2
100
AcDbEntity
8
1
62
256
6
ByLayer
370
-1
48
1
60
0
100
AcDbEllipse
10
21.158788
20
-10.715382
30
0
11
-0.132004876937875
21
0.000392178496887048
31
0
210
0
220
0
230
1
40
0.984667
41
3.14157881673209
42
-2.10106309678787
0
ELLIPSE
5
1B3
100
AcDbEntity
8
1
62
256
6
ByLayer
370
-1
48
1
60
0
100
AcDbEllipse
10
21.15678
20
-11.388344
30
0
11
-0.132004876915748
21
0.000392178208612139
31
0
210
0
220
0
230
1
40
0.984667
41
2.18885913757998
42
3.14157881458723
0
ELLIPSE
5
1B4
100
AcDbEntity
8
1
62
256
6
ByLayer
370
-1
48
1
60
0
100
AcDbEllipse
10
21.26472
20
-11.631564
30
0
11
-0.132004876934855
21
0.000392178535462499
31
0
210
0
220
0
230
1
40
0.984667
41
-0.952733513493947
42
-1.38365710791638E-05
0
ELLIPSE
5
1B5
100
AcDbEntity
8
1
62
256
6
ByLayer
370
-1
48
1
60
0
100
AcDbEllipse
10
21.264548
20
-11.68935
30
0
11
-0.13200487693789
21
0.000392178496519119
31
0
210
0
220
0
230
1
40
0.984667
41
-1.3836860434086E-05
42
1.04052955679911
0
ELLIPSE
5
1B6
100
AcDbEntity
8
1
62
256
6
ByLayer
370
-1
48
1
60
0
100
AcDbEllipse
10
21.827339
20
-12.399611
30
0
11
-0.20308442605632
21
0.000603351555635763
31
0
210
0
220
0
230
1
40
0.984667
41
3.14157881683907
42
-2.10106309667578
0
ELLIPSE
5
1B7
100
AcDbEntity
8
1
62
256
6
ByLayer
370
-1
48
1
60
0
100
AcDbEllipse
10
21.827265
20
-12.424472
30
0
11
-0.203084426049504
21
0.000603351500363575
31
0
210
0
220
0
230
1
40
0.984667
41
2.10103542288578
42
3.14157881657201
0
ELLIPSE
5
1B8
100
AcDbEntity
8
1
62
256
6
ByLayer
370
-1
48
1
60
0
100
AcDbEllipse
10
20.646019
20
-8.914123
30
0
11
0.0197022175593593
21
0.199027190663094
31
0
210
0
220
0
230
1
40
0.984662
41
-1.47362901529718
42
-0.950030239698916
0
ELLIPSE
5
1B9
100
AcDbEntity
8
1
62
256
6
ByLayer
370
-1
48
1
60
0
100
AcDbEllipse
10
20.430679
20
-12.407935
30
0
11
-0.254558441227157
21
3.11733884545897E-17
31
0
210
0
220
0
230
1
40
0.999857
41
-0.539941900357877
42
0.53397215806433
0
ELLIPSE
5
1BA
100
AcDbEntity
8
1
62
256
6
ByLayer
370
-1
48
1
60
0
100
AcDbEllipse
10
20.645588
20
-12.771355
30
0
11
-0.254558441227157
21
3.11733884545897E-17
31
0
210
0
220
0
230
1
40
0.999857
41
0.533972158064268
42
0.838909548964167
0
ELLIPSE
5
1BB
100
AcDbEntity
8
1
62
256
6
ByLayer
370
-1
48
1
60
0
100
AcDbEllipse
10
20.647754
20
-12.045804
30
0
11
-0.254558441227157
21
3.11733884545897E-17
31
0
210
0
220
0
230
1
40
0.999857
41
-0.844879039200695
42
-0.539941900357826
0
ELLIPSE
5
1BC
100
AcDbEntity
8
1
62
256
6
ByLayer
370
-1
48
1
60
0
100
AcDbEllipse
10
20.350646
20
-12.274665
30
0
11
-0.49112229059146
21
0.830478379897282
31
0
210
0
220
0
230
1
40
0.342017
41
2.31469405704733
42
3.13697527937326
0
ELLIPSE
5
1BD
100
AcDbEntity
8
1
62
256
6
ByLayer
370
-1
48
1
60
0
100
AcDbEllipse
10
20.349852
20
-12.540601
30
0
11
-0.496071482940278
21
-0.827532009975798
31
0
210
0
220
0
230
1
40
0.342016
41
-3.13697512151235
42
-2.31469389918517
0
ELLIPSE
5
1BE
100
AcDbEntity
8
1
62
256
6
ByLayer
370
-1
48
1
60
0
100
AcDbEllipse
10
19.441087
20
-13.770746
30
0
11
-2.45285013861322
21
-1.40616693024617
31
0
210
0
220
0
230
1
40
0.300605
41
-3.13729264526923
42
-2.96969696963356
0
ELLIPSE
5
1BF
100
AcDbEntity
8
1
62
256
6
ByLayer
370
-1
48
1
60
0
100
AcDbEllipse
10
19.449241
20
-11.039117
30
0
11
-2.44441180721231
21
1.4207830385542
31
0
210
0
220
0
230
1
40
0.300605
41
2.96969682951497
42
3.1372925040561
0
ELLIPSE
5
1C0
100
AcDbEntity
8
1
62
256
6
ByLayer
370
-1
48
1
60
0
100
AcDbEllipse
10
19.754046
20
-12.689542
30
0
11
0.27215735845295
21
-0.168316286318088
31
0
210
0
220
0
230
1
40
0.077665
41
-2.76312998739906
42
-1.72814974096652
0
ELLIPSE
5
1C1
100
AcDbEntity
8
1
62
256
6
ByLayer
370
-1
48
1
60
0
100
AcDbEllipse
10
19.754046
20
-12.689542
30
0
11
-0.27815116708091
21
0.158214816788845
31
0
210
0
220
0
230
1
40
0.014726
41
-1.56244949829216
42
-0.377304873147178
0
ELLIPSE
5
1C2
100
AcDbEntity
8
1
62
256
6
ByLayer
370
-1
48
1
60
0
100
AcDbEllipse
10
19.754046
20
-12.689542
30
0
11
-0.31999857438126
21
0.000955193153905539
31
0
210
0
220
0
230
1
40
0.016926
41
-1.57077106271216
42
-1.39623813751274
0
ELLIPSE
5
1C3
100
AcDbEntity
8
1
62
256
6
ByLayer
370
-1
48
1
60
0
100
AcDbEllipse
10
15.44889
20
-12.541118
30
0
11
0.135513172663692
21
0.0643131404506146
31
0
210
0
220
0
230
1
40
0.090991
41
-2.12953829854717
42
-1.42074880902468
0
ELLIPSE
5
1C4
100
AcDbEntity
8
1
62
256
6
ByLayer
370
-1
48
1
60
0
100
AcDbEllipse
10
18.293938
20
-7.179695
30
0
11
0.108849151591524
21
0.103207859186233
31
0
210
0
220
0
230
1
40
0.132802
41
-1.45638155561137
42
-1.28184863041186
0
ELLIPSE
5
1C5
100
AcDbEntity
8
1
62
256
6
ByLayer
370
-1
48
1
60
0
100
AcDbEllipse
10
18.722354
20
-7.631528
30
0
11
0.108849151591524
21
0.103207859186233
31
0
210
0
220
0
230
1
40
0.132802
41
-1.45638155561108
42
-1.28184863041162
0
ELLIPSE
5
1C6
100
AcDbEntity
8
1
62
256
6
ByLayer
370
-1
48
1
60
0
100
AcDbEllipse
10
19.342457
20
-7.425003
30
0
11
-0.0805414741465818
21
0.126542763294846
31
0
210
0
220
0
230
1
40
0.138046
41
-1.67873076347048
42
-0.969941273947571
0
ELLIPSE
5
1C7
100
AcDbEntity
8
1
62
256
6
ByLayer
370
-1
48
1
60
0
100
AcDbEllipse
10
20.64432
20
-12.774844
30
0
11
-0.28457475269051
21
-0.167084440122756
31
0
210
0
220
0
230
1
40
0.328265
41
0.753089680139357
42
1.57537090247424
0
ELLIPSE
5
1C8
100
AcDbEntity
8
1
62
256
6
ByLayer
370
-1
48
1
60
0
100
AcDbEllipse
10
20.64432
20
-12.774844
30
0
11
0.284050851998542
21
0.167973549938383
31
0
210
0
220
0
230
1
40
0.014557
41
1.56215884318407
42
2.44318016919271
0
ELLIPSE
5
1C9
100
AcDbEntity
8
1
62
256
6
ByLayer
370
-1
48
1
60
0
100
AcDbEllipse
10
20.646486
20
-12.049293
30
0
11
-0.283043037695041
21
0.169666257141376
31
0
210
0
220
0
230
1
40
0.014531
41
-1.56211542914276
42
-0.681094103135534
0
ELLIPSE
5
1CA
100
AcDbEntity
8
1
62
256
6
ByLayer
370
-1
48
1
60
0
100
AcDbEllipse
10
20.646486
20
-12.049293
30
0
11
0.28250268466973
21
-0.170564454545474
31
0
210
0
220
0
230
1
40
0.355599
41
1.58465200846338
42
2.40693323079848
0
ELLIPSE
5
1CB
100
AcDbEntity
8
1
62
256
6
ByLayer
370
-1
48
1
60
0
100
AcDbEllipse
10
21.811142
20
-12.42657
30
0
11
-1.20705427058704
21
0.290156910697271
31
0
210
0
220
0
230
1
40
0.066352
41
-1.62195824691318
42
-1.45436257957125
0
ELLIPSE
5
1CC
100
AcDbEntity
8
1
62
256
6
ByLayer
370
-1
48
1
60
0
100
AcDbEllipse
10
21.811142
20
-12.42657
30
0
11
-1.20883003165406
21
-0.274665709677569
31
0
210
0
220
0
230
1
40
0.04318
41
1.46015549312365
42
1.62775117514469
0
ELLIPSE
5
1CD
100
AcDbEntity
8
1
62
256
6
ByLayer
370
-1
48
1
60
0
100
AcDbEllipse
10
20.429411
20
-12.411424
30
0
11
0.284050851998542
21
0.167973549938383
31
0
210
0
220
0
230
1
40
0.014557
41
1.56215884318387
42
2.4431801691927
0
ELLIPSE
5
1CE
100
AcDbEntity
8
1
62
256
6
ByLayer
370
-1
48
1
60
0
100
AcDbEllipse
10
20.429411
20
-12.411424
30
0
11
0.283043037695041
21
-0.169666257141376
31
0
210
0
220
0
230
1
40
0.014531
41
1.57947722444701
42
2.46049855045427
0
ELLIPSE
5
1CF
100
AcDbEntity
8
1
62
256
6
ByLayer
370
-1
48
1
60
0
100
AcDbEllipse
10
20.64432
20
-12.774844
30
0
11
0.164128524857489
21
-0.286289761130406
31
0
210
0
220
0
230
1
40
0.008441
41
1.23640270069403
42
1.5854685510952
0
ELLIPSE
5
1D0
100
AcDbEntity
8
1
62
256
6
ByLayer
370
-1
48
1
60
0
100
AcDbEllipse
10
20.646486
20
-12.049293
30
0
11
-0.165834547046438
21
-0.285304929866104
31
0
210
0
220
0
230
1
40
0.008485
41
-1.93450914283731
42
-1.5854432924414
0
ELLIPSE
5
1D1
100
AcDbEntity
8
1
62
256
6
ByLayer
370
-1
48
1
60
0
100
AcDbEllipse
10
21.273839
20
-12.413944
30
0
11
0.164128524857489
21
-0.286289761130406
31
0
210
0
220
0
230
1
40
0.008441
41
1.2364027006907
42
1.58546855109519
0
ELLIPSE
5
1D2
100
AcDbEntity
8
1
62
256
6
ByLayer
370
-1
48
1
60
0
100
AcDbEllipse
10
21.273839
20
-12.413944
30
0
11
-0.165834547046438
21
-0.285304929866104
31
0
210
0
220
0
230
1
40
0.008485
41
-1.93450914283718
42
-1.58544329244121
0
ELLIPSE
5
1D3
100
AcDbEntity
8
1
62
256
6
ByLayer
370
-1
48
1
60
0
100
AcDbEllipse
10
21.273839
20
-12.413944
30
0
11
-0.00200138935679018
21
-0.329993930914862
31
0
210
0
220
0
230
1
40
0.178994
41
1.28729154980973
42
1.88871094612044
0
ELLIPSE
5
1D4
100
AcDbEntity
8
1
62
256
6
ByLayer
370
-1
48
1
60
0
100
AcDbEllipse
10
21.633307
20
-12.416124
30
0
11
0.00200138935678999
21
0.329993930914862
31
0
210
0
220
0
230
1
40
0.178994
41
-1.85430110378007
42
-1.2528817074692
0
ELLIPSE
5
1D5
100
AcDbEntity
8
1
62
256
6
ByLayer
370
-1
48
1
60
0
100
AcDbEllipse
10
11.712156
20
-5.433276
30
0
11
-0.0760035166016457
21
-0.129439174494831
31
0
210
0
220
0
230
1
40
0.158738
41
0.935112572856101
42
1.64390206213092
0
ELLIPSE
5
1D6
100
AcDbEntity
8
1
62
256
6
ByLayer
370
-1
48
1
60
0
100
AcDbEllipse
10
17.046568
20
-2.282279
30
0
11
-0.161612197743506
21
0.276191052607636
31
0
210
0
220
0
230
1
40
0.141921
41
1.29356261786566
42
1.46809554306505
0
ELLIPSE
5
1D7
100
AcDbEntity
8
1
62
256
6
ByLayer
370
-1
48
1
60
0
100
AcDbEllipse
10
17.267458
20
-2.672766
30
0
11
-0.188942952875584
21
0.325984650001958
31
0
210
0
220
0
230
1
40
0.12071
41
1.48411448578695
42
2.51909473222789
0
ELLIPSE
5
1D8
100
AcDbEntity
8
1
62
256
6
ByLayer
370
-1
48
1
60
0
100
AcDbEllipse
10
19.060747
20
-5.753105
30
0
11
-0.0837034822237202
21
0.143972486414981
31
0
210
0
220
0
230
1
40
0.127956
41
-2.37169933074136
42
-1.66290984122473
0
ELLIPSE
5
1D9
100
AcDbEntity
8
1
62
256
6
ByLayer
370
-1
48
1
60
0
100
AcDbEllipse
10
13.424253
20
-3.270998
30
0
11
-0.243113751192535
21
-0.14091040800643
31
0
210
0
220
0
230
1
40
0.05457
41
1.64645383465413
42
2.68143408120861
0
ELLIPSE
5
1DA
100
AcDbEntity
8
1
62
256
6
ByLayer
370
-1
48
1
60
0
100
AcDbEllipse
10
16.47344
20
-1.726832
30
0
11
-0.0833186582814626
21
-0.18275620641614
31
0
210
0
220
0
230
1
40
0.958576
41
2.50791834151597
42
3.03817127448933
0
ELLIPSE
5
1DB
100
AcDbEntity
8
1
62
256
6
ByLayer
370
-1
48
1
60
0
100
AcDbEllipse
10
14.146315
20
-1.742209
30
0
11
-0.0128064414135823
21
-0.129367673931011
31
0
210
0
220
0
230
1
40
0.984662
41
0.620766087096296
42
1.66130948076637
0
ELLIPSE
5
1DC
100
AcDbEntity
8
1
62
256
6
ByLayer
370
-1
48
1
60
0
100
AcDbEllipse
10
14.479283
20
-0.9062
30
0
11
0.0197022175593593
21
0.199027190663094
31
0
210
0
220
0
230
1
40
0.984662
41
0.620766087096181
42
1.66130948076644
0
ELLIPSE
5
1DD
100
AcDbEntity
8
1
62
256
6
ByLayer
370
-1
48
1
60
0
100
AcDbEllipse
10
12.123486
20
-3.763755
30
0
11
0.0197022175593593
21
0.199027190663094
31
0
210
0
220
0
230
1
40
0.984662
41
0.620766087096167
42
1.14436486269444
0
ELLIPSE
5
1DE
100
AcDbEntity
8
1
62
256
6
ByLayer
370
-1
48
1
60
0
100
AcDbEllipse
10
13.106068
20
-2.808472
30
0
11
-0.0128064414135824
21
-0.129367673931012
31
0
210
0
220
0
230
1
40
0.984662
41
0.620766087096235
42
1.6613094807664
0
ELLIPSE
5
1DF
100
AcDbEntity
8
1
62
256
6
ByLayer
370
-1
48
1
60
0
100
AcDbEllipse
10
13.366767
20
-2.321696
30
0
11
-0.0128064414135824
21
-0.129367673931012
31
0
210
0
220
0
230
1
40
0.984662
41
-2.52082656649332
42
-1.4802831728234
0
ELLIPSE
5
1E0
100
AcDbEntity
8
1
62
256
6
ByLayer
370
-1
48
1
60
0
100
AcDbEllipse
10
13.941804
20
-1.985215
30
0
11
0.0128064414135836
21
0.129367673931011
31
0
210
0
220
0
230
1
40
0.984662
41
7.22549782522407E-06
42
0.620766087096228
0
ELLIPSE
5
1E1
100
AcDbEntity
8
1
62
256
6
ByLayer
370
-1
48
1
60
0
100
AcDbEllipse
10
8.02685
20
-12.496795
30
0
11
0.0197022175593593
21
0.199027190663094
31
0
210
0
220
0
230
1
40
0.984662
41
1.67461779581897
42
2.71516118948929
0
ELLIPSE
5
1E2
100
AcDbEntity
8
1
62
256
6
ByLayer
370
-1
48
1
60
0
100
AcDbEllipse
10
8.284941
20
-13.536405
30
0
11
1.40969993390499
21
0.000431679862410452
31
0
210
0
220
0
230
1
40
0.051912
41
1.39632646697749
42
2.44352401817338
0
ELLIPSE
5
1E3
100
AcDbEntity
8
1
62
256
6
ByLayer
370
-1
48
1
60
0
100
AcDbEllipse
10
8.284941
20
-13.536405
30
0
11
1.40969993390499
21
0.000431679862410452
31
0
210
0
220
0
230
1
40
0.051912
41
2.44352401817338
42
-2.79246373780964
0
ELLIPSE
5
1E4
100
AcDbEntity
8
1
62
256
6
ByLayer
370
-1
48
1
60
0
100
AcDbEllipse
10
8.284941
20
-13.536405
30
0
11
1.40969993390499
21
0.000431679862410452
31
0
210
0
220
0
230
1
40
0.051912
41
-2.79246373780964
42
-1.7452661866122
0
ELLIPSE
5
1E5
100
AcDbEntity
8
1
62
256
6
ByLayer
370
-1
48
1
60
0
100
AcDbEllipse
10
8.284941
20
-13.536405
30
0
11
1.40969993390499
21
0.000431679862410452
31
0
210
0
220
0
230
1
40
0.051912
41
-1.7452661866122
42
-0.698068635416417
0
ELLIPSE
5
1E6
100
AcDbEntity
8
1
62
256
6
ByLayer
370
-1
48
1
60
0
100
AcDbEllipse
10
8.284941
20
-13.536405
30
0
11
1.40969993390499
21
0.000431679862410452
31
0
210
0
220
0
230
1
40
0.051912
41
-0.698068635416417
42
0.349128915780202
0
ELLIPSE
5
1E7
100
AcDbEntity
8
1
62
256
6
ByLayer
370
-1
48
1
60
0
100
AcDbEllipse
10
8.284941
20
-13.536405
30
0
11
1.40969993390499
21
0.000431679862410452
31
0
210
0
220
0
230
1
40
0.051912
41
0.349128915780202
42
1.39632646697749
0
ELLIPSE
5
1E8
100
AcDbEntity
8
1
62
256
6
ByLayer
370
-1
48
1
60
0
100
AcDbEllipse
10
8.284603
20
-12.437889
30
0
11
-3.0999998546544
21
-0.000949285361081976
31
0
210
0
220
0
230
1
40
0.051912
41
-1.42335957550863
42
-1.32960108247186
0
ELLIPSE
5
1E9
100
AcDbEntity
8
1
62
256
6
ByLayer
370
-1
48
1
60
0
100
AcDbEllipse
10
8.284941
20
-13.536405
30
0
11
-1.69999992029436
21
-0.00052057584317399
31
0
210
0
220
0
230
1
40
0.051912
41
0
42
6.28318530717959
0
ELLIPSE
5
1EA
100
AcDbEntity
8
1
62
256
6
ByLayer
370
-1
48
1
60
0
100
AcDbEllipse
10
15.128765
20
-8.643579
30
0
11
-0.290489915783295
21
-2.7094723856922
31
0
210
0
220
0
230
1
40
0.984637
41
-3.14151934452245
42
0
0
ELLIPSE
5
1EB
100
AcDbEntity
8
1
62
256
6
ByLayer
370
-1
48
1
60
0
100
AcDbEllipse
10
15.343811
20
-8.666635
30
0
11
-0.290489915783294
21
-2.70947238569219
31
0
210
0
220
0
230
1
40
0.984637
41
0
42
6.28318530717959
0
ELLIPSE
5
1EC
100
AcDbEntity
8
1
62
256
6
ByLayer
370
-1
48
1
60
0
100
AcDbEllipse
10
15.354469
20
-8.667777
30
0
11
-0.191883247122919
21
-1.78974322724629
31
0
210
0
220
0
230
1
40
0.984637
41
0
42
6.28318530717959
0
ELLIPSE
5
1ED
100
AcDbEntity
8
1
62
256
6
ByLayer
370
-1
48
1
60
0
100
AcDbEllipse
10
15.807251
20
-9.922813
30
0
11
-0.335833568588215
21
-0.198604627908242
31
0
210
0
220
0
230
1
40
0.491978
41
-2.55849278705489
42
-1.58035745322057
0
ELLIPSE
5
1EE
100
AcDbEntity
8
1
62
256
6
ByLayer
370
-1
48
1
60
0
100
AcDbEllipse
10
15.08102
20
-8.63846
30
0
11
-0.137548307645936
21
-1.28294760339764
31
0
210
0
220
0
230
1
40
0.984637
41
0.628774861197711
42
1.67597241239428
0
ELLIPSE
5
1EF
100
AcDbEntity
8
1
62
256
6
ByLayer
370
-1
48
1
60
0
100
AcDbEllipse
10
16.541785
20
-8.63846
30
0
11
-0.00166011276052708
21
-0.394030905811425
31
0
210
0
220
0
230
1
40
0.48236
41
-1.5687640710003
42
-0.158490609534016
0
ELLIPSE
5
1F0
100
AcDbEntity
8
1
62
256
6
ByLayer
370
-1
48
1
60
0
100
AcDbEllipse
10
15.354469
20
-8.667777
30
0
11
0.17870726415379
21
1.6668475256419
31
0
210
0
220
0
230
1
40
0.984637
41
0.105176085599227
42
1.15237363679602
0
ELLIPSE
5
1F1
100
AcDbEntity
8
1
62
256
6
ByLayer
370
-1
48
1
60
0
100
AcDbEllipse
10
15.354469
20
-8.667777
30
0
11
0.17870726415379
21
1.6668475256419
31
0
210
0
220
0
230
1
40
0.984637
41
1.15237363679602
42
2.19957118799258
0
ELLIPSE
5
1F2
100
AcDbEntity
8
1
62
256
6
ByLayer
370
-1
48
1
60
0
100
AcDbEllipse
10
15.354469
20
-8.667777
30
0
11
0.17870726415379
21
1.6668475256419
31
0
210
0
220
0
230
1
40
0.984637
41
2.19957118799258
42
-3.03641656799057
0
ELLIPSE
5
1F3
100
AcDbEntity
8
1
62
256
6
ByLayer
370
-1
48
1
60
0
100
AcDbEllipse
10
15.354469
20
-8.667777
30
0
11
0.17870726415379
21
1.6668475256419
31
0
210
0
220
0
230
1
40
0.984637
41
-3.03641656799057
42
-1.98921901679382
0
ELLIPSE
5
1F4
100
AcDbEntity
8
1
62
256
6
ByLayer
370
-1
48
1
60
0
100
AcDbEllipse
10
15.354469
20
-8.667777
30
0
11
0.17870726415379
21
1.6668475256419
31
0
210
0
220
0
230
1
40
0.984637
41
-1.98921901679382
42
-0.942021465597185
0
ELLIPSE
5
1F5
100
AcDbEntity
8
1
62
256
6
ByLayer
370
-1
48
1
60
0
100
AcDbEllipse
10
15.354469
20
-8.667777
30
0
11
0.17870726415379
21
1.6668475256419
31
0
210
0
220
0
230
1
40
0.984637
41
-0.942021465597185
42
0.105176085599226
0
ELLIPSE
5
1F6
100
AcDbEntity
8
1
62
256
6
ByLayer
370
-1
48
1
60
0
100
AcDbEllipse
10
15.08102
20
-8.63846
30
0
11
0.137548307645926
21
1.28294760339758
31
0
210
0
220
0
230
1
40
0.984637
41
0.776838477683716
42
1.37544297622958
0
ELLIPSE
5
1F7
100
AcDbEntity
8
1
62
256
6
ByLayer
370
-1
48
1
60
0
100
AcDbEllipse
10
15.08102
20
-8.63846
30
0
11
-0.137548307645936
21
-1.28294760339764
31
0
210
0
220
0
230
1
40
0.984637
41
-1.12827556306427
42
-0.524075521087333
0
ELLIPSE
5
1F8
100
AcDbEntity
8
1
62
256
6
ByLayer
370
-1
48
1
60
0
100
AcDbEllipse
10
14.346485
20
-9.922813
30
0
11
-0.334749163353294
21
0.198269006354078
31
0
210
0
220
0
230
1
40
0.494774
41
-0.826042228553787
42
-0.152990595417755
0
ELLIPSE
5
1F9
100
AcDbEntity
8
1
62
256
6
ByLayer
370
-1
48
1
60
0
100
AcDbEllipse
10
16.343768
20
-9.380032
30
0
11
-0.193958055348331
21
-0.341934994911022
31
0
210
0
220
0
230
1
40
0.48462
41
0.895650237031132
42
-3.09172931451205
0
ELLIPSE
5
1FA
100
AcDbEntity
8
1
62
256
6
ByLayer
370
-1
48
1
60
0
100
AcDbEllipse
10
16.348563
20
-7.896889
30
0
11
-0.191392218429844
21
0.342134594454302
31
0
210
0
220
0
230
1
40
0.487307
41
3.09386107380856
42
-0.923025942852923
0
ELLIPSE
5
1FB
100
AcDbEntity
8
1
62
256
6
ByLayer
370
-1
48
1
60
0
100
AcDbEllipse
10
16.541785
20
-8.63846
30
0
11
-0.00166011276081263
21
-0.394030905815074
31
0
210
0
220
0
230
1
40
0.48236
41
-2.9790375324537
42
-1.56876407099837
0
ELLIPSE
5
1FC
100
AcDbEntity
8
1
62
256
6
ByLayer
370
-1
48
1
60
0
100
AcDbEllipse
10
15.08102
20
-8.63846
30
0
11
-0.137548307645936
21
-1.28294760339764
31
0
210
0
220
0
230
1
40
0.984637
41
1.67597241239502
42
2.7231699635916
0
ELLIPSE
5
1FD
100
AcDbEntity
8
1
62
256
6
ByLayer
370
-1
48
1
60
0
100
AcDbEllipse
10
15.815555
20
-7.354107
30
0
11
-0.334749163353245
21
0.198269006353922
31
0
210
0
220
0
230
1
40
0.494774
41
1.57832859671059
42
2.31554829324568
0
ELLIPSE
5
1FE
100
AcDbEntity
8
1
62
256
6
ByLayer
370
-1
48
1
60
0
100
AcDbEllipse
10
15.076225
20
-10.121603
30
0
11
-0.388113182761348
21
-0.000412013910107445
31
0
210
0
220
0
230
1
40
0.49719
41
1.66023316912639
42
-3.0865827025292
0
ELLIPSE
5
1FF
100
AcDbEntity
8
1
62
256
6
ByLayer
370
-1
48
1
60
0
100
AcDbEllipse
10
15.085815
20
-7.155317
30
0
11
-0.388113182761346
21
-0.000412013910142603
31
0
210
0
220
0
230
1
40
0.49719
41
3.08231238522558
42
-2.06528249923989
0
ELLIPSE
5
200
100
AcDbEntity
8
1
62
256
6
ByLayer
370
-1
48
1
60
0
100
AcDbEllipse
10
15.815555
20
-7.354107
30
0
11
-0.334749163353545
21
0.198269006353562
31
0
210
0
220
0
230
1
40
0.494774
41
0.168055135251837
42
1.57832859670777
0
ELLIPSE
5
201
100
AcDbEntity
8
1
62
256
6
ByLayer
370
-1
48
1
60
0
100
AcDbEllipse
10
15.08102
20
-8.63846
30
0
11
-0.137548307645936
21
-1.28294760339764
31
0
210
0
220
0
230
1
40
0.984637
41
2.7231699635916
42
-2.88439321350754
0
ELLIPSE
5
202
100
AcDbEntity
8
1
62
256
6
ByLayer
370
-1
48
1
60
0
100
AcDbEllipse
10
15.08102
20
-8.63846
30
0
11
-0.137548307645936
21
-1.28294760339764
31
0
210
0
220
0
230
1
40
0.984637
41
-0.10139977779993
42
0.628774861197663
0
ELLIPSE
5
203
100
AcDbEntity
8
1
62
256
6
ByLayer
370
-1
48
1
60
0
100
AcDbEllipse
10
15.807251
20
-9.922813
30
0
11
-0.335833568587801
21
-0.19860462790841
31
0
210
0
220
0
230
1
40
0.491978
41
-1.58035745322273
42
-0.17008399176071
0
ELLIPSE
5
204
100
AcDbEntity
8
1
62
256
6
ByLayer
370
-1
48
1
60
0
100
AcDbEllipse
10
20.814598
20
-9.695075
30
0
11
-0.000612742691509572
21
-0.283031911600339
31
0
210
0
220
0
230
1
40
0.092039
41
0.52690633870461
42
1.56188658520339
0
ELLIPSE
5
205
100
AcDbEntity
8
1
62
256
6
ByLayer
370
-1
48
1
60
0
100
AcDbEllipse
10
19.307782
20
-13.411125
30
0
11
-0.375734910728854
21
0.00081343767418958
31
0
210
0
220
0
230
1
40
0.014477
41
-1.42235265428502
42
-0.387372407845809
0
ELLIPSE
5
206
100
AcDbEntity
8
1
62
256
6
ByLayer
370
-1
48
1
60
0
100
AcDbEllipse
10
15.312419
20
-8.657235
30
0
11
-0.303455114647686
21
-3.06543254731199
31
0
210
0
220
0
230
1
40
0.984662
41
0
42
6.28318530717959
0
ELLIPSE
5
207
100
AcDbEntity
8
1
62
256
6
ByLayer
370
-1
48
1
60
0
100
AcDbEllipse
10
19.830711
20
-7.114241
30
0
11
-0.0758050237552586
21
0.129554897837957
31
0
210
0
220
0
230
1
40
0.141824
41
-1.67342357381055
42
-0.964634084332443
0
ELLIPSE
5
208
100
AcDbEntity
8
1
62
256
6
ByLayer
370
-1
48
1
60
0
100
AcDbEllipse
10
15.864315
20
-13.416453
30
0
11
-0.166222822845959
21
0.000404025363497434
31
0
210
0
220
0
230
1
40
0.015318
41
1.01936978911881
42
1.72815927862264
0
ELLIPSE
5
209
100
AcDbEntity
8
1
62
256
6
ByLayer
370
-1
48
1
60
0
100
AcDbEllipse
10
19.751892
20
-13.411125
30
0
11
0.31999857438126
21
-0.000955193153900178
31
0
210
0
220
0
230
1
40
0.016926
41
1.57082159087772
42
1.74535451607722
0
ELLIPSE
5
20A
100
AcDbEntity
8
1
62
256
6
ByLayer
370
-1
48
1
60
0
100
AcDbEllipse
10
20.460814
20
-13.207852
30
0
11
-0.203084426055444
21
0.000603351654571817
31
0
210
0
220
0
230
1
40
0.984667
41
1.57078249053385
42
2.10103542365615
0
POINT
5
41
100
AcDbEntity
8
81
62
256
6
ByLayer
370
-1
48
1
60
0
100
AcDbPoint
10
23.355801
20
-13.4125
30
0
39
0
210
0
220
0
230
1
50
360
0
POINT
5
43
100
AcDbEntity
8
2
62
256
6
ByLayer
370
-1
48
1
60
0
100
AcDbPoint
10
23.397097
20
13.416588
30
0
39
0
210
0
220
0
230
1
50
360
0
POINT
5
45
100
AcDbEntity
8
2
62
256
6
ByLayer
370
-1
48
1
60
0
100
AcDbPoint
10
22.030378
20
12.412648
30
0
39
0
210
0
220
0
230
1
50
360
0
POINT
5
46
100
AcDbEntity
8
80
62
256
6
ByLayer
370
-1
48
1
60
0
100
AcDbPoint
10
0
20
0
30
0
39
0
210
0
220
0
230
1
50
360
0
POINT
5
48
100
AcDbEntity
8
2
62
256
6
ByLayer
370
-1
48
1
60
0
100
AcDbPoint
10
23.355801
20
13.4125
30
0
39
0
210
0
220
0
230
1
50
360
0
SPLINE
5
20B
100
AcDbEntity
8
1
62
256
6
ByLayer
370
-1
48
1
60
0
100
AcDbSpline
70
4
71
3
72
11
73
7
40
0
40
0
40
0
40
0
40
0.309911999279708
40
0.650245840481638
40
0.971236918930335
40
1
40
1
40
1
40
1
41
1
10
10.9167651724924
20
-12.9418369076876
30
0
41
1
10
10.828952248022
20
-13.0193499545761
30
0
41
1
10
10.638272426868
20
-13.1741996634338
30
0
41
1
10
10.3286996338138
20
-13.3709523496989
30
0
41
1
10
10.0989735959255
20
-13.4959083387369
30
0
41
1
10
9.97608618461027
20
-13.5439063944893
30
0
41
1
10
9.96594892824746
20
-13.5477867107233
30
0
0
SPLINE
5
20C
100
AcDbEntity
8
1
62
256
6
ByLayer
370
-1
48
1
60
0
100
AcDbSpline
70
4
71
3
72
11
73
7
40
0
40
0
40
0
40
0
40
0.14250246106446
40
0.490424513708901
40
0.832589729624507
40
1
40
1
40
1
40
1
41
1
10
6.62684137779769
20
-13.5525790449877
30
0
41
1
10
6.57039528478248
20
-13.5318000541303
30
0
41
1
10
6.37928602364576
20
-13.4541240367528
30
0
41
1
10
6.07571325660768
20
-13.2750668587591
30
0
41
1
10
5.78470775367455
20
-13.0612694169853
30
0
41
1
10
5.62299872478849
20
-12.919521618362
30
0
41
1
10
5.57148055542029
20
-12.8712871685748
30
0
0
SPLINE
5
20D
100
AcDbEntity
8
1
62
256
6
ByLayer
370
-1
48
1
60
0
100
AcDbSpline
70
4
71
3
72
8
73
4
40
0
40
0
40
0
40
0
40
1
40
1
40
1
40
1
41
1
10
13.378431363601
20
-0.961816975199554
30
0
41
1
10
13.6222409306784
20
-1.12456047667305
30
0
41
1
10
13.8278967387887
20
-1.27979999265239
30
0
41
1
10
14.014396638425
20
-1.42897678081454
30
0
0
SPLINE
5
20E
100
AcDbEntity
8
1
62
256
6
ByLayer
370
-1
48
1
60
0
100
AcDbSpline
70
4
71
1
72
5
73
3
40
0
40
0
40
0.884800837966259
40
1
40
1
41
1.06363569285907
10
12.3237934544852
20
-1.94599972396775
30
0
41
1.06363569285907
10
12.8143491704962
20
-2.09103263168048
30
0
41
1.06363569285907
10
12.8782184673938
20
-2.10991560366571
30
0
0
SPLINE
5
20F
100
AcDbEntity
8
1
62
256
6
ByLayer
370
-1
48
1
60
0
100
AcDbSpline
70
4
71
3
72
14
73
10
40
0
40
0
40
0
40
0
40
0.31439236670204
40
0.31439236670204
40
0.632200716155233
40
0.632200716155233
40
0.912513196202083
40
0.912513196202083
40
1
40
1
40
1
40
1
41
1
10
8.73429725277146
20
-12.6513620722912
30
0
41
1
10
8.72349738272814
20
-12.6514622393573
30
0
41
1
10
8.71246010058601
20
-12.6500367661027
30
0
41
1
10
8.69155923327602
20
-12.6433136579106
30
0
41
1
10
8.68144876619175
20
-12.6378289860088
30
0
41
1
10
8.66511082616836
20
-12.6244703666379
30
0
41
1
10
8.65836174419084
20
-12.6168327045762
30
0
41
1
10
8.65099258775427
20
-12.6059603531467
30
0
41
1
10
8.64932822944309
20
-12.6032820334104
30
0
41
1
10
8.64776315479287
20
-12.6005494526745
30
0
0
SPLINE
5
210
100
AcDbEntity
8
1
62
256
6
ByLayer
370
-1
48
1
60
0
100
AcDbSpline
70
4
71
3
72
22
73
18
40
0
40
0
40
0
40
0
40
0.153101873520366
40
0.153101873520366
40
0.442621285364916
40
0.442621285364916
40
0.707385074439692
40
0.707385074439692
40
0.843532608240197
40
0.843532608240197
40
0.926352665771267
40
0.926352665771267
40
0.963706736955261
40
0.963706736955261
40
0.977863955360666
40
0.977863955360666
40
1
40
1
40
1
40
1
41
1
10
15.2972434471238
20
-12.380201876096
30
0
41
1
10
15.288680894509
20
-12.3610196854293
30
0
41
1
10
15.2799280442386
20
-12.3419251896065
30
0
41
1
10
15.2539381446065
20
-12.2870837682218
30
0
41
1
10
15.2361187741944
20
-12.2515875105913
30
0
41
1
10
15.1991686598748
20
-12.1853413374348
30
0
41
1
10
15.1803674079052
20
-12.1542063695429
30
0
41
1
10
15.1474637595473
20
-12.1105142758299
30
0
41
1
10
15.1354593224181
20
-12.0961333326816
30
0
41
1
10
15.1133989190819
20
-12.0761563157798
30
0
41
1
10
15.1042742877118
20
-12.0691629495715
30
0
41
1
10
15.0894740190079
20
-12.0623166179041
30
0
41
1
10
15.084556402019
20
-12.0606548973207
30
0
41
1
10
15.0775919808997
20
-12.0595898241691
30
0
41
1
10
15.0756391904923
20
-12.0594245054446
30
0
41
1
10
15.070651253402
20
-12.059388933764
30
0
41
1
10
15.0675813578204
20
-12.0597422930247
30
0
41
1
10
15.0646252425393
20
-12.0604900298606
30
0
0
SPLINE
5
211
100
AcDbEntity
8
1
62
256
6
ByLayer
370
-1
48
1
60
0
100
AcDbSpline
70
4
71
3
72
22
73
18
40
0
40
0
40
0
40
0
40
0.0236324717629564
40
0.0236324717629564
40
0.062981402206419
40
0.062981402206419
40
0.0762359204463611
40
0.0762359204463611
40
0.134099172814612
40
0.134099172814612
40
0.288877504287518
40
0.288877504287518
40
0.44293309437761
40
0.44293309437761
40
0.668543354429521
40
0.668543354429521
40
1
40
1
40
1
40
1
41
1
10
14.4638778378159
20
-12.2124465406504
30
0
41
1
10
14.4590568476092
20
-12.2136659896977
30
0
41
1
10
14.4544251344382
20
-12.2160036071153
30
0
41
1
10
14.4437594009034
20
-12.2239549800093
30
0
41
1
10
14.4384117785283
20
-12.2307600139509
30
0
41
1
10
14.4325988285852
20
-12.2403111113922
30
0
41
1
10
14.4312213080259
20
-12.2428072853506
30
0
41
1
10
14.4243212803831
20
-12.256358974221
30
0
41
1
10
14.4202143850813
20
-12.2681540810065
30
0
41
1
10
14.4078115551139
20
-12.3117533856462
30
0
41
1
10
14.4035274745432
20
-12.344744314841
30
0
41
1
10
14.3975938236935
20
-12.4102334373247
30
0
41
1
10
14.3962494980284
20
-12.443070570722
30
0
41
1
10
14.3949722935401
20
-12.523909195461
30
0
41
1
10
14.3960303457697
20
-12.5719583477444
30
0
41
1
10
14.401034014617
20
-12.6903797955086
30
0
41
1
10
14.4061494570511
20
-12.7607255231268
30
0
41
1
10
14.4124561313284
20
-12.8309120781764
30
0
0
SPLINE
5
212
100
AcDbEntity
8
1
62
256
6
ByLayer
370
-1
48
1
60
0
100
AcDbSpline
70
4
71
3
72
8
73
4
40
0
40
0
40
0
40
0
40
1
40
1
40
1
40
1
41
1
10
11.9165225726914
20
-6.76910555514232
30
0
41
1
10
11.9900954329042
20
-6.77951545917387
30
0
41
1
10
12.0638932886788
20
-6.78859044462624
30
0
41
1
10
12.1379011833139
20
-6.79514800323113
30
0
0
SPLINE
5
213
100
AcDbEntity
8
1
62
256
6
ByLayer
370
-1
48
1
60
0
100
AcDbSpline
70
4
71
3
72
8
73
4
40
0
40
0
40
0
40
0
40
1
40
1
40
1
40
1
41
1
10
12.2710390582077
20
-6.8713434586254
30
0
41
1
10
12.1528426535243
20
-6.88032733724188
30
0
41
1
10
12.0337415149094
20
-6.87576578290267
30
0
41
1
10
11.9155750821125
20
-6.86709553189647
30
0
0
SPLINE
5
214
100
AcDbEntity
8
1
62
256
6
ByLayer
370
-1
48
1
60
0
100
AcDbSpline
70
4
71
3
72
20
73
16
40
0
40
0
40
0
40
0
40
0.314859192648747
40
0.314859192648747
40
0.531558880441045
40
0.531558880441045
40
0.682135903694799
40
0.682135903694799
40
0.839619845966474
40
0.839619845966474
40
0.903112673775979
40
0.903112673775979
40
0.967902128209763
40
0.967902128209763
40
1
40
1
40
1
40
1
41
1
10
14.3226304619828
20
-12.8351658372622
30
0
41
1
10
14.3201904316569
20
-12.7627470222941
30
0
41
1
10
14.3195458769559
20
-12.6901955875529
30
0
41
1
10
14.3237105508066
20
-12.5679108299595
30
0
41
1
10
14.3268634232548
20
-12.5180405587301
30
0
41
1
10
14.3365782379965
20
-12.434056033233
30
0
41
1
10
14.3417970877689
20
-12.3996973855139
30
0
41
1
10
14.3569604672651
20
-12.3305622312652
30
0
41
1
10
14.3669376402006
20
-12.2952934269416
30
0
41
1
10
14.3888812610731
20
-12.2496120259937
30
0
41
1
10
14.3962432731255
20
-12.2368125647838
30
0
41
1
10
14.4141238922815
20
-12.2135838549708
30
0
41
1
10
14.4250459246588
20
-12.2028894144207
30
0
41
1
10
14.4441137134831
20
-12.1918848302578
30
0
41
1
10
14.4510293160944
20
-12.1890153711245
30
0
41
1
10
14.4581432632414
20
-12.1872159283337
30
0
0
SPLINE
5
215
100
AcDbEntity
8
1
62
256
6
ByLayer
370
-1
48
1
60
0
100
AcDbSpline
70
4
71
3
72
18
73
14
40
0
40
0
40
0
40
0
40
0.0414544517087063
40
0.0414544517087063
40
0.132910922468082
40
0.132910922468082
40
0.263177731540031
40
0.263177731540031
40
0.458562667326493
40
0.458562667326493
40
0.817425847463264
40
0.817425847463264
40
1
40
1
40
1
40
1
41
1
10
15.0588906679689
20
-12.0352594175526
30
0
41
1
10
15.063282831146
20
-12.0341484384855
30
0
41
1
10
15.0677861218918
20
-12.0334279598254
30
0
41
1
10
15.0821492363805
20
-12.0323748591591
30
0
41
1
10
15.0922089067708
20
-12.0335318214053
30
0
41
1
10
15.115391478171
20
-12.0394759897549
30
0
41
1
10
15.1284062032804
20
-12.0455583608515
30
0
41
1
10
15.1586654591647
20
-12.0636232391733
30
0
41
1
10
15.1752591298725
20
-12.0772139336647
30
0
41
1
10
15.2190547893921
20
-12.1184491629929
30
0
41
1
10
15.2440796099384
20
-12.1487971345887
30
0
41
1
10
15.2792548732985
20
-12.1961135147563
30
0
41
1
10
15.2906820174216
20
-12.2124487436357
30
0
41
1
10
15.30175732603
20
-12.2290171088944
30
0
0
SPLINE
5
216
100
AcDbEntity
8
1
62
256
6
ByLayer
370
-1
48
1
60
0
100
AcDbSpline
70
4
71
3
72
14
73
10
40
0
40
0
40
0
40
0
40
0.314392366702153
40
0.314392366702153
40
0.632200716155301
40
0.632200716155301
40
0.912513196202246
40
0.912513196202246
40
1
40
1
40
1
40
1
41
1
10
15.1004112139908
20
-0.938086915932729
30
0
41
1
10
15.1060282161618
20
-0.92841496736537
30
0
41
1
10
15.1130069240642
20
-0.919320264422367
30
0
41
1
10
15.1294832422306
20
-0.904178175975289
30
0
41
1
10
15.1392626939448
20
-0.898007570520662
30
0
41
1
10
15.1587092382612
20
-0.890360407296953
30
0
41
1
10
15.1684600443444
20
-0.888297062926
30
0
41
1
10
15.1811595403994
20
-0.887353644220326
30
0
41
1
10
15.1842083055523
20
-0.88725572507434
30
0
41
1
10
15.1872486624857
20
-0.887274296315923
30
0
0
SPLINE
5
217
100
AcDbEntity
8
1
62
256
6
ByLayer
370
-1
48
1
60
0
100
AcDbSpline
70
4
71
3
72
10
73
6
40
0
40
0
40
0
40
0
40
0.388885978132887
40
0.388885978132887
40
1
40
1
40
1
40
1
41
1
10
12.2710390582077
20
-6.8713434586254
30
0
41
1
10
12.2540369836483
20
-6.8613598802734
30
0
41
1
10
12.2367894168711
20
-6.85133857773081
30
0
41
1
10
12.1923854375353
20
-6.82578400565848
30
0
41
1
10
12.1649439165325
20
-6.81022160609567
30
0
41
1
10
12.1379011832915
20
-6.79514800322923
30
0
0
SPLINE
5
218
100
AcDbEntity
8
1
62
256
6
ByLayer
370
-1
48
1
60
0
100
AcDbSpline
70
4
71
3
72
22
73
18
40
0
40
0
40
0
40
0
40
0.153101873520364
40
0.153101873520364
40
0.442621285364902
40
0.442621285364902
40
0.707385074439712
40
0.707385074439712
40
0.843532608240152
40
0.843532608240152
40
0.926352665771247
40
0.926352665771247
40
0.963706736955277
40
0.963706736955277
40
0.97786395536068
40
0.97786395536068
40
1
40
1
40
1
40
1
41
1
10
12.1379011832916
20
-6.79514800322914
30
0
41
1
10
12.1588968100483
20
-6.79700834601547
30
0
41
1
10
12.1799124561008
20
-6.79865813135115
30
0
41
1
10
12.2407019387024
20
-6.80264719576425
30
0
41
1
10
12.280552484356
20
-6.80435078453934
30
0
41
1
10
12.356794610955
20
-6.80427620672299
30
0
41
1
10
12.3933537883596
20
-6.80297707229226
30
0
41
1
10
12.4479590509651
20
-6.79541034115567
30
0
41
1
10
12.4665266686894
20
-6.79188515874924
30
0
41
1
10
12.4950466527117
20
-6.78224420513504
30
0
41
1
10
12.5057406826522
20
-6.7776340574402
30
0
41
1
10
12.5191816978206
20
-6.76795137382427
30
0
41
1
10
12.5231153340026
20
-6.76443354848584
30
0
41
1
10
12.527567592355
20
-6.75881985934203
30
0
41
1
10
12.528700219068
20
-6.75718043626051
30
0
41
1
10
12.5312574735021
20
-6.75280331427817
30
0
41
1
10
12.5325055375342
20
-6.7499253573132
30
0
41
1
10
12.5333535324172
20
-6.74695427122253
30
0
0
SPLINE
5
219
100
AcDbEntity
8
1
62
256
6
ByLayer
370
-1
48
1
60
0
100
AcDbSpline
70
4
71
3
72
22
73
18
40
0
40
0
40
0
40
0
40
0.0236324717629868
40
0.0236324717629868
40
0.0629814022064244
40
0.0629814022064244
40
0.0762359204463662
40
0.0762359204463662
40
0.134099172814623
40
0.134099172814623
40
0.288877504287532
40
0.288877504287532
40
0.442933094377624
40
0.442933094377624
40
0.668543354429523
40
0.668543354429523
40
1
40
1
40
1
40
1
41
1
10
12.705684675378
20
-6.14316446994132
30
0
41
1
10
12.7070676305867
20
-6.13831906454138
30
0
41
1
10
12.7073838070847
20
-6.13309215134007
30
0
41
1
10
12.7058817279384
20
-6.1197964636018
30
0
41
1
10
12.7026814147834
20
-6.11174831946477
30
0
41
1
10
12.6973323280492
20
-6.10194375342004
30
0
41
1
10
12.6958625790333
20
-6.09950617164122
30
0
41
1
10
12.6875903067178
20
-6.08678227518732
30
0
41
1
10
12.6794285314461
20
-6.07738055454166
30
0
41
1
10
12.6478521974516
20
-6.04507565435821
30
0
41
1
10
12.6213747438295
20
-6.02512539972861
30
0
41
1
10
12.5675121928508
20
-5.98778811313272
30
0
41
1
10
12.5396781894172
20
-5.97050382088116
30
0
41
1
10
12.4701256026897
20
-5.92974438972303
30
0
41
1
10
12.4278630987594
20
-5.9071192218027
30
0
41
1
10
12.3224869964184
20
-5.85346972793198
30
0
41
1
10
12.2588026440224
20
-5.8234896944158
30
0
41
1
10
12.1946509277921
20
-5.79463825126174
30
0
0
SPLINE
5
21A
100
AcDbEntity
8
1
62
256
6
ByLayer
370
-1
48
1
60
0
100
AcDbSpline
70
4
71
3
72
8
73
4
40
0
40
0
40
0
40
0
40
1
40
1
40
1
40
1
41
1
10
18.6199037594807
20
-6.61506895534427
30
0
41
1
10
18.5752209888908
20
-6.67403877431244
30
0
41
1
10
18.5315590002877
20
-6.73387259697014
30
0
41
1
10
18.4899283921344
20
-6.79514800324779
30
0
0
SPLINE
5
21B
100
AcDbEntity
8
1
62
256
6
ByLayer
370
-1
48
1
60
0
100
AcDbSpline
70
4
71
3
72
8
73
4
40
0
40
0
40
0
40
0
40
1
40
1
40
1
40
1
41
1
10
18.3644608187576
20
-6.87134345862532
30
0
41
1
10
18.4162059661413
20
-6.76295027759761
30
0
41
1
10
18.4799601413733
20
-6.66049876996496
30
0
41
1
10
18.5467492384691
20
-6.56091267218952
30
0
0
SPLINE
5
21C
100
AcDbEntity
8
1
62
256
6
ByLayer
370
-1
48
1
60
0
100
AcDbSpline
70
4
71
3
72
20
73
16
40
0
40
0
40
0
40
0
40
0.314859192648779
40
0.314859192648779
40
0.531558880441083
40
0.531558880441083
40
0.682135903694834
40
0.682135903694834
40
0.839619845966518
40
0.839619845966518
40
0.903112673776014
40
0.903112673776014
40
0.967902128209805
40
0.967902128209805
40
1
40
1
40
1
40
1
41
1
10
12.2461259785225
20
-5.70895744596331
30
0
41
1
10
12.3091258181484
20
-5.74283137548676
30
0
41
1
10
12.3713363325902
20
-5.77834994836624
30
0
41
1
10
12.4735522526069
20
-5.8428331939883
30
0
41
1
10
12.5145070007458
20
-5.87040962153205
30
0
41
1
10
12.5812630950283
20
-5.9207232637915
30
0
41
1
10
12.6079479806648
20
-5.94240111252742
30
0
41
1
10
12.6592989436375
20
-5.99011972205938
30
0
41
1
10
12.684368544876
20
-6.01643404140063
30
0
41
1
10
12.7123054849101
20
-6.05844889376971
30
0
41
1
10
12.719523127449
20
-6.07128811973621
30
0
41
1
10
12.7303500333373
20
-6.09856313922478
30
0
41
1
10
12.7339827345899
20
-6.11348554653338
30
0
41
1
10
12.7337857317455
20
-6.13572441154719
30
0
41
1
10
12.7327574353828
20
-6.14323219057482
30
0
41
1
10
12.7307167197126
20
-6.15038216525727
30
0
0
SPLINE
5
21D
100
AcDbEntity
8
1
62
256
6
ByLayer
370
-1
48
1
60
0
100
AcDbSpline
70
4
71
3
72
18
73
14
40
0
40
0
40
0
40
0
40
0.0414544517087877
40
0.0414544517087877
40
0.132910922468115
40
0.132910922468115
40
0.263177731540069
40
0.263177731540069
40
0.458562667326571
40
0.458562667326571
40
0.817425847463303
40
0.817425847463303
40
1
40
1
40
1
40
1
41
1
10
12.5583855767422
20
-6.7541719665378
30
0
41
1
10
12.557125635385
20
-6.758586373177
30
0
41
1
10
12.555476740811
20
-6.76290426401715
30
0
41
1
10
12.5491557839249
20
-6.77605689559411
30
0
41
1
10
12.5431126548876
20
-6.78432646995574
30
0
41
1
10
12.5263901352444
20
-6.80175338647413
30
0
41
1
10
12.5146603377018
20
-6.81017143114698
30
0
41
1
10
12.4840419082914
20
-6.82779201698727
30
0
41
1
10
12.4641086271437
20
-6.83562241312927
30
0
41
1
10
12.4069221044712
20
-6.85362059092037
30
0
41
1
10
12.3684571232611
20
-6.86052946271568
30
0
41
1
10
12.3104161874548
20
-6.86792349609729
30
0
41
1
10
12.290738635187
20
-6.86984613215515
30
0
41
1
10
12.2710390582107
20
-6.87134345864948
30
0
0
SPLINE
5
21E
100
AcDbEntity
8
1
62
256
6
ByLayer
370
-1
48
1
60
0
100
AcDbSpline
70
4
71
3
72
10
73
6
40
0
40
0
40
0
40
0
40
0.638746828356559
40
0.638746828356559
40
1
40
1
40
1
40
1
41
1
10
12.1379011833033
20
-6.79514800321891
30
0
41
1
10
12.0157236791305
20
-6.72704633758096
30
0
41
1
10
11.8927330906366
20
-6.65784006690944
30
0
41
1
10
11.7002530358133
20
-6.54881555792088
30
0
41
1
10
11.6306087432776
20
-6.50921513155504
30
0
41
1
10
11.5610318611876
20
-6.46950494655115
30
0
0
SPLINE
5
21F
100
AcDbEntity
8
1
62
256
6
ByLayer
370
-1
48
1
60
0
100
AcDbSpline
70
4
71
3
72
14
73
10
40
0
40
0
40
0
40
0
40
0.249103078948866
40
0.249103078948866
40
0.498160925944217
40
0.498160925944217
40
0.745586162481363
40
0.745586162481363
40
1
40
1
40
1
40
1
41
1
10
14.7185014292196
20
-13.4152229789861
30
0
41
1
10
14.7008685838589
20
-13.4152362057052
30
0
41
1
10
14.6835069512632
20
-13.4152759298516
30
0
41
1
10
14.6500418046866
20
-13.4154057520156
30
0
41
1
10
14.6338218618409
20
-13.4154962843662
30
0
41
1
10
14.6031534243056
20
-13.4157236447202
30
0
41
1
10
14.5885910787466
20
-13.4158609255957
30
0
41
1
10
14.5611071717836
20
-13.4161823217753
30
0
41
1
10
14.5481463929905
20
-13.4163687869506
30
0
41
1
10
14.5364389385078
20
-13.416575010711
30
0
0
SPLINE
5
220
100
AcDbEntity
8
1
62
256
6
ByLayer
370
-1
48
1
60
0
100
AcDbSpline
70
4
71
3
72
14
73
10
40
0
40
0
40
0
40
0
40
0.233926408286268
40
0.233926408286268
40
0.467719442169577
40
0.467719442169577
40
0.701444004412104
40
0.701444004412104
40
1
40
1
40
1
40
1
41
1
10
11.0783736954343
20
-6.52994206959056
30
0
41
1
10
11.083103758819
20
-6.51842389724189
30
0
41
1
10
11.0884810952849
20
-6.50612631461431
30
0
41
1
10
11.1002696840114
20
-6.48053757206387
30
0
41
1
10
11.1067214325401
20
-6.46715746824404
30
0
41
1
10
11.1204513624186
20
-6.43979545330239
30
0
41
1
10
11.1277749983244
20
-6.42572238313241
30
0
41
1
10
11.1451334487026
20
-6.39345170651757
30
0
41
1
10
11.155450165975
20
-6.37501862181173
30
0
41
1
10
11.1660335117076
20
-6.35679324984403
30
0
0
SPLINE
5
221
100
AcDbEntity
8
1
62
256
6
ByLayer
370
-1
48
1
60
0
100
AcDbSpline
70
4
71
3
72
10
73
6
40
0
40
0
40
0
40
0
40
0.736240194588374
40
0.736240194588374
40
1
40
1
40
1
40
1
41
1
10
11.0622363261623
20
-12.7004472417737
30
0
41
1
10
11.0391048101081
20
-12.696575741766
30
0
41
1
10
11.0134036721682
20
-12.6965918433501
30
0
41
1
10
10.9782917262391
20
-12.7058529848712
30
0
41
1
10
10.9688497010485
20
-12.7092549587177
30
0
41
1
10
10.9596597739147
20
-12.7137269798219
30
0
0
SPLINE
5
222
100
AcDbEntity
8
1
62
256
6
ByLayer
370
-1
48
1
60
0
100
AcDbSpline
70
4
71
3
72
14
73
10
40
0
40
0
40
0
40
0
40
0.314392366702113
40
0.314392366702113
40
0.632200716155324
40
0.632200716155324
40
0.912513196202159
40
0.912513196202159
40
1
40
1
40
1
40
1
41
1
10
21.8920973304125
20
-12.361421907704
30
0
41
1
10
21.8977984469901
20
-12.3710449919881
30
0
41
1
10
21.9022637467031
20
-12.3816054309947
30
0
41
1
10
21.907134783156
20
-12.4035148265701
30
0
41
1
10
21.9075021759279
20
-12.4151737050198
30
0
41
1
10
21.9040906735865
20
-12.4361495029514
30
0
41
1
10
21.9007933243537
20
-12.4458212446864
30
0
41
1
10
21.8949364194835
20
-12.4575848887622
30
0
41
1
10
21.8934151651755
20
-12.4603475807591
30
0
41
1
10
21.8917939798961
20
-12.4630471469375
30
0
0
SPLINE
5
223
100
AcDbEntity
8
1
62
256
6
ByLayer
370
-1
48
1
60
0
100
AcDbSpline
70
4
71
3
72
10
73
6
40
0
40
0
40
0
40
0
40
0.388885978133104
40
0.388885978133104
40
1
40
1
40
1
40
1
41
1
10
18.3644608187576
20
-6.87134345862538
30
0
41
1
10
18.3815224951181
20
-6.8613598802734
30
0
41
1
10
18.3983937618763
20
-6.85133857773079
30
0
41
1
10
18.4408221219805
20
-6.82578400565848
30
0
41
1
10
18.4660978266219
20
-6.81022160609567
30
0
41
1
10
18.4899283921469
20
-6.79514800322923
30
0
0
SPLINE
5
224
100
AcDbEntity
8
1
62
256
6
ByLayer
370
-1
48
1
60
0
100
AcDbSpline
70
4
71
3
72
8
73
4
40
0
40
0
40
0
40
0
40
1
40
1
40
1
40
1
41
1
10
15.2972434471147
20
-12.3802018760757
30
0
41
1
10
15.3000851135043
20
-12.3317567534126
30
0
41
1
10
15.3016047127857
20
-12.2801439562147
30
0
41
1
10
15.301757326011
20
-12.2290171089092
30
0
0
SPLINE
5
225
100
AcDbEntity
8
1
62
256
6
ByLayer
370
-1
48
1
60
0
100
AcDbSpline
70
4
71
3
72
22
73
18
40
0
40
0
40
0
40
0
40
0.153101873520348
40
0.153101873520348
40
0.442621285364888
40
0.442621285364888
40
0.70738507443966
40
0.70738507443966
40
0.843532608240133
40
0.843532608240133
40
0.926352665771209
40
0.926352665771209
40
0.963706736955243
40
0.963706736955243
40
0.977863955360644
40
0.977863955360644
40
1
40
1
40
1
40
1
41
1
10
18.489928392147
20
-6.79514800322934
30
0
41
1
10
18.4781180209053
20
-6.81253149408411
30
0
41
1
10
18.4664763684047
20
-6.83003769315494
30
0
41
1
10
18.433465857804
20
-6.88106715503835
30
0
41
1
10
18.4125985297298
20
-6.91497503614201
30
0
41
1
10
18.3755029275846
20
-6.98151321544793
30
0
41
1
10
18.3587865564736
20
-7.01405042393313
30
0
41
1
10
18.3385926706162
20
-7.06545850272479
30
0
41
1
10
18.3325340328274
20
-7.08341457427983
30
0
41
1
10
18.3268143849706
20
-7.11310579266478
30
0
41
1
10
18.3255141777621
20
-7.12473595451874
30
0
41
1
10
18.3271798446854
20
-7.14129530245762
30
0
41
1
10
18.3282478852931
20
-7.14648316967714
30
0
41
1
10
18.3308418202328
20
-7.15317002681189
30
0
41
1
10
18.3316810549948
20
-7.15497665651228
30
0
41
1
10
18.3341492634575
20
-7.1593930649521
30
0
41
1
10
18.3359833352774
20
-7.16191887435252
30
0
41
1
10
18.3380914556756
20
-7.16414222360726
30
0
0
SPLINE
5
226
100
AcDbEntity
8
1
62
256
6
ByLayer
370
-1
48
1
60
0
100
AcDbSpline
70
4
71
3
72
22
73
18
40
0
40
0
40
0
40
0
40
0.0236324717629672
40
0.0236324717629672
40
0.0629814022064453
40
0.0629814022064453
40
0.0762359204463533
40
0.0762359204463533
40
0.134099172814619
40
0.134099172814619
40
0.288877504287542
40
0.288877504287542
40
0.442933094377625
40
0.442933094377625
40
0.668543354429512
40
0.668543354429512
40
1
40
1
40
1
40
1
41
1
10
18.766507717438
20
-7.61597551409864
30
0
41
1
10
18.7699457524359
20
-7.61960147045127
30
0
41
1
10
18.7742275605236
20
-7.62248742735488
30
0
41
1
10
18.7862433964968
20
-7.62781669763081
30
0
41
1
10
18.7946335889957
20
-7.62904419243469
30
0
41
1
10
18.8055617799437
20
-7.62927451204317
30
0
41
1
10
18.8083468925279
20
-7.62920976678188
30
0
41
1
10
18.8231774805223
20
-7.62834814741228
30
0
41
1
10
18.8351347314797
20
-7.62592393303734
30
0
41
1
10
18.8779419379251
20
-7.61451351346832
30
0
41
1
10
18.9077783738954
20
-7.60138126103189
30
0
41
1
10
18.9657172358596
20
-7.57304556225597
30
0
41
1
10
18.9939512899376
20
-7.55739924487796
30
0
41
1
10
19.0624390171051
20
-7.51708820430542
30
0
41
1
10
19.1022358513631
20
-7.49152487624261
30
0
41
1
10
19.1991162542098
20
-7.4264072371827
30
0
41
1
10
19.255590480622
20
-7.38583418492584
30
0
41
1
10
19.3113325293139
20
-7.34429089227558
30
0
0
SPLINE
5
227
100
AcDbEntity
8
1
62
256
6
ByLayer
370
-1
48
1
60
0
100
AcDbSpline
70
4
71
3
72
8
73
4
40
0
40
0
40
0
40
0
40
1
40
1
40
1
40
1
41
1
10
15.3820132562623
20
-12.5856667112272
30
0
41
1
10
15.3553469489837
20
-12.5165071262066
30
0
41
1
10
15.3274257559867
20
-12.4478175544344
30
0
41
1
10
15.2972434471147
20
-12.3802018760757
30
0
0
SPLINE
5
228
100
AcDbEntity
8
1
62
256
6
ByLayer
370
-1
48
1
60
0
100
AcDbSpline
70
4
71
3
72
8
73
4
40
0
40
0
40
0
40
0
40
1
40
1
40
1
40
1
41
1
10
15.301757326011
20
-12.2290171089091
30
0
41
1
10
15.3682085833108
20
-12.3284264113203
30
0
41
1
10
15.4235555466935
20
-12.4354394732922
30
0
41
1
10
15.4749328823946
20
-12.5436958220738
30
0
0
SPLINE
5
229
100
AcDbEntity
8
1
62
256
6
ByLayer
370
-1
48
1
60
0
100
AcDbSpline
70
4
71
3
72
20
73
16
40
0
40
0
40
0
40
0
40
0.314859192648758
40
0.314859192648758
40
0.53155888044108
40
0.53155888044108
40
0.682135903694837
40
0.682135903694837
40
0.83961984596654
40
0.83961984596654
40
0.903112673776023
40
0.903112673776023
40
0.967902128209806
40
0.967902128209806
40
1
40
1
40
1
40
1
41
1
10
19.3685007624709
20
-7.42758074293431
30
0
41
1
10
19.3079409531709
20
-7.46612562837896
30
0
41
1
10
19.2463749934301
20
-7.50315849024068
30
0
41
1
10
19.1399943995627
20
-7.56096000221197
30
0
41
1
10
19.0958867789756
20
-7.58325384589764
30
0
41
1
10
19.0194158699514
20
-7.61692472913532
30
0
41
1
10
18.9875121345426
20
-7.62960552811845
30
0
41
1
10
18.9209977920736
20
-7.65102207283522
30
0
41
1
10
18.8859510178996
20
-7.65997655781763
30
0
41
1
10
18.836070456993
20
-7.66364310639642
30
0
41
1
10
18.8214908024017
20
-7.66360334163983
30
0
41
1
10
18.7927832773574
20
-7.65955703196431
30
0
41
1
10
18.7782285437276
20
-7.65532906520571
30
0
41
1
10
18.7593577577477
20
-7.64409478435479
30
0
41
1
10
18.753470451499
20
-7.63945646446049
30
0
41
1
10
18.7483972200223
20
-7.6341059325689
30
0
0
SPLINE
5
22A
100
AcDbEntity
8
1
62
256
6
ByLayer
370
-1
48
1
60
0
100
AcDbSpline
70
4
71
3
72
18
73
14
40
0
40
0
40
0
40
0
40
0.0414544517087738
40
0.0414544517087738
40
0.132910922468114
40
0.132910922468114
40
0.263177731540039
40
0.263177731540039
40
0.458562667326539
40
0.458562667326539
40
0.817425847463281
40
0.817425847463281
40
1
40
1
40
1
40
1
41
1
10
18.3199809582651
20
-7.18227264206948
30
0
41
1
10
18.3168487364451
20
-7.17896921449727
30
0
41
1
10
18.3139943402734
20
-7.17537180231727
30
0
41
1
10
18.3059521826709
20
-7.16327227140667
30
0
41
1
10
18.3019356413178
20
-7.15384573479878
30
0
41
1
10
18.2954755895609
20
-7.13047464993073
30
0
41
1
10
18.294190661994
20
-7.11597423416137
30
0
41
1
10
18.2945498355201
20
-7.08028876999924
30
0
41
1
10
18.29788944596
20
-7.05886767936587
30
0
41
1
10
18.3112803091129
20
-6.99963427224651
30
0
41
1
10
18.3247204697767
20
-6.96237742885549
30
0
41
1
10
18.347586142223
20
-6.9076670153062
30
0
41
1
10
18.3558365503676
20
-6.889409150369
30
0
41
1
10
18.3644608187356
20
-6.87134345861597
30
0
0
SPLINE
5
22B
100
AcDbEntity
8
1
62
256
6
ByLayer
370
-1
48
1
60
0
100
AcDbSpline
70
4
71
3
72
10
73
6
40
0
40
0
40
0
40
0
40
0.638746828356573
40
0.638746828356573
40
1
40
1
40
1
40
1
41
1
10
18.4899283921488
20
-6.79514800324526
30
0
41
1
10
18.5975935084275
20
-6.72704633760733
30
0
41
1
10
18.7086483266574
20
-6.65784006690944
30
0
41
1
10
18.8853906097323
20
-6.54881555792085
30
0
41
1
10
18.9499664896553
20
-6.50921513155501
30
0
41
1
10
19.0150875950261
20
-6.46950494655115
30
0
0
SPLINE
5
22C
100
AcDbEntity
8
1
62
256
6
ByLayer
370
-1
48
1
60
0
100
AcDbSpline
70
4
71
3
72
12
73
8
40
0
40
0
40
0
40
0
40
0.197891272102657
40
0.197891272102657
40
0.598376100017382
40
0.598376100017382
40
1
40
1
40
1
40
1
41
1
10
15.2972434471235
20
-12.3802018760939
30
0
41
1
10
15.2948068805631
20
-12.4217408006915
30
0
41
1
10
15.2924979785404
20
-12.4635333496609
30
0
41
1
10
15.2858518359842
20
-12.5904713747161
30
0
41
1
10
15.2818516504565
20
-12.6762388221281
30
0
41
1
10
15.2746068477848
20
-12.8490045924211
30
0
41
1
10
15.2713635505205
20
-12.9360744914752
30
0
41
1
10
15.2684960364114
20
-13.0235232899866
30
0
0
SPLINE
5
22D
100
AcDbEntity
8
1
62
256
6
ByLayer
370
-1
48
1
60
0
100
AcDbSpline
70
4
71
3
72
14
73
10
40
0
40
0
40
0
40
0
40
0.249103078948785
40
0.249103078948785
40
0.498160925944182
40
0.498160925944182
40
0.745586162481424
40
0.745586162481424
40
1
40
1
40
1
40
1
41
1
10
11.4913075141103
20
-5.79664527443308
30
0
41
1
10
11.5003709859366
20
-5.78103724748905
30
0
41
1
10
11.5097003483002
20
-5.76545883225484
30
0
41
1
10
11.5284913448337
20
-5.73501116085444
30
0
41
1
10
11.5380180918264
20
-5.7200361105582
30
0
41
1
10
11.5568839416418
20
-5.69127866142313
30
0
41
1
10
11.5662871429303
20
-5.67739258904524
30
0
41
1
10
11.5849797544408
20
-5.6506939620771
30
0
41
1
10
11.5943245453636
20
-5.63782840362722
30
0
41
1
10
11.6033393034514
20
-5.62590909948213
30
0
0
SPLINE
5
22E
100
AcDbEntity
8
1
62
256
6
ByLayer
370
-1
48
1
60
0
100
AcDbSpline
70
4
71
3
72
14
73
10
40
0
40
0
40
0
40
0
40
0.233926408286286
40
0.233926408286286
40
0.467719442169543
40
0.467719442169543
40
0.701444004412136
40
0.701444004412136
40
1
40
1
40
1
40
1
41
1
10
19.2034797209074
20
-6.01628619538647
30
0
41
1
10
19.2081420581464
20
-6.02745691059559
30
0
41
1
10
19.2134469025687
20
-6.03944483556282
30
0
41
1
10
19.2250843149529
20
-6.06450157118513
30
0
41
1
10
19.2314568539773
20
-6.0776573866512
30
0
41
1
10
19.2450245022396
20
-6.10466121974392
30
0
41
1
10
19.2522645255384
20
-6.1185991491453
30
0
41
1
10
19.2694309296225
20
-6.1506657640106
30
0
41
1
10
19.2796377250209
20
-6.16905752754948
30
0
41
1
10
19.2901121733732
20
-6.18731378899159
30
0
0
SPLINE
5
22F
100
AcDbEntity
8
1
62
256
6
ByLayer
370
-1
48
1
60
0
100
AcDbSpline
70
4
71
3
72
10
73
6
40
0
40
0
40
0
40
0
40
0.736240194588502
40
0.736240194588502
40
1
40
1
40
1
40
1
41
1
10
13.8889605083818
20
-2.96029644387554
30
0
41
1
10
13.896853215546
20
-2.94512448493191
30
0
41
1
10
13.9028644750704
20
-2.92569364658039
30
0
41
1
10
13.9044000247864
20
-2.89399795624817
30
0
41
1
10
13.9041489898478
20
-2.88496890649432
30
0
41
1
10
13.9030183547821
20
-2.87555566460313
30
0
0
SPLINE
5
230
100
AcDbEntity
8
1
62
256
6
ByLayer
370
-1
48
1
60
0
100
AcDbSpline
70
4
71
3
72
8
73
4
40
0
40
0
40
0
40
0
40
1
40
1
40
1
40
1
41
1
10
8.39437887614093
20
-13.5130448278167
30
0
41
1
10
8.3945478268528
20
-13.5173113259319
30
0
41
1
10
8.39471677625465
20
-13.5215779153035
30
0
41
1
10
8.3948857244082
20
-13.5258445916275
30
0
0
SPLINE
5
231
100
AcDbEntity
8
1
62
256
6
ByLayer
370
-1
48
1
60
0
100
AcDbSpline
70
4
71
3
72
10
73
6
40
0
40
0
40
0
40
0
40
0.870848930807026
40
0.870848930807026
40
1
40
1
40
1
40
1
41
1
10
7.75355832262056
20
-13.5073775060402
30
0
41
1
10
7.75809867427813
20
-13.4996120034894
30
0
41
1
10
7.76038932388576
20
-13.4918093037486
30
0
41
1
10
7.76097824141226
20
-13.4833319045742
30
0
41
1
10
7.76101650420989
20
-13.4822478395727
30
0
41
1
10
7.76101875815951
20
-13.4811702645101
30
0
0
SPLINE
5
232
100
AcDbEntity
8
1
62
256
6
ByLayer
370
-1
48
1
60
0
100
AcDbSpline
70
4
71
3
72
8
73
4
40
0
40
0
40
0
40
0
40
1
40
1
40
1
40
1
41
1
10
7.74611584881325
20
-13.5201069672276
30
0
41
1
10
7.74859665420067
20
-13.5158637249303
30
0
41
1
10
7.75107747849185
20
-13.5116205697636
30
0
41
1
10
7.75355832262053
20
-13.5073775060402
30
0
0
SPLINE
5
233
100
AcDbEntity
8
1
62
256
6
ByLayer
370
-1
48
1
60
0
100
AcDbSpline
70
4
71
3
72
24
73
20
40
0
40
0
40
0
40
0
40
0.10400044820189
40
0.10400044820189
40
0.192499055461202
40
0.192499055461202
40
0.328500518747122
40
0.328500518747122
40
0.438682575665924
40
0.438682575665924
40
0.54853315817259
40
0.54853315817259
40
0.658237202770878
40
0.658237202770878
40
0.76787067366227
40
0.76787067366227
40
0.988088331636081
40
0.988088331636081
40
1
40
1
40
1
40
1
41
1
10
8.39488572440811
20
-13.5258445916275
30
0
41
1
10
8.39393414981285
20
-13.5336519632105
30
0
41
1
10
8.39002483820107
20
-13.5413904368347
30
0
41
1
10
8.37812227815607
20
-13.5541105934712
30
0
41
1
10
8.37073014667681
20
-13.5594938518799
30
0
41
1
10
8.34925574351922
20
-13.5714227980467
30
0
41
1
10
8.33343276545077
20
-13.5773053318745
30
0
41
1
10
8.30316539833962
20
-13.5859844113504
30
0
41
1
10
8.28878553080261
20
-13.58922635223
30
0
41
1
10
8.25947825802422
20
-13.5947186713012
30
0
41
1
10
8.24445760648203
20
-13.5969875291649
30
0
41
1
10
8.21417239378235
20
-13.6008025662747
30
0
41
1
10
8.19885224634243
20
-13.6023550608819
30
0
41
1
10
8.16813927820002
20
-13.6048972653376
30
0
41
1
10
8.15270922737838
20
-13.6058894939308
30
0
41
1
10
8.10640728112031
20
-13.60816793558
30
0
41
1
10
8.07543901225469
20
-13.6087688225998
30
0
41
1
10
8.04327957145858
20
-13.6085764432046
30
0
41
1
10
8.04162626511243
20
-13.6085641883591
30
0
41
1
10
8.03997410084696
20
-13.6085495768638
30
0
0
SPLINE
5
234
100
AcDbEntity
8
1
62
256
6
ByLayer
370
-1
48
1
60
0
100
AcDbSpline
70
4
71
3
72
22
73
18
40
0
40
0
40
0
40
0
40
0.208266363444488
40
0.208266363444488
40
0.317899168106999
40
0.317899168106999
40
0.427584739863201
40
0.427584739863201
40
0.537377253734117
40
0.537377253734117
40
0.64740222873195
40
0.64740222873195
40
0.811583680502871
40
0.811583680502871
40
0.906636022131871
40
0.906636022131871
40
1
40
1
40
1
40
1
41
1
10
8.03997410084696
20
-13.6085495768638
30
0
41
1
10
8.01116503300042
20
-13.6082947937476
30
0
41
1
10
7.98261378616129
20
-13.6073365982132
30
0
41
1
10
7.94014665654348
20
-13.6046623592952
30
0
41
1
10
7.92565661522406
20
-13.6035135420749
30
0
41
1
10
7.89723577626725
20
-13.6006886663792
30
0
41
1
10
7.88327282337355
20
-13.5990099685076
30
0
41
1
10
7.85615381557488
20
-13.5949925345457
30
0
41
1
10
7.84295273741861
20
-13.5926479503876
30
0
41
1
10
7.81778134101631
20
-13.5870856077739
30
0
41
1
10
7.80574133802727
20
-13.5838524746576
30
0
41
1
10
7.77846106581822
20
-13.574371351838
30
0
41
1
10
7.76400140289707
20
-13.567240899503
30
0
41
1
10
7.7490156754416
20
-13.5530158508256
30
0
41
1
10
7.7451433021904
20
-13.5470108856898
30
0
41
1
10
7.74220490968381
20
-13.5341474214898
30
0
41
1
10
7.74305554018554
20
-13.5271380951229
30
0
41
1
10
7.74611584881299
20
-13.5201069672299
30
0
0
SPLINE
5
235
100
AcDbEntity
8
1
62
256
6
ByLayer
370
-1
48
1
60
0
100
AcDbSpline
70
4
71
3
72
10
73
6
40
0
40
0
40
0
40
0
40
0.771870081641506
40
0.771870081641506
40
1
40
1
40
1
40
1
41
1
10
9.00532091278083
20
-13.5013120310626
30
0
41
1
10
8.99755393889484
20
-13.4936468619219
30
0
41
1
10
8.98778153568992
20
-13.4860719533664
30
0
41
1
10
8.97390500005903
20
-13.4769124318644
30
0
41
1
10
8.97065541816178
20
-13.4748623424658
30
0
41
1
10
8.96732333372267
20
-13.4728461919843
30
0
0
SPLINE
5
236
100
AcDbEntity
8
1
62
256
6
ByLayer
370
-1
48
1
60
0
100
AcDbSpline
70
4
71
3
72
12
73
8
40
0
40
0
40
0
40
0
40
0.120685773105723
40
0.120685773105723
40
0.824973064444466
40
0.824973064444466
40
1
40
1
40
1
40
1
41
1
10
8.42123307542894
20
-13.4643751519176
30
0
41
1
10
8.41926803092605
20
-13.4661110660551
30
0
41
1
10
8.41738229837131
20
-13.4678776937243
30
0
41
1
10
8.40520665188342
20
-13.4800384185362
30
0
41
1
10
8.39749027084559
20
-13.4917038015946
30
0
41
1
10
8.39451728901926
20
-13.5068437600709
30
0
41
1
10
8.3942560175856
20
-13.5099422910506
30
0
41
1
10
8.39437887614096
20
-13.5130448278166
30
0
0
SPLINE
5
237
100
AcDbEntity
8
1
62
256
6
ByLayer
370
-1
48
1
60
0
100
AcDbSpline
70
4
71
3
72
8
73
4
40
0
40
0
40
0
40
0
40
1
40
1
40
1
40
1
41
1
10
9.01805241585853
20
-13.5138770272823
30
0
41
1
10
9.01380861426881
20
-13.5096886062171
30
0
41
1
10
9.00956478044034
20
-13.5055002726995
30
0
41
1
10
9.0053209127808
20
-13.5013120310627
30
0
0
SPLINE
5
238
100
AcDbEntity
8
1
62
256
6
ByLayer
370
-1
48
1
60
0
100
AcDbSpline
70
4
71
3
72
20
73
16
40
0
40
0
40
0
40
0
40
0.0608143493749911
40
0.0608143493749911
40
0.214919318482389
40
0.214919318482389
40
0.368560674407371
40
0.368560674407371
40
0.521997076635951
40
0.521997076635951
40
0.675334771695391
40
0.675334771695391
40
0.983339870964391
40
0.983339870964391
40
1
40
1
40
1
40
1
41
1
10
9.48403500022337
20
-13.539424253717
30
0
41
1
10
9.48405863251145
20
-13.5413357145598
30
0
41
1
10
9.48382178957837
20
-13.5431394366326
30
0
41
1
10
9.4821852162126
20
-13.549177625556
30
0
41
1
10
9.47955834208537
20
-13.5529257468131
30
0
41
1
10
9.47228401302525
20
-13.5595078302393
30
0
41
1
10
9.46761730015263
20
-13.5623636216992
30
0
41
1
10
9.45676639429431
20
-13.5674056944701
30
0
41
1
10
9.45056250482193
20
-13.5696005366159
30
0
41
1
10
9.43693802514986
20
-13.5734664207983
30
0
41
1
10
9.4295007019999
20
-13.5751415927107
30
0
41
1
10
9.40560979680828
20
-13.5795170081679
30
0
41
1
10
9.38753808169545
20
-13.5815837656651
30
0
41
1
10
9.36677219030062
20
-13.5829741526949
30
0
41
1
10
9.36569890829344
20
-13.5830434403281
30
0
41
1
10
9.36462065114659
20
-13.5831104880245
30
0
0
SPLINE
5
239
100
AcDbEntity
8
1
62
256
6
ByLayer
370
-1
48
1
60
0
100
AcDbSpline
70
4
71
3
72
22
73
18
40
0
40
0
40
0
40
0
40
0.20826636344219
40
0.20826636344219
40
0.317899168105004
40
0.317899168105004
40
0.427584739861482
40
0.427584739861482
40
0.537377253732686
40
0.537377253732686
40
0.647402228730803
40
0.647402228730803
40
0.811583680502106
40
0.811583680502106
40
0.906636022131359
40
0.906636022131359
40
1
40
1
40
1
40
1
41
1
10
9.36462065114659
20
-13.5831104880245
30
0
41
1
10
9.34581889883799
20
-13.5842796100513
30
0
41
1
10
9.32546004228223
20
-13.5847848041695
30
0
41
1
10
9.2923054991239
20
-13.5843741698797
30
0
41
1
10
9.28045261086442
20
-13.5840140647797
30
0
41
1
10
9.25598624652119
20
-13.5827730424244
30
0
41
1
10
9.24334541803267
20
-13.5818912677959
30
0
41
1
10
9.21730999385292
20
-13.5794665537007
30
0
41
1
10
9.20387238772531
20
-13.5779204039565
30
0
41
1
10
9.17628708016201
20
-13.5739399033076
30
0
41
1
10
9.16206097412459
20
-13.5714946186106
30
0
41
1
10
9.12624759604836
20
-13.563906954887
30
0
41
1
10
9.10374746384545
20
-13.5578865794753
30
0
41
1
10
9.06994635434268
20
-13.545129252854
30
0
41
1
10
9.05765089116633
20
-13.5396113333949
30
0
41
1
10
9.03582072036411
20
-13.5274957726188
30
0
41
1
10
9.0259950705277
20
-13.5207585829584
30
0
41
1
10
9.01805241585916
20
-13.5138770272846
30
0
0
SPLINE
5
23A
100
AcDbEntity
8
1
62
256
6
ByLayer
370
-1
48
1
60
0
100
AcDbSpline
70
4
71
3
72
24
73
20
40
0
40
0
40
0
40
0
40
0.104000448201567
40
0.104000448201567
40
0.192499055460771
40
0.192499055460771
40
0.328500518746269
40
0.328500518746269
40
0.438682575664824
40
0.438682575664824
40
0.548533158171184
40
0.548533158171184
40
0.658237202769216
40
0.658237202769216
40
0.767870673660306
40
0.767870673660306
40
0.988088331633573
40
0.988088331633573
40
1
40
1
40
1
40
1
41
1
10
7.23805744678117
20
-13.4981350162076
30
0
41
1
10
7.22672227398346
20
-13.5055771769357
30
0
41
1
10
7.21380015455912
20
-13.5128138120927
30
0
41
1
10
7.1895666579224
20
-13.5244544742478
30
0
41
1
10
7.17803001462204
20
-13.5292715869843
30
0
41
1
10
7.14984913724834
20
-13.5397141450246
30
0
41
1
10
7.13327756274543
20
-13.5446259001059
30
0
41
1
10
7.10562985748683
20
-13.5515682403226
30
0
41
1
10
7.09387777173285
20
-13.554026113934
30
0
41
1
10
7.07184637169925
20
-13.5579774282772
30
0
41
1
10
7.06149307420637
20
-13.5594843303925
30
0
41
1
10
7.04205985401018
20
-13.5618058588425
30
0
41
1
10
7.03294404329125
20
-13.5626240528059
30
0
41
1
10
7.0158562986399
20
-13.5637293989102
30
0
41
1
10
7.00786386827184
20
-13.5640173344976
30
0
41
1
10
6.9854535341706
20
-13.5642290364381
30
0
41
1
10
6.97255720902501
20
-13.5635097088379
30
0
41
1
10
6.9611636837235
20
-13.5620056442679
30
0
41
1
10
6.96058366000386
20
-13.5619261256554
30
0
41
1
10
6.9600097528849
20
-13.5618444664637
30
0
0
SPLINE
5
23B
100
AcDbEntity
8
1
62
256
6
ByLayer
370
-1
48
1
60
0
100
AcDbSpline
70
4
71
3
72
14
73
10
40
0
40
0
40
0
40
0
40
0.447431724207974
40
0.447431724207974
40
0.68296277208924
40
0.68296277208924
40
0.918607182835773
40
0.918607182835773
40
1
40
1
40
1
40
1
41
1
10
6.9600097528849
20
-13.5618444664637
30
0
41
1
10
6.95000243734737
20
-13.5604205613207
30
0
41
1
10
6.94180986263513
20
-13.558354896848
30
0
41
1
10
6.93249667210895
20
-13.5541186421153
30
0
41
1
10
6.92985925048018
20
-13.5524528877848
30
0
41
1
10
6.92590409642136
20
-13.5486502283481
30
0
41
1
10
6.92458156053553
20
-13.5465095678255
30
0
41
1
10
6.92385223741562
20
-13.5432343505464
30
0
41
1
10
6.92375774007786
20
-13.5423578957272
30
0
41
1
10
6.92376378234133
20
-13.541442036204
30
0
0
SPLINE
5
23C
100
AcDbEntity
8
1
62
256
6
ByLayer
370
-1
48
1
60
0
100
AcDbSpline
70
4
71
3
72
8
73
4
40
0
40
0
40
0
40
0
40
1
40
1
40
1
40
1
41
1
10
15.7158564952446
20
-10.1180460559406
30
0
41
1
10
15.7178764599648
20
-10.1247846505761
30
0
41
1
10
15.7198964286896
20
-10.1315232089651
30
0
41
1
10
15.7219164012598
20
-10.1382617325426
30
0
0
SPLINE
5
23D
100
AcDbEntity
8
1
62
256
6
ByLayer
370
-1
48
1
60
0
100
AcDbSpline
70
4
71
3
72
34
73
30
40
0
40
0
40
0
40
0
40
0.0514465755209349
40
0.0514465755209349
40
0.135786144735402
40
0.135786144735402
40
0.203131635218858
40
0.203131635218858
40
0.270315608875092
40
0.270315608875092
40
0.337431278535921
40
0.337431278535921
40
0.404515897625517
40
0.404515897625517
40
0.499929883689874
40
0.499929883689874
40
0.599210771748066
40
0.599210771748066
40
0.697083019894114
40
0.697083019894114
40
0.780957226922653
40
0.780957226922653
40
0.847546414393152
40
0.847546414393152
40
0.898875235580283
40
0.898875235580283
40
0.980803570703485
40
0.980803570703485
40
1
40
1
40
1
40
1
41
1
10
14.9490592102333
20
-10.1180460559406
30
0
41
1
10
14.950480082364
20
-10.1043762399197
30
0
41
1
10
14.9492921644293
20
-10.0900199901244
30
0
41
1
10
14.9413347392782
20
-10.052940666138
30
0
41
1
10
14.9315211027542
20
-10.0299998183797
30
0
41
1
10
14.909514585956
20
-9.99094945387424
30
0
41
1
10
14.8980032519884
20
-9.97408579271971
30
0
41
1
10
14.8729011948654
20
-9.94177430066713
30
0
41
1
10
14.8592278409184
20
-9.92621939867774
30
0
41
1
10
14.8304032614238
20
-9.89644008098725
30
0
41
1
10
14.8151878765259
20
-9.88215064546296
30
0
41
1
10
14.7836695201295
20
-9.85488272979282
30
0
41
1
10
14.7673114562693
20
-9.84185740555438
30
0
41
1
10
14.7267469572885
20
-9.81195453598005
30
0
41
1
10
14.7020093730223
20
-9.795668035635
30
0
41
1
10
14.6505872656838
20
-9.76546947221692
30
0
41
1
10
14.6236995344564
20
-9.7515822771241
30
0
41
1
10
14.5699139418992
20
-9.7276712811732
30
0
41
1
10
14.5428421318815
20
-9.71751110376505
30
0
41
1
10
14.4927459511324
20
-9.70269946700563
30
0
41
1
10
14.4695436327667
20
-9.69742066112505
30
0
41
1
10
14.4285107680569
20
-9.69164110814739
30
0
41
1
10
14.410445777432
20
-9.69036533932726
30
0
41
1
10
14.3792772079867
20
-9.69112290699911
30
0
41
1
10
14.3659055677178
20
-9.69247055406001
30
0
41
1
10
14.3327765994238
20
-9.69932269965884
30
0
41
1
10
14.3132285210905
20
-9.7069635794328
30
0
41
1
10
14.2936276302186
20
-9.72231839223417
30
0
41
1
10
14.2900468054316
20
-9.72556034134115
30
0
41
1
10
14.286728010273
20
-9.72908006872322
30
0
0
SPLINE
5
23E
100
AcDbEntity
8
1
62
256
6
ByLayer
370
-1
48
1
60
0
100
AcDbSpline
70
4
71
3
72
8
73
4
40
0
40
0
40
0
40
0
40
1
40
1
40
1
40
1
41
1
10
14.9469579922809
20
-10.1382617325426
30
0
41
1
10
14.9476583794727
20
-10.1315232089651
30
0
41
1
10
14.9483587852019
20
-10.1247846505761
30
0
41
1
10
14.9490592102334
20
-10.1180460559407
30
0
0
SPLINE
5
23F
100
AcDbEntity
8
1
62
256
6
ByLayer
370
-1
48
1
60
0
100
AcDbSpline
70
4
71
3
72
22
73
18
40
0
40
0
40
0
40
0
40
0.097371265984674
40
0.097371265984674
40
0.180296832630706
40
0.180296832630706
40
0.307445080802976
40
0.307445080802976
40
0.411978418514778
40
0.411978418514778
40
0.51618521001095
40
0.51618521001095
40
0.620250145291716
40
0.620250145291716
40
0.829289859625792
40
0.829289859625792
40
1
40
1
40
1
40
1
41
1
10
15.7219164012597
20
-10.1382617325426
30
0
41
1
10
15.7248484599034
20
-10.1522595282211
30
0
41
1
10
15.7246365202592
20
-10.1670054310931
30
0
41
1
10
15.7184415218789
20
-10.1927145798444
30
0
41
1
10
15.713300164289
20
-10.2042189976815
30
0
41
1
10
15.6964554534925
20
-10.2308101419328
30
0
41
1
10
15.6825531591424
20
-10.2450638753674
30
0
41
1
10
15.6544018499733
20
-10.2673762712491
30
0
41
1
10
15.6404268379573
20
-10.2762778101896
30
0
41
1
10
15.6113063365767
20
-10.2919753345737
30
0
41
1
10
15.5960695382995
20
-10.298825777549
30
0
41
1
10
15.5648874635408
20
-10.3108329121864
30
0
41
1
10
15.5488868597353
20
-10.3160108225828
30
0
41
1
10
15.500136679915
20
-10.3294095060555
30
0
41
1
10
15.4665383675281
20
-10.3355362052282
30
0
41
1
10
15.4050162025706
20
-10.3423811265732
30
0
41
1
10
15.377045835453
20
-10.3438867617962
30
0
41
1
10
15.3490499236475
20
-10.3438867617961
30
0
0
SPLINE
5
240
100
AcDbEntity
8
1
62
256
6
ByLayer
370
-1
48
1
60
0
100
AcDbSpline
70
4
71
3
72
24
73
20
40
0
40
0
40
0
40
0
40
0.0380198325516677
40
0.0380198325516677
40
0.24683465467482
40
0.24683465467482
40
0.404726505663213
40
0.404726505663213
40
0.52615063796273
40
0.52615063796273
40
0.621531995503585
40
0.621531995503585
40
0.776890538332059
40
0.776890538332059
40
0.873684213897986
40
0.873684213897986
40
0.971746172255062
40
0.971746172255062
40
1
40
1
40
1
40
1
41
1
10
15.3490499236475
20
-10.3438867617961
30
0
41
1
10
15.3428077937843
20
-10.3438867617961
30
0
41
1
10
15.3365615286185
20
-10.3438114918364
30
0
41
1
10
15.296057539929
20
-10.3428344716644
30
0
41
1
10
15.2616540873292
20
-10.3397584195353
30
0
41
1
10
15.2018699997663
20
-10.3300340502369
30
0
41
1
10
15.1762243360378
20
-10.3244181057979
30
0
41
1
10
15.1316750736699
20
-10.3115269631482
30
0
41
1
10
15.1125099834242
20
-10.3049117761765
30
0
41
1
10
15.0792017804244
20
-10.2909609300026
30
0
41
1
10
15.064808323883
20
-10.2840592203619
30
0
41
1
10
15.0285726045119
20
-10.263693291337
30
0
41
1
10
15.0071274807285
20
-10.2485335687664
30
0
41
1
10
14.9782549622124
20
-10.2192874274186
30
0
41
1
10
14.9684310335983
20
-10.2066741127622
30
0
41
1
10
14.953847548816
20
-10.1797865212138
30
0
41
1
10
14.949034542794
20
-10.1650870724582
30
0
41
1
10
14.9470645307622
20
-10.1465920902573
30
0
41
1
10
14.9468825408116
20
-10.1424033129019
30
0
41
1
10
14.9469579922809
20
-10.1382617325426
30
0
0
SPLINE
5
241
100
AcDbEntity
8
1
62
256
6
ByLayer
370
-1
48
1
60
0
100
AcDbSpline
70
4
71
3
72
8
73
4
40
0
40
0
40
0
40
0
40
1
40
1
40
1
40
1
41
1
10
16.7662808545581
20
-9.05488668182676
30
0
41
1
10
16.7733211842621
20
-9.05709657409645
30
0
41
1
10
16.7803614897393
20
-9.05930645558627
30
0
41
1
10
16.7874017719481
20
-9.06151632672291
30
0
0
SPLINE
5
242
100
AcDbEntity
8
1
62
256
6
ByLayer
370
-1
48
1
60
0
100
AcDbSpline
70
4
71
3
72
34
73
30
40
0
40
0
40
0
40
0
40
0.0514465755209243
40
0.0514465755209243
40
0.135786144735362
40
0.135786144735362
40
0.203131635218818
40
0.203131635218818
40
0.270315608875043
40
0.270315608875043
40
0.337431278535851
40
0.337431278535851
40
0.404515897625457
40
0.404515897625457
40
0.499929883689847
40
0.499929883689847
40
0.599210771748075
40
0.599210771748075
40
0.697083019894139
40
0.697083019894139
40
0.780957226922653
40
0.780957226922653
40
0.847546414393166
40
0.847546414393166
40
0.898875235580271
40
0.898875235580271
40
0.980803570703478
40
0.980803570703478
40
1
40
1
40
1
40
1
41
1
10
16.3807026397528
20
-9.72908006872345
30
0
41
1
10
16.3691956861592
20
-9.71974502821564
30
0
41
1
10
16.3557921892741
20
-9.71236432496872
30
0
41
1
10
16.3187724929043
20
-9.6977322519997
30
0
41
1
10
16.293467417554
20
-9.69311261328897
30
0
41
1
10
16.2478132042179
20
-9.69010906759044
30
0
41
1
10
16.2271206456916
20
-9.69065249006084
30
0
41
1
10
16.1860060819307
20
-9.69452086459518
30
0
41
1
10
16.1654480167476
20
-9.69785793373472
30
0
41
1
10
16.1248293234812
20
-9.70673589435995
30
0
41
1
10
16.1046793669122
20
-9.71229718503676
30
0
41
1
10
16.0650565880493
20
-9.72527097046171
30
0
41
1
10
16.0455152190772
20
-9.73270658047042
30
0
41
1
10
15.9992429021367
20
-9.75266199213993
30
0
41
1
10
15.9728025171541
20
-9.76606562682076
30
0
41
1
10
15.9211851544077
20
-9.79626419023873
30
0
41
1
10
15.8959361735865
20
-9.81327077109347
30
0
41
1
10
15.8489563264994
20
-9.84973713067168
30
0
41
1
10
15.8270197553328
20
-9.86927767211716
30
0
41
1
10
15.7900342967603
20
-9.90789160465846
30
0
41
1
10
15.7743342486653
20
-9.92674852273967
30
0
41
1
10
15.7497557533908
20
-9.96221744338445
30
0
41
1
10
15.7400718618246
20
-9.97858944942948
30
0
41
1
10
15.7259975116996
20
-10.008560878877
30
0
41
1
10
15.7208697730947
20
-10.022014667165
30
0
41
1
10
15.7112804591619
20
-10.057365276559
30
0
41
1
10
15.7088117813214
20
-10.0802904085168
30
0
41
1
10
15.7131355300095
20
-10.1076462747991
30
0
41
1
10
15.714311490057
20
-10.1128919245025
30
0
41
1
10
15.7158564952445
20
-10.1180460559406
30
0
0
SPLINE
5
243
100
AcDbEntity
8
1
62
256
6
ByLayer
370
-1
48
1
60
0
100
AcDbSpline
70
4
71
3
72
8
73
4
40
0
40
0
40
0
40
0
40
1
40
1
40
1
40
1
41
1
10
16.3977197976855
20
-9.74288524216692
30
0
41
1
10
16.3920474278064
20
-9.73828354127642
30
0
41
1
10
16.3863750420469
20
-9.73368181711501
30
0
41
1
10
16.3807026397528
20
-9.72908006872339
30
0
0
SPLINE
5
244
100
AcDbEntity
8
1
62
256
6
ByLayer
370
-1
48
1
60
0
100
AcDbSpline
70
4
71
3
72
22
73
18
40
0
40
0
40
0
40
0
40
0.0973712659846206
40
0.0973712659846206
40
0.180296832630666
40
0.180296832630666
40
0.307445080802998
40
0.307445080802998
40
0.41197841851486
40
0.41197841851486
40
0.516185210011072
40
0.516185210011072
40
0.620250145291897
40
0.620250145291897
40
0.829289859626062
40
0.829289859626062
40
1
40
1
40
1
40
1
41
1
10
16.7874017719481
20
-9.06151632672297
30
0
41
1
10
16.8013778189929
20
-9.06718828924022
30
0
41
1
10
16.8144070294933
20
-9.0759871580899
30
0
41
1
10
16.8341397552677
20
-9.096325297004
30
0
41
1
10
16.8417567896245
20
-9.10745944333564
30
0
41
1
10
16.8568304016713
20
-9.13747003893585
30
0
41
1
10
16.8624236947993
20
-9.15775763892987
30
0
41
1
10
16.8679358758147
20
-9.19506208189034
30
0
41
1
10
16.8687417442697
20
-9.21232652904095
30
0
41
1
10
16.8678984507329
20
-9.2466758887131
30
0
41
1
10
16.8662511781147
20
-9.26387126142524
30
0
41
1
10
16.8611056154453
20
-9.29792797106879
30
0
41
1
10
16.8575980551663
20
-9.3148495390156
30
0
41
1
10
16.8448216333474
20
-9.36508156122872
30
0
41
1
10
16.8332850743729
20
-9.39797154179755
30
0
41
1
10
16.8083345500216
20
-9.45580390528895
30
0
41
1
10
16.7955855762074
20
-9.48121705940861
30
0
41
1
10
16.7815080437138
20
-9.50583198563263
30
0
0
SPLINE
5
245
100
AcDbEntity
8
1
62
256
6
ByLayer
370
-1
48
1
60
0
100
AcDbSpline
70
4
71
3
72
24
73
20
40
0
40
0
40
0
40
0
40
0.0380198325520219
40
0.0380198325520219
40
0.246834654675025
40
0.246834654675025
40
0.404726505663408
40
0.404726505663408
40
0.526150637962897
40
0.526150637962897
40
0.621531995503717
40
0.621531995503717
40
0.776890538332074
40
0.776890538332074
40
0.873684213897889
40
0.873684213897889
40
0.971746172254845
40
0.971746172254845
40
1
40
1
40
1
40
1
41
1
10
16.7815080437138
20
-9.50583198563263
30
0
41
1
10
16.7783692359268
20
-9.51132027146286
30
0
41
1
10
16.7751625592127
20
-9.51677113269722
30
0
41
1
10
16.7539414456015
20
-9.55185053488822
30
0
41
1
10
16.7339538688401
20
-9.58042244180493
30
0
41
1
10
16.6953844938602
20
-9.62766381234889
30
0
41
1
10
16.677573873242
20
-9.64713430314399
30
0
41
1
10
16.6438763670361
20
-9.67920505136794
30
0
41
1
10
16.6284388981962
20
-9.69240452027191
30
0
41
1
10
16.5994415316012
20
-9.71395362421686
30
0
41
1
10
16.5861396378145
20
-9.72277066204251
30
0
41
1
10
16.5500010483781
20
-9.74325151153494
30
0
41
1
10
16.5258609319755
20
-9.75359254248187
30
0
41
1
10
16.4854914242124
20
-9.76236021254533
30
0
41
1
10
16.469384371208
20
-9.76378922324642
30
0
41
1
10
16.4381891733124
20
-9.76111380489692
30
0
41
1
10
16.4226947378656
20
-9.75680651024618
30
0
41
1
10
16.4052105757679
20
-9.74769484989091
30
0
41
1
10
16.4013807775269
20
-9.74539251782934
30
0
41
1
10
16.3977197976854
20
-9.74288524216692
30
0
0
SPLINE
5
246
100
AcDbEntity
8
1
62
256
6
ByLayer
370
-1
48
1
60
0
100
AcDbSpline
70
4
71
3
72
30
73
26
40
0
40
0
40
0
40
0
40
0.0515194889309609
40
0.0515194889309609
40
0.0928771460762751
40
0.0928771460762751
40
0.14818515044212
40
0.14818515044212
40
0.203338923043168
40
0.203338923043168
40
0.287955708682539
40
0.287955708682539
40
0.372427214532417
40
0.372427214532417
40
0.43536714773506
40
0.43536714773506
40
0.498971020782813
40
0.498971020782813
40
0.701334348038838
40
0.701334348038838
40
0.838887327921192
40
0.838887327921192
40
0.925006664596918
40
0.925006664596918
40
1
40
1
40
1
40
1
41
1
10
14.9584482439286
20
-7.21379533327817
30
0
41
1
10
14.9597816889689
20
-7.22716878906729
30
0
41
1
10
14.9585019042679
20
-7.24122910810379
30
0
41
1
10
14.9528736234205
20
-7.26619149715307
30
0
41
1
10
14.9491552104475
20
-7.2773355705404
30
0
41
1
10
14.9384835619228
20
-7.30286152261615
30
0
41
1
10
14.9308167738377
20
-7.31720695522759
30
0
41
1
10
14.9134978012716
20
-7.34495970479594
30
0
41
1
10
14.9037899337379
20
-7.35846301153222
30
0
41
1
10
14.8774063476943
20
-7.39153823932563
30
0
41
1
10
14.8596599446508
20
-7.41066817044614
30
0
41
1
10
14.8220862873647
20
-7.44687798054551
30
0
41
1
10
14.8021307781487
20
-7.46407800822484
30
0
41
1
10
14.7660396640424
20
-7.4923437773999
30
0
41
1
10
14.7501661999906
20
-7.50389837704893
30
0
41
1
10
14.7176436506641
20
-7.52596443108902
30
0
41
1
10
14.7009447770992
20
-7.5364927348439
30
0
41
1
10
14.63085510772
20
-7.57749845875315
30
0
41
1
10
14.5745782938692
20
-7.60301388848026
30
0
41
1
10
14.4813462838179
20
-7.6307309575358
30
0
41
1
10
14.4430677411525
20
-7.63804512957773
30
0
41
1
10
14.383779335297
20
-7.63906590562976
30
0
41
1
10
14.3612305898993
20
-7.63679405732401
30
0
41
1
10
14.3229983266089
20
-7.62484915018476
30
0
41
1
10
14.3062930330124
20
-7.61588185911657
30
0
41
1
10
14.2936020994203
20
-7.60276132049549
30
0
0
SPLINE
5
247
100
AcDbEntity
8
1
62
256
6
ByLayer
370
-1
48
1
60
0
100
AcDbSpline
70
4
71
3
72
8
73
4
40
0
40
0
40
0
40
0
40
1
40
1
40
1
40
1
41
1
10
14.9564763179398
20
-7.19401794015158
30
0
41
1
10
14.9571336080463
20
-7.20061036682986
30
0
41
1
10
14.9577909164574
20
-7.20720283069437
30
0
41
1
10
14.9584482439285
20
-7.2137953332782
30
0
0
SPLINE
5
248
100
AcDbEntity
8
1
62
256
6
ByLayer
370
-1
48
1
60
0
100
AcDbSpline
70
4
71
3
72
30
73
26
40
0
40
0
40
0
40
0
40
0.0511772287529467
40
0.0511772287529467
40
0.135075241067931
40
0.135075241067931
40
0.271834780652659
40
0.271834780652659
40
0.469061266911217
40
0.469061266911217
40
0.500636061960804
40
0.500636061960804
40
0.599800502490301
40
0.599800502490301
40
0.697557955315539
40
0.697557955315539
40
0.781333785463939
40
0.781333785463939
40
0.847844869822748
40
0.847844869822748
40
0.899113486931649
40
0.899113486931649
40
0.939077913069552
40
0.939077913069552
40
1
40
1
40
1
40
1
41
1
10
16.3875767289001
20
-7.60276132049563
30
0
41
1
10
16.376010375654
20
-7.61180000077164
30
0
41
1
10
16.3625601139225
20
-7.61888477325974
30
0
41
1
10
16.3254481836003
20
-7.63278284848778
30
0
41
1
10
16.3001146080032
20
-7.63697901181155
30
0
41
1
10
16.2336741431435
20
-7.6403662167464
30
0
41
1
10
16.1911513461381
20
-7.63504384094631
30
0
41
1
10
16.0911795541318
20
-7.61190360831495
30
0
41
1
10
16.0332229722702
20
-7.58906955961814
30
0
41
1
10
15.9715919057839
20
-7.5560704564102
30
0
41
1
10
15.9630988554578
20
-7.55130535549054
30
0
41
1
10
15.9285084620177
20
-7.53099152076027
30
0
41
1
10
15.9033692402896
20
-7.51404701201264
30
0
41
1
10
15.8566243841249
20
-7.47782510810049
30
0
41
1
10
15.834813570229
20
-7.45846594419098
30
0
41
1
10
15.798076343657
20
-7.42029583380381
30
0
41
1
10
15.7824974159832
20
-7.40168733398957
30
0
41
1
10
15.7581465702853
20
-7.36673884338529
30
0
41
1
10
15.7485677013058
20
-7.35062487345854
30
0
41
1
10
15.7346855108396
20
-7.32115676461777
30
0
41
1
10
15.7296439977041
20
-7.30793897097263
30
0
41
1
10
15.7231803747469
20
-7.28398142885627
30
0
41
1
10
15.7211930476699
20
-7.27327541165076
30
0
41
1
10
15.7190199558851
20
-7.24627855963075
30
0
41
1
10
15.7203123847688
20
-7.22955916454904
30
0
41
1
10
15.7252455289398
20
-7.2137953332782
30
0
0
SPLINE
5
249
100
AcDbEntity
8
1
62
256
6
ByLayer
370
-1
48
1
60
0
100
AcDbSpline
70
4
71
3
72
8
73
4
40
0
40
0
40
0
40
0
40
1
40
1
40
1
40
1
41
1
10
15.7252455289397
20
-7.2137953332782
30
0
41
1
10
15.7273085912203
20
-7.20720283069437
30
0
41
1
10
15.7293716572632
20
-7.20061036682986
30
0
41
1
10
15.7314347269186
20
-7.19401794015158
30
0
0
SPLINE
5
24A
100
AcDbEntity
8
1
62
256
6
ByLayer
370
-1
48
1
60
0
100
AcDbSpline
70
4
71
3
72
24
73
20
40
0
40
0
40
0
40
0
40
0.0974021566270091
40
0.0974021566270091
40
0.180354031075333
40
0.180354031075333
40
0.307542616517286
40
0.307542616517286
40
0.412109117009675
40
0.412109117009675
40
0.516348967690924
40
0.516348967690924
40
0.620446917153513
40
0.620446917153513
40
0.724476829460154
40
0.724476829460154
40
0.933310901386381
40
0.933310901386381
40
1
40
1
40
1
40
1
41
1
10
15.7314347269187
20
-7.19401794015158
30
0
41
1
10
15.7344563324564
20
-7.18031675846285
30
0
41
1
10
15.7343387836859
20
-7.16586532623285
30
0
41
1
10
15.728308446113
20
-7.14064098338142
30
0
41
1
10
15.723240808582
20
-7.12934203921435
30
0
41
1
10
15.7065665576122
20
-7.10320591769906
30
0
41
1
10
15.6927556974379
20
-7.08917689279895
30
0
41
1
10
15.664747569262
20
-7.06720001289349
30
0
41
1
10
15.6508297022551
20
-7.05842524570605
30
0
41
1
10
15.6218099972217
20
-7.04294407017633
30
0
41
1
10
15.6066172000834
20
-7.03618391766
30
0
41
1
10
15.5755122616336
20
-7.02433096315787
30
0
41
1
10
15.5595449294227
20
-7.01921718058043
30
0
41
1
10
15.5271542037438
20
-7.01040732622917
30
0
41
1
10
15.5106940030835
20
-7.00670172583418
30
0
41
1
10
15.4608107118729
20
-6.99746489415028
30
0
41
1
10
15.4268077486078
20
-6.99379136170265
30
0
41
1
10
15.3817713093196
20
-6.99189645612836
30
0
41
1
10
15.3708343045044
20
-6.99166765714236
30
0
41
1
10
15.3598871760521
20
-6.99166765714236
30
0
0
SPLINE
5
24B
100
AcDbEntity
8
1
62
256
6
ByLayer
370
-1
48
1
60
0
100
AcDbSpline
70
4
71
3
72
22
73
18
40
0
40
0
40
0
40
0
40
0.142057608739503
40
0.142057608739503
40
0.351004812993055
40
0.351004812993055
40
0.48776334294213
40
0.48776334294213
40
0.591529353509609
40
0.591529353509609
40
0.758694969227318
40
0.758694969227318
40
0.858776631809013
40
0.858776631809013
40
0.960359919517394
40
0.960359919517394
40
1
40
1
40
1
40
1
41
1
10
15.3598871760521
20
-6.99166765714236
30
0
41
1
10
15.3365941792021
20
-6.99166765714236
30
0
41
1
10
15.3132177535997
20
-6.99270033182927
30
0
41
1
10
15.2556447697912
20
-6.99787801264995
30
0
41
1
10
15.2213511979422
20
-7.00325527217601
30
0
41
1
10
15.1656046475821
20
-7.0165906574193
30
0
41
1
10
15.1437098101846
20
-7.02304659606909
30
0
41
1
10
15.1061145642268
20
-7.03686184718799
30
0
41
1
10
15.0901329078743
20
-7.04365233504646
30
0
41
1
10
15.0499847358607
20
-7.06381679757135
30
0
41
1
10
15.0261181553652
20
-7.07895083678184
30
0
41
1
10
14.9939102391247
20
-7.10828015191595
30
0
41
1
10
14.9830061025852
20
-7.12068468784847
30
0
41
1
10
14.9662047565702
20
-7.14744257224433
30
0
41
1
10
14.9602359053769
20
-7.16224915605255
30
0
41
1
10
14.9568483583244
20
-7.18255181405061
30
0
41
1
10
14.9564076842506
20
-7.18833480532959
30
0
41
1
10
14.9564763179399
20
-7.19401794015158
30
0
0
SPLINE
5
24C
100
AcDbEntity
8
1
62
256
6
ByLayer
370
-1
48
1
60
0
100
AcDbSpline
70
4
71
3
72
8
73
4
40
0
40
0
40
0
40
0
40
1
40
1
40
1
40
1
41
1
10
16.3875767289
20
-7.60276132049555
30
0
41
1
10
16.3932784125084
20
-7.59830566415559
30
0
41
1
10
16.3989800794176
20
-7.59385003451865
30
0
41
1
10
16.4046817302881
20
-7.58939443052739
30
0
0
SPLINE
5
24D
100
AcDbEntity
8
1
62
256
6
ByLayer
370
-1
48
1
60
0
100
AcDbSpline
70
4
71
3
72
34
73
30
40
0
40
0
40
0
40
0
40
0.0514465755209475
40
0.0514465755209475
40
0.135786144735398
40
0.135786144735398
40
0.203131635218848
40
0.203131635218848
40
0.270315608875082
40
0.270315608875082
40
0.33743127853592
40
0.33743127853592
40
0.404515897625518
40
0.404515897625518
40
0.49992988368985
40
0.49992988368985
40
0.599210771748101
40
0.599210771748101
40
0.697083019894166
40
0.697083019894166
40
0.780957226922679
40
0.780957226922679
40
0.847546414393173
40
0.847546414393173
40
0.898875235580261
40
0.898875235580261
40
0.980803570703513
40
0.980803570703513
40
1
40
1
40
1
40
1
41
1
10
16.768795799106
20
-8.27695470739224
30
0
41
1
10
16.754485860233
20
-8.28114130278945
30
0
41
1
10
16.7408901710359
20
-8.28796888395846
30
0
41
1
10
16.7084048091997
20
-8.31004913610539
30
0
41
1
10
16.6909384397395
20
-8.32815860745944
30
0
41
1
10
16.6641420171368
20
-8.36386784276704
30
0
41
1
10
16.6536814357087
20
-8.3811377630567
30
0
41
1
10
16.6353774533215
20
-8.41707195428594
30
0
41
1
10
16.6274727965135
20
-8.43585457427153
30
0
41
1
10
16.6138991669746
20
-8.47432106585399
30
0
41
1
10
16.6082010742468
20
-8.49408993288259
30
0
41
1
10
16.5988302455285
20
-8.5341958591134
30
0
41
1
10
16.5951418745713
20
-8.55460264387537
30
0
41
1
10
16.5885298104292
20
-8.60436397842255
30
0
41
1
10
16.5865596276183
20
-8.63402544668568
30
0
41
1
10
16.5863643722105
20
-8.69442257352171
30
0
41
1
10
16.5882926036815
20
-8.72534738552284
30
0
41
1
10
16.5962383988403
20
-8.78584696888487
30
0
41
1
10
16.602219514595
20
-8.81563837650577
30
0
41
1
10
16.6174000571085
20
-8.86928585688352
30
0
41
1
10
16.6260608571631
20
-8.89354578997953
30
0
41
1
10
16.6449423174318
20
-8.93505447862228
30
0
41
1
10
16.6545268003238
20
-8.95283127154653
30
0
41
1
10
16.6739683184845
20
-8.98229679362558
30
0
41
1
10
16.6833128107943
20
-8.99452093217411
30
0
41
1
10
16.7098701506762
20
-9.0233429302549
30
0
41
1
10
16.7290275772321
20
-9.0388499732741
30
0
41
1
10
16.7556188547501
20
-9.05113692427508
30
0
41
1
10
16.760895935799
20
-9.05319640724608
30
0
41
1
10
16.766280854558
20
-9.05488668182682
30
0
0
SPLINE
5
24E
100
AcDbEntity
8
1
62
256
6
ByLayer
370
-1
48
1
60
0
100
AcDbSpline
70
4
71
3
72
8
73
4
40
0
40
0
40
0
40
0
40
1
40
1
40
1
40
1
41
1
10
16.7899581650043
20
-8.2707633459714
30
0
41
1
10
16.7829040667017
20
-8.27282712020883
30
0
41
1
10
16.775849945056
20
-8.27489090717415
30
0
41
1
10
16.7687957991059
20
-8.27695470739218
30
0
0
SPLINE
5
24F
100
AcDbEntity
8
1
62
256
6
ByLayer
370
-1
48
1
60
0
100
AcDbSpline
70
4
71
3
72
22
73
18
40
0
40
0
40
0
40
0
40
0.0973712659847536
40
0.0973712659847536
40
0.180296832630771
40
0.180296832630771
40
0.307445080803129
40
0.307445080803129
40
0.411978418514978
40
0.411978418514978
40
0.516185210011195
40
0.516185210011195
40
0.620250145292011
40
0.620250145292011
40
0.829289859626184
40
0.829289859626184
40
1
40
1
40
1
40
1
41
1
10
16.4046817302882
20
-7.58939443052745
30
0
41
1
10
16.4171090152698
20
-7.58121690436107
30
0
41
1
10
16.431723466224
20
-7.57541710565974
30
0
41
1
10
16.4599121435591
20
-7.57028849877253
30
0
41
1
10
16.4736287877629
20
-7.57002096410213
30
0
41
1
10
16.5076691662628
20
-7.57366792681901
30
0
41
1
10
16.5282127102032
20
-7.57981414764564
30
0
41
1
10
16.5634409212666
20
-7.59497395271248
30
0
41
1
10
16.5788130177236
20
-7.60340024679917
30
0
41
1
10
16.6080991956121
20
-7.62216025651438
30
0
41
1
10
16.6221098021675
20
-7.63255033148124
30
0
41
1
10
16.6488653526745
20
-7.65467699655505
30
0
41
1
10
16.6616574643317
20
-7.66645271801445
30
0
41
1
10
16.6983899522608
20
-7.70336740225744
30
0
41
1
10
16.7207767409335
20
-7.7301655315693
30
0
41
1
10
16.7577095783805
20
-7.78119169861296
30
0
41
1
10
16.7730082906041
20
-7.80510750708171
30
0
41
1
10
16.7869266699158
20
-7.82972243330573
30
0
0
SPLINE
5
250
100
AcDbEntity
8
1
62
256
6
ByLayer
370
-1
48
1
60
0
100
AcDbSpline
70
4
71
3
72
24
73
20
40
0
40
0
40
0
40
0
40
0.0380198325521218
40
0.0380198325521218
40
0.246834654675132
40
0.246834654675132
40
0.404726505663495
40
0.404726505663495
40
0.526150637962998
40
0.526150637962998
40
0.621531995503801
40
0.621531995503801
40
0.776890538332204
40
0.776890538332204
40
0.873684213898027
40
0.873684213898027
40
0.971746172255028
40
0.971746172255028
40
1
40
1
40
1
40
1
41
1
10
16.7869266699158
20
-7.82972243330573
30
0
41
1
10
16.7900299919921
20
-7.83521071913594
30
0
41
1
10
16.7930656802312
20
-7.84073643217764
30
0
41
1
10
16.8122978626474
20
-7.8767874196422
30
0
41
1
10
16.8265557164806
20
-7.90841843671839
30
0
41
1
10
16.8472472286537
20
-7.96532808281947
30
0
41
1
10
16.8547757694604
20
-7.99038165710655
30
0
41
1
10
16.8648886267427
20
-8.03526432861835
30
0
41
1
10
16.8682279711053
20
-8.0550373562545
30
0
41
1
10
16.8716806391162
20
-8.09044529980196
30
0
41
1
10
16.8723361220099
20
-8.10611729395839
30
0
41
1
10
16.8710897177854
20
-8.14682002851839
30
0
41
1
10
16.8673472380549
20
-8.17220847808906
30
0
41
1
10
16.8536233071534
20
-8.2099835330188
30
0
41
1
10
16.8463352943521
20
-8.22391812155215
30
0
41
1
10
16.8274406236064
20
-8.24788553264392
30
0
41
1
10
16.8154398847425
20
-8.25813623998963
30
0
41
1
10
16.7981587625532
20
-8.26733011994023
30
0
41
1
10
16.7941038774677
20
-8.26917292142193
30
0
41
1
10
16.7899581650044
20
-8.2707633459714
30
0
0
SPLINE
5
251
100
AcDbEntity
8
1
62
256
6
ByLayer
370
-1
48
1
60
0
100
AcDbSpline
70
4
71
3
72
8
73
4
40
0
40
0
40
0
40
0
40
1
40
1
40
1
40
1
41
1
10
13.908023884615
20
-8.27695470739206
30
0
41
1
10
13.9023461921601
20
-8.27489090717404
30
0
41
1
10
13.8966685469967
20
-8.27282712020869
30
0
41
1
10
13.8909909472514
20
-8.27076334597126
30
0
0
SPLINE
5
252
100
AcDbEntity
8
1
62
256
6
ByLayer
370
-1
48
1
60
0
100
AcDbSpline
70
4
71
3
72
8
73
4
40
0
40
0
40
0
40
0
40
1
40
1
40
1
40
1
41
1
10
14.2806729215141
20
-7.58939443052731
30
0
41
1
10
14.2849826089295
20
-7.59385003451854
30
0
41
1
10
14.2892923343754
20
-7.5983056641555
30
0
41
1
10
14.2936020994203
20
-7.60276132049543
30
0
0
SPLINE
5
253
100
AcDbEntity
8
1
62
256
6
ByLayer
370
-1
48
1
60
0
100
AcDbSpline
70
4
71
3
72
22
73
18
40
0
40
0
40
0
40
0
40
0.0973712659847351
40
0.0973712659847351
40
0.180296832630829
40
0.180296832630829
40
0.307445080803228
40
0.307445080803228
40
0.411978418515165
40
0.411978418515165
40
0.516185210011447
40
0.516185210011447
40
0.620250145292365
40
0.620250145292365
40
0.829289859626695
40
0.829289859626695
40
1
40
1
40
1
40
1
41
1
10
13.8909909472515
20
-8.27076334597123
30
0
41
1
10
13.8797814933677
20
-8.2653879974437
30
0
41
1
10
13.8694988844866
20
-8.25688359923606
30
0
41
1
10
13.854288065073
20
-8.23703026622175
30
0
41
1
10
13.8485875352302
20
-8.22610159356012
30
0
41
1
10
13.8377580344966
20
-8.19654602069582
30
0
41
1
10
13.8342606542931
20
-8.17648312923629
30
0
41
1
10
13.8318779150358
20
-8.13951420225206
30
0
41
1
10
13.8322544785527
20
-8.1223765268544
30
0
41
1
10
13.8351157121791
20
-8.08824351603664
30
0
41
1
10
13.83760514659
20
-8.07113843378457
30
0
41
1
10
13.8441887860949
20
-8.03723590427623
30
0
41
1
10
13.8482944826353
20
-8.02037846414746
30
0
41
1
10
13.8625883643097
20
-7.97030913293935
30
0
41
1
10
13.8747749938046
20
-7.93748884820195
30
0
41
1
10
13.9004479118379
20
-7.87973393450528
30
0
41
1
10
13.9133515234922
20
-7.85433735952984
30
0
41
1
10
13.9274290559857
20
-7.8297224333059
30
0
0
SPLINE
5
254
100
AcDbEntity
8
1
62
256
6
ByLayer
370
-1
48
1
60
0
100
AcDbSpline
70
4
71
3
72
24
73
20
40
0
40
0
40
0
40
0
40
0.0380198325527855
40
0.0380198325527855
40
0.246834654675924
40
0.246834654675924
40
0.404726505664197
40
0.404726505664197
40
0.526150637963584
40
0.526150637963584
40
0.621531995504294
40
0.621531995504294
40
0.776890538332553
40
0.776890538332553
40
0.873684213898288
40
0.873684213898288
40
0.971746172255155
40
0.971746172255155
40
1
40
1
40
1
40
1
41
1
10
13.9274290559857
20
-7.8297224333059
30
0
41
1
10
13.9305678637728
20
-7.82423414747555
30
0
41
1
10
13.9337667400617
20
-7.81878244993626
30
0
41
1
10
13.9548864683485
20
-7.7836921779483
30
0
41
1
10
13.9745580010996
20
-7.75508638709223
30
0
41
1
10
14.0120809752598
20
-7.70773282906575
30
0
41
1
10
14.0292785912706
20
-7.68819661637676
30
0
41
1
10
14.0614982997172
20
-7.65596742942915
30
0
41
1
10
14.0761592144704
20
-7.64268470404605
30
0
41
1
10
14.1034402442779
20
-7.6209515869584
30
0
41
1
10
14.1158699783427
20
-7.61204104251297
30
0
41
1
10
14.1493214994606
20
-7.5912721051059
30
0
41
1
10
14.1713666416404
20
-7.5807064662653
30
0
41
1
10
14.2072822660946
20
-7.57146128323879
30
0
41
1
10
14.2213795422769
20
-7.56981679888949
30
0
41
1
10
14.2480088249077
20
-7.5720026930247
30
0
41
1
10
14.2608646414765
20
-7.57602709415727
30
0
41
1
10
14.2748148593272
20
-7.58475987072245
30
0
41
1
10
14.2778305039779
20
-7.5869749151596
30
0
41
1
10
14.2806729215142
20
-7.58939443052728
30
0
0
SPLINE
5
255
100
AcDbEntity
8
1
62
256
6
ByLayer
370
-1
48
1
60
0
100
AcDbSpline
70
4
71
3
72
8
73
4
40
0
40
0
40
0
40
0
40
1
40
1
40
1
40
1
41
1
10
14.2867280102731
20
-9.72908006872328
30
0
41
1
10
14.2823889639139
20
-9.7336818171149
30
0
41
1
10
14.2780499573184
20
-9.7382835412763
30
0
41
1
10
14.2737109889115
20
-9.74288524216681
30
0
0
SPLINE
5
256
100
AcDbEntity
8
1
62
256
6
ByLayer
370
-1
48
1
60
0
100
AcDbSpline
70
4
71
3
72
34
73
30
40
0
40
0
40
0
40
0
40
0.0514465755209206
40
0.0514465755209206
40
0.135786144735336
40
0.135786144735336
40
0.203131635218761
40
0.203131635218761
40
0.270315608874963
40
0.270315608874963
40
0.337431278535776
40
0.337431278535776
40
0.404515897625328
40
0.404515897625328
40
0.499929883689848
40
0.499929883689848
40
0.599210771748104
40
0.599210771748104
40
0.697083019894161
40
0.697083019894161
40
0.780957226922672
40
0.780957226922672
40
0.84754641439317
40
0.84754641439317
40
0.898875235580276
40
0.898875235580276
40
0.980803570703474
40
0.980803570703474
40
1
40
1
40
1
40
1
41
1
10
13.9055089400671
20
-9.05488668182659
30
0
41
1
10
13.9170546526426
20
-9.05040372619757
30
0
41
1
10
13.9278901213462
20
-9.04328021426988
30
0
41
1
10
13.9535293019474
20
-9.020465964382
30
0
41
1
10
13.9670458101398
20
-9.00193301764097
30
0
41
1
10
13.9875447806132
20
-8.96554861533468
30
0
41
1
10
13.9954466483024
20
-8.94800436837448
30
0
41
1
10
14.0091676791909
20
-8.91157882642992
30
0
41
1
10
14.0150324448553
20
-8.89257750415766
30
0
41
1
10
14.0250470428599
20
-8.85372943910866
30
0
41
1
10
14.0292180934744
20
-8.83379685373507
30
0
41
1
10
14.036056109689
20
-8.79341937777571
30
0
41
1
10
14.0387343489558
20
-8.77290429404337
30
0
41
1
10
14.043537920733
20
-8.72294906610287
30
0
41
1
10
14.044973339355
20
-8.69323026431417
30
0
41
1
10
14.0451685947627
20
-8.63283313747806
30
0
41
1
10
14.0438193254212
20
-8.60197039758407
30
0
41
1
10
14.03815362964
20
-8.5417152698879
30
0
41
1
10
14.0338642676925
20
-8.51210523980143
30
0
41
1
10
14.0228233658526
20
-8.45890158157778
30
0
41
1
10
14.0164796253658
20
-8.43489006675028
30
0
41
1
10
14.0024523467639
20
-8.39390180814812
30
0
41
1
10
13.9952746315387
20
-8.37638305134209
30
0
41
1
10
13.9805277110588
20
-8.34742084986971
30
0
41
1
10
13.9733844000405
20
-8.33543270596402
30
0
41
1
10
13.9528624312002
20
-8.30725777645458
30
0
41
1
10
13.9378610567701
20
-8.29219631510597
30
0
41
1
10
13.9166030551682
20
-8.28048115914515
30
0
41
1
10
13.9123665665481
20
-8.27853324092331
30
0
41
1
10
13.9080238846151
20
-8.27695470739201
30
0
0
SPLINE
5
257
100
AcDbEntity
8
1
62
256
6
ByLayer
370
-1
48
1
60
0
100
AcDbSpline
70
4
71
3
72
8
73
4
40
0
40
0
40
0
40
0
40
1
40
1
40
1
40
1
41
1
10
13.8884345541953
20
-9.06151632672282
30
0
41
1
10
13.8941259700343
20
-9.05930645558615
30
0
41
1
10
13.8998174313662
20
-9.05709657409636
30
0
41
1
10
13.9055089400672
20
-9.05488668182667
30
0
0
SPLINE
5
258
100
AcDbEntity
8
1
62
256
6
ByLayer
370
-1
48
1
60
0
100
AcDbSpline
70
4
71
3
72
22
73
18
40
0
40
0
40
0
40
0
40
0.0973712659847232
40
0.0973712659847232
40
0.180296832630824
40
0.180296832630824
40
0.307445080803238
40
0.307445080803238
40
0.411978418515145
40
0.411978418515145
40
0.516185210011353
40
0.516185210011353
40
0.620250145292223
40
0.620250145292223
40
0.829289859626455
40
0.829289859626455
40
1
40
1
40
1
40
1
41
1
10
14.2737109889114
20
-9.74288524216678
30
0
41
1
10
14.2640502970909
20
-9.75135938232285
30
0
41
1
10
14.2521824477558
20
-9.75745365166622
30
0
41
1
10
14.2285156767816
20
-9.76306706445328
30
0
41
1
10
14.2167155370919
20
-9.76354007279369
30
0
41
1
10
14.1869192699051
20
-9.76034813281274
30
0
41
1
10
14.1684716388893
20
-9.75442662052058
30
0
41
1
10
14.1363728695838
20
-9.73960233142998
30
0
41
1
10
14.1221832050988
20
-9.73130280909626
30
0
41
1
10
14.0949149672997
20
-9.71275914823545
30
0
41
1
10
14.0817465225371
20
-9.70245936372862
30
0
41
1
10
14.0564290488656
20
-9.68048687879002
30
0
41
1
10
14.0442350734697
20
-9.66877528514868
30
0
41
1
10
14.0090200453961
20
-9.63202329191077
30
0
41
1
10
13.9872833272439
20
-9.60529485843031
30
0
41
1
10
13.9510728834789
20
-9.55434614118133
30
0
41
1
10
13.9359288090955
20
-9.53044691185673
30
0
41
1
10
13.9220104297838
20
-9.50583198563277
30
0
0
SPLINE
5
259
100
AcDbEntity
8
1
62
256
6
ByLayer
370
-1
48
1
60
0
100
AcDbSpline
70
4
71
3
72
24
73
20
40
0
40
0
40
0
40
0
40
0.0380198325524919
40
0.0380198325524919
40
0.246834654675586
40
0.246834654675586
40
0.40472650566388
40
0.40472650566388
40
0.526150637963313
40
0.526150637963313
40
0.621531995504066
40
0.621531995504066
40
0.776890538332378
40
0.776890538332378
40
0.873684213898204
40
0.873684213898204
40
0.971746172255156
40
0.971746172255156
40
1
40
1
40
1
40
1
41
1
10
13.9220104297838
20
-9.50583198563277
30
0
41
1
10
13.9189071077075
20
-9.50034369980247
30
0
41
1
10
13.9158636190431
20
-9.4948171504559
30
0
41
1
10
13.8965300513024
20
-9.45875529319443
30
0
41
1
10
13.8819561534589
20
-9.42709039217888
30
0
41
1
10
13.860218240466
20
-9.37006855859525
30
0
41
1
10
13.852076695052
20
-9.34494926241425
30
0
41
1
10
13.8404860400103
20
-9.29990815217877
30
0
41
1
10
13.8363701415612
20
-9.28005186806348
30
0
41
1
10
13.8312011367626
20
-9.2444599113733
30
0
41
1
10
13.829673494147
20
-9.22869441059709
30
0
41
1
10
13.828232830053
20
-9.18770358812239
30
0
41
1
10
13.8298803355609
20
-9.16209053065808
30
0
41
1
10
13.8391503831534
20
-9.12383796276529
30
0
41
1
10
13.8444286191327
20
-9.10968790058368
30
0
41
1
10
13.8587573746137
20
-9.08523096527765
30
0
41
1
10
13.8681194945995
20
-9.07469736441374
30
0
41
1
10
13.8818666725419
20
-9.06512460067304
30
0
41
1
10
13.8851074040371
20
-9.06319451156699
30
0
41
1
10
13.8884345541953
20
-9.0615163267228
30
0
0
SPLINE
5
25A
100
AcDbEntity
8
1
62
256
6
ByLayer
370
-1
48
1
60
0
100
AcDbSpline
70
4
71
3
72
14
73
10
40
0
40
0
40
0
40
0
40
0.233926408286268
40
0.233926408286268
40
0.467719442169476
40
0.467719442169476
40
0.701444004412114
40
0.701444004412114
40
1
40
1
40
1
40
1
41
1
10
15.5577514734035
20
-13.4158089055434
30
0
41
1
10
15.5430941767232
20
-13.4156351769736
30
0
41
1
10
15.5277198620162
20
-13.4154803481435
30
0
41
1
10
15.4962325466908
20
-13.4152143446794
30
0
41
1
10
15.4800096964521
20
-13.4151022005025
30
0
41
1
10
15.447284714498
20
-13.4149231095781
30
0
41
1
10
15.4306733146694
20
-13.4148555391938
30
0
41
1
10
15.3930563841546
20
-13.414753508319
30
0
41
1
10
15.3719067463472
20
-13.4147328477355
30
0
41
1
10
15.3513170096238
20
-13.4147482924727
30
0
0
SPLINE
5
25B
100
AcDbEntity
8
1
62
256
6
ByLayer
370
-1
48
1
60
0
100
AcDbSpline
70
4
71
3
72
10
73
6
40
0
40
0
40
0
40
0
40
0.736240194588515
40
0.736240194588515
40
1
40
1
40
1
40
1
41
1
10
20.776551146797
20
-10.2902204795318
30
0
41
1
10
20.7784896353008
20
-10.3079473052886
30
0
41
1
10
20.7851497504388
20
-10.3260721920109
30
0
41
1
10
20.8032016428419
20
-10.3469699299444
30
0
41
1
10
20.8089346829086
20
-10.3522049931998
30
0
41
1
10
20.8155974118046
20
-10.3567841155855
30
0
0
SPLINE
5
25C
100
AcDbEntity
8
1
62
256
6
ByLayer
370
-1
48
1
60
0
100
AcDbSpline
70
4
71
3
72
14
73
10
40
0
40
0
40
0
40
0
40
0.249103078948809
40
0.249103078948809
40
0.498160925944153
40
0.498160925944153
40
0.745586162481389
40
0.745586162481389
40
1
40
1
40
1
40
1
41
1
10
19.6120392675615
20
-6.74841113742932
30
0
41
1
10
19.6210094807564
20
-6.76404561781143
30
0
41
1
10
19.6302456030808
20
-6.77970348133863
30
0
41
1
10
19.6488540524728
20
-6.81041079706688
30
0
41
1
10
19.658290858181
20
-6.82556691206452
30
0
41
1
10
19.6769836691531
20
-6.85477908190748
30
0
41
1
10
19.6863031512497
20
-6.86893971603644
30
0
41
1
10
19.7048344536595
20
-6.89628113536364
30
0
41
1
10
19.7141013242126
20
-6.9095196241642
30
0
41
1
10
19.7230436930951
20
-6.92185137583004
30
0
0
LINE
5
49
100
AcDbEntity
8
1
62
256
6
ByLayer
370
-1
48
1
60
0
100
AcDbLine
10
7.761018
20
-13.481399
30
0
11
7.761014
21
-13.468613
31
0
39
0
210
0
220
0
230
1
0
LINE
5
4B
100
AcDbEntity
8
1
62
256
6
ByLayer
370
-1
48
1
60
0
100
AcDbLine
10
8.028317
20
-12.708253
30
0
11
8.71705
21
-12.776433
31
0
39
0
210
0
220
0
230
1
0
LINE
5
4C
100
AcDbEntity
8
1
62
256
6
ByLayer
370
-1
48
1
60
0
100
AcDbLine
10
11.637534
20
-13.343323
30
0
11
12.392792
21
-13.418088
31
0
39
0
210
0
220
0
230
1
0
LINE
5
4D
100
AcDbEntity
8
1
62
256
6
ByLayer
370
-1
48
1
60
0
100
AcDbLine
10
9.795972
20
-12.905317
30
0
11
10.462446
21
-12.971293
31
0
39
0
210
0
220
0
230
1
0
LINE
5
4E
100
AcDbEntity
8
1
62
256
6
ByLayer
370
-1
48
1
60
0
100
AcDbLine
10
15.208368
20
-0.762863
30
0
11
14.520229
21
-0.694742
31
0
39
0
210
0
220
0
230
1
0
LINE
5
4F
100
AcDbEntity
8
1
62
256
6
ByLayer
370
-1
48
1
60
0
100
AcDbLine
10
14.620699
20
-1.921785
30
0
11
13.954611
21
-1.855847
31
0
39
0
210
0
220
0
230
1
0
LINE
5
50
100
AcDbEntity
8
1
62
256
6
ByLayer
370
-1
48
1
60
0
100
AcDbLine
10
15.634301
20
-5.957162
30
0
11
15.419255
21
-5.934107
31
0
39
0
210
0
220
0
230
1
0
LINE
5
51
100
AcDbEntity
8
1
62
256
6
ByLayer
370
-1
48
1
60
0
100
AcDbLine
10
14.838275
20
-11.353051
30
0
11
15.053321
21
-11.376107
31
0
39
0
210
0
220
0
230
1
0
LINE
5
52
100
AcDbEntity
8
1
62
256
6
ByLayer
370
-1
48
1
60
0
100
AcDbLine
10
14.128246
20
-7.610868
30
0
11
14.375558
21
-7.637383
31
0
39
0
210
0
220
0
230
1
0
LINE
5
53
100
AcDbEntity
8
1
62
256
6
ByLayer
370
-1
48
1
60
0
100
AcDbLine
10
14.434163
20
-9.692644
30
0
11
14.191719
21
-9.666651
31
0
39
0
210
0
220
0
230
1
0
LINE
5
54
100
AcDbEntity
8
1
62
256
6
ByLayer
370
-1
48
1
60
0
100
AcDbLine
10
15.970321
20
-7.610269
30
0
11
16.213129
21
-7.636301
31
0
39
0
210
0
220
0
230
1
0
LINE
5
55
100
AcDbEntity
8
1
62
256
6
ByLayer
370
-1
48
1
60
0
100
AcDbLine
10
16.281016
20
-9.692558
30
0
11
16.033794
21
-9.666052
31
0
39
0
210
0
220
0
230
1
0
LINE
5
56
100
AcDbEntity
8
80
62
256
6
ByLayer
370
-1
48
1
60
0
100
AcDbLine
10
0
20
0
30
0
11
-5
21
0
31
0
39
0
210
0
220
0
230
1
0
LINE
5
57
100
AcDbEntity
8
81
62
256
6
ByLayer
370
-1
48
1
60
0
100
AcDbLine
10
23.355801
20
-13.4125
30
0
11
28.355801
21
-13.4125
31
0
39
0
210
0
220
0
230
1
0
LINE
5
58
100
AcDbEntity
8
1
62
256
6
ByLayer
370
-1
48
1
60
0
100
AcDbLine
10
14.68511
20
0.204719
30
0
11
15.234801
21
-0.767419
31
0
39
0
210
0
220
0
230
1
0
LINE
5
59
100
AcDbEntity
8
1
62
256
6
ByLayer
370
-1
48
1
60
0
100
AcDbLine
10
0.367178
20
-12.804678
30
0
11
0
21
-12.4375
31
0
39
0
210
0
220
0
230
1
0
LINE
5
5A
100
AcDbEntity
8
1
62
256
6
ByLayer
370
-1
48
1
60
0
100
AcDbLine
10
11.914872
20
-4.352769
30
0
11
11.923878
21
-4.62329
31
0
39
0
210
0
220
0
230
1
0
LINE
5
5B
100
AcDbEntity
8
1
62
256
6
ByLayer
370
-1
48
1
60
0
100
AcDbLine
10
3.416817
20
-12.865407
30
0
11
0.367178
21
-12.804678
31
0
39
0
210
0
220
0
230
1
0
LINE
5
5C
100
AcDbEntity
8
1
62
256
6
ByLayer
370
-1
48
1
60
0
100
AcDbLine
10
0
20
12.4375
30
0
11
3.792523
21
12.454048
31
0
39
0
210
0
220
0
230
1
0
LINE
5
5D
100
AcDbEntity
8
1
62
256
6
ByLayer
370
-1
48
1
60
0
100
AcDbLine
10
7.221593
20
-12.845356
30
0
11
7.044683
21
-12.865407
31
0
39
0
210
0
220
0
230
1
0
LINE
5
5E
100
AcDbEntity
8
1
62
256
6
ByLayer
370
-1
48
1
60
0
100
AcDbLine
10
3.792523
20
12.454048
30
0
11
5.001546
21
12.453118
31
0
39
0
210
0
220
0
230
1
0
LINE
5
5F
100
AcDbEntity
8
1
62
256
6
ByLayer
370
-1
48
1
60
0
100
AcDbLine
10
11.841552
20
-4.27811
30
0
11
11.914872
21
-4.352769
31
0
39
0
210
0
220
0
230
1
0
LINE
5
60
100
AcDbEntity
8
1
62
256
6
ByLayer
370
-1
48
1
60
0
100
AcDbLine
10
5.001546
20
12.453118
30
0
11
14.881435
21
0.832508
31
0
39
0
210
0
220
0
230
1
0
LINE
5
61
100
AcDbEntity
8
1
62
256
6
ByLayer
370
-1
48
1
60
0
100
AcDbLine
10
0
20
-12.4375
30
0
11
0
21
12.4375
31
0
39
0
210
0
220
0
230
1
0
LINE
5
62
100
AcDbEntity
8
1
62
256
6
ByLayer
370
-1
48
1
60
0
100
AcDbLine
10
7.221593
20
-12.845356
30
0
11
11.923878
21
-4.62329
31
0
39
0
210
0
220
0
230
1
0
LINE
5
63
100
AcDbEntity
8
1
62
256
6
ByLayer
370
-1
48
1
60
0
100
AcDbLine
10
11.914872
20
-4.352769
30
0
11
7.044683
21
-12.865407
31
0
39
0
210
0
220
0
230
1
0
LINE
5
64
100
AcDbEntity
8
1
62
256
6
ByLayer
370
-1
48
1
60
0
100
AcDbLine
10
3.416817
20
-12.865407
30
0
11
3.792523
21
12.454048
31
0
39
0
210
0
220
0
230
1
0
LINE
5
65
100
AcDbEntity
8
1
62
256
6
ByLayer
370
-1
48
1
60
0
100
AcDbLine
10
3.416817
20
-12.865407
30
0
11
7.044683
21
-12.865407
31
0
39
0
210
0
220
0
230
1
0
LINE
5
66
100
AcDbEntity
8
1
62
256
6
ByLayer
370
-1
48
1
60
0
100
AcDbLine
10
14.881435
20
0.832508
30
0
11
14.06219
21
-0.599456
31
0
39
0
210
0
220
0
230
1
0
LINE
5
67
100
AcDbEntity
8
1
62
256
6
ByLayer
370
-1
48
1
60
0
100
AcDbLine
10
14.132738
20
-0.761042
30
0
11
14.978687
21
0.718122
31
0
39
0
210
0
220
0
230
1
0
LINE
5
68
100
AcDbEntity
8
1
62
256
6
ByLayer
370
-1
48
1
60
0
100
AcDbLine
10
14.881435
20
0.832508
30
0
11
14.978687
21
0.718122
31
0
39
0
210
0
220
0
230
1
0
LINE
5
69
100
AcDbEntity
8
SK1
62
256
6
ByLayer
370
-1
48
1
60
0
100
AcDbLine
10
0
20
-12.4375
30
0
11
-127.994199
21
-12.4375
31
0
39
0
210
0
220
0
230
1
0
LINE
5
6B
100
AcDbEntity
8
1
62
256
6
ByLayer
370
-1
48
1
60
0
100
AcDbLine
10
12.878218
20
-2.109916
30
0
11
13.472651
21
-2.109916
31
0
39
0
210
0
220
0
230
1
0
LINE
5
6C
100
AcDbEntity
8
1
62
256
6
ByLayer
370
-1
48
1
60
0
100
AcDbLine
10
11.419355
20
-3.527434
30
0
11
12.323793
21
-1.946
31
0
39
0
210
0
220
0
230
1
0
LINE
5
6D
100
AcDbEntity
8
1
62
256
6
ByLayer
370
-1
48
1
60
0
100
AcDbLine
10
13.752763
20
-1.946
30
0
11
12.323793
21
-1.946
31
0
39
0
210
0
220
0
230
1
0
LINE
5
6E
100
AcDbEntity
8
1
62
256
6
ByLayer
370
-1
48
1
60
0
100
AcDbLine
10
9.254655
20
-9.580343
30
0
11
9.540734
21
-9.256383
31
0
39
0
210
0
220
0
230
1
0
LINE
5
6F
100
AcDbEntity
8
1
62
256
6
ByLayer
370
-1
48
1
60
0
100
AcDbLine
10
10.536578
20
-12.954762
30
0
11
10.742537
21
-12.83167
31
0
39
0
210
0
220
0
230
1
0
LINE
5
70
100
AcDbEntity
8
1
62
256
6
ByLayer
370
-1
48
1
60
0
100
AcDbLine
10
9.838232
20
-12.618046
30
0
11
10.411261
21
-12.954527
31
0
39
0
210
0
220
0
230
1
0
LINE
5
71
100
AcDbEntity
8
1
62
256
6
ByLayer
370
-1
48
1
60
0
100
AcDbLine
10
9.767264
20
-12.464136
30
0
11
9.773417
21
-12.517576
31
0
39
0
210
0
220
0
230
1
0
LINE
5
72
100
AcDbEntity
8
1
62
256
6
ByLayer
370
-1
48
1
60
0
100
AcDbLine
10
9.653243
20
-12.334772
30
0
11
9.702448
21
-12.363665
31
0
39
0
210
0
220
0
230
1
0
LINE
5
73
100
AcDbEntity
8
1
62
256
6
ByLayer
370
-1
48
1
60
0
100
AcDbLine
10
8.831099
20
-12.751001
30
0
11
9.527926
21
-12.334537
31
0
39
0
210
0
220
0
230
1
0
LINE
5
74
100
AcDbEntity
8
1
62
256
6
ByLayer
370
-1
48
1
60
0
100
AcDbLine
10
8.617133
20
-12.738209
30
0
11
8.638303
21
-12.750639
31
0
39
0
210
0
220
0
230
1
0
LINE
5
75
100
AcDbEntity
8
1
62
256
6
ByLayer
370
-1
48
1
60
0
100
AcDbLine
10
8.493049
20
-10.903409
30
0
11
8.816978
21
-10.297281
31
0
39
0
210
0
220
0
230
1
0
LINE
5
76
100
AcDbEntity
8
1
62
256
6
ByLayer
370
-1
48
1
60
0
100
AcDbLine
10
8.46946
20
-11.005031
30
0
11
8.516144
21
-12.56606
31
0
39
0
210
0
220
0
230
1
0
LINE
5
77
100
AcDbEntity
8
1
62
256
6
ByLayer
370
-1
48
1
60
0
100
AcDbLine
10
9.628763
20
-9.125952
30
0
11
10.960109
21
-6.79699
31
0
39
0
210
0
220
0
230
1
0
LINE
5
78
100
AcDbEntity
8
1
62
256
6
ByLayer
370
-1
48
1
60
0
100
AcDbLine
10
14.342303
20
-13.419031
30
0
11
12.411897
21
-13.419031
31
0
39
0
210
0
220
0
230
1
0
LINE
5
79
100
AcDbEntity
8
1
62
256
6
ByLayer
370
-1
48
1
60
0
100
AcDbLine
10
11.64632
20
-13.000475
30
0
11
12.313497
21
-13.39224
31
0
39
0
210
0
220
0
230
1
0
LINE
5
7A
100
AcDbEntity
8
1
62
256
6
ByLayer
370
-1
48
1
60
0
100
AcDbLine
10
8.941366
20
-11.125594
30
0
11
9.349048
21
-11.122151
31
0
39
0
210
0
220
0
230
1
0
LINE
5
7B
100
AcDbEntity
8
1
62
256
6
ByLayer
370
-1
48
1
60
0
100
AcDbLine
10
9.570767
20
-11.252344
30
0
11
9.780894
21
-11.618563
31
0
39
0
210
0
220
0
230
1
0
LINE
5
7C
100
AcDbEntity
8
1
62
256
6
ByLayer
370
-1
48
1
60
0
100
AcDbLine
10
8.577617
20
-11.379536
30
0
11
8.609872
21
-12.458097
31
0
39
0
210
0
220
0
230
1
0
LINE
5
7D
100
AcDbEntity
8
1
62
256
6
ByLayer
370
-1
48
1
60
0
100
AcDbLine
10
8.869979
20
-12.610831
30
0
11
9.764283
21
-12.076343
31
0
39
0
210
0
220
0
230
1
0
LINE
5
7E
100
AcDbEntity
8
1
62
256
6
ByLayer
370
-1
48
1
60
0
100
AcDbLine
10
15.064625
20
-12.06049
30
0
11
14.463878
21
-12.212447
31
0
39
0
210
0
220
0
230
1
0
LINE
5
7F
100
AcDbEntity
8
1
62
256
6
ByLayer
370
-1
48
1
60
0
100
AcDbLine
10
14.412456
20
-12.830912
30
0
11
14.432251
21
-13.41841
31
0
39
0
210
0
220
0
230
1
0
LINE
5
80
100
AcDbEntity
8
1
62
256
6
ByLayer
370
-1
48
1
60
0
100
AcDbLine
10
11.426355
20
-12.877536
30
0
11
9.540734
21
-9.256383
31
0
39
0
210
0
220
0
230
1
0
LINE
5
81
100
AcDbEntity
8
1
62
256
6
ByLayer
370
-1
48
1
60
0
100
AcDbLine
10
11.007547
20
-6.702411
30
0
11
11.916523
21
-6.769106
31
0
39
0
210
0
220
0
230
1
0
LINE
5
82
100
AcDbEntity
8
1
62
256
6
ByLayer
370
-1
48
1
60
0
100
AcDbLine
10
11.915575
20
-6.867096
30
0
11
10.960109
21
-6.79699
31
0
39
0
210
0
220
0
230
1
0
LINE
5
83
100
AcDbEntity
8
1
62
256
6
ByLayer
370
-1
48
1
60
0
100
AcDbLine
10
9.628763
20
-9.125952
30
0
11
11.64632
21
-13.000475
31
0
39
0
210
0
220
0
230
1
0
LINE
5
84
100
AcDbEntity
8
1
62
256
6
ByLayer
370
-1
48
1
60
0
100
AcDbLine
10
14.342303
20
-13.419031
30
0
11
14.32263
21
-12.835166
31
0
39
0
210
0
220
0
230
1
0
LINE
5
85
100
AcDbEntity
8
1
62
256
6
ByLayer
370
-1
48
1
60
0
100
AcDbLine
10
14.458143
20
-12.187216
30
0
11
15.058891
21
-12.035259
31
0
39
0
210
0
220
0
230
1
0
LINE
5
86
100
AcDbEntity
8
1
62
256
6
ByLayer
370
-1
48
1
60
0
100
AcDbLine
10
9.254655
20
-9.580343
30
0
11
9.724902
21
-10.483408
31
0
39
0
210
0
220
0
230
1
0
LINE
5
87
100
AcDbEntity
8
1
62
256
6
ByLayer
370
-1
48
1
60
0
100
AcDbLine
10
9.724902
20
-10.483408
30
0
11
11.062236
21
-12.700447
31
0
39
0
210
0
220
0
230
1
0
LINE
5
88
100
AcDbEntity
8
1
62
256
6
ByLayer
370
-1
48
1
60
0
100
AcDbLine
10
9.431407
20
-10.658072
30
0
11
8.816978
21
-10.297281
31
0
39
0
210
0
220
0
230
1
0
LINE
5
89
100
AcDbEntity
8
1
62
256
6
ByLayer
370
-1
48
1
60
0
100
AcDbLine
10
10.742537
20
-12.83167
30
0
11
9.431407
21
-10.658072
31
0
39
0
210
0
220
0
230
1
0
LINE
5
8A
100
AcDbEntity
8
1
62
256
6
ByLayer
370
-1
48
1
60
0
100
AcDbLine
10
8.843639
20
-10.249081
30
0
11
9.458068
21
-10.609873
31
0
39
0
210
0
220
0
230
1
0
LINE
5
8B
100
AcDbEntity
8
1
62
256
6
ByLayer
370
-1
48
1
60
0
100
AcDbLine
10
9.458068
20
-10.609873
30
0
11
9.06686
21
-9.858595
31
0
39
0
210
0
220
0
230
1
0
LINE
5
8C
100
AcDbEntity
8
1
62
256
6
ByLayer
370
-1
48
1
60
0
100
AcDbLine
10
14.718501
20
-13.415223
30
0
11
14.463878
21
-12.212447
31
0
39
0
210
0
220
0
230
1
0
LINE
5
8D
100
AcDbEntity
8
1
62
256
6
ByLayer
370
-1
48
1
60
0
100
AcDbLine
10
14.536439
20
-13.416575
30
0
11
14.412456
21
-12.830912
31
0
39
0
210
0
220
0
230
1
0
LINE
5
8E
100
AcDbEntity
8
1
62
256
6
ByLayer
370
-1
48
1
60
0
100
AcDbLine
10
15.268496
20
-13.023523
30
0
11
15.064625
21
-12.06049
31
0
39
0
210
0
220
0
230
1
0
LINE
5
8F
100
AcDbEntity
8
1
62
256
6
ByLayer
370
-1
48
1
60
0
100
AcDbLine
10
11.078374
20
-6.529942
30
0
11
11.916523
21
-6.769106
31
0
39
0
210
0
220
0
230
1
0
LINE
5
90
100
AcDbEntity
8
1
62
256
6
ByLayer
370
-1
48
1
60
0
100
AcDbLine
10
11.166034
20
-6.356793
30
0
11
11.561032
21
-6.469505
31
0
39
0
210
0
220
0
230
1
0
LINE
5
91
100
AcDbEntity
8
1
62
256
6
ByLayer
370
-1
48
1
60
0
100
AcDbLine
10
8.942869
20
-12.113039
30
0
11
9.53917
21
-11.756655
31
0
39
0
210
0
220
0
230
1
0
LINE
5
92
100
AcDbEntity
8
1
62
256
6
ByLayer
370
-1
48
1
60
0
100
AcDbLine
10
8.921362
20
-11.393879
30
0
11
8.942869
21
-12.113039
31
0
39
0
210
0
220
0
230
1
0
LINE
5
93
100
AcDbEntity
8
1
62
256
6
ByLayer
370
-1
48
1
60
0
100
AcDbLine
10
8.691371
20
-12.40869
30
0
11
8.838956
21
-12.10981
31
0
39
0
210
0
220
0
230
1
0
LINE
5
94
100
AcDbEntity
8
1
62
256
6
ByLayer
370
-1
48
1
60
0
100
AcDbLine
10
8.838956
20
-12.10981
30
0
11
8.817449
21
-11.39065
31
0
39
0
210
0
220
0
230
1
0
LINE
5
95
100
AcDbEntity
8
1
62
256
6
ByLayer
370
-1
48
1
60
0
100
AcDbLine
10
9.005392
20
-12.207541
30
0
11
8.857808
21
-12.506421
31
0
39
0
210
0
220
0
230
1
0
LINE
5
96
100
AcDbEntity
8
1
62
256
6
ByLayer
370
-1
48
1
60
0
100
AcDbLine
10
9.601694
20
-11.851156
30
0
11
9.005392
21
-12.207541
31
0
39
0
210
0
220
0
230
1
0
LINE
5
97
100
AcDbEntity
8
1
62
256
6
ByLayer
370
-1
48
1
60
0
100
AcDbLine
10
8.857808
20
-12.506421
30
0
11
8.869979
21
-12.610831
31
0
39
0
210
0
220
0
230
1
0
LINE
5
98
100
AcDbEntity
8
1
62
256
6
ByLayer
370
-1
48
1
60
0
100
AcDbLine
10
8.609872
20
-12.458097
30
0
11
8.691371
21
-12.40869
31
0
39
0
210
0
220
0
230
1
0
LINE
5
99
100
AcDbEntity
8
1
62
256
6
ByLayer
370
-1
48
1
60
0
100
AcDbLine
10
8.817449
20
-11.39065
30
0
11
8.577617
21
-11.379536
31
0
39
0
210
0
220
0
230
1
0
LINE
5
9A
100
AcDbEntity
8
1
62
256
6
ByLayer
370
-1
48
1
60
0
100
AcDbLine
10
9.53917
20
-11.756655
30
0
11
9.329043
21
-11.390436
31
0
39
0
210
0
220
0
230
1
0
LINE
5
9B
100
AcDbEntity
8
1
62
256
6
ByLayer
370
-1
48
1
60
0
100
AcDbLine
10
9.329043
20
-11.390436
30
0
11
8.921362
21
-11.393879
31
0
39
0
210
0
220
0
230
1
0
LINE
5
9C
100
AcDbEntity
8
1
62
256
6
ByLayer
370
-1
48
1
60
0
100
AcDbLine
10
9.764283
20
-12.076343
30
0
11
9.601694
21
-11.851156
31
0
39
0
210
0
220
0
230
1
0
LINE
5
9D
100
AcDbEntity
8
1
62
256
6
ByLayer
370
-1
48
1
60
0
100
AcDbLine
10
17.398016
20
-2.950902
30
0
11
17.682105
21
-3.293766
31
0
39
0
210
0
220
0
230
1
0
LINE
5
9E
100
AcDbEntity
8
1
62
256
6
ByLayer
370
-1
48
1
60
0
100
AcDbLine
10
13.903611
20
-2.386647
30
0
11
13.894704
21
-2.633744
31
0
39
0
210
0
220
0
230
1
0
LINE
5
9F
100
AcDbEntity
8
1
62
256
6
ByLayer
370
-1
48
1
60
0
100
AcDbLine
10
14.544958
20
-1.938659
30
0
11
13.969921
21
-2.27514
31
0
39
0
210
0
220
0
230
1
0
LINE
5
A0
100
AcDbEntity
8
1
62
256
6
ByLayer
370
-1
48
1
60
0
100
AcDbLine
10
14.707138
20
-1.955012
30
0
11
14.660582
21
-1.932865
31
0
39
0
210
0
220
0
230
1
0
LINE
5
A1
100
AcDbEntity
8
1
62
256
6
ByLayer
370
-1
48
1
60
0
100
AcDbLine
10
14.872138
20
-1.920324
30
0
11
14.822761
21
-1.949217
31
0
39
0
210
0
220
0
230
1
0
LINE
5
A2
100
AcDbEntity
8
1
62
256
6
ByLayer
370
-1
48
1
60
0
100
AcDbLine
10
14.968585
20
-0.972803
30
0
11
14.938448
21
-1.808817
31
0
39
0
210
0
220
0
230
1
0
LINE
5
A3
100
AcDbEntity
8
1
62
256
6
ByLayer
370
-1
48
1
60
0
100
AcDbLine
10
15.091845
20
-0.788823
30
0
11
15.070601
21
-0.801254
31
0
39
0
210
0
220
0
230
1
0
LINE
5
A4
100
AcDbEntity
8
1
62
256
6
ByLayer
370
-1
48
1
60
0
100
AcDbLine
10
16.644312
20
-1.626847
30
0
11
16.964635
21
-2.228747
31
0
39
0
210
0
220
0
230
1
0
LINE
5
A5
100
AcDbEntity
8
1
62
256
6
ByLayer
370
-1
48
1
60
0
100
AcDbLine
10
16.574399
20
-1.553298
30
0
11
15.284645
21
-0.787862
31
0
39
0
210
0
220
0
230
1
0
LINE
5
A6
100
AcDbEntity
8
1
62
256
6
ByLayer
370
-1
48
1
60
0
100
AcDbLine
10
17.769347
20
-3.426721
30
0
11
19.08679
21
-5.755683
31
0
39
0
210
0
220
0
230
1
0
LINE
5
A7
100
AcDbEntity
8
1
62
256
6
ByLayer
370
-1
48
1
60
0
100
AcDbLine
10
11.7382
20
-5.435854
30
0
11
12.708469
21
-3.738535
31
0
39
0
210
0
220
0
230
1
0
LINE
5
A8
100
AcDbEntity
8
1
62
256
6
ByLayer
370
-1
48
1
60
0
100
AcDbLine
10
13.450296
20
-3.273576
30
0
11
12.78078
21
-3.665341
31
0
39
0
210
0
220
0
230
1
0
LINE
5
A9
100
AcDbEntity
8
1
62
256
6
ByLayer
370
-1
48
1
60
0
100
AcDbLine
10
16.227706
20
-1.911327
30
0
11
16.015397
21
-2.276257
31
0
39
0
210
0
220
0
230
1
0
LINE
5
AA
100
AcDbEntity
8
1
62
256
6
ByLayer
370
-1
48
1
60
0
100
AcDbLine
10
15.7929
20
-2.40645
30
0
11
15.385234
21
-2.404296
31
0
39
0
210
0
220
0
230
1
0
LINE
5
AB
100
AcDbEntity
8
1
62
256
6
ByLayer
370
-1
48
1
60
0
100
AcDbLine
10
16.21382
20
-1.456029
30
0
11
15.32269
21
-0.927167
31
0
39
0
210
0
220
0
230
1
0
LINE
5
AC
100
AcDbEntity
8
1
62
256
6
ByLayer
370
-1
48
1
60
0
100
AcDbLine
10
15.061671
20
-1.079901
30
0
11
15.022994
21
-2.152837
31
0
39
0
210
0
220
0
230
1
0
LINE
5
AD
100
AcDbEntity
8
1
62
256
6
ByLayer
370
-1
48
1
60
0
100
AcDbLine
10
12.533354
20
-6.746954
30
0
11
12.705685
21
-6.143164
31
0
39
0
210
0
220
0
230
1
0
LINE
5
AE
100
AcDbEntity
8
1
62
256
6
ByLayer
370
-1
48
1
60
0
100
AcDbLine
10
12.194651
20
-5.794638
30
0
11
11.683564
21
-5.519836
31
0
39
0
210
0
220
0
230
1
0
LINE
5
AF
100
AcDbEntity
8
1
62
256
6
ByLayer
370
-1
48
1
60
0
100
AcDbLine
10
13.645493
20
-3.150636
30
0
11
17.682105
21
-3.293766
31
0
39
0
210
0
220
0
230
1
0
LINE
5
B0
100
AcDbEntity
8
1
62
256
6
ByLayer
370
-1
48
1
60
0
100
AcDbLine
10
19.133668
20
-5.84902
30
0
11
18.619904
21
-6.615069
31
0
39
0
210
0
220
0
230
1
0
LINE
5
B1
100
AcDbEntity
8
1
62
256
6
ByLayer
370
-1
48
1
60
0
100
AcDbLine
10
18.546749
20
-6.560913
30
0
11
19.08679
21
-5.755683
31
0
39
0
210
0
220
0
230
1
0
LINE
5
B2
100
AcDbEntity
8
1
62
256
6
ByLayer
370
-1
48
1
60
0
100
AcDbLine
10
17.769347
20
-3.426721
30
0
11
13.450296
21
-3.273576
31
0
39
0
210
0
220
0
230
1
0
LINE
5
B3
100
AcDbEntity
8
1
62
256
6
ByLayer
370
-1
48
1
60
0
100
AcDbLine
10
11.7382
20
-5.435854
30
0
11
12.246126
21
-5.708957
31
0
39
0
210
0
220
0
230
1
0
LINE
5
B4
100
AcDbEntity
8
1
62
256
6
ByLayer
370
-1
48
1
60
0
100
AcDbLine
10
12.730717
20
-6.150382
30
0
11
12.558386
21
-6.754172
31
0
39
0
210
0
220
0
230
1
0
LINE
5
B5
100
AcDbEntity
8
1
62
256
6
ByLayer
370
-1
48
1
60
0
100
AcDbLine
10
17.398016
20
-2.950902
30
0
11
16.391342
21
-2.915207
31
0
39
0
210
0
220
0
230
1
0
LINE
5
B6
100
AcDbEntity
8
1
62
256
6
ByLayer
370
-1
48
1
60
0
100
AcDbLine
10
16.391342
20
-2.915207
30
0
11
13.888961
21
-2.960296
31
0
39
0
210
0
220
0
230
1
0
LINE
5
B7
100
AcDbEntity
8
1
62
256
6
ByLayer
370
-1
48
1
60
0
100
AcDbLine
10
16.348051
20
-2.589538
30
0
11
16.964635
21
-2.228747
31
0
39
0
210
0
220
0
230
1
0
LINE
5
B8
100
AcDbEntity
8
1
62
256
6
ByLayer
370
-1
48
1
60
0
100
AcDbLine
10
13.894704
20
-2.633744
30
0
11
16.348051
21
-2.589538
31
0
39
0
210
0
220
0
230
1
0
LINE
5
B9
100
AcDbEntity
8
1
62
256
6
ByLayer
370
-1
48
1
60
0
100
AcDbLine
10
16.991009
20
-2.276779
30
0
11
16.374425
21
-2.637571
31
0
39
0
210
0
220
0
230
1
0
LINE
5
BA
100
AcDbEntity
8
1
62
256
6
ByLayer
370
-1
48
1
60
0
100
AcDbLine
10
16.374425
20
-2.637571
30
0
11
17.211898
21
-2.667266
31
0
39
0
210
0
220
0
230
1
0
LINE
5
BB
100
AcDbEntity
8
1
62
256
6
ByLayer
370
-1
48
1
60
0
100
AcDbLine
10
11.491308
20
-5.796645
30
0
11
12.705685
21
-6.143164
31
0
39
0
210
0
220
0
230
1
0
LINE
5
BC
100
AcDbEntity
8
1
62
256
6
ByLayer
370
-1
48
1
60
0
100
AcDbLine
10
11.603339
20
-5.625909
30
0
11
12.194651
21
-5.794638
31
0
39
0
210
0
220
0
230
1
0
LINE
5
BD
100
AcDbEntity
8
1
62
256
6
ByLayer
370
-1
48
1
60
0
100
AcDbLine
10
11.561032
20
-6.469505
30
0
11
12.533354
21
-6.746954
31
0
39
0
210
0
220
0
230
1
0
LINE
5
BE
100
AcDbEntity
8
1
62
256
6
ByLayer
370
-1
48
1
60
0
100
AcDbLine
10
19.20348
20
-6.016286
30
0
11
18.619904
21
-6.615069
31
0
39
0
210
0
220
0
230
1
0
LINE
5
BF
100
AcDbEntity
8
1
62
256
6
ByLayer
370
-1
48
1
60
0
100
AcDbLine
10
19.290112
20
-6.187314
30
0
11
19.015088
21
-6.469505
31
0
39
0
210
0
220
0
230
1
0
LINE
5
C0
100
AcDbEntity
8
1
62
256
6
ByLayer
370
-1
48
1
60
0
100
AcDbLine
10
15.39263
20
-1.417845
30
0
11
15.36684
21
-2.133254
31
0
39
0
210
0
220
0
230
1
0
LINE
5
C1
100
AcDbEntity
8
1
62
256
6
ByLayer
370
-1
48
1
60
0
100
AcDbLine
10
15.986814
20
-1.770478
30
0
11
15.39263
21
-1.417845
31
0
39
0
210
0
220
0
230
1
0
LINE
5
C2
100
AcDbEntity
8
1
62
256
6
ByLayer
370
-1
48
1
60
0
100
AcDbLine
10
15.309901
20
-1.029834
30
0
11
15.455714
21
-1.324355
31
0
39
0
210
0
220
0
230
1
0
LINE
5
C3
100
AcDbEntity
8
1
62
256
6
ByLayer
370
-1
48
1
60
0
100
AcDbLine
10
15.455714
20
-1.324355
30
0
11
16.049899
21
-1.676987
31
0
39
0
210
0
220
0
230
1
0
LINE
5
C4
100
AcDbEntity
8
1
62
256
6
ByLayer
370
-1
48
1
60
0
100
AcDbLine
10
15.288695
20
-1.422085
30
0
11
15.142881
21
-1.127565
31
0
39
0
210
0
220
0
230
1
0
LINE
5
C5
100
AcDbEntity
8
1
62
256
6
ByLayer
370
-1
48
1
60
0
100
AcDbLine
10
15.262905
20
-2.137494
30
0
11
15.288695
21
-1.422085
31
0
39
0
210
0
220
0
230
1
0
LINE
5
C6
100
AcDbEntity
8
1
62
256
6
ByLayer
370
-1
48
1
60
0
100
AcDbLine
10
15.142881
20
-1.127565
30
0
11
15.061671
21
-1.079901
31
0
39
0
210
0
220
0
230
1
0
LINE
5
C7
100
AcDbEntity
8
1
62
256
6
ByLayer
370
-1
48
1
60
0
100
AcDbLine
10
15.32269
20
-0.927167
30
0
11
15.309901
21
-1.029834
31
0
39
0
210
0
220
0
230
1
0
LINE
5
C8
100
AcDbEntity
8
1
62
256
6
ByLayer
370
-1
48
1
60
0
100
AcDbLine
10
16.049899
20
-1.676987
30
0
11
16.21382
21
-1.456029
31
0
39
0
210
0
220
0
230
1
0
LINE
5
C9
100
AcDbEntity
8
1
62
256
6
ByLayer
370
-1
48
1
60
0
100
AcDbLine
10
15.36684
20
-2.133254
30
0
11
15.774505
21
-2.135408
31
0
39
0
210
0
220
0
230
1
0
LINE
5
CA
100
AcDbEntity
8
1
62
256
6
ByLayer
370
-1
48
1
60
0
100
AcDbLine
10
15.774505
20
-2.135408
30
0
11
15.986814
21
-1.770478
31
0
39
0
210
0
220
0
230
1
0
LINE
5
CB
100
AcDbEntity
8
1
62
256
6
ByLayer
370
-1
48
1
60
0
100
AcDbLine
10
15.022994
20
-2.152837
30
0
11
15.262905
21
-2.137494
31
0
39
0
210
0
220
0
230
1
0
LINE
5
CC
100
AcDbEntity
8
1
62
256
6
ByLayer
370
-1
48
1
60
0
100
AcDbLine
10
14.536439
20
-13.416575
30
0
11
14.432251
21
-13.41841
31
0
39
0
210
0
220
0
230
1
0
LINE
5
CD
100
AcDbEntity
8
1
62
256
6
ByLayer
370
-1
48
1
60
0
100
AcDbLine
10
9.06686
20
-9.858595
30
0
11
8.843639
21
-10.249081
31
0
39
0
210
0
220
0
230
1
0
LINE
5
CE
100
AcDbEntity
8
1
62
256
6
ByLayer
370
-1
48
1
60
0
100
AcDbLine
10
11.007547
20
-6.702411
30
0
11
11.078374
21
-6.529942
31
0
39
0
210
0
220
0
230
1
0
LINE
5
CF
100
AcDbEntity
8
1
62
256
6
ByLayer
370
-1
48
1
60
0
100
AcDbLine
10
11.112142
20
-12.716651
30
0
11
11.426355
21
-12.877536
31
0
39
0
210
0
220
0
230
1
0
LINE
5
D0
100
AcDbEntity
8
1
62
256
6
ByLayer
370
-1
48
1
60
0
100
AcDbLine
10
7.927852
20
-12.669975
30
0
11
7.949022
21
-12.682406
31
0
39
0
210
0
220
0
230
1
0
LINE
5
D1
100
AcDbEntity
8
1
62
256
6
ByLayer
370
-1
48
1
60
0
100
AcDbLine
10
10.736778
20
-12.835115
30
0
11
11.558239
21
-13.317475
31
0
39
0
210
0
220
0
230
1
0
LINE
5
D2
100
AcDbEntity
8
1
62
256
6
ByLayer
370
-1
48
1
60
0
100
AcDbLine
10
9.171402
20
-12.552035
30
0
11
9.74443
21
-12.888516
31
0
39
0
210
0
220
0
230
1
0
LINE
5
D3
100
AcDbEntity
8
1
62
256
6
ByLayer
370
-1
48
1
60
0
100
AcDbLine
10
9.167743
20
-12.549802
30
0
11
9.171402
21
-12.552035
31
0
39
0
210
0
220
0
230
1
0
LINE
5
D4
100
AcDbEntity
8
1
62
256
6
ByLayer
370
-1
48
1
60
0
100
AcDbLine
10
11.953211
20
-3.66377
30
0
11
12.708469
21
-3.738535
31
0
39
0
210
0
220
0
230
1
0
LINE
5
D5
100
AcDbEntity
8
1
62
256
6
ByLayer
370
-1
48
1
60
0
100
AcDbLine
10
12.78078
20
-3.665341
30
0
11
12.025522
21
-3.590576
31
0
39
0
210
0
220
0
230
1
0
LINE
5
D6
100
AcDbEntity
8
1
62
256
6
ByLayer
370
-1
48
1
60
0
100
AcDbLine
10
18.959891
20
-13.408317
30
0
11
18.676177
21
-13.417769
31
0
39
0
210
0
220
0
230
1
0
LINE
5
D7
100
AcDbEntity
8
1
62
256
6
ByLayer
370
-1
48
1
60
0
100
AcDbLine
10
21.225885
20
-10.60345
30
0
11
21.009201
21
-10.477502
31
0
39
0
210
0
220
0
230
1
0
LINE
5
D8
100
AcDbEntity
8
1
62
256
6
ByLayer
370
-1
48
1
60
0
100
AcDbLine
10
21.288784
20
-11.388738
30
0
11
21.290793
21
-10.715776
31
0
39
0
210
0
220
0
230
1
0
LINE
5
D9
100
AcDbEntity
8
1
62
256
6
ByLayer
370
-1
48
1
60
0
100
AcDbLine
10
21.188544
20
-11.525402
30
0
11
21.232956
21
-11.494506
31
0
39
0
210
0
220
0
230
1
0
LINE
5
DA
100
AcDbEntity
8
1
62
256
6
ByLayer
370
-1
48
1
60
0
100
AcDbLine
10
21.132543
20
-11.688956
30
0
11
21.132715
21
-11.63117
31
0
39
0
210
0
220
0
230
1
0
LINE
5
DB
100
AcDbEntity
8
1
62
256
6
ByLayer
370
-1
48
1
60
0
100
AcDbLine
10
21.930565
20
-12.227407
30
0
11
21.197451
21
-11.801282
31
0
39
0
210
0
220
0
230
1
0
LINE
5
DC
100
AcDbEntity
8
1
62
256
6
ByLayer
370
-1
48
1
60
0
100
AcDbLine
10
22.03035
20
-12.425078
30
0
11
22.030424
21
-12.400217
31
0
39
0
210
0
220
0
230
1
0
LINE
5
DD
100
AcDbEntity
8
1
62
256
6
ByLayer
370
-1
48
1
60
0
100
AcDbLine
10
20.460217
20
-13.407823
30
0
11
19.7519
21
-13.405709
31
0
39
0
210
0
220
0
230
1
0
LINE
5
DE
100
AcDbEntity
8
1
62
256
6
ByLayer
370
-1
48
1
60
0
100
AcDbLine
10
20.563009
20
-13.380669
30
0
11
21.92946
21
-12.597289
31
0
39
0
210
0
220
0
230
1
0
LINE
5
DF
100
AcDbEntity
8
1
62
256
6
ByLayer
370
-1
48
1
60
0
100
AcDbLine
10
18.539147
20
-13.419031
30
0
11
15.890358
21
-13.419031
31
0
39
0
210
0
220
0
230
1
0
LINE
5
E0
100
AcDbEntity
8
1
62
256
6
ByLayer
370
-1
48
1
60
0
100
AcDbLine
10
19.856755
20
-7.116819
30
0
11
20.816891
21
-8.814138
31
0
39
0
210
0
220
0
230
1
0
LINE
5
E1
100
AcDbEntity
8
1
62
256
6
ByLayer
370
-1
48
1
60
0
100
AcDbLine
10
20.840641
20
-9.697653
30
0
11
20.84298
21
-8.914123
31
0
39
0
210
0
220
0
230
1
0
LINE
5
E2
100
AcDbEntity
8
1
62
256
6
ByLayer
370
-1
48
1
60
0
100
AcDbLine
10
20.425203
20
-12.90083
30
0
11
20.210294
21
-12.53741
31
0
39
0
210
0
220
0
230
1
0
LINE
5
E3
100
AcDbEntity
8
1
62
256
6
ByLayer
370
-1
48
1
60
0
100
AcDbLine
10
20.211072
20
-12.277023
30
0
11
20.428146
21
-11.914892
31
0
39
0
210
0
220
0
230
1
0
LINE
5
E4
100
AcDbEntity
8
1
62
256
6
ByLayer
370
-1
48
1
60
0
100
AcDbLine
10
20.840451
20
-13.10591
30
0
11
21.784573
21
-12.56465
31
0
39
0
210
0
220
0
230
1
0
LINE
5
E5
100
AcDbEntity
8
1
62
256
6
ByLayer
370
-1
48
1
60
0
100
AcDbLine
10
21.785485
20
-12.259181
30
0
11
20.844611
21
-11.712295
31
0
39
0
210
0
220
0
230
1
0
LINE
5
E6
100
AcDbEntity
8
1
62
256
6
ByLayer
370
-1
48
1
60
0
100
AcDbLine
10
18.338091
20
-7.164142
30
0
11
18.766508
21
-7.615976
31
0
39
0
210
0
220
0
230
1
0
LINE
5
E7
100
AcDbEntity
8
1
62
256
6
ByLayer
370
-1
48
1
60
0
100
AcDbLine
10
19.311333
20
-7.344291
30
0
11
19.802624
21
-7.031595
31
0
39
0
210
0
220
0
230
1
0
LINE
5
E8
100
AcDbEntity
8
1
62
256
6
ByLayer
370
-1
48
1
60
0
100
AcDbLine
10
20.827168
20
-9.939746
30
0
11
18.676177
21
-13.417769
31
0
39
0
210
0
220
0
230
1
0
LINE
5
E9
100
AcDbEntity
8
1
62
256
6
ByLayer
370
-1
48
1
60
0
100
AcDbLine
10
15.777225
20
-13.41841
30
0
11
15.382013
21
-12.585667
31
0
39
0
210
0
220
0
230
1
0
LINE
5
EA
100
AcDbEntity
8
1
62
256
6
ByLayer
370
-1
48
1
60
0
100
AcDbLine
10
15.474933
20
-12.543696
30
0
11
15.890358
21
-13.419031
31
0
39
0
210
0
220
0
230
1
0
LINE
5
EB
100
AcDbEntity
8
1
62
256
6
ByLayer
370
-1
48
1
60
0
100
AcDbLine
10
18.539147
20
-13.419031
30
0
11
20.840641
21
-9.697653
31
0
39
0
210
0
220
0
230
1
0
LINE
5
EC
100
AcDbEntity
8
1
62
256
6
ByLayer
370
-1
48
1
60
0
100
AcDbLine
10
19.856755
20
-7.116819
30
0
11
19.368501
21
-7.427581
31
0
39
0
210
0
220
0
230
1
0
LINE
5
ED
100
AcDbEntity
8
1
62
256
6
ByLayer
370
-1
48
1
60
0
100
AcDbLine
10
18.748397
20
-7.634106
30
0
11
18.319981
21
-7.182273
31
0
39
0
210
0
220
0
230
1
0
LINE
5
EE
100
AcDbEntity
8
1
62
256
6
ByLayer
370
-1
48
1
60
0
100
AcDbLine
10
18.959891
20
-13.408317
30
0
11
19.496318
21
-12.540947
31
0
39
0
210
0
220
0
230
1
0
LINE
5
EF
100
AcDbEntity
8
1
62
256
6
ByLayer
370
-1
48
1
60
0
100
AcDbLine
10
19.496318
20
-12.540947
30
0
11
20.776551
21
-10.29022
31
0
39
0
210
0
220
0
230
1
0
LINE
5
F0
100
AcDbEntity
8
1
62
256
6
ByLayer
370
-1
48
1
60
0
100
AcDbLine
10
19.754054
20
-12.684126
30
0
11
19.7519
21
-13.405709
31
0
39
0
210
0
220
0
230
1
0
LINE
5
F1
100
AcDbEntity
8
1
62
256
6
ByLayer
370
-1
48
1
60
0
100
AcDbLine
10
21.009201
20
-10.477502
30
0
11
19.754054
21
-12.684126
31
0
39
0
210
0
220
0
230
1
0
LINE
5
F2
100
AcDbEntity
8
1
62
256
6
ByLayer
370
-1
48
1
60
0
100
AcDbLine
10
19.696333
20
-13.405625
30
0
11
19.698487
21
-12.684042
31
0
39
0
210
0
220
0
230
1
0
LINE
5
F3
100
AcDbEntity
8
1
62
256
6
ByLayer
370
-1
48
1
60
0
100
AcDbLine
10
19.698487
20
-12.684042
30
0
11
19.252223
21
-13.405625
31
0
39
0
210
0
220
0
230
1
0
LINE
5
F4
100
AcDbEntity
8
1
62
256
6
ByLayer
370
-1
48
1
60
0
100
AcDbLine
10
19.612039
20
-6.748411
30
0
11
18.766508
21
-7.615976
31
0
39
0
210
0
220
0
230
1
0
LINE
5
F5
100
AcDbEntity
8
1
62
256
6
ByLayer
370
-1
48
1
60
0
100
AcDbLine
10
19.723044
20
-6.921851
30
0
11
19.311333
21
-7.344291
31
0
39
0
210
0
220
0
230
1
0
LINE
5
F6
100
AcDbEntity
8
1
62
256
6
ByLayer
370
-1
48
1
60
0
100
AcDbLine
10
19.015088
20
-6.469505
30
0
11
18.338091
21
-7.164142
31
0
39
0
210
0
220
0
230
1
0
LINE
5
F7
100
AcDbEntity
8
1
62
256
6
ByLayer
370
-1
48
1
60
0
100
AcDbLine
10
15.557751
20
-13.415809
30
0
11
15.382013
21
-12.585667
31
0
39
0
210
0
220
0
230
1
0
LINE
5
F8
100
AcDbEntity
8
1
62
256
6
ByLayer
370
-1
48
1
60
0
100
AcDbLine
10
15.351317
20
-13.414748
30
0
11
15.268496
21
-13.023523
31
0
39
0
210
0
220
0
230
1
0
LINE
5
F9
100
AcDbEntity
8
1
62
256
6
ByLayer
370
-1
48
1
60
0
100
AcDbLine
10
21.273847
20
-12.408359
30
0
11
20.646494
21
-12.043707
31
0
39
0
210
0
220
0
230
1
0
LINE
5
FA
100
AcDbEntity
8
1
62
256
6
ByLayer
370
-1
48
1
60
0
100
AcDbLine
10
20.644328
20
-12.769259
30
0
11
21.273847
21
-12.408359
31
0
39
0
210
0
220
0
230
1
0
LINE
5
FB
100
AcDbEntity
8
1
62
256
6
ByLayer
370
-1
48
1
60
0
100
AcDbLine
10
21.689456
20
-12.508775
30
0
11
21.329988
21
-12.506595
31
0
39
0
210
0
220
0
230
1
0
LINE
5
FC
100
AcDbEntity
8
1
62
256
6
ByLayer
370
-1
48
1
60
0
100
AcDbLine
10
21.329988
20
-12.506595
30
0
11
20.700469
21
-12.867495
31
0
39
0
210
0
220
0
230
1
0
LINE
5
FD
100
AcDbEntity
8
1
62
256
6
ByLayer
370
-1
48
1
60
0
100
AcDbLine
10
21.330571
20
-12.311133
30
0
11
21.690039
21
-12.313313
31
0
39
0
210
0
220
0
230
1
0
LINE
5
FE
100
AcDbEntity
8
1
62
256
6
ByLayer
370
-1
48
1
60
0
100
AcDbLine
10
20.703218
20
-11.946482
30
0
11
21.330571
21
-12.311133
31
0
39
0
210
0
220
0
230
1
0
LINE
5
FF
100
AcDbEntity
8
1
62
256
6
ByLayer
370
-1
48
1
60
0
100
AcDbLine
10
21.690039
20
-12.313313
30
0
11
21.785485
21
-12.259181
31
0
39
0
210
0
220
0
230
1
0
LINE
5
100
100
AcDbEntity
8
1
62
256
6
ByLayer
370
-1
48
1
60
0
100
AcDbLine
10
21.784573
20
-12.56465
30
0
11
21.689456
21
-12.508775
31
0
39
0
210
0
220
0
230
1
0
LINE
5
101
100
AcDbEntity
8
1
62
256
6
ByLayer
370
-1
48
1
60
0
100
AcDbLine
10
20.700469
20
-12.867495
30
0
11
20.840451
21
-13.10591
31
0
39
0
210
0
220
0
230
1
0
LINE
5
102
100
AcDbEntity
8
1
62
256
6
ByLayer
370
-1
48
1
60
0
100
AcDbLine
10
20.646494
20
-12.043707
30
0
11
20.429419
21
-12.405838
31
0
39
0
210
0
220
0
230
1
0
LINE
5
103
100
AcDbEntity
8
1
62
256
6
ByLayer
370
-1
48
1
60
0
100
AcDbLine
10
20.429419
20
-12.405838
30
0
11
20.644328
21
-12.769259
31
0
39
0
210
0
220
0
230
1
0
LINE
5
104
100
AcDbEntity
8
1
62
256
6
ByLayer
370
-1
48
1
60
0
100
AcDbLine
10
20.844611
20
-11.712295
30
0
11
20.703218
21
-11.946482
31
0
39
0
210
0
220
0
230
1
0
LINE
5
105
100
AcDbEntity
8
1
62
256
6
ByLayer
370
-1
48
1
60
0
100
AcDbLine
10
11.166034
20
-6.356793
30
0
11
11.491308
21
-5.796645
31
0
39
0
210
0
220
0
230
1
0
LINE
5
106
100
AcDbEntity
8
1
62
256
6
ByLayer
370
-1
48
1
60
0
100
AcDbLine
10
11.603339
20
-5.625909
30
0
11
11.683564
21
-5.519836
31
0
39
0
210
0
220
0
230
1
0
LINE
5
107
100
AcDbEntity
8
1
62
256
6
ByLayer
370
-1
48
1
60
0
100
AcDbLine
10
17.211898
20
-2.667266
30
0
11
16.991009
21
-2.276779
31
0
39
0
210
0
220
0
230
1
0
LINE
5
108
100
AcDbEntity
8
1
62
256
6
ByLayer
370
-1
48
1
60
0
100
AcDbLine
10
19.133668
20
-5.84902
30
0
11
19.20348
21
-6.016286
31
0
39
0
210
0
220
0
230
1
0
LINE
5
109
100
AcDbEntity
8
1
62
256
6
ByLayer
370
-1
48
1
60
0
100
AcDbLine
10
13.863873
20
-2.989752
30
0
11
13.645493
21
-3.150636
31
0
39
0
210
0
220
0
230
1
0
LINE
5
10A
100
AcDbEntity
8
1
62
256
6
ByLayer
370
-1
48
1
60
0
100
AcDbLine
10
14.209991
20
-1.854776
30
0
11
14.171474
21
-1.877315
31
0
39
0
210
0
220
0
230
1
0
LINE
5
10B
100
AcDbEntity
8
1
62
256
6
ByLayer
370
-1
48
1
60
0
100
AcDbLine
10
14.28233
20
-0.904869
30
0
11
14.274334
21
-1.743074
31
0
39
0
210
0
220
0
230
1
0
LINE
5
10C
100
AcDbEntity
8
1
62
256
6
ByLayer
370
-1
48
1
60
0
100
AcDbLine
10
14.402563
20
-0.72059
30
0
11
14.381319
21
-0.73302
31
0
39
0
210
0
220
0
230
1
0
LINE
5
10D
100
AcDbEntity
8
1
62
256
6
ByLayer
370
-1
48
1
60
0
100
AcDbLine
10
14.544958
20
-1.938659
30
0
11
13.878128
21
-1.872648
31
0
39
0
210
0
220
0
230
1
0
LINE
5
10E
100
AcDbEntity
8
1
62
256
6
ByLayer
370
-1
48
1
60
0
100
AcDbLine
10
13.969921
20
-2.27514
30
0
11
13.303091
21
-2.209129
31
0
39
0
210
0
220
0
230
1
0
LINE
5
10F
100
AcDbEntity
8
1
62
256
6
ByLayer
370
-1
48
1
60
0
100
AcDbLine
10
13.903611
20
-2.386647
30
0
11
13.238747
21
-2.320831
31
0
39
0
210
0
220
0
230
1
0
LINE
5
110
100
AcDbEntity
8
1
62
256
6
ByLayer
370
-1
48
1
60
0
100
AcDbLine
10
13.903018
20
-2.875556
30
0
11
13.234088
21
-2.809336
31
0
39
0
210
0
220
0
230
1
0
LINE
5
111
100
AcDbEntity
8
1
62
256
6
ByLayer
370
-1
48
1
60
0
100
AcDbLine
10
13.863873
20
-2.989752
30
0
11
13.169744
21
-2.921038
31
0
39
0
210
0
220
0
230
1
0
LINE
5
112
100
AcDbEntity
8
1
62
256
6
ByLayer
370
-1
48
1
60
0
100
AcDbLine
10
15.091845
20
-0.788823
30
0
11
14.402563
21
-0.72059
31
0
39
0
210
0
220
0
230
1
0
LINE
5
113
100
AcDbEntity
8
1
62
256
6
ByLayer
370
-1
48
1
60
0
100
AcDbLine
10
15.070601
20
-0.801254
30
0
11
14.381319
21
-0.73302
31
0
39
0
210
0
220
0
230
1
0
LINE
5
114
100
AcDbEntity
8
1
62
256
6
ByLayer
370
-1
48
1
60
0
100
AcDbLine
10
14.968585
20
-0.972803
30
0
11
14.28233
21
-0.904869
31
0
39
0
210
0
220
0
230
1
0
LINE
5
115
100
AcDbEntity
8
1
62
256
6
ByLayer
370
-1
48
1
60
0
100
AcDbLine
10
14.938448
20
-1.808817
30
0
11
14.274334
21
-1.743074
31
0
39
0
210
0
220
0
230
1
0
LINE
5
116
100
AcDbEntity
8
1
62
256
6
ByLayer
370
-1
48
1
60
0
100
AcDbLine
10
14.872138
20
-1.920324
30
0
11
14.209991
21
-1.854776
31
0
39
0
210
0
220
0
230
1
0
LINE
5
117
100
AcDbEntity
8
1
62
256
6
ByLayer
370
-1
48
1
60
0
100
AcDbLine
10
14.822761
20
-1.949217
30
0
11
14.661363
21
-1.93324
31
0
39
0
210
0
220
0
230
1
0
LINE
5
118
100
AcDbEntity
8
1
62
256
6
ByLayer
370
-1
48
1
60
0
100
AcDbLine
10
11.112142
20
-12.716651
30
0
11
10.985637
21
-12.704128
31
0
39
0
210
0
220
0
230
1
0
LINE
5
119
100
AcDbEntity
8
1
62
256
6
ByLayer
370
-1
48
1
60
0
100
AcDbLine
10
9.653243
20
-12.334772
30
0
11
9.549224
21
-12.324475
31
0
39
0
210
0
220
0
230
1
0
LINE
5
11A
100
AcDbEntity
8
1
62
256
6
ByLayer
370
-1
48
1
60
0
100
AcDbLine
10
9.702448
20
-12.363665
30
0
11
9.510912
21
-12.344705
31
0
39
0
210
0
220
0
230
1
0
LINE
5
11B
100
AcDbEntity
8
1
62
256
6
ByLayer
370
-1
48
1
60
0
100
AcDbLine
10
9.767264
20
-12.464136
30
0
11
9.375911
21
-12.425395
31
0
39
0
210
0
220
0
230
1
0
LINE
5
11C
100
AcDbEntity
8
1
62
256
6
ByLayer
370
-1
48
1
60
0
100
AcDbLine
10
9.773417
20
-12.517576
30
0
11
9.300074
21
-12.470718
31
0
39
0
210
0
220
0
230
1
0
LINE
5
11D
100
AcDbEntity
8
1
62
256
6
ByLayer
370
-1
48
1
60
0
100
AcDbLine
10
9.838232
20
-12.618046
30
0
11
9.171402
21
-12.552035
31
0
39
0
210
0
220
0
230
1
0
LINE
5
11E
100
AcDbEntity
8
1
62
256
6
ByLayer
370
-1
48
1
60
0
100
AcDbLine
10
10.411261
20
-12.954527
30
0
11
9.74443
21
-12.888516
31
0
39
0
210
0
220
0
230
1
0
LINE
5
11F
100
AcDbEntity
8
1
62
256
6
ByLayer
370
-1
48
1
60
0
100
AcDbLine
10
12.313497
20
-13.39224
30
0
11
11.558239
21
-13.317475
31
0
39
0
210
0
220
0
230
1
0
LINE
5
120
100
AcDbEntity
8
1
62
256
6
ByLayer
370
-1
48
1
60
0
100
AcDbLine
10
8.516144
20
-12.56606
30
0
11
7.829889
21
-12.498126
31
0
39
0
210
0
220
0
230
1
0
LINE
5
121
100
AcDbEntity
8
1
62
256
6
ByLayer
370
-1
48
1
60
0
100
AcDbLine
10
8.617133
20
-12.738209
30
0
11
7.927852
21
-12.669975
31
0
39
0
210
0
220
0
230
1
0
LINE
5
122
100
AcDbEntity
8
1
62
256
6
ByLayer
370
-1
48
1
60
0
100
AcDbLine
10
8.638303
20
-12.750639
30
0
11
7.949022
21
-12.682406
31
0
39
0
210
0
220
0
230
1
0
LINE
5
123
100
AcDbEntity
8
1
62
256
6
ByLayer
370
-1
48
1
60
0
100
AcDbLine
10
8.493049
20
-10.903409
30
0
11
8.340828
21
-10.88834
31
0
39
0
210
0
220
0
230
1
0
LINE
5
124
100
AcDbEntity
8
1
62
256
6
ByLayer
370
-1
48
1
60
0
100
AcDbLine
10
8.28456
20
-10.986728
30
0
11
8.46946
21
-11.005031
31
0
39
0
210
0
220
0
230
1
0
LINE
5
125
100
AcDbEntity
8
1
62
256
6
ByLayer
370
-1
48
1
60
0
100
AcDbLine
10
11.697813
20
-4.110544
30
0
11
11.953211
21
-3.66377
31
0
39
0
210
0
220
0
230
1
0
LINE
5
126
100
AcDbEntity
8
1
62
256
6
ByLayer
370
-1
48
1
60
0
100
AcDbLine
10
13.169744
20
-2.921038
30
0
11
12.025522
21
-3.590576
31
0
39
0
210
0
220
0
230
1
0
LINE
5
127
100
AcDbEntity
8
1
62
256
6
ByLayer
370
-1
48
1
60
0
100
AcDbLine
10
13.238747
20
-2.320831
30
0
11
13.234088
21
-2.809336
31
0
39
0
210
0
220
0
230
1
0
LINE
5
128
100
AcDbEntity
8
1
62
256
6
ByLayer
370
-1
48
1
60
0
100
AcDbLine
10
13.878128
20
-1.872648
30
0
11
13.303091
21
-2.209129
31
0
39
0
210
0
220
0
230
1
0
LINE
5
129
100
AcDbEntity
8
1
62
256
6
ByLayer
370
-1
48
1
60
0
100
AcDbLine
10
7.827347
20
-11.786159
30
0
11
7.829889
21
-12.498126
31
0
39
0
210
0
220
0
230
1
0
LINE
5
12A
100
AcDbEntity
8
1
62
256
6
ByLayer
370
-1
48
1
60
0
100
AcDbLine
10
8.394364
20
-13.463398
30
0
11
8.394379
21
-13.513045
31
0
39
0
210
0
220
0
230
1
0
LINE
5
12B
100
AcDbEntity
8
1
62
256
6
ByLayer
370
-1
48
1
60
0
100
AcDbLine
10
7.238054
20
-13.487684
30
0
11
7.238057
21
-13.498135
31
0
39
0
210
0
220
0
230
1
0
LINE
5
12C
100
AcDbEntity
8
1
62
256
6
ByLayer
370
-1
48
1
60
0
100
AcDbLine
10
9.005312
20
-13.47328
30
0
11
9.005321
21
-13.501312
31
0
39
0
210
0
220
0
230
1
0
LINE
5
12D
100
AcDbEntity
8
1
62
256
6
ByLayer
370
-1
48
1
60
0
100
AcDbLine
10
9.01804
20
-13.473682
30
0
11
9.018052
21
-13.513877
31
0
39
0
210
0
220
0
230
1
0
LINE
5
12E
100
AcDbEntity
8
1
62
256
6
ByLayer
370
-1
48
1
60
0
100
AcDbLine
10
16.529225
20
-9.033837
30
0
11
16.510149
21
-9.027426
31
0
39
0
210
0
220
0
230
1
0
LINE
5
12F
100
AcDbEntity
8
1
62
256
6
ByLayer
370
-1
48
1
60
0
100
AcDbLine
10
15.459724
20
-10.090585
30
0
11
15.715856
21
-10.118046
31
0
39
0
210
0
220
0
230
1
0
LINE
5
130
100
AcDbEntity
8
1
62
256
6
ByLayer
370
-1
48
1
60
0
100
AcDbLine
10
16.510149
20
-9.027426
30
0
11
16.766281
21
-9.054887
31
0
39
0
210
0
220
0
230
1
0
LINE
5
131
100
AcDbEntity
8
1
62
256
6
ByLayer
370
-1
48
1
60
0
100
AcDbLine
10
16.529225
20
-9.033837
30
0
11
16.787402
21
-9.061516
31
0
39
0
210
0
220
0
230
1
0
LINE
5
132
100
AcDbEntity
8
1
62
256
6
ByLayer
370
-1
48
1
60
0
100
AcDbLine
10
16.512663
20
-8.249494
30
0
11
16.531782
21
-8.243084
31
0
39
0
210
0
220
0
230
1
0
LINE
5
133
100
AcDbEntity
8
1
62
256
6
ByLayer
370
-1
48
1
60
0
100
AcDbLine
10
16.512663
20
-8.249494
30
0
11
16.768796
21
-8.276955
31
0
39
0
210
0
220
0
230
1
0
LINE
5
134
100
AcDbEntity
8
1
62
256
6
ByLayer
370
-1
48
1
60
0
100
AcDbLine
10
16.531782
20
-8.243084
30
0
11
16.789958
21
-8.270763
31
0
39
0
210
0
220
0
230
1
0
LINE
5
135
100
AcDbEntity
8
1
62
256
6
ByLayer
370
-1
48
1
60
0
100
AcDbLine
10
15.46374
20
-10.110582
30
0
11
15.721916
21
-10.138262
31
0
39
0
210
0
220
0
230
1
0
LINE
5
136
100
AcDbEntity
8
1
62
256
6
ByLayer
370
-1
48
1
60
0
100
AcDbLine
10
15.469113
20
-7.186335
30
0
11
15.473258
21
-7.166338
31
0
39
0
210
0
220
0
230
1
0
LINE
5
137
100
AcDbEntity
8
1
62
256
6
ByLayer
370
-1
48
1
60
0
100
AcDbLine
10
15.46374
20
-10.110582
30
0
11
15.459724
21
-10.090585
31
0
39
0
210
0
220
0
230
1
0
LINE
5
138
100
AcDbEntity
8
1
62
256
6
ByLayer
370
-1
48
1
60
0
100
AcDbLine
10
14.090483
20
-9.70804
30
0
11
14.286728
21
-9.72908
31
0
39
0
210
0
220
0
230
1
0
LINE
5
139
100
AcDbEntity
8
1
62
256
6
ByLayer
370
-1
48
1
60
0
100
AcDbLine
10
15.469113
20
-7.186335
30
0
11
15.725246
21
-7.213795
31
0
39
0
210
0
220
0
230
1
0
LINE
5
13A
100
AcDbEntity
8
1
62
256
6
ByLayer
370
-1
48
1
60
0
100
AcDbLine
10
15.473258
20
-7.166338
30
0
11
15.731435
21
-7.194018
31
0
39
0
210
0
220
0
230
1
0
LINE
5
13B
100
AcDbEntity
8
1
62
256
6
ByLayer
370
-1
48
1
60
0
100
AcDbLine
10
14.162875
20
-7.588746
30
0
11
14.293602
21
-7.602761
31
0
39
0
210
0
220
0
230
1
0
LINE
5
13C
100
AcDbEntity
8
1
62
256
6
ByLayer
370
-1
48
1
60
0
100
AcDbLine
10
14.184422
20
-7.579075
30
0
11
14.280673
21
-7.589394
31
0
39
0
210
0
220
0
230
1
0
LINE
5
13D
100
AcDbEntity
8
1
62
256
6
ByLayer
370
-1
48
1
60
0
100
AcDbLine
10
14.115304
20
-9.725902
30
0
11
14.273711
21
-9.742885
31
0
39
0
210
0
220
0
230
1
0
LINE
5
13E
100
AcDbEntity
8
1
62
256
6
ByLayer
370
-1
48
1
60
0
100
AcDbLine
10
12.036751
20
-3.58399
30
0
11
12.878218
21
-2.109916
31
0
39
0
210
0
220
0
230
1
0
LINE
5
13F
100
AcDbEntity
8
SK1
62
256
6
ByLayer
370
-1
48
1
60
0
100
AcDbLine
10
0
20
-12.4375
30
0
11
0
21
12.4375
31
0
39
0
210
0
220
0
230
1
0
LINE
5
140
100
AcDbEntity
8
SK1
62
256
6
ByLayer
370
-1
48
1
60
0
100
AcDbLine
10
-127.994199
20
-12.4375
30
0
11
-127.994199
21
12.4375
31
0
39
0
210
0
220
0
230
1
0
LINE
5
141
100
AcDbEntity
8
SK1
62
256
6
ByLayer
370
-1
48
1
60
0
100
AcDbLine
10
-127.994199
20
12.4375
30
0
11
0
21
12.4375
31
0
39
0
210
0
220
0
230
1
0
LINE
5
142
100
AcDbEntity
8
1
62
256
6
ByLayer
370
-1
48
1
60
0
100
AcDbLine
10
15.351317
20
-13.414748
30
0
11
14.718501
21
-13.415223
31
0
39
0
210
0
220
0
230
1
0
LINE
5
143
100
AcDbEntity
8
1
62
256
6
ByLayer
370
-1
48
1
60
0
100
AcDbLine
10
19.290112
20
-6.187314
30
0
11
19.612039
21
-6.748411
31
0
39
0
210
0
220
0
230
1
0
LINE
5
144
100
AcDbEntity
8
1
62
256
6
ByLayer
370
-1
48
1
60
0
100
AcDbLine
10
19.252223
20
-13.405625
30
0
11
19.696333
21
-13.405625
31
0
39
0
210
0
220
0
230
1
0
LINE
5
145
100
AcDbEntity
8
1
62
256
6
ByLayer
370
-1
48
1
60
0
100
AcDbLine
10
15.777225
20
-13.41841
30
0
11
15.557751
21
-13.415809
31
0
39
0
210
0
220
0
230
1
0
LINE
5
146
100
AcDbEntity
8
1
62
256
6
ByLayer
370
-1
48
1
60
0
100
AcDbLine
10
19.723044
20
-6.921851
30
0
11
19.802624
21
-7.031595
31
0
39
0
210
0
220
0
230
1
0
LINE
5
147
100
AcDbEntity
8
1
62
256
6
ByLayer
370
-1
48
1
60
0
100
AcDbLine
10
20.777853
20
-10.247147
30
0
11
20.827168
21
-9.939746
31
0
39
0
210
0
220
0
230
1
0
MTEXT
5
25D
100
AcDbEntity
8
SK6
62
256
6
ByLayer
370
-1
48
1
60
0
100
AcDbMText
10
-83.954466
20
-2.972805
30
0
210
0
220
0
230
1
1
\W00.740;\fsimplex.shx,bigfont.shx;266LFA-2525-16 
40
3.5
41
0
44
1.084337
50
0
71
7
72
5
7
DEFAULT
0
DIMENSION
5
290
100
AcDbEntity
8
2
62
256
6
ByLayer
370
-3
48
1
60
0
100
AcDbDimension
2
DimnDraft3D1
10
23.355801
20
-27.6625
30
0
11
9.048953
21
-27.6625
31
0
70
32
71
5
72
1
41
1
210
0
220
0
230
1
3
Standard
100
AcDbAlignedDimension
13
0
23
-13.9375
33
0
14
23.355801
24
-14.9125
34
0
50
0
100
AcDbRotatedDimension
1001
ACAD
1000
DSTYLE
1002
{
1070
   279
1070
     0
1070
   172
1070
     1
1070
   173
1070
     1
1070
   340
1005
25E
1070
   271
1070
     3
1070
   272
1070
     3
1070
    77
1070
     1
1070
    73
1070
     0
1070
   171
1070
     4
1070
   274
1070
     4
1070
   177
1070
     2
1070
   176
1070
     2
1070
   178
1070
     7
1070
    78
1070
     8
1070
    41
1041
3.0
1070
   147
1041
2.25
1070
    42
1041
1.5
1070
    44
1041
3.0
1070
   140
1041
4.5
1070
   343
1005
291
1070
   344
1005
291
1002
}
0
DIMENSION
5
2A6
100
AcDbEntity
8
SK2
62
256
6
ByLayer
370
-3
48
1
60
0
100
AcDbDimension
2
DimnDraft3D2
10
23.355801
20
-37.6625
30
0
11
-55.47512
21
-37.6625
31
0
70
32
71
5
72
1
41
1
210
0
220
0
230
1
3
Standard
100
AcDbAlignedDimension
13
-127.994199
23
-13.9375
33
0
14
23.355801
24
-14.9125
34
0
50
0
100
AcDbRotatedDimension
1001
ACAD
1000
DSTYLE
1002
{
1070
   279
1070
     0
1070
   172
1070
     1
1070
   173
1070
     1
1070
   340
1005
25E
1070
   271
1070
     3
1070
   272
1070
     3
1070
    77
1070
     1
1070
    73
1070
     0
1070
   171
1070
     4
1070
   274
1070
     4
1070
   177
1070
     2
1070
   176
1070
     2
1070
   178
1070
     7
1070
    78
1070
     8
1070
    41
1041
3.0
1070
   147
1041
2.25
1070
    42
1041
1.5
1070
    44
1041
3.0
1070
   140
1041
4.5
1070
   343
1005
291
1070
   344
1005
291
1002
}
0
DIMENSION
5
2B4
100
AcDbEntity
8
SK2
62
256
6
ByLayer
370
-3
48
1
60
0
100
AcDbDimension
2
DimnDraft3D3
10
-137.744199
20
-12.4375
30
0
11
-137.744199
21
-2.628947
31
0
70
32
71
5
72
1
41
1
210
0
220
0
230
1
3
Standard
100
AcDbAlignedDimension
13
-129.494199
23
12.4375
33
0
14
-129.494199
24
-12.4375
34
0
50
90
100
AcDbRotatedDimension
1001
ACAD
1000
DSTYLE
1002
{
1070
    74
1070
     0
1070
   279
1070
     0
1070
   172
1070
     1
1070
   173
1070
     1
1070
   340
1005
25E
1070
   271
1070
     3
1070
   272
1070
     3
1070
    77
1070
     1
1070
    73
1070
     0
1070
   171
1070
     4
1070
   274
1070
     4
1070
   177
1070
     2
1070
   176
1070
     2
1070
   178
1070
     7
1070
    78
1070
     8
1070
    41
1041
3.0
1070
   147
1041
2.25
1070
    42
1041
1.5
1070
    44
1041
3.0
1070
   140
1041
4.5
1070
   343
1005
291
1070
   344
1005
291
1002
}
0
DIMENSION
5
2C2
100
AcDbEntity
8
2
62
256
6
ByLayer
370
-3
48
1
60
0
100
AcDbDimension
2
DimnDraft3D4
10
37.605801
20
-13.4125
30
0
11
37.605801
21
-3.116447
31
0
70
32
71
5
72
1
41
1
210
0
220
0
230
1
3
Standard
100
AcDbAlignedDimension
13
1.5
23
12.4375
33
0
14
24.855801
24
-13.4125
34
0
50
90
100
AcDbRotatedDimension
1001
ACAD
1000
DSTYLE
1002
{
1070
    74
1070
     0
1070
   279
1070
     0
1070
   172
1070
     1
1070
   173
1070
     1
1070
   340
1005
25E
1070
   271
1070
     3
1070
   272
1070
     3
1070
    77
1070
     1
1070
    73
1070
     0
1070
   171
1070
     4
1070
   274
1070
     4
1070
   177
1070
     2
1070
   176
1070
     2
1070
   178
1070
     7
1070
    78
1070
     8
1070
    41
1041
3.0
1070
   147
1041
2.25
1070
    42
1041
1.5
1070
    44
1041
3.0
1070
   140
1041
4.5
1070
   343
1005
291
1070
   344
1005
291
1002
}
0
ENDSEC
0
SECTION
2
OBJECTS
0
DICTIONARY
5
2f2
330
0
100
AcDbDictionary
280
0
281
1
3
ACAD_GROUP
350
2f3
3
ACAD_MLINESTYLE
350
2f4
0
DICTIONARY
5
2f3
330
0
100
AcDbDictionary
280
0
281
1
0
DICTIONARY
5
2f4
330
0
100
AcDbDictionary
280
0
281
1
3
Standard
350
18
0
MLINESTYLE
5
18
330
2f4
100
AcDbMlineStyle
2
Standard
70
0
3

62
256
51
90
52
90
71
2
49
-0.5
62
256
6
ByLayer
49
0.5
62
256
6
ByLayer
0
RASTERVARIABLES
5
2e1
330

100
AcDbRasterVariables
90
0
70
1
71
1
72
1
0
ENDSEC
0
EOF
