0
SECTION
2
HEADER
9
$ACADVER
1
AC1015
9
$DWGCODEPAGE
3
ANSI_1252
9
$HANDSEED
5
300
9
$ANGBASE
50
0
9
$ANGDIR
70
0
9
$ATTMODE
70
1
9
$AUNITS
70
0
9
$AUPREC
70
0
9
$CECOLOR
62
256
9
$CELTSCALE
40
1
9
$CELTYPE
6
ByLayer
9
$CELWEIGHT
370
-1
9
$CLAYER
8
0
9
$CMLJUST
70
0
9
$CMLSCALE
40
1
9
$CMLSTYLE
2
Standard
9
$DIMSTYLE
2
Standard
9
$TEXTSIZE
40
0.2
9
$TEXTSTYLE
7
Standard
9
$LUNITS
70
2
9
$LUPREC
70
4
9
$EXTNAMES
290
1
9
$INSUNITS
70
4
9
$LTSCALE
40
1
9
$LWDISPLAY
290
0
9
$PDMODE
70
0
9
$PDSIZE
40
0
9
$PLINEGEN
70
0
0
ENDSEC
0
SECTION
2
CLASSES
0
CLASS
1
RASTERVARIABLES
2
AcDbRasterVariables
3
ISM
90
0
280
0
281
0
0
ENDSEC
0
SECTION
2
TABLES
0
TABLE
2
VPORT
5
2f6
100
AcDbSymbolTable
0
VPORT
5
1
100
AcDbSymbolTableRecord
100
AcDbViewportTableRecord
2
*Active
70
0
10
0
20
0
11
1
21
1
12
-1
22
1
13
0
23
0
14
0.5
24
0.5
15
10
25
10
16
0
26
0
36
1
17
0
27
0
37
0
0
ENDTAB
0
TABLE
2
LTYPE
5
2f7
100
AcDbSymbolTable
0
LTYPE
5
14
100
AcDbSymbolTableRecord
100
AcDbLinetypeTableRecord
70
0
2
ByBlock
3

72
65
73
0
40
0
0
LTYPE
5
15
100
AcDbSymbolTableRecord
100
AcDbLinetypeTableRecord
70
0
2
ByLayer
3

72
65
73
0
40
0
0
LTYPE
5
16
100
AcDbSymbolTableRecord
100
AcDbLinetypeTableRecord
70
0
2
CONTINUOUS
3
Solid line
72
65
73
0
40
0
0
LTYPE
5
3B
100
AcDbSymbolTableRecord
100
AcDbLinetypeTableRecord
70
0
2
DASHED
3
__ __ __ __ __ __ __ __ __
72
65
73
2
40
25.72
49
12.86
74
0
49
-12.86
74
0
0
LTYPE
5
3C
100
AcDbSymbolTableRecord
100
AcDbLinetypeTableRecord
70
0
2
HIDDEN
3
_ _ _ _ _ _ _ _ _ _ _ _ _ _ _
72
65
73
2
40
0.5
49
0.25
74
0
49
-0.25
74
0
0
LTYPE
5
3D
100
AcDbSymbolTableRecord
100
AcDbLinetypeTableRecord
70
0
2
PHANTOM
3
____ _ _ ____ _ _ _____ _ _ ____
72
65
73
6
40
50.5
49
18
74
0
49
-6.5
74
0
49
6.5
74
0
49
-6.5
74
0
49
6.5
74
0
49
-6.5
74
0
0
LTYPE
5
3E
100
AcDbSymbolTableRecord
100
AcDbLinetypeTableRecord
70
0
2
CENTER
3
____ _ ____ _ ____ _ ____
72
65
73
4
40
47.5
49
22
74
0
49
-8.5
74
0
49
8.5
74
0
49
-8.5
74
0
0
LTYPE
5
3F
100
AcDbSymbolTableRecord
100
AcDbLinetypeTableRecord
70
0
2
DOT
3
.........................
72
65
73
2
40
10
49
0
74
0
49
-10
74
0
0
LTYPE
5
40
100
AcDbSymbolTableRecord
100
AcDbLinetypeTableRecord
70
0
2
DASHDOT
3
_._._._._._._._._._._._._._._._.
72
65
73
4
40
70
49
31
74
0
49
-13
74
0
49
13
74
0
49
-13
74
0
0
ENDTAB
0
TABLE
2
LAYER
5
2f8
100
AcDbSymbolTable
0
LAYER
5
10
100
AcDbSymbolTableRecord
100
AcDbLayerTableRecord
2
0
70
0
62
7
6
CONTINUOUS
290
1
370
-3
390
0
0
LAYER
5
42
100
AcDbSymbolTableRecord
100
AcDbLayerTableRecord
2
81
70
0
62
-3
6
CONTINUOUS
290
1
370
-3
390
0
0
LAYER
5
44
100
AcDbSymbolTableRecord
100
AcDbLayerTableRecord
2
2
70
0
62
7
6
CONTINUOUS
290
1
370
-3
390
0
0
LAYER
5
47
100
AcDbSymbolTableRecord
100
AcDbLayerTableRecord
2
80
70
0
62
-6
6
CONTINUOUS
290
1
370
-3
390
0
0
LAYER
5
4A
100
AcDbSymbolTableRecord
100
AcDbLayerTableRecord
2
1
70
0
62
4
6
CONTINUOUS
290
1
370
-3
390
0
0
LAYER
5
2e3
100
AcDbSymbolTableRecord
100
AcDbLayerTableRecord
2
SK1
70
0
62
4
6
CONTINUOUS
290
1
370
-3
390
0
0
LAYER
5
2e4
100
AcDbSymbolTableRecord
100
AcDbLayerTableRecord
2
SK6
70
0
62
5
6
CONTINUOUS
290
1
370
-3
390
0
0
LAYER
5
2e5
100
AcDbSymbolTableRecord
100
AcDbLayerTableRecord
2
SK2
70
0
62
7
6
CONTINUOUS
290
1
370
-3
390
0
0
ENDTAB
0
TABLE
2
STYLE
5
2f9
100
AcDbSymbolTable
0
STYLE
5
11
100
AcDbSymbolTableRecord
100
AcDbTextStyleTableRecord
2
Standard
3
txt
70
0
71
0
40
0
41
1
42
0
50
0
0
STYLE
5
25F
100
AcDbSymbolTableRecord
100
AcDbTextStyleTableRecord
2
DEFAULT
3
simplex.shx
70
0
71
0
40
0
41
1
42
0
50
0
0
STYLE
5
282
100
AcDbSymbolTableRecord
100
AcDbTextStyleTableRecord
2
DWGDirectTextStyle
3
SIMPLEX
70
0
71
0
40
0
41
1
42
0
50
0
0
ENDTAB
0
TABLE
2
DIMSTYLE
5
2fa
100
AcDbSymbolTable
100
AcDbDimStyleTable
0
DIMSTYLE
105
27
100
AcDbSymbolTableRecord
100
AcDbDimStyleTableRecord
2
Standard
70
0
3
<>
41
0.18
42
0.0625
44
0.18
140
0.18
147
0.09
73
0
74
0
77
1
271
2
275
0
278
52
280
0
340
11
0
ENDTAB
0
TABLE
2
VIEW
5
2fb
100
AcDbSymbolTable
0
ENDTAB
0
TABLE
2
UCS
5
2fc
100
AcDbSymbolTable
0
ENDTAB
0
TABLE
2
APPID
5
2fd
100
AcDbSymbolTable
0
APPID
5
12
100
AcDbSymbolTableRecord
100
AcDbRegAppTableRecord
2
ACAD
70
0
0
ENDTAB
0
TABLE
2
BLOCK_RECORD
5
2fe
100
AcDbSymbolTable
0
BLOCK_RECORD
5
1F
100
AcDbSymbolTableRecord
100
AcDbBlockTableRecord
2
*Model_Space
340
0
70
0
0
BLOCK_RECORD
5
1B
100
AcDbSymbolTableRecord
100
AcDbBlockTableRecord
2
*Paper_Space
340
0
70
0
0
BLOCK_RECORD
5
23
100
AcDbSymbolTableRecord
100
AcDbBlockTableRecord
2
*Paper_Space0
340
0
70
0
0
BLOCK_RECORD
5
284
100
AcDbSymbolTableRecord
100
AcDbBlockTableRecord
2
DimnDraft3D1
340
0
70
0
0
BLOCK_RECORD
5
292
100
AcDbSymbolTableRecord
100
AcDbBlockTableRecord
2
_CLOSED
340
0
70
0
0
BLOCK_RECORD
5
299
100
AcDbSymbolTableRecord
100
AcDbBlockTableRecord
2
DimnDraft3D2
340
0
70
0
0
BLOCK_RECORD
5
2A8
100
AcDbSymbolTableRecord
100
AcDbBlockTableRecord
2
DimnDraft3D3
340
0
70
0
0
BLOCK_RECORD
5
2B6
100
AcDbSymbolTableRecord
100
AcDbBlockTableRecord
2
DimnDraft3D4
340
0
70
0
0
ENDTAB
0
ENDSEC
0
SECTION
2
BLOCKS
0
BLOCK
5
20
100
AcDbEntity
8
0
100
AcDbBlockBegin
2
*Model_Space
70
0
10
0
20
0
30
0
3
*Model_Space
0
ENDBLK
5
21
100
AcDbEntity
8
0
100
AcDbBlockEnd
0
BLOCK
5
1C
100
AcDbEntity
8
0
100
AcDbBlockBegin
2
*Paper_Space
70
0
10
0
20
0
30
0
3
*Paper_Space
0
ENDBLK
5
1D
100
AcDbEntity
8
0
100
AcDbBlockEnd
0
BLOCK
5
24
100
AcDbEntity
8
0
100
AcDbBlockBegin
2
*Paper_Space0
70
0
10
0
20
0
30
0
3
*Paper_Space0
0
ENDBLK
5
25
100
AcDbEntity
8
0
100
AcDbBlockEnd
0
BLOCK
5
28F
100
AcDbEntity
8
0
100
AcDbBlockBegin
2
DimnDraft3D1
70
0
10
0
20
0
30
0
3
DimnDraft3D1
0
MTEXT
5
285
100
AcDbEntity
8
2
62
256
6
ByLayer
370
-1
48
1
60
0
100
AcDbMText
10
10.173953
20
-24.0375
30
0
210
0
220
0
230
1
1
\W01.000;\fsimplex.shx,bigfont.shx;23 
40
4.5
41
0
44
1.084337
50
0
71
7
72
5
7
DEFAULT
0
LINE
5
286
100
AcDbEntity
8
2
62
256
6
ByLayer
370
-1
48
1
60
0
100
AcDbLine
10
0
20
-11.4375
30
0
11
0
21
-28.1625
31
0
39
0
210
0
220
0
230
1
0
LINE
5
287
100
AcDbEntity
8
2
62
256
6
ByLayer
370
-1
48
1
60
0
100
AcDbLine
10
23.355801
20
-12.4125
30
0
11
23.355801
21
-28.1625
31
0
39
0
210
0
220
0
230
1
0
LINE
5
288
100
AcDbEntity
8
2
62
256
6
ByLayer
370
-1
48
1
60
0
100
AcDbLine
10
0
20
-25.1625
30
0
11
23.355801
21
-25.1625
31
0
39
0
210
0
220
0
230
1
0
LINE
5
289
100
AcDbEntity
8
2
62
256
6
ByLayer
370
-1
48
1
60
0
100
AcDbLine
10
0
20
-25.1625
30
0
11
2.999999
21
-24.767543
31
0
39
0
210
0
220
0
230
1
0
LINE
5
28A
100
AcDbEntity
8
2
62
256
6
ByLayer
370
-1
48
1
60
0
100
AcDbLine
10
0
20
-25.1625
30
0
11
3.000001
21
-25.557457
31
0
39
0
210
0
220
0
230
1
0
LINE
5
28B
100
AcDbEntity
8
2
62
256
6
ByLayer
370
-1
48
1
60
0
100
AcDbLine
10
2.999999
20
-24.767543
30
0
11
3.000001
21
-25.557457
31
0
39
0
210
0
220
0
230
1
0
LINE
5
28C
100
AcDbEntity
8
2
62
256
6
ByLayer
370
-1
48
1
60
0
100
AcDbLine
10
23.355801
20
-25.1625
30
0
11
20.355803
21
-25.557457
31
0
39
0
210
0
220
0
230
1
0
LINE
5
28D
100
AcDbEntity
8
2
62
256
6
ByLayer
370
-1
48
1
60
0
100
AcDbLine
10
23.355801
20
-25.1625
30
0
11
20.3558
21
-24.767543
31
0
39
0
210
0
220
0
230
1
0
LINE
5
28E
100
AcDbEntity
8
2
62
256
6
ByLayer
370
-1
48
1
60
0
100
AcDbLine
10
20.355803
20
-25.557457
30
0
11
20.3558
21
-24.767543
31
0
39
0
210
0
220
0
230
1
0
ENDBLK
5
290
100
AcDbEntity
8
0
100
AcDbBlockEnd
0
BLOCK
5
293
100
AcDbEntity
8
0
100
AcDbBlockBegin
2
_CLOSED
70
0
10
0
20
0
30
0
3
_CLOSED
0
LINE
5
295
100
AcDbEntity
8
0
62
256
6
ByLayer
370
-2
48
1
60
0
100
AcDbLine
10
-1
20
0.166667
30
0
11
0
21
0
31
0
39
0
210
0
220
0
230
1
0
LINE
5
296
100
AcDbEntity
8
0
62
256
6
ByLayer
370
-2
48
1
60
0
100
AcDbLine
10
0
20
0
30
0
11
-1
21
-0.166667
31
0
39
0
210
0
220
0
230
1
0
LINE
5
297
100
AcDbEntity
8
0
62
256
6
ByLayer
370
-2
48
1
60
0
100
AcDbLine
10
-1
20
0.166667
30
0
11
-1
21
-0.166667
31
0
39
0
210
0
220
0
230
1
0
LINE
5
298
100
AcDbEntity
8
0
62
256
6
ByLayer
370
-2
48
1
60
0
100
AcDbLine
10
0
20
0
30
0
11
-1
21
0
31
0
39
0
210
0
220
0
230
1
0
ENDBLK
5
294
100
AcDbEntity
8
0
100
AcDbBlockEnd
0
BLOCK
5
2A5
100
AcDbEntity
8
0
100
AcDbBlockBegin
2
DimnDraft3D2
70
0
10
0
20
0
30
0
3
DimnDraft3D2
0
MTEXT
5
29A
100
AcDbEntity
8
SK2
62
256
6
ByLayer
370
-1
48
1
60
0
100
AcDbMText
10
-42.41262
20
-34.0375
30
0
210
0
220
0
230
1
1
\W01.000;\fsimplex.shx,bigfont.shx;126 
40
4.5
41
0
44
1.084337
50
0
71
7
72
5
7
DEFAULT
0
LINE
5
29C
100
AcDbEntity
8
SK2
62
256
6
ByLayer
370
-1
48
1
60
0
100
AcDbLine
10
-102.994199
20
-11.4375
30
0
11
-102.994199
21
-38.1625
31
0
39
0
210
0
220
0
230
1
0
LINE
5
29D
100
AcDbEntity
8
SK2
62
256
6
ByLayer
370
-1
48
1
60
0
100
AcDbLine
10
23.355801
20
-12.4125
30
0
11
23.355801
21
-38.1625
31
0
39
0
210
0
220
0
230
1
0
LINE
5
29E
100
AcDbEntity
8
SK2
62
256
6
ByLayer
370
-1
48
1
60
0
100
AcDbLine
10
-102.994199
20
-35.1625
30
0
11
23.355801
21
-35.1625
31
0
39
0
210
0
220
0
230
1
0
LINE
5
29F
100
AcDbEntity
8
SK2
62
256
6
ByLayer
370
-1
48
1
60
0
100
AcDbLine
10
-102.994199
20
-35.1625
30
0
11
-99.9942
21
-34.767543
31
0
39
0
210
0
220
0
230
1
0
LINE
5
2A0
100
AcDbEntity
8
SK2
62
256
6
ByLayer
370
-1
48
1
60
0
100
AcDbLine
10
-102.994199
20
-35.1625
30
0
11
-99.994197
21
-35.557457
31
0
39
0
210
0
220
0
230
1
0
LINE
5
2A1
100
AcDbEntity
8
SK2
62
256
6
ByLayer
370
-1
48
1
60
0
100
AcDbLine
10
-99.9942
20
-34.767543
30
0
11
-99.994197
21
-35.557457
31
0
39
0
210
0
220
0
230
1
0
LINE
5
2A2
100
AcDbEntity
8
SK2
62
256
6
ByLayer
370
-1
48
1
60
0
100
AcDbLine
10
23.355801
20
-35.1625
30
0
11
20.355803
21
-35.557457
31
0
39
0
210
0
220
0
230
1
0
LINE
5
2A3
100
AcDbEntity
8
SK2
62
256
6
ByLayer
370
-1
48
1
60
0
100
AcDbLine
10
23.355801
20
-35.1625
30
0
11
20.3558
21
-34.767543
31
0
39
0
210
0
220
0
230
1
0
LINE
5
2A4
100
AcDbEntity
8
SK2
62
256
6
ByLayer
370
-1
48
1
60
0
100
AcDbLine
10
20.355803
20
-35.557457
30
0
11
20.3558
21
-34.767543
31
0
39
0
210
0
220
0
230
1
0
ENDBLK
5
2A6
100
AcDbEntity
8
0
100
AcDbBlockEnd
0
BLOCK
5
2B3
100
AcDbEntity
8
0
100
AcDbBlockBegin
2
DimnDraft3D3
70
0
10
0
20
0
30
0
3
DimnDraft3D3
0
MTEXT
5
2A9
100
AcDbEntity
8
SK2
62
256
6
ByLayer
370
-1
48
1
60
0
100
AcDbMText
10
-113.869199
20
-1.503947
30
0
210
0
220
0
230
1
1
\W01.000;\fsimplex.shx,bigfont.shx;20 
40
4.5
41
0
44
1.084337
50
90
71
7
72
5
7
DEFAULT
0
LINE
5
2AA
100
AcDbEntity
8
SK2
62
256
6
ByLayer
370
-1
48
1
60
0
100
AcDbLine
10
-104.494199
20
9.9375
30
0
11
-115.744199
21
9.9375
31
0
39
0
210
0
220
0
230
1
0
LINE
5
2AB
100
AcDbEntity
8
SK2
62
256
6
ByLayer
370
-1
48
1
60
0
100
AcDbLine
10
-104.494199
20
-9.9375
30
0
11
-115.744199
21
-9.9375
31
0
39
0
210
0
220
0
230
1
0
LINE
5
2AC
100
AcDbEntity
8
SK2
62
256
6
ByLayer
370
-1
48
1
60
0
100
AcDbLine
10
-112.744199
20
9.9375
30
0
11
-112.744199
21
-9.9375
31
0
39
0
210
0
220
0
230
1
0
LINE
5
2AD
100
AcDbEntity
8
SK2
62
256
6
ByLayer
370
-1
48
1
60
0
100
AcDbLine
10
-112.744199
20
9.9375
30
0
11
-112.349241
21
6.937501
31
0
39
0
210
0
220
0
230
1
0
LINE
5
2AE
100
AcDbEntity
8
SK2
62
256
6
ByLayer
370
-1
48
1
60
0
100
AcDbLine
10
-112.744199
20
9.9375
30
0
11
-113.139156
21
6.937499
31
0
39
0
210
0
220
0
230
1
0
LINE
5
2AF
100
AcDbEntity
8
SK2
62
256
6
ByLayer
370
-1
48
1
60
0
100
AcDbLine
10
-112.349241
20
6.937501
30
0
11
-113.139156
21
6.937499
31
0
39
0
210
0
220
0
230
1
0
LINE
5
2B0
100
AcDbEntity
8
SK2
62
256
6
ByLayer
370
-1
48
1
60
0
100
AcDbLine
10
-112.744199
20
-9.9375
30
0
11
-113.139156
21
-6.937501
31
0
39
0
210
0
220
0
230
1
0
LINE
5
2B1
100
AcDbEntity
8
SK2
62
256
6
ByLayer
370
-1
48
1
60
0
100
AcDbLine
10
-112.744199
20
-9.9375
30
0
11
-112.349241
21
-6.937499
31
0
39
0
210
0
220
0
230
1
0
LINE
5
2B2
100
AcDbEntity
8
SK2
62
256
6
ByLayer
370
-1
48
1
60
0
100
AcDbLine
10
-113.139156
20
-6.937501
30
0
11
-112.349241
21
-6.937499
31
0
39
0
210
0
220
0
230
1
0
ENDBLK
5
2B4
100
AcDbEntity
8
0
100
AcDbBlockEnd
0
BLOCK
5
2C1
100
AcDbEntity
8
0
100
AcDbBlockBegin
2
DimnDraft3D4
70
0
10
0
20
0
30
0
3
DimnDraft3D4
0
MTEXT
5
2B7
100
AcDbEntity
8
2
62
256
6
ByLayer
370
-1
48
1
60
0
100
AcDbMText
10
36.480801
20
-1.428947
30
0
210
0
220
0
230
1
1
\W01.000;\fsimplex.shx,bigfont.shx;21 
40
4.5
41
0
44
1.084337
50
90
71
7
72
5
7
DEFAULT
0
LINE
5
2B8
100
AcDbEntity
8
2
62
256
6
ByLayer
370
-1
48
1
60
0
100
AcDbLine
10
1.5
20
9.9375
30
0
11
40.605801
21
9.9375
31
0
39
0
210
0
220
0
230
1
0
LINE
5
2B9
100
AcDbEntity
8
2
62
256
6
ByLayer
370
-1
48
1
60
0
100
AcDbLine
10
24.855801
20
-10.9125
30
0
11
40.605801
21
-10.9125
31
0
39
0
210
0
220
0
230
1
0
LINE
5
2BA
100
AcDbEntity
8
2
62
256
6
ByLayer
370
-1
48
1
60
0
100
AcDbLine
10
37.605801
20
9.9375
30
0
11
37.605801
21
-10.9125
31
0
39
0
210
0
220
0
230
1
0
LINE
5
2BB
100
AcDbEntity
8
2
62
256
6
ByLayer
370
-1
48
1
60
0
100
AcDbLine
10
37.605801
20
9.9375
30
0
11
38.000759
21
6.937501
31
0
39
0
210
0
220
0
230
1
0
LINE
5
2BC
100
AcDbEntity
8
2
62
256
6
ByLayer
370
-1
48
1
60
0
100
AcDbLine
10
37.605801
20
9.9375
30
0
11
37.210844
21
6.937499
31
0
39
0
210
0
220
0
230
1
0
LINE
5
2BD
100
AcDbEntity
8
2
62
256
6
ByLayer
370
-1
48
1
60
0
100
AcDbLine
10
38.000759
20
6.937501
30
0
11
37.210844
21
6.937499
31
0
39
0
210
0
220
0
230
1
0
LINE
5
2BE
100
AcDbEntity
8
2
62
256
6
ByLayer
370
-1
48
1
60
0
100
AcDbLine
10
37.605801
20
-10.9125
30
0
11
37.210844
21
-7.912501
31
0
39
0
210
0
220
0
230
1
0
LINE
5
2BF
100
AcDbEntity
8
2
62
256
6
ByLayer
370
-1
48
1
60
0
100
AcDbLine
10
37.605801
20
-10.9125
30
0
11
38.000759
21
-7.912499
31
0
39
0
210
0
220
0
230
1
0
LINE
5
2C0
100
AcDbEntity
8
2
62
256
6
ByLayer
370
-1
48
1
60
0
100
AcDbLine
10
37.210844
20
-7.912501
30
0
11
38.000759
21
-7.912499
31
0
39
0
210
0
220
0
230
1
0
ENDBLK
5
2C2
100
AcDbEntity
8
0
100
AcDbBlockEnd
0
ENDSEC
0
SECTION
2
ENTITIES
0
ELLIPSE
5
149
100
AcDbEntity
8
1
62
256
6
ByLayer
370
-1
48
1
60
0
100
AcDbEllipse
10
12.99847
20
-0.606952
30
0
11
-0.163166420914964
21
-1.64837617406163
31
0
210
0
220
0
230
1
40
0.984661
41
-2.09407219884791
42
-0.688188761705171
0
ELLIPSE
5
14A
100
AcDbEntity
8
1
62
256
6
ByLayer
370
-1
48
1
60
0
100
AcDbEllipse
10
12.477357
20
0.530662
30
0
11
-0.175892976529422
21
-1.64059795830899
31
0
210
0
220
0
230
1
40
0.984637
41
2.00968035900529
42
2.66369769273191
0
ELLIPSE
5
14B
100
AcDbEntity
8
1
62
256
6
ByLayer
370
-1
48
1
60
0
100
AcDbEllipse
10
12.399164
20
-0.078679
30
0
11
-0.213203607914449
21
-1.98860358582908
31
0
210
0
220
0
230
1
40
0.984637
41
2.05487671456079
42
2.28851603275332
0
ELLIPSE
5
14C
100
AcDbEntity
8
1
62
256
6
ByLayer
370
-1
48
1
60
0
100
AcDbEllipse
10
12.122876
20
0.568666
30
0
11
-7.40839208342208
21
1.35677418558948
31
0
210
0
220
0
230
1
40
0.206678
41
-1.80750029962242
42
-1.7028729383496
0
ELLIPSE
5
14D
100
AcDbEntity
8
1
62
256
6
ByLayer
370
-1
48
1
60
0
100
AcDbEllipse
10
12.038104
20
0.577755
30
0
11
-0.175892976529422
21
-1.64059795830899
31
0
210
0
220
0
230
1
40
0.984637
41
1.67601486685157
42
2.74150556221247
0
ELLIPSE
5
14E
100
AcDbEntity
8
1
62
256
6
ByLayer
370
-1
48
1
60
0
100
AcDbEllipse
10
11.977272
20
-0.033446
30
0
11
-0.225646305867183
21
-2.10465975395978
31
0
210
0
220
0
230
1
40
0.984637
41
2.00190252287999
42
2.51293385636387
0
ELLIPSE
5
14F
100
AcDbEntity
8
1
62
256
6
ByLayer
370
-1
48
1
60
0
100
AcDbEllipse
10
12.055466
20
0.575894
30
0
11
-0.175892976529422
21
-1.64059795830899
31
0
210
0
220
0
230
1
40
0.984637
41
1.66264846869918
42
2.29876619249643
0
ELLIPSE
5
150
100
AcDbEntity
8
1
62
256
6
ByLayer
370
-1
48
1
60
0
100
AcDbEllipse
10
12.055466
20
0.575894
30
0
11
-0.175892976529422
21
-1.64059795830899
31
0
210
0
220
0
230
1
40
0.984637
41
-0.307652873361978
42
-0.268133898578609
0
ELLIPSE
5
151
100
AcDbEntity
8
1
62
256
6
ByLayer
370
-1
48
1
60
0
100
AcDbEllipse
10
13.260381
20
0.446711
30
0
11
-0.660755625148408
21
-1.57699022522186
31
0
210
0
220
0
230
1
40
0.398781
41
2.67750236106704
42
2.87794875800759
0
ELLIPSE
5
152
100
AcDbEntity
8
1
62
256
6
ByLayer
370
-1
48
1
60
0
100
AcDbEllipse
10
13.297046
20
0.44278
30
0
11
-0.162533016840252
21
-1.64197701257226
31
0
210
0
220
0
230
1
40
0.984661
41
2.75150159357149
42
-1.42097263515944
0
ELLIPSE
5
153
100
AcDbEntity
8
1
62
256
6
ByLayer
370
-1
48
1
60
0
100
AcDbEllipse
10
15.128765
20
-6.143579
30
0
11
-0.290489915783452
21
-2.70947238569226
31
0
210
0
220
0
230
1
40
0.984637
41
-3.14151934452234
42
-3.31022533941262E-16
0
ELLIPSE
5
154
100
AcDbEntity
8
1
62
256
6
ByLayer
370
-1
48
1
60
0
100
AcDbEllipse
10
15.343811
20
-6.166635
30
0
11
-0.290489915783456
21
-2.70947238569227
31
0
210
0
220
0
230
1
40
0.984637
41
0
42
6.28318530717959
0
ELLIPSE
5
155
100
AcDbEntity
8
1
62
256
6
ByLayer
370
-1
48
1
60
0
100
AcDbEllipse
10
15.354469
20
-6.167777
30
0
11
-0.191883247123018
21
-1.7897432272463
31
0
210
0
220
0
230
1
40
0.984637
41
0
42
6.28318530717959
0
ELLIPSE
5
156
100
AcDbEntity
8
1
62
256
6
ByLayer
370
-1
48
1
60
0
100
AcDbEllipse
10
15.807251
20
-7.422813
30
0
11
-0.335833568588064
21
-0.198604627907936
31
0
210
0
220
0
230
1
40
0.491978
41
-2.55849278705406
42
-1.58035745321937
0
ELLIPSE
5
157
100
AcDbEntity
8
1
62
256
6
ByLayer
370
-1
48
1
60
0
100
AcDbEllipse
10
15.08102
20
-6.13846
30
0
11
-0.137548307646007
21
-1.28294760339763
31
0
210
0
220
0
230
1
40
0.984637
41
0.628774861197776
42
1.67597241239438
0
ELLIPSE
5
158
100
AcDbEntity
8
1
62
256
6
ByLayer
370
-1
48
1
60
0
100
AcDbEllipse
10
16.541785
20
-6.13846
30
0
11
-0.00166011276329427
21
-0.394030905816477
31
0
210
0
220
0
230
1
40
0.48236
41
-1.56876407098444
42
-0.158490609532378
0
ELLIPSE
5
159
100
AcDbEntity
8
1
62
256
6
ByLayer
370
-1
48
1
60
0
100
AcDbEllipse
10
15.354469
20
-6.167777
30
0
11
0.178707264153891
21
1.66684752564178
31
0
210
0
220
0
230
1
40
0.984637
41
0.105176085599251
42
1.15237363679609
0
ELLIPSE
5
15A
100
AcDbEntity
8
1
62
256
6
ByLayer
370
-1
48
1
60
0
100
AcDbEllipse
10
15.354469
20
-6.167777
30
0
11
0.178707264153891
21
1.66684752564178
31
0
210
0
220
0
230
1
40
0.984637
41
1.15237363679609
42
2.1995711879927
0
ELLIPSE
5
15B
100
AcDbEntity
8
1
62
256
6
ByLayer
370
-1
48
1
60
0
100
AcDbEllipse
10
15.354469
20
-6.167777
30
0
11
0.178707264153891
21
1.66684752564178
31
0
210
0
220
0
230
1
40
0.984637
41
2.1995711879927
42
-3.03641656799057
0
ELLIPSE
5
15C
100
AcDbEntity
8
1
62
256
6
ByLayer
370
-1
48
1
60
0
100
AcDbEllipse
10
15.354469
20
-6.167777
30
0
11
0.178707264153891
21
1.66684752564178
31
0
210
0
220
0
230
1
40
0.984637
41
-3.03641656799057
42
-1.98921901679368
0
ELLIPSE
5
15D
100
AcDbEntity
8
1
62
256
6
ByLayer
370
-1
48
1
60
0
100
AcDbEllipse
10
15.354469
20
-6.167777
30
0
11
0.178707264153891
21
1.66684752564178
31
0
210
0
220
0
230
1
40
0.984637
41
-1.98921901679368
42
-0.942021465597099
0
ELLIPSE
5
15E
100
AcDbEntity
8
1
62
256
6
ByLayer
370
-1
48
1
60
0
100
AcDbEllipse
10
15.354469
20
-6.167777
30
0
11
0.178707264153891
21
1.66684752564178
31
0
210
0
220
0
230
1
40
0.984637
41
-0.942021465597099
42
0.105176085599251
0
ELLIPSE
5
15F
100
AcDbEntity
8
1
62
256
6
ByLayer
370
-1
48
1
60
0
100
AcDbEllipse
10
15.08102
20
-6.13846
30
0
11
0.137548307646005
21
1.28294760339749
31
0
210
0
220
0
230
1
40
0.984637
41
0.776838477683734
42
1.37544297622963
0
ELLIPSE
5
160
100
AcDbEntity
8
1
62
256
6
ByLayer
370
-1
48
1
60
0
100
AcDbEllipse
10
15.08102
20
-6.13846
30
0
11
-0.137548307646007
21
-1.28294760339763
31
0
210
0
220
0
230
1
40
0.984637
41
-1.12827556306421
42
-0.52407552108727
0
ELLIPSE
5
161
100
AcDbEntity
8
1
62
256
6
ByLayer
370
-1
48
1
60
0
100
AcDbEllipse
10
14.346485
20
-7.422813
30
0
11
-0.334749163353399
21
0.198269006354206
31
0
210
0
220
0
230
1
40
0.494774
41
-0.826042228553695
42
-0.15299059541788
0
ELLIPSE
5
162
100
AcDbEntity
8
1
62
256
6
ByLayer
370
-1
48
1
60
0
100
AcDbEllipse
10
16.343768
20
-6.880032
30
0
11
-0.193958055348339
21
-0.341934994911013
31
0
210
0
220
0
230
1
40
0.48462
41
0.895650237031178
42
-3.09172931451203
0
ELLIPSE
5
163
100
AcDbEntity
8
1
62
256
6
ByLayer
370
-1
48
1
60
0
100
AcDbEllipse
10
16.348563
20
-5.396889
30
0
11
-0.191392218429863
21
0.342134594454292
31
0
210
0
220
0
230
1
40
0.487307
41
3.09386107380833
42
-0.923025942852994
0
ELLIPSE
5
164
100
AcDbEntity
8
1
62
256
6
ByLayer
370
-1
48
1
60
0
100
AcDbEllipse
10
16.541785
20
-6.13846
30
0
11
-0.00166011276063763
21
-0.394030905815486
31
0
210
0
220
0
230
1
40
0.48236
41
-2.97903753245392
42
-1.56876407099948
0
ELLIPSE
5
165
100
AcDbEntity
8
1
62
256
6
ByLayer
370
-1
48
1
60
0
100
AcDbEllipse
10
15.08102
20
-6.13846
30
0
11
-0.137548307646007
21
-1.28294760339763
31
0
210
0
220
0
230
1
40
0.984637
41
1.67597241239431
42
2.7231699635909
0
ELLIPSE
5
166
100
AcDbEntity
8
1
62
256
6
ByLayer
370
-1
48
1
60
0
100
AcDbEllipse
10
15.815555
20
-4.854107
30
0
11
-0.334749163353481
21
0.198269006354463
31
0
210
0
220
0
230
1
40
0.494774
41
1.57832859671457
42
2.3155482932495
0
ELLIPSE
5
167
100
AcDbEntity
8
1
62
256
6
ByLayer
370
-1
48
1
60
0
100
AcDbEllipse
10
15.076225
20
-7.621603
30
0
11
-0.388113182761355
21
-0.000412013910118828
31
0
210
0
220
0
230
1
40
0.49719
41
1.66023316912639
42
-3.08658270252925
0
ELLIPSE
5
168
100
AcDbEntity
8
1
62
256
6
ByLayer
370
-1
48
1
60
0
100
AcDbEllipse
10
15.085815
20
-4.655317
30
0
11
-0.388113182761359
21
-0.000412013910112972
31
0
210
0
220
0
230
1
40
0.49719
41
3.08231238522578
42
-2.06528249923982
0
ELLIPSE
5
169
100
AcDbEntity
8
1
62
256
6
ByLayer
370
-1
48
1
60
0
100
AcDbEllipse
10
15.815555
20
-4.854107
30
0
11
-0.334749163350406
21
0.198269006353485
31
0
210
0
220
0
230
1
40
0.494774
41
0.168055135253107
42
1.57832859671917
0
ELLIPSE
5
16A
100
AcDbEntity
8
1
62
256
6
ByLayer
370
-1
48
1
60
0
100
AcDbEllipse
10
15.08102
20
-6.13846
30
0
11
-0.137548307646007
21
-1.28294760339763
31
0
210
0
220
0
230
1
40
0.984637
41
2.7231699635909
42
-2.88439321350825
0
ELLIPSE
5
16B
100
AcDbEntity
8
1
62
256
6
ByLayer
370
-1
48
1
60
0
100
AcDbEllipse
10
15.08102
20
-6.13846
30
0
11
-0.137548307646007
21
-1.28294760339763
31
0
210
0
220
0
230
1
40
0.984637
41
-0.101399777799826
42
0.628774861197764
0
ELLIPSE
5
16C
100
AcDbEntity
8
1
62
256
6
ByLayer
370
-1
48
1
60
0
100
AcDbEllipse
10
15.807251
20
-7.422813
30
0
11
-0.335833568588274
21
-0.198604627908486
31
0
210
0
220
0
230
1
40
0.491978
41
-1.58035745322136
42
-0.17008399176105
0
ELLIPSE
5
16D
100
AcDbEntity
8
1
62
256
6
ByLayer
370
-1
48
1
60
0
100
AcDbEllipse
10
15.137485
20
-6.139917
30
0
11
-0.296514508703045
21
-2.99532017044197
31
0
210
0
220
0
230
1
40
0.984662
41
-0.378600334657455
42
-2.99676166800556E-16
0
ELLIPSE
5
16E
100
AcDbEntity
8
1
62
256
6
ByLayer
370
-1
48
1
60
0
100
AcDbEllipse
10
15.137485
20
-6.139917
30
0
11
-0.296514508703045
21
-2.99532017044197
31
0
210
0
220
0
230
1
40
0.984662
41
0
42
0.100198039212819
0
ELLIPSE
5
16F
100
AcDbEntity
8
1
62
256
6
ByLayer
370
-1
48
1
60
0
100
AcDbEllipse
10
15.137485
20
-6.139917
30
0
11
-0.296514508703045
21
-2.99532017044197
31
0
210
0
220
0
230
1
40
0.984662
41
0.10019800813775
42
-2.76306926675982
0
ELLIPSE
5
170
100
AcDbEntity
8
1
62
256
6
ByLayer
370
-1
48
1
60
0
100
AcDbEllipse
10
15.09382
20
-6.135595
30
0
11
-0.287755592779146
21
-2.90683965172194
31
0
210
0
220
0
230
1
40
0.984662
41
-0.769434284012818
42
-3.0879792990532E-16
0
ELLIPSE
5
171
100
AcDbEntity
8
1
62
256
6
ByLayer
370
-1
48
1
60
0
100
AcDbEllipse
10
15.09382
20
-6.135595
30
0
11
-0.287755592779146
21
-2.90683965172194
31
0
210
0
220
0
230
1
40
0.984662
41
0
42
0.10019794376427
0
ELLIPSE
5
172
100
AcDbEntity
8
1
62
256
6
ByLayer
370
-1
48
1
60
0
100
AcDbEllipse
10
15.09382
20
-6.135595
30
0
11
-0.287755592779146
21
-2.90683965172194
31
0
210
0
220
0
230
1
40
0.984662
41
2.21723854779098
42
-2.37233365126411
0
ELLIPSE
5
173
100
AcDbEntity
8
1
62
256
6
ByLayer
370
-1
48
1
60
0
100
AcDbEllipse
10
15.09382
20
-6.135595
30
0
11
-0.287755592779146
21
-2.90683965172194
31
0
210
0
220
0
230
1
40
0.984662
41
0.100197965451147
42
0.879509281826173
0
ELLIPSE
5
174
100
AcDbEntity
8
1
62
256
6
ByLayer
370
-1
48
1
60
0
100
AcDbEllipse
10
10.839327
20
-10.313124
30
0
11
-0.279775169857996
21
-0.15572178965119
31
0
210
0
220
0
230
1
40
0.100809
41
-2.07070911031104
42
-1.27416717381709
0
ELLIPSE
5
175
100
AcDbEntity
8
1
62
256
6
ByLayer
370
-1
48
1
60
0
100
AcDbEllipse
10
11.015556
20
-10.326027
30
0
11
-0.16113849928654
21
-0.0281531779291127
31
0
210
0
220
0
230
1
40
0.776532
41
-2.34161154478765
42
-1.99680325425661
0
ELLIPSE
5
176
100
AcDbEntity
8
1
62
256
6
ByLayer
370
-1
48
1
60
0
100
AcDbEllipse
10
9.602719
20
-6.623374
30
0
11
-0.0889897064784212
21
-0.152707630860418
31
0
210
0
220
0
230
1
40
0.134911
41
0.597441874989479
42
1.63242212145226
0
ELLIPSE
5
177
100
AcDbEntity
8
1
62
256
6
ByLayer
370
-1
48
1
60
0
100
AcDbEllipse
10
10.471629
20
-10.341566
30
0
11
-0.038725524499804
21
0.124900306203519
31
0
210
0
220
0
230
1
40
0.960584
41
2.3300402697237
42
-2.91260164378826
0
ELLIPSE
5
178
100
AcDbEntity
8
1
62
256
6
ByLayer
370
-1
48
1
60
0
100
AcDbEllipse
10
9.898601
20
-10.005085
30
0
11
-0.038725524474148
21
0.124900306214862
31
0
210
0
220
0
230
1
40
0.960584
41
1.37732059302797
42
2.33004026992267
0
ELLIPSE
5
179
100
AcDbEntity
8
1
62
256
6
ByLayer
370
-1
48
1
60
0
100
AcDbEllipse
10
9.64208
20
-9.976626
30
0
11
-0.0387255244966885
21
0.124900306204413
31
0
210
0
220
0
230
1
40
0.960584
41
-1.764272060763
42
-0.811552383844573
0
ELLIPSE
5
17A
100
AcDbEntity
8
1
62
256
6
ByLayer
370
-1
48
1
60
0
100
AcDbEllipse
10
9.592875
20
-9.947733
30
0
11
-0.0387255244967367
21
0.124900306205846
31
0
210
0
220
0
230
1
40
0.960584
41
-0.811552383835222
42
0.228991009827186
0
ELLIPSE
5
17B
100
AcDbEntity
8
1
62
256
6
ByLayer
370
-1
48
1
60
0
100
AcDbEllipse
10
8.731178
20
-10.076854
30
0
11
-0.0595777299818164
21
0.192154317246187
31
0
210
0
220
0
230
1
40
0.960584
41
2.33004026982863
42
-2.91260164369533
0
ELLIPSE
5
17C
100
AcDbEntity
8
1
62
256
6
ByLayer
370
-1
48
1
60
0
100
AcDbEllipse
10
8.710008
20
-10.064423
30
0
11
-0.0595777300280971
21
0.19215431722183
31
0
210
0
220
0
230
1
40
0.960584
41
1.28949687588364
42
2.33004026957695
0
ELLIPSE
5
17D
100
AcDbEntity
8
1
62
256
6
ByLayer
370
-1
48
1
60
0
100
AcDbEllipse
10
12.412494
20
-10.719061
30
0
11
0.0197022175593632
21
0.199027190663094
31
0
210
0
220
0
230
1
40
0.984662
41
2.71516118948919
42
-3.04442534209206
0
ELLIPSE
5
17E
100
AcDbEntity
8
1
62
256
6
ByLayer
370
-1
48
1
60
0
100
AcDbEllipse
10
9.359876
20
-8.874424
30
0
11
0.117321608038481
21
-0.225910690953892
31
0
210
0
220
0
230
1
40
0.957172
41
1.61459250743373
42
2.68850656753899
0
ELLIPSE
5
17F
100
AcDbEntity
8
1
62
256
6
ByLayer
370
-1
48
1
60
0
100
AcDbEllipse
10
8.952194
20
-8.877867
30
0
11
0.117321608038481
21
-0.225910690953892
31
0
210
0
220
0
230
1
40
0.957172
41
2.68850656753887
42
2.99344383251991
0
ELLIPSE
5
180
100
AcDbEntity
8
1
62
256
6
ByLayer
370
-1
48
1
60
0
100
AcDbEllipse
10
9.570003
20
-9.240643
30
0
11
0.117321608038481
21
-0.225910690953892
31
0
210
0
220
0
230
1
40
0.957172
41
1.30965524245267
42
1.61459250743366
0
ELLIPSE
5
181
100
AcDbEntity
8
1
62
256
6
ByLayer
370
-1
48
1
60
0
100
AcDbEllipse
10
9.509304
20
-8.873162
30
0
11
-0.931737718922604
21
-0.00335270464405605
31
0
210
0
220
0
230
1
40
0.351081
41
-0.813046437609566
42
0.00923478471903147
0
ELLIPSE
5
182
100
AcDbEntity
8
1
62
256
6
ByLayer
370
-1
48
1
60
0
100
AcDbEllipse
10
9.282858
20
-8.740194
30
0
11
-0.479796040738378
21
0.837102468422574
31
0
210
0
220
0
230
1
40
0.327398
41
-3.1356193287555
42
-2.31333810641772
0
ELLIPSE
5
183
100
AcDbEntity
8
1
62
256
6
ByLayer
370
-1
48
1
60
0
100
AcDbEllipse
10
8.647002
20
-7.349262
30
0
11
-0.0930395426079318
21
2.80197791932114
31
0
210
0
220
0
230
1
40
0.29268
41
3.13459107103041
42
-2.98099856133589
0
ELLIPSE
5
184
100
AcDbEntity
8
1
62
256
6
ByLayer
370
-1
48
1
60
0
100
AcDbEllipse
10
10.972989
20
-8.715077
30
0
11
-2.32265021397053
21
-1.38987250169748
31
0
210
0
220
0
230
1
40
0.313983
41
-0.173594383506974
42
-0.00599870854768618
0
ELLIPSE
5
185
100
AcDbEntity
8
1
62
256
6
ByLayer
370
-1
48
1
60
0
100
AcDbEllipse
10
9.513627
20
-8.115373
30
0
11
-0.28382522665698
21
-0.147794589593509
31
0
210
0
220
0
230
1
40
0.096468
41
-2.45919517388449
42
-1.42421492745194
0
ELLIPSE
5
186
100
AcDbEntity
8
1
62
256
6
ByLayer
370
-1
48
1
60
0
100
AcDbEllipse
10
9.513627
20
-8.115373
30
0
11
0.274009264363063
21
0.165284370232679
31
0
210
0
220
0
230
1
40
0.019277
41
0.678763114625391
42
1.86390773977012
0
ELLIPSE
5
187
100
AcDbEntity
8
1
62
256
6
ByLayer
370
-1
48
1
60
0
100
AcDbEllipse
10
9.513627
20
-8.115373
30
0
11
0.162033669206491
21
0.275943998020398
31
0
210
0
220
0
230
1
40
0.158847
41
1.64395516572783
42
1.81848809092727
0
ELLIPSE
5
188
100
AcDbEntity
8
1
62
256
6
ByLayer
370
-1
48
1
60
0
100
AcDbEllipse
10
11.889532
20
-4.364517
30
0
11
-0.0109764751846186
21
-0.149597850895397
31
0
210
0
220
0
230
1
40
0.174416
41
1.56636013641394
42
2.27514962593659
0
ELLIPSE
5
189
100
AcDbEntity
8
1
62
256
6
ByLayer
370
-1
48
1
60
0
100
AcDbEllipse
10
15.032847
20
-9.532681
30
0
11
0.0367833786735516
21
-0.14542002287635
31
0
210
0
220
0
230
1
40
0.164395
41
1.33698998545138
42
1.51152291065077
0
ELLIPSE
5
18A
100
AcDbEntity
8
1
62
256
6
ByLayer
370
-1
48
1
60
0
100
AcDbEllipse
10
14.4321
20
-9.684638
30
0
11
0.0367833786735516
21
-0.14542002287635
31
0
210
0
220
0
230
1
40
0.164395
41
1.33698998545139
42
1.51152291065075
0
ELLIPSE
5
18B
100
AcDbEntity
8
1
62
256
6
ByLayer
370
-1
48
1
60
0
100
AcDbEllipse
10
14.296587
20
-10.332588
30
0
11
0.149914929437486
21
0.00505113172998779
31
0
210
0
220
0
230
1
40
0.023376
41
-1.39697708811467
42
-0.688187598591753
0
ELLIPSE
5
18C
100
AcDbEntity
8
1
62
256
6
ByLayer
370
-1
48
1
60
0
100
AcDbEllipse
10
9.006151
20
-8.849846
30
0
11
0.0152761950655618
21
0.329646231381945
31
0
210
0
220
0
230
1
40
0.571959
41
0.89907026131824
42
1.72135148365323
0
ELLIPSE
5
18D
100
AcDbEntity
8
1
62
256
6
ByLayer
370
-1
48
1
60
0
100
AcDbEllipse
10
9.006151
20
-8.849846
30
0
11
0.00278672453945549
21
-0.329988233375588
31
0
210
0
220
0
230
1
40
0.260309
41
-2.32017699363659
42
-1.43915566762723
0
ELLIPSE
5
18E
100
AcDbEntity
8
1
62
256
6
ByLayer
370
-1
48
1
60
0
100
AcDbEllipse
10
9.62396
20
-9.212621
30
0
11
0.286230603216351
21
0.164231671069876
31
0
210
0
220
0
230
1
40
0.012676
41
0.983235704909605
42
1.86425703091906
0
ELLIPSE
5
18F
100
AcDbEntity
8
1
62
256
6
ByLayer
370
-1
48
1
60
0
100
AcDbEllipse
10
9.62396
20
-9.212621
30
0
11
-0.26754992094235
21
-0.193176188500918
31
0
210
0
220
0
230
1
40
0.315435
41
1.26563178175831
42
2.08791300409329
0
ELLIPSE
5
190
100
AcDbEntity
8
1
62
256
6
ByLayer
370
-1
48
1
60
0
100
AcDbEllipse
10
8.949238
20
-9.941919
30
0
11
-0.753374397940169
21
-0.876499699788793
31
0
210
0
220
0
230
1
40
0.023719
41
-1.47677027870711
42
-1.30917458885619
0
ELLIPSE
5
191
100
AcDbEntity
8
1
62
256
6
ByLayer
370
-1
48
1
60
0
100
AcDbEllipse
10
8.949238
20
-9.941919
30
0
11
-0.289742097911992
21
-1.14609610316684
31
0
210
0
220
0
230
1
40
0.218444
41
-1.54458118352933
42
-1.37698550920931
0
ELLIPSE
5
192
100
AcDbEntity
8
1
62
256
6
ByLayer
370
-1
48
1
60
0
100
AcDbEllipse
10
9.413833
20
-8.846403
30
0
11
0.00278672453945549
21
-0.329988233375588
31
0
210
0
220
0
230
1
40
0.260309
41
-2.32017699363659
42
-1.43915566762721
0
ELLIPSE
5
193
100
AcDbEntity
8
1
62
256
6
ByLayer
370
-1
48
1
60
0
100
AcDbEllipse
10
9.413833
20
-8.846403
30
0
11
-0.286230603216351
21
-0.164231671069876
31
0
210
0
220
0
230
1
40
0.012676
41
-2.15835694868143
42
-1.27733562267039
0
ELLIPSE
5
194
100
AcDbEntity
8
1
62
256
6
ByLayer
370
-1
48
1
60
0
100
AcDbEllipse
10
9.006151
20
-8.849846
30
0
11
-0.329852530264881
21
-0.00986449582370248
31
0
210
0
220
0
230
1
40
0.130201
41
0.957866680452186
42
1.30693253085108
0
ELLIPSE
5
195
100
AcDbEntity
8
1
62
256
6
ByLayer
370
-1
48
1
60
0
100
AcDbEllipse
10
9.62396
20
-9.212621
30
0
11
-0.169295514592371
21
0.283264944422893
31
0
210
0
220
0
230
1
40
0.289048
41
1.55351963324696
42
1.90258548364581
0
ELLIPSE
5
196
100
AcDbEntity
8
1
62
256
6
ByLayer
370
-1
48
1
60
0
100
AcDbEllipse
10
9.027659
20
-9.569006
30
0
11
-0.329852530264881
21
-0.00986449582370248
31
0
210
0
220
0
230
1
40
0.130201
41
0.957866680452178
42
1.30693253085108
0
ELLIPSE
5
197
100
AcDbEntity
8
1
62
256
6
ByLayer
370
-1
48
1
60
0
100
AcDbEllipse
10
9.027659
20
-9.569006
30
0
11
-0.169295514592371
21
0.283264944422893
31
0
210
0
220
0
230
1
40
0.289048
41
1.55351963324692
42
1.90258548364582
0
ELLIPSE
5
198
100
AcDbEntity
8
1
62
256
6
ByLayer
370
-1
48
1
60
0
100
AcDbEllipse
10
9.027659
20
-9.569006
30
0
11
-0.295892073361188
21
0.146109140446509
31
0
210
0
220
0
230
1
40
0.409519
41
1.09507804810169
42
1.69649744441257
0
ELLIPSE
5
199
100
AcDbEntity
8
1
62
256
6
ByLayer
370
-1
48
1
60
0
100
AcDbEllipse
10
8.880074
20
-9.867886
30
0
11
0.295892073361188
21
-0.146109140446509
31
0
210
0
220
0
230
1
40
0.409519
41
-2.04651460548802
42
-1.44509520917719
0
ELLIPSE
5
19A
100
AcDbEntity
8
1
62
256
6
ByLayer
370
-1
48
1
60
0
100
AcDbEllipse
10
13.949374
20
-0.187768
30
0
11
-0.00204490914865575
21
-0.320085891128302
31
0
210
0
220
0
230
1
40
0.174338
41
-1.73927175649934
42
-0.942729820100153
0
ELLIPSE
5
19B
100
AcDbEntity
8
1
62
256
6
ByLayer
370
-1
48
1
60
0
100
AcDbEllipse
10
13.767959
20
-0.373994
30
0
11
-0.104265506296874
21
0.108729639246145
31
0
210
0
220
0
230
1
40
0.746902
41
3.04463327572486
42
-2.89374374016082
0
ELLIPSE
5
19C
100
AcDbEntity
8
1
62
256
6
ByLayer
370
-1
48
1
60
0
100
AcDbEllipse
10
17.743304
20
-0.924143
30
0
11
-0.0885670091567114
21
0.152805304680295
31
0
210
0
220
0
230
1
40
0.12071
41
-1.65747816785024
42
-0.622497921364979
0
ELLIPSE
5
19D
100
AcDbEntity
8
1
62
256
6
ByLayer
370
-1
48
1
60
0
100
AcDbEllipse
10
14.029618
20
0.112687
30
0
11
-0.0541571275698116
21
-0.118791534239328
31
0
210
0
220
0
230
1
40
0.958576
41
-2.20447064133913
42
-1.16392724768338
0
ELLIPSE
5
19E
100
AcDbEntity
8
1
62
256
6
ByLayer
370
-1
48
1
60
0
100
AcDbEllipse
10
14.604655
20
0.449168
30
0
11
-0.0541571275587972
21
-0.118791534246204
31
0
210
0
220
0
230
1
40
0.958576
41
3.12599498882161
42
-2.20447064145022
0
ELLIPSE
5
19F
100
AcDbEntity
8
1
62
256
6
ByLayer
370
-1
48
1
60
0
100
AcDbEllipse
10
14.763064
20
0.662956
30
0
11
-0.0541571275831188
21
-0.118791534229698
31
0
210
0
220
0
230
1
40
0.958576
41
-0.0155976645570168
42
0.937122012371355
0
ELLIPSE
5
1A0
100
AcDbEntity
8
1
62
256
6
ByLayer
370
-1
48
1
60
0
100
AcDbEllipse
10
14.812442
20
0.691849
30
0
11
-0.0541571275734732
21
-0.118791534236509
31
0
210
0
220
0
230
1
40
0.958576
41
0.937122012281109
42
1.97766540594584
0
ELLIPSE
5
1A1
100
AcDbEntity
8
1
62
256
6
ByLayer
370
-1
48
1
60
0
100
AcDbEllipse
10
15.162442
20
1.526173
30
0
11
-0.0833186578091827
21
-0.182756206515244
31
0
210
0
220
0
230
1
40
0.958576
41
-2.20447064128734
42
-1.16392724761914
0
ELLIPSE
5
1A2
100
AcDbEntity
8
1
62
256
6
ByLayer
370
-1
48
1
60
0
100
AcDbEllipse
10
15.183686
20
1.538603
30
0
11
-0.0833186578126838
21
-0.182756206512621
31
0
210
0
220
0
230
1
40
0.958576
41
3.0381712722415
42
-2.20447064126616
0
ELLIPSE
5
1A3
100
AcDbEntity
8
1
62
256
6
ByLayer
370
-1
48
1
60
0
100
AcDbEllipse
10
12.878744
20
-1.33852
30
0
11
0.0197022175593632
21
0.199027190663094
31
0
210
0
220
0
230
1
40
0.984662
41
0.620766087096184
42
1.14436486269444
0
ELLIPSE
5
1A4
100
AcDbEntity
8
1
62
256
6
ByLayer
370
-1
48
1
60
0
100
AcDbEllipse
10
15.80523
20
0.344518
30
0
11
-0.139234821942734
21
-0.213104820120464
31
0
210
0
220
0
230
1
40
0.952081
41
0.551305267921979
42
1.62521932802713
0
ELLIPSE
5
1A5
100
AcDbEntity
8
1
62
256
6
ByLayer
370
-1
48
1
60
0
100
AcDbEllipse
10
16.017539
20
0.709447
30
0
11
-0.139234821942734
21
-0.213104820120464
31
0
210
0
220
0
230
1
40
0.952081
41
1.62521932802724
42
1.93015659300823
0
ELLIPSE
5
1A6
100
AcDbEntity
8
1
62
256
6
ByLayer
370
-1
48
1
60
0
100
AcDbEllipse
10
15.397565
20
0.346671
30
0
11
-0.139234821942734
21
-0.213104820120464
31
0
210
0
220
0
230
1
40
0.952081
41
0.246368002940985
42
0.551305267922052
0
ELLIPSE
5
1A7
100
AcDbEntity
8
1
62
256
6
ByLayer
370
-1
48
1
60
0
100
AcDbEllipse
10
15.727413
20
0.21076
30
0
11
-0.485696724091836
21
-0.833628738590424
31
0
210
0
220
0
230
1
40
0.325694
41
2.3166870857471
42
3.13896830808469
0
ELLIPSE
5
1A8
100
AcDbEntity
8
1
62
256
6
ByLayer
370
-1
48
1
60
0
100
AcDbEllipse
10
15.954652
20
0.343729
30
0
11
-0.931731630033525
21
-0.000752989038452301
31
0
210
0
220
0
230
1
40
0.349223
41
-0.0128707429221228
42
0.809410479407233
0
ELLIPSE
5
1A9
100
AcDbEntity
8
1
62
256
6
ByLayer
370
-1
48
1
60
0
100
AcDbEllipse
10
17.41741
20
0.191045
30
0
11
-2.31577440155758
21
1.37295386281291
31
0
210
0
220
0
230
1
40
0.315702
41
0.00284592207663439
42
0.170441597120308
0
ELLIPSE
5
1AA
100
AcDbEntity
8
1
62
256
6
ByLayer
370
-1
48
1
60
0
100
AcDbEllipse
10
15.083268
20
-1.174769
30
0
11
-0.112213697680809
21
-2.78730395832532
31
0
210
0
220
0
230
1
40
0.294044
41
2.98403595754756
42
-3.1315536747812
0
ELLIPSE
5
1AB
100
AcDbEntity
8
1
62
256
6
ByLayer
370
-1
48
1
60
0
100
AcDbEllipse
10
16.429985
20
-0.143071
30
0
11
0.0113394317527839
21
0.319799026401776
31
0
210
0
220
0
230
1
40
0.174133
41
1.55977199377873
42
2.5947522402115
0
ELLIPSE
5
1AC
100
AcDbEntity
8
1
62
256
6
ByLayer
370
-1
48
1
60
0
100
AcDbEllipse
10
16.429985
20
-0.143071
30
0
11
0.00576500800462767
21
-0.319948065602383
31
0
210
0
220
0
230
1
40
0.256807
41
-1.74352732460074
42
-0.558382699456259
0
ELLIPSE
5
1AD
100
AcDbEntity
8
1
62
256
6
ByLayer
370
-1
48
1
60
0
100
AcDbEllipse
10
16.429985
20
-0.143071
30
0
11
0.161612197743496
21
-0.276191052607641
31
0
210
0
220
0
230
1
40
0.141921
41
-1.8480300357242
42
-1.6734971105248
0
ELLIPSE
5
1AE
100
AcDbEntity
8
1
62
256
6
ByLayer
370
-1
48
1
60
0
100
AcDbEllipse
10
18.520706
20
-4.058335
30
0
11
-0.124577066842043
21
0.0835497122498519
31
0
210
0
220
0
230
1
40
0.083425
41
-2.43396755360171
42
-1.72517806407883
0
ELLIPSE
5
1AF
100
AcDbEntity
8
1
62
256
6
ByLayer
370
-1
48
1
60
0
100
AcDbEllipse
10
12.532342
20
-4.251594
30
0
11
-0.144239959684991
21
0.0411683620037548
31
0
210
0
220
0
230
1
40
0.031593
41
-1.74332349145015
42
-1.56879056625067
0
ELLIPSE
5
1B0
100
AcDbEntity
8
1
62
256
6
ByLayer
370
-1
48
1
60
0
100
AcDbEllipse
10
12.704673
20
-3.647804
30
0
11
-0.144239959684991
21
0.0411683620037548
31
0
210
0
220
0
230
1
40
0.031593
41
-1.74332349144987
42
-1.56879056625048
0
ELLIPSE
5
1B1
100
AcDbEntity
8
1
62
256
6
ByLayer
370
-1
48
1
60
0
100
AcDbEllipse
10
12.220083
20
-3.206379
30
0
11
-0.0710352023429613
21
-0.132113587598303
31
0
210
0
220
0
230
1
40
0.161422
41
0.929141453722783
42
1.63793094324475
0
ELLIPSE
5
1B2
100
AcDbEntity
8
1
62
256
6
ByLayer
370
-1
48
1
60
0
100
AcDbEllipse
10
16.071308
20
0.674317
30
0
11
0.265031506044518
21
-0.196617142700668
31
0
210
0
220
0
230
1
40
0.341239
41
1.07484731081059
42
1.89712853314576
0
ELLIPSE
5
1B3
100
AcDbEntity
8
1
62
256
6
ByLayer
370
-1
48
1
60
0
100
AcDbEllipse
10
16.071308
20
0.674317
30
0
11
-0.285239483601146
21
0.165947090950554
31
0
210
0
220
0
230
1
40
0.016637
41
-2.14142123805804
42
-1.26039991204554
0
ELLIPSE
5
1B4
100
AcDbEntity
8
1
62
256
6
ByLayer
370
-1
48
1
60
0
100
AcDbEllipse
10
15.451334
20
0.311541
30
0
11
-0.00174325584072312
21
-0.329995395511928
31
0
210
0
220
0
230
1
40
0.260533
41
-1.73750023132365
42
-0.85647890531419
0
ELLIPSE
5
1B5
100
AcDbEntity
8
1
62
256
6
ByLayer
370
-1
48
1
60
0
100
AcDbEllipse
10
15.451334
20
0.311541
30
0
11
-0.0210607048197591
21
0.329327263846307
31
0
210
0
220
0
230
1
40
0.570429
41
1.37905832978616
42
2.20133955212109
0
ELLIPSE
5
1B6
100
AcDbEntity
8
1
62
256
6
ByLayer
370
-1
48
1
60
0
100
AcDbEllipse
10
15.400854
20
1.374613
30
0
11
-0.289480318355374
21
1.13400222598654
31
0
210
0
220
0
230
1
40
0.21433
41
1.35046037601342
42
1.51805605068172
0
ELLIPSE
5
1B7
100
AcDbEntity
8
1
62
256
6
ByLayer
370
-1
48
1
60
0
100
AcDbEllipse
10
15.400854
20
1.374613
30
0
11
-0.748440677233774
21
0.867906316005586
31
0
210
0
220
0
230
1
40
0.005689
41
1.28797630524462
42
1.45557195595187
0
ELLIPSE
5
1B8
100
AcDbEntity
8
1
62
256
6
ByLayer
370
-1
48
1
60
0
100
AcDbEllipse
10
15.858999
20
0.309387
30
0
11
-0.285239483601146
21
0.165947090950554
31
0
210
0
220
0
230
1
40
0.016637
41
-2.14142123805667
42
-1.26039991204557
0
ELLIPSE
5
1B9
100
AcDbEntity
8
1
62
256
6
ByLayer
370
-1
48
1
60
0
100
AcDbEllipse
10
15.858999
20
0.309387
30
0
11
0.00174325584072301
21
0.329995395511928
31
0
210
0
220
0
230
1
40
0.260533
41
1.40409242226615
42
2.28511374827561
0
ELLIPSE
5
1BA
100
AcDbEntity
8
1
62
256
6
ByLayer
370
-1
48
1
60
0
100
AcDbEllipse
10
16.071308
20
0.674317
30
0
11
0.168419751761703
21
0.283786516974514
31
0
210
0
220
0
230
1
40
0.305589
41
1.20854329781061
42
1.55760914820953
0
ELLIPSE
5
1BB
100
AcDbEntity
8
1
62
256
6
ByLayer
370
-1
48
1
60
0
100
AcDbEllipse
10
15.451334
20
0.311541
30
0
11
0.329785795493604
21
-0.0118881912270347
31
0
210
0
220
0
230
1
40
0.163668
41
1.83578810473246
42
2.18485395513133
0
ELLIPSE
5
1BC
100
AcDbEntity
8
1
62
256
6
ByLayer
370
-1
48
1
60
0
100
AcDbEllipse
10
15.477123
20
1.02695
30
0
11
0.168419751761703
21
0.283786516974514
31
0
210
0
220
0
230
1
40
0.305589
41
1.20854329781058
42
1.55760914820944
0
ELLIPSE
5
1BD
100
AcDbEntity
8
1
62
256
6
ByLayer
370
-1
48
1
60
0
100
AcDbEllipse
10
15.477123
20
1.02695
30
0
11
0.329785795493604
21
-0.0118881912270347
31
0
210
0
220
0
230
1
40
0.163668
41
1.83578810473241
42
2.18485395513129
0
ELLIPSE
5
1BE
100
AcDbEntity
8
1
62
256
6
ByLayer
370
-1
48
1
60
0
100
AcDbEllipse
10
15.477123
20
1.02695
30
0
11
0.295739719330958
21
0.146417274971386
31
0
210
0
220
0
230
1
40
0.437013
41
1.42853383235124
42
2.02995322866215
0
ELLIPSE
5
1BF
100
AcDbEntity
8
1
62
256
6
ByLayer
370
-1
48
1
60
0
100
AcDbEllipse
10
15.33131
20
1.32147
30
0
11
-0.295739719330958
21
-0.146417274971386
31
0
210
0
220
0
230
1
40
0.437013
41
-1.71305882123856
42
-1.11163942492765
0
ELLIPSE
5
1C0
100
AcDbEntity
8
1
62
256
6
ByLayer
370
-1
48
1
60
0
100
AcDbEllipse
10
14.316259
20
-10.916453
30
0
11
-0.15010016587943
21
0.00044744583698133
31
0
210
0
220
0
230
1
40
0.016915
41
1.74523598128321
42
2.45402547083568
0
ELLIPSE
5
1C1
100
AcDbEntity
8
1
62
256
6
ByLayer
370
-1
48
1
60
0
100
AcDbEllipse
10
8.899198
20
-7.754581
30
0
11
-0.162033669206488
21
-0.2759439980204
31
0
210
0
220
0
230
1
40
0.158847
41
-1.49763748786194
42
-1.32310456266245
0
ELLIPSE
5
1C2
100
AcDbEntity
8
1
62
256
6
ByLayer
370
-1
48
1
60
0
100
AcDbEllipse
10
9.122419
20
-7.364095
30
0
11
-0.189844707165695
21
-0.32577627919512
31
0
210
0
220
0
230
1
40
0.134911
41
-2.54415077860276
42
-1.50917053220684
0
ELLIPSE
5
1C3
100
AcDbEntity
8
1
62
256
6
ByLayer
370
-1
48
1
60
0
100
AcDbEllipse
10
10.934066
20
-4.294412
30
0
11
-0.0840441179465014
21
-0.143868673256396
31
0
210
0
220
0
230
1
40
0.143076
41
1.63632518138837
42
2.34511467079801
0
ELLIPSE
5
1C4
100
AcDbEntity
8
1
62
256
6
ByLayer
370
-1
48
1
60
0
100
AcDbEllipse
10
11.620276
20
-10.497897
30
0
11
-0.242332973117516
21
0.141218484145339
31
0
210
0
220
0
230
1
40
0.03895
41
-1.65575193154756
42
-0.620771685066802
0
ELLIPSE
5
1C5
100
AcDbEntity
8
1
62
256
6
ByLayer
370
-1
48
1
60
0
100
AcDbEllipse
10
8.663324
20
-8.503394
30
0
11
-0.0595777305260694
21
0.192154317133796
31
0
210
0
220
0
230
1
40
0.960584
41
0.759243940334853
42
1.28949687333582
0
ELLIPSE
5
1C6
100
AcDbEntity
8
1
62
256
6
ByLayer
370
-1
48
1
60
0
100
AcDbEllipse
10
14.500527
20
1.606231
30
0
11
0.0197022175593632
21
0.199027190663094
31
0
210
0
220
0
230
1
40
0.984662
41
-9.77236573852674E-07
42
0.620766087096121
0
ELLIPSE
5
1C7
100
AcDbEntity
8
1
62
256
6
ByLayer
370
-1
48
1
60
0
100
AcDbEllipse
10
8.048019
20
-10.009226
30
0
11
0.0197022175593632
21
0.199027190663094
31
0
210
0
220
0
230
1
40
0.984662
41
2.71516118948927
42
-3.14157835546852
0
ELLIPSE
5
1C8
100
AcDbEntity
8
1
62
256
6
ByLayer
370
-1
48
1
60
0
100
AcDbEllipse
10
11.657236
20
-10.644296
30
0
11
0.0197022175593632
21
0.199027190663094
31
0
210
0
220
0
230
1
40
0.984662
41
2.71516118948927
42
3.14159171806168
0
ELLIPSE
5
1C9
100
AcDbEntity
8
1
62
256
6
ByLayer
370
-1
48
1
60
0
100
AcDbEllipse
10
9.808779
20
-10.275949
30
0
11
-0.01280644141359
21
-0.129367673931011
31
0
210
0
220
0
230
1
40
0.984662
41
-0.426431464100575
42
8.82963169142776E-06
0
ELLIPSE
5
1CA
100
AcDbEntity
8
1
62
256
6
ByLayer
370
-1
48
1
60
0
100
AcDbEllipse
10
21.023141
20
-7.958397
30
0
11
-0.276760933590268
21
0.160658795878322
31
0
210
0
220
0
230
1
40
0.073503
41
0.766553402296053
42
1.56309533874355
0
ELLIPSE
5
1CB
100
AcDbEntity
8
1
62
256
6
ByLayer
370
-1
48
1
60
0
100
AcDbEllipse
10
20.873641
20
-7.743955
30
0
11
-0.0461022226477291
21
-0.123922179276637
31
0
210
0
220
0
230
1
40
0.697513
41
-1.29197441581162
42
-0.947166124933198
0
ELLIPSE
5
1CC
100
AcDbEntity
8
1
62
256
6
ByLayer
370
-1
48
1
60
0
100
AcDbEllipse
10
18.513104
20
-10.916453
30
0
11
-0.176125739405902
21
0.000381298909800963
31
0
210
0
220
0
230
1
40
0.014477
41
1.71923999931267
42
2.75422024574377
0
ELLIPSE
5
1CD
100
AcDbEntity
8
1
62
256
6
ByLayer
370
-1
48
1
60
0
100
AcDbEllipse
10
21.158788
20
-8.215382
30
0
11
-0.132004876936199
21
0.000392178516983768
31
0
210
0
220
0
230
1
40
0.984667
41
3.14157881688252
42
-2.10106309663077
0
ELLIPSE
5
1CE
100
AcDbEntity
8
1
62
256
6
ByLayer
370
-1
48
1
60
0
100
AcDbEllipse
10
21.15678
20
-8.888344
30
0
11
-0.132004876936952
21
0.00039217855172245
31
0
210
0
220
0
230
1
40
0.984667
41
2.18885914022589
42
3.1415788171413
0
ELLIPSE
5
1CF
100
AcDbEntity
8
1
62
256
6
ByLayer
370
-1
48
1
60
0
100
AcDbEllipse
10
21.26472
20
-9.131564
30
0
11
-0.132004876934152
21
0.00039217850898856
31
0
210
0
220
0
230
1
40
0.984667
41
-0.95273351369418
42
-1.38367661511072E-05
0
ELLIPSE
5
1D0
100
AcDbEntity
8
1
62
256
6
ByLayer
370
-1
48
1
60
0
100
AcDbEllipse
10
21.264548
20
-9.18935
30
0
11
-0.132004876938338
21
0.000392178490901605
31
0
210
0
220
0
230
1
40
0.984667
41
-1.38369022937234E-05
42
1.04052955675522
0
ELLIPSE
5
1D1
100
AcDbEntity
8
1
62
256
6
ByLayer
370
-1
48
1
60
0
100
AcDbEllipse
10
21.827339
20
-9.899611
30
0
11
-0.203084426054692
21
0.00060335158203385
31
0
210
0
220
0
230
1
40
0.984667
41
3.1415788169669
42
-2.10106309654356
0
ELLIPSE
5
1D2
100
AcDbEntity
8
1
62
256
6
ByLayer
370
-1
48
1
60
0
100
AcDbEllipse
10
21.827265
20
-9.924472
30
0
11
-0.203084426049046
21
0.000603351487240884
31
0
210
0
220
0
230
1
40
0.984667
41
2.10103542282109
42
3.14157881650849
0
ELLIPSE
5
1D3
100
AcDbEntity
8
1
62
256
6
ByLayer
370
-1
48
1
60
0
100
AcDbEllipse
10
20.646019
20
-6.414123
30
0
11
0.0197022175593632
21
0.199027190663094
31
0
210
0
220
0
230
1
40
0.984662
41
-1.47362901529707
42
-0.950030239698765
0
ELLIPSE
5
1D4
100
AcDbEntity
8
1
62
256
6
ByLayer
370
-1
48
1
60
0
100
AcDbEllipse
10
20.430427
20
-9.907924
30
0
11
-0.254558441227157
21
3.11733884545897E-17
31
0
210
0
220
0
230
1
40
0.999857
41
-0.539941900357864
42
0.533972158064268
0
ELLIPSE
5
1D5
100
AcDbEntity
8
1
62
256
6
ByLayer
370
-1
48
1
60
0
100
AcDbEllipse
10
20.645335
20
-10.271344
30
0
11
-0.254558441227157
21
3.11733884545897E-17
31
0
210
0
220
0
230
1
40
0.999857
41
0.533972158064299
42
0.838909548964202
0
ELLIPSE
5
1D6
100
AcDbEntity
8
1
62
256
6
ByLayer
370
-1
48
1
60
0
100
AcDbEllipse
10
20.647501
20
-9.545793
30
0
11
-0.254558441227157
21
3.11733884545897E-17
31
0
210
0
220
0
230
1
40
0.999857
41
-0.844879039200695
42
-0.539941900357832
0
ELLIPSE
5
1D7
100
AcDbEntity
8
1
62
256
6
ByLayer
370
-1
48
1
60
0
100
AcDbEllipse
10
20.350646
20
-9.774665
30
0
11
-0.491122290583316
21
0.830478379875735
31
0
210
0
220
0
230
1
40
0.342017
41
2.31469405703561
42
3.13697527937213
0
ELLIPSE
5
1D8
100
AcDbEntity
8
1
62
256
6
ByLayer
370
-1
48
1
60
0
100
AcDbEllipse
10
20.349852
20
-10.040601
30
0
11
-0.496071482931263
21
-0.827532009952143
31
0
210
0
220
0
230
1
40
0.342016
41
-3.13697512151134
42
-2.31469389917232
0
ELLIPSE
5
1D9
100
AcDbEntity
8
1
62
256
6
ByLayer
370
-1
48
1
60
0
100
AcDbEllipse
10
19.441087
20
-11.270746
30
0
11
-2.45285015801461
21
-1.40616694217794
31
0
210
0
220
0
230
1
40
0.300605
41
-3.13729264535945
42
-2.96969697040192
0
ELLIPSE
5
1DA
100
AcDbEntity
8
1
62
256
6
ByLayer
370
-1
48
1
60
0
100
AcDbEllipse
10
19.449241
20
-8.539117
30
0
11
-2.4444118024794
21
1.42078303563913
31
0
210
0
220
0
230
1
40
0.300605
41
2.96969682933048
42
3.13729250403693
0
ELLIPSE
5
1DB
100
AcDbEntity
8
1
62
256
6
ByLayer
370
-1
48
1
60
0
100
AcDbEllipse
10
19.754046
20
-10.189542
30
0
11
0.272157358452946
21
-0.168316286318095
31
0
210
0
220
0
230
1
40
0.077665
41
-2.76312998739899
42
-1.72814974096653
0
ELLIPSE
5
1DC
100
AcDbEntity
8
1
62
256
6
ByLayer
370
-1
48
1
60
0
100
AcDbEllipse
10
19.754046
20
-10.189542
30
0
11
-0.27815116708091
21
0.158214816788845
31
0
210
0
220
0
230
1
40
0.014726
41
-1.56244949829215
42
-0.377304873147985
0
ELLIPSE
5
1DD
100
AcDbEntity
8
1
62
256
6
ByLayer
370
-1
48
1
60
0
100
AcDbEllipse
10
19.754046
20
-10.189542
30
0
11
-0.31999857438126
21
0.000955193153905681
31
0
210
0
220
0
230
1
40
0.016926
41
-1.5707710627122
42
-1.39623813751274
0
ELLIPSE
5
1DE
100
AcDbEntity
8
1
62
256
6
ByLayer
370
-1
48
1
60
0
100
AcDbEllipse
10
15.44889
20
-10.041118
30
0
11
0.135513172663692
21
0.0643131404506149
31
0
210
0
220
0
230
1
40
0.090991
41
-2.12953829854737
42
-1.42074880902443
0
ELLIPSE
5
1DF
100
AcDbEntity
8
1
62
256
6
ByLayer
370
-1
48
1
60
0
100
AcDbEllipse
10
18.293938
20
-4.679695
30
0
11
0.10884915159153
21
0.103207859186227
31
0
210
0
220
0
230
1
40
0.132802
41
-1.45638155561103
42
-1.28184863041159
0
ELLIPSE
5
1E0
100
AcDbEntity
8
1
62
256
6
ByLayer
370
-1
48
1
60
0
100
AcDbEllipse
10
18.722354
20
-5.131528
30
0
11
0.10884915159153
21
0.103207859186227
31
0
210
0
220
0
230
1
40
0.132802
41
-1.45638155561117
42
-1.28184863041177
0
ELLIPSE
5
1E1
100
AcDbEntity
8
1
62
256
6
ByLayer
370
-1
48
1
60
0
100
AcDbEllipse
10
19.342457
20
-4.925003
30
0
11
-0.0805414741465712
21
0.126542763294853
31
0
210
0
220
0
230
1
40
0.138046
41
-1.67873076347039
42
-0.969941273947756
0
ELLIPSE
5
1E2
100
AcDbEntity
8
1
62
256
6
ByLayer
370
-1
48
1
60
0
100
AcDbEllipse
10
20.64432
20
-10.274844
30
0
11
-0.284574752690512
21
-0.167084440122754
31
0
210
0
220
0
230
1
40
0.328265
41
0.753089680139395
42
1.57537090247441
0
ELLIPSE
5
1E3
100
AcDbEntity
8
1
62
256
6
ByLayer
370
-1
48
1
60
0
100
AcDbEllipse
10
20.64432
20
-10.274844
30
0
11
0.284050851998538
21
0.16797354993839
31
0
210
0
220
0
230
1
40
0.014557
41
1.56215884318398
42
2.44318016919367
0
ELLIPSE
5
1E4
100
AcDbEntity
8
1
62
256
6
ByLayer
370
-1
48
1
60
0
100
AcDbEllipse
10
20.646486
20
-9.549293
30
0
11
-0.283043037695041
21
0.169666257141377
31
0
210
0
220
0
230
1
40
0.014531
41
-1.56211542914266
42
-0.681094103132649
0
ELLIPSE
5
1E5
100
AcDbEntity
8
1
62
256
6
ByLayer
370
-1
48
1
60
0
100
AcDbEllipse
10
20.646486
20
-9.549293
30
0
11
0.282502684669732
21
-0.170564454545471
31
0
210
0
220
0
230
1
40
0.355599
41
1.58465200846343
42
2.40693323079842
0
ELLIPSE
5
1E6
100
AcDbEntity
8
1
62
256
6
ByLayer
370
-1
48
1
60
0
100
AcDbEllipse
10
21.811142
20
-9.92657
30
0
11
-1.20705423445652
21
0.290156901798463
31
0
210
0
220
0
230
1
40
0.066352
41
-1.62195825096926
42
-1.45436257860059
0
ELLIPSE
5
1E7
100
AcDbEntity
8
1
62
256
6
ByLayer
370
-1
48
1
60
0
100
AcDbEllipse
10
21.811142
20
-9.92657
30
0
11
-1.20883008774133
21
-0.274665722565792
31
0
210
0
220
0
230
1
40
0.04318
41
1.46015549563996
42
1.62775116986852
0
ELLIPSE
5
1E8
100
AcDbEntity
8
1
62
256
6
ByLayer
370
-1
48
1
60
0
100
AcDbEllipse
10
20.429411
20
-9.911424
30
0
11
0.284050851998538
21
0.16797354993839
31
0
210
0
220
0
230
1
40
0.014557
41
1.56215884318407
42
2.44318016919505
0
ELLIPSE
5
1E9
100
AcDbEntity
8
1
62
256
6
ByLayer
370
-1
48
1
60
0
100
AcDbEllipse
10
20.429411
20
-9.911424
30
0
11
0.283043037695041
21
-0.169666257141377
31
0
210
0
220
0
230
1
40
0.014531
41
1.57947722444705
42
2.46049855045714
0
ELLIPSE
5
1EA
100
AcDbEntity
8
1
62
256
6
ByLayer
370
-1
48
1
60
0
100
AcDbEllipse
10
20.64432
20
-10.274844
30
0
11
0.164128524857488
21
-0.286289761130406
31
0
210
0
220
0
230
1
40
0.008441
41
1.23640270069977
42
1.58546855109497
0
ELLIPSE
5
1EB
100
AcDbEntity
8
1
62
256
6
ByLayer
370
-1
48
1
60
0
100
AcDbEllipse
10
20.646486
20
-9.549293
30
0
11
-0.165834547046448
21
-0.285304929866099
31
0
210
0
220
0
230
1
40
0.008485
41
-1.93450914283807
42
-1.5854432924413
0
ELLIPSE
5
1EC
100
AcDbEntity
8
1
62
256
6
ByLayer
370
-1
48
1
60
0
100
AcDbEllipse
10
21.273839
20
-9.913944
30
0
11
0.164128524857488
21
-0.286289761130406
31
0
210
0
220
0
230
1
40
0.008441
41
1.2364027006964
42
1.58546855109513
0
ELLIPSE
5
1ED
100
AcDbEntity
8
1
62
256
6
ByLayer
370
-1
48
1
60
0
100
AcDbEllipse
10
21.273839
20
-9.913944
30
0
11
-0.165834547046448
21
-0.285304929866099
31
0
210
0
220
0
230
1
40
0.008485
41
-1.93450914284168
42
-1.5854432924415
0
ELLIPSE
5
1EE
100
AcDbEntity
8
1
62
256
6
ByLayer
370
-1
48
1
60
0
100
AcDbEllipse
10
21.273839
20
-9.913944
30
0
11
-0.00200138935679135
21
-0.329993930914862
31
0
210
0
220
0
230
1
40
0.178994
41
1.28729154980968
42
1.88871094612059
0
ELLIPSE
5
1EF
100
AcDbEntity
8
1
62
256
6
ByLayer
370
-1
48
1
60
0
100
AcDbEllipse
10
21.633307
20
-9.916124
30
0
11
0.00200138935679116
21
0.329993930914862
31
0
210
0
220
0
230
1
40
0.178994
41
-1.85430110378012
42
-1.25288170746913
0
ELLIPSE
5
1F0
100
AcDbEntity
8
1
62
256
6
ByLayer
370
-1
48
1
60
0
100
AcDbEllipse
10
11.712156
20
-2.933276
30
0
11
-0.0760035165658422
21
-0.129439174418597
31
0
210
0
220
0
230
1
40
0.158738
41
0.935112572844099
42
1.64390206249632
0
ELLIPSE
5
1F1
100
AcDbEntity
8
1
62
256
6
ByLayer
370
-1
48
1
60
0
100
AcDbEllipse
10
17.046568
20
0.217721
30
0
11
-0.161612197743506
21
0.276191052607636
31
0
210
0
220
0
230
1
40
0.141921
41
1.29356261786553
42
1.46809554306504
0
ELLIPSE
5
1F2
100
AcDbEntity
8
1
62
256
6
ByLayer
370
-1
48
1
60
0
100
AcDbEllipse
10
17.267458
20
-0.172766
30
0
11
-0.188942952877197
21
0.325984650005536
31
0
210
0
220
0
230
1
40
0.12071
41
1.48411448579799
42
2.51909473223069
0
ELLIPSE
5
1F3
100
AcDbEntity
8
1
62
256
6
ByLayer
370
-1
48
1
60
0
100
AcDbEllipse
10
19.060747
20
-3.253105
30
0
11
-0.0837034822406882
21
0.143972486438161
31
0
210
0
220
0
230
1
40
0.127956
41
-2.37169933080217
42
-1.66290984137582
0
ELLIPSE
5
1F4
100
AcDbEntity
8
1
62
256
6
ByLayer
370
-1
48
1
60
0
100
AcDbEllipse
10
13.424253
20
-0.770998
30
0
11
-0.243113751198789
21
-0.140910408009738
31
0
210
0
220
0
230
1
40
0.05457
41
1.64645383467847
42
2.68143408121667
0
ELLIPSE
5
1F5
100
AcDbEntity
8
1
62
256
6
ByLayer
370
-1
48
1
60
0
100
AcDbEllipse
10
16.47344
20
0.773168
30
0
11
-0.0833186580703236
21
-0.182756206468457
31
0
210
0
220
0
230
1
40
0.958576
41
2.50791834043118
42
3.03817127346362
0
ELLIPSE
5
1F6
100
AcDbEntity
8
1
62
256
6
ByLayer
370
-1
48
1
60
0
100
AcDbEllipse
10
14.146315
20
0.757791
30
0
11
-0.01280644141359
21
-0.129367673931011
31
0
210
0
220
0
230
1
40
0.984662
41
0.62076608709616
42
1.66130948076653
0
ELLIPSE
5
1F7
100
AcDbEntity
8
1
62
256
6
ByLayer
370
-1
48
1
60
0
100
AcDbEllipse
10
14.479283
20
1.5938
30
0
11
0.0197022175593632
21
0.199027190663094
31
0
210
0
220
0
230
1
40
0.984662
41
0.620766087096107
42
1.66130948076643
0
ELLIPSE
5
1F8
100
AcDbEntity
8
1
62
256
6
ByLayer
370
-1
48
1
60
0
100
AcDbEllipse
10
12.123486
20
-1.263755
30
0
11
0.0197022175593632
21
0.199027190663094
31
0
210
0
220
0
230
1
40
0.984662
41
0.620766087096061
42
1.14436486269442
0
ELLIPSE
5
1F9
100
AcDbEntity
8
1
62
256
6
ByLayer
370
-1
48
1
60
0
100
AcDbEllipse
10
13.106068
20
-0.308472
30
0
11
-0.01280644141359
21
-0.129367673931011
31
0
210
0
220
0
230
1
40
0.984662
41
0.620766087096142
42
1.66130948076655
0
ELLIPSE
5
1FA
100
AcDbEntity
8
1
62
256
6
ByLayer
370
-1
48
1
60
0
100
AcDbEllipse
10
13.366767
20
0.178304
30
0
11
-0.01280644141359
21
-0.129367673931011
31
0
210
0
220
0
230
1
40
0.984662
41
-2.52082656649362
42
-1.48028317282331
0
ELLIPSE
5
1FB
100
AcDbEntity
8
1
62
256
6
ByLayer
370
-1
48
1
60
0
100
AcDbEllipse
10
13.941804
20
0.514785
30
0
11
0.0128064414135861
21
0.129367673931011
31
0
210
0
220
0
230
1
40
0.984662
41
7.22549782175479E-06
42
0.620766087096231
0
ELLIPSE
5
1FC
100
AcDbEntity
8
1
62
256
6
ByLayer
370
-1
48
1
60
0
100
AcDbEllipse
10
8.02685
20
-9.996795
30
0
11
0.0197022175593632
21
0.199027190663094
31
0
210
0
220
0
230
1
40
0.984662
41
1.67461779581896
42
2.71516118948927
0
ELLIPSE
5
1FD
100
AcDbEntity
8
1
62
256
6
ByLayer
370
-1
48
1
60
0
100
AcDbEllipse
10
8.284861
20
-11.036405
30
0
11
1.4096999339054
21
0.000431679862431085
31
0
210
0
220
0
230
1
40
0.051912
41
1.39632646697729
42
2.44352401817397
0
ELLIPSE
5
1FE
100
AcDbEntity
8
1
62
256
6
ByLayer
370
-1
48
1
60
0
100
AcDbEllipse
10
8.284861
20
-11.036405
30
0
11
1.4096999339054
21
0.000431679862431085
31
0
210
0
220
0
230
1
40
0.051912
41
2.44352401817397
42
-2.79246373780897
0
ELLIPSE
5
1FF
100
AcDbEntity
8
1
62
256
6
ByLayer
370
-1
48
1
60
0
100
AcDbEllipse
10
8.284861
20
-11.036405
30
0
11
1.4096999339054
21
0.000431679862431085
31
0
210
0
220
0
230
1
40
0.051912
41
-2.79246373780897
42
-1.7452661866125
0
ELLIPSE
5
200
100
AcDbEntity
8
1
62
256
6
ByLayer
370
-1
48
1
60
0
100
AcDbEllipse
10
8.284861
20
-11.036405
30
0
11
1.4096999339054
21
0.000431679862431085
31
0
210
0
220
0
230
1
40
0.051912
41
-1.7452661866125
42
-0.698068635415793
0
ELLIPSE
5
201
100
AcDbEntity
8
1
62
256
6
ByLayer
370
-1
48
1
60
0
100
AcDbEllipse
10
8.284861
20
-11.036405
30
0
11
1.4096999339054
21
0.000431679862431085
31
0
210
0
220
0
230
1
40
0.051912
41
-0.698068635415793
42
0.349128915780768
0
ELLIPSE
5
202
100
AcDbEntity
8
1
62
256
6
ByLayer
370
-1
48
1
60
0
100
AcDbEllipse
10
8.284861
20
-11.036405
30
0
11
1.4096999339054
21
0.000431679862431085
31
0
210
0
220
0
230
1
40
0.051912
41
0.349128915780768
42
1.39632646697729
0
ELLIPSE
5
203
100
AcDbEntity
8
1
62
256
6
ByLayer
370
-1
48
1
60
0
100
AcDbEllipse
10
8.284524
20
-9.937889
30
0
11
-3.0999998546544
21
-0.000949285361073716
31
0
210
0
220
0
230
1
40
0.051912
41
-1.42338533807492
42
-1.32962732378628
0
ELLIPSE
5
204
100
AcDbEntity
8
1
62
256
6
ByLayer
370
-1
48
1
60
0
100
AcDbEllipse
10
8.284861
20
-11.036405
30
0
11
-1.69999992029435
21
-0.000520575843169458
31
0
210
0
220
0
230
1
40
0.051912
41
0
42
6.28318530717959
0
ELLIPSE
5
205
100
AcDbEntity
8
1
62
256
6
ByLayer
370
-1
48
1
60
0
100
AcDbEllipse
10
20.814598
20
-7.195075
30
0
11
-0.000612742690127465
21
-0.283031911619267
31
0
210
0
220
0
230
1
40
0.092039
41
0.526906338703576
42
1.56188658514541
0
ELLIPSE
5
206
100
AcDbEntity
8
1
62
256
6
ByLayer
370
-1
48
1
60
0
100
AcDbEllipse
10
19.830711
20
-4.614241
30
0
11
-0.0758050237776414
21
0.129554897883951
31
0
210
0
220
0
230
1
40
0.141824
41
-1.67342357359458
42
-0.964634084349737
0
ELLIPSE
5
207
100
AcDbEntity
8
1
62
256
6
ByLayer
370
-1
48
1
60
0
100
AcDbEllipse
10
15.864315
20
-10.916453
30
0
11
-0.166222822829324
21
0.000404025363539381
31
0
210
0
220
0
230
1
40
0.015318
41
1.01936978909438
42
1.72815927867079
0
ELLIPSE
5
208
100
AcDbEntity
8
1
62
256
6
ByLayer
370
-1
48
1
60
0
100
AcDbEllipse
10
15.312419
20
-6.157235
30
0
11
-0.303455114647866
21
-3.06543254731197
31
0
210
0
220
0
230
1
40
0.984662
41
0
42
6.28318530717959
0
ELLIPSE
5
209
100
AcDbEntity
8
1
62
256
6
ByLayer
370
-1
48
1
60
0
100
AcDbEllipse
10
19.307782
20
-10.911125
30
0
11
-0.37573491072932
21
0.000813437674197263
31
0
210
0
220
0
230
1
40
0.014477
41
-1.42235265428374
42
-0.387372407845298
0
ELLIPSE
5
20A
100
AcDbEntity
8
1
62
256
6
ByLayer
370
-1
48
1
60
0
100
AcDbEllipse
10
19.751892
20
-10.911125
30
0
11
0.31999857438126
21
-0.000955193153900462
31
0
210
0
220
0
230
1
40
0.016926
41
1.57082159087759
42
1.74535451607701
0
ELLIPSE
5
20B
100
AcDbEntity
8
1
62
256
6
ByLayer
370
-1
48
1
60
0
100
AcDbEllipse
10
20.460814
20
-10.707852
30
0
11
-0.20308442604691
21
0.000603351478284873
31
0
210
0
220
0
230
1
40
0.984667
41
1.57078248965166
42
2.1010354227958
0
POINT
5
41
100
AcDbEntity
8
81
62
256
6
ByLayer
370
-1
48
1
60
0
100
AcDbPoint
10
23.355801
20
-10.9125
30
0
39
0
210
0
220
0
230
1
50
360
0
POINT
5
43
100
AcDbEntity
8
2
62
256
6
ByLayer
370
-1
48
1
60
0
100
AcDbPoint
10
23.397097
20
10.916588
30
0
39
0
210
0
220
0
230
1
50
360
0
POINT
5
45
100
AcDbEntity
8
2
62
256
6
ByLayer
370
-1
48
1
60
0
100
AcDbPoint
10
22.030378
20
9.912648
30
0
39
0
210
0
220
0
230
1
50
360
0
POINT
5
46
100
AcDbEntity
8
80
62
256
6
ByLayer
370
-1
48
1
60
0
100
AcDbPoint
10
0
20
0
30
0
39
0
210
0
220
0
230
1
50
360
0
POINT
5
48
100
AcDbEntity
8
2
62
256
6
ByLayer
370
-1
48
1
60
0
100
AcDbPoint
10
23.355801
20
10.9125
30
0
39
0
210
0
220
0
230
1
50
360
0
SPLINE
5
20C
100
AcDbEntity
8
1
62
256
6
ByLayer
370
-1
48
1
60
0
100
AcDbSpline
70
4
71
3
72
11
73
7
40
0
40
0
40
0
40
0
40
0.309911999284402
40
0.650245840483852
40
0.971236918930121
40
1
40
1
40
1
40
1
41
1
10
10.9167651724993
20
-10.4418369076817
30
0
41
1
10
10.828952248027
20
-10.5193499545721
30
0
41
1
10
10.6382724268712
20
-10.6741996634319
30
0
41
1
10
10.3286996338144
20
-10.8709523496985
30
0
41
1
10
10.0989735959264
20
-10.9959083387366
30
0
41
1
10
9.97608618461058
20
-11.0439063944891
30
0
41
1
10
9.96594892824766
20
-11.0477867107232
30
0
0
SPLINE
5
20D
100
AcDbEntity
8
1
62
256
6
ByLayer
370
-1
48
1
60
0
100
AcDbSpline
70
4
71
3
72
11
73
7
40
0
40
0
40
0
40
0
40
0.142502461063957
40
0.490424513707657
40
0.832589729622558
40
1
40
1
40
1
40
1
41
1
10
6.62684137779789
20
-11.0525790449876
30
0
41
1
10
6.57039528478279
20
-11.0318000541303
30
0
41
1
10
6.37928602364613
20
-10.9541240367528
30
0
41
1
10
6.07571325660811
20
-10.7750668587591
30
0
41
1
10
5.78470775367424
20
-10.5612694169849
30
0
41
1
10
5.62299872478746
20
-10.4195216183608
30
0
41
1
10
5.57148055541859
20
-10.371287168573
30
0
0
SPLINE
5
20E
100
AcDbEntity
8
1
62
256
6
ByLayer
370
-1
48
1
60
0
100
AcDbSpline
70
4
71
3
72
8
73
4
40
0
40
0
40
0
40
0
40
1
40
1
40
1
40
1
41
1
10
13.3784313636014
20
1.53818302480022
30
0
41
1
10
13.6222409306787
20
1.37543952332672
30
0
41
1
10
13.827896738789
20
1.22020000734736
30
0
41
1
10
14.0143966384253
20
1.07102321918521
30
0
0
SPLINE
5
20F
100
AcDbEntity
8
1
62
256
6
ByLayer
370
-1
48
1
60
0
100
AcDbSpline
70
4
71
3
72
8
73
4
40
0
40
0
40
0
40
0
40
1
40
1
40
1
40
1
41
1
10
15.7158564952444
20
-7.61804605594071
30
0
41
1
10
15.7178764599646
20
-7.62478465057617
30
0
41
1
10
15.7198964286895
20
-7.63152320896518
30
0
41
1
10
15.7219164012596
20
-7.6382617325427
30
0
0
SPLINE
5
210
100
AcDbEntity
8
1
62
256
6
ByLayer
370
-1
48
1
60
0
100
AcDbSpline
70
4
71
3
72
34
73
30
40
0
40
0
40
0
40
0
40
0.0514465755209481
40
0.0514465755209481
40
0.135786144735417
40
0.135786144735417
40
0.203131635218884
40
0.203131635218884
40
0.270315608875113
40
0.270315608875113
40
0.337431278535956
40
0.337431278535956
40
0.404515897625545
40
0.404515897625545
40
0.499929883690954
40
0.499929883690954
40
0.599210771748148
40
0.599210771748148
40
0.697083019894204
40
0.697083019894204
40
0.780957226922704
40
0.780957226922704
40
0.847546414393218
40
0.847546414393218
40
0.898875235580314
40
0.898875235580314
40
0.980803570703522
40
0.980803570703522
40
1
40
1
40
1
40
1
41
1
10
14.9490592102332
20
-7.61804605594068
30
0
41
1
10
14.9504800823638
20
-7.60437623991976
30
0
41
1
10
14.9492921644291
20
-7.59001999012449
30
0
41
1
10
14.941334739278
20
-7.55294066613806
30
0
41
1
10
14.931521102754
20
-7.52999981837976
30
0
41
1
10
14.9095145859559
20
-7.49094945387426
30
0
41
1
10
14.8980032519883
20
-7.47408579271976
30
0
41
1
10
14.8729011948652
20
-7.44177430066716
30
0
41
1
10
14.8592278409183
20
-7.42621939867777
30
0
41
1
10
14.8304032614237
20
-7.3964400809873
30
0
41
1
10
14.8151878765257
20
-7.38215064546301
30
0
41
1
10
14.7836695201293
20
-7.35488272979288
30
0
41
1
10
14.7673114562692
20
-7.34185740555441
30
0
41
1
10
14.7267469572881
20
-7.31195453597991
30
0
41
1
10
14.7020093730216
20
-7.29566803563469
30
0
41
1
10
14.6505872656831
20
-7.26546947221667
30
0
41
1
10
14.6236995344559
20
-7.25158227712399
30
0
41
1
10
14.5699139418991
20
-7.22767128117323
30
0
41
1
10
14.5428421318813
20
-7.21751110376505
30
0
41
1
10
14.4927459511322
20
-7.20269946700563
30
0
41
1
10
14.4695436327665
20
-7.19742066112508
30
0
41
1
10
14.4285107680567
20
-7.19164110814739
30
0
41
1
10
14.4104457774318
20
-7.19036533932729
30
0
41
1
10
14.3792772079865
20
-7.19112290699911
30
0
41
1
10
14.3659055677177
20
-7.19247055406001
30
0
41
1
10
14.3327765994237
20
-7.19932269965886
30
0
41
1
10
14.3132285210903
20
-7.20696357943282
30
0
41
1
10
14.2936276302184
20
-7.2223183922342
30
0
41
1
10
14.2900468054314
20
-7.22556034134115
30
0
41
1
10
14.2867280102729
20
-7.22908006872319
30
0
0
SPLINE
5
211
100
AcDbEntity
8
1
62
256
6
ByLayer
370
-1
48
1
60
0
100
AcDbSpline
70
4
71
3
72
8
73
4
40
0
40
0
40
0
40
0
40
1
40
1
40
1
40
1
41
1
10
14.9469579922808
20
-7.6382617325427
30
0
41
1
10
14.9476583794726
20
-7.63152320896518
30
0
41
1
10
14.9483587852017
20
-7.62478465057617
30
0
41
1
10
14.9490592102332
20
-7.61804605594068
30
0
0
SPLINE
5
212
100
AcDbEntity
8
1
62
256
6
ByLayer
370
-1
48
1
60
0
100
AcDbSpline
70
4
71
3
72
22
73
18
40
0
40
0
40
0
40
0
40
0.0973712659846618
40
0.0973712659846618
40
0.180296832630684
40
0.180296832630684
40
0.307445080802919
40
0.307445080802919
40
0.41197841851473
40
0.41197841851473
40
0.516185210010881
40
0.516185210010881
40
0.62025014529166
40
0.62025014529166
40
0.829289859625697
40
0.829289859625697
40
1
40
1
40
1
40
1
41
1
10
15.7219164012596
20
-7.6382617325427
30
0
41
1
10
15.7248484599033
20
-7.65225952822115
30
0
41
1
10
15.724636520259
20
-7.66700543109323
30
0
41
1
10
15.7184415218788
20
-7.69271457984445
30
0
41
1
10
15.7133001642888
20
-7.70421899768152
30
0
41
1
10
15.6964554534923
20
-7.73081014193284
30
0
41
1
10
15.6825531591423
20
-7.74506387536743
30
0
41
1
10
15.6544018499732
20
-7.76737627124922
30
0
41
1
10
15.6404268379572
20
-7.77627781018964
30
0
41
1
10
15.6113063365765
20
-7.79197533457378
30
0
41
1
10
15.5960695382993
20
-7.79882577754907
30
0
41
1
10
15.5648874635407
20
-7.81083291218641
30
0
41
1
10
15.5488868597351
20
-7.81601082258285
30
0
41
1
10
15.5001366799148
20
-7.82940950605555
30
0
41
1
10
15.466538367528
20
-7.83553620522824
30
0
41
1
10
15.4050162025705
20
-7.84238112657329
30
0
41
1
10
15.3770458354527
20
-7.84388676179623
30
0
41
1
10
15.3490499236473
20
-7.84388676179623
30
0
0
SPLINE
5
213
100
AcDbEntity
8
1
62
256
6
ByLayer
370
-1
48
1
60
0
100
AcDbSpline
70
4
71
3
72
24
73
20
40
0
40
0
40
0
40
0
40
0.038019832551612
40
0.038019832551612
40
0.246834654674772
40
0.246834654674772
40
0.40472650566326
40
0.40472650566326
40
0.526150637962808
40
0.526150637962808
40
0.621531995503623
40
0.621531995503623
40
0.776890538332061
40
0.776890538332061
40
0.87368421389798
40
0.87368421389798
40
0.971746172255027
40
0.971746172255027
40
1
40
1
40
1
40
1
41
1
10
15.3490499236473
20
-7.84388676179623
30
0
41
1
10
15.3428077937841
20
-7.84388676179623
30
0
41
1
10
15.3365615286184
20
-7.84381149183648
30
0
41
1
10
15.2960575399288
20
-7.84283447166453
30
0
41
1
10
15.261654087329
20
-7.83975841953537
30
0
41
1
10
15.2018699997661
20
-7.83003405023698
30
0
41
1
10
15.1762243360376
20
-7.82441810579803
30
0
41
1
10
15.1316750736697
20
-7.81152696314831
30
0
41
1
10
15.1125099834239
20
-7.80491177617654
30
0
41
1
10
15.0792017804241
20
-7.79096093000268
30
0
41
1
10
15.0648083238828
20
-7.78405922036197
30
0
41
1
10
15.0285726045117
20
-7.76369329133706
30
0
41
1
10
15.0071274807283
20
-7.7485335687665
30
0
41
1
10
14.9782549622122
20
-7.71928742741869
30
0
41
1
10
14.9684310335981
20
-7.70667411276227
30
0
41
1
10
14.9538475488158
20
-7.67978652121388
30
0
41
1
10
14.9490345427938
20
-7.66508707245828
30
0
41
1
10
14.9470645307621
20
-7.64659209025734
30
0
41
1
10
14.9468825408115
20
-7.64240331290193
30
0
41
1
10
14.9469579922807
20
-7.6382617325427
30
0
0
SPLINE
5
214
100
AcDbEntity
8
1
62
256
6
ByLayer
370
-1
48
1
60
0
100
AcDbSpline
70
4
71
3
72
8
73
4
40
0
40
0
40
0
40
0
40
1
40
1
40
1
40
1
41
1
10
16.766280854558
20
-6.5548866818269
30
0
41
1
10
16.773321184262
20
-6.55709657409659
30
0
41
1
10
16.7803614897392
20
-6.55930645558641
30
0
41
1
10
16.787401771948
20
-6.56151632672308
30
0
0
SPLINE
5
215
100
AcDbEntity
8
1
62
256
6
ByLayer
370
-1
48
1
60
0
100
AcDbSpline
70
4
71
3
72
34
73
30
40
0
40
0
40
0
40
0
40
0.0514465755209274
40
0.0514465755209274
40
0.135786144735415
40
0.135786144735415
40
0.203131635218893
40
0.203131635218893
40
0.270315608875109
40
0.270315608875109
40
0.33743127853597
40
0.33743127853597
40
0.404515897625586
40
0.404515897625586
40
0.499929883690969
40
0.499929883690969
40
0.599210771748159
40
0.599210771748159
40
0.697083019894235
40
0.697083019894235
40
0.780957226922738
40
0.780957226922738
40
0.847546414393236
40
0.847546414393236
40
0.898875235580331
40
0.898875235580331
40
0.980803570703522
40
0.980803570703522
40
1
40
1
40
1
40
1
41
1
10
16.3807026397527
20
-7.22908006872353
30
0
41
1
10
16.3691956861591
20
-7.21974502821573
30
0
41
1
10
16.355792189274
20
-7.2123643249688
30
0
41
1
10
16.3187724929042
20
-7.19773225199978
30
0
41
1
10
16.2934674175539
20
-7.19311261328906
30
0
41
1
10
16.2478132042177
20
-7.19010906759053
30
0
41
1
10
16.2271206456915
20
-7.19065249006093
30
0
41
1
10
16.1860060819305
20
-7.19452086459526
30
0
41
1
10
16.1654480167474
20
-7.19785793373481
30
0
41
1
10
16.124829323481
20
-7.20673589436007
30
0
41
1
10
16.104679366912
20
-7.21229718503687
30
0
41
1
10
16.0650565880491
20
-7.22527097046185
30
0
41
1
10
16.045515219077
20
-7.23270658047056
30
0
41
1
10
15.9992429021362
20
-7.25266199214019
30
0
41
1
10
15.9728025171533
20
-7.26606562682119
30
0
41
1
10
15.9211851544071
20
-7.29626419023921
30
0
41
1
10
15.8959361735861
20
-7.31327077109376
30
0
41
1
10
15.8489563264992
20
-7.34973713067177
30
0
41
1
10
15.8270197553326
20
-7.36927767211728
30
0
41
1
10
15.7900342967601
20
-7.40789160465857
30
0
41
1
10
15.7743342486651
20
-7.42674852273976
30
0
41
1
10
15.7497557533906
20
-7.46221744338456
30
0
41
1
10
15.7400718618244
20
-7.47858944942959
30
0
41
1
10
15.7259975116994
20
-7.50856087887712
30
0
41
1
10
15.7208697730946
20
-7.52201466716514
30
0
41
1
10
15.7112804591617
20
-7.55736527655907
30
0
41
1
10
15.7088117813213
20
-7.58029040851693
30
0
41
1
10
15.7131355300094
20
-7.60764627479918
30
0
41
1
10
15.7143114900569
20
-7.61289192450258
30
0
41
1
10
15.7158564952444
20
-7.61804605594065
30
0
0
SPLINE
5
216
100
AcDbEntity
8
1
62
256
6
ByLayer
370
-1
48
1
60
0
100
AcDbSpline
70
4
71
3
72
8
73
4
40
0
40
0
40
0
40
0
40
1
40
1
40
1
40
1
41
1
10
16.3977197976854
20
-7.24288524216703
30
0
41
1
10
16.3920474278063
20
-7.23828354127653
30
0
41
1
10
16.3863750420468
20
-7.23368181711513
30
0
41
1
10
16.3807026397527
20
-7.2290800687235
30
0
0
SPLINE
5
217
100
AcDbEntity
8
1
62
256
6
ByLayer
370
-1
48
1
60
0
100
AcDbSpline
70
4
71
3
72
22
73
18
40
0
40
0
40
0
40
0
40
0.0973712659847793
40
0.0973712659847793
40
0.180296832630852
40
0.180296832630852
40
0.307445080803217
40
0.307445080803217
40
0.411978418515127
40
0.411978418515127
40
0.516185210011376
40
0.516185210011376
40
0.620250145292261
40
0.620250145292261
40
0.829289859626537
40
0.829289859626537
40
1
40
1
40
1
40
1
41
1
10
16.787401771948
20
-6.56151632672308
30
0
41
1
10
16.8013778189928
20
-6.56718828924033
30
0
41
1
10
16.8144070294932
20
-6.57598715809002
30
0
41
1
10
16.8341397552676
20
-6.59632529700411
30
0
41
1
10
16.8417567896244
20
-6.60745944333578
30
0
41
1
10
16.8568304016712
20
-6.63747003893599
30
0
41
1
10
16.8624236947992
20
-6.65775763892998
30
0
41
1
10
16.8679358758146
20
-6.69506208189048
30
0
41
1
10
16.8687417442696
20
-6.71232652904109
30
0
41
1
10
16.8678984507327
20
-6.74667588871324
30
0
41
1
10
16.8662511781146
20
-6.76387126142538
30
0
41
1
10
16.8611056154452
20
-6.79792797106893
30
0
41
1
10
16.8575980551662
20
-6.81484953901574
30
0
41
1
10
16.8448216333472
20
-6.86508156122892
30
0
41
1
10
16.8332850743728
20
-6.89797154179775
30
0
41
1
10
16.8083345500215
20
-6.95580390528906
30
0
41
1
10
16.7955855762074
20
-6.98121705940866
30
0
41
1
10
16.7815080437138
20
-7.00583198563263
30
0
0
SPLINE
5
218
100
AcDbEntity
8
1
62
256
6
ByLayer
370
-1
48
1
60
0
100
AcDbSpline
70
4
71
3
72
24
73
20
40
0
40
0
40
0
40
0
40
0.0380198325525608
40
0.0380198325525608
40
0.24683465467556
40
0.24683465467556
40
0.404726505663872
40
0.404726505663872
40
0.526150637963319
40
0.526150637963319
40
0.621531995504059
40
0.621531995504059
40
0.776890538332387
40
0.776890538332387
40
0.873684213898173
40
0.873684213898173
40
0.971746172255087
40
0.971746172255087
40
1
40
1
40
1
40
1
41
1
10
16.7815080437138
20
-7.00583198563263
30
0
41
1
10
16.7783692359267
20
-7.01132027146292
30
0
41
1
10
16.7751625592126
20
-7.01677113269736
30
0
41
1
10
16.7539414456014
20
-7.05185053488844
30
0
41
1
10
16.7339538688399
20
-7.08042244180513
30
0
41
1
10
16.69538449386
20
-7.12766381234908
30
0
41
1
10
16.6775738732418
20
-7.14713430314418
30
0
41
1
10
16.6438763670359
20
-7.17920505136814
30
0
41
1
10
16.628438898196
20
-7.19240452027211
30
0
41
1
10
16.5994415316009
20
-7.21395362421703
30
0
41
1
10
16.5861396378143
20
-7.22277066204268
30
0
41
1
10
16.5500010483779
20
-7.24325151153508
30
0
41
1
10
16.5258609319754
20
-7.25359254248201
30
0
41
1
10
16.4854914242122
20
-7.26236021254547
30
0
41
1
10
16.4693843712078
20
-7.26378922324653
30
0
41
1
10
16.4381891733122
20
-7.26111380489704
30
0
41
1
10
16.4226947378654
20
-7.25680651024624
30
0
41
1
10
16.4052105757678
20
-7.24769484989096
30
0
41
1
10
16.4013807775268
20
-7.24539251782946
30
0
41
1
10
16.3977197976854
20
-7.24288524216706
30
0
0
SPLINE
5
219
100
AcDbEntity
8
1
62
256
6
ByLayer
370
-1
48
1
60
0
100
AcDbSpline
70
4
71
3
72
30
73
26
40
0
40
0
40
0
40
0
40
0.051519488930965
40
0.051519488930965
40
0.0928771460762922
40
0.0928771460762922
40
0.148185150442137
40
0.148185150442137
40
0.203338923043183
40
0.203338923043183
40
0.287955708682546
40
0.287955708682546
40
0.372427214532444
40
0.372427214532444
40
0.43536714773503
40
0.43536714773503
40
0.498971020782752
40
0.498971020782752
40
0.701334348038754
40
0.701334348038754
40
0.838887327921075
40
0.838887327921075
40
0.925006664596799
40
0.925006664596799
40
1
40
1
40
1
40
1
41
1
10
14.9584482439285
20
-4.7137953332782
30
0
41
1
10
14.9597816889688
20
-4.72716878906732
30
0
41
1
10
14.9585019042678
20
-4.74122910810382
30
0
41
1
10
14.9528736234205
20
-4.7661914971531
30
0
41
1
10
14.9491552104474
20
-4.77733557054043
30
0
41
1
10
14.9384835619227
20
-4.80286152261618
30
0
41
1
10
14.9308167738376
20
-4.81720695522762
30
0
41
1
10
14.9134978012716
20
-4.84495970479597
30
0
41
1
10
14.9037899337379
20
-4.85846301153225
30
0
41
1
10
14.8774063476942
20
-4.89153823932566
30
0
41
1
10
14.8596599446507
20
-4.91066817044617
30
0
41
1
10
14.8220862873646
20
-4.94687798054554
30
0
41
1
10
14.8021307781486
20
-4.96407800822487
30
0
41
1
10
14.7660396640423
20
-4.99234377739992
30
0
41
1
10
14.7501661999905
20
-5.00389837704896
30
0
41
1
10
14.717643650664
20
-5.02596443108902
30
0
41
1
10
14.7009447770992
20
-5.0364927348439
30
0
41
1
10
14.6308551077199
20
-5.07749845875313
30
0
41
1
10
14.5745782938691
20
-5.10301388848026
30
0
41
1
10
14.4813462838178
20
-5.1307309575358
30
0
41
1
10
14.4430677411525
20
-5.13804512957771
30
0
41
1
10
14.383779335297
20
-5.13906590562976
30
0
41
1
10
14.3612305898993
20
-5.13679405732398
30
0
41
1
10
14.3229983266089
20
-5.12484915018473
30
0
41
1
10
14.3062930330123
20
-5.11588185911651
30
0
41
1
10
14.2936020994202
20
-5.10276132049543
30
0
0
SPLINE
5
21A
100
AcDbEntity
8
1
62
256
6
ByLayer
370
-1
48
1
60
0
100
AcDbSpline
70
4
71
3
72
8
73
4
40
0
40
0
40
0
40
0
40
1
40
1
40
1
40
1
41
1
10
14.9564763179398
20
-4.69401794015158
30
0
41
1
10
14.9571336080463
20
-4.70061036682986
30
0
41
1
10
14.9577909164574
20
-4.7072028306944
30
0
41
1
10
14.9584482439285
20
-4.7137953332782
30
0
0
SPLINE
5
21B
100
AcDbEntity
8
1
62
256
6
ByLayer
370
-1
48
1
60
0
100
AcDbSpline
70
4
71
3
72
30
73
26
40
0
40
0
40
0
40
0
40
0.051177228752927
40
0.051177228752927
40
0.135075241067901
40
0.135075241067901
40
0.271834780652735
40
0.271834780652735
40
0.469061266911319
40
0.469061266911319
40
0.500636061959637
40
0.500636061959637
40
0.599800502489061
40
0.599800502489061
40
0.697557955314389
40
0.697557955314389
40
0.781333785463002
40
0.781333785463002
40
0.847844869822001
40
0.847844869822001
40
0.899113486931089
40
0.899113486931089
40
0.939077913069123
40
0.939077913069123
40
1
40
1
40
1
40
1
41
1
10
16.3875767289
20
-5.10276132049572
30
0
41
1
10
16.376010375654
20
-5.11180000077169
30
0
41
1
10
16.3625601139223
20
-5.11888477325979
30
0
41
1
10
16.3254481836002
20
-5.13278284848781
30
0
41
1
10
16.300114608003
20
-5.13697901181158
30
0
41
1
10
16.2336741431434
20
-5.14036621674643
30
0
41
1
10
16.191151346138
20
-5.13504384094631
30
0
41
1
10
16.0911795541316
20
-5.11190360831492
30
0
41
1
10
16.0332229722701
20
-5.08906955961808
30
0
41
1
10
15.971591905784
20
-5.05607045641031
30
0
41
1
10
15.9630988554583
20
-5.05130535549085
30
0
41
1
10
15.9285084620186
20
-5.03099152076084
30
0
41
1
10
15.9033692402904
20
-5.01404701201326
30
0
41
1
10
15.8566243841257
20
-4.9778251081012
30
0
41
1
10
15.8348135702297
20
-4.95846594419166
30
0
41
1
10
15.7980763436575
20
-4.92029583380452
30
0
41
1
10
15.7824974159837
20
-4.90168733399022
30
0
41
1
10
15.7581465702856
20
-4.86673884338592
30
0
41
1
10
15.748567701306
20
-4.85062487345914
30
0
41
1
10
15.7346855108398
20
-4.82115676461828
30
0
41
1
10
15.7296439977042
20
-4.80793897097314
30
0
41
1
10
15.7231803747469
20
-4.78398142885666
30
0
41
1
10
15.7211930476699
20
-4.77327541165116
30
0
41
1
10
15.7190199558851
20
-4.74627855963098
30
0
41
1
10
15.7203123847687
20
-4.72955916454916
30
0
41
1
10
15.7252455289397
20
-4.71379533327823
30
0
0
SPLINE
5
21C
100
AcDbEntity
8
1
62
256
6
ByLayer
370
-1
48
1
60
0
100
AcDbSpline
70
4
71
3
72
8
73
4
40
0
40
0
40
0
40
0
40
1
40
1
40
1
40
1
41
1
10
15.7252455289397
20
-4.71379533327823
30
0
41
1
10
15.7273085912203
20
-4.7072028306944
30
0
41
1
10
15.7293716572632
20
-4.70061036682989
30
0
41
1
10
15.7314347269186
20
-4.69401794015158
30
0
0
SPLINE
5
21D
100
AcDbEntity
8
1
62
256
6
ByLayer
370
-1
48
1
60
0
100
AcDbSpline
70
4
71
3
72
24
73
20
40
0
40
0
40
0
40
0
40
0.0974021566270048
40
0.0974021566270048
40
0.180354031075355
40
0.180354031075355
40
0.307542616517262
40
0.307542616517262
40
0.412109117009638
40
0.412109117009638
40
0.516348967690918
40
0.516348967690918
40
0.62044691715351
40
0.62044691715351
40
0.724476829460095
40
0.724476829460095
40
0.933310901386323
40
0.933310901386323
40
1
40
1
40
1
40
1
41
1
10
15.7314347269186
20
-4.69401794015158
30
0
41
1
10
15.7344563324564
20
-4.68031675846282
30
0
41
1
10
15.7343387836858
20
-4.66586532623285
30
0
41
1
10
15.728308446113
20
-4.64064098338142
30
0
41
1
10
15.7232408085819
20
-4.62934203921435
30
0
41
1
10
15.7065665576121
20
-4.60320591769906
30
0
41
1
10
15.6927556974379
20
-4.58917689279895
30
0
41
1
10
15.664747569262
20
-4.56720001289349
30
0
41
1
10
15.6508297022551
20
-4.55842524570605
30
0
41
1
10
15.6218099972217
20
-4.54294407017633
30
0
41
1
10
15.6066172000833
20
-4.53618391766
30
0
41
1
10
15.5755122616336
20
-4.52433096315787
30
0
41
1
10
15.5595449294226
20
-4.51921718058043
30
0
41
1
10
15.5271542037437
20
-4.51040732622917
30
0
41
1
10
15.5106940030834
20
-4.50670172583418
30
0
41
1
10
15.4608107118729
20
-4.49746489415026
30
0
41
1
10
15.4268077486077
20
-4.49379136170265
30
0
41
1
10
15.3817713093195
20
-4.49189645612836
30
0
41
1
10
15.3708343045043
20
-4.49166765714236
30
0
41
1
10
15.359887176052
20
-4.49166765714236
30
0
0
SPLINE
5
21E
100
AcDbEntity
8
1
62
256
6
ByLayer
370
-1
48
1
60
0
100
AcDbSpline
70
4
71
3
72
22
73
18
40
0
40
0
40
0
40
0
40
0.142057608739412
40
0.142057608739412
40
0.351004812993002
40
0.351004812993002
40
0.487763342942092
40
0.487763342942092
40
0.591529353509566
40
0.591529353509566
40
0.758694969227188
40
0.758694969227188
40
0.858776631808955
40
0.858776631808955
40
0.960359919517395
40
0.960359919517395
40
1
40
1
40
1
40
1
41
1
10
15.359887176052
20
-4.49166765714236
30
0
41
1
10
15.336594179202
20
-4.49166765714236
30
0
41
1
10
15.3132177535997
20
-4.49270033182927
30
0
41
1
10
15.2556447697912
20
-4.49787801264992
30
0
41
1
10
15.2213511979422
20
-4.50325527217598
30
0
41
1
10
15.1656046475821
20
-4.5165906574193
30
0
41
1
10
15.1437098101846
20
-4.52304659606907
30
0
41
1
10
15.1061145642267
20
-4.53686184718796
30
0
41
1
10
15.0901329078742
20
-4.54365233504646
30
0
41
1
10
15.0499847358607
20
-4.56381679757132
30
0
41
1
10
15.0261181553652
20
-4.57895083678181
30
0
41
1
10
14.9939102391247
20
-4.60828015191592
30
0
41
1
10
14.9830061025852
20
-4.62068468784844
30
0
41
1
10
14.9662047565702
20
-4.6474425722443
30
0
41
1
10
14.9602359053768
20
-4.66224915605255
30
0
41
1
10
14.9568483583243
20
-4.68255181405061
30
0
41
1
10
14.9564076842505
20
-4.68833480532959
30
0
41
1
10
14.9564763179398
20
-4.69401794015158
30
0
0
SPLINE
5
21F
100
AcDbEntity
8
1
62
256
6
ByLayer
370
-1
48
1
60
0
100
AcDbSpline
70
4
71
3
72
8
73
4
40
0
40
0
40
0
40
0
40
1
40
1
40
1
40
1
41
1
10
16.3875767289
20
-5.10276132049566
30
0
41
1
10
16.3932784125084
20
-5.0983056641557
30
0
41
1
10
16.3989800794176
20
-5.09385003451877
30
0
41
1
10
16.4046817302881
20
-5.08939443052751
30
0
0
SPLINE
5
220
100
AcDbEntity
8
1
62
256
6
ByLayer
370
-1
48
1
60
0
100
AcDbSpline
70
4
71
3
72
34
73
30
40
0
40
0
40
0
40
0
40
0.0514465755209372
40
0.0514465755209372
40
0.135786144735426
40
0.135786144735426
40
0.203131635218893
40
0.203131635218893
40
0.270315608875126
40
0.270315608875126
40
0.337431278535963
40
0.337431278535963
40
0.404515897625554
40
0.404515897625554
40
0.499929883690722
40
0.499929883690722
40
0.599210771748154
40
0.599210771748154
40
0.697083019894213
40
0.697083019894213
40
0.780957226922716
40
0.780957226922716
40
0.847546414393213
40
0.847546414393213
40
0.898875235580314
40
0.898875235580314
40
0.980803570703487
40
0.980803570703487
40
1
40
1
40
1
40
1
41
1
10
16.7687957991059
20
-5.77695470739232
30
0
41
1
10
16.754485860233
20
-5.78114130278951
30
0
41
1
10
16.7408901710358
20
-5.78796888395851
30
0
41
1
10
16.7084048091997
20
-5.81004913610545
30
0
41
1
10
16.6909384397394
20
-5.8281586074595
30
0
41
1
10
16.6641420171367
20
-5.86386784276712
30
0
41
1
10
16.6536814357086
20
-5.88113776305678
30
0
41
1
10
16.6353774533214
20
-5.91707195428603
30
0
41
1
10
16.6274727965135
20
-5.93585457427162
30
0
41
1
10
16.6138991669745
20
-5.9743210658541
30
0
41
1
10
16.6082010742467
20
-5.99408993288267
30
0
41
1
10
16.5988302455284
20
-6.03419585911348
30
0
41
1
10
16.5951418745713
20
-6.05460264387546
30
0
41
1
10
16.5885298104292
20
-6.1043639784229
30
0
41
1
10
16.5865596276183
20
-6.13402544668628
30
0
41
1
10
16.5863643722105
20
-6.19442257352233
30
0
41
1
10
16.5882926036815
20
-6.22534738552318
30
0
41
1
10
16.5962383988403
20
-6.28584696888498
30
0
41
1
10
16.602219514595
20
-6.31563837650589
30
0
41
1
10
16.6174000571084
20
-6.36928585688361
30
0
41
1
10
16.626060857163
20
-6.39354578997964
30
0
41
1
10
16.6449423174317
20
-6.43505447862239
30
0
41
1
10
16.6545268003238
20
-6.45283127154664
30
0
41
1
10
16.6739683184845
20
-6.48229679362569
30
0
41
1
10
16.6833128107943
20
-6.49452093217423
30
0
41
1
10
16.7098701506762
20
-6.52334293025498
30
0
41
1
10
16.729027577232
20
-6.53884997327418
30
0
41
1
10
16.75561885475
20
-6.55113692427517
30
0
41
1
10
16.760895935799
20
-6.55319640724616
30
0
41
1
10
16.766280854558
20
-6.5548866818269
30
0
0
SPLINE
5
221
100
AcDbEntity
8
1
62
256
6
ByLayer
370
-1
48
1
60
0
100
AcDbSpline
70
4
71
3
72
8
73
4
40
0
40
0
40
0
40
0
40
1
40
1
40
1
40
1
41
1
10
16.7899581650043
20
-5.77076334597146
30
0
41
1
10
16.7829040667017
20
-5.77282712020889
30
0
41
1
10
16.775849945056
20
-5.77489090717424
30
0
41
1
10
16.7687957991059
20
-5.77695470739226
30
0
0
SPLINE
5
222
100
AcDbEntity
8
1
62
256
6
ByLayer
370
-1
48
1
60
0
100
AcDbSpline
70
4
71
3
72
22
73
18
40
0
40
0
40
0
40
0
40
0.0973712659847272
40
0.0973712659847272
40
0.180296832630802
40
0.180296832630802
40
0.307445080803182
40
0.307445080803182
40
0.411978418515098
40
0.411978418515098
40
0.516185210011341
40
0.516185210011341
40
0.620250145292233
40
0.620250145292233
40
0.829289859626475
40
0.829289859626475
40
1
40
1
40
1
40
1
41
1
10
16.4046817302881
20
-5.08939443052751
30
0
41
1
10
16.4171090152697
20
-5.08121690436116
30
0
41
1
10
16.431723466224
20
-5.07541710565982
30
0
41
1
10
16.459912143559
20
-5.07028849877258
30
0
41
1
10
16.4736287877628
20
-5.07002096410218
30
0
41
1
10
16.5076691662627
20
-5.07366792681907
30
0
41
1
10
16.5282127102031
20
-5.07981414764569
30
0
41
1
10
16.5634409212665
20
-5.09497395271256
30
0
41
1
10
16.5788130177235
20
-5.10340024679923
30
0
41
1
10
16.608099195612
20
-5.12216025651443
30
0
41
1
10
16.6221098021675
20
-5.13255033148133
30
0
41
1
10
16.6488653526744
20
-5.15467699655514
30
0
41
1
10
16.6616574643317
20
-5.16645271801454
30
0
41
1
10
16.6983899522608
20
-5.20336740225753
30
0
41
1
10
16.7207767409334
20
-5.23016553156941
30
0
41
1
10
16.7577095783805
20
-5.28119169861301
30
0
41
1
10
16.773008290604
20
-5.30510750708174
30
0
41
1
10
16.7869266699157
20
-5.3297224333057
30
0
0
SPLINE
5
223
100
AcDbEntity
8
1
62
256
6
ByLayer
370
-1
48
1
60
0
100
AcDbSpline
70
4
71
3
72
24
73
20
40
0
40
0
40
0
40
0
40
0.0380198325524548
40
0.0380198325524548
40
0.246834654675429
40
0.246834654675429
40
0.404726505663761
40
0.404726505663761
40
0.526150637963223
40
0.526150637963223
40
0.621531995503978
40
0.621531995503978
40
0.776890538332309
40
0.776890538332309
40
0.873684213898139
40
0.873684213898139
40
0.971746172255095
40
0.971746172255095
40
1
40
1
40
1
40
1
41
1
10
16.7869266699157
20
-5.3297224333057
30
0
41
1
10
16.790029991992
20
-5.33521071913597
30
0
41
1
10
16.7930656802311
20
-5.34073643217772
30
0
41
1
10
16.8122978626474
20
-5.37678741964234
30
0
41
1
10
16.8265557164805
20
-5.40841843671853
30
0
41
1
10
16.8472472286536
20
-5.46532808281961
30
0
41
1
10
16.8547757694604
20
-5.49038165710667
30
0
41
1
10
16.8648886267427
20
-5.5352643286185
30
0
41
1
10
16.8682279711052
20
-5.55503735625464
30
0
41
1
10
16.8716806391161
20
-5.59044529980207
30
0
41
1
10
16.8723361220099
20
-5.60611729395853
30
0
41
1
10
16.8710897177854
20
-5.6468200285185
30
0
41
1
10
16.8673472380548
20
-5.67220847808915
30
0
41
1
10
16.8536233071534
20
-5.70998353301889
30
0
41
1
10
16.846335294352
20
-5.72391812155226
30
0
41
1
10
16.8274406236064
20
-5.747885532644
30
0
41
1
10
16.8154398847425
20
-5.75813623998974
30
0
41
1
10
16.7981587625531
20
-5.76733011994031
30
0
41
1
10
16.7941038774676
20
-5.76917292142198
30
0
41
1
10
16.7899581650043
20
-5.77076334597149
30
0
0
SPLINE
5
224
100
AcDbEntity
8
1
62
256
6
ByLayer
370
-1
48
1
60
0
100
AcDbSpline
70
4
71
3
72
8
73
4
40
0
40
0
40
0
40
0
40
1
40
1
40
1
40
1
41
1
10
13.9080238846149
20
-5.77695470739201
30
0
41
1
10
13.90234619216
20
-5.77489090717398
30
0
41
1
10
13.8966685469966
20
-5.77282712020863
30
0
41
1
10
13.8909909472514
20
-5.7707633459712
30
0
0
SPLINE
5
225
100
AcDbEntity
8
1
62
256
6
ByLayer
370
-1
48
1
60
0
100
AcDbSpline
70
4
71
3
72
8
73
4
40
0
40
0
40
0
40
0
40
1
40
1
40
1
40
1
41
1
10
14.280672921514
20
-5.08939443052725
30
0
41
1
10
14.2849826089294
20
-5.09385003451851
30
0
41
1
10
14.2892923343753
20
-5.09830566415545
30
0
41
1
10
14.2936020994202
20
-5.1027613204954
30
0
0
SPLINE
5
226
100
AcDbEntity
8
1
62
256
6
ByLayer
370
-1
48
1
60
0
100
AcDbSpline
70
4
71
3
72
22
73
18
40
0
40
0
40
0
40
0
40
0.0973712659847176
40
0.0973712659847176
40
0.180296832630823
40
0.180296832630823
40
0.307445080803172
40
0.307445080803172
40
0.411978418515059
40
0.411978418515059
40
0.516185210011293
40
0.516185210011293
40
0.620250145292158
40
0.620250145292158
40
0.82928985962638
40
0.82928985962638
40
1
40
1
40
1
40
1
41
1
10
13.8909909472514
20
-5.7707633459712
30
0
41
1
10
13.8797814933676
20
-5.76538799744367
30
0
41
1
10
13.8694988844865
20
-5.75688359923603
30
0
41
1
10
13.8542880650728
20
-5.73703026622175
30
0
41
1
10
13.8485875352301
20
-5.72610159356012
30
0
41
1
10
13.8377580344965
20
-5.69654602069585
30
0
41
1
10
13.834260654293
20
-5.67648312923629
30
0
41
1
10
13.8318779150356
20
-5.63951420225212
30
0
41
1
10
13.8322544785526
20
-5.62237652685445
30
0
41
1
10
13.8351157121789
20
-5.5882435160367
30
0
41
1
10
13.8376051465899
20
-5.57113843378465
30
0
41
1
10
13.8441887860947
20
-5.53723590427632
30
0
41
1
10
13.8482944826351
20
-5.52037846414757
30
0
41
1
10
13.8625883643095
20
-5.47030913293949
30
0
41
1
10
13.8747749938044
20
-5.43748884820209
30
0
41
1
10
13.9004479118377
20
-5.3797339345054
30
0
41
1
10
13.913351523492
20
-5.35433735952989
30
0
41
1
10
13.9274290559856
20
-5.32972243330593
30
0
0
SPLINE
5
227
100
AcDbEntity
8
1
62
256
6
ByLayer
370
-1
48
1
60
0
100
AcDbSpline
70
4
71
3
72
24
73
20
40
0
40
0
40
0
40
0
40
0.0380198325523632
40
0.0380198325523632
40
0.246834654675371
40
0.246834654675371
40
0.404726505663704
40
0.404726505663704
40
0.526150637963176
40
0.526150637963176
40
0.621531995503932
40
0.621531995503932
40
0.776890538332271
40
0.776890538332271
40
0.873684213898125
40
0.873684213898125
40
0.971746172255114
40
0.971746172255114
40
1
40
1
40
1
40
1
41
1
10
13.9274290559856
20
-5.32972243330593
30
0
41
1
10
13.9305678637726
20
-5.32423414747564
30
0
41
1
10
13.9337667400615
20
-5.31878244993641
30
0
41
1
10
13.9548864683482
20
-5.28369217794852
30
0
41
1
10
13.9745580010993
20
-5.25508638709246
30
0
41
1
10
14.0120809752595
20
-5.20773282906598
30
0
41
1
10
14.0292785912703
20
-5.18819661637693
30
0
41
1
10
14.0614982997169
20
-5.1559674294293
30
0
41
1
10
14.0761592144701
20
-5.14268470404616
30
0
41
1
10
14.1034402442776
20
-5.12095158695848
30
0
41
1
10
14.1158699783424
20
-5.11204104251306
30
0
41
1
10
14.1493214994603
20
-5.09127210510593
30
0
41
1
10
14.1713666416401
20
-5.08070646626533
30
0
41
1
10
14.2072822660943
20
-5.07146128323876
30
0
41
1
10
14.2213795422767
20
-5.06981679888943
30
0
41
1
10
14.2480088249075
20
-5.07200269302467
30
0
41
1
10
14.2608646414763
20
-5.07602709415724
30
0
41
1
10
14.274814859327
20
-5.08475987072239
30
0
41
1
10
14.2778305039777
20
-5.08697491515954
30
0
41
1
10
14.280672921514
20
-5.08939443052722
30
0
0
SPLINE
5
228
100
AcDbEntity
8
1
62
256
6
ByLayer
370
-1
48
1
60
0
100
AcDbSpline
70
4
71
3
72
8
73
4
40
0
40
0
40
0
40
0
40
1
40
1
40
1
40
1
41
1
10
14.2867280102729
20
-7.22908006872325
30
0
41
1
10
14.2823889639137
20
-7.23368181711487
30
0
41
1
10
14.2780499573182
20
-7.23828354127627
30
0
41
1
10
14.2737109889113
20
-7.24288524216678
30
0
0
SPLINE
5
229
100
AcDbEntity
8
1
62
256
6
ByLayer
370
-1
48
1
60
0
100
AcDbSpline
70
4
71
3
72
34
73
30
40
0
40
0
40
0
40
0
40
0.0514465755209216
40
0.0514465755209216
40
0.13578614473538
40
0.13578614473538
40
0.20313163521883
40
0.20313163521883
40
0.27031560887506
40
0.27031560887506
40
0.337431278535895
40
0.337431278535895
40
0.404515897625486
40
0.404515897625486
40
0.499929883690967
40
0.499929883690967
40
0.599210771748149
40
0.599210771748149
40
0.69708301989422
40
0.69708301989422
40
0.780957226922726
40
0.780957226922726
40
0.847546414393219
40
0.847546414393219
40
0.898875235580324
40
0.898875235580324
40
0.980803570703517
40
0.980803570703517
40
1
40
1
40
1
40
1
41
1
10
13.905508940067
20
-6.55488668182662
30
0
41
1
10
13.9170546526425
20
-6.55040372619757
30
0
41
1
10
13.927890121346
20
-6.54328021426988
30
0
41
1
10
13.9535293019473
20
-6.520465964382
30
0
41
1
10
13.9670458101397
20
-6.50193301764097
30
0
41
1
10
13.987544780613
20
-6.46554861533465
30
0
41
1
10
13.9954466483023
20
-6.44800436837445
30
0
41
1
10
14.0091676791907
20
-6.41157882642986
30
0
41
1
10
14.0150324448552
20
-6.3925775041576
30
0
41
1
10
14.0250470428598
20
-6.35372943910858
30
0
41
1
10
14.0292180934742
20
-6.33379685373498
30
0
41
1
10
14.0360561096888
20
-6.29341937777559
30
0
41
1
10
14.0387343489556
20
-6.27290429404326
30
0
41
1
10
14.0435379207329
20
-6.22294906610244
30
0
41
1
10
14.0449733393549
20
-6.19323026431343
30
0
41
1
10
14.0451685947626
20
-6.13283313747738
30
0
41
1
10
14.043819325421
20
-6.10197039758373
30
0
41
1
10
14.0381536296399
20
-6.04171526988787
30
0
41
1
10
14.0338642676923
20
-6.01210523980143
30
0
41
1
10
14.0228233658524
20
-5.95890158157778
30
0
41
1
10
14.0164796253656
20
-5.93489006675028
30
0
41
1
10
14.0024523467638
20
-5.89390180814809
30
0
41
1
10
13.9952746315385
20
-5.87638305134206
30
0
41
1
10
13.9805277110587
20
-5.84742084986971
30
0
41
1
10
13.9733844000404
20
-5.83543270596402
30
0
41
1
10
13.9528624312
20
-5.80725777645455
30
0
41
1
10
13.93786105677
20
-5.79219631510594
30
0
41
1
10
13.9166030551681
20
-5.78048115914515
30
0
41
1
10
13.912366566548
20
-5.77853324092331
30
0
41
1
10
13.908023884615
20
-5.77695470739201
30
0
0
SPLINE
5
22A
100
AcDbEntity
8
1
62
256
6
ByLayer
370
-1
48
1
60
0
100
AcDbSpline
70
4
71
3
72
8
73
4
40
0
40
0
40
0
40
0
40
1
40
1
40
1
40
1
41
1
10
13.8884345541951
20
-6.5615163267228
30
0
41
1
10
13.8941259700341
20
-6.55930645558615
30
0
41
1
10
13.899817431366
20
-6.55709657409634
30
0
41
1
10
13.905508940067
20
-6.55488668182664
30
0
0
SPLINE
5
22B
100
AcDbEntity
8
1
62
256
6
ByLayer
370
-1
48
1
60
0
100
AcDbSpline
70
4
71
3
72
22
73
18
40
0
40
0
40
0
40
0
40
0.0973712659847615
40
0.0973712659847615
40
0.180296832630841
40
0.180296832630841
40
0.307445080803192
40
0.307445080803192
40
0.4119784185151
40
0.4119784185151
40
0.516185210011332
40
0.516185210011332
40
0.620250145292222
40
0.620250145292222
40
0.829289859626507
40
0.829289859626507
40
1
40
1
40
1
40
1
41
1
10
14.2737109889113
20
-7.24288524216678
30
0
41
1
10
14.2640502970907
20
-7.25135938232285
30
0
41
1
10
14.2521824477556
20
-7.25745365166622
30
0
41
1
10
14.2285156767814
20
-7.26306706445328
30
0
41
1
10
14.2167155370917
20
-7.26354007279369
30
0
41
1
10
14.186919269905
20
-7.26034813281277
30
0
41
1
10
14.1684716388891
20
-7.2544266205206
30
0
41
1
10
14.1363728695837
20
-7.23960233143004
30
0
41
1
10
14.1221832050987
20
-7.23130280909632
30
0
41
1
10
14.0949149672996
20
-7.21275914823551
30
0
41
1
10
14.081746522537
20
-7.20245936372871
30
0
41
1
10
14.0564290488654
20
-7.18048687879011
30
0
41
1
10
14.0442350734696
20
-7.16877528514877
30
0
41
1
10
14.009020045396
20
-7.13202329191085
30
0
41
1
10
13.9872833272438
20
-7.10529485843043
30
0
41
1
10
13.9510728834787
20
-7.05434614118144
30
0
41
1
10
13.9359288090953
20
-7.03044691185684
30
0
41
1
10
13.9220104297836
20
-7.00583198563291
30
0
0
SPLINE
5
22C
100
AcDbEntity
8
1
62
256
6
ByLayer
370
-1
48
1
60
0
100
AcDbSpline
70
4
71
3
72
24
73
20
40
0
40
0
40
0
40
0
40
0.0380198325525264
40
0.0380198325525264
40
0.24683465467553
40
0.24683465467553
40
0.404726505663825
40
0.404726505663825
40
0.526150637963271
40
0.526150637963271
40
0.621531995504021
40
0.621531995504021
40
0.776890538332324
40
0.776890538332324
40
0.873684213898136
40
0.873684213898136
40
0.971746172255089
40
0.971746172255089
40
1
40
1
40
1
40
1
41
1
10
13.9220104297836
20
-7.00583198563291
30
0
41
1
10
13.9189071077073
20
-7.00034369980261
30
0
41
1
10
13.915863619043
20
-6.99481715045599
30
0
41
1
10
13.8965300513022
20
-6.95875529319454
30
0
41
1
10
13.8819561534587
20
-6.92709039217903
30
0
41
1
10
13.8602182404658
20
-6.87006855859539
30
0
41
1
10
13.8520766950519
20
-6.84494926241436
30
0
41
1
10
13.8404860400102
20
-6.79990815217889
30
0
41
1
10
13.836370141561
20
-6.78005186806357
30
0
41
1
10
13.8312011367625
20
-6.74445991137338
30
0
41
1
10
13.8296734941468
20
-6.72869441059714
30
0
41
1
10
13.8282328300529
20
-6.68770358812247
30
0
41
1
10
13.8298803355607
20
-6.66209053065816
30
0
41
1
10
13.8391503831532
20
-6.62383796276532
30
0
41
1
10
13.8444286191325
20
-6.60968790058371
30
0
41
1
10
13.8587573746135
20
-6.58523096527767
30
0
41
1
10
13.8681194945993
20
-6.57469736441377
30
0
41
1
10
13.8818666725417
20
-6.56512460067307
30
0
41
1
10
13.8851074040369
20
-6.56319451156699
30
0
41
1
10
13.8884345541951
20
-6.5615163267228
30
0
0
SPLINE
5
22D
100
AcDbEntity
8
1
62
256
6
ByLayer
370
-1
48
1
60
0
100
AcDbSpline
70
4
71
1
72
5
73
3
40
0
40
0
40
0.884800837966262
40
1
40
1
41
1.06363569285907
10
12.3237934544854
20
0.554000276032289
30
0
41
1.06363569285907
10
12.8143491704963
20
0.408967368319536
30
0
41
1.06363569285907
10
12.8782184673939
20
0.390084396334305
30
0
0
SPLINE
5
22E
100
AcDbEntity
8
1
62
256
6
ByLayer
370
-1
48
1
60
0
100
AcDbSpline
70
4
71
3
72
14
73
10
40
0
40
0
40
0
40
0
40
0.31439236670207
40
0.31439236670207
40
0.632200716155251
40
0.632200716155251
40
0.912513196202053
40
0.912513196202053
40
1
40
1
40
1
40
1
41
1
10
8.73429725277143
20
-10.1513620722912
30
0
41
1
10
8.72349738272808
20
-10.1514622393573
30
0
41
1
10
8.71246010058596
20
-10.1500367661027
30
0
41
1
10
8.69155923327597
20
-10.1433136579106
30
0
41
1
10
8.68144876619169
20
-10.1378289860088
30
0
41
1
10
8.66511082616827
20
-10.1244703666379
30
0
41
1
10
8.65836174419078
20
-10.1168327045762
30
0
41
1
10
8.65099258775425
20
-10.1059603531467
30
0
41
1
10
8.64932822944306
20
-10.1032820334104
30
0
41
1
10
8.64776315479284
20
-10.1005494526745
30
0
0
SPLINE
5
22F
100
AcDbEntity
8
1
62
256
6
ByLayer
370
-1
48
1
60
0
100
AcDbSpline
70
4
71
3
72
22
73
18
40
0
40
0
40
0
40
0
40
0.153101873520343
40
0.153101873520343
40
0.442621285364903
40
0.442621285364903
40
0.707385074439675
40
0.707385074439675
40
0.843532608240159
40
0.843532608240159
40
0.926352665771228
40
0.926352665771228
40
0.963706736955253
40
0.963706736955253
40
0.977863955360661
40
0.977863955360661
40
1
40
1
40
1
40
1
41
1
10
15.2972434471237
20
-9.88020187609604
30
0
41
1
10
15.2886808945089
20
-9.86101968542934
30
0
41
1
10
15.2799280442386
20
-9.84192518960651
30
0
41
1
10
15.2539381446064
20
-9.78708376822178
30
0
41
1
10
15.2361187741944
20
-9.75158751059126
30
0
41
1
10
15.1991686598748
20
-9.68534133743481
30
0
41
1
10
15.1803674079051
20
-9.65420636954295
30
0
41
1
10
15.1474637595473
20
-9.61051427582987
30
0
41
1
10
15.1354593224181
20
-9.5961333326816
30
0
41
1
10
15.1133989190819
20
-9.57615631577985
30
0
41
1
10
15.1042742877118
20
-9.56916294957148
30
0
41
1
10
15.0894740190079
20
-9.56231661790412
30
0
41
1
10
15.084556402019
20
-9.56065489732066
30
0
41
1
10
15.0775919808997
20
-9.55958982416908
30
0
41
1
10
15.0756391904923
20
-9.55942450544461
30
0
41
1
10
15.070651253402
20
-9.55938893376401
30
0
41
1
10
15.0675813578204
20
-9.55974229302467
30
0
41
1
10
15.0646252425392
20
-9.5604900298606
30
0
0
SPLINE
5
230
100
AcDbEntity
8
1
62
256
6
ByLayer
370
-1
48
1
60
0
100
AcDbSpline
70
4
71
3
72
22
73
18
40
0
40
0
40
0
40
0
40
0.0236324717629901
40
0.0236324717629901
40
0.0629814022064375
40
0.0629814022064375
40
0.0762359204463794
40
0.0762359204463794
40
0.134099172814624
40
0.134099172814624
40
0.288877504287534
40
0.288877504287534
40
0.442933094377618
40
0.442933094377618
40
0.668543354429525
40
0.668543354429525
40
1
40
1
40
1
40
1
41
1
10
14.4638778378158
20
-9.7124465406504
30
0
41
1
10
14.4590568476092
20
-9.71366598969769
30
0
41
1
10
14.4544251344382
20
-9.71600360711528
30
0
41
1
10
14.4437594009034
20
-9.72395498000935
30
0
41
1
10
14.4384117785282
20
-9.73076001395091
30
0
41
1
10
14.4325988285852
20
-9.7403111113922
30
0
41
1
10
14.4312213080259
20
-9.74280728535064
30
0
41
1
10
14.424321280383
20
-9.75635897422097
30
0
41
1
10
14.4202143850813
20
-9.76815408100646
30
0
41
1
10
14.4078115551139
20
-9.8117533856462
30
0
41
1
10
14.4035274745432
20
-9.84474431484097
30
0
41
1
10
14.3975938236935
20
-9.91023343732468
30
0
41
1
10
14.3962494980284
20
-9.94307057072203
30
0
41
1
10
14.3949722935401
20
-10.023909195461
30
0
41
1
10
14.3960303457697
20
-10.0719583477444
30
0
41
1
10
14.401034014617
20
-10.1903797955086
30
0
41
1
10
14.406149457051
20
-10.2607255231268
30
0
41
1
10
14.4124561313284
20
-10.3309120781764
30
0
0
SPLINE
5
231
100
AcDbEntity
8
1
62
256
6
ByLayer
370
-1
48
1
60
0
100
AcDbSpline
70
4
71
3
72
8
73
4
40
0
40
0
40
0
40
0
40
1
40
1
40
1
40
1
41
1
10
11.9165225726914
20
-4.26910555514232
30
0
41
1
10
11.9900954329042
20
-4.27951545917387
30
0
41
1
10
12.0638932886788
20
-4.28859044462624
30
0
41
1
10
12.1379011833138
20
-4.29514800323111
30
0
0
SPLINE
5
232
100
AcDbEntity
8
1
62
256
6
ByLayer
370
-1
48
1
60
0
100
AcDbSpline
70
4
71
3
72
8
73
4
40
0
40
0
40
0
40
0
40
1
40
1
40
1
40
1
41
1
10
12.2710390582076
20
-4.3713434586254
30
0
41
1
10
12.1528426535242
20
-4.38032733724188
30
0
41
1
10
12.0337415149094
20
-4.37576578290267
30
0
41
1
10
11.9155750821125
20
-4.36709553189647
30
0
0
SPLINE
5
233
100
AcDbEntity
8
1
62
256
6
ByLayer
370
-1
48
1
60
0
100
AcDbSpline
70
4
71
3
72
20
73
16
40
0
40
0
40
0
40
0
40
0.314859192648758
40
0.314859192648758
40
0.531558880441059
40
0.531558880441059
40
0.682135903694813
40
0.682135903694813
40
0.839619845966507
40
0.839619845966507
40
0.903112673775994
40
0.903112673775994
40
0.967902128209786
40
0.967902128209786
40
1
40
1
40
1
40
1
41
1
10
14.3226304619828
20
-10.3351658372622
30
0
41
1
10
14.3201904316569
20
-10.2627470222941
30
0
41
1
10
14.3195458769559
20
-10.1901955875529
30
0
41
1
10
14.3237105508066
20
-10.0679108299595
30
0
41
1
10
14.3268634232547
20
-10.0180405587301
30
0
41
1
10
14.3365782379965
20
-9.93405603323299
30
0
41
1
10
14.3417970877689
20
-9.89969738551395
30
0
41
1
10
14.3569604672651
20
-9.83056223126522
30
0
41
1
10
14.3669376402006
20
-9.79529342694158
30
0
41
1
10
14.3888812610731
20
-9.74961202599371
30
0
41
1
10
14.3962432731255
20
-9.73681256478378
30
0
41
1
10
14.4141238922815
20
-9.71358385497075
30
0
41
1
10
14.4250459246588
20
-9.70288941442072
30
0
41
1
10
14.4441137134831
20
-9.69188483025783
30
0
41
1
10
14.4510293160944
20
-9.6890153711245
30
0
41
1
10
14.4581432632414
20
-9.68721592833367
30
0
0
SPLINE
5
234
100
AcDbEntity
8
1
62
256
6
ByLayer
370
-1
48
1
60
0
100
AcDbSpline
70
4
71
3
72
18
73
14
40
0
40
0
40
0
40
0
40
0.0414544517087938
40
0.0414544517087938
40
0.132910922468128
40
0.132910922468128
40
0.263177731540037
40
0.263177731540037
40
0.45856266732653
40
0.45856266732653
40
0.817425847463269
40
0.817425847463269
40
1
40
1
40
1
40
1
41
1
10
15.0588906679689
20
-9.53525941755257
30
0
41
1
10
15.063282831146
20
-9.53414843848554
30
0
41
1
10
15.0677861218918
20
-9.53342795982539
30
0
41
1
10
15.0821492363805
20
-9.53237485915906
30
0
41
1
10
15.0922089067708
20
-9.53353182140529
30
0
41
1
10
15.115391478171
20
-9.53947598975495
30
0
41
1
10
15.1284062032804
20
-9.54555836085146
30
0
41
1
10
15.1586654591647
20
-9.5636232391733
30
0
41
1
10
15.1752591298725
20
-9.57721393366469
30
0
41
1
10
15.2190547893921
20
-9.61844916299293
30
0
41
1
10
15.2440796099384
20
-9.64879713458868
30
0
41
1
10
15.2792548732985
20
-9.69611351475632
30
0
41
1
10
15.2906820174215
20
-9.71244874363566
30
0
41
1
10
15.30175732603
20
-9.7290171088944
30
0
0
SPLINE
5
235
100
AcDbEntity
8
1
62
256
6
ByLayer
370
-1
48
1
60
0
100
AcDbSpline
70
4
71
3
72
14
73
10
40
0
40
0
40
0
40
0
40
0.314392366702051
40
0.314392366702051
40
0.632200716155282
40
0.632200716155282
40
0.912513196202118
40
0.912513196202118
40
1
40
1
40
1
40
1
41
1
10
15.1004112139908
20
1.56191308406727
30
0
41
1
10
15.1060282161618
20
1.57158503263463
30
0
41
1
10
15.1130069240642
20
1.58067973557763
30
0
41
1
10
15.1294832422306
20
1.59582182402471
30
0
41
1
10
15.1392626939448
20
1.60199242947931
30
0
41
1
10
15.1587092382611
20
1.60963959270305
30
0
41
1
10
15.1684600443444
20
1.611702937074
30
0
41
1
10
15.1811595403994
20
1.61264635577967
30
0
41
1
10
15.1842083055523
20
1.61274427492566
30
0
41
1
10
15.1872486624857
20
1.61272570368408
30
0
0
SPLINE
5
236
100
AcDbEntity
8
1
62
256
6
ByLayer
370
-1
48
1
60
0
100
AcDbSpline
70
4
71
3
72
10
73
6
40
0
40
0
40
0
40
0
40
0.38888597813297
40
0.38888597813297
40
1
40
1
40
1
40
1
41
1
10
12.2710390582077
20
-4.3713434586254
30
0
41
1
10
12.2540369836482
20
-4.3613598802734
30
0
41
1
10
12.236789416871
20
-4.35133857773081
30
0
41
1
10
12.1923854375352
20
-4.32578400565848
30
0
41
1
10
12.1649439165325
20
-4.31022160609567
30
0
41
1
10
12.1379011832915
20
-4.29514800322923
30
0
0
SPLINE
5
237
100
AcDbEntity
8
1
62
256
6
ByLayer
370
-1
48
1
60
0
100
AcDbSpline
70
4
71
3
72
22
73
18
40
0
40
0
40
0
40
0
40
0.153101873520365
40
0.153101873520365
40
0.442621285364907
40
0.442621285364907
40
0.707385074439687
40
0.707385074439687
40
0.843532608240159
40
0.843532608240159
40
0.92635266577125
40
0.92635266577125
40
0.96370673695526
40
0.96370673695526
40
0.977863955360661
40
0.977863955360661
40
1
40
1
40
1
40
1
41
1
10
12.1379011832915
20
-4.29514800322914
30
0
41
1
10
12.1588968100483
20
-4.29700834601547
30
0
41
1
10
12.1799124561008
20
-4.29865813135115
30
0
41
1
10
12.2407019387024
20
-4.30264719576425
30
0
41
1
10
12.280552484356
20
-4.30435078453934
30
0
41
1
10
12.3567946109549
20
-4.30427620672296
30
0
41
1
10
12.3933537883596
20
-4.30297707229226
30
0
41
1
10
12.447959050965
20
-4.29541034115567
30
0
41
1
10
12.4665266686894
20
-4.29188515874927
30
0
41
1
10
12.4950466527116
20
-4.28224420513504
30
0
41
1
10
12.5057406826522
20
-4.2776340574402
30
0
41
1
10
12.5191816978206
20
-4.2679513738243
30
0
41
1
10
12.5231153340025
20
-4.26443354848581
30
0
41
1
10
12.527567592355
20
-4.25881985934203
30
0
41
1
10
12.528700219068
20
-4.25718043626054
30
0
41
1
10
12.531257473502
20
-4.25280331427817
30
0
41
1
10
12.5325055375342
20
-4.2499253573132
30
0
41
1
10
12.5333535324172
20
-4.24695427122253
30
0
0
SPLINE
5
238
100
AcDbEntity
8
1
62
256
6
ByLayer
370
-1
48
1
60
0
100
AcDbSpline
70
4
71
3
72
22
73
18
40
0
40
0
40
0
40
0
40
0.0236324717629843
40
0.0236324717629843
40
0.062981402206422
40
0.062981402206422
40
0.076235920446364
40
0.076235920446364
40
0.13409917281462
40
0.13409917281462
40
0.288877504287528
40
0.288877504287528
40
0.442933094377617
40
0.442933094377617
40
0.668543354429529
40
0.668543354429529
40
1
40
1
40
1
40
1
41
1
10
12.705684675378
20
-3.64316446994133
30
0
41
1
10
12.7070676305867
20
-3.63831906454141
30
0
41
1
10
12.7073838070847
20
-3.63309215134009
30
0
41
1
10
12.7058817279384
20
-3.6197964636018
30
0
41
1
10
12.7026814147834
20
-3.61174831946477
30
0
41
1
10
12.6973323280492
20
-3.60194375342004
30
0
41
1
10
12.6958625790333
20
-3.59950617164122
30
0
41
1
10
12.6875903067178
20
-3.58678227518732
30
0
41
1
10
12.6794285314461
20
-3.57738055454166
30
0
41
1
10
12.6478521974515
20
-3.54507565435821
30
0
41
1
10
12.6213747438295
20
-3.52512539972861
30
0
41
1
10
12.5675121928507
20
-3.48778811313272
30
0
41
1
10
12.5396781894172
20
-3.47050382088116
30
0
41
1
10
12.4701256026897
20
-3.42974438972303
30
0
41
1
10
12.4278630987593
20
-3.4071192218027
30
0
41
1
10
12.3224869964183
20
-3.35346972793198
30
0
41
1
10
12.2588026440224
20
-3.3234896944158
30
0
41
1
10
12.1946509277921
20
-3.29463825126175
30
0
0
SPLINE
5
239
100
AcDbEntity
8
1
62
256
6
ByLayer
370
-1
48
1
60
0
100
AcDbSpline
70
4
71
3
72
8
73
4
40
0
40
0
40
0
40
0
40
1
40
1
40
1
40
1
41
1
10
18.6199037594807
20
-4.11506895534427
30
0
41
1
10
18.5752209888908
20
-4.17403877431244
30
0
41
1
10
18.5315590002877
20
-4.23387259697014
30
0
41
1
10
18.4899283921344
20
-4.29514800324779
30
0
0
SPLINE
5
23A
100
AcDbEntity
8
1
62
256
6
ByLayer
370
-1
48
1
60
0
100
AcDbSpline
70
4
71
3
72
8
73
4
40
0
40
0
40
0
40
0
40
1
40
1
40
1
40
1
41
1
10
18.3644608187576
20
-4.37134345862532
30
0
41
1
10
18.4162059661412
20
-4.26295027759761
30
0
41
1
10
18.4799601413733
20
-4.16049876996496
30
0
41
1
10
18.5467492384691
20
-4.06091267218952
30
0
0
SPLINE
5
23B
100
AcDbEntity
8
1
62
256
6
ByLayer
370
-1
48
1
60
0
100
AcDbSpline
70
4
71
3
72
20
73
16
40
0
40
0
40
0
40
0
40
0.314859192648758
40
0.314859192648758
40
0.53155888044106
40
0.53155888044106
40
0.682135903694824
40
0.682135903694824
40
0.839619845966507
40
0.839619845966507
40
0.903112673776006
40
0.903112673776006
40
0.967902128209796
40
0.967902128209796
40
1
40
1
40
1
40
1
41
1
10
12.2461259785225
20
-3.20895744596331
30
0
41
1
10
12.3091258181483
20
-3.24283137548676
30
0
41
1
10
12.3713363325902
20
-3.27834994836624
30
0
41
1
10
12.4735522526068
20
-3.3428331939883
30
0
41
1
10
12.5145070007458
20
-3.37040962153205
30
0
41
1
10
12.5812630950282
20
-3.4207232637915
30
0
41
1
10
12.6079479806647
20
-3.44240111252742
30
0
41
1
10
12.6592989436375
20
-3.49011972205938
30
0
41
1
10
12.684368544876
20
-3.51643404140063
30
0
41
1
10
12.7123054849101
20
-3.55844889376971
30
0
41
1
10
12.719523127449
20
-3.57128811973621
30
0
41
1
10
12.7303500333373
20
-3.59856313922478
30
0
41
1
10
12.7339827345898
20
-3.61348554653338
30
0
41
1
10
12.7337857317454
20
-3.63572441154719
30
0
41
1
10
12.7327574353828
20
-3.64323219057482
30
0
41
1
10
12.7307167197125
20
-3.65038216525727
30
0
0
SPLINE
5
23C
100
AcDbEntity
8
1
62
256
6
ByLayer
370
-1
48
1
60
0
100
AcDbSpline
70
4
71
3
72
18
73
14
40
0
40
0
40
0
40
0
40
0.0414544517087773
40
0.0414544517087773
40
0.132910922468128
40
0.132910922468128
40
0.263177731540045
40
0.263177731540045
40
0.458562667326541
40
0.458562667326541
40
0.817425847463264
40
0.817425847463264
40
1
40
1
40
1
40
1
41
1
10
12.5583855767421
20
-4.2541719665378
30
0
41
1
10
12.557125635385
20
-4.258586373177
30
0
41
1
10
12.555476740811
20
-4.26290426401715
30
0
41
1
10
12.5491557839248
20
-4.27605689559411
30
0
41
1
10
12.5431126548875
20
-4.28432646995574
30
0
41
1
10
12.5263901352443
20
-4.30175338647413
30
0
41
1
10
12.5146603377018
20
-4.31017143114698
30
0
41
1
10
12.4840419082913
20
-4.32779201698727
30
0
41
1
10
12.4641086271437
20
-4.33562241312927
30
0
41
1
10
12.4069221044712
20
-4.35362059092037
30
0
41
1
10
12.368457123261
20
-4.36052946271568
30
0
41
1
10
12.3104161874547
20
-4.36792349609729
30
0
41
1
10
12.290738635187
20
-4.36984613215515
30
0
41
1
10
12.2710390582106
20
-4.37134345864948
30
0
0
SPLINE
5
23D
100
AcDbEntity
8
1
62
256
6
ByLayer
370
-1
48
1
60
0
100
AcDbSpline
70
4
71
3
72
10
73
6
40
0
40
0
40
0
40
0
40
0.638746828356576
40
0.638746828356576
40
1
40
1
40
1
40
1
41
1
10
12.1379011833033
20
-4.29514800321891
30
0
41
1
10
12.0157236791304
20
-4.22704633758096
30
0
41
1
10
11.8927330906365
20
-4.15784006690944
30
0
41
1
10
11.7002530358132
20
-4.04881555792088
30
0
41
1
10
11.6306087432776
20
-4.00921513155504
30
0
41
1
10
11.5610318611876
20
-3.96950494655115
30
0
0
SPLINE
5
23E
100
AcDbEntity
8
1
62
256
6
ByLayer
370
-1
48
1
60
0
100
AcDbSpline
70
4
71
3
72
14
73
10
40
0
40
0
40
0
40
0
40
0.249103078948769
40
0.249103078948769
40
0.498160925944199
40
0.498160925944199
40
0.745586162481372
40
0.745586162481372
40
1
40
1
40
1
40
1
41
1
10
14.7185014292196
20
-10.9152229789861
30
0
41
1
10
14.7008685838589
20
-10.9152362057051
30
0
41
1
10
14.6835069512632
20
-10.9152759298516
30
0
41
1
10
14.6500418046866
20
-10.9154057520156
30
0
41
1
10
14.6338218618409
20
-10.9154962843662
30
0
41
1
10
14.6031534243056
20
-10.9157236447202
30
0
41
1
10
14.5885910787466
20
-10.9158609255957
30
0
41
1
10
14.5611071717836
20
-10.9161823217753
30
0
41
1
10
14.5481463929905
20
-10.9163687869506
30
0
41
1
10
14.5364389385077
20
-10.916575010711
30
0
0
SPLINE
5
23F
100
AcDbEntity
8
1
62
256
6
ByLayer
370
-1
48
1
60
0
100
AcDbSpline
70
4
71
3
72
14
73
10
40
0
40
0
40
0
40
0
40
0.23392640828628
40
0.23392640828628
40
0.467719442169569
40
0.467719442169569
40
0.701444004412153
40
0.701444004412153
40
1
40
1
40
1
40
1
41
1
10
11.0783736954343
20
-4.02994206959056
30
0
41
1
10
11.083103758819
20
-4.01842389724189
30
0
41
1
10
11.0884810952848
20
-4.00612631461431
30
0
41
1
10
11.1002696840113
20
-3.98053757206387
30
0
41
1
10
11.1067214325401
20
-3.96715746824404
30
0
41
1
10
11.1204513624186
20
-3.93979545330237
30
0
41
1
10
11.1277749983244
20
-3.92572238313241
30
0
41
1
10
11.1451334487026
20
-3.89345170651757
30
0
41
1
10
11.1554501659749
20
-3.87501862181171
30
0
41
1
10
11.1660335117076
20
-3.856793249844
30
0
0
SPLINE
5
240
100
AcDbEntity
8
1
62
256
6
ByLayer
370
-1
48
1
60
0
100
AcDbSpline
70
4
71
3
72
10
73
6
40
0
40
0
40
0
40
0
40
0.736240194588506
40
0.736240194588506
40
1
40
1
40
1
40
1
41
1
10
11.0622363261623
20
-10.2004472417737
30
0
41
1
10
11.0391048101081
20
-10.1965757417659
30
0
41
1
10
11.0134036721681
20
-10.1965918433501
30
0
41
1
10
10.978291726239
20
-10.2058529848712
30
0
41
1
10
10.9688497010484
20
-10.2092549587177
30
0
41
1
10
10.9596597739147
20
-10.2137269798219
30
0
0
SPLINE
5
241
100
AcDbEntity
8
1
62
256
6
ByLayer
370
-1
48
1
60
0
100
AcDbSpline
70
4
71
3
72
14
73
10
40
0
40
0
40
0
40
0
40
0.314392366702068
40
0.314392366702068
40
0.632200716155247
40
0.632200716155247
40
0.912513196202049
40
0.912513196202049
40
1
40
1
40
1
40
1
41
1
10
21.8920973304125
20
-9.86142190770397
30
0
41
1
10
21.8977984469901
20
-9.8710449919881
30
0
41
1
10
21.9022637467031
20
-9.88160543099468
30
0
41
1
10
21.9071347831561
20
-9.90351482657013
30
0
41
1
10
21.9075021759279
20
-9.91517370501981
30
0
41
1
10
21.9040906735866
20
-9.93614950295142
30
0
41
1
10
21.9007933243538
20
-9.94582124468639
30
0
41
1
10
21.8949364194836
20
-9.95758488876217
30
0
41
1
10
21.8934151651755
20
-9.96034758075905
30
0
41
1
10
21.8917939798962
20
-9.9630471469375
30
0
0
SPLINE
5
242
100
AcDbEntity
8
1
62
256
6
ByLayer
370
-1
48
1
60
0
100
AcDbSpline
70
4
71
3
72
10
73
6
40
0
40
0
40
0
40
0
40
0.388885978133032
40
0.388885978133032
40
1
40
1
40
1
40
1
41
1
10
18.3644608187575
20
-4.37134345862538
30
0
41
1
10
18.3815224951182
20
-4.3613598802734
30
0
41
1
10
18.3983937618763
20
-4.35133857773079
30
0
41
1
10
18.4408221219805
20
-4.32578400565848
30
0
41
1
10
18.4660978266219
20
-4.31022160609567
30
0
41
1
10
18.4899283921469
20
-4.29514800322923
30
0
0
SPLINE
5
243
100
AcDbEntity
8
1
62
256
6
ByLayer
370
-1
48
1
60
0
100
AcDbSpline
70
4
71
3
72
8
73
4
40
0
40
0
40
0
40
0
40
1
40
1
40
1
40
1
41
1
10
15.2972434471146
20
-9.88020187607566
30
0
41
1
10
15.3000851135043
20
-9.83175675341255
30
0
41
1
10
15.3016047127856
20
-9.78014395621474
30
0
41
1
10
15.3017573260109
20
-9.7290171089092
30
0
0
SPLINE
5
244
100
AcDbEntity
8
1
62
256
6
ByLayer
370
-1
48
1
60
0
100
AcDbSpline
70
4
71
3
72
22
73
18
40
0
40
0
40
0
40
0
40
0.153101873520332
40
0.153101873520332
40
0.442621285364891
40
0.442621285364891
40
0.707385074439682
40
0.707385074439682
40
0.843532608240161
40
0.843532608240161
40
0.926352665771242
40
0.926352665771242
40
0.963706736955256
40
0.963706736955256
40
0.977863955360642
40
0.977863955360642
40
1
40
1
40
1
40
1
41
1
10
18.489928392147
20
-4.29514800322934
30
0
41
1
10
18.4781180209053
20
-4.31253149408411
30
0
41
1
10
18.4664763684047
20
-4.33003769315494
30
0
41
1
10
18.4334658578041
20
-4.38106715503835
30
0
41
1
10
18.4125985297298
20
-4.41497503614201
30
0
41
1
10
18.3755029275846
20
-4.48151321544793
30
0
41
1
10
18.3587865564736
20
-4.51405042393313
30
0
41
1
10
18.3385926706162
20
-4.56545850272479
30
0
41
1
10
18.3325340328274
20
-4.58341457427983
30
0
41
1
10
18.3268143849706
20
-4.61310579266478
30
0
41
1
10
18.3255141777621
20
-4.62473595451874
30
0
41
1
10
18.3271798446854
20
-4.64129530245762
30
0
41
1
10
18.3282478852932
20
-4.64648316967714
30
0
41
1
10
18.3308418202328
20
-4.65317002681189
30
0
41
1
10
18.3316810549948
20
-4.65497665651228
30
0
41
1
10
18.3341492634575
20
-4.6593930649521
30
0
41
1
10
18.3359833352774
20
-4.66191887435252
30
0
41
1
10
18.3380914556756
20
-4.66414222360726
30
0
0
SPLINE
5
245
100
AcDbEntity
8
1
62
256
6
ByLayer
370
-1
48
1
60
0
100
AcDbSpline
70
4
71
3
72
22
73
18
40
0
40
0
40
0
40
0
40
0.0236324717629912
40
0.0236324717629912
40
0.0629814022064294
40
0.0629814022064294
40
0.0762359204463589
40
0.0762359204463589
40
0.134099172814625
40
0.134099172814625
40
0.288877504287528
40
0.288877504287528
40
0.442933094377612
40
0.442933094377612
40
0.668543354429532
40
0.668543354429532
40
1
40
1
40
1
40
1
41
1
10
18.766507717438
20
-5.11597551409864
30
0
41
1
10
18.7699457524359
20
-5.11960147045127
30
0
41
1
10
18.7742275605236
20
-5.12248742735488
30
0
41
1
10
18.7862433964968
20
-5.12781669763081
30
0
41
1
10
18.7946335889957
20
-5.12904419243469
30
0
41
1
10
18.8055617799437
20
-5.12927451204317
30
0
41
1
10
18.8083468925279
20
-5.12920976678188
30
0
41
1
10
18.8231774805223
20
-5.12834814741228
30
0
41
1
10
18.8351347314797
20
-5.12592393303734
30
0
41
1
10
18.8779419379251
20
-5.11451351346832
30
0
41
1
10
18.9077783738954
20
-5.10138126103189
30
0
41
1
10
18.9657172358596
20
-5.07304556225597
30
0
41
1
10
18.9939512899376
20
-5.05739924487796
30
0
41
1
10
19.0624390171051
20
-5.0170882043054
30
0
41
1
10
19.1022358513631
20
-4.99152487624261
30
0
41
1
10
19.1991162542098
20
-4.9264072371827
30
0
41
1
10
19.255590480622
20
-4.88583418492584
30
0
41
1
10
19.3113325293139
20
-4.84429089227558
30
0
0
SPLINE
5
246
100
AcDbEntity
8
1
62
256
6
ByLayer
370
-1
48
1
60
0
100
AcDbSpline
70
4
71
3
72
8
73
4
40
0
40
0
40
0
40
0
40
1
40
1
40
1
40
1
41
1
10
15.3820132562623
20
-10.0856667112272
30
0
41
1
10
15.3553469489836
20
-10.0165071262066
30
0
41
1
10
15.3274257559866
20
-9.94781755443438
30
0
41
1
10
15.2972434471146
20
-9.88020187607566
30
0
0
SPLINE
5
247
100
AcDbEntity
8
1
62
256
6
ByLayer
370
-1
48
1
60
0
100
AcDbSpline
70
4
71
3
72
8
73
4
40
0
40
0
40
0
40
0
40
1
40
1
40
1
40
1
41
1
10
15.3017573260109
20
-9.72901710890912
30
0
41
1
10
15.3682085833107
20
-9.82842641132032
30
0
41
1
10
15.4235555466935
20
-9.93543947329221
30
0
41
1
10
15.4749328823946
20
-10.0436958220738
30
0
0
SPLINE
5
248
100
AcDbEntity
8
1
62
256
6
ByLayer
370
-1
48
1
60
0
100
AcDbSpline
70
4
71
3
72
20
73
16
40
0
40
0
40
0
40
0
40
0.314859192648764
40
0.314859192648764
40
0.531558880441063
40
0.531558880441063
40
0.682135903694815
40
0.682135903694815
40
0.839619845966514
40
0.839619845966514
40
0.903112673775998
40
0.903112673775998
40
0.967902128209786
40
0.967902128209786
40
1
40
1
40
1
40
1
41
1
10
19.3685007624709
20
-4.92758074293431
30
0
41
1
10
19.3079409531709
20
-4.96612562837896
30
0
41
1
10
19.2463749934301
20
-5.00315849024068
30
0
41
1
10
19.1399943995627
20
-5.06096000221197
30
0
41
1
10
19.0958867789757
20
-5.08325384589764
30
0
41
1
10
19.0194158699514
20
-5.11692472913532
30
0
41
1
10
18.9875121345425
20
-5.12960552811845
30
0
41
1
10
18.9209977920736
20
-5.15102207283522
30
0
41
1
10
18.8859510178996
20
-5.15997655781763
30
0
41
1
10
18.836070456993
20
-5.16364310639642
30
0
41
1
10
18.8214908024017
20
-5.16360334163983
30
0
41
1
10
18.7927832773574
20
-5.15955703196431
30
0
41
1
10
18.7782285437276
20
-5.15532906520571
30
0
41
1
10
18.7593577577477
20
-5.14409478435479
30
0
41
1
10
18.753470451499
20
-5.13945646446049
30
0
41
1
10
18.7483972200223
20
-5.13410593256887
30
0
0
SPLINE
5
249
100
AcDbEntity
8
1
62
256
6
ByLayer
370
-1
48
1
60
0
100
AcDbSpline
70
4
71
3
72
18
73
14
40
0
40
0
40
0
40
0
40
0.0414544517087702
40
0.0414544517087702
40
0.132910922468103
40
0.132910922468103
40
0.263177731540035
40
0.263177731540035
40
0.458562667326521
40
0.458562667326521
40
0.817425847463264
40
0.817425847463264
40
1
40
1
40
1
40
1
41
1
10
18.3199809582651
20
-4.68227264206948
30
0
41
1
10
18.3168487364451
20
-4.67896921449727
30
0
41
1
10
18.3139943402735
20
-4.67537180231727
30
0
41
1
10
18.3059521826708
20
-4.66327227140667
30
0
41
1
10
18.3019356413178
20
-4.65384573479878
30
0
41
1
10
18.2954755895609
20
-4.63047464993073
30
0
41
1
10
18.294190661994
20
-4.61597423416137
30
0
41
1
10
18.2945498355201
20
-4.58028876999924
30
0
41
1
10
18.29788944596
20
-4.55886767936587
30
0
41
1
10
18.3112803091129
20
-4.49963427224651
30
0
41
1
10
18.3247204697767
20
-4.46237742885549
30
0
41
1
10
18.347586142223
20
-4.4076670153062
30
0
41
1
10
18.3558365503676
20
-4.389409150369
30
0
41
1
10
18.3644608187355
20
-4.37134345861597
30
0
0
SPLINE
5
24A
100
AcDbEntity
8
1
62
256
6
ByLayer
370
-1
48
1
60
0
100
AcDbSpline
70
4
71
3
72
10
73
6
40
0
40
0
40
0
40
0
40
0.638746828356579
40
0.638746828356579
40
1
40
1
40
1
40
1
41
1
10
18.4899283921488
20
-4.29514800324526
30
0
41
1
10
18.5975935084275
20
-4.22704633760733
30
0
41
1
10
18.7086483266574
20
-4.15784006690944
30
0
41
1
10
18.8853906097323
20
-4.04881555792085
30
0
41
1
10
18.9499664896553
20
-4.00921513155501
30
0
41
1
10
19.0150875950261
20
-3.96950494655115
30
0
0
SPLINE
5
24B
100
AcDbEntity
8
1
62
256
6
ByLayer
370
-1
48
1
60
0
100
AcDbSpline
70
4
71
3
72
12
73
8
40
0
40
0
40
0
40
0
40
0.197891272102659
40
0.197891272102659
40
0.598376100017388
40
0.598376100017388
40
1
40
1
40
1
40
1
41
1
10
15.2972434471235
20
-9.88020187609391
30
0
41
1
10
15.2948068805631
20
-9.92174080069145
30
0
41
1
10
15.2924979785404
20
-9.96353334966091
30
0
41
1
10
15.2858518359842
20
-10.0904713747161
30
0
41
1
10
15.2818516504565
20
-10.1762388221281
30
0
41
1
10
15.2746068477848
20
-10.3490045924211
30
0
41
1
10
15.2713635505205
20
-10.4360744914752
30
0
41
1
10
15.2684960364114
20
-10.5235232899866
30
0
0
SPLINE
5
24C
100
AcDbEntity
8
1
62
256
6
ByLayer
370
-1
48
1
60
0
100
AcDbSpline
70
4
71
3
72
14
73
10
40
0
40
0
40
0
40
0
40
0.249103078948809
40
0.249103078948809
40
0.498160925944195
40
0.498160925944195
40
0.745586162481402
40
0.745586162481402
40
1
40
1
40
1
40
1
41
1
10
11.4913075141102
20
-3.29664527443308
30
0
41
1
10
11.5003709859365
20
-3.28103724748902
30
0
41
1
10
11.5097003483002
20
-3.26545883225484
30
0
41
1
10
11.5284913448337
20
-3.23501116085444
30
0
41
1
10
11.5380180918264
20
-3.2200361105582
30
0
41
1
10
11.5568839416418
20
-3.19127866142313
30
0
41
1
10
11.5662871429303
20
-3.17739258904524
30
0
41
1
10
11.5849797544408
20
-3.1506939620771
30
0
41
1
10
11.5943245453636
20
-3.13782840362722
30
0
41
1
10
11.6033393034513
20
-3.12590909948213
30
0
0
SPLINE
5
24D
100
AcDbEntity
8
1
62
256
6
ByLayer
370
-1
48
1
60
0
100
AcDbSpline
70
4
71
3
72
14
73
10
40
0
40
0
40
0
40
0
40
0.23392640828628
40
0.23392640828628
40
0.467719442169543
40
0.467719442169543
40
0.701444004412128
40
0.701444004412128
40
1
40
1
40
1
40
1
41
1
10
19.2034797209074
20
-3.51628619538647
30
0
41
1
10
19.2081420581464
20
-3.52745691059559
30
0
41
1
10
19.2134469025687
20
-3.53944483556282
30
0
41
1
10
19.2250843149529
20
-3.56450157118513
30
0
41
1
10
19.2314568539773
20
-3.5776573866512
30
0
41
1
10
19.2450245022396
20
-3.60466121974392
30
0
41
1
10
19.2522645255384
20
-3.6185991491453
30
0
41
1
10
19.2694309296225
20
-3.6506657640106
30
0
41
1
10
19.2796377250209
20
-3.66905752754948
30
0
41
1
10
19.2901121733732
20
-3.68731378899159
30
0
0
SPLINE
5
24E
100
AcDbEntity
8
1
62
256
6
ByLayer
370
-1
48
1
60
0
100
AcDbSpline
70
4
71
3
72
10
73
6
40
0
40
0
40
0
40
0
40
0.736240194588485
40
0.736240194588485
40
1
40
1
40
1
40
1
41
1
10
13.8889605083818
20
-0.460296443875535
30
0
41
1
10
13.896853215546
20
-0.44512448493191
30
0
41
1
10
13.9028644750704
20
-0.425693646580385
30
0
41
1
10
13.9044000247864
20
-0.393997956248171
30
0
41
1
10
13.9041489898478
20
-0.384968906494322
30
0
41
1
10
13.9030183547821
20
-0.375555664603127
30
0
0
SPLINE
5
24F
100
AcDbEntity
8
1
62
256
6
ByLayer
370
-1
48
1
60
0
100
AcDbSpline
70
4
71
3
72
8
73
4
40
0
40
0
40
0
40
0
40
1
40
1
40
1
40
1
41
1
10
8.39437887614213
20
-11.0130448278163
30
0
41
1
10
8.39454782685399
20
-11.0173113259316
30
0
41
1
10
8.39471677625585
20
-11.0215779153032
30
0
41
1
10
8.39488572440939
20
-11.0258445916272
30
0
0
SPLINE
5
250
100
AcDbEntity
8
1
62
256
6
ByLayer
370
-1
48
1
60
0
100
AcDbSpline
70
4
71
3
72
10
73
6
40
0
40
0
40
0
40
0
40
0.870848930808157
40
0.870848930808157
40
1
40
1
40
1
40
1
41
1
10
7.75355832262161
20
-11.0073775060399
30
0
41
1
10
7.75809867427921
20
-10.999612003489
30
0
41
1
10
7.76038932388681
20
-10.9918093037482
30
0
41
1
10
7.76097824141331
20
-10.9833319045738
30
0
41
1
10
7.76101650421097
20
-10.9822478395723
30
0
41
1
10
7.76101875816062
20
-10.9811702645098
30
0
0
SPLINE
5
251
100
AcDbEntity
8
1
62
256
6
ByLayer
370
-1
48
1
60
0
100
AcDbSpline
70
4
71
3
72
8
73
4
40
0
40
0
40
0
40
0
40
1
40
1
40
1
40
1
41
1
10
7.74611584881441
20
-11.0201069672272
30
0
41
1
10
7.7485966542018
20
-11.0158637249298
30
0
41
1
10
7.75107747849299
20
-11.0116205697632
30
0
41
1
10
7.75355832262164
20
-11.0073775060399
30
0
0
SPLINE
5
252
100
AcDbEntity
8
1
62
256
6
ByLayer
370
-1
48
1
60
0
100
AcDbSpline
70
4
71
3
72
24
73
20
40
0
40
0
40
0
40
0
40
0.10400044820161
40
0.10400044820161
40
0.19249905546072
40
0.19249905546072
40
0.328500518746287
40
0.328500518746287
40
0.438682575664836
40
0.438682575664836
40
0.548533158171183
40
0.548533158171183
40
0.658237202769222
40
0.658237202769222
40
0.767870673660297
40
0.767870673660297
40
0.988088331633601
40
0.988088331633601
40
1
40
1
40
1
40
1
41
1
10
8.39488572440931
20
-11.0258445916272
30
0
41
1
10
8.39393414981404
20
-11.0336519632102
30
0
41
1
10
8.39002483820227
20
-11.0413904368344
30
0
41
1
10
8.37812227815729
20
-11.0541105934709
30
0
41
1
10
8.370730146678
20
-11.0594938518796
30
0
41
1
10
8.34925574352039
20
-11.0714227980464
30
0
41
1
10
8.33343276545199
20
-11.0773053318742
30
0
41
1
10
8.30316539834081
20
-11.0859844113502
30
0
41
1
10
8.28878553080378
20
-11.0892263522297
30
0
41
1
10
8.25947825802541
20
-11.0947186713009
30
0
41
1
10
8.24445760648322
20
-11.0969875291646
30
0
41
1
10
8.21417239378357
20
-11.1008025662744
30
0
41
1
10
8.19885224634368
20
-11.1023550608816
30
0
41
1
10
8.16813927820127
20
-11.1048972653372
30
0
41
1
10
8.15270922737963
20
-11.1058894939305
30
0
41
1
10
8.10640728112159
20
-11.1081679355797
30
0
41
1
10
8.07543901225594
20
-11.1087688225995
30
0
41
1
10
8.04327957145946
20
-11.1085764432042
30
0
41
1
10
8.04162626511297
20
-11.1085641883587
30
0
41
1
10
8.03997410084719
20
-11.1085495768634
30
0
0
SPLINE
5
253
100
AcDbEntity
8
1
62
256
6
ByLayer
370
-1
48
1
60
0
100
AcDbSpline
70
4
71
3
72
22
73
18
40
0
40
0
40
0
40
0
40
0.208266363442371
40
0.208266363442371
40
0.317899168105146
40
0.317899168105146
40
0.427584739861545
40
0.427584739861545
40
0.537377253732721
40
0.537377253732721
40
0.647402228730705
40
0.647402228730705
40
0.811583680502102
40
0.811583680502102
40
0.906636022131335
40
0.906636022131335
40
1
40
1
40
1
40
1
41
1
10
8.03997410084719
20
-11.1085495768634
30
0
41
1
10
8.01116503300102
20
-11.1082947937472
30
0
41
1
10
7.98261378616223
20
-11.1073365982128
30
0
41
1
10
7.94014665654478
20
-11.1046623592948
30
0
41
1
10
7.92565661522534
20
-11.1035135420745
30
0
41
1
10
7.89723577626853
20
-11.1006886663789
30
0
41
1
10
7.88327282337482
20
-11.0990099685072
30
0
41
1
10
7.85615381557616
20
-11.0949925345453
30
0
41
1
10
7.84295273741989
20
-11.0926479503873
30
0
41
1
10
7.81778134101759
20
-11.0870856077735
30
0
41
1
10
7.80574133802855
20
-11.0838524746573
30
0
41
1
10
7.77846106581947
20
-11.0743713518376
30
0
41
1
10
7.76400140289829
20
-11.0672408995026
30
0
41
1
10
7.74901567544279
20
-11.0530158508252
30
0
41
1
10
7.74514330219159
20
-11.0470108856894
30
0
41
1
10
7.742204909685
20
-11.0341474214894
30
0
41
1
10
7.74305554018665
20
-11.0271380951225
30
0
41
1
10
7.74611584881413
20
-11.0201069672295
30
0
0
SPLINE
5
254
100
AcDbEntity
8
1
62
256
6
ByLayer
370
-1
48
1
60
0
100
AcDbSpline
70
4
71
3
72
10
73
6
40
0
40
0
40
0
40
0
40
0.771870081640474
40
0.771870081640474
40
1
40
1
40
1
40
1
41
1
10
9.0053209127818
20
-11.0013120310623
30
0
41
1
10
8.99755393889581
20
-10.9936468619215
30
0
41
1
10
8.98778153569091
20
-10.986071953366
30
0
41
1
10
8.97390500006
20
-10.9769124318641
30
0
41
1
10
8.97065541816272
20
-10.9748623424654
30
0
41
1
10
8.96732333372356
20
-10.9728461919839
30
0
0
SPLINE
5
255
100
AcDbEntity
8
1
62
256
6
ByLayer
370
-1
48
1
60
0
100
AcDbSpline
70
4
71
3
72
12
73
8
40
0
40
0
40
0
40
0
40
0.120685773105462
40
0.120685773105462
40
0.824973064444056
40
0.824973064444056
40
1
40
1
40
1
40
1
41
1
10
8.42123307542991
20
-10.9643751519173
30
0
41
1
10
8.41926803092701
20
-10.9661110660548
30
0
41
1
10
8.41738229837233
20
-10.967877693724
30
0
41
1
10
8.40520665188453
20
-10.9800384185359
30
0
41
1
10
8.39749027084662
20
-10.9917038015943
30
0
41
1
10
8.39451728902034
20
-11.0068437600706
30
0
41
1
10
8.39425601758668
20
-11.0099422910503
30
0
41
1
10
8.39437887614204
20
-11.0130448278163
30
0
0
SPLINE
5
256
100
AcDbEntity
8
1
62
256
6
ByLayer
370
-1
48
1
60
0
100
AcDbSpline
70
4
71
3
72
8
73
4
40
0
40
0
40
0
40
0
40
1
40
1
40
1
40
1
41
1
10
9.01805241585944
20
-11.0138770272819
30
0
41
1
10
9.01380861426972
20
-11.0096886062167
30
0
41
1
10
9.00956478044131
20
-11.0055002726991
30
0
41
1
10
9.0053209127818
20
-11.0013120310623
30
0
0
SPLINE
5
257
100
AcDbEntity
8
1
62
256
6
ByLayer
370
-1
48
1
60
0
100
AcDbSpline
70
4
71
3
72
20
73
16
40
0
40
0
40
0
40
0
40
0.0608143493767791
40
0.0608143493767791
40
0.214919318484037
40
0.214919318484037
40
0.368560674408901
40
0.368560674408901
40
0.521997076637375
40
0.521997076637375
40
0.675334771696693
40
0.675334771696693
40
0.983339870965451
40
0.983339870965451
40
1
40
1
40
1
40
1
41
1
10
9.48403500022434
20
-11.0394242537166
30
0
41
1
10
9.48405863251244
20
-11.0413357145594
30
0
41
1
10
9.48382178957934
20
-11.0431394366322
30
0
41
1
10
9.48218521621354
20
-11.0491776255557
30
0
41
1
10
9.47955834208634
20
-11.0529257468127
30
0
41
1
10
9.47228401302621
20
-11.059507830239
30
0
41
1
10
9.46761730015359
20
-11.0623636216988
30
0
41
1
10
9.45676639429527
20
-11.0674056944698
30
0
41
1
10
9.4505625048229
20
-11.0696005366156
30
0
41
1
10
9.43693802515079
20
-11.0734664207979
30
0
41
1
10
9.42950070200087
20
-11.0751415927104
30
0
41
1
10
9.40560979680927
20
-11.0795170081675
30
0
41
1
10
9.38753808169642
20
-11.0815837656648
30
0
41
1
10
9.36677219030167
20
-11.0829741526945
30
0
41
1
10
9.36569890829458
20
-11.0830434403277
30
0
41
1
10
9.36462065114779
20
-11.0831104880242
30
0
0
SPLINE
5
258
100
AcDbEntity
8
1
62
256
6
ByLayer
370
-1
48
1
60
0
100
AcDbSpline
70
4
71
3
72
22
73
18
40
0
40
0
40
0
40
0
40
0.208266363442717
40
0.208266363442717
40
0.317899168105419
40
0.317899168105419
40
0.427584739861726
40
0.427584739861726
40
0.537377253732829
40
0.537377253732829
40
0.647402228730782
40
0.647402228730782
40
0.81158368050214
40
0.81158368050214
40
0.90663602213134
40
0.90663602213134
40
1
40
1
40
1
40
1
41
1
10
9.36462065114779
20
-11.0831104880242
30
0
41
1
10
9.34581889883913
20
-11.0842796100509
30
0
41
1
10
9.32546004228331
20
-11.0847848041691
30
0
41
1
10
9.29230549912492
20
-11.0843741698793
30
0
41
1
10
9.28045261086544
20
-11.0840140647793
30
0
41
1
10
9.25598624652221
20
-11.082773042424
30
0
41
1
10
9.24334541803373
20
-11.0818912677955
30
0
41
1
10
9.21730999385397
20
-11.0794665537003
30
0
41
1
10
9.20387238772636
20
-11.0779204039562
30
0
41
1
10
9.17628708016306
20
-11.0739399033072
30
0
41
1
10
9.16206097412567
20
-11.0714946186103
30
0
41
1
10
9.12624759604944
20
-11.0639069548867
30
0
41
1
10
9.10374746384647
20
-11.0578865794749
30
0
41
1
10
9.06994635434367
20
-11.0451292528536
30
0
41
1
10
9.0576508911673
20
-11.0396113333945
30
0
41
1
10
9.03582072036508
20
-11.0274957726184
30
0
41
1
10
9.02599507052867
20
-11.020758582958
30
0
41
1
10
9.01805241586013
20
-11.0138770272842
30
0
0
SPLINE
5
259
100
AcDbEntity
8
1
62
256
6
ByLayer
370
-1
48
1
60
0
100
AcDbSpline
70
4
71
3
72
24
73
20
40
0
40
0
40
0
40
0
40
0.104000448201696
40
0.104000448201696
40
0.192499055460887
40
0.192499055460887
40
0.328500518746495
40
0.328500518746495
40
0.438682575665157
40
0.438682575665157
40
0.548533158171587
40
0.548533158171587
40
0.658237202769641
40
0.658237202769641
40
0.76787067366078
40
0.76787067366078
40
0.988088331634143
40
0.988088331634143
40
1
40
1
40
1
40
1
41
1
10
7.23805744678211
20
-10.9981350162074
30
0
41
1
10
7.22672227398436
20
-11.0055771769354
30
0
41
1
10
7.21380015456
20
-11.0128138120924
30
0
41
1
10
7.18956665792331
20
-11.0244544742475
30
0
41
1
10
7.17803001462298
20
-11.029271586984
30
0
41
1
10
7.14984913724928
20
-11.0397141450243
30
0
41
1
10
7.13327756274637
20
-11.0446259001056
30
0
41
1
10
7.10562985748774
20
-11.0515682403223
30
0
41
1
10
7.09387777173379
20
-11.0540261139337
30
0
41
1
10
7.07184637170022
20
-11.0579774282769
30
0
41
1
10
7.06149307420733
20
-11.0594843303922
30
0
41
1
10
7.04205985401111
20
-11.0618058588422
30
0
41
1
10
7.03294404329225
20
-11.0626240528056
30
0
41
1
10
7.01585629864087
20
-11.0637293989099
30
0
41
1
10
7.00786386827278
20
-11.0640173344973
30
0
41
1
10
6.98545353417157
20
-11.0642290364377
30
0
41
1
10
6.97255720902601
20
-11.0635097088376
30
0
41
1
10
6.96116368372449
20
-11.0620056442675
30
0
41
1
10
6.96058366000491
20
-11.0619261256551
30
0
41
1
10
6.96000975288595
20
-11.0618444664634
30
0
0
SPLINE
5
25A
100
AcDbEntity
8
1
62
256
6
ByLayer
370
-1
48
1
60
0
100
AcDbSpline
70
4
71
3
72
14
73
10
40
0
40
0
40
0
40
0
40
0.44743172421027
40
0.44743172421027
40
0.682962772092112
40
0.682962772092112
40
0.918607182839205
40
0.918607182839205
40
1
40
1
40
1
40
1
41
1
10
6.96000975288595
20
-11.0618444664634
30
0
41
1
10
6.95000243734839
20
-11.0604205613204
30
0
41
1
10
6.94180986263612
20
-11.0583548968477
30
0
41
1
10
6.93249667210992
20
-11.0541186421149
30
0
41
1
10
6.92985925048114
20
-11.0524528877844
30
0
41
1
10
6.9259040964223
20
-11.0486502283477
30
0
41
1
10
6.92458156053644
20
-11.0465095678252
30
0
41
1
10
6.92385223741647
20
-11.0432343505461
30
0
41
1
10
6.92375774007874
20
-11.042357895727
30
0
41
1
10
6.92376378234221
20
-11.0414420362039
30
0
0
SPLINE
5
25B
100
AcDbEntity
8
1
62
256
6
ByLayer
370
-1
48
1
60
0
100
AcDbSpline
70
4
71
3
72
10
73
6
40
0
40
0
40
0
40
0
40
0.736240194588488
40
0.736240194588488
40
1
40
1
40
1
40
1
41
1
10
20.776551146797
20
-7.79022047953177
30
0
41
1
10
20.7784896353008
20
-7.80794730528859
30
0
41
1
10
20.7851497504388
20
-7.82607219201088
30
0
41
1
10
20.8032016428419
20
-7.84696992994435
30
0
41
1
10
20.8089346829086
20
-7.85220499319979
30
0
41
1
10
20.8155974118046
20
-7.85678411558555
30
0
0
SPLINE
5
25C
100
AcDbEntity
8
1
62
256
6
ByLayer
370
-1
48
1
60
0
100
AcDbSpline
70
4
71
3
72
14
73
10
40
0
40
0
40
0
40
0
40
0.233926408286268
40
0.233926408286268
40
0.467719442169543
40
0.467719442169543
40
0.701444004412115
40
0.701444004412115
40
1
40
1
40
1
40
1
41
1
10
15.5577514734035
20
-10.9158089055434
30
0
41
1
10
15.5430941767232
20
-10.9156351769736
30
0
41
1
10
15.5277198620162
20
-10.9154803481435
30
0
41
1
10
15.4962325466907
20
-10.9152143446794
30
0
41
1
10
15.4800096964521
20
-10.9151022005025
30
0
41
1
10
15.447284714498
20
-10.9149231095781
30
0
41
1
10
15.4306733146694
20
-10.9148555391938
30
0
41
1
10
15.3930563841546
20
-10.914753508319
30
0
41
1
10
15.3719067463472
20
-10.9147328477355
30
0
41
1
10
15.3513170096238
20
-10.9147482924727
30
0
0
SPLINE
5
25D
100
AcDbEntity
8
1
62
256
6
ByLayer
370
-1
48
1
60
0
100
AcDbSpline
70
4
71
3
72
14
73
10
40
0
40
0
40
0
40
0
40
0.249103078948813
40
0.249103078948813
40
0.498160925944173
40
0.498160925944173
40
0.745586162481411
40
0.745586162481411
40
1
40
1
40
1
40
1
41
1
10
19.6120392675615
20
-4.24841113742932
30
0
41
1
10
19.6210094807564
20
-4.26404561781143
30
0
41
1
10
19.6302456030808
20
-4.27970348133863
30
0
41
1
10
19.6488540524728
20
-4.31041079706688
30
0
41
1
10
19.658290858181
20
-4.32556691206452
30
0
41
1
10
19.6769836691531
20
-4.35477908190748
30
0
41
1
10
19.6863031512497
20
-4.36893971603644
30
0
41
1
10
19.7048344536595
20
-4.39628113536364
30
0
41
1
10
19.7141013242126
20
-4.4095196241642
30
0
41
1
10
19.7230436930951
20
-4.42185137583004
30
0
0
LINE
5
49
100
AcDbEntity
8
1
62
256
6
ByLayer
370
-1
48
1
60
0
100
AcDbLine
10
15.634301
20
-3.457162
30
0
11
15.419255
21
-3.434107
31
0
39
0
210
0
220
0
230
1
0
LINE
5
4B
100
AcDbEntity
8
1
62
256
6
ByLayer
370
-1
48
1
60
0
100
AcDbLine
10
14.838275
20
-8.853051
30
0
11
15.053321
21
-8.876107
31
0
39
0
210
0
220
0
230
1
0
LINE
5
4C
100
AcDbEntity
8
1
62
256
6
ByLayer
370
-1
48
1
60
0
100
AcDbLine
10
14.128246
20
-5.110868
30
0
11
14.375558
21
-5.137383
31
0
39
0
210
0
220
0
230
1
0
LINE
5
4D
100
AcDbEntity
8
1
62
256
6
ByLayer
370
-1
48
1
60
0
100
AcDbLine
10
14.434163
20
-7.192644
30
0
11
14.191719
21
-7.166651
31
0
39
0
210
0
220
0
230
1
0
LINE
5
4E
100
AcDbEntity
8
1
62
256
6
ByLayer
370
-1
48
1
60
0
100
AcDbLine
10
15.970321
20
-5.110269
30
0
11
16.213129
21
-5.136301
31
0
39
0
210
0
220
0
230
1
0
LINE
5
4F
100
AcDbEntity
8
1
62
256
6
ByLayer
370
-1
48
1
60
0
100
AcDbLine
10
16.281016
20
-7.192558
30
0
11
16.033794
21
-7.166052
31
0
39
0
210
0
220
0
230
1
0
LINE
5
50
100
AcDbEntity
8
1
62
256
6
ByLayer
370
-1
48
1
60
0
100
AcDbLine
10
7.761018
20
-10.981399
30
0
11
7.761014
21
-10.968613
31
0
39
0
210
0
220
0
230
1
0
LINE
5
51
100
AcDbEntity
8
1
62
256
6
ByLayer
370
-1
48
1
60
0
100
AcDbLine
10
8.028317
20
-10.208253
30
0
11
8.71705
21
-10.276433
31
0
39
0
210
0
220
0
230
1
0
LINE
5
52
100
AcDbEntity
8
1
62
256
6
ByLayer
370
-1
48
1
60
0
100
AcDbLine
10
11.637534
20
-10.843323
30
0
11
12.392792
21
-10.918088
31
0
39
0
210
0
220
0
230
1
0
LINE
5
53
100
AcDbEntity
8
1
62
256
6
ByLayer
370
-1
48
1
60
0
100
AcDbLine
10
9.795972
20
-10.405317
30
0
11
10.462446
21
-10.471293
31
0
39
0
210
0
220
0
230
1
0
LINE
5
54
100
AcDbEntity
8
1
62
256
6
ByLayer
370
-1
48
1
60
0
100
AcDbLine
10
15.208368
20
1.737137
30
0
11
14.520229
21
1.805258
31
0
39
0
210
0
220
0
230
1
0
LINE
5
55
100
AcDbEntity
8
1
62
256
6
ByLayer
370
-1
48
1
60
0
100
AcDbLine
10
14.620699
20
0.578215
30
0
11
13.954611
21
0.644153
31
0
39
0
210
0
220
0
230
1
0
LINE
5
56
100
AcDbEntity
8
80
62
256
6
ByLayer
370
-1
48
1
60
0
100
AcDbLine
10
0
20
0
30
0
11
-5
21
0
31
0
39
0
210
0
220
0
230
1
0
LINE
5
57
100
AcDbEntity
8
81
62
256
6
ByLayer
370
-1
48
1
60
0
100
AcDbLine
10
23.355801
20
-10.9125
30
0
11
28.355801
21
-10.9125
31
0
39
0
210
0
220
0
230
1
0
LINE
5
58
100
AcDbEntity
8
1
62
256
6
ByLayer
370
-1
48
1
60
0
100
AcDbLine
10
3.416817
20
-10.365407
30
0
11
0.367178
21
-10.304678
31
0
39
0
210
0
220
0
230
1
0
LINE
5
59
100
AcDbEntity
8
1
62
256
6
ByLayer
370
-1
48
1
60
0
100
AcDbLine
10
15.234801
20
1.732581
30
0
11
14.68511
21
2.704719
31
0
39
0
210
0
220
0
230
1
0
LINE
5
5A
100
AcDbEntity
8
1
62
256
6
ByLayer
370
-1
48
1
60
0
100
AcDbLine
10
0
20
9.9375
30
0
11
3.718325
21
9.953724
31
0
39
0
210
0
220
0
230
1
0
LINE
5
5B
100
AcDbEntity
8
1
62
256
6
ByLayer
370
-1
48
1
60
0
100
AcDbLine
10
14.865383
20
3.304451
30
0
11
14.97971
21
3.228002
31
0
39
0
210
0
220
0
230
1
0
LINE
5
5C
100
AcDbEntity
8
1
62
256
6
ByLayer
370
-1
48
1
60
0
100
AcDbLine
10
11.914872
20
-1.852769
30
0
11
11.923878
21
-2.12329
31
0
39
0
210
0
220
0
230
1
0
LINE
5
5D
100
AcDbEntity
8
1
62
256
6
ByLayer
370
-1
48
1
60
0
100
AcDbLine
10
3.718325
20
9.953724
30
0
11
4.923089
21
9.952797
31
0
39
0
210
0
220
0
230
1
0
LINE
5
5E
100
AcDbEntity
8
1
62
256
6
ByLayer
370
-1
48
1
60
0
100
AcDbLine
10
3.416817
20
-10.365407
30
0
11
7.044683
21
-10.365407
31
0
39
0
210
0
220
0
230
1
0
LINE
5
5F
100
AcDbEntity
8
1
62
256
6
ByLayer
370
-1
48
1
60
0
100
AcDbLine
10
11.841552
20
-1.77811
30
0
11
11.914872
21
-1.852769
31
0
39
0
210
0
220
0
230
1
0
LINE
5
60
100
AcDbEntity
8
1
62
256
6
ByLayer
370
-1
48
1
60
0
100
AcDbLine
10
0
20
-9.9375
30
0
11
0
21
9.9375
31
0
39
0
210
0
220
0
230
1
0
LINE
5
61
100
AcDbEntity
8
1
62
256
6
ByLayer
370
-1
48
1
60
0
100
AcDbLine
10
14.865383
20
3.304451
30
0
11
14.06219
21
1.900544
31
0
39
0
210
0
220
0
230
1
0
LINE
5
62
100
AcDbEntity
8
1
62
256
6
ByLayer
370
-1
48
1
60
0
100
AcDbLine
10
3.416817
20
-10.365407
30
0
11
3.718325
21
9.953724
31
0
39
0
210
0
220
0
230
1
0
LINE
5
63
100
AcDbEntity
8
1
62
256
6
ByLayer
370
-1
48
1
60
0
100
AcDbLine
10
14.132738
20
1.738958
30
0
11
14.979321
21
3.21923
31
0
39
0
210
0
220
0
230
1
0
LINE
5
64
100
AcDbEntity
8
1
62
256
6
ByLayer
370
-1
48
1
60
0
100
AcDbLine
10
7.221593
20
-10.345356
30
0
11
7.044683
21
-10.365407
31
0
39
0
210
0
220
0
230
1
0
LINE
5
65
100
AcDbEntity
8
1
62
256
6
ByLayer
370
-1
48
1
60
0
100
AcDbLine
10
0.367178
20
-10.304678
30
0
11
0
21
-9.9375
31
0
39
0
210
0
220
0
230
1
0
LINE
5
66
100
AcDbEntity
8
1
62
256
6
ByLayer
370
-1
48
1
60
0
100
AcDbLine
10
4.923089
20
9.952797
30
0
11
14.865383
21
3.304451
31
0
39
0
210
0
220
0
230
1
0
LINE
5
67
100
AcDbEntity
8
1
62
256
6
ByLayer
370
-1
48
1
60
0
100
AcDbLine
10
11.914872
20
-1.852769
30
0
11
7.044683
21
-10.365407
31
0
39
0
210
0
220
0
230
1
0
LINE
5
68
100
AcDbEntity
8
1
62
256
6
ByLayer
370
-1
48
1
60
0
100
AcDbLine
10
14.979321
20
3.21923
30
0
11
14.97971
21
3.228002
31
0
39
0
210
0
220
0
230
1
0
LINE
5
69
100
AcDbEntity
8
1
62
256
6
ByLayer
370
-1
48
1
60
0
100
AcDbLine
10
7.221593
20
-10.345356
30
0
11
11.923878
21
-2.12329
31
0
39
0
210
0
220
0
230
1
0
LINE
5
6A
100
AcDbEntity
8
SK1
62
256
6
ByLayer
370
-1
48
1
60
0
100
AcDbLine
10
0
20
-9.9375
30
0
11
0
21
9.9375
31
0
39
0
210
0
220
0
230
1
0
LINE
5
6C
100
AcDbEntity
8
1
62
256
6
ByLayer
370
-1
48
1
60
0
100
AcDbLine
10
16.529225
20
-6.533837
30
0
11
16.510149
21
-6.527426
31
0
39
0
210
0
220
0
230
1
0
LINE
5
6D
100
AcDbEntity
8
1
62
256
6
ByLayer
370
-1
48
1
60
0
100
AcDbLine
10
15.459724
20
-7.590585
30
0
11
15.715856
21
-7.618046
31
0
39
0
210
0
220
0
230
1
0
LINE
5
6E
100
AcDbEntity
8
1
62
256
6
ByLayer
370
-1
48
1
60
0
100
AcDbLine
10
16.510149
20
-6.527426
30
0
11
16.766281
21
-6.554887
31
0
39
0
210
0
220
0
230
1
0
LINE
5
6F
100
AcDbEntity
8
1
62
256
6
ByLayer
370
-1
48
1
60
0
100
AcDbLine
10
16.529225
20
-6.533837
30
0
11
16.787402
21
-6.561516
31
0
39
0
210
0
220
0
230
1
0
LINE
5
70
100
AcDbEntity
8
1
62
256
6
ByLayer
370
-1
48
1
60
0
100
AcDbLine
10
16.512663
20
-5.749494
30
0
11
16.531782
21
-5.743084
31
0
39
0
210
0
220
0
230
1
0
LINE
5
71
100
AcDbEntity
8
1
62
256
6
ByLayer
370
-1
48
1
60
0
100
AcDbLine
10
16.512663
20
-5.749494
30
0
11
16.768796
21
-5.776955
31
0
39
0
210
0
220
0
230
1
0
LINE
5
72
100
AcDbEntity
8
1
62
256
6
ByLayer
370
-1
48
1
60
0
100
AcDbLine
10
16.531782
20
-5.743084
30
0
11
16.789958
21
-5.770763
31
0
39
0
210
0
220
0
230
1
0
LINE
5
73
100
AcDbEntity
8
1
62
256
6
ByLayer
370
-1
48
1
60
0
100
AcDbLine
10
15.46374
20
-7.610582
30
0
11
15.721916
21
-7.638262
31
0
39
0
210
0
220
0
230
1
0
LINE
5
74
100
AcDbEntity
8
1
62
256
6
ByLayer
370
-1
48
1
60
0
100
AcDbLine
10
15.469113
20
-4.686335
30
0
11
15.473258
21
-4.666338
31
0
39
0
210
0
220
0
230
1
0
LINE
5
75
100
AcDbEntity
8
1
62
256
6
ByLayer
370
-1
48
1
60
0
100
AcDbLine
10
15.46374
20
-7.610582
30
0
11
15.459724
21
-7.590585
31
0
39
0
210
0
220
0
230
1
0
LINE
5
76
100
AcDbEntity
8
1
62
256
6
ByLayer
370
-1
48
1
60
0
100
AcDbLine
10
14.090483
20
-7.20804
30
0
11
14.286728
21
-7.22908
31
0
39
0
210
0
220
0
230
1
0
LINE
5
77
100
AcDbEntity
8
1
62
256
6
ByLayer
370
-1
48
1
60
0
100
AcDbLine
10
15.469113
20
-4.686335
30
0
11
15.725246
21
-4.713795
31
0
39
0
210
0
220
0
230
1
0
LINE
5
78
100
AcDbEntity
8
1
62
256
6
ByLayer
370
-1
48
1
60
0
100
AcDbLine
10
15.473258
20
-4.666338
30
0
11
15.731435
21
-4.694018
31
0
39
0
210
0
220
0
230
1
0
LINE
5
79
100
AcDbEntity
8
1
62
256
6
ByLayer
370
-1
48
1
60
0
100
AcDbLine
10
14.162875
20
-5.088746
30
0
11
14.293602
21
-5.102761
31
0
39
0
210
0
220
0
230
1
0
LINE
5
7A
100
AcDbEntity
8
1
62
256
6
ByLayer
370
-1
48
1
60
0
100
AcDbLine
10
14.184422
20
-5.079075
30
0
11
14.280673
21
-5.089394
31
0
39
0
210
0
220
0
230
1
0
LINE
5
7B
100
AcDbEntity
8
1
62
256
6
ByLayer
370
-1
48
1
60
0
100
AcDbLine
10
14.115304
20
-7.225902
30
0
11
14.273711
21
-7.242885
31
0
39
0
210
0
220
0
230
1
0
LINE
5
7C
100
AcDbEntity
8
SK1
62
256
6
ByLayer
370
-1
48
1
60
0
100
AcDbLine
10
0
20
-9.9375
30
0
11
-102.994199
21
-9.9375
31
0
39
0
210
0
220
0
230
1
0
LINE
5
7D
100
AcDbEntity
8
1
62
256
6
ByLayer
370
-1
48
1
60
0
100
AcDbLine
10
12.878218
20
0.390084
30
0
11
13.472651
21
0.390084
31
0
39
0
210
0
220
0
230
1
0
LINE
5
7E
100
AcDbEntity
8
1
62
256
6
ByLayer
370
-1
48
1
60
0
100
AcDbLine
10
11.419355
20
-1.027434
30
0
11
12.323793
21
0.554
31
0
39
0
210
0
220
0
230
1
0
LINE
5
7F
100
AcDbEntity
8
1
62
256
6
ByLayer
370
-1
48
1
60
0
100
AcDbLine
10
13.752763
20
0.554
30
0
11
12.323793
21
0.554
31
0
39
0
210
0
220
0
230
1
0
LINE
5
80
100
AcDbEntity
8
1
62
256
6
ByLayer
370
-1
48
1
60
0
100
AcDbLine
10
9.254655
20
-7.080343
30
0
11
9.540734
21
-6.756383
31
0
39
0
210
0
220
0
230
1
0
LINE
5
81
100
AcDbEntity
8
1
62
256
6
ByLayer
370
-1
48
1
60
0
100
AcDbLine
10
10.536578
20
-10.454762
30
0
11
10.742537
21
-10.33167
31
0
39
0
210
0
220
0
230
1
0
LINE
5
82
100
AcDbEntity
8
1
62
256
6
ByLayer
370
-1
48
1
60
0
100
AcDbLine
10
9.838232
20
-10.118046
30
0
11
10.411261
21
-10.454527
31
0
39
0
210
0
220
0
230
1
0
LINE
5
83
100
AcDbEntity
8
1
62
256
6
ByLayer
370
-1
48
1
60
0
100
AcDbLine
10
9.767264
20
-9.964136
30
0
11
9.773417
21
-10.017576
31
0
39
0
210
0
220
0
230
1
0
LINE
5
84
100
AcDbEntity
8
1
62
256
6
ByLayer
370
-1
48
1
60
0
100
AcDbLine
10
9.653243
20
-9.834772
30
0
11
9.702448
21
-9.863665
31
0
39
0
210
0
220
0
230
1
0
LINE
5
85
100
AcDbEntity
8
1
62
256
6
ByLayer
370
-1
48
1
60
0
100
AcDbLine
10
8.831099
20
-10.251001
30
0
11
9.527926
21
-9.834537
31
0
39
0
210
0
220
0
230
1
0
LINE
5
86
100
AcDbEntity
8
1
62
256
6
ByLayer
370
-1
48
1
60
0
100
AcDbLine
10
8.617133
20
-10.238209
30
0
11
8.638303
21
-10.250639
31
0
39
0
210
0
220
0
230
1
0
LINE
5
87
100
AcDbEntity
8
1
62
256
6
ByLayer
370
-1
48
1
60
0
100
AcDbLine
10
8.493049
20
-8.403409
30
0
11
8.816978
21
-7.797281
31
0
39
0
210
0
220
0
230
1
0
LINE
5
88
100
AcDbEntity
8
1
62
256
6
ByLayer
370
-1
48
1
60
0
100
AcDbLine
10
8.46946
20
-8.505031
30
0
11
8.516144
21
-10.06606
31
0
39
0
210
0
220
0
230
1
0
LINE
5
89
100
AcDbEntity
8
1
62
256
6
ByLayer
370
-1
48
1
60
0
100
AcDbLine
10
9.628763
20
-6.625952
30
0
11
10.960109
21
-4.29699
31
0
39
0
210
0
220
0
230
1
0
LINE
5
8A
100
AcDbEntity
8
1
62
256
6
ByLayer
370
-1
48
1
60
0
100
AcDbLine
10
14.342303
20
-10.919031
30
0
11
12.411897
21
-10.919031
31
0
39
0
210
0
220
0
230
1
0
LINE
5
8B
100
AcDbEntity
8
1
62
256
6
ByLayer
370
-1
48
1
60
0
100
AcDbLine
10
11.64632
20
-10.500475
30
0
11
12.313497
21
-10.89224
31
0
39
0
210
0
220
0
230
1
0
LINE
5
8C
100
AcDbEntity
8
1
62
256
6
ByLayer
370
-1
48
1
60
0
100
AcDbLine
10
8.941366
20
-8.625594
30
0
11
9.349048
21
-8.622151
31
0
39
0
210
0
220
0
230
1
0
LINE
5
8D
100
AcDbEntity
8
1
62
256
6
ByLayer
370
-1
48
1
60
0
100
AcDbLine
10
9.570767
20
-8.752344
30
0
11
9.780894
21
-9.118563
31
0
39
0
210
0
220
0
230
1
0
LINE
5
8E
100
AcDbEntity
8
1
62
256
6
ByLayer
370
-1
48
1
60
0
100
AcDbLine
10
8.577617
20
-8.879536
30
0
11
8.609872
21
-9.958097
31
0
39
0
210
0
220
0
230
1
0
LINE
5
8F
100
AcDbEntity
8
1
62
256
6
ByLayer
370
-1
48
1
60
0
100
AcDbLine
10
8.869979
20
-10.110831
30
0
11
9.764283
21
-9.576343
31
0
39
0
210
0
220
0
230
1
0
LINE
5
90
100
AcDbEntity
8
1
62
256
6
ByLayer
370
-1
48
1
60
0
100
AcDbLine
10
15.064625
20
-9.56049
30
0
11
14.463878
21
-9.712447
31
0
39
0
210
0
220
0
230
1
0
LINE
5
91
100
AcDbEntity
8
1
62
256
6
ByLayer
370
-1
48
1
60
0
100
AcDbLine
10
14.412456
20
-10.330912
30
0
11
14.432251
21
-10.91841
31
0
39
0
210
0
220
0
230
1
0
LINE
5
92
100
AcDbEntity
8
1
62
256
6
ByLayer
370
-1
48
1
60
0
100
AcDbLine
10
11.426355
20
-10.377536
30
0
11
9.540734
21
-6.756383
31
0
39
0
210
0
220
0
230
1
0
LINE
5
93
100
AcDbEntity
8
1
62
256
6
ByLayer
370
-1
48
1
60
0
100
AcDbLine
10
11.007547
20
-4.202411
30
0
11
11.916523
21
-4.269106
31
0
39
0
210
0
220
0
230
1
0
LINE
5
94
100
AcDbEntity
8
1
62
256
6
ByLayer
370
-1
48
1
60
0
100
AcDbLine
10
11.915575
20
-4.367096
30
0
11
10.960109
21
-4.29699
31
0
39
0
210
0
220
0
230
1
0
LINE
5
95
100
AcDbEntity
8
1
62
256
6
ByLayer
370
-1
48
1
60
0
100
AcDbLine
10
9.628763
20
-6.625952
30
0
11
11.64632
21
-10.500475
31
0
39
0
210
0
220
0
230
1
0
LINE
5
96
100
AcDbEntity
8
1
62
256
6
ByLayer
370
-1
48
1
60
0
100
AcDbLine
10
14.342303
20
-10.919031
30
0
11
14.32263
21
-10.335166
31
0
39
0
210
0
220
0
230
1
0
LINE
5
97
100
AcDbEntity
8
1
62
256
6
ByLayer
370
-1
48
1
60
0
100
AcDbLine
10
14.458143
20
-9.687216
30
0
11
15.058891
21
-9.535259
31
0
39
0
210
0
220
0
230
1
0
LINE
5
98
100
AcDbEntity
8
1
62
256
6
ByLayer
370
-1
48
1
60
0
100
AcDbLine
10
9.254655
20
-7.080343
30
0
11
9.724902
21
-7.983408
31
0
39
0
210
0
220
0
230
1
0
LINE
5
99
100
AcDbEntity
8
1
62
256
6
ByLayer
370
-1
48
1
60
0
100
AcDbLine
10
9.724902
20
-7.983408
30
0
11
11.062236
21
-10.200447
31
0
39
0
210
0
220
0
230
1
0
LINE
5
9A
100
AcDbEntity
8
1
62
256
6
ByLayer
370
-1
48
1
60
0
100
AcDbLine
10
9.431407
20
-8.158072
30
0
11
8.816978
21
-7.797281
31
0
39
0
210
0
220
0
230
1
0
LINE
5
9B
100
AcDbEntity
8
1
62
256
6
ByLayer
370
-1
48
1
60
0
100
AcDbLine
10
10.742537
20
-10.33167
30
0
11
9.431407
21
-8.158072
31
0
39
0
210
0
220
0
230
1
0
LINE
5
9C
100
AcDbEntity
8
1
62
256
6
ByLayer
370
-1
48
1
60
0
100
AcDbLine
10
8.843639
20
-7.749081
30
0
11
9.458068
21
-8.109873
31
0
39
0
210
0
220
0
230
1
0
LINE
5
9D
100
AcDbEntity
8
1
62
256
6
ByLayer
370
-1
48
1
60
0
100
AcDbLine
10
9.458068
20
-8.109873
30
0
11
9.06686
21
-7.358595
31
0
39
0
210
0
220
0
230
1
0
LINE
5
9E
100
AcDbEntity
8
1
62
256
6
ByLayer
370
-1
48
1
60
0
100
AcDbLine
10
14.718501
20
-10.915223
30
0
11
14.463878
21
-9.712447
31
0
39
0
210
0
220
0
230
1
0
LINE
5
9F
100
AcDbEntity
8
1
62
256
6
ByLayer
370
-1
48
1
60
0
100
AcDbLine
10
14.536439
20
-10.916575
30
0
11
14.412456
21
-10.330912
31
0
39
0
210
0
220
0
230
1
0
LINE
5
A0
100
AcDbEntity
8
1
62
256
6
ByLayer
370
-1
48
1
60
0
100
AcDbLine
10
15.268496
20
-10.523523
30
0
11
15.064625
21
-9.56049
31
0
39
0
210
0
220
0
230
1
0
LINE
5
A1
100
AcDbEntity
8
1
62
256
6
ByLayer
370
-1
48
1
60
0
100
AcDbLine
10
11.078374
20
-4.029942
30
0
11
11.916523
21
-4.269106
31
0
39
0
210
0
220
0
230
1
0
LINE
5
A2
100
AcDbEntity
8
1
62
256
6
ByLayer
370
-1
48
1
60
0
100
AcDbLine
10
11.166034
20
-3.856793
30
0
11
11.561032
21
-3.969505
31
0
39
0
210
0
220
0
230
1
0
LINE
5
A3
100
AcDbEntity
8
1
62
256
6
ByLayer
370
-1
48
1
60
0
100
AcDbLine
10
8.942869
20
-9.613039
30
0
11
9.53917
21
-9.256655
31
0
39
0
210
0
220
0
230
1
0
LINE
5
A4
100
AcDbEntity
8
1
62
256
6
ByLayer
370
-1
48
1
60
0
100
AcDbLine
10
8.921362
20
-8.893879
30
0
11
8.942869
21
-9.613039
31
0
39
0
210
0
220
0
230
1
0
LINE
5
A5
100
AcDbEntity
8
1
62
256
6
ByLayer
370
-1
48
1
60
0
100
AcDbLine
10
8.691371
20
-9.90869
30
0
11
8.838956
21
-9.60981
31
0
39
0
210
0
220
0
230
1
0
LINE
5
A6
100
AcDbEntity
8
1
62
256
6
ByLayer
370
-1
48
1
60
0
100
AcDbLine
10
8.838956
20
-9.60981
30
0
11
8.817449
21
-8.89065
31
0
39
0
210
0
220
0
230
1
0
LINE
5
A7
100
AcDbEntity
8
1
62
256
6
ByLayer
370
-1
48
1
60
0
100
AcDbLine
10
9.005392
20
-9.707541
30
0
11
8.857808
21
-10.006421
31
0
39
0
210
0
220
0
230
1
0
LINE
5
A8
100
AcDbEntity
8
1
62
256
6
ByLayer
370
-1
48
1
60
0
100
AcDbLine
10
9.601694
20
-9.351156
30
0
11
9.005392
21
-9.707541
31
0
39
0
210
0
220
0
230
1
0
LINE
5
A9
100
AcDbEntity
8
1
62
256
6
ByLayer
370
-1
48
1
60
0
100
AcDbLine
10
8.857808
20
-10.006421
30
0
11
8.869979
21
-10.110831
31
0
39
0
210
0
220
0
230
1
0
LINE
5
AA
100
AcDbEntity
8
1
62
256
6
ByLayer
370
-1
48
1
60
0
100
AcDbLine
10
8.609872
20
-9.958097
30
0
11
8.691371
21
-9.90869
31
0
39
0
210
0
220
0
230
1
0
LINE
5
AB
100
AcDbEntity
8
1
62
256
6
ByLayer
370
-1
48
1
60
0
100
AcDbLine
10
8.817449
20
-8.89065
30
0
11
8.577617
21
-8.879536
31
0
39
0
210
0
220
0
230
1
0
LINE
5
AC
100
AcDbEntity
8
1
62
256
6
ByLayer
370
-1
48
1
60
0
100
AcDbLine
10
9.53917
20
-9.256655
30
0
11
9.329043
21
-8.890436
31
0
39
0
210
0
220
0
230
1
0
LINE
5
AD
100
AcDbEntity
8
1
62
256
6
ByLayer
370
-1
48
1
60
0
100
AcDbLine
10
9.329043
20
-8.890436
30
0
11
8.921362
21
-8.893879
31
0
39
0
210
0
220
0
230
1
0
LINE
5
AE
100
AcDbEntity
8
1
62
256
6
ByLayer
370
-1
48
1
60
0
100
AcDbLine
10
9.764283
20
-9.576343
30
0
11
9.601694
21
-9.351156
31
0
39
0
210
0
220
0
230
1
0
LINE
5
AF
100
AcDbEntity
8
1
62
256
6
ByLayer
370
-1
48
1
60
0
100
AcDbLine
10
17.398016
20
-0.450902
30
0
11
17.682105
21
-0.793766
31
0
39
0
210
0
220
0
230
1
0
LINE
5
B0
100
AcDbEntity
8
1
62
256
6
ByLayer
370
-1
48
1
60
0
100
AcDbLine
10
13.903611
20
0.113353
30
0
11
13.894704
21
-0.133744
31
0
39
0
210
0
220
0
230
1
0
LINE
5
B1
100
AcDbEntity
8
1
62
256
6
ByLayer
370
-1
48
1
60
0
100
AcDbLine
10
14.544958
20
0.561341
30
0
11
13.969921
21
0.22486
31
0
39
0
210
0
220
0
230
1
0
LINE
5
B2
100
AcDbEntity
8
1
62
256
6
ByLayer
370
-1
48
1
60
0
100
AcDbLine
10
14.707138
20
0.544988
30
0
11
14.660582
21
0.567135
31
0
39
0
210
0
220
0
230
1
0
LINE
5
B3
100
AcDbEntity
8
1
62
256
6
ByLayer
370
-1
48
1
60
0
100
AcDbLine
10
14.872138
20
0.579676
30
0
11
14.822761
21
0.550783
31
0
39
0
210
0
220
0
230
1
0
LINE
5
B4
100
AcDbEntity
8
1
62
256
6
ByLayer
370
-1
48
1
60
0
100
AcDbLine
10
14.968585
20
1.527197
30
0
11
14.938448
21
0.691183
31
0
39
0
210
0
220
0
230
1
0
LINE
5
B5
100
AcDbEntity
8
1
62
256
6
ByLayer
370
-1
48
1
60
0
100
AcDbLine
10
15.091845
20
1.711177
30
0
11
15.070601
21
1.698746
31
0
39
0
210
0
220
0
230
1
0
LINE
5
B6
100
AcDbEntity
8
1
62
256
6
ByLayer
370
-1
48
1
60
0
100
AcDbLine
10
16.644312
20
0.873153
30
0
11
16.964635
21
0.271253
31
0
39
0
210
0
220
0
230
1
0
LINE
5
B7
100
AcDbEntity
8
1
62
256
6
ByLayer
370
-1
48
1
60
0
100
AcDbLine
10
16.574399
20
0.946702
30
0
11
15.284645
21
1.712138
31
0
39
0
210
0
220
0
230
1
0
LINE
5
B8
100
AcDbEntity
8
1
62
256
6
ByLayer
370
-1
48
1
60
0
100
AcDbLine
10
17.769347
20
-0.926721
30
0
11
19.08679
21
-3.255683
31
0
39
0
210
0
220
0
230
1
0
LINE
5
B9
100
AcDbEntity
8
1
62
256
6
ByLayer
370
-1
48
1
60
0
100
AcDbLine
10
11.7382
20
-2.935854
30
0
11
12.708469
21
-1.238535
31
0
39
0
210
0
220
0
230
1
0
LINE
5
BA
100
AcDbEntity
8
1
62
256
6
ByLayer
370
-1
48
1
60
0
100
AcDbLine
10
13.450296
20
-0.773576
30
0
11
12.78078
21
-1.165341
31
0
39
0
210
0
220
0
230
1
0
LINE
5
BB
100
AcDbEntity
8
1
62
256
6
ByLayer
370
-1
48
1
60
0
100
AcDbLine
10
16.227706
20
0.588673
30
0
11
16.015397
21
0.223743
31
0
39
0
210
0
220
0
230
1
0
LINE
5
BC
100
AcDbEntity
8
1
62
256
6
ByLayer
370
-1
48
1
60
0
100
AcDbLine
10
15.7929
20
0.09355
30
0
11
15.385234
21
0.095704
31
0
39
0
210
0
220
0
230
1
0
LINE
5
BD
100
AcDbEntity
8
1
62
256
6
ByLayer
370
-1
48
1
60
0
100
AcDbLine
10
16.21382
20
1.043971
30
0
11
15.32269
21
1.572833
31
0
39
0
210
0
220
0
230
1
0
LINE
5
BE
100
AcDbEntity
8
1
62
256
6
ByLayer
370
-1
48
1
60
0
100
AcDbLine
10
15.061671
20
1.420099
30
0
11
15.022994
21
0.347163
31
0
39
0
210
0
220
0
230
1
0
LINE
5
BF
100
AcDbEntity
8
1
62
256
6
ByLayer
370
-1
48
1
60
0
100
AcDbLine
10
12.533354
20
-4.246954
30
0
11
12.705685
21
-3.643164
31
0
39
0
210
0
220
0
230
1
0
LINE
5
C0
100
AcDbEntity
8
1
62
256
6
ByLayer
370
-1
48
1
60
0
100
AcDbLine
10
12.194651
20
-3.294638
30
0
11
11.683564
21
-3.019836
31
0
39
0
210
0
220
0
230
1
0
LINE
5
C1
100
AcDbEntity
8
1
62
256
6
ByLayer
370
-1
48
1
60
0
100
AcDbLine
10
13.645493
20
-0.650636
30
0
11
17.682105
21
-0.793766
31
0
39
0
210
0
220
0
230
1
0
LINE
5
C2
100
AcDbEntity
8
1
62
256
6
ByLayer
370
-1
48
1
60
0
100
AcDbLine
10
19.133668
20
-3.34902
30
0
11
18.619904
21
-4.115069
31
0
39
0
210
0
220
0
230
1
0
LINE
5
C3
100
AcDbEntity
8
1
62
256
6
ByLayer
370
-1
48
1
60
0
100
AcDbLine
10
18.546749
20
-4.060913
30
0
11
19.08679
21
-3.255683
31
0
39
0
210
0
220
0
230
1
0
LINE
5
C4
100
AcDbEntity
8
1
62
256
6
ByLayer
370
-1
48
1
60
0
100
AcDbLine
10
17.769347
20
-0.926721
30
0
11
13.450296
21
-0.773576
31
0
39
0
210
0
220
0
230
1
0
LINE
5
C5
100
AcDbEntity
8
1
62
256
6
ByLayer
370
-1
48
1
60
0
100
AcDbLine
10
11.7382
20
-2.935854
30
0
11
12.246126
21
-3.208957
31
0
39
0
210
0
220
0
230
1
0
LINE
5
C6
100
AcDbEntity
8
1
62
256
6
ByLayer
370
-1
48
1
60
0
100
AcDbLine
10
12.730717
20
-3.650382
30
0
11
12.558386
21
-4.254172
31
0
39
0
210
0
220
0
230
1
0
LINE
5
C7
100
AcDbEntity
8
1
62
256
6
ByLayer
370
-1
48
1
60
0
100
AcDbLine
10
17.398016
20
-0.450902
30
0
11
16.391342
21
-0.415207
31
0
39
0
210
0
220
0
230
1
0
LINE
5
C8
100
AcDbEntity
8
1
62
256
6
ByLayer
370
-1
48
1
60
0
100
AcDbLine
10
16.391342
20
-0.415207
30
0
11
13.888961
21
-0.460296
31
0
39
0
210
0
220
0
230
1
0
LINE
5
C9
100
AcDbEntity
8
1
62
256
6
ByLayer
370
-1
48
1
60
0
100
AcDbLine
10
16.348051
20
-0.089538
30
0
11
16.964635
21
0.271253
31
0
39
0
210
0
220
0
230
1
0
LINE
5
CA
100
AcDbEntity
8
1
62
256
6
ByLayer
370
-1
48
1
60
0
100
AcDbLine
10
13.894704
20
-0.133744
30
0
11
16.348051
21
-0.089538
31
0
39
0
210
0
220
0
230
1
0
LINE
5
CB
100
AcDbEntity
8
1
62
256
6
ByLayer
370
-1
48
1
60
0
100
AcDbLine
10
16.991009
20
0.223221
30
0
11
16.374425
21
-0.137571
31
0
39
0
210
0
220
0
230
1
0
LINE
5
CC
100
AcDbEntity
8
1
62
256
6
ByLayer
370
-1
48
1
60
0
100
AcDbLine
10
16.374425
20
-0.137571
30
0
11
17.211898
21
-0.167266
31
0
39
0
210
0
220
0
230
1
0
LINE
5
CD
100
AcDbEntity
8
1
62
256
6
ByLayer
370
-1
48
1
60
0
100
AcDbLine
10
11.491308
20
-3.296645
30
0
11
12.705685
21
-3.643164
31
0
39
0
210
0
220
0
230
1
0
LINE
5
CE
100
AcDbEntity
8
1
62
256
6
ByLayer
370
-1
48
1
60
0
100
AcDbLine
10
11.603339
20
-3.125909
30
0
11
12.194651
21
-3.294638
31
0
39
0
210
0
220
0
230
1
0
LINE
5
CF
100
AcDbEntity
8
1
62
256
6
ByLayer
370
-1
48
1
60
0
100
AcDbLine
10
11.561032
20
-3.969505
30
0
11
12.533354
21
-4.246954
31
0
39
0
210
0
220
0
230
1
0
LINE
5
D0
100
AcDbEntity
8
1
62
256
6
ByLayer
370
-1
48
1
60
0
100
AcDbLine
10
19.20348
20
-3.516286
30
0
11
18.619904
21
-4.115069
31
0
39
0
210
0
220
0
230
1
0
LINE
5
D1
100
AcDbEntity
8
1
62
256
6
ByLayer
370
-1
48
1
60
0
100
AcDbLine
10
19.290112
20
-3.687314
30
0
11
19.015088
21
-3.969505
31
0
39
0
210
0
220
0
230
1
0
LINE
5
D2
100
AcDbEntity
8
1
62
256
6
ByLayer
370
-1
48
1
60
0
100
AcDbLine
10
15.39263
20
1.082155
30
0
11
15.36684
21
0.366746
31
0
39
0
210
0
220
0
230
1
0
LINE
5
D3
100
AcDbEntity
8
1
62
256
6
ByLayer
370
-1
48
1
60
0
100
AcDbLine
10
15.986814
20
0.729522
30
0
11
15.39263
21
1.082155
31
0
39
0
210
0
220
0
230
1
0
LINE
5
D4
100
AcDbEntity
8
1
62
256
6
ByLayer
370
-1
48
1
60
0
100
AcDbLine
10
15.309901
20
1.470166
30
0
11
15.455714
21
1.175645
31
0
39
0
210
0
220
0
230
1
0
LINE
5
D5
100
AcDbEntity
8
1
62
256
6
ByLayer
370
-1
48
1
60
0
100
AcDbLine
10
15.455714
20
1.175645
30
0
11
16.049899
21
0.823013
31
0
39
0
210
0
220
0
230
1
0
LINE
5
D6
100
AcDbEntity
8
1
62
256
6
ByLayer
370
-1
48
1
60
0
100
AcDbLine
10
15.288695
20
1.077915
30
0
11
15.142881
21
1.372435
31
0
39
0
210
0
220
0
230
1
0
LINE
5
D7
100
AcDbEntity
8
1
62
256
6
ByLayer
370
-1
48
1
60
0
100
AcDbLine
10
15.262905
20
0.362506
30
0
11
15.288695
21
1.077915
31
0
39
0
210
0
220
0
230
1
0
LINE
5
D8
100
AcDbEntity
8
1
62
256
6
ByLayer
370
-1
48
1
60
0
100
AcDbLine
10
15.142881
20
1.372435
30
0
11
15.061671
21
1.420099
31
0
39
0
210
0
220
0
230
1
0
LINE
5
D9
100
AcDbEntity
8
1
62
256
6
ByLayer
370
-1
48
1
60
0
100
AcDbLine
10
15.32269
20
1.572833
30
0
11
15.309901
21
1.470166
31
0
39
0
210
0
220
0
230
1
0
LINE
5
DA
100
AcDbEntity
8
1
62
256
6
ByLayer
370
-1
48
1
60
0
100
AcDbLine
10
16.049899
20
0.823013
30
0
11
16.21382
21
1.043971
31
0
39
0
210
0
220
0
230
1
0
LINE
5
DB
100
AcDbEntity
8
1
62
256
6
ByLayer
370
-1
48
1
60
0
100
AcDbLine
10
15.36684
20
0.366746
30
0
11
15.774505
21
0.364592
31
0
39
0
210
0
220
0
230
1
0
LINE
5
DC
100
AcDbEntity
8
1
62
256
6
ByLayer
370
-1
48
1
60
0
100
AcDbLine
10
15.774505
20
0.364592
30
0
11
15.986814
21
0.729522
31
0
39
0
210
0
220
0
230
1
0
LINE
5
DD
100
AcDbEntity
8
1
62
256
6
ByLayer
370
-1
48
1
60
0
100
AcDbLine
10
15.022994
20
0.347163
30
0
11
15.262905
21
0.362506
31
0
39
0
210
0
220
0
230
1
0
LINE
5
DE
100
AcDbEntity
8
1
62
256
6
ByLayer
370
-1
48
1
60
0
100
AcDbLine
10
14.536439
20
-10.916575
30
0
11
14.432251
21
-10.91841
31
0
39
0
210
0
220
0
230
1
0
LINE
5
DF
100
AcDbEntity
8
1
62
256
6
ByLayer
370
-1
48
1
60
0
100
AcDbLine
10
9.06686
20
-7.358595
30
0
11
8.843639
21
-7.749081
31
0
39
0
210
0
220
0
230
1
0
LINE
5
E0
100
AcDbEntity
8
1
62
256
6
ByLayer
370
-1
48
1
60
0
100
AcDbLine
10
11.007547
20
-4.202411
30
0
11
11.078374
21
-4.029942
31
0
39
0
210
0
220
0
230
1
0
LINE
5
E1
100
AcDbEntity
8
1
62
256
6
ByLayer
370
-1
48
1
60
0
100
AcDbLine
10
11.112142
20
-10.216651
30
0
11
11.426355
21
-10.377536
31
0
39
0
210
0
220
0
230
1
0
LINE
5
E2
100
AcDbEntity
8
1
62
256
6
ByLayer
370
-1
48
1
60
0
100
AcDbLine
10
7.927852
20
-10.169975
30
0
11
7.949022
21
-10.182406
31
0
39
0
210
0
220
0
230
1
0
LINE
5
E3
100
AcDbEntity
8
1
62
256
6
ByLayer
370
-1
48
1
60
0
100
AcDbLine
10
10.736778
20
-10.335115
30
0
11
11.558239
21
-10.817475
31
0
39
0
210
0
220
0
230
1
0
LINE
5
E4
100
AcDbEntity
8
1
62
256
6
ByLayer
370
-1
48
1
60
0
100
AcDbLine
10
9.171402
20
-10.052035
30
0
11
9.74443
21
-10.388516
31
0
39
0
210
0
220
0
230
1
0
LINE
5
E5
100
AcDbEntity
8
1
62
256
6
ByLayer
370
-1
48
1
60
0
100
AcDbLine
10
9.167743
20
-10.049802
30
0
11
9.171402
21
-10.052035
31
0
39
0
210
0
220
0
230
1
0
LINE
5
E6
100
AcDbEntity
8
1
62
256
6
ByLayer
370
-1
48
1
60
0
100
AcDbLine
10
11.953211
20
-1.16377
30
0
11
12.708469
21
-1.238535
31
0
39
0
210
0
220
0
230
1
0
LINE
5
E7
100
AcDbEntity
8
1
62
256
6
ByLayer
370
-1
48
1
60
0
100
AcDbLine
10
12.78078
20
-1.165341
30
0
11
12.025522
21
-1.090576
31
0
39
0
210
0
220
0
230
1
0
LINE
5
E8
100
AcDbEntity
8
1
62
256
6
ByLayer
370
-1
48
1
60
0
100
AcDbLine
10
18.959891
20
-10.908317
30
0
11
18.676177
21
-10.917769
31
0
39
0
210
0
220
0
230
1
0
LINE
5
E9
100
AcDbEntity
8
1
62
256
6
ByLayer
370
-1
48
1
60
0
100
AcDbLine
10
21.225885
20
-8.10345
30
0
11
21.009201
21
-7.977502
31
0
39
0
210
0
220
0
230
1
0
LINE
5
EA
100
AcDbEntity
8
1
62
256
6
ByLayer
370
-1
48
1
60
0
100
AcDbLine
10
21.288784
20
-8.888738
30
0
11
21.290793
21
-8.215776
31
0
39
0
210
0
220
0
230
1
0
LINE
5
EB
100
AcDbEntity
8
1
62
256
6
ByLayer
370
-1
48
1
60
0
100
AcDbLine
10
21.188544
20
-9.025402
30
0
11
21.232956
21
-8.994506
31
0
39
0
210
0
220
0
230
1
0
LINE
5
EC
100
AcDbEntity
8
1
62
256
6
ByLayer
370
-1
48
1
60
0
100
AcDbLine
10
21.132543
20
-9.188956
30
0
11
21.132715
21
-9.13117
31
0
39
0
210
0
220
0
230
1
0
LINE
5
ED
100
AcDbEntity
8
1
62
256
6
ByLayer
370
-1
48
1
60
0
100
AcDbLine
10
21.930565
20
-9.727407
30
0
11
21.197451
21
-9.301282
31
0
39
0
210
0
220
0
230
1
0
LINE
5
EE
100
AcDbEntity
8
1
62
256
6
ByLayer
370
-1
48
1
60
0
100
AcDbLine
10
22.03035
20
-9.925078
30
0
11
22.030424
21
-9.900217
31
0
39
0
210
0
220
0
230
1
0
LINE
5
EF
100
AcDbEntity
8
1
62
256
6
ByLayer
370
-1
48
1
60
0
100
AcDbLine
10
20.460217
20
-10.907823
30
0
11
19.7519
21
-10.905709
31
0
39
0
210
0
220
0
230
1
0
LINE
5
F0
100
AcDbEntity
8
1
62
256
6
ByLayer
370
-1
48
1
60
0
100
AcDbLine
10
20.563009
20
-10.880669
30
0
11
21.92946
21
-10.097289
31
0
39
0
210
0
220
0
230
1
0
LINE
5
F1
100
AcDbEntity
8
1
62
256
6
ByLayer
370
-1
48
1
60
0
100
AcDbLine
10
18.539147
20
-10.919031
30
0
11
15.890358
21
-10.919031
31
0
39
0
210
0
220
0
230
1
0
LINE
5
F2
100
AcDbEntity
8
1
62
256
6
ByLayer
370
-1
48
1
60
0
100
AcDbLine
10
19.856755
20
-4.616819
30
0
11
20.816891
21
-6.314138
31
0
39
0
210
0
220
0
230
1
0
LINE
5
F3
100
AcDbEntity
8
1
62
256
6
ByLayer
370
-1
48
1
60
0
100
AcDbLine
10
20.840641
20
-7.197653
30
0
11
20.84298
21
-6.414123
31
0
39
0
210
0
220
0
230
1
0
LINE
5
F4
100
AcDbEntity
8
1
62
256
6
ByLayer
370
-1
48
1
60
0
100
AcDbLine
10
20.425203
20
-10.40083
30
0
11
20.210294
21
-10.03741
31
0
39
0
210
0
220
0
230
1
0
LINE
5
F5
100
AcDbEntity
8
1
62
256
6
ByLayer
370
-1
48
1
60
0
100
AcDbLine
10
20.211072
20
-9.777023
30
0
11
20.428146
21
-9.414892
31
0
39
0
210
0
220
0
230
1
0
LINE
5
F6
100
AcDbEntity
8
1
62
256
6
ByLayer
370
-1
48
1
60
0
100
AcDbLine
10
20.840451
20
-10.60591
30
0
11
21.784573
21
-10.06465
31
0
39
0
210
0
220
0
230
1
0
LINE
5
F7
100
AcDbEntity
8
1
62
256
6
ByLayer
370
-1
48
1
60
0
100
AcDbLine
10
21.785485
20
-9.759181
30
0
11
20.844611
21
-9.212295
31
0
39
0
210
0
220
0
230
1
0
LINE
5
F8
100
AcDbEntity
8
1
62
256
6
ByLayer
370
-1
48
1
60
0
100
AcDbLine
10
18.338091
20
-4.664142
30
0
11
18.766508
21
-5.115976
31
0
39
0
210
0
220
0
230
1
0
LINE
5
F9
100
AcDbEntity
8
1
62
256
6
ByLayer
370
-1
48
1
60
0
100
AcDbLine
10
19.311333
20
-4.844291
30
0
11
19.802624
21
-4.531595
31
0
39
0
210
0
220
0
230
1
0
LINE
5
FA
100
AcDbEntity
8
1
62
256
6
ByLayer
370
-1
48
1
60
0
100
AcDbLine
10
20.827168
20
-7.439746
30
0
11
18.676177
21
-10.917769
31
0
39
0
210
0
220
0
230
1
0
LINE
5
FB
100
AcDbEntity
8
1
62
256
6
ByLayer
370
-1
48
1
60
0
100
AcDbLine
10
15.777225
20
-10.91841
30
0
11
15.382013
21
-10.085667
31
0
39
0
210
0
220
0
230
1
0
LINE
5
FC
100
AcDbEntity
8
1
62
256
6
ByLayer
370
-1
48
1
60
0
100
AcDbLine
10
15.474933
20
-10.043696
30
0
11
15.890358
21
-10.919031
31
0
39
0
210
0
220
0
230
1
0
LINE
5
FD
100
AcDbEntity
8
1
62
256
6
ByLayer
370
-1
48
1
60
0
100
AcDbLine
10
18.539147
20
-10.919031
30
0
11
20.840641
21
-7.197653
31
0
39
0
210
0
220
0
230
1
0
LINE
5
FE
100
AcDbEntity
8
1
62
256
6
ByLayer
370
-1
48
1
60
0
100
AcDbLine
10
19.856755
20
-4.616819
30
0
11
19.368501
21
-4.927581
31
0
39
0
210
0
220
0
230
1
0
LINE
5
FF
100
AcDbEntity
8
1
62
256
6
ByLayer
370
-1
48
1
60
0
100
AcDbLine
10
18.748397
20
-5.134106
30
0
11
18.319981
21
-4.682273
31
0
39
0
210
0
220
0
230
1
0
LINE
5
100
100
AcDbEntity
8
1
62
256
6
ByLayer
370
-1
48
1
60
0
100
AcDbLine
10
18.959891
20
-10.908317
30
0
11
19.496318
21
-10.040947
31
0
39
0
210
0
220
0
230
1
0
LINE
5
101
100
AcDbEntity
8
1
62
256
6
ByLayer
370
-1
48
1
60
0
100
AcDbLine
10
19.496318
20
-10.040947
30
0
11
20.776551
21
-7.79022
31
0
39
0
210
0
220
0
230
1
0
LINE
5
102
100
AcDbEntity
8
1
62
256
6
ByLayer
370
-1
48
1
60
0
100
AcDbLine
10
19.754054
20
-10.184126
30
0
11
19.7519
21
-10.905709
31
0
39
0
210
0
220
0
230
1
0
LINE
5
103
100
AcDbEntity
8
1
62
256
6
ByLayer
370
-1
48
1
60
0
100
AcDbLine
10
21.009201
20
-7.977502
30
0
11
19.754054
21
-10.184126
31
0
39
0
210
0
220
0
230
1
0
LINE
5
104
100
AcDbEntity
8
1
62
256
6
ByLayer
370
-1
48
1
60
0
100
AcDbLine
10
19.696333
20
-10.905625
30
0
11
19.698487
21
-10.184042
31
0
39
0
210
0
220
0
230
1
0
LINE
5
105
100
AcDbEntity
8
1
62
256
6
ByLayer
370
-1
48
1
60
0
100
AcDbLine
10
19.698487
20
-10.184042
30
0
11
19.252223
21
-10.905625
31
0
39
0
210
0
220
0
230
1
0
LINE
5
106
100
AcDbEntity
8
1
62
256
6
ByLayer
370
-1
48
1
60
0
100
AcDbLine
10
19.612039
20
-4.248411
30
0
11
18.766508
21
-5.115976
31
0
39
0
210
0
220
0
230
1
0
LINE
5
107
100
AcDbEntity
8
1
62
256
6
ByLayer
370
-1
48
1
60
0
100
AcDbLine
10
19.723044
20
-4.421851
30
0
11
19.311333
21
-4.844291
31
0
39
0
210
0
220
0
230
1
0
LINE
5
108
100
AcDbEntity
8
1
62
256
6
ByLayer
370
-1
48
1
60
0
100
AcDbLine
10
19.015088
20
-3.969505
30
0
11
18.338091
21
-4.664142
31
0
39
0
210
0
220
0
230
1
0
LINE
5
109
100
AcDbEntity
8
1
62
256
6
ByLayer
370
-1
48
1
60
0
100
AcDbLine
10
15.557751
20
-10.915809
30
0
11
15.382013
21
-10.085667
31
0
39
0
210
0
220
0
230
1
0
LINE
5
10A
100
AcDbEntity
8
1
62
256
6
ByLayer
370
-1
48
1
60
0
100
AcDbLine
10
15.351317
20
-10.914748
30
0
11
15.268496
21
-10.523523
31
0
39
0
210
0
220
0
230
1
0
LINE
5
10B
100
AcDbEntity
8
1
62
256
6
ByLayer
370
-1
48
1
60
0
100
AcDbLine
10
21.273847
20
-9.908359
30
0
11
20.646494
21
-9.543707
31
0
39
0
210
0
220
0
230
1
0
LINE
5
10C
100
AcDbEntity
8
1
62
256
6
ByLayer
370
-1
48
1
60
0
100
AcDbLine
10
20.644328
20
-10.269259
30
0
11
21.273847
21
-9.908359
31
0
39
0
210
0
220
0
230
1
0
LINE
5
10D
100
AcDbEntity
8
1
62
256
6
ByLayer
370
-1
48
1
60
0
100
AcDbLine
10
21.689456
20
-10.008775
30
0
11
21.329988
21
-10.006595
31
0
39
0
210
0
220
0
230
1
0
LINE
5
10E
100
AcDbEntity
8
1
62
256
6
ByLayer
370
-1
48
1
60
0
100
AcDbLine
10
21.329988
20
-10.006595
30
0
11
20.700469
21
-10.367495
31
0
39
0
210
0
220
0
230
1
0
LINE
5
10F
100
AcDbEntity
8
1
62
256
6
ByLayer
370
-1
48
1
60
0
100
AcDbLine
10
21.330571
20
-9.811133
30
0
11
21.690039
21
-9.813313
31
0
39
0
210
0
220
0
230
1
0
LINE
5
110
100
AcDbEntity
8
1
62
256
6
ByLayer
370
-1
48
1
60
0
100
AcDbLine
10
20.703218
20
-9.446482
30
0
11
21.330571
21
-9.811133
31
0
39
0
210
0
220
0
230
1
0
LINE
5
111
100
AcDbEntity
8
1
62
256
6
ByLayer
370
-1
48
1
60
0
100
AcDbLine
10
21.690039
20
-9.813313
30
0
11
21.785485
21
-9.759181
31
0
39
0
210
0
220
0
230
1
0
LINE
5
112
100
AcDbEntity
8
1
62
256
6
ByLayer
370
-1
48
1
60
0
100
AcDbLine
10
21.784573
20
-10.06465
30
0
11
21.689456
21
-10.008775
31
0
39
0
210
0
220
0
230
1
0
LINE
5
113
100
AcDbEntity
8
1
62
256
6
ByLayer
370
-1
48
1
60
0
100
AcDbLine
10
20.700469
20
-10.367495
30
0
11
20.840451
21
-10.60591
31
0
39
0
210
0
220
0
230
1
0
LINE
5
114
100
AcDbEntity
8
1
62
256
6
ByLayer
370
-1
48
1
60
0
100
AcDbLine
10
20.646494
20
-9.543707
30
0
11
20.429419
21
-9.905838
31
0
39
0
210
0
220
0
230
1
0
LINE
5
115
100
AcDbEntity
8
1
62
256
6
ByLayer
370
-1
48
1
60
0
100
AcDbLine
10
20.429419
20
-9.905838
30
0
11
20.644328
21
-10.269259
31
0
39
0
210
0
220
0
230
1
0
LINE
5
116
100
AcDbEntity
8
1
62
256
6
ByLayer
370
-1
48
1
60
0
100
AcDbLine
10
20.844611
20
-9.212295
30
0
11
20.703218
21
-9.446482
31
0
39
0
210
0
220
0
230
1
0
LINE
5
117
100
AcDbEntity
8
1
62
256
6
ByLayer
370
-1
48
1
60
0
100
AcDbLine
10
11.166034
20
-3.856793
30
0
11
11.491308
21
-3.296645
31
0
39
0
210
0
220
0
230
1
0
LINE
5
118
100
AcDbEntity
8
1
62
256
6
ByLayer
370
-1
48
1
60
0
100
AcDbLine
10
11.603339
20
-3.125909
30
0
11
11.683564
21
-3.019836
31
0
39
0
210
0
220
0
230
1
0
LINE
5
119
100
AcDbEntity
8
1
62
256
6
ByLayer
370
-1
48
1
60
0
100
AcDbLine
10
17.211898
20
-0.167266
30
0
11
16.991009
21
0.223221
31
0
39
0
210
0
220
0
230
1
0
LINE
5
11A
100
AcDbEntity
8
1
62
256
6
ByLayer
370
-1
48
1
60
0
100
AcDbLine
10
19.133668
20
-3.34902
30
0
11
19.20348
21
-3.516286
31
0
39
0
210
0
220
0
230
1
0
LINE
5
11B
100
AcDbEntity
8
1
62
256
6
ByLayer
370
-1
48
1
60
0
100
AcDbLine
10
13.863873
20
-0.489752
30
0
11
13.645493
21
-0.650636
31
0
39
0
210
0
220
0
230
1
0
LINE
5
11C
100
AcDbEntity
8
1
62
256
6
ByLayer
370
-1
48
1
60
0
100
AcDbLine
10
14.209991
20
0.645224
30
0
11
14.171474
21
0.622685
31
0
39
0
210
0
220
0
230
1
0
LINE
5
11D
100
AcDbEntity
8
1
62
256
6
ByLayer
370
-1
48
1
60
0
100
AcDbLine
10
14.28233
20
1.595131
30
0
11
14.274334
21
0.756926
31
0
39
0
210
0
220
0
230
1
0
LINE
5
11E
100
AcDbEntity
8
1
62
256
6
ByLayer
370
-1
48
1
60
0
100
AcDbLine
10
14.402563
20
1.77941
30
0
11
14.381319
21
1.76698
31
0
39
0
210
0
220
0
230
1
0
LINE
5
11F
100
AcDbEntity
8
1
62
256
6
ByLayer
370
-1
48
1
60
0
100
AcDbLine
10
14.544958
20
0.561341
30
0
11
13.878128
21
0.627352
31
0
39
0
210
0
220
0
230
1
0
LINE
5
120
100
AcDbEntity
8
1
62
256
6
ByLayer
370
-1
48
1
60
0
100
AcDbLine
10
13.969921
20
0.22486
30
0
11
13.303091
21
0.290871
31
0
39
0
210
0
220
0
230
1
0
LINE
5
121
100
AcDbEntity
8
1
62
256
6
ByLayer
370
-1
48
1
60
0
100
AcDbLine
10
13.903611
20
0.113353
30
0
11
13.238747
21
0.179169
31
0
39
0
210
0
220
0
230
1
0
LINE
5
122
100
AcDbEntity
8
1
62
256
6
ByLayer
370
-1
48
1
60
0
100
AcDbLine
10
13.903018
20
-0.375556
30
0
11
13.234088
21
-0.309336
31
0
39
0
210
0
220
0
230
1
0
LINE
5
123
100
AcDbEntity
8
1
62
256
6
ByLayer
370
-1
48
1
60
0
100
AcDbLine
10
13.863873
20
-0.489752
30
0
11
13.169744
21
-0.421038
31
0
39
0
210
0
220
0
230
1
0
LINE
5
124
100
AcDbEntity
8
1
62
256
6
ByLayer
370
-1
48
1
60
0
100
AcDbLine
10
15.091845
20
1.711177
30
0
11
14.402563
21
1.77941
31
0
39
0
210
0
220
0
230
1
0
LINE
5
125
100
AcDbEntity
8
1
62
256
6
ByLayer
370
-1
48
1
60
0
100
AcDbLine
10
15.070601
20
1.698746
30
0
11
14.381319
21
1.76698
31
0
39
0
210
0
220
0
230
1
0
LINE
5
126
100
AcDbEntity
8
1
62
256
6
ByLayer
370
-1
48
1
60
0
100
AcDbLine
10
14.968585
20
1.527197
30
0
11
14.28233
21
1.595131
31
0
39
0
210
0
220
0
230
1
0
LINE
5
127
100
AcDbEntity
8
1
62
256
6
ByLayer
370
-1
48
1
60
0
100
AcDbLine
10
14.938448
20
0.691183
30
0
11
14.274334
21
0.756926
31
0
39
0
210
0
220
0
230
1
0
LINE
5
128
100
AcDbEntity
8
1
62
256
6
ByLayer
370
-1
48
1
60
0
100
AcDbLine
10
14.872138
20
0.579676
30
0
11
14.209991
21
0.645224
31
0
39
0
210
0
220
0
230
1
0
LINE
5
129
100
AcDbEntity
8
1
62
256
6
ByLayer
370
-1
48
1
60
0
100
AcDbLine
10
14.822761
20
0.550783
30
0
11
14.661363
21
0.56676
31
0
39
0
210
0
220
0
230
1
0
LINE
5
12A
100
AcDbEntity
8
1
62
256
6
ByLayer
370
-1
48
1
60
0
100
AcDbLine
10
11.112142
20
-10.216651
30
0
11
10.985637
21
-10.204128
31
0
39
0
210
0
220
0
230
1
0
LINE
5
12B
100
AcDbEntity
8
1
62
256
6
ByLayer
370
-1
48
1
60
0
100
AcDbLine
10
9.653243
20
-9.834772
30
0
11
9.549224
21
-9.824475
31
0
39
0
210
0
220
0
230
1
0
LINE
5
12C
100
AcDbEntity
8
1
62
256
6
ByLayer
370
-1
48
1
60
0
100
AcDbLine
10
9.702448
20
-9.863665
30
0
11
9.510912
21
-9.844705
31
0
39
0
210
0
220
0
230
1
0
LINE
5
12D
100
AcDbEntity
8
1
62
256
6
ByLayer
370
-1
48
1
60
0
100
AcDbLine
10
9.767264
20
-9.964136
30
0
11
9.375911
21
-9.925395
31
0
39
0
210
0
220
0
230
1
0
LINE
5
12E
100
AcDbEntity
8
1
62
256
6
ByLayer
370
-1
48
1
60
0
100
AcDbLine
10
9.773417
20
-10.017576
30
0
11
9.300074
21
-9.970718
31
0
39
0
210
0
220
0
230
1
0
LINE
5
12F
100
AcDbEntity
8
1
62
256
6
ByLayer
370
-1
48
1
60
0
100
AcDbLine
10
9.838232
20
-10.118046
30
0
11
9.171402
21
-10.052035
31
0
39
0
210
0
220
0
230
1
0
LINE
5
130
100
AcDbEntity
8
1
62
256
6
ByLayer
370
-1
48
1
60
0
100
AcDbLine
10
10.411261
20
-10.454527
30
0
11
9.74443
21
-10.388516
31
0
39
0
210
0
220
0
230
1
0
LINE
5
131
100
AcDbEntity
8
1
62
256
6
ByLayer
370
-1
48
1
60
0
100
AcDbLine
10
12.313497
20
-10.89224
30
0
11
11.558239
21
-10.817475
31
0
39
0
210
0
220
0
230
1
0
LINE
5
132
100
AcDbEntity
8
1
62
256
6
ByLayer
370
-1
48
1
60
0
100
AcDbLine
10
8.516144
20
-10.06606
30
0
11
7.829889
21
-9.998126
31
0
39
0
210
0
220
0
230
1
0
LINE
5
133
100
AcDbEntity
8
1
62
256
6
ByLayer
370
-1
48
1
60
0
100
AcDbLine
10
8.617133
20
-10.238209
30
0
11
7.927852
21
-10.169975
31
0
39
0
210
0
220
0
230
1
0
LINE
5
134
100
AcDbEntity
8
1
62
256
6
ByLayer
370
-1
48
1
60
0
100
AcDbLine
10
8.638303
20
-10.250639
30
0
11
7.949022
21
-10.182406
31
0
39
0
210
0
220
0
230
1
0
LINE
5
135
100
AcDbEntity
8
1
62
256
6
ByLayer
370
-1
48
1
60
0
100
AcDbLine
10
8.493049
20
-8.403409
30
0
11
8.340828
21
-8.38834
31
0
39
0
210
0
220
0
230
1
0
LINE
5
136
100
AcDbEntity
8
1
62
256
6
ByLayer
370
-1
48
1
60
0
100
AcDbLine
10
8.28456
20
-8.486728
30
0
11
8.46946
21
-8.505031
31
0
39
0
210
0
220
0
230
1
0
LINE
5
137
100
AcDbEntity
8
1
62
256
6
ByLayer
370
-1
48
1
60
0
100
AcDbLine
10
11.697813
20
-1.610544
30
0
11
11.953211
21
-1.16377
31
0
39
0
210
0
220
0
230
1
0
LINE
5
138
100
AcDbEntity
8
1
62
256
6
ByLayer
370
-1
48
1
60
0
100
AcDbLine
10
13.169744
20
-0.421038
30
0
11
12.025522
21
-1.090576
31
0
39
0
210
0
220
0
230
1
0
LINE
5
139
100
AcDbEntity
8
1
62
256
6
ByLayer
370
-1
48
1
60
0
100
AcDbLine
10
13.238747
20
0.179169
30
0
11
13.234088
21
-0.309336
31
0
39
0
210
0
220
0
230
1
0
LINE
5
13A
100
AcDbEntity
8
1
62
256
6
ByLayer
370
-1
48
1
60
0
100
AcDbLine
10
13.878128
20
0.627352
30
0
11
13.303091
21
0.290871
31
0
39
0
210
0
220
0
230
1
0
LINE
5
13B
100
AcDbEntity
8
1
62
256
6
ByLayer
370
-1
48
1
60
0
100
AcDbLine
10
7.827347
20
-9.286159
30
0
11
7.829889
21
-9.998126
31
0
39
0
210
0
220
0
230
1
0
LINE
5
13C
100
AcDbEntity
8
1
62
256
6
ByLayer
370
-1
48
1
60
0
100
AcDbLine
10
8.394364
20
-10.963398
30
0
11
8.394379
21
-11.013045
31
0
39
0
210
0
220
0
230
1
0
LINE
5
13D
100
AcDbEntity
8
1
62
256
6
ByLayer
370
-1
48
1
60
0
100
AcDbLine
10
7.238054
20
-10.987684
30
0
11
7.238057
21
-10.998135
31
0
39
0
210
0
220
0
230
1
0
LINE
5
13E
100
AcDbEntity
8
1
62
256
6
ByLayer
370
-1
48
1
60
0
100
AcDbLine
10
9.005312
20
-10.97328
30
0
11
9.005321
21
-11.001312
31
0
39
0
210
0
220
0
230
1
0
LINE
5
13F
100
AcDbEntity
8
1
62
256
6
ByLayer
370
-1
48
1
60
0
100
AcDbLine
10
9.01804
20
-10.973682
30
0
11
9.018052
21
-11.013877
31
0
39
0
210
0
220
0
230
1
0
LINE
5
140
100
AcDbEntity
8
1
62
256
6
ByLayer
370
-1
48
1
60
0
100
AcDbLine
10
12.036751
20
-1.08399
30
0
11
12.878218
21
0.390084
31
0
39
0
210
0
220
0
230
1
0
LINE
5
141
100
AcDbEntity
8
SK1
62
256
6
ByLayer
370
-1
48
1
60
0
100
AcDbLine
10
-102.994199
20
-9.9375
30
0
11
-102.994199
21
9.9375
31
0
39
0
210
0
220
0
230
1
0
LINE
5
142
100
AcDbEntity
8
SK1
62
256
6
ByLayer
370
-1
48
1
60
0
100
AcDbLine
10
-102.994199
20
9.9375
30
0
11
0
21
9.9375
31
0
39
0
210
0
220
0
230
1
0
LINE
5
143
100
AcDbEntity
8
1
62
256
6
ByLayer
370
-1
48
1
60
0
100
AcDbLine
10
15.351317
20
-10.914748
30
0
11
14.718501
21
-10.915223
31
0
39
0
210
0
220
0
230
1
0
LINE
5
144
100
AcDbEntity
8
1
62
256
6
ByLayer
370
-1
48
1
60
0
100
AcDbLine
10
20.777853
20
-7.747147
30
0
11
20.827168
21
-7.439746
31
0
39
0
210
0
220
0
230
1
0
LINE
5
145
100
AcDbEntity
8
1
62
256
6
ByLayer
370
-1
48
1
60
0
100
AcDbLine
10
19.252223
20
-10.905625
30
0
11
19.696333
21
-10.905625
31
0
39
0
210
0
220
0
230
1
0
LINE
5
146
100
AcDbEntity
8
1
62
256
6
ByLayer
370
-1
48
1
60
0
100
AcDbLine
10
19.723044
20
-4.421851
30
0
11
19.802624
21
-4.531595
31
0
39
0
210
0
220
0
230
1
0
LINE
5
147
100
AcDbEntity
8
1
62
256
6
ByLayer
370
-1
48
1
60
0
100
AcDbLine
10
15.777225
20
-10.91841
30
0
11
15.557751
21
-10.915809
31
0
39
0
210
0
220
0
230
1
0
LINE
5
148
100
AcDbEntity
8
1
62
256
6
ByLayer
370
-1
48
1
60
0
100
AcDbLine
10
19.290112
20
-3.687314
30
0
11
19.612039
21
-4.248411
31
0
39
0
210
0
220
0
230
1
0
MTEXT
5
25E
100
AcDbEntity
8
SK6
62
256
6
ByLayer
370
-1
48
1
60
0
100
AcDbMText
10
-67.287799
20
-2.972966
30
0
210
0
220
0
230
1
1
\W00.740;\fsimplex.shx,bigfont.shx;266LFA-2020-16 
40
3.5
41
0
44
1.084337
50
0
71
7
72
5
7
DEFAULT
0
DIMENSION
5
291
100
AcDbEntity
8
2
62
256
6
ByLayer
370
-3
48
1
60
0
100
AcDbDimension
2
DimnDraft3D1
10
23.355801
20
-25.1625
30
0
11
9.048953
21
-25.1625
31
0
70
32
71
5
72
1
41
1
210
0
220
0
230
1
3
Standard
100
AcDbAlignedDimension
13
0
23
-11.4375
33
0
14
23.355801
24
-12.4125
34
0
50
0
100
AcDbRotatedDimension
1001
ACAD
1000
DSTYLE
1002
{
1070
   279
1070
     0
1070
   172
1070
     1
1070
   173
1070
     1
1070
   340
1005
25F
1070
   271
1070
     3
1070
   272
1070
     3
1070
    77
1070
     1
1070
    73
1070
     0
1070
   171
1070
     4
1070
   274
1070
     4
1070
   177
1070
     2
1070
   176
1070
     2
1070
   178
1070
     7
1070
    78
1070
     8
1070
    41
1041
3.0
1070
   147
1041
2.25
1070
    42
1041
1.5
1070
    44
1041
3.0
1070
   140
1041
4.5
1070
   343
1005
292
1070
   344
1005
292
1002
}
0
DIMENSION
5
2A7
100
AcDbEntity
8
SK2
62
256
6
ByLayer
370
-3
48
1
60
0
100
AcDbDimension
2
DimnDraft3D2
10
23.355801
20
-35.1625
30
0
11
-43.53762
21
-35.1625
31
0
70
32
71
5
72
1
41
1
210
0
220
0
230
1
3
Standard
100
AcDbAlignedDimension
13
-102.994199
23
-11.4375
33
0
14
23.355801
24
-12.4125
34
0
50
0
100
AcDbRotatedDimension
1001
ACAD
1000
DSTYLE
1002
{
1070
   279
1070
     0
1070
   172
1070
     1
1070
   173
1070
     1
1070
   340
1005
25F
1070
   271
1070
     3
1070
   272
1070
     3
1070
    77
1070
     1
1070
    73
1070
     0
1070
   171
1070
     4
1070
   274
1070
     4
1070
   177
1070
     2
1070
   176
1070
     2
1070
   178
1070
     7
1070
    78
1070
     8
1070
    41
1041
3.0
1070
   147
1041
2.25
1070
    42
1041
1.5
1070
    44
1041
3.0
1070
   140
1041
4.5
1070
   343
1005
292
1070
   344
1005
292
1002
}
0
DIMENSION
5
2B5
100
AcDbEntity
8
SK2
62
256
6
ByLayer
370
-3
48
1
60
0
100
AcDbDimension
2
DimnDraft3D3
10
-112.744199
20
-9.9375
30
0
11
-112.744199
21
-2.628947
31
0
70
32
71
5
72
1
41
1
210
0
220
0
230
1
3
Standard
100
AcDbAlignedDimension
13
-104.494199
23
9.9375
33
0
14
-104.494199
24
-9.9375
34
0
50
90
100
AcDbRotatedDimension
1001
ACAD
1000
DSTYLE
1002
{
1070
    74
1070
     0
1070
   279
1070
     0
1070
   172
1070
     1
1070
   173
1070
     1
1070
   340
1005
25F
1070
   271
1070
     3
1070
   272
1070
     3
1070
    77
1070
     1
1070
    73
1070
     0
1070
   171
1070
     4
1070
   274
1070
     4
1070
   177
1070
     2
1070
   176
1070
     2
1070
   178
1070
     7
1070
    78
1070
     8
1070
    41
1041
3.0
1070
   147
1041
2.25
1070
    42
1041
1.5
1070
    44
1041
3.0
1070
   140
1041
4.5
1070
   343
1005
292
1070
   344
1005
292
1002
}
0
DIMENSION
5
2C3
100
AcDbEntity
8
2
62
256
6
ByLayer
370
-3
48
1
60
0
100
AcDbDimension
2
DimnDraft3D4
10
37.605801
20
-10.9125
30
0
11
37.605801
21
-2.553947
31
0
70
32
71
5
72
1
41
1
210
0
220
0
230
1
3
Standard
100
AcDbAlignedDimension
13
1.5
23
9.9375
33
0
14
24.855801
24
-10.9125
34
0
50
90
100
AcDbRotatedDimension
1001
ACAD
1000
DSTYLE
1002
{
1070
    74
1070
     0
1070
   279
1070
     0
1070
   172
1070
     1
1070
   173
1070
     1
1070
   340
1005
25F
1070
   271
1070
     3
1070
   272
1070
     3
1070
    77
1070
     1
1070
    73
1070
     0
1070
   171
1070
     4
1070
   274
1070
     4
1070
   177
1070
     2
1070
   176
1070
     2
1070
   178
1070
     7
1070
    78
1070
     8
1070
    41
1041
3.0
1070
   147
1041
2.25
1070
    42
1041
1.5
1070
    44
1041
3.0
1070
   140
1041
4.5
1070
   343
1005
292
1070
   344
1005
292
1002
}
0
ENDSEC
0
SECTION
2
OBJECTS
0
DICTIONARY
5
2f3
330
0
100
AcDbDictionary
280
0
281
1
3
ACAD_GROUP
350
2f4
3
ACAD_MLINESTYLE
350
2f5
0
DICTIONARY
5
2f4
330
0
100
AcDbDictionary
280
0
281
1
0
DICTIONARY
5
2f5
330
0
100
AcDbDictionary
280
0
281
1
3
Standard
350
18
0
MLINESTYLE
5
18
330
2f5
100
AcDbMlineStyle
2
Standard
70
0
3

62
256
51
90
52
90
71
2
49
-0.5
62
256
6
ByLayer
49
0.5
62
256
6
ByLayer
0
RASTERVARIABLES
5
2e2
330

100
AcDbRasterVariables
90
0
70
1
71
1
72
1
0
ENDSEC
0
EOF
