  0
SECTION
  2
HEADER
  9
$ACADVER
  1
AC1018
  9
$ACADMAINTVER
 70
   104
  9
$DWGCODEPAGE
  3
ANSI_1252
  9
$LASTSAVEDBY
  1
titadi
  9
$INSBASE
 10
0.0
 20
0.0
 30
0.0
  9
$EXTMIN
 10
-69.93435496875827
 20
-30.38909795739346
 30
-0.0000000000000053
  9
$EXTMAX
 10
71.25933946187069
 20
95.32501301649608
 30
0.0000000000000099
  9
$LIMMIN
 10
-170.0
 20
-170.0
  9
$LIMMAX
 10
519.0
 20
260.0
  9
$ORTHOMODE
 70
     0
  9
$REGENMODE
 70
     1
  9
$FILLMODE
 70
     1
  9
$QTEXTMODE
 70
     0
  9
$MIRRTEXT
 70
     0
  9
$LTSCALE
 40
1.0
  9
$ATTMODE
 70
     1
  9
$TEXTSIZE
 40
3.5
  9
$TRACEWID
 40
1.0
  9
$TEXTSTYLE
  7
SIMPLEX
  9
$CLAYER
  8
1
  9
$CELTYPE
  6
BYLAYER
  9
$CECOLOR
 62
   256
  9
$CELTSCALE
 40
1.0
  9
$DISPSILH
 70
     0
  9
$DIMSCALE
 40
1.0
  9
$DIMASZ
 40
2.5
  9
$DIMEXO
 40
0.0
  9
$DIMDLI
 40
3.75
  9
$DIMRND
 40
0.0
  9
$DIMDLE
 40
0.0
  9
$DIMEXE
 40
1.25
  9
$DIMTP
 40
0.0
  9
$DIMTM
 40
0.0
  9
$DIMTXT
 40
3.5
  9
$DIMCEN
 40
0.0
  9
$DIMTSZ
 40
0.0
  9
$DIMTOL
 70
     0
  9
$DIMLIM
 70
     0
  9
$DIMTIH
 70
     0
  9
$DIMTOH
 70
     0
  9
$DIMSE1
 70
     0
  9
$DIMSE2
 70
     0
  9
$DIMTAD
 70
     1
  9
$DIMZIN
 70
     8
  9
$DIMBLK
  1

  9
$DIMASO
 70
     1
  9
$DIMSHO
 70
     1
  9
$DIMPOST
  1

  9
$DIMAPOST
  1

  9
$DIMALT
 70
     0
  9
$DIMALTD
 70
     3
  9
$DIMALTF
 40
0.039370078
  9
$DIMLFAC
 40
1.0
  9
$DIMTOFL
 70
     0
  9
$DIMTVP
 40
0.0
  9
$DIMTIX
 70
     0
  9
$DIMSOXD
 70
     0
  9
$DIMSAH
 70
     0
  9
$DIMBLK1
  1

  9
$DIMBLK2
  1

  9
$DIMSTYLE
  2
STANDARD
  9
$DIMCLRD
 70
     0
  9
$DIMCLRE
 70
     0
  9
$DIMCLRT
 70
     0
  9
$DIMTFAC
 40
1.0
  9
$DIMGAP
 40
0.625
  9
$DIMJUST
 70
     0
  9
$DIMSD1
 70
     0
  9
$DIMSD2
 70
     0
  9
$DIMTOLJ
 70
     0
  9
$DIMTZIN
 70
     8
  9
$DIMALTZ
 70
     0
  9
$DIMALTTZ
 70
     0
  9
$DIMUPT
 70
     0
  9
$DIMDEC
 70
     2
  9
$DIMTDEC
 70
     2
  9
$DIMALTU
 70
     2
  9
$DIMALTTD
 70
     3
  9
$DIMTXSTY
  7
SIMPLEX
  9
$DIMAUNIT
 70
     0
  9
$DIMADEC
 70
     2
  9
$DIMALTRND
 40
0.0
  9
$DIMAZIN
 70
     2
  9
$DIMDSEP
 70
    46
  9
$DIMATFIT
 70
     3
  9
$DIMFRAC
 70
     0
  9
$DIMLDRBLK
  1

  9
$DIMLUNIT
 70
     2
  9
$DIMLWD
 70
    -2
  9
$DIMLWE
 70
    -2
  9
$DIMTMOVE
 70
     0
  9
$LUNITS
 70
     2
  9
$LUPREC
 70
     4
  9
$SKETCHINC
 40
1.0
  9
$FILLETRAD
 40
0.0
  9
$AUNITS
 70
     0
  9
$AUPREC
 70
     0
  9
$MENU
  1
c:\tdm21\cad\caduti13\tdm13
  9
$ELEVATION
 40
0.0
  9
$PELEVATION
 40
0.0
  9
$THICKNESS
 40
0.0
  9
$LIMCHECK
 70
     0
  9
$CHAMFERA
 40
0.0
  9
$CHAMFERB
 40
0.0
  9
$CHAMFERC
 40
0.0
  9
$CHAMFERD
 40
0.0
  9
$SKPOLY
 70
     0
  9
$TDCREATE
 40
2454957.551975972
  9
$TDUCREATE
 40
2454957.510309306
  9
$TDUPDATE
 40
2457340.474707639
  9
$TDUUPDATE
 40
2457340.433040972
  9
$TDINDWG
 40
0.1963891204
  9
$TDUSRTIMER
 40
0.1963694329
  9
$USRTIMER
 70
     1
  9
$ANGBASE
 50
0.0
  9
$ANGDIR
 70
     0
  9
$PDMODE
 70
     1
  9
$PDSIZE
 40
0.0
  9
$PLINEWID
 40
0.0
  9
$SPLFRAME
 70
     0
  9
$SPLINETYPE
 70
     6
  9
$SPLINESEGS
 70
     8
  9
$HANDSEED
  5
1A74
  9
$SURFTAB1
 70
     6
  9
$SURFTAB2
 70
     6
  9
$SURFTYPE
 70
     6
  9
$SURFU
 70
     6
  9
$SURFV
 70
     6
  9
$UCSBASE
  2

  9
$UCSNAME
  2

  9
$UCSORG
 10
0.0
 20
0.0
 30
0.0
  9
$UCSXDIR
 10
1.0
 20
0.0
 30
0.0
  9
$UCSYDIR
 10
0.0
 20
1.0
 30
0.0
  9
$UCSORTHOREF
  2

  9
$UCSORTHOVIEW
 70
     0
  9
$UCSORGTOP
 10
0.0
 20
0.0
 30
0.0
  9
$UCSORGBOTTOM
 10
0.0
 20
0.0
 30
0.0
  9
$UCSORGLEFT
 10
0.0
 20
0.0
 30
0.0
  9
$UCSORGRIGHT
 10
0.0
 20
0.0
 30
0.0
  9
$UCSORGFRONT
 10
0.0
 20
0.0
 30
0.0
  9
$UCSORGBACK
 10
0.0
 20
0.0
 30
0.0
  9
$PUCSBASE
  2

  9
$PUCSNAME
  2

  9
$PUCSORG
 10
0.0
 20
0.0
 30
0.0
  9
$PUCSXDIR
 10
1.0
 20
0.0
 30
0.0
  9
$PUCSYDIR
 10
0.0
 20
1.0
 30
0.0
  9
$PUCSORTHOREF
  2

  9
$PUCSORTHOVIEW
 70
     0
  9
$PUCSORGTOP
 10
0.0
 20
0.0
 30
0.0
  9
$PUCSORGBOTTOM
 10
0.0
 20
0.0
 30
0.0
  9
$PUCSORGLEFT
 10
0.0
 20
0.0
 30
0.0
  9
$PUCSORGRIGHT
 10
0.0
 20
0.0
 30
0.0
  9
$PUCSORGFRONT
 10
0.0
 20
0.0
 30
0.0
  9
$PUCSORGBACK
 10
0.0
 20
0.0
 30
0.0
  9
$USERI1
 70
     0
  9
$USERI2
 70
     0
  9
$USERI3
 70
     0
  9
$USERI4
 70
     0
  9
$USERI5
 70
     0
  9
$USERR1
 40
0.0
  9
$USERR2
 40
0.0
  9
$USERR3
 40
0.0
  9
$USERR4
 40
0.0
  9
$USERR5
 40
0.0
  9
$WORLDVIEW
 70
     1
  9
$SHADEDGE
 70
     3
  9
$SHADEDIF
 70
    70
  9
$TILEMODE
 70
     1
  9
$MAXACTVP
 70
    64
  9
$PINSBASE
 10
0.0
 20
0.0
 30
0.0
  9
$PLIMCHECK
 70
     0
  9
$PEXTMIN
 10
0.0
 20
0.0
 30
0.0
  9
$PEXTMAX
 10
0.0
 20
0.0
 30
0.0
  9
$PLIMMIN
 10
0.0
 20
0.0
  9
$PLIMMAX
 10
12.0
 20
9.0
  9
$UNITMODE
 70
     0
  9
$VISRETAIN
 70
     0
  9
$PLINEGEN
 70
     0
  9
$PSLTSCALE
 70
     1
  9
$TREEDEPTH
 70
  3020
  9
$CMLSTYLE
  2
STANDARD
  9
$CMLJUST
 70
     0
  9
$CMLSCALE
 40
20.0
  9
$PROXYGRAPHICS
 70
     1
  9
$MEASUREMENT
 70
     1
  9
$CELWEIGHT
370
    -1
  9
$ENDCAPS
280
     0
  9
$JOINSTYLE
280
     0
  9
$LWDISPLAY
290
     0
  9
$INSUNITS
 70
     4
  9
$HYPERLINKBASE
  1

  9
$STYLESHEET
  1
MONOCHROME.CTB
  9
$XEDIT
290
     1
  9
$CEPSNTYPE
380
     0
  9
$PSTYLEMODE
290
     1
  9
$FINGERPRINTGUID
  2
{46B44192-1510-48B1-B61B-CBE2ADA013A7}
  9
$VERSIONGUID
  2
{C2DFEDE5-25FA-4DB6-B7D4-375EBEEDA268}
  9
$EXTNAMES
290
     1
  9
$PSVPSCALE
 40
0.0
  9
$OLESTARTUP
290
     0
  9
$SORTENTS
280
   127
  9
$INDEXCTL
280
     0
  9
$HIDETEXT
280
     1
  9
$XCLIPFRAME
290
     0
  9
$HALOGAP
280
     0
  9
$OBSCOLOR
 70
   257
  9
$OBSLTYPE
280
     0
  9
$INTERSECTIONDISPLAY
280
     0
  9
$INTERSECTIONCOLOR
 70
   257
  9
$DIMASSOC
280
     2
  9
$PROJECTNAME
  1

  0
ENDSEC
  0
SECTION
  2
CLASSES
  0
CLASS
  1
ACDBDICTIONARYWDFLT
  2
AcDbDictionaryWithDefault
  3
ObjectDBX Classes
 90
        0
 91
        1
280
     0
281
     0
  0
CLASS
  1
DICTIONARYVAR
  2
AcDbDictionaryVar
  3
ObjectDBX Classes
 90
        0
 91
       16
280
     0
281
     0
  0
CLASS
  1
TABLESTYLE
  2
AcDbTableStyle
  3
ObjectDBX Classes
 90
     4095
 91
        1
280
     0
281
     0
  0
CLASS
  1
SCALE
  2
AcDbScale
  3
ObjectDBX Classes
 90
     1153
 91
       33
280
     0
281
     0
  0
CLASS
  1
MATERIAL
  2
AcDbMaterial
  3
ObjectDBX Classes
 90
     1153
 91
        3
280
     0
281
     0
  0
CLASS
  1
VISUALSTYLE
  2
AcDbVisualStyle
  3
ObjectDBX Classes
 90
     4095
 91
       24
280
     0
281
     0
  0
CLASS
  1
MLEADERSTYLE
  2
AcDbMLeaderStyle
  3
ACDB_MLEADERSTYLE_CLASS
 90
     4095
 91
        1
280
     0
281
     0
  0
CLASS
  1
ACDBSECTIONVIEWSTYLE
  2
AcDbSectionViewStyle
  3
ObjectDBX Classes
 90
     1025
 91
        2
280
     0
281
     0
  0
CLASS
  1
ACDBDETAILVIEWSTYLE
  2
AcDbDetailViewStyle
  3
ObjectDBX Classes
 90
     1025
 91
        2
280
     0
281
     0
  0
CLASS
  1
EXACXREFPANELOBJECT
  2
ExAcXREFPanelObject
  3
EXAC_ESW
 90
     1025
 91
        0
280
     0
281
     0
  0
CLASS
  1
NPOCOLLECTION
  2
AcDbImpNonPersistentObjectsCollection
  3
ObjectDBX Classes
 90
     1153
 91
        0
280
     0
281
     0
  0
CLASS
  1
CELLSTYLEMAP
  2
AcDbCellStyleMap
  3
ObjectDBX Classes
 90
     1152
 91
        2
280
     0
281
     0
  0
CLASS
  1
SORTENTSTABLE
  2
AcDbSortentsTable
  3
ObjectDBX Classes
 90
        0
 91
        2
280
     0
281
     0
  0
CLASS
  1
DIMASSOC
  2
AcDbDimAssoc
  3
"AcDbDimAssoc|Product Desc:     AcDim ARX App For Dimension|Company:          Autodesk, Inc.|WEB Address:      www.autodesk.com"
 90
        0
 91
        0
280
     0
281
     0
  0
ENDSEC
  0
SECTION
  2
TABLES
  0
TABLE
  2
VPORT
  5
8
330
0
100
AcDbSymbolTable
 70
     1
  0
VPORT
  5
39A
330
8
100
AcDbSymbolTableRecord
100
AcDbViewportTableRecord
  2
*Active
 70
     0
 10
0.0
 20
0.0
 11
1.0
 21
1.0
 12
0.6624922465562122
 22
32.46795752955132
 13
0.0
 23
0.0
 14
5.0
 24
5.0
 15
5.0
 25
5.0
 16
0.0
 26
0.0
 36
1.0
 17
0.0
 27
0.0
 37
0.0
 40
126.7306671273172
 41
2.584345479082321
 42
50.0
 43
0.0
 44
0.0
 50
0.0
 51
0.0
 71
     0
 72
  2000
 73
     1
 74
     1
 75
     0
 76
     0
 77
     0
 78
     0
281
     0
 65
     1
110
0.0
120
0.0
130
0.0
111
1.0
121
0.0
131
0.0
112
0.0
122
1.0
132
0.0
 79
     0
146
0.0
1001
ACAD_NAV_VCDISPLAY
1070
     3
  0
ENDTAB
  0
TABLE
  2
LTYPE
  5
5
330
0
100
AcDbSymbolTable
 70
     3
  0
LTYPE
  5
12
330
5
100
AcDbSymbolTableRecord
100
AcDbLinetypeTableRecord
  2
BYBLOCK
 70
     0
  3

 72
    65
 73
     0
 40
0.0
  0
LTYPE
  5
13
330
5
100
AcDbSymbolTableRecord
100
AcDbLinetypeTableRecord
  2
BYLAYER
 70
     0
  3

 72
    65
 73
     0
 40
0.0
  0
LTYPE
  5
14
330
5
100
AcDbSymbolTableRecord
100
AcDbLinetypeTableRecord
  2
CONTINUOUS
 70
     0
  3
Solid line
 72
    65
 73
     0
 40
0.0
  0
LTYPE
  5
20
330
5
100
AcDbSymbolTableRecord
100
AcDbLinetypeTableRecord
  2
HIDDEN
 70
     0
  3
Hidden __ __ __ __ __ __ __ __ __ __ __ __ __ _
 72
    65
 73
     2
 40
9.524999999999996
 49
6.349999999999997
 74
     0
 49
-3.174999999999998
 74
     0
  0
LTYPE
  5
351
330
5
100
AcDbSymbolTableRecord
100
AcDbLinetypeTableRecord
  2
CENTER
 70
     0
  3
Dash dot __ . __ . __ . __ . __ . __ . __ . __
 72
    65
 73
     4
 40
25.4
 49
12.7
 74
     0
 49
-6.349999999999997
 74
     0
 49
0.0
 74
     0
 49
-6.349999999999997
 74
     0
  0
ENDTAB
  0
TABLE
  2
LAYER
  5
2
102
{ACAD_XDICTIONARY
360
9B8
102
}
330
0
100
AcDbSymbolTable
 70
    16
  0
LAYER
  5
F
102
{ACAD_XDICTIONARY
360
4DD
102
}
330
2
100
AcDbSymbolTableRecord
100
AcDbLayerTableRecord
  2
0
 70
     0
 62
     7
  6
CONTINUOUS
370
    -3
390
300
  0
LAYER
  5
23
102
{ACAD_XDICTIONARY
360
4DF
102
}
330
2
100
AcDbSymbolTableRecord
100
AcDbLayerTableRecord
  2
1
 70
     0
 62
     4
  6
CONTINUOUS
370
    -3
390
300
  0
LAYER
  5
24
102
{ACAD_XDICTIONARY
360
4E1
102
}
330
2
100
AcDbSymbolTableRecord
100
AcDbLayerTableRecord
  2
SK1
 70
     0
 62
     4
  6
CONTINUOUS
370
    -3
390
300
  0
LAYER
  5
25
102
{ACAD_XDICTIONARY
360
4E3
102
}
330
2
100
AcDbSymbolTableRecord
100
AcDbLayerTableRecord
  2
2
 70
     0
 62
     7
  6
CONTINUOUS
370
    -3
390
300
  0
LAYER
  5
26
102
{ACAD_XDICTIONARY
360
4E5
102
}
330
2
100
AcDbSymbolTableRecord
100
AcDbLayerTableRecord
  2
2L
 70
     0
 62
     7
  6
CONTINUOUS
370
    -3
390
300
  0
LAYER
  5
27
102
{ACAD_XDICTIONARY
360
4E7
102
}
330
2
100
AcDbSymbolTableRecord
100
AcDbLayerTableRecord
  2
SK2
 70
     0
 62
     7
  6
CONTINUOUS
370
    -3
390
300
  0
LAYER
  5
28
102
{ACAD_XDICTIONARY
360
4E9
102
}
330
2
100
AcDbSymbolTableRecord
100
AcDbLayerTableRecord
  2
3
 70
     0
 62
     1
  6
HIDDEN
370
    -3
390
300
  0
LAYER
  5
29
102
{ACAD_XDICTIONARY
360
4EB
102
}
330
2
100
AcDbSymbolTableRecord
100
AcDbLayerTableRecord
  2
SK3
 70
     0
 62
     1
  6
HIDDEN
370
    -3
390
300
  0
LAYER
  5
2A
102
{ACAD_XDICTIONARY
360
4ED
102
}
330
2
100
AcDbSymbolTableRecord
100
AcDbLayerTableRecord
  2
4
 70
     0
 62
     2
  6
CENTER
370
    -3
390
300
  0
LAYER
  5
2B
102
{ACAD_XDICTIONARY
360
4EF
102
}
330
2
100
AcDbSymbolTableRecord
100
AcDbLayerTableRecord
  2
SK4
 70
     0
 62
     2
  6
CENTER
370
    -3
390
300
  0
LAYER
  5
2C
102
{ACAD_XDICTIONARY
360
4F1
102
}
330
2
100
AcDbSymbolTableRecord
100
AcDbLayerTableRecord
  2
5
 70
     0
 62
    -7
  6
CONTINUOUS
370
    -3
390
300
  0
LAYER
  5
2D
102
{ACAD_XDICTIONARY
360
4F3
102
}
330
2
100
AcDbSymbolTableRecord
100
AcDbLayerTableRecord
  2
6
 70
     0
 62
     5
  6
CONTINUOUS
370
    -3
390
300
  0
LAYER
  5
2E
102
{ACAD_XDICTIONARY
360
4F5
102
}
330
2
100
AcDbSymbolTableRecord
100
AcDbLayerTableRecord
  2
SK6
 70
     0
 62
     5
  6
CONTINUOUS
370
    -3
390
300
  0
LAYER
  5
2F
330
2
100
AcDbSymbolTableRecord
100
AcDbLayerTableRecord
  2
DEFPOINTS
 70
     0
 62
     7
  6
CONTINUOUS
290
     0
370
    -3
390
300
  0
LAYER
  5
375
102
{ACAD_XDICTIONARY
360
4F7
102
}
330
2
100
AcDbSymbolTableRecord
100
AcDbLayerTableRecord
  2
CUT
 70
     0
 62
     1
  6
CONTINUOUS
370
    -3
390
300
  0
LAYER
  5
376
102
{ACAD_XDICTIONARY
360
4F9
102
}
330
2
100
AcDbSymbolTableRecord
100
AcDbLayerTableRecord
  2
NOCUT
 70
     0
 62
     7
  6
CONTINUOUS
370
    -3
390
300
  0
ENDTAB
  0
TABLE
  2
STYLE
  5
3
330
0
100
AcDbSymbolTable
 70
     5
  0
STYLE
  5
10
330
3
100
AcDbSymbolTableRecord
100
AcDbTextStyleTableRecord
  2
STANDARD
 70
     0
 40
0.0
 41
1.0
 50
0.0
 71
     0
 42
5.0
  3
txt
  4

  0
STYLE
  5
1D
330
3
100
AcDbSymbolTableRecord
100
AcDbTextStyleTableRecord
  2
TXT
 70
     0
 40
8.0
 41
1.0
 50
0.0
 71
     0
 42
8.0
  3
txt
  4

  0
STYLE
  5
1E
330
3
100
AcDbSymbolTableRecord
100
AcDbTextStyleTableRecord
  2
SIMPLEX
 70
     0
 40
0.0
 41
1.0
 50
0.0
 71
     0
 42
3.5
  3
simplex
  4

  0
STYLE
  5
34C
330
3
100
AcDbSymbolTableRecord
100
AcDbTextStyleTableRecord
  2

 70
     1
 40
0.0
 41
1.0
 50
0.0
 71
     0
 42
2.5
  3
ltypeshp.shx
  4

  0
STYLE
  5
6CF
330
3
100
AcDbSymbolTableRecord
100
AcDbTextStyleTableRecord
  2
SANDVIK_STYLE
 70
     0
 40
3.0
 41
1.0
 50
0.0
 71
     0
 42
3.0
  3
simplex.shx
  4

  0
ENDTAB
  0
TABLE
  2
VIEW
  5
6
330
0
100
AcDbSymbolTable
 70
     1
  0
ENDTAB
  0
TABLE
  2
UCS
  5
7
330
0
100
AcDbSymbolTable
 70
     0
  0
ENDTAB
  0
TABLE
  2
APPID
  5
9
330
0
100
AcDbSymbolTable
 70
     5
  0
APPID
  5
11
330
9
100
AcDbSymbolTableRecord
100
AcDbRegAppTableRecord
  2
ACAD
 70
     0
  0
APPID
  5
501
330
9
100
AcDbSymbolTableRecord
100
AcDbRegAppTableRecord
  2
ACAD_NAV_VCDISPLAY
 70
     0
  0
APPID
  5
53F
330
9
100
AcDbSymbolTableRecord
100
AcDbRegAppTableRecord
  2
ACAD_MLEADERVER
 70
     0
  0
APPID
  5
552
330
9
100
AcDbSymbolTableRecord
100
AcDbRegAppTableRecord
  2
ACAD_EXEMPT_FROM_CAD_STANDARDS
 70
     0
  0
APPID
  5
80D
330
9
100
AcDbSymbolTableRecord
100
AcDbRegAppTableRecord
  2
AcadAnnoMonitorAlertIconDisabled
 70
     0
  0
ENDTAB
  0
TABLE
  2
DIMSTYLE
  5
A
330
0
100
AcDbSymbolTable
 70
     2
100
AcDbDimStyleTable
 71
     2
340
1863
340
3F
  0
DIMSTYLE
105
3F
330
A
100
AcDbSymbolTableRecord
100
AcDbDimStyleTableRecord
  2
STANDARD
 70
     0
 41
2.5
 42
0.0
 43
3.75
 44
1.25
 73
     0
 74
     0
 77
     1
 78
     8
 79
     2
140
3.5
141
0.0
143
0.039370078
147
0.625
171
     3
179
     2
271
     2
272
     2
274
     3
283
     0
284
     8
340
1E
  0
DIMSTYLE
105
1863
102
{ACAD_REACTORS
330
1873
330
1870
330
1875
330
1874
330
1872
330
1871
330
462
330
454
330
470
330
447
330
48A
330
439
102
}
330
A
100
AcDbSymbolTableRecord
100
AcDbDimStyleTableRecord
  2
SANDVIK_DIM
 70
     0
  4
 
 40
0.0
 41
4.57
 42
0.0
 44
5.0
 73
     0
 74
     0
 77
     1
 78
     8
140
4.5
147
2.299999999999998
176
   256
177
   256
178
   256
271
     2
272
     2
279
     2
340
6CF
  0
ENDTAB
  0
TABLE
  2
BLOCK_RECORD
  5
1
330
0
100
AcDbSymbolTable
 70
    17
  0
BLOCK_RECORD
  5
18
102
{ACAD_XDICTIONARY
360
56F
102
}
330
1
100
AcDbSymbolTableRecord
100
AcDbBlockTableRecord
  2
*MODEL_SPACE
340
303
  0
BLOCK_RECORD
  5
338
330
1
100
AcDbSymbolTableRecord
100
AcDbBlockTableRecord
  2
*Paper_Space
340
33B
  0
BLOCK_RECORD
  5
43A
330
1
100
AcDbSymbolTableRecord
100
AcDbBlockTableRecord
  2
*D0
340
0
  0
BLOCK_RECORD
  5
448
330
1
100
AcDbSymbolTableRecord
100
AcDbBlockTableRecord
  2
*D1
340
0
  0
BLOCK_RECORD
  5
455
330
1
100
AcDbSymbolTableRecord
100
AcDbBlockTableRecord
  2
*D2
340
0
  0
BLOCK_RECORD
  5
463
330
1
100
AcDbSymbolTableRecord
100
AcDbBlockTableRecord
  2
*D3
340
0
  0
BLOCK_RECORD
  5
471
330
1
100
AcDbSymbolTableRecord
100
AcDbBlockTableRecord
  2
*D4
340
0
  0
BLOCK_RECORD
  5
48B
330
1
100
AcDbSymbolTableRecord
100
AcDbBlockTableRecord
  2
*D5
340
0
  0
BLOCK_RECORD
  5
EBB
330
1
100
AcDbSymbolTableRecord
100
AcDbBlockTableRecord
  2
*D6
340
0
  0
BLOCK_RECORD
  5
10F5
330
1
100
AcDbSymbolTableRecord
100
AcDbBlockTableRecord
  2
*D7
340
0
  0
BLOCK_RECORD
  5
110D
330
1
100
AcDbSymbolTableRecord
100
AcDbBlockTableRecord
  2
*D8
340
0
  0
BLOCK_RECORD
  5
11F0
330
1
100
AcDbSymbolTableRecord
100
AcDbBlockTableRecord
  2
*D9
340
0
  0
BLOCK_RECORD
  5
1816
330
1
100
AcDbSymbolTableRecord
100
AcDbBlockTableRecord
  2
*D10
340
0
  0
BLOCK_RECORD
  5
1823
330
1
100
AcDbSymbolTableRecord
100
AcDbBlockTableRecord
  2
*D11
340
0
  0
BLOCK_RECORD
  5
1830
330
1
100
AcDbSymbolTableRecord
100
AcDbBlockTableRecord
  2
*D12
340
0
  0
BLOCK_RECORD
  5
183D
330
1
100
AcDbSymbolTableRecord
100
AcDbBlockTableRecord
  2
*D13
340
0
  0
BLOCK_RECORD
  5
184A
330
1
100
AcDbSymbolTableRecord
100
AcDbBlockTableRecord
  2
*D14
340
0
  0
BLOCK_RECORD
  5
1856
330
1
100
AcDbSymbolTableRecord
100
AcDbBlockTableRecord
  2
*D15
340
0
  0
BLOCK_RECORD
  5
1864
102
{ACAD_XDICTIONARY
360
18F3
102
}
330
1
100
AcDbSymbolTableRecord
100
AcDbBlockTableRecord
  2
A$C595612FF
340
0
1001
ACAD
1000
DesignCenter Data
1002
{
1070
     1
1070
     4
1002
}
  0
ENDTAB
  0
ENDSEC
  0
SECTION
  2
BLOCKS
  0
BLOCK
  5
32
330
18
100
AcDbEntity
  8
0
100
AcDbBlockBegin
  2
*MODEL_SPACE
 70
     0
 10
0.0
 20
0.0
 30
0.0
  3
*MODEL_SPACE
  1

  0
ENDBLK
  5
33
330
18
100
AcDbEntity
  8
0
100
AcDbBlockEnd
  0
BLOCK
  5
339
330
338
100
AcDbEntity
 67
     1
  8
0
100
AcDbBlockBegin
  2
*Paper_Space
 70
     0
 10
0.0
 20
0.0
 30
0.0
  3
*Paper_Space
  1

  0
ENDBLK
  5
33A
330
338
100
AcDbEntity
 67
     1
  8
0
100
AcDbBlockEnd
  0
BLOCK
  5
445
330
43A
100
AcDbEntity
  8
0
100
AcDbBlockBegin
  2
*D0
 70
     1
 10
0.0
 20
0.0
 30
0.0
  3
*D0
  1

  0
LINE
  5
19D5
330
43A
100
AcDbEntity
  8
2
440
 16777216
370
    -2
100
AcDbLine
 10
36.4986
 20
4.766997194009431
 30
0.0
 11
56.86624797933089
 21
4.766997194009425
 31
0.0
  0
LINE
  5
19D6
330
43A
100
AcDbEntity
  8
2
440
 16777216
370
    -2
100
AcDbLine
 10
36.4986
 20
-4.758066705289039
 30
0.0
 11
56.86624797933089
 21
-4.758066705289043
 31
0.0
  0
LINE
  5
19D7
330
43A
100
AcDbEntity
  8
2
440
 16777216
370
    -2
100
AcDbLine
 10
51.86624797933089
 20
9.336997194009427
 30
0.0
 11
51.86624797933089
 21
13.90699719400943
 31
0.0
  0
LINE
  5
19D8
330
43A
100
AcDbEntity
  8
2
440
 16777216
370
    -2
100
AcDbLine
 10
51.86624797933089
 20
-9.328066705289042
 30
0.0
 11
51.86624797933088
 21
-30.35520956243189
 31
0.0
  0
SOLID
  5
19D9
330
43A
100
AcDbEntity
  8
2
440
 16777216
100
AcDbTrace
 10
51.10458131266423
 20
9.336997194009427
 30
0.0
 11
52.62791464599756
 21
9.336997194009423
 31
0.0
 12
51.86624797933089
 22
4.766997194009427
 32
0.0
 13
51.86624797933089
 23
4.766997194009427
 33
0.0
  0
SOLID
  5
19DA
330
43A
100
AcDbEntity
  8
2
440
 16777216
100
AcDbTrace
 10
51.10458131266423
 20
-9.328066705289042
 30
0.0
 11
52.62791464599756
 21
-9.328066705289042
 31
0.0
 12
51.86624797933089
 22
-4.758066705289043
 32
0.0
 13
51.86624797933089
 23
-4.758066705289043
 33
0.0
  0
MTEXT
  5
19DB
330
43A
100
AcDbEntity
  8
2
440
 16777216
100
AcDbMText
 10
48.06624797933089
 20
-22.12663813386046
 30
0.0
 40
3.0
 41
0.0
 71
     5
 72
     1
  1
\A1;%%c9.53
  7
SANDVIK_STYLE
 11
0.0000000000000001
 21
1.0
 31
0.0
 73
     1
 44
1.0
  0
POINT
  5
19DC
330
43A
100
AcDbEntity
  8
DEFPOINTS
 62
     0
440
 16777216
100
AcDbPoint
 10
36.4986
 20
4.766997194009431
 30
0.0
  0
POINT
  5
19DD
330
43A
100
AcDbEntity
  8
DEFPOINTS
 62
     0
440
 16777216
100
AcDbPoint
 10
36.4986
 20
-4.758066705289039
 30
0.0
  0
POINT
  5
19DE
330
43A
100
AcDbEntity
  8
DEFPOINTS
 62
     0
440
 16777216
100
AcDbPoint
 10
51.86624797933089
 20
-4.758066705289043
 30
0.0
  0
ENDBLK
  5
446
330
43A
100
AcDbEntity
  8
0
100
AcDbBlockEnd
  0
BLOCK
  5
452
330
448
100
AcDbEntity
  8
0
100
AcDbBlockBegin
  2
*D1
 70
     1
 10
0.0
 20
0.0
 30
0.0
  3
*D1
  1

  0
LINE
  5
19DF
330
448
100
AcDbEntity
  8
2
440
 16777216
370
    -2
100
AcDbLine
 10
0.0
 20
0.0
 30
0.0
 11
0.0000000000000045
 21
74.05413455645271
 31
0.0
  0
LINE
  5
19E0
330
448
100
AcDbEntity
  8
2
440
 16777216
370
    -2
100
AcDbLine
 10
36.4986
 20
4.766997194009431
 30
0.0
 11
36.49860000000001
 21
74.05413455645271
 31
0.0
  0
LINE
  5
19E1
330
448
100
AcDbEntity
  8
2
440
 16777216
370
    -2
100
AcDbLine
 10
4.570000000000003
 20
69.05413455645271
 30
0.0
 11
31.92860000000001
 21
69.05413455645271
 31
0.0
  0
SOLID
  5
19E2
330
448
100
AcDbEntity
  8
2
440
 16777216
100
AcDbTrace
 10
4.570000000000003
 20
69.81580122311938
 30
0.0
 11
4.570000000000003
 21
68.29246788978604
 31
0.0
 12
0.0000000000000042
 22
69.05413455645271
 32
0.0
 13
0.0000000000000042
 23
69.05413455645271
 33
0.0
  0
SOLID
  5
19E3
330
448
100
AcDbEntity
  8
2
440
 16777216
100
AcDbTrace
 10
31.92860000000001
 20
69.81580122311938
 30
0.0
 11
31.92860000000001
 21
68.29246788978604
 31
0.0
 12
36.49860000000001
 22
69.05413455645271
 32
0.0
 13
36.49860000000001
 23
69.05413455645271
 33
0.0
  0
MTEXT
  5
19E4
330
448
100
AcDbEntity
  8
2
440
 16777216
100
AcDbMText
 10
18.24930000000001
 20
72.8541345564527
 30
0.0
 40
3.0
 41
0.0
 71
     5
 72
     1
  1
\A1;36.5
  7
SANDVIK_STYLE
 73
     1
 44
1.0
  0
POINT
  5
19E5
330
448
100
AcDbEntity
  8
DEFPOINTS
 62
     0
440
 16777216
100
AcDbPoint
 10
0.0
 20
0.0
 30
0.0
  0
POINT
  5
19E6
330
448
100
AcDbEntity
  8
DEFPOINTS
 62
     0
440
 16777216
100
AcDbPoint
 10
36.4986
 20
4.766997194009431
 30
0.0
  0
POINT
  5
19E7
330
448
100
AcDbEntity
  8
DEFPOINTS
 62
     0
440
 16777216
100
AcDbPoint
 10
36.49860000000001
 20
69.05413455645271
 30
0.0
  0
ENDBLK
  5
453
330
448
100
AcDbEntity
  8
0
100
AcDbBlockEnd
  0
BLOCK
  5
460
330
455
100
AcDbEntity
  8
0
100
AcDbBlockBegin
  2
*D2
 70
     1
 10
0.0
 20
0.0
 30
0.0
  3
*D2
  1

  0
LINE
  5
19B0
330
455
100
AcDbEntity
  8
2
440
 16777216
370
    -2
100
AcDbLine
 10
36.4986
 20
0.0000000000000027
 30
0.0
 11
36.4986
 21
50.15236424834402
 31
0.0
  0
LINE
  5
19B1
330
455
100
AcDbEntity
  8
2
440
 16777216
370
    -2
100
AcDbLine
 10
15.06601516963499
 20
4.826492823724207
 30
0.0
 11
15.06601516963499
 21
50.15236424834402
 31
0.0
  0
LINE
  5
19B2
330
455
100
AcDbEntity
  8
2
440
 16777216
370
    -2
100
AcDbLine
 10
31.9286
 20
45.15236424834401
 30
0.0
 11
19.63601516963499
 21
45.15236424834401
 31
0.0
  0
SOLID
  5
19B3
330
455
100
AcDbEntity
  8
2
440
 16777216
100
AcDbTrace
 10
31.9286
 20
45.91403091501068
 30
0.0
 11
31.9286
 21
44.39069758167734
 31
0.0
 12
36.4986
 22
45.15236424834401
 32
0.0
 13
36.4986
 23
45.15236424834401
 33
0.0
  0
SOLID
  5
19B4
330
455
100
AcDbEntity
  8
2
440
 16777216
100
AcDbTrace
 10
19.63601516963499
 20
45.91403091501068
 30
0.0
 11
19.63601516963499
 21
44.39069758167734
 31
0.0
 12
15.06601516963499
 22
45.15236424834401
 32
0.0
 13
15.06601516963499
 23
45.15236424834401
 33
0.0
  0
MTEXT
  5
19B5
330
455
100
AcDbEntity
  8
2
440
 16777216
100
AcDbMText
 10
25.7823075848175
 20
48.95236424834401
 30
0.0
 40
3.0
 41
0.0
 71
     5
 72
     1
  1
\A1;21.43
  7
SANDVIK_STYLE
 73
     1
 44
1.0
  0
POINT
  5
19B6
330
455
100
AcDbEntity
  8
DEFPOINTS
 62
     0
440
 16777216
100
AcDbPoint
 10
36.4986
 20
0.0000000000000027
 30
0.0
  0
POINT
  5
19B7
330
455
100
AcDbEntity
  8
DEFPOINTS
 62
     0
440
 16777216
100
AcDbPoint
 10
15.06601516963499
 20
4.826492823724207
 30
0.0
  0
POINT
  5
19B8
330
455
100
AcDbEntity
  8
DEFPOINTS
 62
     0
440
 16777216
100
AcDbPoint
 10
15.06601516963499
 20
45.15236424834401
 30
0.0
  0
ENDBLK
  5
461
330
455
100
AcDbEntity
  8
0
100
AcDbBlockEnd
  0
BLOCK
  5
46E
330
463
100
AcDbEntity
  8
0
100
AcDbBlockBegin
  2
*D3
 70
     1
 10
0.0
 20
0.0
 30
0.0
  3
*D3
  1

  0
LINE
  5
19A6
330
463
100
AcDbEntity
  8
SK2
440
 16777216
370
    -2
100
AcDbLine
 10
-39.224197275
 20
4.764518059950001
 30
0.0
 11
-69.62176484998469
 21
4.764518059950009
 31
0.0
  0
LINE
  5
19A7
330
463
100
AcDbEntity
  8
SK2
440
 16777216
370
    -2
100
AcDbLine
 10
-39.224197275
 20
-4.761528790050031
 30
0.0
 11
-69.62176484998469
 21
-4.761528790050022
 31
0.0
  0
LINE
  5
19A8
330
463
100
AcDbEntity
  8
SK2
440
 16777216
370
    -2
100
AcDbLine
 10
-64.62176484998469
 20
9.334518059950008
 30
0.0
 11
-64.62176484998469
 21
13.90451805995001
 31
0.0
  0
LINE
  5
19A9
330
463
100
AcDbEntity
  8
SK2
440
 16777216
370
    -2
100
AcDbLine
 10
-64.62176484998469
 20
-9.331528790050024
 30
0.0
 11
-64.62176484998469
 21
-30.35867164719288
 31
0.0
  0
SOLID
  5
19AA
330
463
100
AcDbEntity
  8
SK2
440
 16777216
100
AcDbTrace
 10
-65.38343151665135
 20
9.334518059950008
 30
0.0
 11
-63.860098183318
 21
9.334518059950008
 31
0.0
 12
-64.62176484998469
 22
4.764518059950007
 32
0.0
 13
-64.62176484998469
 23
4.764518059950007
 33
0.0
  0
SOLID
  5
19AB
330
463
100
AcDbEntity
  8
SK2
440
 16777216
100
AcDbTrace
 10
-65.38343151665135
 20
-9.331528790050024
 30
0.0
 11
-63.860098183318
 21
-9.331528790050024
 31
0.0
 12
-64.62176484998469
 22
-4.761528790050022
 32
0.0
 13
-64.62176484998469
 23
-4.761528790050022
 33
0.0
  0
MTEXT
  5
19AC
330
463
100
AcDbEntity
  8
SK2
440
 16777216
100
AcDbMText
 10
-68.42176484998468
 20
-22.13010021862146
 30
0.0
 40
3.0
 41
0.0
 71
     5
 72
     1
  1
\A1;%%c9.53
  7
SANDVIK_STYLE
 11
0.0000000000000001
 21
1.0
 31
0.0
 73
     1
 44
1.0
  0
POINT
  5
19AD
330
463
100
AcDbEntity
  8
DEFPOINTS
 62
     0
440
 16777216
100
AcDbPoint
 10
-39.224197275
 20
4.764518059950001
 30
0.0
  0
POINT
  5
19AE
330
463
100
AcDbEntity
  8
DEFPOINTS
 62
     0
440
 16777216
100
AcDbPoint
 10
-39.224197275
 20
-4.761528790050031
 30
0.0
  0
POINT
  5
19AF
330
463
100
AcDbEntity
  8
DEFPOINTS
 62
     0
440
 16777216
100
AcDbPoint
 10
-64.62176484998469
 20
-4.761528790050022
 30
0.0
  0
ENDBLK
  5
46F
330
463
100
AcDbEntity
  8
0
100
AcDbBlockEnd
  0
BLOCK
  5
47B
330
471
100
AcDbEntity
  8
0
100
AcDbBlockBegin
  2
*D4
 70
     1
 10
0.0
 20
0.0
 30
0.0
  3
*D4
  1

  0
LINE
  5
19B9
330
471
100
AcDbEntity
  8
SK2
440
 16777216
370
    -2
100
AcDbLine
 10
-39.70140000000001
 20
0.0
 30
0.0
 11
-39.7014
 21
95.0
 31
0.0
  0
LINE
  5
19BA
330
471
100
AcDbEntity
  8
SK2
440
 16777216
370
    -2
100
AcDbLine
 10
36.4986
 20
0.0000000000000027
 30
0.0
 11
36.49860000000001
 21
95.0
 31
0.0
  0
LINE
  5
19BB
330
471
100
AcDbEntity
  8
SK2
440
 16777216
370
    -2
100
AcDbLine
 10
-35.1314
 20
90.0
 30
0.0
 11
31.92860000000001
 21
90.0
 31
0.0
  0
SOLID
  5
19BC
330
471
100
AcDbEntity
  8
SK2
440
 16777216
100
AcDbTrace
 10
-35.1314
 20
90.76166666666669
 30
0.0
 11
-35.1314
 21
89.23833333333332
 31
0.0
 12
-39.7014
 22
90.0
 32
0.0
 13
-39.7014
 23
90.0
 33
0.0
  0
SOLID
  5
19BD
330
471
100
AcDbEntity
  8
SK2
440
 16777216
100
AcDbTrace
 10
31.92860000000001
 20
90.76166666666669
 30
0.0
 11
31.92860000000001
 21
89.23833333333332
 31
0.0
 12
36.49860000000001
 22
90.0
 32
0.0
 13
36.49860000000001
 23
90.0
 33
0.0
  0
MTEXT
  5
19BE
330
471
100
AcDbEntity
  8
SK2
440
 16777216
100
AcDbMText
 10
-1.601399999999993
 20
93.8
 30
0.0
 40
3.0
 41
0.0
 71
     5
 72
     1
  1
\A1;76.2
  7
SANDVIK_STYLE
 73
     1
 44
1.0
  0
POINT
  5
19BF
330
471
100
AcDbEntity
  8
DEFPOINTS
 62
     0
440
 16777216
100
AcDbPoint
 10
-39.70140000000001
 20
0.0
 30
0.0
  0
POINT
  5
19C0
330
471
100
AcDbEntity
  8
DEFPOINTS
 62
     0
440
 16777216
100
AcDbPoint
 10
36.4986
 20
0.0000000000000027
 30
0.0
  0
POINT
  5
19C1
330
471
100
AcDbEntity
  8
DEFPOINTS
 62
     0
440
 16777216
100
AcDbPoint
 10
36.49860000000001
 20
90.0
 30
0.0
  0
ENDBLK
  5
47C
330
471
100
AcDbEntity
  8
0
100
AcDbBlockEnd
  0
BLOCK
  5
496
330
48B
100
AcDbEntity
  8
0
100
AcDbBlockBegin
  2
*D5
 70
     1
 10
0.0
 20
0.0
 30
0.0
  3
*D5
  1

  0
LINE
  5
19CB
330
48B
100
AcDbEntity
  8
2
440
 16777216
370
    -2
100
AcDbLine
 10
36.244572084
 20
4.766997194009431
 30
0.0
 11
36.244572084
 21
21.652364248344
 31
0.0
  0
LINE
  5
19CC
330
48B
100
AcDbEntity
  8
2
440
 16777216
370
    -2
100
AcDbLine
 10
36.4986
 20
4.508300107579952
 30
0.0
 11
36.4986
 21
21.652364248344
 31
0.0
  0
LINE
  5
19CD
330
48B
100
AcDbEntity
  8
2
440
 16777216
370
    -2
100
AcDbLine
 10
31.674572084
 20
16.652364248344
 30
0.0
 11
27.104572084
 21
16.652364248344
 31
0.0
  0
LINE
  5
19CE
330
48B
100
AcDbEntity
  8
2
440
 16777216
370
    -2
100
AcDbLine
 10
41.0686
 20
16.652364248344
 30
0.0
 11
71.23859999999997
 21
16.652364248344
 31
0.0
  0
SOLID
  5
19CF
330
48B
100
AcDbEntity
  8
2
440
 16777216
100
AcDbTrace
 10
31.674572084
 20
17.41403091501067
 30
0.0
 11
31.674572084
 21
15.89069758167733
 31
0.0
 12
36.244572084
 22
16.652364248344
 32
0.0
 13
36.244572084
 23
16.652364248344
 33
0.0
  0
SOLID
  5
19D0
330
48B
100
AcDbEntity
  8
2
440
 16777216
100
AcDbTrace
 10
41.0686
 20
17.41403091501067
 30
0.0
 11
41.0686
 21
15.89069758167733
 31
0.0
 12
36.4986
 22
16.652364248344
 32
0.0
 13
36.4986
 23
16.652364248344
 33
0.0
  0
MTEXT
  5
19D1
330
48B
100
AcDbEntity
  8
2
440
 16777216
100
AcDbMText
 10
58.43859999999999
 20
20.452364248344
 30
0.0
 40
3.0
 41
0.0
 71
     5
 72
     1
  1
\A1;0.152x45°
  7
SANDVIK_STYLE
 73
     1
 44
1.0
  0
POINT
  5
19D2
330
48B
100
AcDbEntity
  8
DEFPOINTS
 62
     0
440
 16777216
100
AcDbPoint
 10
36.244572084
 20
4.766997194009431
 30
0.0
  0
POINT
  5
19D3
330
48B
100
AcDbEntity
  8
DEFPOINTS
 62
     0
440
 16777216
100
AcDbPoint
 10
36.4986
 20
4.508300107579952
 30
0.0
  0
POINT
  5
19D4
330
48B
100
AcDbEntity
  8
DEFPOINTS
 62
     0
440
 16777216
100
AcDbPoint
 10
36.4986
 20
16.652364248344
 30
0.0
  0
ENDBLK
  5
497
330
48B
100
AcDbEntity
  8
0
100
AcDbBlockEnd
  0
BLOCK
  5
EBC
330
EBB
100
AcDbEntity
  8
0
100
AcDbBlockBegin
  2
*D6
 70
     1
 10
0.0
 20
0.0
 30
0.0
  3
*D6
  1

  0
LINE
  5
EC8
330
EBB
100
AcDbEntity
  8
1
 62
     0
440
 16777216
370
    -2
100
AcDbLine
 10
-39.70140000000001
 20
-0.200189217453723
 30
0.0
 11
-39.70140000000001
 21
21.09505830867215
 31
0.0
  0
LINE
  5
EC9
330
EBB
100
AcDbEntity
  8
1
 62
     0
440
 16777216
370
    -2
100
AcDbLine
 10
0.0
 20
-0.2001892174537255
 30
0.0
 11
0.0000000000000013
 21
21.09505830867215
 31
0.0
  0
LINE
  5
ECA
330
EBB
100
AcDbEntity
  8
1
 62
     0
440
 16777216
370
    -2
100
AcDbLine
 10
-37.20140000000001
 20
19.84505830867215
 30
0.0
 11
-2.499999999999996
 21
19.84505830867215
 31
0.0
  0
SOLID
  5
ECB
330
EBB
100
AcDbEntity
  8
1
 62
     0
440
 16777216
100
AcDbTrace
 10
-37.20140000000001
 20
20.26172497533882
 30
0.0
 11
-37.20140000000001
 21
19.42839164200548
 31
0.0
 12
-39.70140000000001
 22
19.84505830867215
 32
0.0
 13
-39.70140000000001
 23
19.84505830867215
 33
0.0
  0
SOLID
  5
ECC
330
EBB
100
AcDbEntity
  8
1
 62
     0
440
 16777216
100
AcDbTrace
 10
-2.499999999999996
 20
20.26172497533882
 30
0.0
 11
-2.499999999999996
 21
19.42839164200548
 31
0.0
 12
0.0000000000000012
 22
19.84505830867215
 32
0.0
 13
0.0000000000000012
 23
19.84505830867215
 33
0.0
  0
MTEXT
  5
ECD
330
EBB
100
AcDbEntity
  8
1
 62
     0
440
 16777216
100
AcDbMText
 10
-19.8507
 20
22.22005830867215
 30
0.0
 40
3.5
 41
0.0
 71
     5
 72
     1
  1
39.7
  7
SIMPLEX
 73
     1
 44
1.0
  0
POINT
  5
ECE
330
EBB
100
AcDbEntity
  8
DEFPOINTS
 62
     0
440
 16777216
100
AcDbPoint
 10
-39.70140000000001
 20
-0.200189217453723
 30
0.0
  0
POINT
  5
ECF
330
EBB
100
AcDbEntity
  8
DEFPOINTS
 62
     0
440
 16777216
100
AcDbPoint
 10
0.0
 20
-0.2001892174537255
 30
0.0
  0
POINT
  5
ED0
330
EBB
100
AcDbEntity
  8
DEFPOINTS
 62
     0
440
 16777216
100
AcDbPoint
 10
0.0000000000000012
 20
19.84505830867215
 30
0.0
  0
ENDBLK
  5
EBD
330
EBB
100
AcDbEntity
  8
0
100
AcDbBlockEnd
  0
BLOCK
  5
10F6
330
10F5
100
AcDbEntity
  8
0
100
AcDbBlockBegin
  2
*D7
 70
     1
 10
0.0
 20
0.0
 30
0.0
  3
*D7
  1

  0
LINE
  5
1133
330
10F5
100
AcDbEntity
  8
1
 62
     0
440
 16777216
370
    -2
100
AcDbLine
 10
36.4986
 20
-0.8234297645118074
 30
0.0
 11
36.4986
 21
12.37934458009614
 31
0.0
  0
LINE
  5
1134
330
10F5
100
AcDbEntity
  8
1
 62
     0
440
 16777216
370
    -2
100
AcDbLine
 10
15.06601516963499
 20
-0.9653139609618007
 30
0.0
 11
15.06601516963499
 21
12.37934458009614
 31
0.0
  0
LINE
  5
1135
330
10F5
100
AcDbEntity
  8
1
 62
     0
440
 16777216
370
    -2
100
AcDbLine
 10
33.9986
 20
11.12934458009614
 30
0.0
 11
17.56601516963499
 21
11.12934458009614
 31
0.0
  0
SOLID
  5
1136
330
10F5
100
AcDbEntity
  8
1
 62
     0
440
 16777216
100
AcDbTrace
 10
33.9986
 20
11.5460112467628
 30
0.0
 11
33.9986
 21
10.71267791342947
 31
0.0
 12
36.4986
 22
11.12934458009614
 32
0.0
 13
36.4986
 23
11.12934458009614
 33
0.0
  0
SOLID
  5
1137
330
10F5
100
AcDbEntity
  8
1
 62
     0
440
 16777216
100
AcDbTrace
 10
17.56601516963499
 20
11.5460112467628
 30
0.0
 11
17.56601516963499
 21
10.71267791342947
 31
0.0
 12
15.06601516963499
 22
11.12934458009614
 32
0.0
 13
15.06601516963499
 23
11.12934458009614
 33
0.0
  0
MTEXT
  5
1138
330
10F5
100
AcDbEntity
  8
1
 62
     0
440
 16777216
100
AcDbMText
 10
25.7823075848175
 20
13.50434458009614
 30
0.0
 40
3.5
 41
0.0
 71
     5
 72
     1
  1
21.43
  7
SIMPLEX
 73
     1
 44
1.0
  0
POINT
  5
1139
330
10F5
100
AcDbEntity
  8
DEFPOINTS
 62
     0
440
 16777216
100
AcDbPoint
 10
36.4986
 20
-0.8234297645118074
 30
0.0
  0
POINT
  5
113A
330
10F5
100
AcDbEntity
  8
DEFPOINTS
 62
     0
440
 16777216
100
AcDbPoint
 10
15.06601516963499
 20
-0.9653139609618007
 30
0.0
  0
POINT
  5
113B
330
10F5
100
AcDbEntity
  8
DEFPOINTS
 62
     0
440
 16777216
100
AcDbPoint
 10
15.06601516963499
 20
11.12934458009614
 30
0.0
  0
ENDBLK
  5
10F7
330
10F5
100
AcDbEntity
  8
0
100
AcDbBlockEnd
  0
BLOCK
  5
110E
330
110D
100
AcDbEntity
  8
0
100
AcDbBlockBegin
  2
*D8
 70
     1
 10
0.0
 20
0.0
 30
0.0
  3
*D8
  1

  0
LINE
  5
111A
330
110D
100
AcDbEntity
  8
1
 62
     0
440
 16777216
370
    -2
100
AcDbLine
 10
0.0
 20
0.0000000000000027
 30
0.0
 11
0.0000000000000008
 21
13.08438577400017
 31
0.0
  0
LINE
  5
111B
330
110D
100
AcDbEntity
  8
1
 62
     0
440
 16777216
370
    -2
100
AcDbLine
 10
-39.70140000000001
 20
0.0000000000000058
 30
0.0
 11
-39.70140000000001
 21
13.08438577400017
 31
0.0
  0
LINE
  5
111C
330
110D
100
AcDbEntity
  8
1
 62
     0
440
 16777216
370
    -2
100
AcDbLine
 10
-2.499999999999999
 20
11.83438577400017
 30
0.0
 11
-37.20140000000001
 21
11.83438577400017
 31
0.0
  0
SOLID
  5
111D
330
110D
100
AcDbEntity
  8
1
 62
     0
440
 16777216
100
AcDbTrace
 10
-2.499999999999999
 20
12.25105244066683
 30
0.0
 11
-2.499999999999999
 21
11.4177191073335
 31
0.0
 12
0.0000000000000007
 22
11.83438577400017
 32
0.0
 13
0.0000000000000007
 23
11.83438577400017
 33
0.0
  0
SOLID
  5
111E
330
110D
100
AcDbEntity
  8
1
 62
     0
440
 16777216
100
AcDbTrace
 10
-37.20140000000001
 20
12.25105244066683
 30
0.0
 11
-37.20140000000001
 21
11.4177191073335
 31
0.0
 12
-39.70140000000001
 22
11.83438577400017
 32
0.0
 13
-39.70140000000001
 23
11.83438577400017
 33
0.0
  0
MTEXT
  5
111F
330
110D
100
AcDbEntity
  8
1
 62
     0
440
 16777216
100
AcDbMText
 10
-19.8507
 20
14.20938577400017
 30
0.0
 40
3.5
 41
0.0
 71
     5
 72
     1
  1
39.7
  7
SIMPLEX
 73
     1
 44
1.0
  0
POINT
  5
1120
330
110D
100
AcDbEntity
  8
DEFPOINTS
 62
     0
440
 16777216
100
AcDbPoint
 10
0.0
 20
0.0000000000000027
 30
0.0
  0
POINT
  5
1121
330
110D
100
AcDbEntity
  8
DEFPOINTS
 62
     0
440
 16777216
100
AcDbPoint
 10
-39.70140000000001
 20
0.0000000000000058
 30
0.0
  0
POINT
  5
1122
330
110D
100
AcDbEntity
  8
DEFPOINTS
 62
     0
440
 16777216
100
AcDbPoint
 10
-39.70140000000001
 20
11.83438577400017
 30
0.0
  0
ENDBLK
  5
110F
330
110D
100
AcDbEntity
  8
0
100
AcDbBlockEnd
  0
BLOCK
  5
11F1
330
11F0
100
AcDbEntity
  8
0
100
AcDbBlockBegin
  2
*D9
 70
     1
 10
0.0
 20
0.0
 30
0.0
  3
*D9
  1

  0
LINE
  5
11FD
330
11F0
100
AcDbEntity
  8
1
 62
     0
440
 16777216
370
    -2
100
AcDbLine
 10
0.0
 20
0.0000000000000027
 30
0.0
 11
0.0000000000000007
 21
11.80961737140461
 31
0.0
  0
LINE
  5
11FE
330
11F0
100
AcDbEntity
  8
1
 62
     0
440
 16777216
370
    -2
100
AcDbLine
 10
-39.70140000000001
 20
0.0000000000000058
 30
0.0
 11
-39.70140000000001
 21
11.80961737140461
 31
0.0
  0
LINE
  5
11FF
330
11F0
100
AcDbEntity
  8
1
 62
     0
440
 16777216
370
    -2
100
AcDbLine
 10
-2.499999999999999
 20
10.55961737140461
 30
0.0
 11
-37.20140000000001
 21
10.55961737140461
 31
0.0
  0
SOLID
  5
1200
330
11F0
100
AcDbEntity
  8
1
 62
     0
440
 16777216
100
AcDbTrace
 10
-2.499999999999999
 20
10.97628403807128
 30
0.0
 11
-2.499999999999999
 21
10.14295070473794
 31
0.0
 12
0.0000000000000006
 22
10.55961737140461
 32
0.0
 13
0.0000000000000006
 23
10.55961737140461
 33
0.0
  0
SOLID
  5
1201
330
11F0
100
AcDbEntity
  8
1
 62
     0
440
 16777216
100
AcDbTrace
 10
-37.20140000000001
 20
10.97628403807128
 30
0.0
 11
-37.20140000000001
 21
10.14295070473794
 31
0.0
 12
-39.70140000000001
 22
10.55961737140461
 32
0.0
 13
-39.70140000000001
 23
10.55961737140461
 33
0.0
  0
MTEXT
  5
1202
330
11F0
100
AcDbEntity
  8
1
 62
     0
440
 16777216
100
AcDbMText
 10
-19.8507
 20
12.93461737140461
 30
0.0
 40
3.5
 41
0.0
 71
     5
 72
     1
  1
39.7
  7
SIMPLEX
 73
     1
 44
1.0
  0
POINT
  5
1203
330
11F0
100
AcDbEntity
  8
DEFPOINTS
 62
     0
440
 16777216
100
AcDbPoint
 10
0.0
 20
0.0000000000000027
 30
0.0
  0
POINT
  5
1204
330
11F0
100
AcDbEntity
  8
DEFPOINTS
 62
     0
440
 16777216
100
AcDbPoint
 10
-39.70140000000001
 20
0.0000000000000058
 30
0.0
  0
POINT
  5
1205
330
11F0
100
AcDbEntity
  8
DEFPOINTS
 62
     0
440
 16777216
100
AcDbPoint
 10
-39.70140000000001
 20
10.55961737140461
 30
0.0
  0
ENDBLK
  5
11F2
330
11F0
100
AcDbEntity
  8
0
100
AcDbBlockEnd
  0
BLOCK
  5
1817
330
1816
100
AcDbEntity
  8
0
100
AcDbBlockBegin
  2
*D10
 70
     1
 10
0.0
 20
0.0
 30
0.0
  3
*D10
  1

  0
LINE
  5
1818
330
1816
100
AcDbEntity
  8
2
440
 16777216
370
    -2
100
AcDbLine
 10
12.1
 20
1.586999999999999
 30
0.0
 11
31.26000000000001
 21
1.586999999999993
 31
0.0
  0
LINE
  5
1819
330
1816
100
AcDbEntity
  8
2
440
 16777216
370
    -2
100
AcDbLine
 10
12.01833993666911
 20
-1.586999999999995
 30
0.0
 11
31.26
 21
-1.587000000000003
 31
0.0
  0
LINE
  5
181A
330
1816
100
AcDbEntity
  8
2
440
 16777216
370
    -2
100
AcDbLine
 10
26.26
 20
6.156999999999992
 30
0.0
 11
26.26000000000001
 21
10.72699999999999
 31
0.0
  0
LINE
  5
181B
330
1816
100
AcDbEntity
  8
2
440
 16777216
370
    -2
100
AcDbLine
 10
26.26
 20
-6.157000000000002
 30
0.0
 11
26.25999999999999
 21
-26.61271428571428
 31
0.0
  0
SOLID
  5
181C
330
1816
100
AcDbEntity
  8
2
440
 16777216
100
AcDbTrace
 10
25.49833333333334
 20
6.156999999999995
 30
0.0
 11
27.02166666666667
 21
6.156999999999992
 31
0.0
 12
26.26
 22
1.586999999999995
 32
0.0
 13
26.26
 23
1.586999999999995
 33
0.0
  0
SOLID
  5
181D
330
1816
100
AcDbEntity
  8
2
440
 16777216
100
AcDbTrace
 10
25.49833333333334
 20
-6.157
 30
0.0
 11
27.02166666666667
 21
-6.157000000000002
 31
0.0
 12
26.26
 22
-1.586999999999999
 32
0.0
 13
26.26
 23
-1.586999999999999
 33
0.0
  0
MTEXT
  5
181E
330
1816
100
AcDbEntity
  8
2
440
 16777216
100
AcDbMText
 10
22.46
 20
-18.66985714285713
 30
0.0
 40
3.0
 41
0.0
 71
     5
 72
     1
  1
\A1;%%c3.18
  7
SANDVIK_STYLE
 11
0.0000000000000001
 21
1.0
 31
0.0
 73
     1
 44
1.0
  0
POINT
  5
181F
330
1816
100
AcDbEntity
  8
DEFPOINTS
 62
     0
440
 16777216
100
AcDbPoint
 10
12.1
 20
1.586999999999999
 30
0.0
  0
POINT
  5
1820
330
1816
100
AcDbEntity
  8
DEFPOINTS
 62
     0
440
 16777216
100
AcDbPoint
 10
12.01833993666911
 20
-1.586999999999995
 30
0.0
  0
POINT
  5
1821
330
1816
100
AcDbEntity
  8
DEFPOINTS
 62
     0
440
 16777216
100
AcDbPoint
 10
26.26
 20
-1.586999999999999
 30
0.0
  0
ENDBLK
  5
1822
330
1816
100
AcDbEntity
  8
0
100
AcDbBlockEnd
  0
BLOCK
  5
1824
330
1823
100
AcDbEntity
  8
0
100
AcDbBlockBegin
  2
*D11
 70
     1
 10
0.0
 20
0.0
 30
0.0
  3
*D11
  1

  0
LINE
  5
1825
330
1823
100
AcDbEntity
  8
2
440
 16777216
370
    -2
100
AcDbLine
 10
0.0
 20
0.0
 30
0.0
 11
0.0000000000000045
 21
73.01002865527427
 31
0.0
  0
LINE
  5
1826
330
1823
100
AcDbEntity
  8
2
440
 16777216
370
    -2
100
AcDbLine
 10
12.1
 20
0.0
 30
0.0
 11
12.1
 21
73.01002865527427
 31
0.0
  0
LINE
  5
1827
330
1823
100
AcDbEntity
  8
2
440
 16777216
370
    -2
100
AcDbLine
 10
-4.569999999999994
 20
68.01002865527426
 30
0.0
 11
-9.139999999999997
 21
68.01002865527426
 31
0.0
  0
LINE
  5
1828
330
1823
100
AcDbEntity
  8
2
440
 16777216
370
    -2
100
AcDbLine
 10
16.67
 20
68.01002865527426
 30
0.0
 11
33.12571428571428
 21
68.01002865527426
 31
0.0
  0
SOLID
  5
1829
330
1823
100
AcDbEntity
  8
2
440
 16777216
100
AcDbTrace
 10
-4.569999999999994
 20
68.77169532194092
 30
0.0
 11
-4.569999999999994
 21
67.24836198860758
 31
0.0
 12
0.0000000000000042
 22
68.01002865527426
 32
0.0
 13
0.0000000000000042
 23
68.01002865527426
 33
0.0
  0
SOLID
  5
182A
330
1823
100
AcDbEntity
  8
2
440
 16777216
100
AcDbTrace
 10
16.67
 20
68.77169532194092
 30
0.0
 11
16.67
 21
67.24836198860758
 31
0.0
 12
12.1
 22
68.01002865527426
 32
0.0
 13
12.1
 23
68.01002865527426
 33
0.0
  0
MTEXT
  5
182B
330
1823
100
AcDbEntity
  8
2
440
 16777216
100
AcDbMText
 10
27.18285714285715
 20
71.81002865527425
 30
0.0
 40
3.0
 41
0.0
 71
     5
 72
     1
  1
\A1;12.1
  7
SANDVIK_STYLE
 73
     1
 44
1.0
  0
POINT
  5
182C
330
1823
100
AcDbEntity
  8
DEFPOINTS
 62
     0
440
 16777216
100
AcDbPoint
 10
0.0
 20
0.0
 30
0.0
  0
POINT
  5
182D
330
1823
100
AcDbEntity
  8
DEFPOINTS
 62
     0
440
 16777216
100
AcDbPoint
 10
12.1
 20
0.0
 30
0.0
  0
POINT
  5
182E
330
1823
100
AcDbEntity
  8
DEFPOINTS
 62
     0
440
 16777216
100
AcDbPoint
 10
12.1
 20
68.01002865527426
 30
0.0
  0
ENDBLK
  5
182F
330
1823
100
AcDbEntity
  8
0
100
AcDbBlockEnd
  0
BLOCK
  5
1831
330
1830
100
AcDbEntity
  8
0
100
AcDbBlockBegin
  2
*D12
 70
     1
 10
0.0
 20
0.0
 30
0.0
  3
*D12
  1

  0
LINE
  5
1832
330
1830
100
AcDbEntity
  8
2
440
 16777216
370
    -2
100
AcDbLine
 10
12.1
 20
1.652364248344006
 30
0.0
 11
12.1
 21
50.15236424834402
 31
0.0
  0
LINE
  5
1833
330
1830
100
AcDbEntity
  8
2
440
 16777216
370
    -2
100
AcDbLine
 10
4.165
 20
1.690790506212522
 30
0.0
 11
4.165
 21
50.15236424834402
 31
0.0
  0
LINE
  5
1834
330
1830
100
AcDbEntity
  8
2
440
 16777216
370
    -2
100
AcDbLine
 10
-0.4049999999999976
 20
45.15236424834401
 30
0.0
 11
-4.974999999999996
 21
45.15236424834401
 31
0.0
  0
LINE
  5
1835
330
1830
100
AcDbEntity
  8
2
440
 16777216
370
    -2
100
AcDbLine
 10
16.67
 20
45.15236424834401
 30
0.0
 11
35.12571428571428
 21
45.15236424834401
 31
0.0
  0
SOLID
  5
1836
330
1830
100
AcDbEntity
  8
2
440
 16777216
100
AcDbTrace
 10
-0.4049999999999976
 20
45.91403091501068
 30
0.0
 11
-0.4049999999999976
 21
44.39069758167734
 31
0.0
 12
4.165
 22
45.15236424834401
 32
0.0
 13
4.165
 23
45.15236424834401
 33
0.0
  0
SOLID
  5
1837
330
1830
100
AcDbEntity
  8
2
440
 16777216
100
AcDbTrace
 10
16.67
 20
45.91403091501068
 30
0.0
 11
16.67
 21
44.39069758167734
 31
0.0
 12
12.1
 22
45.15236424834401
 32
0.0
 13
12.1
 23
45.15236424834401
 33
0.0
  0
MTEXT
  5
1838
330
1830
100
AcDbEntity
  8
2
440
 16777216
100
AcDbMText
 10
28.18285714285714
 20
48.95236424834401
 30
0.0
 40
3.0
 41
0.0
 71
     5
 72
     1
  1
\A1;7.94
  7
SANDVIK_STYLE
 73
     1
 44
1.0
  0
POINT
  5
1839
330
1830
100
AcDbEntity
  8
DEFPOINTS
 62
     0
440
 16777216
100
AcDbPoint
 10
12.1
 20
1.652364248344006
 30
0.0
  0
POINT
  5
183A
330
1830
100
AcDbEntity
  8
DEFPOINTS
 62
     0
440
 16777216
100
AcDbPoint
 10
4.165
 20
1.690790506212522
 30
0.0
  0
POINT
  5
183B
330
1830
100
AcDbEntity
  8
DEFPOINTS
 62
     0
440
 16777216
100
AcDbPoint
 10
4.165
 20
45.15236424834401
 30
0.0
  0
ENDBLK
  5
183C
330
1830
100
AcDbEntity
  8
0
100
AcDbBlockEnd
  0
BLOCK
  5
183E
330
183D
100
AcDbEntity
  8
0
100
AcDbBlockBegin
  2
*D13
 70
     1
 10
0.0
 20
0.0
 30
0.0
  3
*D13
  1

  0
LINE
  5
183F
330
183D
100
AcDbEntity
  8
SK2
440
 16777216
370
    -2
100
AcDbLine
 10
-25.841
 20
1.587497999999999
 30
0.0
 11
-55.99999999998468
 21
1.587498000000007
 31
0.0
  0
LINE
  5
1840
330
183D
100
AcDbEntity
  8
SK2
440
 16777216
370
    -2
100
AcDbLine
 10
-25.841
 20
-1.592502000000002
 30
0.0
 11
-55.99999999998468
 21
-1.592501999999993
 31
0.0
  0
LINE
  5
1841
330
183D
100
AcDbEntity
  8
SK2
440
 16777216
370
    -2
100
AcDbLine
 10
-50.99999999998468
 20
6.157498000000004
 30
0.0
 11
-50.99999999998468
 21
10.727498
 31
0.0
  0
LINE
  5
1842
330
183D
100
AcDbEntity
  8
SK2
440
 16777216
370
    -2
100
AcDbLine
 10
-50.99999999998468
 20
-6.162501999999995
 30
0.0
 11
-50.99999999998468
 21
-26.61821628571428
 31
0.0
  0
SOLID
  5
1843
330
183D
100
AcDbEntity
  8
SK2
440
 16777216
100
AcDbTrace
 10
-51.76166666665135
 20
6.157498000000004
 30
0.0
 11
-50.23833333331801
 21
6.157498000000004
 31
0.0
 12
-50.99999999998468
 22
1.587498000000006
 32
0.0
 13
-50.99999999998468
 23
1.587498000000006
 33
0.0
  0
SOLID
  5
1844
330
183D
100
AcDbEntity
  8
SK2
440
 16777216
100
AcDbTrace
 10
-51.76166666665135
 20
-6.162501999999995
 30
0.0
 11
-50.23833333331801
 21
-6.162501999999995
 31
0.0
 12
-50.99999999998468
 22
-1.592501999999995
 32
0.0
 13
-50.99999999998468
 23
-1.592501999999995
 33
0.0
  0
MTEXT
  5
1845
330
183D
100
AcDbEntity
  8
SK2
440
 16777216
100
AcDbMText
 10
-54.79999999998469
 20
-18.67535914285714
 30
0.0
 40
3.0
 41
0.0
 71
     5
 72
     1
  1
\A1;%%c3.18
  7
SANDVIK_STYLE
 11
0.0000000000000001
 21
1.0
 31
0.0
 73
     1
 44
1.0
  0
POINT
  5
1846
330
183D
100
AcDbEntity
  8
DEFPOINTS
 62
     0
440
 16777216
100
AcDbPoint
 10
-25.841
 20
1.587497999999999
 30
0.0
  0
POINT
  5
1847
330
183D
100
AcDbEntity
  8
DEFPOINTS
 62
     0
440
 16777216
100
AcDbPoint
 10
-25.841
 20
-1.592502000000002
 30
0.0
  0
POINT
  5
1848
330
183D
100
AcDbEntity
  8
DEFPOINTS
 62
     0
440
 16777216
100
AcDbPoint
 10
-50.99999999998468
 20
-1.592501999999995
 30
0.0
  0
ENDBLK
  5
1849
330
183D
100
AcDbEntity
  8
0
100
AcDbBlockEnd
  0
BLOCK
  5
184B
330
184A
100
AcDbEntity
  8
0
100
AcDbBlockBegin
  2
*D14
 70
     1
 10
0.0
 20
0.0
 30
0.0
  3
*D14
  1

  0
LINE
  5
184C
330
184A
100
AcDbEntity
  8
SK2
440
 16777216
370
    -2
100
AcDbLine
 10
-26.0
 20
0.0
 30
0.0
 11
-26.0
 21
95.0
 31
0.0
  0
LINE
  5
184D
330
184A
100
AcDbEntity
  8
SK2
440
 16777216
370
    -2
100
AcDbLine
 10
12.1
 20
0.0
 30
0.0
 11
12.1
 21
95.0
 31
0.0
  0
LINE
  5
184E
330
184A
100
AcDbEntity
  8
SK2
440
 16777216
370
    -2
100
AcDbLine
 10
-21.42999999999999
 20
90.0
 30
0.0
 11
7.530000000000002
 21
90.0
 31
0.0
  0
SOLID
  5
184F
330
184A
100
AcDbEntity
  8
SK2
440
 16777216
100
AcDbTrace
 10
-21.42999999999999
 20
90.76166666666669
 30
0.0
 11
-21.42999999999999
 21
89.23833333333332
 31
0.0
 12
-26.0
 22
90.0
 32
0.0
 13
-26.0
 23
90.0
 33
0.0
  0
SOLID
  5
1850
330
184A
100
AcDbEntity
  8
SK2
440
 16777216
100
AcDbTrace
 10
7.530000000000002
 20
90.76166666666669
 30
0.0
 11
7.530000000000002
 21
89.23833333333332
 31
0.0
 12
12.1
 22
90.0
 32
0.0
 13
12.1
 23
90.0
 33
0.0
  0
MTEXT
  5
1851
330
184A
100
AcDbEntity
  8
SK2
440
 16777216
100
AcDbMText
 10
-6.949999999999991
 20
93.8
 30
0.0
 40
3.0
 41
0.0
 71
     5
 72
     1
  1
\A1;38.1
  7
SANDVIK_STYLE
 73
     1
 44
1.0
  0
POINT
  5
1852
330
184A
100
AcDbEntity
  8
DEFPOINTS
 62
     0
440
 16777216
100
AcDbPoint
 10
-26.0
 20
0.0
 30
0.0
  0
POINT
  5
1853
330
184A
100
AcDbEntity
  8
DEFPOINTS
 62
     0
440
 16777216
100
AcDbPoint
 10
12.1
 20
0.0
 30
0.0
  0
POINT
  5
1854
330
184A
100
AcDbEntity
  8
DEFPOINTS
 62
     0
440
 16777216
100
AcDbPoint
 10
12.1
 20
90.0
 30
0.0
  0
ENDBLK
  5
1855
330
184A
100
AcDbEntity
  8
0
100
AcDbBlockEnd
  0
BLOCK
  5
1857
330
1856
100
AcDbEntity
  8
0
100
AcDbBlockBegin
  2
*D15
 70
     1
 10
0.0
 20
0.0
 30
0.0
  3
*D15
  1

  0
LINE
  5
1858
330
1856
100
AcDbEntity
  8
2
440
 16777216
370
    -2
100
AcDbLine
 10
12.0152
 20
1.65694821576909
 30
0.0
 11
12.0152
 21
24.98817130491938
 31
0.0
  0
LINE
  5
1859
330
1856
100
AcDbEntity
  8
2
440
 16777216
370
    -2
100
AcDbLine
 10
12.1
 20
0.0
 30
0.0
 11
12.1
 21
24.98817130491938
 31
0.0
  0
LINE
  5
185A
330
1856
100
AcDbEntity
  8
2
440
 16777216
370
    -2
100
AcDbLine
 10
7.445200000000001
 20
19.98817130491937
 30
0.0
 11
2.875200000000001
 21
19.98817130491937
 31
0.0
  0
LINE
  5
185B
330
1856
100
AcDbEntity
  8
2
440
 16777216
370
    -2
100
AcDbLine
 10
16.67
 20
19.98817130491937
 30
0.0
 11
46.83999999999999
 21
19.98817130491937
 31
0.0
  0
SOLID
  5
185C
330
1856
100
AcDbEntity
  8
2
440
 16777216
100
AcDbTrace
 10
7.445200000000001
 20
20.74983797158604
 30
0.0
 11
7.445200000000001
 21
19.22650463825271
 31
0.0
 12
12.0152
 22
19.98817130491937
 32
0.0
 13
12.0152
 23
19.98817130491937
 33
0.0
  0
SOLID
  5
185D
330
1856
100
AcDbEntity
  8
2
440
 16777216
100
AcDbTrace
 10
16.67
 20
20.74983797158604
 30
0.0
 11
16.67
 21
19.22650463825271
 31
0.0
 12
12.1
 22
19.98817130491937
 32
0.0
 13
12.1
 23
19.98817130491937
 33
0.0
  0
MTEXT
  5
185E
330
1856
100
AcDbEntity
  8
2
440
 16777216
100
AcDbMText
 10
34.03999999999999
 20
23.78817130491937
 30
0.0
 40
3.0
 41
0.0
 71
     5
 72
     1
  1
\A1;0.081x45°
  7
SANDVIK_STYLE
 73
     1
 44
1.0
  0
POINT
  5
185F
330
1856
100
AcDbEntity
  8
DEFPOINTS
 62
     0
440
 16777216
100
AcDbPoint
 10
12.0152
 20
1.65694821576909
 30
0.0
  0
POINT
  5
1860
330
1856
100
AcDbEntity
  8
DEFPOINTS
 62
     0
440
 16777216
100
AcDbPoint
 10
12.1
 20
0.0
 30
0.0
  0
POINT
  5
1861
330
1856
100
AcDbEntity
  8
DEFPOINTS
 62
     0
440
 16777216
100
AcDbPoint
 10
12.1
 20
19.98817130491937
 30
0.0
  0
ENDBLK
  5
1862
330
1856
100
AcDbEntity
  8
0
100
AcDbBlockEnd
  0
BLOCK
  5
18F5
330
1864
100
AcDbEntity
  8
0
100
AcDbBlockBegin
  2
A$C595612FF
 70
     0
 10
0.0
 20
0.0
 30
0.0
  3
A$C595612FF
  1

  0
LINE
  5
1865
330
1864
100
AcDbEntity
  8
SK4
100
AcDbLine
 10
15.40313462659208
 20
-60.43802737875506
 30
0.0
 11
55.40313462659207
 21
-60.43802737875506
 31
0.0
  0
LINE
  5
1866
330
1864
100
AcDbEntity
  8
4
100
AcDbLine
 10
53.40313462659207
 20
-60.43802737875506
 30
0.0
 11
69.40313462659208
 21
-60.43802737875506
 31
0.0
  0
LINE
  5
1867
330
1864
100
AcDbEntity
  8
SK4
100
AcDbLine
 10
53.40313462659207
 20
-60.43802737875506
 30
0.0
 11
69.40313462659208
 21
-60.43802737875506
 31
0.0
  0
LINE
  5
1868
330
1864
100
AcDbEntity
  8
SK1
100
AcDbLine
 10
53.40313462659207
 20
-58.85052937875506
 30
0.0
 11
27.56213462659208
 21
-58.85052937875506
 31
0.0
  0
LINE
  5
1869
330
1864
100
AcDbEntity
  8
SK1
100
AcDbLine
 10
27.56213462659208
 20
-58.85052937875506
 30
0.0
 11
27.40313462659208
 21
-59.00952937875508
 31
0.0
  0
LINE
  5
186A
330
1864
100
AcDbEntity
  8
SK1
100
AcDbLine
 10
27.40313462659208
 20
-59.00952937875508
 30
0.0
 11
27.40313462659208
 21
-59.01095206935925
 31
0.0
  0
LINE
  5
186B
330
1864
100
AcDbEntity
  8
SK1
100
AcDbLine
 10
27.40313462659208
 20
-59.01095206935925
 30
0.0
 11
27.40313462659208
 21
-59.13792816087514
 31
0.0
  0
LINE
  5
186C
330
1864
100
AcDbEntity
  8
SK1
100
AcDbLine
 10
27.40313462659208
 20
-59.13792816087514
 30
0.0
 11
27.40313462659208
 21
-61.87152937875506
 31
0.0
  0
LINE
  5
186D
330
1864
100
AcDbEntity
  8
SK1
100
AcDbLine
 10
27.56213462659208
 20
-58.85052937875506
 30
0.0
 11
27.56213462659208
 21
-62.03052937565956
 31
0.0
  0
LINE
  5
186E
330
1864
100
AcDbEntity
  8
SK1
100
AcDbLine
 10
53.40313462659207
 20
-62.03052937875506
 30
0.0
 11
27.56213462659208
 21
-62.03052937875506
 31
0.0
  0
LINE
  5
186F
330
1864
100
AcDbEntity
  8
SK1
100
AcDbLine
 10
27.56213462659207
 20
-62.03052937875506
 30
0.0
 11
27.40313462659208
 21
-61.87152937875506
 31
0.0
  0
DIMENSION
  5
1870
330
1864
100
AcDbEntity
  8
2
100
AcDbDimension
  2
*D10
 10
79.66313462659207
 20
-62.02502737875508
 30
0.0
 11
75.8631346265921
 21
-79.10788452161219
 31
0.0
 12
53.40313462659207
 22
-60.43802737875506
 32
0.0
  1
%%c3.18
 71
     5
 42
3.173999999999995
  3
SANDVIK_DIM
100
AcDbAlignedDimension
 13
65.50313462659207
 23
-58.85102737875507
 33
0.0
 14
65.42147456326119
 24
-62.02502737875506
 34
0.0
 50
90.0
100
AcDbRotatedDimension
1001
ACAD
1000
DSTYLE
1002
{
1070
   279
1070
     0
1070
   140
1040
3.0
1070
    40
1040
1.0
1002
}
  0
DIMENSION
  5
1871
330
1864
100
AcDbEntity
  8
2
100
AcDbDimension
  2
*D11
 10
65.50313462659207
 20
7.572001276519187
 30
0.0
 11
80.58599176944921
 21
7.572001276519187
 31
0.0
 12
53.40313462659207
 22
-60.43802737875506
 32
0.0
 70
   128
  1
<>
 71
     5
 42
12.1
  3
SANDVIK_DIM
100
AcDbAlignedDimension
 13
53.40313462659207
 23
-60.43802737875506
 33
0.0
 14
65.50313462659207
 24
-60.43802737875506
 34
0.0
100
AcDbRotatedDimension
1001
ACAD
1000
DSTYLE
1002
{
1070
    40
1040
1.0
1070
   140
1040
3.0
1070
   279
1070
     0
1002
}
  0
DIMENSION
  5
1872
330
1864
100
AcDbEntity
  8
2
100
AcDbDimension
  2
*D12
 10
57.56813462659208
 20
-15.28566313041105
 30
0.0
 11
81.58599176944923
 21
-15.28566313041105
 31
0.0
 12
53.40313462659207
 22
-60.43802737875506
 32
0.0
 70
   128
  1
<>
 71
     5
 42
7.934999999999997
  3
SANDVIK_DIM
100
AcDbAlignedDimension
 13
65.50313462659207
 23
-58.78566313041106
 33
0.0
 14
57.56813462659208
 24
-58.74723687254254
 34
0.0
100
AcDbRotatedDimension
1001
ACAD
1000
DSTYLE
1002
{
1070
   279
1070
     0
1070
   140
1040
3.0
1070
    40
1040
1.0
1002
}
  0
DIMENSION
  5
1873
330
1864
100
AcDbEntity
  8
SK2
100
AcDbDimension
  2
*D13
 10
2.403134626607395
 20
-62.03052937875506
 30
0.0
 11
-1.396865373392607
 21
-79.11338652161219
 31
0.0
 12
53.40313462659207
 22
-60.43802737875506
 32
0.0
  1
%%c<>
 71
     5
 42
3.180000000000001
  3
SANDVIK_DIM
100
AcDbAlignedDimension
 13
27.56213462659208
 23
-58.85052937875506
 33
0.0
 14
27.56213462659208
 24
-62.03052937875508
 34
0.0
 50
90.00000000029229
100
AcDbRotatedDimension
1001
ACAD
1000
DSTYLE
1002
{
1070
   279
1070
     0
1070
   140
1040
3.0
1070
    40
1040
1.0
1002
}
  0
DIMENSION
  5
1874
330
1864
100
AcDbEntity
  8
SK2
100
AcDbDimension
  2
*D14
 10
65.50313462659207
 20
29.56197262124494
 30
0.0
 11
46.45313462659209
 21
33.36197262124493
 31
0.0
 12
53.40313462659207
 22
-60.43802737875506
 32
0.0
  1
<>
 71
     5
 42
38.1
  3
SANDVIK_DIM
100
AcDbAlignedDimension
 13
27.40313462659208
 23
-60.43802737875506
 33
0.0
 14
65.50313462659207
 24
-60.43802737875506
 34
0.0
100
AcDbRotatedDimension
1001
ACAD
1000
DSTYLE
1002
{
1070
   279
1070
     0
1070
   140
1040
3.0
1070
    40
1040
1.0
1002
}
  0
DIMENSION
  5
1875
330
1864
100
AcDbEntity
  8
2
100
AcDbDimension
  2
*D15
 10
65.50313462659207
 20
-40.44985607383567
 30
0.0
 11
87.44313462659206
 21
-36.64985607383569
 31
0.0
 12
53.40313462659207
 22
-60.43802737875506
 32
0.0
  1
0.081x45°
 71
     5
 42
0.0847999999999996
  3
SANDVIK_DIM
100
AcDbAlignedDimension
 13
65.41833462659207
 23
-58.78107916298597
 33
0.0
 14
65.50313462659207
 24
-60.43802737875506
 34
0.0
100
AcDbRotatedDimension
1001
ACAD
1000
DSTYLE
1002
{
1070
    40
1040
1.0
1070
   140
1040
3.0
1070
   279
1070
     0
1002
}
  0
LINE
  5
1876
330
1864
100
AcDbEntity
  8
1
100
AcDbLine
 10
54.28833462659207
 20
-58.85052937875506
 30
0.0
 11
53.40313462659207
 21
-58.85052937875506
 31
0.0
  0
LINE
  5
1877
330
1864
100
AcDbEntity
  8
1
100
AcDbLine
 10
54.28833462659207
 20
-58.85102737875507
 30
0.0
 11
56.51196798799206
 21
-58.85102737875507
 31
0.0
  0
LINE
  5
1878
330
1864
100
AcDbEntity
  8
1
100
AcDbLine
 10
54.28833462659207
 20
-62.03001156185557
 30
0.0
 11
53.40313462659207
 21
-62.03052937875506
 31
0.0
  0
LINE
  5
1879
330
1864
100
AcDbEntity
  8
1
100
AcDbLine
 10
54.28833462659207
 20
-62.03250365340585
 30
0.0
 11
57.57047312250449
 21
-62.03001156185557
 31
0.0
  0
LINE
  5
187A
330
1864
100
AcDbEntity
  8
1
100
AcDbLine
 10
56.51196798799206
 20
-59.84565017800449
 30
0.0
 11
57.57030131799208
 21
-60.38808639931636
 31
0.0
  0
LINE
  5
187B
330
1864
100
AcDbEntity
  8
1
100
AcDbLine
 10
57.57030131799208
 20
-60.40796015208889
 30
0.0
 11
56.51196798799206
 21
-60.07924379313021
 31
0.0
  0
ARC
  5
187C
330
1864
100
AcDbEntity
  8
1
100
AcDbCircle
 10
59.85051403224968
 20
-67.24201838796588
 30
0.0
 40
8.465354433384712
100
AcDbArc
 50
105.6262328438791
 51
109.8963727964559
  0
LINE
  5
187D
330
1864
100
AcDbEntity
  8
1
100
AcDbLine
 10
56.51196798799206
 20
-61.87185736911754
 30
0.0
 11
56.77657223003017
 21
-61.92614600382803
 31
0.0
  0
LINE
  5
187E
330
1864
100
AcDbEntity
  8
1
100
AcDbLine
 10
56.77657223003017
 20
-61.92614600382803
 30
0.0
 11
57.04115387145082
 21
-61.96898934902092
 31
0.0
  0
LINE
  5
187F
330
1864
100
AcDbEntity
  8
1
100
AcDbLine
 10
57.04115387145082
 20
-61.96898934902092
 30
0.0
 11
57.30572792158017
 21
-62.00005485953639
 31
0.0
  0
LINE
  5
1880
330
1864
100
AcDbEntity
  8
1
100
AcDbLine
 10
57.30572792158017
 20
-62.00005485953639
 30
0.0
 11
57.57030131799208
 21
-62.01910827308346
 31
0.0
  0
LINE
  5
1881
330
1864
100
AcDbEntity
  8
1
100
AcDbLine
 10
56.51196798799206
 20
-59.84565017800449
 30
0.0
 11
56.51196798799206
 21
-61.87185736911754
 31
0.0
  0
LINE
  5
1882
330
1864
100
AcDbEntity
  8
1
100
AcDbLine
 10
57.57030131799208
 20
-59.52001761547314
 30
0.0
 11
57.57030131799208
 21
-60.38808639931636
 31
0.0
  0
LINE
  5
1883
330
1864
100
AcDbEntity
  8
1
100
AcDbLine
 10
56.51196798799206
 20
-59.13085389991683
 30
0.0
 11
57.04115399052023
 21
-59.3080829469306
 31
0.0
  0
LINE
  5
1884
330
1864
100
AcDbEntity
  8
1
100
AcDbLine
 10
57.04115399052023
 20
-59.3080829469306
 30
0.0
 11
57.57030131799208
 21
-59.52001761547314
 31
0.0
  0
LINE
  5
1885
330
1864
100
AcDbEntity
  8
1
100
AcDbLine
 10
56.51196798799206
 20
-58.85102737875507
 30
0.0
 11
56.51196798799206
 21
-58.8510884378499
 31
0.0
  0
LINE
  5
1886
330
1864
100
AcDbEntity
  8
1
100
AcDbLine
 10
56.51196798799206
 20
-58.8510884378499
 30
0.0
 11
56.51196798799206
 21
-58.86947084332707
 31
0.0
  0
LINE
  5
1887
330
1864
100
AcDbEntity
  8
1
100
AcDbLine
 10
56.51196798799206
 20
-58.86947084332707
 30
0.0
 11
56.51196798799206
 21
-59.13085389991683
 31
0.0
  0
LINE
  5
1888
330
1864
100
AcDbEntity
  8
1
100
AcDbLine
 10
57.57030131799208
 20
-59.52001761547314
 30
0.0
 11
57.57030131799208
 21
-59.08962670304582
 31
0.0
  0
LINE
  5
1889
330
1864
100
AcDbEntity
  8
1
100
AcDbLine
 10
57.57030131799208
 20
-60.40796015208889
 30
0.0
 11
57.57030131799208
 21
-60.38808639931636
 31
0.0
  0
LINE
  5
188A
330
1864
100
AcDbEntity
  8
1
100
AcDbLine
 10
57.57030131799208
 20
-62.01910827308346
 30
0.0
 11
57.57030131799208
 21
-60.40796015208889
 31
0.0
  0
LINE
  5
188B
330
1864
100
AcDbEntity
  8
1
100
AcDbLine
 10
57.57030131799208
 20
-62.01910827308346
 30
0.0
 11
57.57030131799208
 21
-62.0260273669561
 31
0.0
  0
LINE
  5
188C
330
1864
100
AcDbEntity
  8
1
 62
     1
100
AcDbLine
 10
57.57030131799208
 20
-60.38808639931636
 30
0.0
 11
57.66613173077395
 21
-60.43852737375423
 31
0.0
  0
LINE
  5
188D
330
1864
100
AcDbEntity
  8
1
 62
     1
100
AcDbLine
 10
57.57030131799208
 20
-59.52001761547311
 30
0.0
 11
57.73926404176425
 21
-59.5939700372104
 31
0.0
  0
LINE
  5
188E
330
1864
100
AcDbEntity
  8
1
 62
     1
100
AcDbLine
 10
65.50780129299207
 20
-60.26611608908806
 30
0.0
 11
65.42313462659206
 21
-60.26859828788143
 31
0.0
  0
LINE
  5
188F
330
1864
100
AcDbEntity
  8
1
 62
     1
100
AcDbLine
 10
65.42313462659207
 20
-60.26859828788143
 30
0.0
 11
65.42313462659206
 21
-61.16874650887321
 31
0.0
  0
LINE
  5
1890
330
1864
100
AcDbEntity
  8
1
 62
     1
100
AcDbLine
 10
65.50780129299207
 20
-61.16699040090503
 30
0.0
 11
65.42313462659206
 21
-61.16874650887321
 31
0.0
  0
LINE
  5
1891
330
1864
100
AcDbEntity
  8
1
 62
     1
100
AcDbLine
 10
65.5078012929921
 20
-60.26611608908806
 30
0.0
 11
65.5078012929921
 21
-61.16699040090503
 31
0.0
  0
LINE
  5
1892
330
1864
100
AcDbEntity
  8
1
 62
     1
100
AcDbLine
 10
65.5078012929921
 20
-58.93592543552919
 30
0.0
 11
65.42313462659207
 21
-58.85267942856374
 31
0.0
  0
LINE
  5
1893
330
1864
100
AcDbEntity
  8
1
 62
     1
100
AcDbLine
 10
65.5078012929921
 20
-59.47664786389683
 30
0.0
 11
65.5078012929921
 21
-58.93592543552919
 31
0.0
  0
LINE
  5
1894
330
1864
100
AcDbEntity
  8
1
 62
     1
100
AcDbLine
 10
65.42313462659207
 20
-60.26859828788143
 30
0.0
 11
64.05493268381929
 21
-59.59397092253553
 31
0.0
  0
LINE
  5
1895
330
1864
100
AcDbEntity
  8
1
 62
     1
100
AcDbLine
 10
65.5078012929921
 20
-59.47664786389683
 30
0.0
 11
65.5078012929921
 21
-60.26611608908806
 31
0.0
  0
LINE
  5
1896
330
1864
100
AcDbEntity
  8
1
 62
     1
100
AcDbLine
 10
65.50780129299221
 20
-59.47664786389683
 30
0.0
 11
65.14458423106948
 21
-59.48564916087296
 31
0.0
  0
LINE
  5
1897
330
1864
100
AcDbEntity
  8
1
 62
     1
100
AcDbLine
 10
65.14458423106948
 20
-59.48564916087296
 30
0.0
 11
64.78136716914676
 21
-59.50845322717079
 31
0.0
  0
LINE
  5
1898
330
1864
100
AcDbEntity
  8
1
 62
     1
100
AcDbLine
 10
64.78136716914676
 20
-59.50845322717079
 30
0.0
 11
64.41815010722402
 21
-59.54473613530037
 31
0.0
  0
LINE
  5
1899
330
1864
100
AcDbEntity
  8
1
 62
     1
100
AcDbLine
 10
64.41815010722402
 20
-59.54473613530037
 30
0.0
 11
64.05493304530128
 21
-59.59397011159047
 31
0.0
  0
LINE
  5
189A
330
1864
100
AcDbEntity
  8
1
 62
     1
100
AcDbLine
 10
65.5078012929921
 20
-61.81763160911619
 30
0.0
 11
65.42313462659207
 21
-61.89040824731507
 31
0.0
  0
LINE
  5
189B
330
1864
100
AcDbEntity
  8
1
 62
     1
100
AcDbLine
 10
65.5078012929921
 20
-61.16699040090503
 30
0.0
 11
65.5078012929921
 21
-61.8176316091162
 31
0.0
  0
LINE
  5
189C
330
1864
100
AcDbEntity
  8
1
 62
     1
100
AcDbLine
 10
57.57030131799208
 20
-62.01910827308346
 30
0.0
 11
57.57030131799208
 21
-60.40796015208889
 31
0.0
  0
ARC
  5
189D
330
1864
100
AcDbEntity
  8
1
 62
     1
100
AcDbCircle
 10
57.85216362777164
 20
-56.28220495465583
 30
0.0
 40
5.743823142313337
100
AcDbArc
 50
267.1872377459691
 51
269.9967994595055
  0
LINE
  5
189E
330
1864
100
AcDbEntity
  8
1
 62
     1
100
AcDbLine
 10
57.85184277802668
 20
-62.02602736769852
 30
0.0
 11
57.85194637446882
 21
-62.02602736863472
 31
0.0
  0
LINE
  5
189F
330
1864
100
AcDbEntity
  8
1
 62
     1
100
AcDbLine
 10
57.57030131799208
 20
-60.40796015208889
 30
0.0
 11
57.57030131799208
 21
-60.38808639931636
 31
0.0
  0
LINE
  5
18A0
330
1864
100
AcDbEntity
  8
1
 62
     1
100
AcDbLine
 10
57.57030131799208
 20
-59.08962670304582
 30
0.0
 11
57.98899314496403
 21
-58.98676252076122
 31
0.0
  0
LINE
  5
18A1
330
1864
100
AcDbEntity
  8
1
 62
     1
100
AcDbLine
 10
57.98899314496403
 20
-58.98676252076122
 30
0.0
 11
58.40767802715792
 21
-58.9118419902576
 31
0.0
  0
LINE
  5
18A2
330
1864
100
AcDbEntity
  8
1
 62
     1
100
AcDbLine
 10
58.40767802715792
 20
-58.9118419902576
 30
0.0
 11
58.61702197672664
 21
-58.88533174495137
 31
0.0
  0
LINE
  5
18A3
330
1864
100
AcDbEntity
  8
1
 62
     1
100
AcDbLine
 10
58.61702197672664
 20
-58.88533174495137
 30
0.0
 11
58.82636946297864
 21
-58.86630411583428
 31
0.0
  0
LINE
  5
18A4
330
1864
100
AcDbEntity
  8
1
 62
     1
100
AcDbLine
 10
58.82636946297864
 20
-58.86630411583428
 30
0.0
 11
59.03571299270833
 21
-58.85485137618768
 31
0.0
  0
LINE
  5
18A5
330
1864
100
AcDbEntity
  8
1
 62
     1
100
AcDbLine
 10
59.03571299270833
 20
-58.85485137618768
 30
0.0
 11
59.24504903967086
 21
-58.85102737875507
 31
0.0
  0
LINE
  5
18A6
330
1864
100
AcDbEntity
  8
1
 62
     1
100
AcDbLine
 10
59.24504903967086
 20
-58.85102737875507
 30
0.0
 11
61.00978085729032
 21
-58.85102737875507
 31
0.0
  0
LINE
  5
18A7
330
1864
100
AcDbEntity
  8
1
 62
     1
100
AcDbLine
 10
65.42313462659207
 20
-61.16874650887321
 30
0.0
 11
63.9818007461149
 21
-60.43852737376544
 31
0.0
  0
LINE
  5
18A8
330
1864
100
AcDbEntity
  8
1
 62
     1
100
AcDbLine
 10
57.57030131799208
 20
-59.52001761547314
 30
0.0
 11
57.57030131799208
 21
-59.08962670304582
 31
0.0
  0
LINE
  5
18A9
330
1864
100
AcDbEntity
  8
1
 62
     1
100
AcDbLine
 10
57.57030131799208
 20
-62.01910827308346
 30
0.0
 11
57.57047312250449
 21
-62.03001156185557
 31
0.0
  0
LINE
  5
18AA
330
1864
100
AcDbEntity
  8
1
 62
     1
100
AcDbLine
 10
57.57030131799208
 20
-59.52001761547314
 30
0.0
 11
57.57030131799208
 21
-60.38808639931636
 31
0.0
  0
LINE
  5
18AB
330
1864
100
AcDbEntity
  8
1
 62
     1
100
AcDbLine
 10
64.16761490366309
 20
-62.02602736865206
 30
0.0
 11
64.48149981236048
 21
-62.01743368026853
 31
0.0
  0
LINE
  5
18AC
330
1864
100
AcDbEntity
  8
1
 62
     1
100
AcDbLine
 10
64.48149981236048
 20
-62.01743368026853
 30
0.0
 11
64.79537319528076
 21
-61.9917503126333
 31
0.0
  0
LINE
  5
18AD
330
1864
100
AcDbEntity
  8
1
 62
     1
100
AcDbLine
 10
64.79537319528076
 20
-61.9917503126333
 30
0.0
 11
65.10924715093465
 21
-61.94925597092559
 31
0.0
  0
LINE
  5
18AE
330
1864
100
AcDbEntity
  8
1
 62
     1
100
AcDbLine
 10
65.10924715093465
 20
-61.94925597092559
 30
0.0
 11
65.42313462659207
 21
-61.89040824731507
 31
0.0
  0
LINE
  5
18AF
330
1864
100
AcDbEntity
  8
1
 62
     1
100
AcDbLine
 10
62.40288352980694
 20
-62.02602736875507
 30
0.0
 11
64.16761490366309
 21
-62.02602736875507
 31
0.0
  0
LINE
  5
18B0
330
1864
100
AcDbEntity
  8
1
 62
     1
100
AcDbLine
 10
63.28524934490751
 20
-59.28194884595747
 30
0.0
 11
63.81971065303342
 21
-59.10834348555265
 31
0.0
  0
LINE
  5
18B1
330
1864
100
AcDbEntity
  8
1
 62
     1
100
AcDbLine
 10
63.81971065303342
 20
-59.10834348555265
 30
0.0
 11
64.08696073451007
 21
-59.03687373295563
 31
0.0
  0
LINE
  5
18B2
330
1864
100
AcDbEntity
  8
1
 62
     1
100
AcDbLine
 10
64.08696073451007
 20
-59.03687373295563
 30
0.0
 11
64.35418926721232
 21
-58.97641156053254
 31
0.0
  0
LINE
  5
18B3
330
1864
100
AcDbEntity
  8
1
 62
     1
100
AcDbLine
 10
64.35418926721232
 20
-58.97641156053254
 30
0.0
 11
64.62142215984531
 21
-58.92742051258693
 31
0.0
  0
LINE
  5
18B4
330
1864
100
AcDbEntity
  8
1
 62
     1
100
AcDbLine
 10
64.62142215984531
 20
-58.92742051258693
 30
0.0
 11
64.88867065483347
 21
-58.89028975311042
 31
0.0
  0
LINE
  5
18B5
330
1864
100
AcDbEntity
  8
1
 62
     1
100
AcDbLine
 10
64.88867065483347
 20
-58.89028975311042
 30
0.0
 11
65.15589561976414
 21
-58.86531313084393
 31
0.0
  0
LINE
  5
18B6
330
1864
100
AcDbEntity
  8
1
 62
     1
100
AcDbLine
 10
65.15589561976414
 20
-58.86531313084393
 30
0.0
 11
65.42313462659207
 21
-58.85267942856374
 31
0.0
  0
LINE
  5
18B7
330
1864
100
AcDbEntity
  8
1
 62
     1
100
AcDbLine
 10
64.05493268381929
 20
-59.59397092253553
 30
0.0
 11
63.67428664705538
 21
-59.43146255414543
 31
0.0
  0
LINE
  5
18B8
330
1864
100
AcDbEntity
  8
1
 62
     1
100
AcDbLine
 10
63.67428664705538
 20
-59.43146255414543
 30
0.0
 11
63.29363894815625
 21
-59.28497860817731
 31
0.0
  0
LINE
  5
18B9
330
1864
100
AcDbEntity
  8
1
 62
     1
100
AcDbLine
 10
63.29363894815625
 20
-59.28497860817731
 30
0.0
 11
62.91298888410873
 21
-59.15685059304138
 31
0.0
  0
LINE
  5
18BA
330
1864
100
AcDbEntity
  8
1
 62
     1
100
AcDbLine
 10
62.91298888410873
 20
-59.15685059304138
 30
0.0
 11
62.53233704920933
 21
-59.04911773258696
 31
0.0
  0
LINE
  5
18BB
330
1864
100
AcDbEntity
  8
1
 62
     1
100
AcDbLine
 10
62.53233704920933
 20
-59.04911773258696
 30
0.0
 11
62.1516873666565
 21
-58.96349546709172
 31
0.0
  0
LINE
  5
18BC
330
1864
100
AcDbEntity
  8
1
 62
     1
100
AcDbLine
 10
62.1516873666565
 20
-58.96349546709172
 30
0.0
 11
61.77104006304162
 21
-58.90134581109054
 31
0.0
  0
LINE
  5
18BD
330
1864
100
AcDbEntity
  8
1
 62
     1
100
AcDbLine
 10
61.77104006304162
 20
-58.90134581109054
 30
0.0
 11
61.39039430223874
 21
-58.86365734896415
 31
0.0
  0
LINE
  5
18BE
330
1864
100
AcDbEntity
  8
1
 62
     1
100
AcDbLine
 10
61.39039430223874
 20
-58.86365734896415
 30
0.0
 11
61.00978085729032
 21
-58.85102737875507
 31
0.0
  0
LINE
  5
18BF
330
1864
100
AcDbEntity
  8
1
 62
     1
100
AcDbLine
 10
57.73926404176425
 20
-59.5939700372104
 30
0.0
 11
60.95337224377928
 21
-61.20642140657462
 31
0.0
  0
LINE
  5
18C0
330
1864
100
AcDbEntity
  8
1
 62
     1
100
AcDbLine
 10
60.95337224377928
 20
-61.20642140657462
 30
0.0
 11
61.35515486572715
 21
-61.38419315062169
 31
0.0
  0
LINE
  5
18C1
330
1864
100
AcDbEntity
  8
1
 62
     1
100
AcDbLine
 10
61.35515486572715
 20
-61.38419315062169
 30
0.0
 11
61.7569376161339
 21
-61.54520126043642
 31
0.0
  0
LINE
  5
18C2
330
1864
100
AcDbEntity
  8
1
 62
     1
100
AcDbLine
 10
61.7569376161339
 20
-61.54520126043642
 30
0.0
 11
62.15872051805606
 21
-61.6865918504196
 31
0.0
  0
LINE
  5
18C3
330
1864
100
AcDbEntity
  8
1
 62
     1
100
AcDbLine
 10
62.15872051805606
 20
-61.6865918504196
 30
0.0
 11
62.56050295925771
 21
-61.80585937358711
 31
0.0
  0
LINE
  5
18C4
330
1864
100
AcDbEntity
  8
1
 62
     1
100
AcDbLine
 10
62.56050295925771
 20
-61.80585937358711
 30
0.0
 11
62.96228538999397
 21
-61.90088908582993
 31
0.0
  0
LINE
  5
18C5
330
1864
100
AcDbEntity
  8
1
 62
     1
100
AcDbLine
 10
62.96228538999397
 20
-61.90088908582993
 30
0.0
 11
63.36406812504353
 21
-61.9699963516113
 31
0.0
  0
LINE
  5
18C6
330
1864
100
AcDbEntity
  8
1
 62
     1
100
AcDbLine
 10
63.36406812504353
 20
-61.9699963516113
 30
0.0
 11
63.76585082355309
 21
-62.0119564831159
 31
0.0
  0
LINE
  5
18C7
330
1864
100
AcDbEntity
  8
1
 62
     1
100
AcDbLine
 10
63.76585082355309
 20
-62.0119564831159
 30
0.0
 11
64.16761490366309
 21
-62.02602736865206
 31
0.0
  0
LINE
  5
18C8
330
1864
100
AcDbEntity
  8
1
 62
     1
100
AcDbLine
 10
57.66613173077395
 20
-60.43852737375423
 30
0.0
 11
58.85032516032218
 21
-61.04603945188575
 31
0.0
  0
LINE
  5
18C9
330
1864
100
AcDbEntity
  8
1
 62
     1
100
AcDbLine
 10
58.85032516032218
 20
-61.04603945188575
 30
0.0
 11
59.44241025577422
 21
-61.32049331123814
 31
0.0
  0
LINE
  5
18CA
330
1864
100
AcDbEntity
  8
1
 62
     1
100
AcDbLine
 10
59.44241025577422
 20
-61.32049331123814
 30
0.0
 11
60.03451651492547
 21
-61.56106122324452
 31
0.0
  0
LINE
  5
18CB
330
1864
100
AcDbEntity
  8
1
 62
     1
100
AcDbLine
 10
60.03451651492547
 20
-61.56106122324452
 30
0.0
 11
60.33055651947995
 21
-61.66568100737276
 31
0.0
  0
LINE
  5
18CC
330
1864
100
AcDbEntity
  8
1
 62
     1
100
AcDbLine
 10
60.33055651947995
 20
-61.66568100737276
 30
0.0
 11
60.62661173792719
 21
-61.75848835129034
 31
0.0
  0
LINE
  5
18CD
330
1864
100
AcDbEntity
  8
1
 62
     1
100
AcDbLine
 10
60.62661173792719
 20
-61.75848835129034
 30
0.0
 11
60.92266623655825
 21
-61.83858051145561
 31
0.0
  0
LINE
  5
18CE
330
1864
100
AcDbEntity
  8
1
 62
     1
100
AcDbLine
 10
60.92266623655825
 20
-61.83858051145561
 30
0.0
 11
61.21870609791972
 21
-61.90518636153538
 31
0.0
  0
LINE
  5
18CF
330
1864
100
AcDbEntity
  8
1
 62
     1
100
AcDbLine
 10
61.21870609791972
 20
-61.90518636153538
 30
0.0
 11
61.51475121896284
 21
-61.95767101202847
 31
0.0
  0
LINE
  5
18D0
330
1864
100
AcDbEntity
  8
1
 62
     1
100
AcDbLine
 10
61.51475121896284
 20
-61.95767101202847
 30
0.0
 11
61.81081211419385
 21
-61.99552579741617
 31
0.0
  0
LINE
  5
18D1
330
1864
100
AcDbEntity
  8
1
 62
     1
100
AcDbLine
 10
61.81081211419385
 20
-61.99552579741617
 30
0.0
 11
62.10685663028025
 21
-62.01838214120087
 31
0.0
  0
LINE
  5
18D2
330
1864
100
AcDbEntity
  8
1
 62
     1
100
AcDbLine
 10
62.10685663028025
 20
-62.01838214120087
 30
0.0
 11
62.40288352980692
 21
-62.02602736875061
 31
0.0
  0
LINE
  5
18D3
330
1864
100
AcDbEntity
  8
1
 62
     1
100
AcDbLine
 10
57.66613173077356
 20
-60.43852737375506
 30
0.0
 11
57.57030131799208
 21
-60.40796015208889
 31
0.0
  0
LINE
  5
18D4
330
1864
100
AcDbEntity
  8
1
 62
     1
100
AcDbLine
 10
57.85194637446883
 20
-62.02602736863472
 30
0.0
 11
58.13638116361943
 21
-62.01896871022055
 31
0.0
  0
LINE
  5
18D5
330
1864
100
AcDbEntity
  8
1
 62
     1
100
AcDbLine
 10
58.13638116361943
 20
-62.01896871022055
 30
0.0
 11
58.42080539287739
 21
-61.99786245951884
 31
0.0
  0
LINE
  5
18D6
330
1864
100
AcDbEntity
  8
1
 62
     1
100
AcDbLine
 10
58.42080539287739
 20
-61.99786245951884
 30
0.0
 11
58.70524583618891
 21
-61.96289303707621
 31
0.0
  0
LINE
  5
18D7
330
1864
100
AcDbEntity
  8
1
 62
     1
100
AcDbLine
 10
58.70524583618891
 20
-61.96289303707621
 30
0.0
 11
58.98968557755854
 21
-61.91436796351824
 31
0.0
  0
LINE
  5
18D8
330
1864
100
AcDbEntity
  8
1
 62
     1
100
AcDbLine
 10
58.98968557755854
 20
-61.91436796351824
 30
0.0
 11
59.2741096047056
 21
-61.85272655847839
 31
0.0
  0
LINE
  5
18D9
330
1864
100
AcDbEntity
  8
1
 62
     1
100
AcDbLine
 10
59.2741096047056
 20
-61.85272655847839
 30
0.0
 11
59.55854524801574
 21
-61.77851164134857
 31
0.0
  0
LINE
  5
18DA
330
1864
100
AcDbEntity
  8
1
 62
     1
100
AcDbLine
 10
59.55854524801574
 20
-61.77851164134857
 30
0.0
 11
59.84298881458943
 21
-61.69237853409223
 31
0.0
  0
LINE
  5
18DB
330
1864
100
AcDbEntity
  8
1
 62
     1
100
AcDbLine
 10
59.84298881458943
 20
-61.69237853409223
 30
0.0
 11
60.1274137230769
 21
-61.5951050738755
 31
0.0
  0
LINE
  5
18DC
330
1864
100
AcDbEntity
  8
1
 62
     1
100
AcDbLine
 10
57.57047312250449
 20
-62.03001156185557
 30
0.0
 11
57.85194637446882
 21
-62.02602736875507
 31
0.0
  0
LINE
  5
18DD
330
1864
100
AcDbEntity
  8
1
 62
     1
100
AcDbLine
 10
63.9818007461149
 20
-60.43852737376544
 30
0.0
 11
62.79760250461468
 21
-59.8310127277019
 31
0.0
  0
LINE
  5
18DE
330
1864
100
AcDbEntity
  8
1
 62
     1
100
AcDbLine
 10
62.79760250461468
 20
-59.8310127277019
 30
0.0
 11
62.20551882989746
 21
-59.55656021520084
 31
0.0
  0
LINE
  5
18DF
330
1864
100
AcDbEntity
  8
1
 62
     1
100
AcDbLine
 10
62.20551882989746
 20
-59.55656021520084
 30
0.0
 11
61.6134101574131
 21
-59.31599113799839
 31
0.0
  0
LINE
  5
18E0
330
1864
100
AcDbEntity
  8
1
 62
     1
100
AcDbLine
 10
61.6134101574131
 20
-59.31599113799839
 30
0.0
 11
61.31737096778996
 21
-59.21137233515255
 31
0.0
  0
LINE
  5
18E1
330
1864
100
AcDbEntity
  8
1
 62
     1
100
AcDbLine
 10
61.31737096778996
 20
-59.21137233515255
 30
0.0
 11
61.02132147865862
 21
-59.11856672245271
 31
0.0
  0
LINE
  5
18E2
330
1864
100
AcDbEntity
  8
1
 62
     1
100
AcDbLine
 10
61.02132147865862
 20
-59.11856672245271
 30
0.0
 11
60.72526234485392
 21
-59.03847289083556
 31
0.0
  0
LINE
  5
18E3
330
1864
100
AcDbEntity
  8
1
 62
     1
100
AcDbLine
 10
60.72526234485392
 20
-59.03847289083556
 30
0.0
 11
60.429220922544
 21
-58.97186735600104
 31
0.0
  0
LINE
  5
18E4
330
1864
100
AcDbEntity
  8
1
 62
     1
100
AcDbLine
 10
60.429220922544
 20
-58.97186735600104
 30
0.0
 11
60.13317912003909
 21
-58.91938381621596
 31
0.0
  0
LINE
  5
18E5
330
1864
100
AcDbEntity
  8
1
 62
     1
100
AcDbLine
 10
60.13317912003909
 20
-58.91938381621596
 30
0.0
 11
59.83711965952229
 21
-58.88152851336577
 31
0.0
  0
LINE
  5
18E6
330
1864
100
AcDbEntity
  8
1
 62
     1
100
AcDbLine
 10
59.83711965952229
 20
-58.88152851336577
 30
0.0
 11
59.54107111314325
 21
-58.85867213201396
 31
0.0
  0
LINE
  5
18E7
330
1864
100
AcDbEntity
  8
1
 62
     1
100
AcDbLine
 10
59.54107111314325
 20
-58.85867213201396
 30
0.0
 11
59.24504903967086
 21
-58.85102737875507
 31
0.0
  0
LINE
  5
18E8
330
1864
100
AcDbEntity
  8
1
 62
     1
100
AcDbLine
 10
63.98180074612032
 20
-60.43852737375506
 30
0.0
 11
62.42116657041428
 21
-59.96257511215976
 31
0.0
  0
LINE
  5
18E9
330
1864
100
AcDbEntity
  8
1
 62
     1
100
AcDbLine
 10
62.42116657041428
 20
-59.96257511215976
 30
0.0
 11
61.64084948256128
 21
-59.7644876593153
 31
0.0
  0
LINE
  5
18EA
330
1864
100
AcDbEntity
  8
1
 62
     1
100
AcDbLine
 10
61.64084948256128
 20
-59.7644876593153
 30
0.0
 11
60.86053239470825
 21
-59.61128344234524
 31
0.0
  0
LINE
  5
18EB
330
1864
100
AcDbEntity
  8
1
 62
     1
100
AcDbLine
 10
60.86053239470825
 20
-59.61128344234524
 30
0.0
 11
60.47037385078176
 21
-59.55483711160232
 31
0.0
  0
LINE
  5
18EC
330
1864
100
AcDbEntity
  8
1
 62
     1
100
AcDbLine
 10
60.47037385078176
 20
-59.55483711160232
 30
0.0
 11
60.08021530685525
 21
-59.51316326918469
 31
0.0
  0
LINE
  5
18ED
330
1864
100
AcDbEntity
  8
1
 62
     1
100
AcDbLine
 10
60.08021530685525
 20
-59.51316326918469
 30
0.0
 11
59.69005676292874
 21
-59.4869588664646
 31
0.0
  0
LINE
  5
18EE
330
1864
100
AcDbEntity
  8
1
 62
     1
100
AcDbLine
 10
59.69005676292874
 20
-59.4869588664646
 30
0.0
 11
59.29989821900223
 21
-59.4766618010701
 31
0.0
  0
LINE
  5
18EF
330
1864
100
AcDbEntity
  8
1
 62
     1
100
AcDbLine
 10
59.29989821900223
 20
-59.4766618010701
 30
0.0
 11
58.90973967507571
 21
-59.48244395199506
 31
0.0
  0
LINE
  5
18F0
330
1864
100
AcDbEntity
  8
1
 62
     1
100
AcDbLine
 10
58.90973967507571
 20
-59.48244395199506
 30
0.0
 11
58.51958113114921
 21
-59.50420863445518
 31
0.0
  0
LINE
  5
18F1
330
1864
100
AcDbEntity
  8
1
 62
     1
100
AcDbLine
 10
58.51958113114921
 20
-59.50420863445518
 30
0.0
 11
58.12942258722269
 21
-59.54159222156991
 31
0.0
  0
LINE
  5
18F2
330
1864
100
AcDbEntity
  8
1
 62
     1
100
AcDbLine
 10
58.12942258722269
 20
-59.54159222156991
 30
0.0
 11
57.73926404329618
 21
-59.5939700337737
 31
0.0
  0
ENDBLK
  5
18F6
330
1864
100
AcDbEntity
  8
0
100
AcDbBlockEnd
  0
ENDSEC
  0
SECTION
  2
ENTITIES
  0
LINE
  5
3C2
330
18
100
AcDbEntity
  8
SK4
100
AcDbLine
 10
-54.78746469247004
 20
0.0000000000000007
 30
0.0
 11
0.0
 21
-0.0000000000000027
 31
0.0
  0
LINE
  5
3C4
330
18
100
AcDbEntity
  8
4
100
AcDbLine
 10
0.0
 20
0.0000000000000072
 30
0.0
 11
42.05256960446297
 21
0.0000000000000072
 31
0.0
  0
LINE
  5
431
330
18
100
AcDbEntity
  8
SK1
100
AcDbLine
 10
0.0
 20
4.763023425000006
 30
0.0
 11
-39.224197275
 21
4.764518059950002
 31
0.0
  0
LINE
  5
432
330
18
100
AcDbEntity
  8
SK1
100
AcDbLine
 10
-39.224197275
 20
4.764518059950002
 30
0.0
 11
-39.70140000000001
 21
4.287315334950001
 31
0.0
  0
LINE
  5
433
330
18
100
AcDbEntity
  8
SK1
100
AcDbLine
 10
-39.70140000000001
 20
4.287315334950001
 30
0.0
 11
-39.70140000000001
 21
4.283045449206921
 31
0.0
  0
LINE
  5
434
330
18
100
AcDbEntity
  8
SK1
100
AcDbLine
 10
-39.70140000000001
 20
4.283045449206921
 30
0.0
 11
-39.70140000000001
 21
3.901955280142542
 31
0.0
  0
LINE
  5
435
330
18
100
AcDbEntity
  8
SK1
100
AcDbLine
 10
-39.70140000000001
 20
3.901955280142542
 30
0.0
 11
-39.70140000000001
 21
-4.302333715049988
 31
0.0
  0
LINE
  5
436
330
18
100
AcDbEntity
  8
SK1
100
AcDbLine
 10
-39.224197275
 20
4.764518059950002
 30
0.0
 11
-39.224197275
 21
-4.76152879005003
 31
0.0
  0
LINE
  5
437
330
18
100
AcDbEntity
  8
SK1
100
AcDbLine
 10
0.0
 20
-4.763023424999991
 30
0.0
 11
-39.224197275
 21
-4.761528790050012
 31
0.0
  0
LINE
  5
438
330
18
100
AcDbEntity
  8
SK1
100
AcDbLine
 10
-39.224197275
 20
-4.76152879005003
 30
0.0
 11
-39.70140000000001
 21
-4.302333715049988
 31
0.0
  0
DIMENSION
  5
439
330
18
100
AcDbEntity
  8
2
100
AcDbDimension
  2
*D0
 10
51.86624797933089
 20
-4.758066705289043
 30
0.0
 11
48.06624797933089
 21
-22.12663813386046
 31
0.0
 70
    32
  1
%%c<>
 71
     5
 42
9.525063899298466
  3
SANDVIK_DIM
100
AcDbAlignedDimension
 13
36.4986
 23
4.766997194009431
 33
0.0
 14
36.4986
 24
-4.758066705289039
 34
0.0
 50
90.00000000000019
100
AcDbRotatedDimension
1001
ACAD
1000
DSTYLE
1002
{
1070
   279
1070
     0
1070
   140
1040
3.0
1070
    40
1040
1.0
1002
}
  0
DIMENSION
  5
447
330
18
100
AcDbEntity
  8
2
100
AcDbDimension
  2
*D1
 10
36.49860000000001
 20
69.05413455645271
 30
0.0
 11
18.24930000000001
 21
72.8541345564527
 31
0.0
 70
    32
  1
<>
 71
     5
 42
36.4986
  3
SANDVIK_DIM
100
AcDbAlignedDimension
 13
0.0
 23
0.0
 33
0.0
 14
36.4986
 24
4.766997194009431
 34
0.0
100
AcDbRotatedDimension
1001
ACAD
1000
DSTYLE
1002
{
1070
    40
1040
1.0
1070
   140
1040
3.0
1070
   279
1070
     0
1002
}
  0
DIMENSION
  5
454
330
18
100
AcDbEntity
  8
2
100
AcDbDimension
  2
*D2
 10
15.06601516963499
 20
45.15236424834401
 30
0.0
 11
25.7823075848175
 21
45.15236424834401
 31
0.0
 70
   160
  1
<>
 71
     5
 42
21.43258483036501
  3
SANDVIK_DIM
100
AcDbAlignedDimension
 13
36.4986
 23
0.0000000000000027
 33
0.0
 14
15.06601516963499
 24
4.826492823724207
 34
0.0
100
AcDbRotatedDimension
1001
ACAD
1000
DSTYLE
1002
{
1070
   279
1070
     0
1070
   140
1040
3.0
1070
    40
1040
1.0
1002
}
  0
DIMENSION
  5
462
330
18
100
AcDbEntity
  8
SK2
100
AcDbDimension
  2
*D3
 10
-64.62176484998469
 20
-4.761528790050022
 30
0.0
 11
-68.42176484998468
 21
-22.13010021862146
 31
0.0
 70
    32
  1
%%c<>
 71
     5
 42
9.526046850000033
  3
SANDVIK_DIM
100
AcDbAlignedDimension
 13
-39.224197275
 23
4.764518059950001
 33
0.0
 14
-39.224197275
 24
-4.761528790050031
 34
0.0
 50
90.00000000029242
100
AcDbRotatedDimension
1001
ACAD
1000
DSTYLE
1002
{
1070
   279
1070
     0
1070
   140
1040
3.0
1070
    40
1040
1.0
1002
}
  0
DIMENSION
  5
470
330
18
100
AcDbEntity
  8
SK2
100
AcDbDimension
  2
*D4
 10
36.49860000000001
 20
90.0
 30
0.0
 11
-1.601399999999993
 21
93.8
 31
0.0
 70
    32
  1
<>
 71
     5
 42
76.20000000000001
  3
SANDVIK_DIM
100
AcDbAlignedDimension
 13
-39.70140000000001
 23
0.0
 33
0.0
 14
36.4986
 24
0.0000000000000027
 34
0.0
100
AcDbRotatedDimension
1001
ACAD
1000
DSTYLE
1002
{
1070
   279
1070
     0
1070
   140
1040
3.0
1070
    40
1040
1.0
1002
}
  0
DIMENSION
  5
48A
330
18
100
AcDbEntity
  8
2
100
AcDbDimension
  2
*D5
 10
36.4986
 20
16.652364248344
 30
0.0
 11
58.43859999999999
 21
20.452364248344
 31
0.0
 70
    32
  1
0.152x45°
 71
     5
 42
0.2540279160000054
  3
SANDVIK_DIM
100
AcDbAlignedDimension
 13
36.244572084
 23
4.766997194009431
 33
0.0
 14
36.4986
 24
4.508300107579952
 34
0.0
100
AcDbRotatedDimension
1001
ACAD
1000
DSTYLE
1002
{
1070
   279
1070
     0
1070
   140
1040
3.0
1070
    40
1040
1.0
1002
}
  0
LINE
  5
14C7
330
18
100
AcDbEntity
  8
1
100
AcDbLine
 10
15.10408203602956
 20
-4.276700403501751
 30
0.0
 11
15.0951445453125
 21
-2.894179044375614
 31
0.0
  0
LINE
  5
14C8
330
18
100
AcDbEntity
  8
1
 62
     1
100
AcDbLine
 10
15.10408203602956
 20
-4.276700403501751
 30
0.0
 11
15.0951445453125
 21
-2.894179044375614
 31
0.0
  0
LINE
  5
14C9
330
18
100
AcDbEntity
  8
1
100
AcDbLine
 10
31.85895821250001
 20
-4.762987821399896
 30
0.0
 11
33.69600329062502
 21
-4.762987821399896
 31
0.0
  0
LINE
  5
14CA
330
18
100
AcDbEntity
  8
1
100
AcDbLine
 10
24.27691295625001
 20
-4.762987821399896
 30
0.0
 11
26.25246939375001
 21
-4.762987821399896
 31
0.0
  0
LINE
  5
14CC
330
18
100
AcDbEntity
  8
1
100
AcDbLine
 10
0.0
 20
-4.763023424999991
 30
0.0
 11
17.24589134332425
 21
-4.754634336189377
 31
0.0
  0
LINE
  5
14CD
330
18
100
AcDbEntity
  8
1
100
AcDbLine
 10
12.437813015625
 20
4.763023425000006
 30
0.0
 11
0.0000000000000004
 21
4.763023425000006
 31
0.0
  0
LINE
  5
14CE
330
18
100
AcDbEntity
  8
1
100
AcDbLine
 10
19.09374133125
 20
4.763023425000006
 30
0.0
 11
16.16652547500001
 21
4.763023425000006
 31
0.0
  0
LINE
  5
14CF
330
18
100
AcDbEntity
  8
1
100
AcDbLine
 10
26.25246939375001
 20
4.763023425000006
 30
0.0
 11
24.27691295625001
 21
4.763023425000006
 31
0.0
  0
LINE
  5
14D0
330
18
100
AcDbEntity
  8
1
100
AcDbLine
 10
33.69625332187502
 20
4.763023425000006
 30
0.0
 11
31.85895821250001
 21
4.763023425000006
 31
0.0
  0
LINE
  5
14D1
330
18
100
AcDbEntity
  8
1
100
AcDbLine
 10
35.099873990625
 20
-1.360079962499991
 30
0.0
 11
36.468478378125
 21
-0.005477324999998
 31
0.0
  0
LINE
  5
14D2
330
18
100
AcDbEntity
  8
1
100
AcDbLine
 10
36.288124884375
 20
-3.786340350000006
 30
0.0
 11
36.288124884375
 21
-2.395892756249996
 31
0.0
  0
LINE
  5
14D3
330
18
100
AcDbEntity
  8
1
100
AcDbLine
 10
36.288124884375
 20
2.8410546375
 30
0.0
 11
36.288124884375
 21
4.098357018750006
 31
0.0
  0
LINE
  5
14D4
330
18
100
AcDbEntity
  8
1
100
AcDbLine
 10
36.4986
 20
-3.728117596874997
 30
0.0
 11
36.4986
 21
-2.428540884374993
 31
0.0
  0
LINE
  5
14D5
330
18
100
AcDbEntity
  8
1
100
AcDbLine
 10
36.4986
 20
2.558857462500002
 30
0.0
 11
36.4986
 21
3.830660465624993
 31
0.0
  0
POLYLINE
  5
14D6
330
18
100
AcDbEntity
  8
1
100
AcDb3dPolyline
 66
     1
 10
0.0
 20
0.0
 30
0.0
 70
     8
  0
VERTEX
  5
14D7
330
14D6
100
AcDbEntity
  8
1
100
AcDbVertex
100
AcDb3dPolylineVertex
 10
21.539069578125
 20
-4.01992906874999
 30
0.0
 70
    32
  0
VERTEX
  5
14D8
330
14D6
100
AcDbEntity
  8
1
100
AcDbVertex
100
AcDb3dPolylineVertex
 10
21.29345911875001
 20
-4.148585624999988
 30
0.0
 70
    32
  0
VERTEX
  5
14D9
330
14D6
100
AcDbEntity
  8
1
100
AcDbVertex
100
AcDb3dPolylineVertex
 10
21.04808202187501
 20
-4.264457249999998
 30
0.0
 70
    32
  0
VERTEX
  5
14DA
330
14D6
100
AcDbEntity
  8
1
100
AcDbVertex
100
AcDb3dPolylineVertex
 10
20.80295257500001
 20
-4.367680865624995
 30
0.0
 70
    32
  0
VERTEX
  5
14DB
330
14D6
100
AcDbEntity
  8
1
100
AcDbVertex
100
AcDb3dPolylineVertex
 10
20.55806244375001
 20
-4.458171937500003
 30
0.0
 70
    32
  0
VERTEX
  5
14DC
330
14D6
100
AcDbEntity
  8
1
100
AcDbVertex
100
AcDb3dPolylineVertex
 10
20.31337710000001
 20
-4.535573278124992
 30
0.0
 70
    32
  0
VERTEX
  5
14DD
330
14D6
100
AcDbEntity
  8
1
100
AcDbVertex
100
AcDb3dPolylineVertex
 10
20.06886320625
 20
-4.599509840624994
 30
0.0
 70
    32
  0
VERTEX
  5
14DE
330
14D6
100
AcDbEntity
  8
1
100
AcDbVertex
100
AcDb3dPolylineVertex
 10
19.82816495605707
 20
-4.657989340860956
 30
0.0
 70
    32
  0
VERTEX
  5
14DF
330
14D6
100
AcDbEntity
  8
1
100
AcDbVertex
100
AcDb3dPolylineVertex
 10
19.59045385542502
 20
-4.705813998336417
 30
0.0
 70
    32
  0
VERTEX
  5
14E0
330
14D6
100
AcDbEntity
  8
1
100
AcDbVertex
100
AcDb3dPolylineVertex
 10
19.34958761789849
 20
-4.746280850978862
 30
0.0
 70
    32
  0
VERTEX
  5
14E1
330
14D6
100
AcDbEntity
  8
1
100
AcDbVertex
100
AcDb3dPolylineVertex
 10
19.09330794375
 20
-4.762987821399896
 30
0.0
 70
    32
  0
SEQEND
  5
14E2
330
14D6
100
AcDbEntity
  8
1
  0
POLYLINE
  5
14E3
330
18
100
AcDbEntity
  8
1
100
AcDb3dPolyline
 66
     1
 10
0.0
 20
0.0
 30
0.0
 70
     8
  0
VERTEX
  5
14E4
330
14E3
100
AcDbEntity
  8
1
100
AcDbVertex
100
AcDb3dPolylineVertex
 10
19.17410851875001
 20
-2.52375992812499
 30
0.0
 70
    32
  0
VERTEX
  5
14E5
330
14E3
100
AcDbEntity
  8
1
100
AcDbVertex
100
AcDb3dPolylineVertex
 10
19.56946507500001
 20
-2.820479156249998
 30
0.0
 70
    32
  0
VERTEX
  5
14E6
330
14E3
100
AcDbEntity
  8
1
100
AcDbVertex
100
AcDb3dPolylineVertex
 10
19.96559315625001
 20
-3.101700018749991
 30
0.0
 70
    32
  0
VERTEX
  5
14E7
330
14E3
100
AcDbEntity
  8
1
100
AcDbVertex
100
AcDb3dPolylineVertex
 10
20.36140572187501
 20
-3.365084128124995
 30
0.0
 70
    32
  0
VERTEX
  5
14E8
330
14E3
100
AcDbEntity
  8
1
100
AcDbVertex
100
AcDb3dPolylineVertex
 10
20.75611815000002
 20
-3.608471690625001
 30
0.0
 70
    32
  0
VERTEX
  5
14E9
330
14E3
100
AcDbEntity
  8
1
100
AcDbVertex
100
AcDb3dPolylineVertex
 10
21.14996618437501
 20
-3.830713753124993
 30
0.0
 70
    32
  0
VERTEX
  5
14EA
330
14E3
100
AcDbEntity
  8
1
100
AcDbVertex
100
AcDb3dPolylineVertex
 10
21.54327367500001
 20
-4.03079828437499
 30
0.0
 70
    32
  0
VERTEX
  5
14EB
330
14E3
100
AcDbEntity
  8
1
100
AcDbVertex
100
AcDb3dPolylineVertex
 10
21.93599418750001
 20
-4.207631099999993
 30
0.0
 70
    32
  0
VERTEX
  5
14EC
330
14E3
100
AcDbEntity
  8
1
100
AcDbVertex
100
AcDb3dPolylineVertex
 10
22.32797889375001
 20
-4.360052531249998
 30
0.0
 70
    32
  0
VERTEX
  5
14ED
330
14E3
100
AcDbEntity
  8
1
100
AcDbVertex
100
AcDb3dPolylineVertex
 10
22.71918374062501
 20
-4.486519528124993
 30
0.0
 70
    32
  0
VERTEX
  5
14EE
330
14E3
100
AcDbEntity
  8
1
100
AcDbVertex
100
AcDb3dPolylineVertex
 10
23.10962420625001
 20
-4.585325924999998
 30
0.0
 70
    32
  0
VERTEX
  5
14EF
330
14E3
100
AcDbEntity
  8
1
100
AcDbVertex
100
AcDb3dPolylineVertex
 10
23.49941220937501
 20
-4.655909746874987
 30
0.0
 70
    32
  0
VERTEX
  5
14F0
330
14E3
100
AcDbEntity
  8
1
100
AcDbVertex
100
AcDb3dPolylineVertex
 10
23.8887573
 20
-4.717624520036686
 30
0.0
 70
    32
  0
VERTEX
  5
14F1
330
14E3
100
AcDbEntity
  8
1
100
AcDbVertex
100
AcDb3dPolylineVertex
 10
24.27691295625001
 20
-4.762987821399896
 30
0.0
 70
    32
  0
SEQEND
  5
14F2
330
14E3
100
AcDbEntity
  8
1
  0
POLYLINE
  5
14F3
330
18
100
AcDbEntity
  8
1
100
AcDb3dPolyline
 66
     1
 10
0.0
 20
0.0
 30
0.0
 70
     8
  0
VERTEX
  5
14F4
330
14F3
100
AcDbEntity
  8
1
100
AcDbVertex
100
AcDb3dPolylineVertex
 10
35.099873990625
 20
4.556283299999998
 30
0.0
 70
    32
  0
VERTEX
  5
14F5
330
14F3
100
AcDbEntity
  8
1
100
AcDbVertex
100
AcDb3dPolylineVertex
 10
34.81900436250001
 20
4.629907978125004
 30
0.0
 70
    32
  0
VERTEX
  5
14F6
330
14F3
100
AcDbEntity
  8
1
100
AcDbVertex
100
AcDb3dPolylineVertex
 10
34.53818355000001
 20
4.687393734375006
 30
0.0
 70
    32
  0
VERTEX
  5
14F7
330
14F3
100
AcDbEntity
  8
1
100
AcDbVertex
100
AcDb3dPolylineVertex
 10
34.257409171875
 20
4.728741759375001
 30
0.0
 70
    32
  0
VERTEX
  5
14F8
330
14F3
100
AcDbEntity
  8
1
100
AcDbVertex
100
AcDb3dPolylineVertex
 10
33.97668241875
 20
4.753952053125001
 30
0.0
 70
    32
  0
VERTEX
  5
14F9
330
14F3
100
AcDbEntity
  8
1
100
AcDbVertex
100
AcDb3dPolylineVertex
 10
33.69600329062502
 20
4.763023425000006
 30
0.0
 70
    32
  0
SEQEND
  5
14FA
330
14F3
100
AcDbEntity
  8
1
  0
POLYLINE
  5
14FB
330
18
100
AcDbEntity
  8
1
100
AcDb3dPolyline
 66
     1
 10
0.0
 20
0.0
 30
0.0
 70
     8
  0
VERTEX
  5
14FC
330
14FB
100
AcDbEntity
  8
1
100
AcDbVertex
100
AcDb3dPolylineVertex
 10
14.29714133293175
 20
1.569717765612659
 30
0.0
 70
    32
  0
VERTEX
  5
14FD
330
14FB
100
AcDbEntity
  8
1
100
AcDbVertex
100
AcDb3dPolylineVertex
 10
15.23713550625
 20
0.8375066062499985
 30
0.0
 70
    32
  0
VERTEX
  5
14FE
330
14FB
100
AcDbEntity
  8
1
100
AcDbVertex
100
AcDb3dPolylineVertex
 10
15.63433276875001
 20
0.4947506718750068
 30
0.0
 70
    32
  0
VERTEX
  5
14FF
330
14FB
100
AcDbEntity
  8
1
100
AcDbVertex
100
AcDb3dPolylineVertex
 10
16.02980243437501
 20
0.1473084374999973
 30
0.0
 70
    32
  0
VERTEX
  5
1500
330
14FB
100
AcDbEntity
  8
1
100
AcDbVertex
100
AcDb3dPolylineVertex
 10
16.42396955625001
 20
-0.2030377312499962
 30
0.0
 70
    32
  0
VERTEX
  5
1501
330
14FB
100
AcDbEntity
  8
1
100
AcDbVertex
100
AcDb3dPolylineVertex
 10
16.817635425
 20
-0.5528862187499973
 30
0.0
 70
    32
  0
VERTEX
  5
1502
330
14FB
100
AcDbEntity
  8
1
100
AcDbVertex
100
AcDb3dPolylineVertex
 10
17.21124176250001
 20
-0.8994973968749992
 30
0.0
 70
    32
  0
VERTEX
  5
1503
330
14FB
100
AcDbEntity
  8
1
100
AcDbVertex
100
AcDb3dPolylineVertex
 10
17.60471236875
 20
-1.241097234375007
 30
0.0
 70
    32
  0
VERTEX
  5
1504
330
14FB
100
AcDbEntity
  8
1
100
AcDbVertex
100
AcDb3dPolylineVertex
 10
17.99790913125
 20
-1.575950990625005
 30
0.0
 70
    32
  0
VERTEX
  5
1505
330
14FB
100
AcDbEntity
  8
1
100
AcDbVertex
100
AcDb3dPolylineVertex
 10
18.39063559687501
 20
-1.902194146874995
 30
0.0
 70
    32
  0
VERTEX
  5
1506
330
14FB
100
AcDbEntity
  8
1
100
AcDbVertex
100
AcDb3dPolylineVertex
 10
18.78270126562501
 20
-2.218127681249999
 30
0.0
 70
    32
  0
VERTEX
  5
1507
330
14FB
100
AcDbEntity
  8
1
100
AcDbVertex
100
AcDb3dPolylineVertex
 10
19.17410851875001
 20
-2.52375992812499
 30
0.0
 70
    32
  0
SEQEND
  5
1508
330
14FB
100
AcDbEntity
  8
1
  0
POLYLINE
  5
1509
330
18
100
AcDbEntity
  8
1
100
AcDb3dPolyline
 66
     1
 10
0.0
 20
0.0
 30
0.0
 70
     8
  0
VERTEX
  5
150A
330
1509
100
AcDbEntity
  8
1
100
AcDbVertex
100
AcDb3dPolylineVertex
 10
16.50410457187501
 20
2.67242165625
 30
0.0
 70
    32
  0
VERTEX
  5
150B
330
1509
100
AcDbEntity
  8
1
100
AcDbVertex
100
AcDb3dPolylineVertex
 10
16.19012485312501
 20
2.952506662500001
 30
0.0
 70
    32
  0
VERTEX
  5
150C
330
1509
100
AcDbEntity
  8
1
100
AcDbVertex
100
AcDb3dPolylineVertex
 10
15.876603525
 20
3.217517165624999
 30
0.0
 70
    32
  0
VERTEX
  5
150D
330
1509
100
AcDbEntity
  8
1
100
AcDbVertex
100
AcDb3dPolylineVertex
 10
15.563572734375
 20
3.466401843749998
 30
0.0
 70
    32
  0
VERTEX
  5
150E
330
1509
100
AcDbEntity
  8
1
100
AcDbVertex
100
AcDb3dPolylineVertex
 10
15.251105109375
 20
3.696659193750006
 30
0.0
 70
    32
  0
VERTEX
  5
150F
330
1509
100
AcDbEntity
  8
1
100
AcDbVertex
100
AcDb3dPolylineVertex
 10
14.93918398125
 20
3.906766406250003
 30
0.0
 70
    32
  0
VERTEX
  5
1510
330
1509
100
AcDbEntity
  8
1
100
AcDbVertex
100
AcDb3dPolylineVertex
 10
14.627722434375
 20
4.096044825000006
 30
0.0
 70
    32
  0
VERTEX
  5
1511
330
1509
100
AcDbEntity
  8
1
100
AcDbVertex
100
AcDb3dPolylineVertex
 10
14.316762140625
 20
4.263711018750001
 30
0.0
 70
    32
  0
VERTEX
  5
1512
330
1509
100
AcDbEntity
  8
1
100
AcDbVertex
100
AcDb3dPolylineVertex
 10
14.00648645625
 20
4.408835109374996
 30
0.0
 70
    32
  0
VERTEX
  5
1513
330
1509
100
AcDbEntity
  8
1
100
AcDbVertex
100
AcDb3dPolylineVertex
 10
13.697118028125
 20
4.530328865624998
 30
0.0
 70
    32
  0
VERTEX
  5
1514
330
1509
100
AcDbEntity
  8
1
100
AcDbVertex
100
AcDb3dPolylineVertex
 10
13.3889164125
 20
4.626908793750008
 30
0.0
 70
    32
  0
VERTEX
  5
1515
330
1509
100
AcDbEntity
  8
1
100
AcDbVertex
100
AcDb3dPolylineVertex
 10
13.082022103125
 20
4.697885521875003
 30
0.0
 70
    32
  0
VERTEX
  5
1516
330
1509
100
AcDbEntity
  8
1
100
AcDbVertex
100
AcDb3dPolylineVertex
 10
12.77637795000001
 20
4.743543609375
 30
0.0
 70
    32
  0
SEQEND
  5
1517
330
1509
100
AcDbEntity
  8
1
  0
POLYLINE
  5
1518
330
18
100
AcDbEntity
  8
1
100
AcDb3dPolyline
 66
     1
 10
0.0
 20
0.0
 30
0.0
 70
     8
  0
VERTEX
  5
1519
330
1518
100
AcDbEntity
  8
1
100
AcDbVertex
100
AcDb3dPolylineVertex
 10
29.06667588750001
 20
-3.902332228124997
 30
0.0
 70
    32
  0
VERTEX
  5
151A
330
1518
100
AcDbEntity
  8
1
100
AcDbVertex
100
AcDb3dPolylineVertex
 10
28.78317140625001
 20
-4.052553384374995
 30
0.0
 70
    32
  0
VERTEX
  5
151B
330
1518
100
AcDbEntity
  8
1
100
AcDbVertex
100
AcDb3dPolylineVertex
 10
28.50007530937501
 20
-4.187806003124997
 30
0.0
 70
    32
  0
VERTEX
  5
151C
330
1518
100
AcDbEntity
  8
1
100
AcDbVertex
100
AcDb3dPolylineVertex
 10
28.21734830625001
 20
-4.308223434374999
 30
0.0
 70
    32
  0
VERTEX
  5
151D
330
1518
100
AcDbEntity
  8
1
100
AcDbVertex
100
AcDb3dPolylineVertex
 10
27.935009446875
 20
-4.413743765624992
 30
0.0
 70
    32
  0
VERTEX
  5
151E
330
1518
100
AcDbEntity
  8
1
100
AcDbVertex
100
AcDb3dPolylineVertex
 10
27.65316231562501
 20
-4.522342402058079
 30
0.0
 70
    32
  0
VERTEX
  5
151F
330
1518
100
AcDbEntity
  8
1
100
AcDbVertex
100
AcDb3dPolylineVertex
 10
27.37190692500001
 20
-4.59845412063531
 30
0.0
 70
    32
  0
VERTEX
  5
1520
330
1518
100
AcDbEntity
  8
1
100
AcDbVertex
100
AcDb3dPolylineVertex
 10
27.09123494062501
 20
-4.658297313560061
 30
0.0
 70
    32
  0
VERTEX
  5
1521
330
1518
100
AcDbEntity
  8
1
100
AcDbVertex
100
AcDb3dPolylineVertex
 10
26.81105230312501
 20
-4.704248690744556
 30
0.0
 70
    32
  0
VERTEX
  5
1522
330
1518
100
AcDbEntity
  8
1
100
AcDbVertex
100
AcDb3dPolylineVertex
 10
26.53128638437501
 20
-4.73660895514611
 30
0.0
 70
    32
  0
VERTEX
  5
1523
330
1518
100
AcDbEntity
  8
1
100
AcDbVertex
100
AcDb3dPolylineVertex
 10
26.25246939375001
 20
-4.762987821399896
 30
0.0
 70
    32
  0
SEQEND
  5
1524
330
1518
100
AcDbEntity
  8
1
  0
POLYLINE
  5
1525
330
18
100
AcDbEntity
  8
1
100
AcDb3dPolyline
 66
     1
 10
0.0
 20
0.0
 30
0.0
 70
     8
  0
VERTEX
  5
1526
330
1525
100
AcDbEntity
  8
1
100
AcDbVertex
100
AcDb3dPolylineVertex
 10
24.951836596875
 20
-0.6170763843750007
 30
0.0
 70
    32
  0
VERTEX
  5
1527
330
1525
100
AcDbEntity
  8
1
100
AcDbVertex
100
AcDb3dPolylineVertex
 10
25.38881978437501
 20
-1.029420778124988
 30
0.0
 70
    32
  0
VERTEX
  5
1528
330
1525
100
AcDbEntity
  8
1
100
AcDbVertex
100
AcDb3dPolylineVertex
 10
25.82589226875001
 20
-1.433324831250008
 30
0.0
 70
    32
  0
VERTEX
  5
1529
330
1525
100
AcDbEntity
  8
1
100
AcDbVertex
100
AcDb3dPolylineVertex
 10
26.26284092812501
 20
-1.826379909374995
 30
0.0
 70
    32
  0
VERTEX
  5
152A
330
1525
100
AcDbEntity
  8
1
100
AcDbVertex
100
AcDb3dPolylineVertex
 10
26.69931571875001
 20
-2.205245118749993
 30
0.0
 70
    32
  0
VERTEX
  5
152B
330
1525
100
AcDbEntity
  8
1
100
AcDbVertex
100
AcDb3dPolylineVertex
 10
27.13484396250001
 20
-2.567588024999996
 30
0.0
 70
    32
  0
VERTEX
  5
152C
330
1525
100
AcDbEntity
  8
1
100
AcDbVertex
100
AcDb3dPolylineVertex
 10
27.568930359375
 20
-2.910905934374991
 30
0.0
 70
    32
  0
VERTEX
  5
152D
330
1525
100
AcDbEntity
  8
1
100
AcDbVertex
100
AcDb3dPolylineVertex
 10
28.00107246562501
 20
-3.231886528124991
 30
0.0
 70
    32
  0
VERTEX
  5
152E
330
1525
100
AcDbEntity
  8
1
100
AcDbVertex
100
AcDb3dPolylineVertex
 10
28.43118931875001
 20
-3.527522287499998
 30
0.0
 70
    32
  0
VERTEX
  5
152F
330
1525
100
AcDbEntity
  8
1
100
AcDbVertex
100
AcDb3dPolylineVertex
 10
28.85981670000001
 20
-3.795408150000004
 30
0.0
 70
    32
  0
VERTEX
  5
1530
330
1525
100
AcDbEntity
  8
1
100
AcDbVertex
100
AcDb3dPolylineVertex
 10
29.28750944062501
 20
-4.033203346874993
 30
0.0
 70
    32
  0
VERTEX
  5
1531
330
1525
100
AcDbEntity
  8
1
100
AcDbVertex
100
AcDb3dPolylineVertex
 10
29.71480094062501
 20
-4.23856234687499
 30
0.0
 70
    32
  0
VERTEX
  5
1532
330
1525
100
AcDbEntity
  8
1
100
AcDbVertex
100
AcDb3dPolylineVertex
 10
30.14223650625
 20
-4.408913399999994
 30
0.0
 70
    32
  0
VERTEX
  5
1533
330
1525
100
AcDbEntity
  8
1
100
AcDbVertex
100
AcDb3dPolylineVertex
 10
30.57032929687501
 20
-4.541843109375001
 30
0.0
 70
    32
  0
VERTEX
  5
1534
330
1525
100
AcDbEntity
  8
1
100
AcDbVertex
100
AcDb3dPolylineVertex
 10
30.999359109375
 20
-4.636628765624998
 30
0.0
 70
    32
  0
VERTEX
  5
1535
330
1525
100
AcDbEntity
  8
1
100
AcDbVertex
100
AcDb3dPolylineVertex
 10
31.42915806562501
 20
-4.717361983223995
 30
0.0
 70
    32
  0
VERTEX
  5
1536
330
1525
100
AcDbEntity
  8
1
100
AcDbVertex
100
AcDb3dPolylineVertex
 10
31.85895821250001
 20
-4.762987821399896
 30
0.0
 70
    32
  0
SEQEND
  5
1537
330
1525
100
AcDbEntity
  8
1
  0
POLYLINE
  5
1538
330
18
100
AcDbEntity
  8
1
100
AcDb3dPolyline
 66
     1
 10
0.0
 20
0.0
 30
0.0
 70
     8
  0
VERTEX
  5
1539
330
1538
100
AcDbEntity
  8
1
100
AcDbVertex
100
AcDb3dPolylineVertex
 10
14.83842615
 20
4.620825890624998
 30
0.0
 70
    32
  0
VERTEX
  5
153A
330
1538
100
AcDbEntity
  8
1
100
AcDbVertex
100
AcDb3dPolylineVertex
 10
15.1063120125
 20
4.670322553125004
 30
0.0
 70
    32
  0
VERTEX
  5
153B
330
1538
100
AcDbEntity
  8
1
100
AcDbVertex
100
AcDb3dPolylineVertex
 10
15.37294414687501
 20
4.709290518750001
 30
0.0
 70
    32
  0
VERTEX
  5
153C
330
1538
100
AcDbEntity
  8
1
100
AcDbVertex
100
AcDb3dPolylineVertex
 10
15.63832493437501
 20
4.737729787500008
 30
0.0
 70
    32
  0
VERTEX
  5
153D
330
1538
100
AcDbEntity
  8
1
100
AcDbVertex
100
AcDb3dPolylineVertex
 10
15.90245199375
 20
4.755641549999995
 30
0.0
 70
    32
  0
VERTEX
  5
153E
330
1538
100
AcDbEntity
  8
1
100
AcDbVertex
100
AcDb3dPolylineVertex
 10
16.16532770625001
 20
4.763023425000006
 30
0.0
 70
    32
  0
SEQEND
  5
153F
330
1538
100
AcDbEntity
  8
1
  0
POLYLINE
  5
1548
330
18
100
AcDbEntity
  8
1
100
AcDb3dPolyline
 66
     1
 10
0.0
 20
0.0
 30
0.0
 70
     8
  0
VERTEX
  5
1549
330
1548
100
AcDbEntity
  8
1
100
AcDbVertex
100
AcDb3dPolylineVertex
 10
34.32635112187501
 20
-0.6047546062500016
 30
0.0
 70
    32
  0
VERTEX
  5
154A
330
1548
100
AcDbEntity
  8
1
100
AcDbVertex
100
AcDb3dPolylineVertex
 10
33.85177514062501
 20
-0.130560815625
 30
0.0
 70
    32
  0
VERTEX
  5
154B
330
1548
100
AcDbEntity
  8
1
100
AcDbVertex
100
AcDb3dPolylineVertex
 10
33.37724083125001
 20
0.3435960656250105
 30
0.0
 70
    32
  0
VERTEX
  5
154C
330
1548
100
AcDbEntity
  8
1
100
AcDbVertex
100
AcDb3dPolylineVertex
 10
32.90274343125001
 20
0.8157931781250017
 30
0.0
 70
    32
  0
VERTEX
  5
154D
330
1548
100
AcDbEntity
  8
1
100
AcDbVertex
100
AcDb3dPolylineVertex
 10
32.42825317500001
 20
1.279730925000011
 30
0.0
 70
    32
  0
VERTEX
  5
154E
330
1548
100
AcDbEntity
  8
1
100
AcDbVertex
100
AcDb3dPolylineVertex
 10
31.95370100625001
 20
1.730731340625002
 30
0.0
 70
    32
  0
VERTEX
  5
154F
330
1548
100
AcDbEntity
  8
1
100
AcDbVertex
100
AcDb3dPolylineVertex
 10
31.479069065625
 20
2.164757015625002
 30
0.0
 70
    32
  0
VERTEX
  5
1550
330
1548
100
AcDbEntity
  8
1
100
AcDbVertex
100
AcDb3dPolylineVertex
 10
31.00443474375001
 20
2.577628856250004
 30
0.0
 70
    32
  0
VERTEX
  5
1551
330
1548
100
AcDbEntity
  8
1
100
AcDbVertex
100
AcDb3dPolylineVertex
 10
30.52954562812501
 20
2.964530784375
 30
0.0
 70
    32
  0
VERTEX
  5
1552
330
1548
100
AcDbEntity
  8
1
100
AcDbVertex
100
AcDb3dPolylineVertex
 10
30.054031434375
 20
3.320841984374995
 30
0.0
 70
    32
  0
VERTEX
  5
1553
330
1548
100
AcDbEntity
  8
1
100
AcDbVertex
100
AcDb3dPolylineVertex
 10
29.57777071875
 20
3.6436406625
 30
0.0
 70
    32
  0
VERTEX
  5
1554
330
1548
100
AcDbEntity
  8
1
100
AcDbVertex
100
AcDb3dPolylineVertex
 10
29.10080634375
 20
3.930395550000003
 30
0.0
 70
    32
  0
VERTEX
  5
1555
330
1548
100
AcDbEntity
  8
1
100
AcDbVertex
100
AcDb3dPolylineVertex
 10
28.62340262812501
 20
4.178545612500001
 30
0.0
 70
    32
  0
VERTEX
  5
1556
330
1548
100
AcDbEntity
  8
1
100
AcDbVertex
100
AcDb3dPolylineVertex
 10
28.14636681562501
 20
4.385019037500001
 30
0.0
 70
    32
  0
VERTEX
  5
1557
330
1548
100
AcDbEntity
  8
1
100
AcDbVertex
100
AcDb3dPolylineVertex
 10
27.67049543437501
 20
4.547623884375003
 30
0.0
 70
    32
  0
VERTEX
  5
1558
330
1548
100
AcDbEntity
  8
1
100
AcDbVertex
100
AcDb3dPolylineVertex
 10
27.19624925625001
 20
4.665682687500003
 30
0.0
 70
    32
  0
VERTEX
  5
1559
330
1548
100
AcDbEntity
  8
1
100
AcDbVertex
100
AcDb3dPolylineVertex
 10
26.72349493125001
 20
4.737853612500003
 30
0.0
 70
    32
  0
VERTEX
  5
155A
330
1548
100
AcDbEntity
  8
1
100
AcDbVertex
100
AcDb3dPolylineVertex
 10
26.25195385312501
 20
4.763023425000006
 30
0.0
 70
    32
  0
SEQEND
  5
155B
330
1548
100
AcDbEntity
  8
1
  0
POLYLINE
  5
155C
330
18
100
AcDbEntity
  8
1
100
AcDb3dPolyline
 66
     1
 10
0.0
 20
0.0
 30
0.0
 70
     8
  0
VERTEX
  5
155D
330
155C
100
AcDbEntity
  8
1
100
AcDbVertex
100
AcDb3dPolylineVertex
 10
29.06635918125001
 20
3.964222396875008
 30
0.0
 70
    32
  0
VERTEX
  5
155E
330
155C
100
AcDbEntity
  8
1
100
AcDbVertex
100
AcDb3dPolylineVertex
 10
29.319446765625
 20
4.098753496875004
 30
0.0
 70
    32
  0
VERTEX
  5
155F
330
155C
100
AcDbEntity
  8
1
100
AcDbVertex
100
AcDb3dPolylineVertex
 10
29.572566496875
 20
4.222260600000002
 30
0.0
 70
    32
  0
VERTEX
  5
1560
330
155C
100
AcDbEntity
  8
1
100
AcDbVertex
100
AcDb3dPolylineVertex
 10
29.82573861562501
 20
4.334529393749996
 30
0.0
 70
    32
  0
VERTEX
  5
1561
330
155C
100
AcDbEntity
  8
1
100
AcDbVertex
100
AcDb3dPolylineVertex
 10
30.07904051250001
 20
4.434595471875002
 30
0.0
 70
    32
  0
VERTEX
  5
1562
330
155C
100
AcDbEntity
  8
1
100
AcDbVertex
100
AcDb3dPolylineVertex
 10
30.33254957812501
 20
4.521503953124994
 30
0.0
 70
    32
  0
VERTEX
  5
1563
330
155C
100
AcDbEntity
  8
1
100
AcDbVertex
100
AcDb3dPolylineVertex
 10
30.58633248750001
 20
4.594846453125001
 30
0.0
 70
    32
  0
VERTEX
  5
1564
330
155C
100
AcDbEntity
  8
1
100
AcDbVertex
100
AcDb3dPolylineVertex
 10
30.84043805625001
 20
4.654702743749998
 30
0.0
 70
    32
  0
VERTEX
  5
1565
330
155C
100
AcDbEntity
  8
1
100
AcDbVertex
100
AcDb3dPolylineVertex
 10
31.09490676562501
 20
4.701171646874994
 30
0.0
 70
    32
  0
VERTEX
  5
1566
330
155C
100
AcDbEntity
  8
1
100
AcDbVertex
100
AcDb3dPolylineVertex
 10
31.34960288437501
 20
4.734490096875004
 30
0.0
 70
    32
  0
VERTEX
  5
1567
330
155C
100
AcDbEntity
  8
1
100
AcDbVertex
100
AcDb3dPolylineVertex
 10
31.6042406625
 20
4.755002184374999
 30
0.0
 70
    32
  0
VERTEX
  5
1568
330
155C
100
AcDbEntity
  8
1
100
AcDbVertex
100
AcDb3dPolylineVertex
 10
31.85856054375001
 20
4.763023425000006
 30
0.0
 70
    32
  0
SEQEND
  5
1569
330
155C
100
AcDbEntity
  8
1
  0
POLYLINE
  5
156A
330
18
100
AcDbEntity
  8
1
100
AcDb3dPolyline
 66
     1
 10
0.0
 20
0.0
 30
0.0
 70
     8
  0
VERTEX
  5
156B
330
156A
100
AcDbEntity
  8
1
100
AcDbVertex
100
AcDb3dPolylineVertex
 10
35.099873990625
 20
-1.360079962499991
 30
0.0
 70
    32
  0
VERTEX
  5
156C
330
156A
100
AcDbEntity
  8
1
100
AcDbVertex
100
AcDb3dPolylineVertex
 10
34.94518918125
 20
-1.209774271874997
 30
0.0
 70
    32
  0
VERTEX
  5
156D
330
156A
100
AcDbEntity
  8
1
100
AcDbVertex
100
AcDb3dPolylineVertex
 10
34.790494846875
 20
-1.059088771874992
 30
0.0
 70
    32
  0
VERTEX
  5
156E
330
156A
100
AcDbEntity
  8
1
100
AcDbVertex
100
AcDb3dPolylineVertex
 10
34.63578979687501
 20
-0.9080234624999942
 30
0.0
 70
    32
  0
VERTEX
  5
156F
330
156A
100
AcDbEntity
  8
1
100
AcDbVertex
100
AcDb3dPolylineVertex
 10
34.48107522187501
 20
-0.7565783437500007
 30
0.0
 70
    32
  0
VERTEX
  5
1570
330
156A
100
AcDbEntity
  8
1
100
AcDbVertex
100
AcDb3dPolylineVertex
 10
34.32635112187501
 20
-0.6047546062500016
 30
0.0
 70
    32
  0
SEQEND
  5
1571
330
156A
100
AcDbEntity
  8
1
  0
POLYLINE
  5
1572
330
18
100
AcDbEntity
  8
1
100
AcDb3dPolyline
 66
     1
 10
0.0
 20
0.0
 30
0.0
 70
     8
  0
VERTEX
  5
1573
330
1572
100
AcDbEntity
  8
1
100
AcDbVertex
100
AcDb3dPolylineVertex
 10
14.83842615
 20
-4.572154040625001
 30
0.0
 70
    32
  0
VERTEX
  5
1574
330
1572
100
AcDbEntity
  8
1
100
AcDbVertex
100
AcDb3dPolylineVertex
 10
15.1063120125
 20
-4.62165070312499
 30
0.0
 70
    32
  0
VERTEX
  5
1575
330
1572
100
AcDbEntity
  8
1
100
AcDbVertex
100
AcDb3dPolylineVertex
 10
15.37068479857708
 20
-4.676077901720183
 30
0.0
 70
    32
  0
VERTEX
  5
1576
330
1572
100
AcDbEntity
  8
1
100
AcDbVertex
100
AcDb3dPolylineVertex
 10
15.63566533187653
 20
-4.7138759949433
 30
0.0
 70
    32
  0
VERTEX
  5
1577
330
1572
100
AcDbEntity
  8
1
100
AcDbVertex
100
AcDb3dPolylineVertex
 10
15.90090790313709
 20
-4.741987242324704
 30
0.0
 70
    32
  0
VERTEX
  5
1578
330
1572
100
AcDbEntity
  8
1
100
AcDbVertex
100
AcDb3dPolylineVertex
 10
16.16652166693638
 20
-4.755159384613635
 30
0.0
 70
    32
  0
SEQEND
  5
1579
330
1572
100
AcDbEntity
  8
1
  0
POLYLINE
  5
157A
330
18
100
AcDbEntity
  8
1
100
AcDb3dPolyline
 66
     1
 10
0.0
 20
0.0
 30
0.0
 70
     8
  0
VERTEX
  5
157B
330
157A
100
AcDbEntity
  8
1
100
AcDbVertex
100
AcDb3dPolylineVertex
 10
36.288124884375
 20
2.8410546375
 30
0.0
 70
    32
  0
VERTEX
  5
157C
330
157A
100
AcDbEntity
  8
1
100
AcDbVertex
100
AcDb3dPolylineVertex
 10
36.358283653125
 20
2.746989309375001
 30
0.0
 70
    32
  0
VERTEX
  5
157D
330
157A
100
AcDbEntity
  8
1
100
AcDbVertex
100
AcDb3dPolylineVertex
 10
36.42844123125001
 20
2.652923981250002
 30
0.0
 70
    32
  0
VERTEX
  5
157E
330
157A
100
AcDbEntity
  8
1
100
AcDbVertex
100
AcDb3dPolylineVertex
 10
36.4986
 20
2.558857462500002
 30
0.0
 70
    32
  0
SEQEND
  5
157F
330
157A
100
AcDbEntity
  8
1
  0
POLYLINE
  5
1580
330
18
100
AcDbEntity
  8
1
100
AcDb3dPolyline
 66
     1
 10
0.0
 20
0.0
 30
0.0
 70
     8
  0
VERTEX
  5
1581
330
1580
100
AcDbEntity
  8
1
100
AcDbVertex
100
AcDb3dPolylineVertex
 10
36.4986
 20
2.558857462500002
 30
0.0
 70
    32
  0
VERTEX
  5
1582
330
1580
100
AcDbEntity
  8
1
100
AcDbVertex
100
AcDb3dPolylineVertex
 10
36.49448281875
 20
2.409376875000009
 30
0.0
 70
    32
  0
VERTEX
  5
1583
330
1580
100
AcDbEntity
  8
1
100
AcDbVertex
100
AcDb3dPolylineVertex
 10
36.49048708125
 20
2.236162368750008
 30
0.0
 70
    32
  0
VERTEX
  5
1584
330
1580
100
AcDbEntity
  8
1
100
AcDbVertex
100
AcDb3dPolylineVertex
 10
36.48666398437501
 20
2.043053709374992
 30
0.0
 70
    32
  0
VERTEX
  5
1585
330
1580
100
AcDbEntity
  8
1
100
AcDbVertex
100
AcDb3dPolylineVertex
 10
36.483092109375
 20
1.836385021874999
 30
0.0
 70
    32
  0
VERTEX
  5
1586
330
1580
100
AcDbEntity
  8
1
100
AcDbVertex
100
AcDb3dPolylineVertex
 10
36.479822653125
 20
1.619938921874999
 30
0.0
 70
    32
  0
VERTEX
  5
1587
330
1580
100
AcDbEntity
  8
1
100
AcDbVertex
100
AcDb3dPolylineVertex
 10
36.47689252500001
 20
1.396506234375002
 30
0.0
 70
    32
  0
VERTEX
  5
1588
330
1580
100
AcDbEntity
  8
1
100
AcDbVertex
100
AcDb3dPolylineVertex
 10
36.47433744375
 20
1.168115784375007
 30
0.0
 70
    32
  0
VERTEX
  5
1589
330
1580
100
AcDbEntity
  8
1
100
AcDbVertex
100
AcDb3dPolylineVertex
 10
36.472197890625
 20
0.9363368156250079
 30
0.0
 70
    32
  0
VERTEX
  5
158A
330
1580
100
AcDbEntity
  8
1
100
AcDbVertex
100
AcDb3dPolylineVertex
 10
36.4705203
 20
0.7024682999999885
 30
0.0
 70
    32
  0
VERTEX
  5
158B
330
1580
100
AcDbEntity
  8
1
100
AcDbVertex
100
AcDb3dPolylineVertex
 10
36.46934396250003
 20
0.4676175187499997
 30
0.0
 70
    32
  0
VERTEX
  5
158C
330
1580
100
AcDbEntity
  8
1
100
AcDbVertex
100
AcDb3dPolylineVertex
 10
36.4686676875
 20
0.2317737562500102
 30
0.0
 70
    32
  0
VERTEX
  5
158D
330
1580
100
AcDbEntity
  8
1
100
AcDbVertex
100
AcDb3dPolylineVertex
 10
36.468478378125
 20
-0.005477324999998
 30
0.0
 70
    32
  0
SEQEND
  5
158E
330
1580
100
AcDbEntity
  8
1
  0
POLYLINE
  5
158F
330
18
100
AcDbEntity
  8
1
100
AcDb3dPolyline
 66
     1
 10
0.0
 20
0.0
 30
0.0
 70
     8
  0
VERTEX
  5
1590
330
158F
100
AcDbEntity
  8
1
100
AcDbVertex
100
AcDb3dPolylineVertex
 10
26.83514460000001
 20
-0.5661843093749971
 30
0.0
 70
    32
  0
VERTEX
  5
1591
330
158F
100
AcDbEntity
  8
1
100
AcDbVertex
100
AcDb3dPolylineVertex
 10
26.40135347812501
 20
-0.1246886531250024
 30
0.0
 70
    32
  0
VERTEX
  5
1592
330
158F
100
AcDbEntity
  8
1
100
AcDbVertex
100
AcDb3dPolylineVertex
 10
25.96535493750001
 20
0.3155699437500021
 30
0.0
 70
    32
  0
VERTEX
  5
1593
330
158F
100
AcDbEntity
  8
1
100
AcDbVertex
100
AcDb3dPolylineVertex
 10
25.53110661562501
 20
0.7551082124999975
 30
0.0
 70
    32
  0
VERTEX
  5
1594
330
158F
100
AcDbEntity
  8
1
100
AcDbVertex
100
AcDb3dPolylineVertex
 10
25.09749289687501
 20
1.188907668750007
 30
0.0
 70
    32
  0
VERTEX
  5
1595
330
158F
100
AcDbEntity
  8
1
100
AcDbVertex
100
AcDb3dPolylineVertex
 10
24.66365415000001
 20
1.612377262499995
 30
0.0
 70
    32
  0
VERTEX
  5
1596
330
158F
100
AcDbEntity
  8
1
100
AcDbVertex
100
AcDb3dPolylineVertex
 10
24.22994399062501
 20
2.022377315625
 30
0.0
 70
    32
  0
VERTEX
  5
1597
330
158F
100
AcDbEntity
  8
1
100
AcDbVertex
100
AcDb3dPolylineVertex
 10
23.79660530625001
 20
2.415200221874993
 30
0.0
 70
    32
  0
VERTEX
  5
1598
330
158F
100
AcDbEntity
  8
1
100
AcDbVertex
100
AcDb3dPolylineVertex
 10
23.36381788125001
 20
2.787057412500006
 30
0.0
 70
    32
  0
VERTEX
  5
1599
330
158F
100
AcDbEntity
  8
1
100
AcDbVertex
100
AcDb3dPolylineVertex
 10
22.931903184375
 20
3.135235453124998
 30
0.0
 70
    32
  0
VERTEX
  5
159A
330
158F
100
AcDbEntity
  8
1
100
AcDbVertex
100
AcDb3dPolylineVertex
 10
22.50113982187501
 20
3.457154259374998
 30
0.0
 70
    32
  0
VERTEX
  5
159B
330
158F
100
AcDbEntity
  8
1
100
AcDbVertex
100
AcDb3dPolylineVertex
 10
22.07166828750001
 20
3.749969428125008
 30
0.0
 70
    32
  0
VERTEX
  5
159C
330
158F
100
AcDbEntity
  8
1
100
AcDbVertex
100
AcDb3dPolylineVertex
 10
21.64352191875001
 20
4.010272200000001
 30
0.0
 70
    32
  0
VERTEX
  5
159D
330
158F
100
AcDbEntity
  8
1
100
AcDbVertex
100
AcDb3dPolylineVertex
 10
21.21661499062501
 20
4.234612143749997
 30
0.0
 70
    32
  0
VERTEX
  5
159E
330
158F
100
AcDbEntity
  8
1
100
AcDbVertex
100
AcDb3dPolylineVertex
 10
20.79063913125001
 20
4.421273568749998
 30
0.0
 70
    32
  0
VERTEX
  5
159F
330
158F
100
AcDbEntity
  8
1
100
AcDbVertex
100
AcDb3dPolylineVertex
 10
20.36530859062501
 20
4.568968218750002
 30
0.0
 70
    32
  0
VERTEX
  5
15A0
330
158F
100
AcDbEntity
  8
1
100
AcDbVertex
100
AcDb3dPolylineVertex
 10
19.94052335625
 20
4.6762268625
 30
0.0
 70
    32
  0
VERTEX
  5
15A1
330
158F
100
AcDbEntity
  8
1
100
AcDbVertex
100
AcDb3dPolylineVertex
 10
19.51643820937501
 20
4.741374290625
 30
0.0
 70
    32
  0
VERTEX
  5
15A2
330
158F
100
AcDbEntity
  8
1
100
AcDbVertex
100
AcDb3dPolylineVertex
 10
19.09330794375
 20
4.763023425000006
 30
0.0
 70
    32
  0
SEQEND
  5
15A3
330
158F
100
AcDbEntity
  8
1
  0
POLYLINE
  5
15A4
330
18
100
AcDbEntity
  8
1
100
AcDb3dPolyline
 66
     1
 10
0.0
 20
0.0
 30
0.0
 70
     8
  0
VERTEX
  5
15A5
330
15A4
100
AcDbEntity
  8
1
100
AcDbVertex
100
AcDb3dPolylineVertex
 10
31.25071314375
 20
0.6258503906250003
 30
0.0
 70
    32
  0
VERTEX
  5
15A6
330
15A4
100
AcDbEntity
  8
1
100
AcDbVertex
100
AcDb3dPolylineVertex
 10
31.63955221875001
 20
0.2419393125000044
 30
0.0
 70
    32
  0
VERTEX
  5
15A7
330
15A4
100
AcDbEntity
  8
1
100
AcDbVertex
100
AcDb3dPolylineVertex
 10
32.02840439062501
 20
-0.143202871874998
 30
0.0
 70
    32
  0
VERTEX
  5
15A8
330
15A4
100
AcDbEntity
  8
1
100
AcDbVertex
100
AcDb3dPolylineVertex
 10
32.41710773437501
 20
-0.5278830937499888
 30
0.0
 70
    32
  0
VERTEX
  5
15A9
330
15A4
100
AcDbEntity
  8
1
100
AcDbVertex
100
AcDb3dPolylineVertex
 10
32.80539435937501
 20
-0.9091152656249978
 30
0.0
 70
    32
  0
VERTEX
  5
15AA
330
15A4
100
AcDbEntity
  8
1
100
AcDbVertex
100
AcDb3dPolylineVertex
 10
33.19314044062501
 20
-1.284495515624991
 30
0.0
 70
    32
  0
VERTEX
  5
15AB
330
15A4
100
AcDbEntity
  8
1
100
AcDbVertex
100
AcDb3dPolylineVertex
 10
33.58031502187501
 20
-1.651783087499995
 30
0.0
 70
    32
  0
VERTEX
  5
15AC
330
15A4
100
AcDbEntity
  8
1
100
AcDbVertex
100
AcDb3dPolylineVertex
 10
33.96707883750001
 20
-2.008439568749995
 30
0.0
 70
    32
  0
VERTEX
  5
15AD
330
15A4
100
AcDbEntity
  8
1
100
AcDbVertex
100
AcDb3dPolylineVertex
 10
34.353654534375
 20
-2.351831296874995
 30
0.0
 70
    32
  0
VERTEX
  5
15AE
330
15A4
100
AcDbEntity
  8
1
100
AcDbVertex
100
AcDb3dPolylineVertex
 10
34.74025523437501
 20
-2.679360328124996
 30
0.0
 70
    32
  0
VERTEX
  5
15AF
330
15A4
100
AcDbEntity
  8
1
100
AcDbVertex
100
AcDb3dPolylineVertex
 10
35.127047625
 20
-2.988488249999998
 30
0.0
 70
    32
  0
VERTEX
  5
15B0
330
15A4
100
AcDbEntity
  8
1
100
AcDbVertex
100
AcDb3dPolylineVertex
 10
35.513991225
 20
-3.276882628124998
 30
0.0
 70
    32
  0
VERTEX
  5
15B1
330
15A4
100
AcDbEntity
  8
1
100
AcDbVertex
100
AcDb3dPolylineVertex
 10
35.901014596875
 20
-3.542755143749996
 30
0.0
 70
    32
  0
VERTEX
  5
15B2
330
15A4
100
AcDbEntity
  8
1
100
AcDbVertex
100
AcDb3dPolylineVertex
 10
36.288124884375
 20
-3.786340350000006
 30
0.0
 70
    32
  0
SEQEND
  5
15B3
330
15A4
100
AcDbEntity
  8
1
  0
POLYLINE
  5
15B4
330
18
100
AcDbEntity
  8
1
100
AcDb3dPolyline
 66
     1
 10
0.0
 20
0.0
 30
0.0
 70
     8
  0
VERTEX
  5
15B5
330
15B4
100
AcDbEntity
  8
1
100
AcDbVertex
100
AcDb3dPolylineVertex
 10
21.540012553125
 20
4.078543828124998
 30
0.0
 70
    32
  0
VERTEX
  5
15B6
330
15B4
100
AcDbEntity
  8
1
100
AcDbVertex
100
AcDb3dPolylineVertex
 10
21.8148361875
 20
4.204710787500005
 30
0.0
 70
    32
  0
VERTEX
  5
15B7
330
15B4
100
AcDbEntity
  8
1
100
AcDbVertex
100
AcDb3dPolylineVertex
 10
22.089514565625
 20
4.318878628125001
 30
0.0
 70
    32
  0
VERTEX
  5
15B8
330
15B4
100
AcDbEntity
  8
1
100
AcDbVertex
100
AcDb3dPolylineVertex
 10
22.36407745312501
 20
4.421252137500001
 30
0.0
 70
    32
  0
VERTEX
  5
15B9
330
15B4
100
AcDbEntity
  8
1
100
AcDbVertex
100
AcDb3dPolylineVertex
 10
22.63842126562501
 20
4.511116940625004
 30
0.0
 70
    32
  0
VERTEX
  5
15BA
330
15B4
100
AcDbEntity
  8
1
100
AcDbVertex
100
AcDb3dPolylineVertex
 10
22.91242575
 20
4.587618168750001
 30
0.0
 70
    32
  0
VERTEX
  5
15BB
330
15B4
100
AcDbEntity
  8
1
100
AcDbVertex
100
AcDb3dPolylineVertex
 10
23.18600875312501
 20
4.650092643749998
 30
0.0
 70
    32
  0
VERTEX
  5
15BC
330
15B4
100
AcDbEntity
  8
1
100
AcDbVertex
100
AcDb3dPolylineVertex
 10
23.45924052187501
 20
4.698635615625006
 30
0.0
 70
    32
  0
VERTEX
  5
15BD
330
15B4
100
AcDbEntity
  8
1
100
AcDbVertex
100
AcDb3dPolylineVertex
 10
23.73223535625001
 20
4.733539978125
 30
0.0
 70
    32
  0
VERTEX
  5
15BE
330
15B4
100
AcDbEntity
  8
1
100
AcDbVertex
100
AcDb3dPolylineVertex
 10
24.00507779062501
 20
4.755029568750003
 30
0.0
 70
    32
  0
VERTEX
  5
15BF
330
15B4
100
AcDbEntity
  8
1
100
AcDbVertex
100
AcDb3dPolylineVertex
 10
24.27773925
 20
4.763023425000006
 30
0.0
 70
    32
  0
SEQEND
  5
15C0
330
15B4
100
AcDbEntity
  8
1
  0
POLYLINE
  5
15C1
330
18
100
AcDbEntity
  8
1
100
AcDb3dPolyline
 66
     1
 10
0.0
 20
0.0
 30
0.0
 70
     8
  0
VERTEX
  5
15C2
330
15C1
100
AcDbEntity
  8
1
100
AcDbVertex
100
AcDb3dPolylineVertex
 10
35.099873990625
 20
-4.50761144999999
 30
0.0
 70
    32
  0
VERTEX
  5
15C3
330
15C1
100
AcDbEntity
  8
1
100
AcDbVertex
100
AcDb3dPolylineVertex
 10
34.81900436250001
 20
-4.581236128124992
 30
0.0
 70
    32
  0
VERTEX
  5
15C4
330
15C1
100
AcDbEntity
  8
1
100
AcDbVertex
100
AcDb3dPolylineVertex
 10
34.53818355000001
 20
-4.638721884374993
 30
0.0
 70
    32
  0
VERTEX
  5
15C5
330
15C1
100
AcDbEntity
  8
1
100
AcDbVertex
100
AcDb3dPolylineVertex
 10
34.257409171875
 20
-4.702471734532785
 30
0.0
 70
    32
  0
VERTEX
  5
15C6
330
15C1
100
AcDbEntity
  8
1
100
AcDbVertex
100
AcDb3dPolylineVertex
 10
33.97668241875
 20
-4.737316598424122
 30
0.0
 70
    32
  0
VERTEX
  5
15C7
330
15C1
100
AcDbEntity
  8
1
100
AcDbVertex
100
AcDb3dPolylineVertex
 10
33.59050526680194
 20
-4.762987821399896
 30
0.0
 70
    32
  0
SEQEND
  5
15C8
330
15C1
100
AcDbEntity
  8
1
  0
POLYLINE
  5
15C9
330
18
100
AcDbEntity
  8
1
100
AcDb3dPolyline
 66
     1
 10
0.0
 20
0.0
 30
0.0
 70
     8
  0
VERTEX
  5
15CA
330
15C9
100
AcDbEntity
  8
1
100
AcDbVertex
100
AcDb3dPolylineVertex
 10
36.288124884375
 20
-3.786340350000006
 30
0.0
 70
    32
  0
VERTEX
  5
15CB
330
15C9
100
AcDbEntity
  8
1
100
AcDbVertex
100
AcDb3dPolylineVertex
 10
36.358283653125
 20
-3.766933162499998
 30
0.0
 70
    32
  0
VERTEX
  5
15CC
330
15C9
100
AcDbEntity
  8
1
100
AcDbVertex
100
AcDb3dPolylineVertex
 10
36.42844123125001
 20
-3.747525974999998
 30
0.0
 70
    32
  0
VERTEX
  5
15CD
330
15C9
100
AcDbEntity
  8
1
100
AcDbVertex
100
AcDb3dPolylineVertex
 10
36.4986
 20
-3.728117596874997
 30
0.0
 70
    32
  0
SEQEND
  5
15CE
330
15C9
100
AcDbEntity
  8
1
  0
POLYLINE
  5
15CF
330
18
100
AcDbEntity
  8
1
100
AcDb3dPolyline
 66
     1
 10
0.0
 20
0.0
 30
0.0
 70
     8
  0
VERTEX
  5
15D0
330
15CF
100
AcDbEntity
  8
1
100
AcDbVertex
100
AcDb3dPolylineVertex
 10
31.85856054375001
 20
4.763023425000006
 30
0.0
 70
    32
  0
VERTEX
  5
15D1
330
15CF
100
AcDbEntity
  8
1
100
AcDbVertex
100
AcDb3dPolylineVertex
 10
32.22926759062501
 20
4.74890499375
 30
0.0
 70
    32
  0
VERTEX
  5
15D2
330
15CF
100
AcDbEntity
  8
1
100
AcDbVertex
100
AcDb3dPolylineVertex
 10
32.59953886875001
 20
4.706030587499995
 30
0.0
 70
    32
  0
VERTEX
  5
15D3
330
15CF
100
AcDbEntity
  8
1
100
AcDbVertex
100
AcDb3dPolylineVertex
 10
32.969367234375
 20
4.634491884375001
 30
0.0
 70
    32
  0
VERTEX
  5
15D4
330
15CF
100
AcDbEntity
  8
1
100
AcDbVertex
100
AcDb3dPolylineVertex
 10
33.33868363125001
 20
4.535044931249998
 30
0.0
 70
    32
  0
VERTEX
  5
15D5
330
15CF
100
AcDbEntity
  8
1
100
AcDbVertex
100
AcDb3dPolylineVertex
 10
33.70751068125001
 20
4.408500543750001
 30
0.0
 70
    32
  0
VERTEX
  5
15D6
330
15CF
100
AcDbEntity
  8
1
100
AcDbVertex
100
AcDb3dPolylineVertex
 10
34.076029359375
 20
4.255668346874998
 30
0.0
 70
    32
  0
VERTEX
  5
15D7
330
15CF
100
AcDbEntity
  8
1
100
AcDbVertex
100
AcDb3dPolylineVertex
 10
34.44443373750001
 20
4.077293671874995
 30
0.0
 70
    32
  0
VERTEX
  5
15D8
330
15CF
100
AcDbEntity
  8
1
100
AcDbVertex
100
AcDb3dPolylineVertex
 10
34.8129083625
 20
3.873990881250004
 30
0.0
 70
    32
  0
VERTEX
  5
15D9
330
15CF
100
AcDbEntity
  8
1
100
AcDbVertex
100
AcDb3dPolylineVertex
 10
35.1815639625
 20
3.646855349999995
 30
0.0
 70
    32
  0
VERTEX
  5
15DA
330
15CF
100
AcDbEntity
  8
1
100
AcDbVertex
100
AcDb3dPolylineVertex
 10
35.55034457812501
 20
3.398174268750004
 30
0.0
 70
    32
  0
VERTEX
  5
15DB
330
15CF
100
AcDbEntity
  8
1
100
AcDbVertex
100
AcDb3dPolylineVertex
 10
35.91919425
 20
3.129708571874998
 30
0.0
 70
    32
  0
VERTEX
  5
15DC
330
15CF
100
AcDbEntity
  8
1
100
AcDbVertex
100
AcDb3dPolylineVertex
 10
36.288124884375
 20
2.8410546375
 30
0.0
 70
    32
  0
SEQEND
  5
15DD
330
15CF
100
AcDbEntity
  8
1
  0
POLYLINE
  5
15F1
330
18
100
AcDbEntity
  8
1
100
AcDb3dPolyline
 66
     1
 10
0.0
 20
0.0
 30
0.0
 70
     8
  0
VERTEX
  5
15F2
330
15F1
100
AcDbEntity
  8
1
100
AcDbVertex
100
AcDb3dPolylineVertex
 10
24.27773925
 20
4.763023425000006
 30
0.0
 70
    32
  0
VERTEX
  5
15F3
330
15F1
100
AcDbEntity
  8
1
100
AcDbVertex
100
AcDb3dPolylineVertex
 10
24.71884557187501
 20
4.743004256249998
 30
0.0
 70
    32
  0
VERTEX
  5
15F4
330
15F1
100
AcDbEntity
  8
1
100
AcDbVertex
100
AcDb3dPolylineVertex
 10
25.15998880312501
 20
4.687639003125005
 30
0.0
 70
    32
  0
VERTEX
  5
15F5
330
15F1
100
AcDbEntity
  8
1
100
AcDbVertex
100
AcDb3dPolylineVertex
 10
25.60084985625001
 20
4.594996471875004
 30
0.0
 70
    32
  0
VERTEX
  5
15F6
330
15F1
100
AcDbEntity
  8
1
100
AcDbVertex
100
AcDb3dPolylineVertex
 10
26.04128228437501
 20
4.464811153124998
 30
0.0
 70
    32
  0
VERTEX
  5
15F7
330
15F1
100
AcDbEntity
  8
1
100
AcDbVertex
100
AcDb3dPolylineVertex
 10
26.481387290625
 20
4.299233315625006
 30
0.0
 70
    32
  0
VERTEX
  5
15F8
330
15F1
100
AcDbEntity
  8
1
100
AcDbVertex
100
AcDb3dPolylineVertex
 10
26.92088507812501
 20
4.099806009375001
 30
0.0
 70
    32
  0
VERTEX
  5
15F9
330
15F1
100
AcDbEntity
  8
1
100
AcDbVertex
100
AcDb3dPolylineVertex
 10
27.35916366562501
 20
3.867422203125001
 30
0.0
 70
    32
  0
VERTEX
  5
15FA
330
15F1
100
AcDbEntity
  8
1
100
AcDbVertex
100
AcDb3dPolylineVertex
 10
27.79568370000002
 20
3.602779603125
 30
0.0
 70
    32
  0
VERTEX
  5
15FB
330
15F1
100
AcDbEntity
  8
1
100
AcDbVertex
100
AcDb3dPolylineVertex
 10
28.23007727812501
 20
3.306808087500001
 30
0.0
 70
    32
  0
VERTEX
  5
15FC
330
15F1
100
AcDbEntity
  8
1
100
AcDbVertex
100
AcDb3dPolylineVertex
 10
28.66269563437501
 20
2.982377062499995
 30
0.0
 70
    32
  0
VERTEX
  5
15FD
330
15F1
100
AcDbEntity
  8
1
100
AcDbVertex
100
AcDb3dPolylineVertex
 10
29.09411979375001
 20
2.632956009375003
 30
0.0
 70
    32
  0
VERTEX
  5
15FE
330
15F1
100
AcDbEntity
  8
1
100
AcDbVertex
100
AcDb3dPolylineVertex
 10
29.52483791250001
 20
2.261706037500001
 30
0.0
 70
    32
  0
VERTEX
  5
15FF
330
15F1
100
AcDbEntity
  8
1
100
AcDbVertex
100
AcDb3dPolylineVertex
 10
29.95544292187501
 20
1.871832309375004
 30
0.0
 70
    32
  0
VERTEX
  5
1600
330
15F1
100
AcDbEntity
  8
1
100
AcDbVertex
100
AcDb3dPolylineVertex
 10
30.38674444687501
 20
1.466749537499999
 30
0.0
 70
    32
  0
VERTEX
  5
1601
330
15F1
100
AcDbEntity
  8
1
100
AcDbVertex
100
AcDb3dPolylineVertex
 10
30.81876749062501
 20
1.050209381249993
 30
0.0
 70
    32
  0
VERTEX
  5
1602
330
15F1
100
AcDbEntity
  8
1
100
AcDbVertex
100
AcDb3dPolylineVertex
 10
31.25071314375
 20
0.6258503906250003
 30
0.0
 70
    32
  0
SEQEND
  5
1603
330
15F1
100
AcDbEntity
  8
1
  0
POLYLINE
  5
1604
330
18
100
AcDbEntity
  8
1
100
AcDb3dPolyline
 66
     1
 10
0.0
 20
0.0
 30
0.0
 70
     8
  0
VERTEX
  5
1605
330
1604
100
AcDbEntity
  8
1
100
AcDbVertex
100
AcDb3dPolylineVertex
 10
33.59050526680194
 20
-4.762987821399896
 30
0.0
 70
    32
  0
VERTEX
  5
1606
330
1604
100
AcDbEntity
  8
1
100
AcDbVertex
100
AcDb3dPolylineVertex
 10
33.59050526680194
 20
-4.762987821399896
 30
0.0
 70
    32
  0
VERTEX
  5
1607
330
1604
100
AcDbEntity
  8
1
100
AcDbVertex
100
AcDb3dPolylineVertex
 10
33.09786241535858
 20
-4.698620093137257
 30
0.0
 70
    32
  0
VERTEX
  5
1608
330
1604
100
AcDbEntity
  8
1
100
AcDbVertex
100
AcDb3dPolylineVertex
 10
32.41186660312501
 20
-4.540456031249995
 30
0.0
 70
    32
  0
VERTEX
  5
1609
330
1604
100
AcDbEntity
  8
1
100
AcDbVertex
100
AcDb3dPolylineVertex
 10
31.98378095625001
 20
-4.405949934375009
 30
0.0
 70
    32
  0
VERTEX
  5
160A
330
1604
100
AcDbEntity
  8
1
100
AcDbVertex
100
AcDb3dPolylineVertex
 10
31.5555822
 20
-4.236063225000001
 30
0.0
 70
    32
  0
VERTEX
  5
160B
330
1604
100
AcDbEntity
  8
1
100
AcDbVertex
100
AcDb3dPolylineVertex
 10
31.12737391875001
 20
-4.031886515624998
 30
0.0
 70
    32
  0
VERTEX
  5
160C
330
1604
100
AcDbEntity
  8
1
100
AcDbVertex
100
AcDb3dPolylineVertex
 10
30.69905967187501
 20
-3.794580665624995
 30
0.0
 70
    32
  0
VERTEX
  5
160D
330
1604
100
AcDbEntity
  8
1
100
AcDbVertex
100
AcDb3dPolylineVertex
 10
30.27031560937501
 20
-3.525705393749998
 30
0.0
 70
    32
  0
VERTEX
  5
160E
330
1604
100
AcDbEntity
  8
1
100
AcDbVertex
100
AcDb3dPolylineVertex
 10
29.84098933125001
 20
-3.227931271875001
 30
0.0
 70
    32
  0
VERTEX
  5
160F
330
1604
100
AcDbEntity
  8
1
100
AcDbVertex
100
AcDb3dPolylineVertex
 10
29.41105226250001
 20
-2.904451556249998
 30
0.0
 70
    32
  0
VERTEX
  5
1610
330
1604
100
AcDbEntity
  8
1
100
AcDbVertex
100
AcDb3dPolylineVertex
 10
28.98057703125001
 20
-2.558064215624999
 30
0.0
 70
    32
  0
VERTEX
  5
1611
330
1604
100
AcDbEntity
  8
1
100
AcDbVertex
100
AcDb3dPolylineVertex
 10
28.549855340625
 20
-2.191121924999994
 30
0.0
 70
    32
  0
VERTEX
  5
1612
330
1604
100
AcDbEntity
  8
1
100
AcDbVertex
100
AcDb3dPolylineVertex
 10
28.11959204062501
 20
-1.805265365624995
 30
0.0
 70
    32
  0
VERTEX
  5
1613
330
1604
100
AcDbEntity
  8
1
100
AcDbVertex
100
AcDb3dPolylineVertex
 10
27.69028957500001
 20
-1.403500865624996
 30
0.0
 70
    32
  0
VERTEX
  5
1614
330
1604
100
AcDbEntity
  8
1
100
AcDbVertex
100
AcDb3dPolylineVertex
 10
27.2621313
 20
-0.9902289749999976
 30
0.0
 70
    32
  0
VERTEX
  5
1615
330
1604
100
AcDbEntity
  8
1
100
AcDbVertex
100
AcDb3dPolylineVertex
 10
26.83514460000001
 20
-0.5661843093749971
 30
0.0
 70
    32
  0
SEQEND
  5
1616
330
1604
100
AcDbEntity
  8
1
  0
POLYLINE
  5
1617
330
18
100
AcDbEntity
  8
1
100
AcDb3dPolyline
 66
     1
 10
0.0
 20
0.0
 30
0.0
 70
     8
  0
VERTEX
  5
1618
330
1617
100
AcDbEntity
  8
1
100
AcDbVertex
100
AcDb3dPolylineVertex
 10
16.16532770625001
 20
4.763023425000006
 30
0.0
 70
    32
  0
VERTEX
  5
1619
330
1617
100
AcDbEntity
  8
1
100
AcDbVertex
100
AcDb3dPolylineVertex
 10
16.69148394375001
 20
4.738115550000003
 30
0.0
 70
    32
  0
VERTEX
  5
161A
330
1617
100
AcDbEntity
  8
1
100
AcDbVertex
100
AcDb3dPolylineVertex
 10
17.21595306562501
 20
4.670363034375004
 30
0.0
 70
    32
  0
VERTEX
  5
161B
330
1617
100
AcDbEntity
  8
1
100
AcDbVertex
100
AcDb3dPolylineVertex
 10
17.73972329062501
 20
4.557326287500004
 30
0.0
 70
    32
  0
VERTEX
  5
161C
330
1617
100
AcDbEntity
  8
1
100
AcDbVertex
100
AcDb3dPolylineVertex
 10
18.26321490937501
 20
4.398033759375
 30
0.0
 70
    32
  0
VERTEX
  5
161D
330
1617
100
AcDbEntity
  8
1
100
AcDbVertex
100
AcDb3dPolylineVertex
 10
18.7853623125
 20
4.195370334374998
 30
0.0
 70
    32
  0
VERTEX
  5
161E
330
1617
100
AcDbEntity
  8
1
100
AcDbVertex
100
AcDb3dPolylineVertex
 10
19.305823790625
 20
3.951719643750008
 30
0.0
 70
    32
  0
VERTEX
  5
161F
330
1617
100
AcDbEntity
  8
1
100
AcDbVertex
100
AcDb3dPolylineVertex
 10
19.8249589125
 20
3.668730703125003
 30
0.0
 70
    32
  0
VERTEX
  5
1620
330
1617
100
AcDbEntity
  8
1
100
AcDbVertex
100
AcDb3dPolylineVertex
 10
20.34284268750001
 20
3.348127537499993
 30
0.0
 70
    32
  0
VERTEX
  5
1621
330
1617
100
AcDbEntity
  8
1
100
AcDbVertex
100
AcDb3dPolylineVertex
 10
20.85946916250001
 20
2.992293778124998
 30
0.0
 70
    32
  0
VERTEX
  5
1622
330
1617
100
AcDbEntity
  8
1
100
AcDbVertex
100
AcDb3dPolylineVertex
 10
21.37498002187501
 20
2.605531153125002
 30
0.0
 70
    32
  0
VERTEX
  5
1623
330
1617
100
AcDbEntity
  8
1
100
AcDbVertex
100
AcDb3dPolylineVertex
 10
21.88940145937501
 20
2.192048521875004
 30
0.0
 70
    32
  0
VERTEX
  5
1624
330
1617
100
AcDbEntity
  8
1
100
AcDbVertex
100
AcDb3dPolylineVertex
 10
22.40258345625001
 20
1.755477290625012
 30
0.0
 70
    32
  0
VERTEX
  5
1625
330
1617
100
AcDbEntity
  8
1
100
AcDbVertex
100
AcDb3dPolylineVertex
 10
22.91448315
 20
1.299815578125002
 30
0.0
 70
    32
  0
VERTEX
  5
1626
330
1617
100
AcDbEntity
  8
1
100
AcDbVertex
100
AcDb3dPolylineVertex
 10
23.42517197812501
 20
0.8294829843750012
 30
0.0
 70
    32
  0
VERTEX
  5
1627
330
1617
100
AcDbEntity
  8
1
100
AcDbVertex
100
AcDb3dPolylineVertex
 10
23.93488330312501
 20
0.3495825281250009
 30
0.0
 70
    32
  0
VERTEX
  5
1628
330
1617
100
AcDbEntity
  8
1
100
AcDbVertex
100
AcDb3dPolylineVertex
 10
24.44377547812501
 20
-0.1343446218749986
 30
0.0
 70
    32
  0
VERTEX
  5
1629
330
1617
100
AcDbEntity
  8
1
100
AcDbVertex
100
AcDb3dPolylineVertex
 10
24.951836596875
 20
-0.6170763843750007
 30
0.0
 70
    32
  0
SEQEND
  5
162A
330
1617
100
AcDbEntity
  8
1
  0
POLYLINE
  5
162B
330
18
100
AcDbEntity
  8
1
100
AcDb3dPolyline
 66
     1
 10
0.0
 20
0.0
 30
0.0
 70
     8
  0
VERTEX
  5
162C
330
162B
100
AcDbEntity
  8
1
100
AcDbVertex
100
AcDb3dPolylineVertex
 10
26.25246939375001
 20
-4.762987821399896
 30
0.0
 70
    32
  0
VERTEX
  5
162D
330
162B
100
AcDbEntity
  8
1
100
AcDbVertex
100
AcDb3dPolylineVertex
 10
25.78010083125001
 20
-4.707886866084711
 30
0.0
 70
    32
  0
VERTEX
  5
162E
330
162B
100
AcDbEntity
  8
1
100
AcDbVertex
100
AcDb3dPolylineVertex
 10
25.30829900625001
 20
-4.616125012499998
 30
0.0
 70
    32
  0
VERTEX
  5
162F
330
162B
100
AcDbEntity
  8
1
100
AcDbVertex
100
AcDb3dPolylineVertex
 10
24.83676983437501
 20
-4.495142034375
 30
0.0
 70
    32
  0
VERTEX
  5
1630
330
162B
100
AcDbEntity
  8
1
100
AcDbVertex
100
AcDb3dPolylineVertex
 10
24.36542878125001
 20
-4.328248556249993
 30
0.0
 70
    32
  0
VERTEX
  5
1631
330
162B
100
AcDbEntity
  8
1
100
AcDbVertex
100
AcDb3dPolylineVertex
 10
23.89432109062501
 20
-4.116500662499993
 30
0.0
 70
    32
  0
VERTEX
  5
1632
330
162B
100
AcDbEntity
  8
1
100
AcDbVertex
100
AcDb3dPolylineVertex
 10
23.423813475
 20
-3.860773462499998
 30
0.0
 70
    32
  0
VERTEX
  5
1633
330
162B
100
AcDbEntity
  8
1
100
AcDbVertex
100
AcDb3dPolylineVertex
 10
22.95430360312501
 20
-3.563916121874988
 30
0.0
 70
    32
  0
VERTEX
  5
1634
330
162B
100
AcDbEntity
  8
1
100
AcDbVertex
100
AcDb3dPolylineVertex
 10
22.48612723125001
 20
-3.229393359374998
 30
0.0
 70
    32
  0
VERTEX
  5
1635
330
162B
100
AcDbEntity
  8
1
100
AcDbVertex
100
AcDb3dPolylineVertex
 10
22.01947843125
 20
-2.860125778124998
 30
0.0
 70
    32
  0
VERTEX
  5
1636
330
162B
100
AcDbEntity
  8
1
100
AcDbVertex
100
AcDb3dPolylineVertex
 10
21.55439292187501
 20
-2.459100656249994
 30
0.0
 70
    32
  0
VERTEX
  5
1637
330
162B
100
AcDbEntity
  8
1
100
AcDbVertex
100
AcDb3dPolylineVertex
 10
21.09071115937501
 20
-2.030035124999999
 30
0.0
 70
    32
  0
VERTEX
  5
1638
330
162B
100
AcDbEntity
  8
1
100
AcDbVertex
100
AcDb3dPolylineVertex
 10
20.62800094687501
 20
-1.578379865624999
 30
0.0
 70
    32
  0
VERTEX
  5
1639
330
162B
100
AcDbEntity
  8
1
100
AcDbVertex
100
AcDb3dPolylineVertex
 10
20.16600391875
 20
-1.109272424999991
 30
0.0
 70
    32
  0
VERTEX
  5
163A
330
162B
100
AcDbEntity
  8
1
100
AcDbVertex
100
AcDb3dPolylineVertex
 10
19.70470459687501
 20
-0.6274181531249963
 30
0.0
 70
    32
  0
VERTEX
  5
163B
330
162B
100
AcDbEntity
  8
1
100
AcDbVertex
100
AcDb3dPolylineVertex
 10
19.24433158125
 20
-0.1376140781249941
 30
0.0
 70
    32
  0
VERTEX
  5
163C
330
162B
100
AcDbEntity
  8
1
100
AcDbVertex
100
AcDb3dPolylineVertex
 10
18.78509561250001
 20
0.3550272562500001
 30
0.0
 70
    32
  0
VERTEX
  5
163D
330
162B
100
AcDbEntity
  8
1
100
AcDbVertex
100
AcDb3dPolylineVertex
 10
18.32702883750001
 20
0.845118271875005
 30
0.0
 70
    32
  0
VERTEX
  5
163E
330
162B
100
AcDbEntity
  8
1
100
AcDbVertex
100
AcDb3dPolylineVertex
 10
17.869780021875
 20
1.327252340625
 30
0.0
 70
    32
  0
VERTEX
  5
163F
330
162B
100
AcDbEntity
  8
1
100
AcDbVertex
100
AcDb3dPolylineVertex
 10
17.41338726562501
 20
1.795896628124999
 30
0.0
 70
    32
  0
VERTEX
  5
1640
330
162B
100
AcDbEntity
  8
1
100
AcDbVertex
100
AcDb3dPolylineVertex
 10
16.95819108750001
 20
2.245670699999997
 30
0.0
 70
    32
  0
VERTEX
  5
1641
330
162B
100
AcDbEntity
  8
1
100
AcDbVertex
100
AcDb3dPolylineVertex
 10
16.50410457187501
 20
2.67242165625
 30
0.0
 70
    32
  0
SEQEND
  5
1642
330
162B
100
AcDbEntity
  8
1
  0
POLYLINE
  5
1643
330
18
100
AcDbEntity
  8
1
100
AcDb3dPolyline
 66
     1
 10
0.0
 20
0.0
 30
0.0
 70
     8
  0
VERTEX
  5
1644
330
1643
100
AcDbEntity
  8
1
100
AcDbVertex
100
AcDb3dPolylineVertex
 10
19.09330794375
 20
-4.762987821399896
 30
0.0
 70
    32
  0
VERTEX
  5
1645
330
1643
100
AcDbEntity
  8
1
100
AcDbVertex
100
AcDb3dPolylineVertex
 10
18.67142525749364
 20
-4.740937590738148
 30
0.0
 70
    32
  0
VERTEX
  5
1646
330
1643
100
AcDbEntity
  8
1
100
AcDbVertex
100
AcDb3dPolylineVertex
 10
18.28382725589402
 20
-4.667840832361044
 30
0.0
 70
    32
  0
VERTEX
  5
1647
330
1643
100
AcDbEntity
  8
1
100
AcDbVertex
100
AcDb3dPolylineVertex
 10
17.88230030668681
 20
-4.561180044793237
 30
0.0
 70
    32
  0
VERTEX
  5
1648
330
1643
100
AcDbEntity
  8
1
100
AcDbVertex
100
AcDb3dPolylineVertex
 10
17.4905338125
 20
-4.401411271874998
 30
0.0
 70
    32
  0
VERTEX
  5
1649
330
1643
100
AcDbEntity
  8
1
100
AcDbVertex
100
AcDb3dPolylineVertex
 10
17.09162443125
 20
-4.227376424999995
 30
0.0
 70
    32
  0
VERTEX
  5
164A
330
1643
100
AcDbEntity
  8
1
100
AcDbVertex
100
AcDb3dPolylineVertex
 10
16.693763990625
 20
-4.016819156249995
 30
0.0
 70
    32
  0
VERTEX
  5
164B
330
1643
100
AcDbEntity
  8
1
100
AcDbVertex
100
AcDb3dPolylineVertex
 10
16.297113225
 20
-3.771968315624998
 30
0.0
 70
    32
  0
VERTEX
  5
164C
330
1643
100
AcDbEntity
  8
1
100
AcDbVertex
100
AcDb3dPolylineVertex
 10
15.90167808750001
 20
-3.49462650937499
 30
0.0
 70
    32
  0
VERTEX
  5
164D
330
1643
100
AcDbEntity
  8
1
100
AcDbVertex
100
AcDb3dPolylineVertex
 10
15.50733713437501
 20
-3.186571340624996
 30
0.0
 70
    32
  0
VERTEX
  5
164E
330
1643
100
AcDbEntity
  8
1
100
AcDbVertex
100
AcDb3dPolylineVertex
 10
15.11387367187501
 20
-2.849791153124993
 30
0.0
 70
    32
  0
VERTEX
  5
164F
330
1643
100
AcDbEntity
  8
1
100
AcDbVertex
100
AcDb3dPolylineVertex
 10
14.72116149375001
 20
-2.48756969062499
 30
0.0
 70
    32
  0
VERTEX
  5
1650
330
1643
100
AcDbEntity
  8
1
100
AcDbVertex
100
AcDb3dPolylineVertex
 10
14.32922441250001
 20
-2.103396675000003
 30
0.0
 70
    32
  0
VERTEX
  5
1651
330
1643
100
AcDbEntity
  8
1
100
AcDbVertex
100
AcDb3dPolylineVertex
 10
13.938369609375
 20
-1.699808137499993
 30
0.0
 70
    32
  0
VERTEX
  5
1652
330
1643
100
AcDbEntity
  8
1
100
AcDbVertex
100
AcDb3dPolylineVertex
 10
13.54903880625
 20
-1.280209265624991
 30
0.0
 70
    32
  0
VERTEX
  5
1653
330
1643
100
AcDbEntity
  8
1
100
AcDbVertex
100
AcDb3dPolylineVertex
 10
13.10781278339277
 20
-0.8485017374999978
 30
0.0
 70
    32
  0
VERTEX
  5
1654
330
1643
100
AcDbEntity
  8
1
100
AcDbVertex
100
AcDb3dPolylineVertex
 10
12.23509313293176
 20
-0.0116536906373375
 30
0.0
 70
    32
  0
SEQEND
  5
1655
330
1643
100
AcDbEntity
  8
1
  0
POLYLINE
  5
165C
330
18
100
AcDbEntity
  8
1
100
AcDb3dPolyline
 66
     1
 10
0.0
 20
0.0
 30
0.0
 70
     8
  0
VERTEX
  5
165D
330
165C
100
AcDbEntity
  8
1
100
AcDbVertex
100
AcDb3dPolylineVertex
 10
36.288124884375
 20
-2.395892756249996
 30
0.0
 70
    32
  0
VERTEX
  5
165E
330
165C
100
AcDbEntity
  8
1
100
AcDbVertex
100
AcDb3dPolylineVertex
 10
36.044389659375
 20
-2.204102118749997
 30
0.0
 70
    32
  0
VERTEX
  5
165F
330
165C
100
AcDbEntity
  8
1
100
AcDbVertex
100
AcDb3dPolylineVertex
 10
35.80369648125
 20
-2.004625996874999
 30
0.0
 70
    32
  0
VERTEX
  5
1660
330
165C
100
AcDbEntity
  8
1
100
AcDbVertex
100
AcDb3dPolylineVertex
 10
35.56604654062501
 20
-1.797463199999991
 30
0.0
 70
    32
  0
VERTEX
  5
1661
330
165C
100
AcDbEntity
  8
1
100
AcDbVertex
100
AcDb3dPolylineVertex
 10
35.33143864687501
 20
-1.58261491875
 30
0.0
 70
    32
  0
VERTEX
  5
1662
330
165C
100
AcDbEntity
  8
1
100
AcDbVertex
100
AcDb3dPolylineVertex
 10
35.099873990625
 20
-1.360079962499991
 30
0.0
 70
    32
  0
SEQEND
  5
1663
330
165C
100
AcDbEntity
  8
1
  0
POLYLINE
  5
1664
330
18
100
AcDbEntity
  8
1
100
AcDb3dPolyline
 66
     1
 10
0.0
 20
0.0
 30
0.0
 70
     8
  0
VERTEX
  5
1665
330
1664
100
AcDbEntity
  8
1
100
AcDbVertex
100
AcDb3dPolylineVertex
 10
36.288124884375
 20
-4.049685168749999
 30
0.0
 70
    32
  0
VERTEX
  5
1666
330
1664
100
AcDbEntity
  8
1
100
AcDbVertex
100
AcDb3dPolylineVertex
 10
36.044389659375
 20
-4.157558174999998
 30
0.0
 70
    32
  0
VERTEX
  5
1667
330
1664
100
AcDbEntity
  8
1
100
AcDbVertex
100
AcDb3dPolylineVertex
 10
35.80369648125
 20
-4.257287306249998
 30
0.0
 70
    32
  0
VERTEX
  5
1668
330
1664
100
AcDbEntity
  8
1
100
AcDbVertex
100
AcDb3dPolylineVertex
 10
35.56604654062501
 20
-4.348872562499998
 30
0.0
 70
    32
  0
VERTEX
  5
1669
330
1664
100
AcDbEntity
  8
1
100
AcDbVertex
100
AcDb3dPolylineVertex
 10
35.33143864687501
 20
-4.432313943749996
 30
0.0
 70
    32
  0
VERTEX
  5
166A
330
1664
100
AcDbEntity
  8
1
100
AcDbVertex
100
AcDb3dPolylineVertex
 10
35.099873990625
 20
-4.50761144999999
 30
0.0
 70
    32
  0
SEQEND
  5
166B
330
1664
100
AcDbEntity
  8
1
  0
POLYLINE
  5
166C
330
18
100
AcDbEntity
  8
1
100
AcDb3dPolyline
 66
     1
 10
0.0
 20
0.0
 30
0.0
 70
     8
  0
VERTEX
  5
166D
330
166C
100
AcDbEntity
  8
1
100
AcDbVertex
100
AcDb3dPolylineVertex
 10
12.77637795000001
 20
4.743543609375
 30
0.0
 70
    32
  0
VERTEX
  5
166E
330
166C
100
AcDbEntity
  8
1
100
AcDbVertex
100
AcDb3dPolylineVertex
 10
12.66237917812501
 20
4.750037278125001
 30
0.0
 70
    32
  0
VERTEX
  5
166F
330
166C
100
AcDbEntity
  8
1
100
AcDbVertex
100
AcDb3dPolylineVertex
 10
12.54838040625
 20
4.756529756250006
 30
0.0
 70
    32
  0
VERTEX
  5
1670
330
166C
100
AcDbEntity
  8
1
100
AcDbVertex
100
AcDb3dPolylineVertex
 10
12.434381634375
 20
4.763022234375004
 30
0.0
 70
    32
  0
SEQEND
  5
1671
330
166C
100
AcDbEntity
  8
1
  0
POLYLINE
  5
1672
330
18
100
AcDbEntity
  8
1
100
AcDb3dPolyline
 66
     1
 10
0.0
 20
0.0
 30
0.0
 70
     8
  0
VERTEX
  5
1673
330
1672
100
AcDbEntity
  8
1
100
AcDbVertex
100
AcDb3dPolylineVertex
 10
12.23509313293176
 20
-0.0116536906373375
 30
0.0
 70
    32
  0
VERTEX
  5
1674
330
1672
100
AcDbEntity
  8
1
100
AcDbVertex
100
AcDb3dPolylineVertex
 10
12.04718393293175
 20
0.2121814281126548
 30
0.0
 70
    32
  0
VERTEX
  5
1675
330
1672
100
AcDbEntity
  8
1
100
AcDbVertex
100
AcDb3dPolylineVertex
 10
11.87026182043175
 20
0.4436020187376686
 30
0.0
 70
    32
  0
VERTEX
  5
1676
330
1672
100
AcDbEntity
  8
1
100
AcDbVertex
100
AcDb3dPolylineVertex
 10
11.70332905168175
 20
0.682668803112656
 30
0.0
 70
    32
  0
VERTEX
  5
1677
330
1672
100
AcDbEntity
  8
1
100
AcDbVertex
100
AcDb3dPolylineVertex
 10
11.54811917668175
 20
0.9292746249876532
 30
0.0
 70
    32
  0
VERTEX
  5
1678
330
1672
100
AcDbEntity
  8
1
100
AcDbVertex
100
AcDb3dPolylineVertex
 10
11.40827550793175
 20
1.183205171862661
 30
0.0
 70
    32
  0
VERTEX
  5
1679
330
1672
100
AcDbEntity
  8
1
100
AcDbVertex
100
AcDb3dPolylineVertex
 10
11.29007025793176
 20
1.44510695311266
 30
0.0
 70
    32
  0
VERTEX
  5
167A
330
1672
100
AcDbEntity
  8
1
100
AcDbVertex
100
AcDb3dPolylineVertex
 10
11.20560017668176
 20
1.715894368737648
 30
0.0
 70
    32
  0
VERTEX
  5
167B
330
1672
100
AcDbEntity
  8
1
100
AcDbVertex
100
AcDb3dPolylineVertex
 10
11.17468917043175
 20
1.992207474987663
 30
0.0
 70
    32
  0
VERTEX
  5
167C
330
1672
100
AcDbEntity
  8
1
100
AcDbVertex
100
AcDb3dPolylineVertex
 10
11.23523126105675
 20
2.258013315612654
 30
0.0
 70
    32
  0
VERTEX
  5
167D
330
1672
100
AcDbEntity
  8
1
100
AcDbVertex
100
AcDb3dPolylineVertex
 10
11.41663250480675
 20
2.464202181237655
 30
0.0
 70
    32
  0
VERTEX
  5
167E
330
1672
100
AcDbEntity
  8
1
100
AcDbVertex
100
AcDb3dPolylineVertex
 10
11.68041309230675
 20
2.574523112487661
 30
0.0
 70
    32
  0
VERTEX
  5
167F
330
1672
100
AcDbEntity
  8
1
100
AcDbVertex
100
AcDb3dPolylineVertex
 10
11.97018859543176
 20
2.606669987487665
 30
0.0
 70
    32
  0
VERTEX
  5
1680
330
1672
100
AcDbEntity
  8
1
100
AcDbVertex
100
AcDb3dPolylineVertex
 10
12.26180718605675
 20
2.586098368737654
 30
0.0
 70
    32
  0
VERTEX
  5
1681
330
1672
100
AcDbEntity
  8
1
100
AcDbVertex
100
AcDb3dPolylineVertex
 10
12.54651896105675
 20
2.529419856237661
 30
0.0
 70
    32
  0
VERTEX
  5
1682
330
1672
100
AcDbEntity
  8
1
100
AcDbVertex
100
AcDb3dPolylineVertex
 10
12.82271181418175
 20
2.444809281237656
 30
0.0
 70
    32
  0
VERTEX
  5
1683
330
1672
100
AcDbEntity
  8
1
100
AcDbVertex
100
AcDb3dPolylineVertex
 10
13.09011309230675
 20
2.338316209362654
 30
0.0
 70
    32
  0
VERTEX
  5
1684
330
1672
100
AcDbEntity
  8
1
100
AcDbVertex
100
AcDb3dPolylineVertex
 10
13.34866564543176
 20
2.213363687487654
 30
0.0
 70
    32
  0
VERTEX
  5
1685
330
1672
100
AcDbEntity
  8
1
100
AcDbVertex
100
AcDb3dPolylineVertex
 10
13.59833375480676
 20
2.07214484686266
 30
0.0
 70
    32
  0
VERTEX
  5
1686
330
1672
100
AcDbEntity
  8
1
100
AcDbVertex
100
AcDb3dPolylineVertex
 10
13.83926624855676
 20
1.916693274987655
 30
0.0
 70
    32
  0
VERTEX
  5
1687
330
1672
100
AcDbEntity
  8
1
100
AcDbVertex
100
AcDb3dPolylineVertex
 10
14.07202272043176
 20
1.748728234362654
 30
0.0
 70
    32
  0
VERTEX
  5
1688
330
1672
100
AcDbEntity
  8
1
100
AcDbVertex
100
AcDb3dPolylineVertex
 10
14.29714133293175
 20
1.569717765612659
 30
0.0
 70
    32
  0
SEQEND
  5
1689
330
1672
100
AcDbEntity
  8
1
  0
POLYLINE
  5
168A
330
18
100
AcDbEntity
  8
1
100
AcDb3dPolyline
 66
     1
 10
0.0
 20
0.0
 30
0.0
 70
     8
  0
VERTEX
  5
168B
330
168A
100
AcDbEntity
  8
1
100
AcDbVertex
100
AcDb3dPolylineVertex
 10
36.288124884375
 20
4.098357018750006
 30
0.0
 70
    32
  0
VERTEX
  5
168C
330
168A
100
AcDbEntity
  8
1
100
AcDbVertex
100
AcDb3dPolylineVertex
 10
36.044389659375
 20
4.206230024999999
 30
0.0
 70
    32
  0
VERTEX
  5
168D
330
168A
100
AcDbEntity
  8
1
100
AcDbVertex
100
AcDb3dPolylineVertex
 10
35.80369648125
 20
4.305959156249995
 30
0.0
 70
    32
  0
VERTEX
  5
168E
330
168A
100
AcDbEntity
  8
1
100
AcDbVertex
100
AcDb3dPolylineVertex
 10
35.56604654062501
 20
4.3975444125
 30
0.0
 70
    32
  0
VERTEX
  5
168F
330
168A
100
AcDbEntity
  8
1
100
AcDbVertex
100
AcDb3dPolylineVertex
 10
35.33143864687501
 20
4.480985793749995
 30
0.0
 70
    32
  0
VERTEX
  5
1690
330
168A
100
AcDbEntity
  8
1
100
AcDbVertex
100
AcDb3dPolylineVertex
 10
35.099873990625
 20
4.556283299999998
 30
0.0
 70
    32
  0
SEQEND
  5
1691
330
168A
100
AcDbEntity
  8
1
  0
POLYLINE
  5
1692
330
18
100
AcDbEntity
  8
1
100
AcDb3dPolyline
 66
     1
 10
0.0
 20
0.0
 30
0.0
 70
     8
  0
VERTEX
  5
1693
330
1692
100
AcDbEntity
  8
1
100
AcDbVertex
100
AcDb3dPolylineVertex
 10
36.468478378125
 20
-0.005477324999998
 30
0.0
 70
    32
  0
VERTEX
  5
1694
330
1692
100
AcDbEntity
  8
1
100
AcDbVertex
100
AcDb3dPolylineVertex
 10
36.46886056875001
 20
-0.2306495156250006
 30
0.0
 70
    32
  0
VERTEX
  5
1695
330
1692
100
AcDbEntity
  8
1
100
AcDbVertex
100
AcDb3dPolylineVertex
 10
36.46973448750003
 20
-0.4542036468749946
 30
0.0
 70
    32
  0
VERTEX
  5
1696
330
1692
100
AcDbEntity
  8
1
100
AcDbVertex
100
AcDb3dPolylineVertex
 10
36.47111085000001
 20
-0.6763385531249999
 30
0.0
 70
    32
  0
VERTEX
  5
1697
330
1692
100
AcDbEntity
  8
1
100
AcDbVertex
100
AcDb3dPolylineVertex
 10
36.47295155625001
 20
-0.8963065218749978
 30
0.0
 70
    32
  0
VERTEX
  5
1698
330
1692
100
AcDbEntity
  8
1
100
AcDbVertex
100
AcDb3dPolylineVertex
 10
36.475200646875
 20
-1.113038371875
 30
0.0
 70
    32
  0
VERTEX
  5
1699
330
1692
100
AcDbEntity
  8
1
100
AcDbVertex
100
AcDb3dPolylineVertex
 10
36.47781049687501
 20
-1.325480399999995
 30
0.0
 70
    32
  0
VERTEX
  5
169A
330
1692
100
AcDbEntity
  8
1
100
AcDbVertex
100
AcDb3dPolylineVertex
 10
36.48073586250001
 20
-1.532580093750003
 30
0.0
 70
    32
  0
VERTEX
  5
169B
330
1692
100
AcDbEntity
  8
1
100
AcDbVertex
100
AcDb3dPolylineVertex
 10
36.48393388125001
 20
-1.733023003124995
 30
0.0
 70
    32
  0
VERTEX
  5
169C
330
1692
100
AcDbEntity
  8
1
100
AcDbVertex
100
AcDb3dPolylineVertex
 10
36.48736288125001
 20
-1.925200593749995
 30
0.0
 70
    32
  0
VERTEX
  5
169D
330
1692
100
AcDbEntity
  8
1
100
AcDbVertex
100
AcDb3dPolylineVertex
 10
36.49097761875
 20
-2.106987599999992
 30
0.0
 70
    32
  0
VERTEX
  5
169E
330
1692
100
AcDbEntity
  8
1
100
AcDbVertex
100
AcDb3dPolylineVertex
 10
36.4947280875
 20
-2.275080037499999
 30
0.0
 70
    32
  0
VERTEX
  5
169F
330
1692
100
AcDbEntity
  8
1
100
AcDbVertex
100
AcDb3dPolylineVertex
 10
36.4986
 20
-2.428540884374993
 30
0.0
 70
    32
  0
SEQEND
  5
16A0
330
1692
100
AcDbEntity
  8
1
  0
POLYLINE
  5
16A1
330
18
100
AcDbEntity
  8
1
100
AcDb3dPolyline
 66
     1
 10
0.0
 20
0.0
 30
0.0
 70
     8
  0
VERTEX
  5
16A2
330
16A1
100
AcDbEntity
  8
1
100
AcDbVertex
100
AcDb3dPolylineVertex
 10
36.4986
 20
-2.428540884374993
 30
0.0
 70
    32
  0
VERTEX
  5
16A3
330
16A1
100
AcDbEntity
  8
1
100
AcDbVertex
100
AcDb3dPolylineVertex
 10
36.42844123125001
 20
-2.41765857187499
 30
0.0
 70
    32
  0
VERTEX
  5
16A4
330
16A1
100
AcDbEntity
  8
1
100
AcDbVertex
100
AcDb3dPolylineVertex
 10
36.358283653125
 20
-2.40677506874999
 30
0.0
 70
    32
  0
VERTEX
  5
16A5
330
16A1
100
AcDbEntity
  8
1
100
AcDbVertex
100
AcDb3dPolylineVertex
 10
36.288124884375
 20
-2.395892756249996
 30
0.0
 70
    32
  0
SEQEND
  5
16A6
330
16A1
100
AcDbEntity
  8
1
  0
POLYLINE
  5
16A7
330
18
100
AcDbEntity
  8
1
100
AcDb3dPolyline
 66
     1
 10
0.0
 20
0.0
 30
0.0
 70
     8
  0
VERTEX
  5
16A8
330
16A7
100
AcDbEntity
  8
1
100
AcDbVertex
100
AcDb3dPolylineVertex
 10
36.497303409375
 20
-3.725175562499995
 30
0.0
 70
    32
  0
VERTEX
  5
16A9
330
16A7
100
AcDbEntity
  8
1
100
AcDbVertex
100
AcDb3dPolylineVertex
 10
36.49773560625
 20
-3.744113643749991
 30
0.0
 70
    32
  0
VERTEX
  5
16AA
330
16A7
100
AcDbEntity
  8
1
100
AcDbVertex
100
AcDb3dPolylineVertex
 10
36.49816780312501
 20
-3.763050534375001
 30
0.0
 70
    32
  0
VERTEX
  5
16AB
330
16A7
100
AcDbEntity
  8
1
100
AcDbVertex
100
AcDb3dPolylineVertex
 10
36.4986
 20
-3.781988615624988
 30
0.0
 70
    32
  0
SEQEND
  5
16AC
330
16A7
100
AcDbEntity
  8
1
  0
POLYLINE
  5
16AD
330
18
100
AcDbEntity
  8
1
100
AcDb3dPolyline
 66
     1
 10
0.0
 20
0.0
 30
0.0
 70
     8
  0
VERTEX
  5
16AE
330
16AD
100
AcDbEntity
  8
1
100
AcDbVertex
100
AcDb3dPolylineVertex
 10
36.4986
 20
3.830660465624993
 30
0.0
 70
    32
  0
VERTEX
  5
16AF
330
16AD
100
AcDbEntity
  8
1
100
AcDbVertex
100
AcDb3dPolylineVertex
 10
36.42844123125001
 20
3.919893046875003
 30
0.0
 70
    32
  0
VERTEX
  5
16B0
330
16AD
100
AcDbEntity
  8
1
100
AcDbVertex
100
AcDb3dPolylineVertex
 10
36.358283653125
 20
4.009125628125008
 30
0.0
 70
    32
  0
VERTEX
  5
16B1
330
16AD
100
AcDbEntity
  8
1
100
AcDbVertex
100
AcDb3dPolylineVertex
 10
36.288124884375
 20
4.098357018750006
 30
0.0
 70
    32
  0
SEQEND
  5
16B2
330
16AD
100
AcDbEntity
  8
1
  0
POLYLINE
  5
16C2
330
18
100
AcDbEntity
  8
1
100
AcDb3dPolyline
 66
     1
 10
0.0
 20
0.0
 30
0.0
 70
     8
  0
VERTEX
  5
16C3
330
16C2
100
AcDbEntity
  8
1
100
AcDbVertex
100
AcDb3dPolylineVertex
 10
13.951178353125
 20
4.423028550000005
 30
0.0
 70
    32
  0
VERTEX
  5
16C4
330
16C2
100
AcDbEntity
  8
1
100
AcDbVertex
100
AcDb3dPolylineVertex
 10
14.055655696875
 20
4.445671856250006
 30
0.0
 70
    32
  0
VERTEX
  5
16C5
330
16C2
100
AcDbEntity
  8
1
100
AcDbVertex
100
AcDb3dPolylineVertex
 10
14.15858760937501
 20
4.468443750000004
 30
0.0
 70
    32
  0
VERTEX
  5
16C6
330
16C2
100
AcDbEntity
  8
1
100
AcDbVertex
100
AcDb3dPolylineVertex
 10
14.259962184375
 20
4.491383521875008
 30
0.0
 70
    32
  0
VERTEX
  5
16C7
330
16C2
100
AcDbEntity
  8
1
100
AcDbVertex
100
AcDb3dPolylineVertex
 10
14.35983300000001
 20
4.514278050000001
 30
0.0
 70
    32
  0
VERTEX
  5
16C8
330
16C2
100
AcDbEntity
  8
1
100
AcDbVertex
100
AcDb3dPolylineVertex
 10
14.458253634375
 20
4.536909449999996
 30
0.0
 70
    32
  0
VERTEX
  5
16C9
330
16C2
100
AcDbEntity
  8
1
100
AcDbVertex
100
AcDb3dPolylineVertex
 10
14.55527885625001
 20
4.559062218750005
 30
0.0
 70
    32
  0
VERTEX
  5
16CA
330
16C2
100
AcDbEntity
  8
1
100
AcDbVertex
100
AcDb3dPolylineVertex
 10
14.65096224375001
 20
4.580516090625
 30
0.0
 70
    32
  0
VERTEX
  5
16CB
330
16C2
100
AcDbEntity
  8
1
100
AcDbVertex
100
AcDb3dPolylineVertex
 10
14.7453526125
 20
4.601072231249998
 30
0.0
 70
    32
  0
VERTEX
  5
16CC
330
16C2
100
AcDbEntity
  8
1
100
AcDbVertex
100
AcDb3dPolylineVertex
 10
14.83842615
 20
4.620825890624998
 30
0.0
 70
    32
  0
SEQEND
  5
16CD
330
16C2
100
AcDbEntity
  8
1
  0
POLYLINE
  5
16CE
330
18
100
AcDbEntity
  8
1
100
AcDb3dPolyline
 66
     1
 10
0.0
 20
0.0
 30
0.0
 70
     8
  0
VERTEX
  5
16CF
330
16CE
100
AcDbEntity
  8
1
100
AcDbVertex
100
AcDb3dPolylineVertex
 10
36.4986
 20
-3.781988615624988
 30
0.0
 70
    32
  0
VERTEX
  5
16D0
330
16CE
100
AcDbEntity
  8
1
100
AcDbVertex
100
AcDb3dPolylineVertex
 10
36.42844123125001
 20
-3.871221196874995
 30
0.0
 70
    32
  0
VERTEX
  5
16D1
330
16CE
100
AcDbEntity
  8
1
100
AcDbVertex
100
AcDb3dPolylineVertex
 10
36.358283653125
 20
-3.960453778125004
 30
0.0
 70
    32
  0
VERTEX
  5
16D2
330
16CE
100
AcDbEntity
  8
1
100
AcDbVertex
100
AcDb3dPolylineVertex
 10
36.288124884375
 20
-4.049685168749999
 30
0.0
 70
    32
  0
SEQEND
  5
16D3
330
16CE
100
AcDbEntity
  8
1
  0
POLYLINE
  5
16D4
330
18
100
AcDbEntity
  8
1
100
AcDb3dPolyline
 66
     1
 10
0.0
 20
0.0
 30
0.0
 70
     8
  0
VERTEX
  5
16D5
330
16D4
100
AcDbEntity
  8
1
100
AcDbVertex
100
AcDb3dPolylineVertex
 10
36.4986
 20
2.558857462500002
 30
0.0
 70
    32
  0
VERTEX
  5
16D6
330
16D4
100
AcDbEntity
  8
1
100
AcDbVertex
100
AcDb3dPolylineVertex
 10
36.4986
 20
2.542622099999996
 30
0.0
 70
    32
  0
VERTEX
  5
16D7
330
16D4
100
AcDbEntity
  8
1
100
AcDbVertex
100
AcDb3dPolylineVertex
 10
36.4986
 20
2.526339112500001
 30
0.0
 70
    32
  0
VERTEX
  5
16D8
330
16D4
100
AcDbEntity
  8
1
100
AcDbVertex
100
AcDb3dPolylineVertex
 10
36.4986
 20
2.510009690624993
 30
0.0
 70
    32
  0
VERTEX
  5
16D9
330
16D4
100
AcDbEntity
  8
1
100
AcDbVertex
100
AcDb3dPolylineVertex
 10
36.4986
 20
2.493633834374999
 30
0.0
 70
    32
  0
VERTEX
  5
16DA
330
16D4
100
AcDbEntity
  8
1
100
AcDbVertex
100
AcDb3dPolylineVertex
 10
36.4986
 20
2.477212734375002
 30
0.0
 70
    32
  0
SEQEND
  5
16DB
330
16D4
100
AcDbEntity
  8
1
  0
POLYLINE
  5
16DC
330
18
100
AcDbEntity
  8
1
100
AcDb3dPolyline
 66
     1
 10
0.0
 20
0.0
 30
0.0
 70
     8
  0
VERTEX
  5
16DD
330
16DC
100
AcDbEntity
  8
1
100
AcDbVertex
100
AcDb3dPolylineVertex
 10
36.4986
 20
-3.728117596874997
 30
0.0
 70
    32
  0
VERTEX
  5
16DE
330
16DC
100
AcDbEntity
  8
1
100
AcDbVertex
100
AcDb3dPolylineVertex
 10
36.4986
 20
-3.739033246874991
 30
0.0
 70
    32
  0
VERTEX
  5
16DF
330
16DC
100
AcDbEntity
  8
1
100
AcDbVertex
100
AcDb3dPolylineVertex
 10
36.4986
 20
-3.749877459374987
 30
0.0
 70
    32
  0
VERTEX
  5
16E0
330
16DC
100
AcDbEntity
  8
1
100
AcDbVertex
100
AcDb3dPolylineVertex
 10
36.4986
 20
-3.760652615624995
 30
0.0
 70
    32
  0
VERTEX
  5
16E1
330
16DC
100
AcDbEntity
  8
1
100
AcDbVertex
100
AcDb3dPolylineVertex
 10
36.4986
 20
-3.771356334374995
 30
0.0
 70
    32
  0
VERTEX
  5
16E2
330
16DC
100
AcDbEntity
  8
1
100
AcDbVertex
100
AcDb3dPolylineVertex
 10
36.4986
 20
-3.781988615624988
 30
0.0
 70
    32
  0
SEQEND
  5
16E3
330
16DC
100
AcDbEntity
  8
1
  0
POLYLINE
  5
16E4
330
18
100
AcDbEntity
  8
1
100
AcDb3dPolyline
 66
     1
 10
0.0
 20
0.0
 30
0.0
 70
     8
  0
VERTEX
  5
16E5
330
16E4
100
AcDbEntity
  8
1
100
AcDbVertex
100
AcDb3dPolylineVertex
 10
14.29714133293175
 20
1.569717765612659
 30
0.0
 70
    32
  0
VERTEX
  5
16E6
330
16E4
100
AcDbEntity
  8
1
100
AcDbVertex
100
AcDb3dPolylineVertex
 10
14.20060069543175
 20
1.497392059362657
 30
0.0
 70
    32
  0
VERTEX
  5
16E7
330
16E4
100
AcDbEntity
  8
1
100
AcDbVertex
100
AcDb3dPolylineVertex
 10
14.09916301730676
 20
1.421145624987655
 30
0.0
 70
    32
  0
VERTEX
  5
16E8
330
16E4
100
AcDbEntity
  8
1
100
AcDbVertex
100
AcDb3dPolylineVertex
 10
13.99340337043176
 20
1.341411849987646
 30
0.0
 70
    32
  0
VERTEX
  5
16E9
330
16E4
100
AcDbEntity
  8
1
100
AcDbVertex
100
AcDb3dPolylineVertex
 10
13.88391944855675
 20
1.258640790612663
 30
0.0
 70
    32
  0
VERTEX
  5
16EA
330
16E4
100
AcDbEntity
  8
1
100
AcDbVertex
100
AcDb3dPolylineVertex
 10
13.77133275793175
 20
1.173301553112659
 30
0.0
 70
    32
  0
VERTEX
  5
16EB
330
16E4
100
AcDbEntity
  8
1
100
AcDbVertex
100
AcDb3dPolylineVertex
 10
13.65627790168176
 20
1.085876340612661
 30
0.0
 70
    32
  0
VERTEX
  5
16EC
330
16E4
100
AcDbEntity
  8
1
100
AcDbVertex
100
AcDb3dPolylineVertex
 10
13.53940853293176
 20
0.996861643737664
 30
0.0
 70
    32
  0
VERTEX
  5
16ED
330
16E4
100
AcDbEntity
  8
1
100
AcDbVertex
100
AcDb3dPolylineVertex
 10
13.42138425793176
 20
0.9067587156126647
 30
0.0
 70
    32
  0
VERTEX
  5
16EE
330
16E4
100
AcDbEntity
  8
1
100
AcDbVertex
100
AcDb3dPolylineVertex
 10
13.30287301730675
 20
0.8160783343626619
 30
0.0
 70
    32
  0
VERTEX
  5
16EF
330
16E4
100
AcDbEntity
  8
1
100
AcDbVertex
100
AcDb3dPolylineVertex
 10
13.18454751418176
 20
0.7253348499876653
 30
0.0
 70
    32
  0
VERTEX
  5
16F0
330
16E4
100
AcDbEntity
  8
1
100
AcDbVertex
100
AcDb3dPolylineVertex
 10
13.06707449855675
 20
0.6350402312376576
 30
0.0
 70
    32
  0
VERTEX
  5
16F1
330
16E4
100
AcDbEntity
  8
1
100
AcDbVertex
100
AcDb3dPolylineVertex
 10
12.95112072043175
 20
0.5457076374876602
 30
0.0
 70
    32
  0
VERTEX
  5
16F2
330
16E4
100
AcDbEntity
  8
1
100
AcDbVertex
100
AcDb3dPolylineVertex
 10
12.83734221418175
 20
0.4578407031126562
 30
0.0
 70
    32
  0
VERTEX
  5
16F3
330
16E4
100
AcDbEntity
  8
1
100
AcDbVertex
100
AcDb3dPolylineVertex
 10
12.72638310793176
 20
0.3719371093626558
 30
0.0
 70
    32
  0
VERTEX
  5
16F4
330
16E4
100
AcDbEntity
  8
1
100
AcDbVertex
100
AcDb3dPolylineVertex
 10
12.61886967043176
 20
0.2884826312376534
 30
0.0
 70
    32
  0
VERTEX
  5
16F5
330
16E4
100
AcDbEntity
  8
1
100
AcDbVertex
100
AcDb3dPolylineVertex
 10
12.51541269230675
 20
0.2079511374876519
 30
0.0
 70
    32
  0
VERTEX
  5
16F6
330
16E4
100
AcDbEntity
  8
1
100
AcDbVertex
100
AcDb3dPolylineVertex
 10
12.41659557980675
 20
0.1307962562376668
 30
0.0
 70
    32
  0
VERTEX
  5
16F7
330
16E4
100
AcDbEntity
  8
1
100
AcDbVertex
100
AcDb3dPolylineVertex
 10
12.32297911730676
 20
0.0574561374876561
 30
0.0
 70
    32
  0
VERTEX
  5
16F8
330
16E4
100
AcDbEntity
  8
1
100
AcDbVertex
100
AcDb3dPolylineVertex
 10
12.23509313293176
 20
-0.0116536906373375
 30
0.0
 70
    32
  0
SEQEND
  5
16F9
330
16E4
100
AcDbEntity
  8
1
  0
POLYLINE
  5
1726
330
18
100
AcDbEntity
  8
1
100
AcDb3dPolyline
 66
     1
 10
0.0
 20
0.0
 30
0.0
 70
     8
  0
VERTEX
  5
1727
330
1726
100
AcDbEntity
  8
1
100
AcDbVertex
100
AcDb3dPolylineVertex
 10
35.54641194375
 20
-3.298120996874995
 30
0.0
 70
    32
  0
VERTEX
  5
1728
330
1726
100
AcDbEntity
  8
1
100
AcDbVertex
100
AcDb3dPolylineVertex
 10
35.50867746562501
 20
-3.348542774999995
 30
0.0
 70
    32
  0
VERTEX
  5
1729
330
1726
100
AcDbEntity
  8
1
100
AcDbVertex
100
AcDb3dPolylineVertex
 10
35.472289584375
 20
-3.400888603124993
 30
0.0
 70
    32
  0
VERTEX
  5
172A
330
1726
100
AcDbEntity
  8
1
100
AcDbVertex
100
AcDb3dPolylineVertex
 10
35.43730068750001
 20
-3.455087043749993
 30
0.0
 70
    32
  0
VERTEX
  5
172B
330
1726
100
AcDbEntity
  8
1
100
AcDbVertex
100
AcDb3dPolylineVertex
 10
35.40375601875
 20
-3.511065468750001
 30
0.0
 70
    32
  0
VERTEX
  5
172C
330
1726
100
AcDbEntity
  8
1
100
AcDbVertex
100
AcDb3dPolylineVertex
 10
35.3717020125
 20
-3.568747678125001
 30
0.0
 70
    32
  0
VERTEX
  5
172D
330
1726
100
AcDbEntity
  8
1
100
AcDbVertex
100
AcDb3dPolylineVertex
 10
35.34118153125
 20
-3.628053900000001
 30
0.0
 70
    32
  0
VERTEX
  5
172E
330
1726
100
AcDbEntity
  8
1
100
AcDbVertex
100
AcDb3dPolylineVertex
 10
35.312238628125
 20
-3.688903171874993
 30
0.0
 70
    32
  0
VERTEX
  5
172F
330
1726
100
AcDbEntity
  8
1
100
AcDbVertex
100
AcDb3dPolylineVertex
 10
35.284909021875
 20
-3.751214531249988
 30
0.0
 70
    32
  0
VERTEX
  5
1730
330
1726
100
AcDbEntity
  8
1
100
AcDbVertex
100
AcDb3dPolylineVertex
 10
35.25923319375001
 20
-3.814901062500002
 30
0.0
 70
    32
  0
VERTEX
  5
1731
330
1726
100
AcDbEntity
  8
1
100
AcDbVertex
100
AcDb3dPolylineVertex
 10
35.23524448125001
 20
-3.879878231249997
 30
0.0
 70
    32
  0
VERTEX
  5
1732
330
1726
100
AcDbEntity
  8
1
100
AcDbVertex
100
AcDb3dPolylineVertex
 10
35.21297503125
 20
-3.94605554999999
 30
0.0
 70
    32
  0
VERTEX
  5
1733
330
1726
100
AcDbEntity
  8
1
100
AcDbVertex
100
AcDb3dPolylineVertex
 10
35.192456990625
 20
-4.013343721874997
 30
0.0
 70
    32
  0
VERTEX
  5
1734
330
1726
100
AcDbEntity
  8
1
100
AcDbVertex
100
AcDb3dPolylineVertex
 10
35.173716553125
 20
-4.081651068749998
 30
0.0
 70
    32
  0
VERTEX
  5
1735
330
1726
100
AcDbEntity
  8
1
100
AcDbVertex
100
AcDb3dPolylineVertex
 10
35.1567799125
 20
-4.150884721875009
 30
0.0
 70
    32
  0
VERTEX
  5
1736
330
1726
100
AcDbEntity
  8
1
100
AcDbVertex
100
AcDb3dPolylineVertex
 10
35.14167088125
 20
-4.220950621874997
 30
0.0
 70
    32
  0
VERTEX
  5
1737
330
1726
100
AcDbEntity
  8
1
100
AcDbVertex
100
AcDb3dPolylineVertex
 10
35.12840850937501
 20
-4.291753518750006
 30
0.0
 70
    32
  0
VERTEX
  5
1738
330
1726
100
AcDbEntity
  8
1
100
AcDbVertex
100
AcDb3dPolylineVertex
 10
35.117011846875
 20
-4.363195781249991
 30
0.0
 70
    32
  0
VERTEX
  5
1739
330
1726
100
AcDbEntity
  8
1
100
AcDbVertex
100
AcDb3dPolylineVertex
 10
35.107496371875
 20
-4.435180968749994
 30
0.0
 70
    32
  0
VERTEX
  5
173A
330
1726
100
AcDbEntity
  8
1
100
AcDbVertex
100
AcDb3dPolylineVertex
 10
35.099873990625
 20
-4.50761144999999
 30
0.0
 70
    32
  0
SEQEND
  5
173B
330
1726
100
AcDbEntity
  8
1
  0
LINE
  5
173C
330
18
100
AcDbEntity
  8
1
100
AcDbLine
 10
15.0951445453125
 20
3.474277614939563
 30
0.0
 11
15.0951445453125
 21
3.801712800000004
 31
0.0
  0
LINE
  5
173D
330
18
100
AcDbEntity
  8
1
100
AcDbLine
 10
15.09514454531249
 20
1.213581722704123
 30
0.0
 11
15.0951445453125
 21
3.801712800000004
 31
0.0
  0
LINE
  5
173E
330
18
100
AcDbEntity
  8
1
 62
     1
100
AcDbLine
 10
15.0951445453125
 20
0.9582239822207482
 30
0.0
 11
15.0951445453125
 21
3.474277614939563
 31
0.0
  0
LINE
  5
173F
330
18
100
AcDbEntity
  8
1
 62
     1
100
AcDbLine
 10
15.0951445453125
 20
3.474277614939563
 30
0.0
 11
15.0951445453125
 21
3.801712800000004
 31
0.0
  0
LINE
  5
1746
330
18
100
AcDbEntity
  8
1
100
AcDbLine
 10
17.24589134332425
 20
-4.754634336189377
 30
0.0
 11
19.22144778082425
 21
-4.754634336189377
 31
0.0
  0
POLYLINE
  5
1772
330
18
100
AcDbEntity
  8
1
100
AcDb3dPolyline
 66
     1
 10
0.0
 20
0.0
 30
0.0
 70
     8
  0
VERTEX
  5
1774
330
1772
100
AcDbEntity
  8
1
100
AcDbVertex
100
AcDb3dPolylineVertex
 10
13.52774032301175
 20
-3.478424424164481
 30
0.0
 70
    32
  0
VERTEX
  5
1775
330
1772
100
AcDbEntity
  8
1
100
AcDbVertex
100
AcDb3dPolylineVertex
 10
13.72509653707425
 20
-3.600118205414486
 30
0.0
 70
    32
  0
VERTEX
  5
1776
330
1772
100
AcDbEntity
  8
1
100
AcDbVertex
100
AcDb3dPolylineVertex
 10
14.11894457144925
 20
-3.822360267914475
 30
0.0
 70
    32
  0
VERTEX
  5
1777
330
1772
100
AcDbEntity
  8
1
100
AcDbVertex
100
AcDb3dPolylineVertex
 10
14.51225206207425
 20
-4.022444799164475
 30
0.0
 70
    32
  0
VERTEX
  5
1778
330
1772
100
AcDbEntity
  8
1
100
AcDbVertex
100
AcDb3dPolylineVertex
 10
14.90497257457425
 20
-4.199277614789474
 30
0.0
 70
    32
  0
VERTEX
  5
1779
330
1772
100
AcDbEntity
  8
1
100
AcDbVertex
100
AcDb3dPolylineVertex
 10
15.29695728082425
 20
-4.351699046039481
 30
0.0
 70
    32
  0
VERTEX
  5
177A
330
1772
100
AcDbEntity
  8
1
100
AcDbVertex
100
AcDb3dPolylineVertex
 10
15.68816212769925
 20
-4.478166042914476
 30
0.0
 70
    32
  0
VERTEX
  5
177B
330
1772
100
AcDbEntity
  8
1
100
AcDbVertex
100
AcDb3dPolylineVertex
 10
16.07860259332425
 20
-4.57697243978948
 30
0.0
 70
    32
  0
VERTEX
  5
177C
330
1772
100
AcDbEntity
  8
1
100
AcDbVertex
100
AcDb3dPolylineVertex
 10
16.46839059644925
 20
-4.647556261664471
 30
0.0
 70
    32
  0
VERTEX
  5
177D
330
1772
100
AcDbEntity
  8
1
100
AcDbVertex
100
AcDb3dPolylineVertex
 10
16.85773568707425
 20
-4.709271034826167
 30
0.0
 70
    32
  0
VERTEX
  5
177E
330
1772
100
AcDbEntity
  8
1
100
AcDbVertex
100
AcDb3dPolylineVertex
 10
17.24589134332425
 20
-4.754634336189377
 30
0.0
 70
    32
  0
SEQEND
  5
1773
330
1772
100
AcDbEntity
  8
1
  0
POLYLINE
  5
179B
330
18
100
AcDbEntity
  8
1
100
AcDb3dPolyline
 66
     1
 10
0.0
 20
0.0
 30
0.0
 70
     8
  0
VERTEX
  5
179D
330
179B
100
AcDbEntity
  8
1
100
AcDbVertex
100
AcDb3dPolylineVertex
 10
12.94796631303904
 20
-3.756906801064701
 30
0.0
 70
    32
  0
VERTEX
  5
179E
330
179B
100
AcDbEntity
  8
1
100
AcDbVertex
100
AcDb3dPolylineVertex
 10
13.02187405729469
 20
-3.798791889412735
 30
0.0
 70
    32
  0
VERTEX
  5
179F
330
179B
100
AcDbEntity
  8
1
100
AcDbVertex
100
AcDb3dPolylineVertex
 10
13.41572209166969
 20
-4.021033951912723
 30
0.0
 70
    32
  0
VERTEX
  5
17A0
330
179B
100
AcDbEntity
  8
1
100
AcDbVertex
100
AcDb3dPolylineVertex
 10
13.80902958229469
 20
-4.221118483162722
 30
0.0
 70
    32
  0
VERTEX
  5
17A1
330
179B
100
AcDbEntity
  8
1
100
AcDbVertex
100
AcDb3dPolylineVertex
 10
14.20175009479469
 20
-4.397951298787726
 30
0.0
 70
    32
  0
VERTEX
  5
17A2
330
179B
100
AcDbEntity
  8
1
100
AcDbVertex
100
AcDb3dPolylineVertex
 10
14.47429540529765
 20
-4.484425043672471
 30
0.0
 70
    32
  0
VERTEX
  5
17A3
330
179B
100
AcDbEntity
  8
1
100
AcDbVertex
100
AcDb3dPolylineVertex
 10
14.83842615000001
 20
-4.572154040625001
 30
0.0
 70
    32
  0
SEQEND
  5
179C
330
179B
100
AcDbEntity
  8
1
  0
POLYLINE
  5
17BD
330
18
100
AcDbEntity
  8
1
100
AcDb3dPolyline
 66
     1
 10
0.0
 20
0.0
 30
0.0
 70
     8
  0
VERTEX
  5
17BE
330
17BD
100
AcDbEntity
  8
1
100
AcDbVertex
100
AcDb3dPolylineVertex
 10
12.94796631303904
 20
-3.756906801064701
 30
0.0
 70
    32
  0
VERTEX
  5
17BF
330
17BD
100
AcDbEntity
  8
1
100
AcDbVertex
100
AcDb3dPolylineVertex
 10
12.92527813536446
 20
-3.744698202971674
 30
0.0
 70
    32
  0
VERTEX
  5
17C0
330
17BD
100
AcDbEntity
  8
1
100
AcDbVertex
100
AcDb3dPolylineVertex
 10
12.90086125083286
 20
-3.73164801426338
 30
0.0
 70
    32
  0
VERTEX
  5
17C1
330
17BD
100
AcDbEntity
  8
1
100
AcDbVertex
100
AcDb3dPolylineVertex
 10
12.84448734551881
 20
-3.700427861872725
 30
0.0
 70
    32
  0
VERTEX
  5
17C2
330
17BD
100
AcDbEntity
  8
1
100
AcDbVertex
100
AcDb3dPolylineVertex
 10
12.76148661450645
 20
-3.658298157812168
 30
0.0
 70
    32
  0
VERTEX
  5
17C3
330
17BD
100
AcDbEntity
  8
1
100
AcDbVertex
100
AcDb3dPolylineVertex
 10
12.65345409885651
 20
-3.610901967529343
 30
0.0
 70
    32
  0
VERTEX
  5
17C4
330
17BD
100
AcDbEntity
  8
1
100
AcDbVertex
100
AcDb3dPolylineVertex
 10
12.52302428776511
 20
-3.541571440262433
 30
0.0
 70
    32
  0
VERTEX
  5
17C5
330
17BD
100
AcDbEntity
  8
1
100
AcDbVertex
100
AcDb3dPolylineVertex
 10
12.12965985212816
 20
-3.297275008340077
 30
0.0
 70
    32
  0
VERTEX
  5
17C6
330
17BD
100
AcDbEntity
  8
1
100
AcDbVertex
100
AcDb3dPolylineVertex
 10
12.07485305659315
 20
-3.187738050997296
 30
0.0
 70
    32
  0
VERTEX
  5
17C7
330
17BD
100
AcDbEntity
  8
1
100
AcDbVertex
100
AcDb3dPolylineVertex
 10
12.07341837704541
 20
-3.095317088034241
 30
0.0
 70
    32
  0
VERTEX
  5
17C8
330
17BD
100
AcDbEntity
  8
1
100
AcDbVertex
100
AcDb3dPolylineVertex
 10
12.11764495954519
 20
-3.012597978451152
 30
0.0
 70
    32
  0
VERTEX
  5
17C9
330
17BD
100
AcDbEntity
  8
1
100
AcDbVertex
100
AcDb3dPolylineVertex
 10
12.20170306332603
 20
-2.969235388787443
 30
0.0
 70
    32
  0
VERTEX
  5
17CA
330
17BD
100
AcDbEntity
  8
1
100
AcDbVertex
100
AcDb3dPolylineVertex
 10
12.34854793170875
 20
-2.952944834280994
 30
0.0
 70
    32
  0
VERTEX
  5
17CB
330
17BD
100
AcDbEntity
  8
1
100
AcDbVertex
100
AcDb3dPolylineVertex
 10
12.49632679188317
 20
-2.963369582457386
 30
0.0
 70
    32
  0
VERTEX
  5
17CC
330
17BD
100
AcDbEntity
  8
1
100
AcDbVertex
100
AcDb3dPolylineVertex
 10
12.64060559625419
 20
-2.992091640113859
 30
0.0
 70
    32
  0
VERTEX
  5
17CD
330
17BD
100
AcDbEntity
  8
1
100
AcDbVertex
100
AcDb3dPolylineVertex
 10
12.780567403681
 20
-3.034968379574828
 30
0.0
 70
    32
  0
VERTEX
  5
17CE
330
17BD
100
AcDbEntity
  8
1
100
AcDbVertex
100
AcDb3dPolylineVertex
 10
12.90520598827606
 20
-3.100492952824423
 30
0.0
 70
    32
  0
VERTEX
  5
17CF
330
17BD
100
AcDbEntity
  8
1
100
AcDbVertex
100
AcDb3dPolylineVertex
 10
13.03287782843574
 20
-3.171939685189242
 30
0.0
 70
    32
  0
VERTEX
  5
17D0
330
17BD
100
AcDbEntity
  8
1
100
AcDbVertex
100
AcDb3dPolylineVertex
 10
13.159874029569
 20
-3.24811418684147
 30
0.0
 70
    32
  0
VERTEX
  5
17D1
330
17BD
100
AcDbEntity
  8
1
100
AcDbVertex
100
AcDb3dPolylineVertex
 10
13.28371951743236
 20
-3.328948513281971
 30
0.0
 70
    32
  0
VERTEX
  5
17D2
330
17BD
100
AcDbEntity
  8
1
100
AcDbVertex
100
AcDb3dPolylineVertex
 10
13.40346807820208
 20
-3.407553198980063
 30
0.0
 70
    32
  0
VERTEX
  5
17D3
330
17BD
100
AcDbEntity
  8
1
100
AcDbVertex
100
AcDb3dPolylineVertex
 10
13.52774032301175
 20
-3.478424424164481
 30
0.0
 70
    32
  0
SEQEND
  5
17D4
330
17BD
100
AcDbEntity
  8
1
  0
ENDSEC
  0
SECTION
  2
OBJECTS
  0
DICTIONARY
  5
C
330
0
100
AcDbDictionary
281
     1
  3
ACAD_CIP_PREVIOUS_PRODUCT_INFO
350
4DA
  3
ACAD_COLOR
350
387
  3
ACAD_DETAILVIEWSTYLE
350
4D4
  3
ACAD_GROUP
350
D
  3
ACAD_LAYOUT
350
301
  3
ACAD_MATERIAL
350
386
  3
ACAD_MLEADERSTYLE
350
498
  3
ACAD_MLINESTYLE
350
E
  3
ACAD_PLOTSETTINGS
350
302
  3
ACAD_PLOTSTYLENAME
350
2FF
  3
ACAD_SCALELIST
350
3A0
  3
ACAD_SECTIONVIEWSTYLE
350
4D2
  3
ACAD_TABLESTYLE
350
388
  3
ACAD_VISUALSTYLE
350
4B7
  3
ACDB_RECOMPOSE_DATA
350
1A32
  3
AcDbVariableDictionary
350
357
  3
AcDsDecomposeData
350
1A38
  0
DICTIONARY
  5
9B8
330
2
100
AcDbDictionary
280
     1
281
     1
  3
ACAD_LAYERSTATES
360
9B9
  0
DICTIONARY
  5
4DD
330
F
100
AcDbDictionary
280
     1
281
     1
  3
ADSK_XREC_LAYER_RECONCILED
360
4DE
  0
DICTIONARY
  5
4DF
330
23
100
AcDbDictionary
280
     1
281
     1
  3
ADSK_XREC_LAYER_RECONCILED
360
4E0
  0
DICTIONARY
  5
4E1
330
24
100
AcDbDictionary
280
     1
281
     1
  3
ADSK_XREC_LAYER_RECONCILED
360
4E2
  0
DICTIONARY
  5
4E3
330
25
100
AcDbDictionary
280
     1
281
     1
  3
ADSK_XREC_LAYER_RECONCILED
360
4E4
  0
DICTIONARY
  5
4E5
330
26
100
AcDbDictionary
280
     1
281
     1
  3
ADSK_XREC_LAYER_RECONCILED
360
4E6
  0
DICTIONARY
  5
4E7
330
27
100
AcDbDictionary
280
     1
281
     1
  3
ADSK_XREC_LAYER_RECONCILED
360
4E8
  0
DICTIONARY
  5
4E9
330
28
100
AcDbDictionary
280
     1
281
     1
  3
ADSK_XREC_LAYER_RECONCILED
360
4EA
  0
DICTIONARY
  5
4EB
330
29
100
AcDbDictionary
280
     1
281
     1
  3
ADSK_XREC_LAYER_RECONCILED
360
4EC
  0
DICTIONARY
  5
4ED
330
2A
100
AcDbDictionary
280
     1
281
     1
  3
ADSK_XREC_LAYER_RECONCILED
360
4EE
  0
DICTIONARY
  5
4EF
330
2B
100
AcDbDictionary
280
     1
281
     1
  3
ADSK_XREC_LAYER_RECONCILED
360
4F0
  0
DICTIONARY
  5
4F1
330
2C
100
AcDbDictionary
280
     1
281
     1
  3
ADSK_XREC_LAYER_RECONCILED
360
4F2
  0
DICTIONARY
  5
4F3
330
2D
100
AcDbDictionary
280
     1
281
     1
  3
ADSK_XREC_LAYER_RECONCILED
360
4F4
  0
DICTIONARY
  5
4F5
330
2E
100
AcDbDictionary
280
     1
281
     1
  3
ADSK_XREC_LAYER_RECONCILED
360
4F6
  0
DICTIONARY
  5
4F7
330
375
100
AcDbDictionary
280
     1
281
     1
  3
ADSK_XREC_LAYER_RECONCILED
360
4F8
  0
DICTIONARY
  5
4F9
330
376
100
AcDbDictionary
280
     1
281
     1
  3
ADSK_XREC_LAYER_RECONCILED
360
4FA
  0
DICTIONARY
  5
56F
330
18
100
AcDbDictionary
280
     1
281
     1
  3
ACAD_SORTENTS
360
570
  0
DICTIONARY
  5
18F3
330
1864
100
AcDbDictionary
280
     1
281
     1
  3
ACAD_SORTENTS
360
18F4
  0
XRECORD
  5
4DA
102
{ACAD_REACTORS
330
C
102
}
330
C
100
AcDbXrecord
280
     1
300
AMECH_PP
300
2014
300
86132PDSS_2014_0F
  0
DICTIONARY
  5
387
102
{ACAD_REACTORS
330
C
102
}
330
C
100
AcDbDictionary
281
     1
  0
DICTIONARY
  5
4D4
102
{ACAD_REACTORS
330
C
102
}
330
C
100
AcDbDictionary
281
     1
  3
Imperial24
350
6D1
  3
Metric50
350
4D5
  0
DICTIONARY
  5
D
102
{ACAD_REACTORS
330
C
102
}
330
C
100
AcDbDictionary
281
     1
  0
DICTIONARY
  5
301
102
{ACAD_REACTORS
330
C
102
}
330
C
100
AcDbDictionary
281
     1
  3
Layout1
350
33B
  3
Model
350
303
  0
DICTIONARY
  5
386
102
{ACAD_REACTORS
330
C
102
}
330
C
100
AcDbDictionary
281
     1
  3
ByBlock
350
4A7
  3
ByLayer
350
49F
  3
Global
350
4AF
  0
DICTIONARY
  5
498
102
{ACAD_REACTORS
330
C
102
}
330
C
100
AcDbDictionary
281
     1
  3
Standard
350
4D1
  0
DICTIONARY
  5
E
102
{ACAD_REACTORS
330
C
102
}
330
C
100
AcDbDictionary
281
     1
  3
STANDARD
350
1B
  0
DICTIONARY
  5
302
102
{ACAD_REACTORS
330
C
102
}
330
C
100
AcDbDictionary
281
     1
  0
ACDBDICTIONARYWDFLT
  5
2FF
102
{ACAD_REACTORS
330
C
102
}
330
C
100
AcDbDictionary
281
     1
  3
Normal
350
300
100
AcDbDictionaryWithDefault
340
300
  0
DICTIONARY
  5
3A0
102
{ACAD_REACTORS
330
C
102
}
330
C
100
AcDbDictionary
281
     1
  3
A0
350
3A1
  3
A1
350
3A2
  3
A2
350
3A3
  3
A3
350
3A4
  3
A4
350
3A5
  3
A5
350
3A6
  3
A6
350
3A7
  3
A7
350
3A8
  3
A8
350
3A9
  3
A9
350
3AA
  3
B0
350
3AB
  3
B1
350
3AC
  3
B2
350
3AD
  3
B3
350
3AE
  3
B4
350
3AF
  3
B5
350
3B0
  3
B6
350
3B1
  3
B7
350
3B2
  3
B8
350
3B3
  3
B9
350
3B4
  3
C0
350
3B5
  3
C1
350
3B6
  3
C2
350
3B7
  3
C3
350
3B8
  3
C4
350
3B9
  3
C5
350
3BA
  3
C6
350
3BB
  3
C7
350
3BC
  3
C8
350
3BD
  3
C9
350
3BE
  3
D0
350
3BF
  3
D1
350
3C0
  3
D2
350
3C1
  0
DICTIONARY
  5
4D2
102
{ACAD_REACTORS
330
C
102
}
330
C
100
AcDbDictionary
281
     1
  3
Imperial24
350
6D0
  3
Metric50
350
4D3
  0
DICTIONARY
  5
388
102
{ACAD_REACTORS
330
C
102
}
330
C
100
AcDbDictionary
281
     1
  3
Standard
350
4D0
  0
DICTIONARY
  5
4B7
102
{ACAD_REACTORS
330
C
102
}
330
C
100
AcDbDictionary
281
     1
  3
2dWireframe
350
4BD
  3
Basic
350
4BC
  3
Brighten
350
4C3
  3
ColorChange
350
4C7
  3
Conceptual
350
4C0
  3
Dim
350
4C2
  3
EdgeColorOff
350
4CF
  3
Facepattern
350
4C6
  3
Flat
350
4B8
  3
FlatWithEdges
350
4B9
  3
Gouraud
350
4BA
  3
GouraudWithEdges
350
4BB
  3
Hidden
350
4BF
  3
JitterOff
350
4CD
  3
Linepattern
350
4C5
  3
OverhangOff
350
4CE
  3
Realistic
350
4C1
  3
Shaded
350
4CC
  3
Shaded with edges
350
4CB
  3
Shades of Gray
350
4C8
  3
Sketchy
350
4C9
  3
Thicken
350
4C4
  3
Wireframe
350
4BE
  3
X-Ray
350
4CA
  0
XRECORD
  5
1A32
102
{ACAD_REACTORS
330
C
102
}
330
C
100
AcDbXrecord
280
     1
 90
        1
330
4D0
  0
DICTIONARY
  5
357
102
{ACAD_REACTORS
330
C
102
}
330
C
100
AcDbDictionary
281
     1
  3
CANNOSCALE
350
499
  3
CMLEADERSTYLE
350
4FB
  3
CTABLESTYLE
350
38D
  3
CVIEWDETAILSTYLE
350
4FC
  3
CVIEWSECTIONSTYLE
350
4FD
  3
DIMASSOC
350
359
  3
HIDETEXT
350
358
  3
INDEXCTL
350
4FF
  3
LAYEREVAL
350
D16
  3
LAYERNOTIFY
350
D17
  3
LIGHTINGUNITS
350
D15
  3
MSLTSCALE
350
D14
  3
PROJECTNAME
350
38E
  3
SORTENTS
350
4FE
  3
XCLIPFRAME
350
1A30
  0
DICTIONARY
  5
1A38
102
{ACAD_REACTORS
330
C
102
}
330
C
100
AcDbDictionary
281
     1
  3
AcDsRecords
350
1A3A
  3
AcDsSchemas
350
1A39
1001
ACAD
1070
     2
  0
DICTIONARY
  5
9B9
102
{ACAD_REACTORS
330
9B8
102
}
330
9B8
100
AcDbDictionary
281
     1
  0
XRECORD
  5
4DE
102
{ACAD_REACTORS
330
4DD
102
}
330
4DD
100
AcDbXrecord
280
     1
290
     1
  0
XRECORD
  5
4E0
102
{ACAD_REACTORS
330
4DF
102
}
330
4DF
100
AcDbXrecord
280
     1
290
     1
  0
XRECORD
  5
4E2
102
{ACAD_REACTORS
330
4E1
102
}
330
4E1
100
AcDbXrecord
280
     1
290
     1
  0
XRECORD
  5
4E4
102
{ACAD_REACTORS
330
4E3
102
}
330
4E3
100
AcDbXrecord
280
     1
290
     1
  0
XRECORD
  5
4E6
102
{ACAD_REACTORS
330
4E5
102
}
330
4E5
100
AcDbXrecord
280
     1
290
     1
  0
XRECORD
  5
4E8
102
{ACAD_REACTORS
330
4E7
102
}
330
4E7
100
AcDbXrecord
280
     1
290
     1
  0
XRECORD
  5
4EA
102
{ACAD_REACTORS
330
4E9
102
}
330
4E9
100
AcDbXrecord
280
     1
290
     1
  0
XRECORD
  5
4EC
102
{ACAD_REACTORS
330
4EB
102
}
330
4EB
100
AcDbXrecord
280
     1
290
     1
  0
XRECORD
  5
4EE
102
{ACAD_REACTORS
330
4ED
102
}
330
4ED
100
AcDbXrecord
280
     1
290
     1
  0
XRECORD
  5
4F0
102
{ACAD_REACTORS
330
4EF
102
}
330
4EF
100
AcDbXrecord
280
     1
290
     1
  0
XRECORD
  5
4F2
102
{ACAD_REACTORS
330
4F1
102
}
330
4F1
100
AcDbXrecord
280
     1
290
     1
  0
XRECORD
  5
4F4
102
{ACAD_REACTORS
330
4F3
102
}
330
4F3
100
AcDbXrecord
280
     1
290
     1
  0
XRECORD
  5
4F6
102
{ACAD_REACTORS
330
4F5
102
}
330
4F5
100
AcDbXrecord
280
     1
290
     1
  0
XRECORD
  5
4F8
102
{ACAD_REACTORS
330
4F7
102
}
330
4F7
100
AcDbXrecord
280
     1
290
     1
  0
XRECORD
  5
4FA
102
{ACAD_REACTORS
330
4F9
102
}
330
4F9
100
AcDbXrecord
280
     1
290
     1
  0
SORTENTSTABLE
  5
570
102
{ACAD_REACTORS
330
56F
102
}
330
56F
100
AcDbSortentsTable
330
18
331
14C9
  5
14C9
331
15A4
  5
15A4
331
1726
  5
1726
331
165C
  5
165C
331
439
  5
48A
331
447
  5
5D0
331
435
  5
447
331
1692
  5
1692
331
431
  5
436
331
173F
  5
173F
331
14FB
  5
14FB
331
14D6
  5
14D6
331
14D2
  5
14D2
331
1518
  5
1518
331
14F3
  5
14F3
331
168A
  5
168A
331
16A7
  5
16A7
331
14CE
  5
14CE
331
1580
  5
1580
331
14CA
  5
14CA
331
15F1
  5
15F1
331
14E3
  5
14E3
331
162B
  5
162B
331
1525
  5
1525
331
15B4
  5
15B4
331
1672
  5
1672
331
470
  5
671
331
436
  5
454
331
16AD
  5
16AD
331
432
  5
437
331
173C
  5
173C
331
15C9
  5
15C9
331
3C2
  5
3C2
331
14D3
  5
14D3
331
454
  5
F05
331
16CE
  5
16CE
331
14CF
  5
14CF
331
15C1
  5
15C1
331
16C2
  5
16C2
331
1617
  5
1617
331
14C7
  5
14C7
331
1509
  5
1509
331
1772
  5
1772
331
155C
  5
155C
331
437
  5
462
331
433
  5
438
331
173D
  5
173D
331
14D4
  5
14D4
331
14D0
  5
14D0
331
179B
  5
179B
331
1548
  5
1548
331
1538
  5
1538
331
48A
  5
672
331
14CC
  5
14CC
331
16A1
  5
16A1
331
16E4
  5
16E4
331
14C8
  5
14C8
331
1746
  5
1746
331
438
  5
470
331
157A
  5
157A
331
16DC
  5
16DC
331
434
  5
439
331
1572
  5
1572
331
16D4
  5
16D4
331
1604
  5
1604
331
173E
  5
173E
331
15CF
  5
15CF
331
3C4
  5
3C4
331
14D5
  5
14D5
331
14D1
  5
14D1
331
166C
  5
166C
331
1643
  5
1643
331
1664
  5
1664
331
158F
  5
158F
331
156A
  5
156A
331
462
  5
670
331
14CD
  5
14CD
  0
SORTENTSTABLE
  5
18F4
102
{ACAD_REACTORS
330
18F3
102
}
330
18F3
100
AcDbSortentsTable
330
1864
  0
ACDBDETAILVIEWSTYLE
  5
6D1
102
{ACAD_XDICTIONARY
360
1A72
102
}
102
{ACAD_REACTORS
330
4D4
102
}
330
4D4
100
AcDbModelDocViewStyle
 70
     0
  3
Imperial24
290
     0
100
AcDbDetailViewStyle
 70
     0
 71
     0
 90
        3
 71
     1
340
10
 62
   256
 40
0.24
340
0
 62
   256
 40
0.24
300

 40
0.36
280
     3
 71
     2
340
14
 90
       25
 62
   256
 71
     3
340
10
 62
   256
 40
0.24
 90
        1
 40
0.75
 90
        1
300
%<\AcVar ViewType \f "%tc1">% %<\AcVar ViewDetailId>%\PSCALE %<\AcVar ViewScale \f "%sn">%
 71
     4
340
14
 90
       25
 62
   256
340
14
 90
       25
 62
   256
280
     0
  0
ACDBDETAILVIEWSTYLE
  5
4D5
102
{ACAD_XDICTIONARY
360
1A6E
102
}
102
{ACAD_REACTORS
330
4D4
102
}
330
4D4
100
AcDbModelDocViewStyle
 70
     0
  3
Metric50
290
     0
100
AcDbDetailViewStyle
 70
     0
 71
     0
 90
        3
 71
     1
340
10
 62
   256
 40
5.0
340
0
 62
   256
 40
5.0
300

 40
0.0
280
     1
 71
     2
340
14
 90
       25
 62
   256
 71
     3
340
10
 62
   256
 40
5.0
 90
        0
 40
15.0
 90
        1
300
%<\AcVar ViewDetailId>% (%<\AcVar ViewScale \f "%sn">%)
 71
     4
340
14
 90
       25
 62
   256
340
14
 90
       25
 62
   256
280
     0
  0
LAYOUT
  5
33B
102
{ACAD_REACTORS
330
301
102
}
330
301
100
AcDbPlotSettings
  1

  2
Lexmark Optra PS2
  4

  6

 40
0.0
 41
0.0
 42
0.0
 43
0.0
 44
0.0
 45
0.0
 46
0.0
 47
0.0
 48
0.0
 49
0.0
140
0.0
141
0.0
142
1.0
143
1.0
 70
   688
 72
     0
 73
     0
 74
     5
  7
monochrome.ctb
 75
    16
147
1.0
 76
     0
 77
     2
 78
   300
148
0.0
149
0.0
100
AcDbLayout
  1
Layout1
 70
     1
 71
     1
 10
0.0
 20
0.0
 11
12.0
 21
9.0
 12
0.0
 22
0.0
 32
0.0
 14
0.0
 24
0.0
 34
0.0
 15
0.0
 25
0.0
 35
0.0
146
0.0
 13
0.0
 23
0.0
 33
0.0
 16
1.0
 26
0.0
 36
0.0
 17
0.0
 27
1.0
 37
0.0
 76
     0
330
338
  0
LAYOUT
  5
303
102
{ACAD_REACTORS
330
301
102
}
330
301
100
AcDbPlotSettings
  1

  2
Lexmark Optra Rx
  4
A4
  6

 40
6.805083274841307
 41
5.535083293914794
 42
6.974411010742187
 43
7.14373779296875
 44
209.9733276367186
 45
296.9259948730469
 46
0.0
 47
0.0
 48
0.0
 49
0.0
140
0.0
141
0.0
142
1.0
143
2.976565420630883
 70
 11952
 72
     1
 73
     1
 74
     0
  7
monochrome.ctb
 75
     0
147
0.335957675604539
 76
     0
 77
     2
 78
   300
148
204.1199660668592
149
172.3933209647495
100
AcDbLayout
  1
Model
 70
     1
 71
     0
 10
0.0
 20
0.0
 11
12.0
 21
9.0
 12
0.0
 22
0.0
 32
0.0
 14
0.0
 24
0.0
 34
0.0
 15
0.0
 25
0.0
 35
0.0
146
0.0
 13
0.0
 23
0.0
 33
0.0
 16
1.0
 26
0.0
 36
0.0
 17
0.0
 27
1.0
 37
0.0
 76
     0
330
18
331
39A
  0
MATERIAL
  5
4A7
102
{ACAD_XDICTIONARY
360
4A8
102
}
102
{ACAD_REACTORS
330
386
102
}
330
386
100
AcDbMaterial
  1
ByBlock
 72
     0
 43
0.0008202099737533
 43
0.0
 43
0.0
 43
0.0
 43
0.0
 43
0.0008202099737533
 43
0.0
 43
0.0
 43
0.0
 43
0.0
 43
1.0
 43
0.0
 43
0.0
 43
0.0
 43
0.0
 43
1.0
 77
     0
 47
0.0008202099737533
 47
0.0
 47
0.0
 47
0.0
 47
0.0
 47
0.0008202099737533
 47
0.0
 47
0.0
 47
0.0
 47
0.0
 47
1.0
 47
0.0
 47
0.0
 47
0.0
 47
0.0
 47
1.0
171
     0
 49
0.0008202099737533
 49
0.0
 49
0.0
 49
0.0
 49
0.0
 49
0.0008202099737533
 49
0.0
 49
0.0
 49
0.0
 49
0.0
 49
1.0
 49
0.0
 49
0.0
 49
0.0
 49
0.0
 49
1.0
175
     0
142
0.0008202099737533
142
0.0
142
0.0
142
0.0
142
0.0
142
0.0008202099737533
142
0.0
142
0.0
142
0.0
142
0.0
142
1.0
142
0.0
142
0.0
142
0.0
142
0.0
142
1.0
179
     0
144
0.0008202099737533
144
0.0
144
0.0
144
0.0
144
0.0
144
0.0008202099737533
144
0.0
144
0.0
144
0.0
144
0.0
144
1.0
144
0.0
144
0.0
144
0.0
144
0.0
144
1.0
147
0.0008202099737533
147
0.0
147
0.0
147
0.0
147
0.0
147
0.0008202099737533
147
0.0
147
0.0
147
0.0
147
0.0
147
1.0
147
0.0
147
0.0
147
0.0
147
0.0
147
1.0
  0
MATERIAL
  5
49F
102
{ACAD_XDICTIONARY
360
4A0
102
}
102
{ACAD_REACTORS
330
386
102
}
330
386
100
AcDbMaterial
  1
ByLayer
 72
     0
 43
0.0008202099737533
 43
0.0
 43
0.0
 43
0.0
 43
0.0
 43
0.0008202099737533
 43
0.0
 43
0.0
 43
0.0
 43
0.0
 43
1.0
 43
0.0
 43
0.0
 43
0.0
 43
0.0
 43
1.0
 77
     0
 47
0.0008202099737533
 47
0.0
 47
0.0
 47
0.0
 47
0.0
 47
0.0008202099737533
 47
0.0
 47
0.0
 47
0.0
 47
0.0
 47
1.0
 47
0.0
 47
0.0
 47
0.0
 47
0.0
 47
1.0
171
     0
 49
0.0008202099737533
 49
0.0
 49
0.0
 49
0.0
 49
0.0
 49
0.0008202099737533
 49
0.0
 49
0.0
 49
0.0
 49
0.0
 49
1.0
 49
0.0
 49
0.0
 49
0.0
 49
0.0
 49
1.0
175
     0
142
0.0008202099737533
142
0.0
142
0.0
142
0.0
142
0.0
142
0.0008202099737533
142
0.0
142
0.0
142
0.0
142
0.0
142
1.0
142
0.0
142
0.0
142
0.0
142
0.0
142
1.0
179
     0
144
0.0008202099737533
144
0.0
144
0.0
144
0.0
144
0.0
144
0.0008202099737533
144
0.0
144
0.0
144
0.0
144
0.0
144
1.0
144
0.0
144
0.0
144
0.0
144
0.0
144
1.0
147
0.0008202099737533
147
0.0
147
0.0
147
0.0
147
0.0
147
0.0008202099737533
147
0.0
147
0.0
147
0.0
147
0.0
147
1.0
147
0.0
147
0.0
147
0.0
147
0.0
147
1.0
  0
MATERIAL
  5
4AF
102
{ACAD_XDICTIONARY
360
4B0
102
}
102
{ACAD_REACTORS
330
386
102
}
330
386
100
AcDbMaterial
  1
Global
 72
     0
 43
0.0008202099737533
 43
0.0
 43
0.0
 43
0.0
 43
0.0
 43
0.0008202099737533
 43
0.0
 43
0.0
 43
0.0
 43
0.0
 43
1.0
 43
0.0
 43
0.0
 43
0.0
 43
0.0
 43
1.0
 77
     0
 47
0.0008202099737533
 47
0.0
 47
0.0
 47
0.0
 47
0.0
 47
0.0008202099737533
 47
0.0
 47
0.0
 47
0.0
 47
0.0
 47
1.0
 47
0.0
 47
0.0
 47
0.0
 47
0.0
 47
1.0
171
     0
 49
0.0008202099737533
 49
0.0
 49
0.0
 49
0.0
 49
0.0
 49
0.0008202099737533
 49
0.0
 49
0.0
 49
0.0
 49
0.0
 49
1.0
 49
0.0
 49
0.0
 49
0.0
 49
0.0
 49
1.0
175
     0
142
0.0008202099737533
142
0.0
142
0.0
142
0.0
142
0.0
142
0.0008202099737533
142
0.0
142
0.0
142
0.0
142
0.0
142
1.0
142
0.0
142
0.0
142
0.0
142
0.0
142
1.0
179
     0
144
0.0008202099737533
144
0.0
144
0.0
144
0.0
144
0.0
144
0.0008202099737533
144
0.0
144
0.0
144
0.0
144
0.0
144
1.0
144
0.0
144
0.0
144
0.0
144
0.0
144
1.0
147
0.0008202099737533
147
0.0
147
0.0
147
0.0
147
0.0
147
0.0008202099737533
147
0.0
147
0.0
147
0.0
147
0.0
147
1.0
147
0.0
147
0.0
147
0.0
147
0.0
147
1.0
  0
MLEADERSTYLE
  5
4D1
102
{ACAD_REACTORS
330
498
102
}
330
498
100
AcDbMLeaderStyle
170
     2
171
     1
172
     0
 90
        2
 40
0.0
 41
0.0
173
     1
 91
-1056964608
340
12
 92
       -2
290
     1
 42
2.0
291
     1
 43
0.36
  3
Standard
 44
4.0
300

342
10
174
     1
178
     6
175
     1
176
     0
 93
-1056964608
 45
4.0
292
     0
297
     0
 46
4.0
 94
-1056964608
 47
1.0
 49
1.0
140
1.0
293
     1
141
0.0
294
     1
177
     0
142
1.0
295
     0
296
     0
143
0.125
1001
ACAD_MLEADERVER
1070
     2
  0
MLINESTYLE
  5
1B
102
{ACAD_REACTORS
330
E
102
}
330
E
100
AcDbMlineStyle
  2
STANDARD
 70
     0
  3

 62
     0
 51
90.0
 52
90.0
 71
     2
 49
0.5
 62
   256
  6
BYLAYER
 49
-0.5
 62
   256
  6
BYLAYER
  0
ACDBPLACEHOLDER
  5
300
102
{ACAD_REACTORS
330
2FF
102
}
330
2FF
  0
SCALE
  5
3A1
102
{ACAD_REACTORS
330
3A0
102
}
330
3A0
100
AcDbScale
 70
     0
300
1:1
140
1.0
141
1.0
290
     1
  0
SCALE
  5
3A2
102
{ACAD_REACTORS
330
3A0
102
}
330
3A0
100
AcDbScale
 70
     0
300
1:2
140
1.0
141
2.0
290
     0
  0
SCALE
  5
3A3
102
{ACAD_REACTORS
330
3A0
102
}
330
3A0
100
AcDbScale
 70
     0
300
1:4
140
1.0
141
4.0
290
     0
  0
SCALE
  5
3A4
102
{ACAD_REACTORS
330
3A0
102
}
330
3A0
100
AcDbScale
 70
     0
300
1:5
140
1.0
141
5.0
290
     0
  0
SCALE
  5
3A5
102
{ACAD_REACTORS
330
3A0
102
}
330
3A0
100
AcDbScale
 70
     0
300
1:8
140
1.0
141
8.0
290
     0
  0
SCALE
  5
3A6
102
{ACAD_REACTORS
330
3A0
102
}
330
3A0
100
AcDbScale
 70
     0
300
1:10
140
1.0
141
10.0
290
     0
  0
SCALE
  5
3A7
102
{ACAD_REACTORS
330
3A0
102
}
330
3A0
100
AcDbScale
 70
     0
300
1:16
140
1.0
141
16.0
290
     0
  0
SCALE
  5
3A8
102
{ACAD_REACTORS
330
3A0
102
}
330
3A0
100
AcDbScale
 70
     0
300
1:20
140
1.0
141
20.0
290
     0
  0
SCALE
  5
3A9
102
{ACAD_REACTORS
330
3A0
102
}
330
3A0
100
AcDbScale
 70
     0
300
1:30
140
1.0
141
30.0
290
     0
  0
SCALE
  5
3AA
102
{ACAD_REACTORS
330
3A0
102
}
330
3A0
100
AcDbScale
 70
     0
300
1:40
140
1.0
141
40.0
290
     0
  0
SCALE
  5
3AB
102
{ACAD_REACTORS
330
3A0
102
}
330
3A0
100
AcDbScale
 70
     0
300
1:50
140
1.0
141
50.0
290
     0
  0
SCALE
  5
3AC
102
{ACAD_REACTORS
330
3A0
102
}
330
3A0
100
AcDbScale
 70
     0
300
1:100
140
1.0
141
100.0
290
     0
  0
SCALE
  5
3AD
102
{ACAD_REACTORS
330
3A0
102
}
330
3A0
100
AcDbScale
 70
     0
300
2:1
140
2.0
141
1.0
290
     0
  0
SCALE
  5
3AE
102
{ACAD_REACTORS
330
3A0
102
}
330
3A0
100
AcDbScale
 70
     0
300
4:1
140
4.0
141
1.0
290
     0
  0
SCALE
  5
3AF
102
{ACAD_REACTORS
330
3A0
102
}
330
3A0
100
AcDbScale
 70
     0
300
8:1
140
8.0
141
1.0
290
     0
  0
SCALE
  5
3B0
102
{ACAD_REACTORS
330
3A0
102
}
330
3A0
100
AcDbScale
 70
     0
300
10:1
140
10.0
141
1.0
290
     0
  0
SCALE
  5
3B1
102
{ACAD_REACTORS
330
3A0
102
}
330
3A0
100
AcDbScale
 70
     0
300
100:1
140
100.0
141
1.0
290
     0
  0
SCALE
  5
3B2
102
{ACAD_REACTORS
330
3A0
102
}
330
3A0
100
AcDbScale
 70
     0
300
1/128" = 1'-0"
140
0.0078125
141
12.0
290
     0
  0
SCALE
  5
3B3
102
{ACAD_REACTORS
330
3A0
102
}
330
3A0
100
AcDbScale
 70
     0
300
1/64" = 1'-0"
140
0.015625
141
12.0
290
     0
  0
SCALE
  5
3B4
102
{ACAD_REACTORS
330
3A0
102
}
330
3A0
100
AcDbScale
 70
     0
300
1/32" = 1'-0"
140
0.03125
141
12.0
290
     0
  0
SCALE
  5
3B5
102
{ACAD_REACTORS
330
3A0
102
}
330
3A0
100
AcDbScale
 70
     0
300
1/16" = 1'-0"
140
0.0625
141
12.0
290
     0
  0
SCALE
  5
3B6
102
{ACAD_REACTORS
330
3A0
102
}
330
3A0
100
AcDbScale
 70
     0
300
3/32" = 1'-0"
140
0.09375
141
12.0
290
     0
  0
SCALE
  5
3B7
102
{ACAD_REACTORS
330
3A0
102
}
330
3A0
100
AcDbScale
 70
     0
300
1/8" = 1'-0"
140
0.125
141
12.0
290
     0
  0
SCALE
  5
3B8
102
{ACAD_REACTORS
330
3A0
102
}
330
3A0
100
AcDbScale
 70
     0
300
3/16" = 1'-0"
140
0.1875
141
12.0
290
     0
  0
SCALE
  5
3B9
102
{ACAD_REACTORS
330
3A0
102
}
330
3A0
100
AcDbScale
 70
     0
300
1/4" = 1'-0"
140
0.25
141
12.0
290
     0
  0
SCALE
  5
3BA
102
{ACAD_REACTORS
330
3A0
102
}
330
3A0
100
AcDbScale
 70
     0
300
3/8" = 1'-0"
140
0.375
141
12.0
290
     0
  0
SCALE
  5
3BB
102
{ACAD_REACTORS
330
3A0
102
}
330
3A0
100
AcDbScale
 70
     0
300
1/2" = 1'-0"
140
0.5
141
12.0
290
     0
  0
SCALE
  5
3BC
102
{ACAD_REACTORS
330
3A0
102
}
330
3A0
100
AcDbScale
 70
     0
300
3/4" = 1'-0"
140
0.75
141
12.0
290
     0
  0
SCALE
  5
3BD
102
{ACAD_REACTORS
330
3A0
102
}
330
3A0
100
AcDbScale
 70
     0
300
1" = 1'-0"
140
1.0
141
12.0
290
     0
  0
SCALE
  5
3BE
102
{ACAD_REACTORS
330
3A0
102
}
330
3A0
100
AcDbScale
 70
     0
300
1-1/2" = 1'-0"
140
1.5
141
12.0
290
     0
  0
SCALE
  5
3BF
102
{ACAD_REACTORS
330
3A0
102
}
330
3A0
100
AcDbScale
 70
     0
300
3" = 1'-0"
140
3.0
141
12.0
290
     0
  0
SCALE
  5
3C0
102
{ACAD_REACTORS
330
3A0
102
}
330
3A0
100
AcDbScale
 70
     0
300
6" = 1'-0"
140
6.0
141
12.0
290
     0
  0
SCALE
  5
3C1
102
{ACAD_REACTORS
330
3A0
102
}
330
3A0
100
AcDbScale
 70
     0
300
1'-0" = 1'-0"
140
12.0
141
12.0
290
     0
  0
ACDBSECTIONVIEWSTYLE
  5
6D0
102
{ACAD_XDICTIONARY
360
1A70
102
}
102
{ACAD_REACTORS
330
4D2
102
}
330
4D2
100
AcDbModelDocViewStyle
 70
     0
  3
Imperial24
290
     0
100
AcDbSectionViewStyle
 70
     0
 71
     0
 90
       78
 71
     1
340
10
 62
   256
 40
0.24
340
0
340
0
 62
   256
 40
0.24
300
I, O, Q, S, X, Z
 40
0.48
 90
        3
 40
0.18
 90
        1
 71
     2
340
14
 90
       25
 62
   256
340
14
 90
       50
 62
   256
 40
0.24
 40
0.0
 40
0.24
 71
     3
340
10
 62
   256
 40
0.24
 90
        1
 40
0.75
 90
        1
300
%<\AcVar ViewType \f "%tc1">% %<\AcVar ViewSectionStartId>%-%<\AcVar ViewSectionEndId>%\PSCALE %<\AcVar ViewScale \f "%sn">%
 71
     4
 62
   256
 62
   257
300
ANSI31
 40
1.0
 90
        0
290
     0
290
     0
 90
        6
 40
0.0
 40
1.570796326794896
 40
0.2617993877991494
 40
1.308996938995747
 40
-0.2617993877991494
 40
1.832595714594044
  0
ACDBSECTIONVIEWSTYLE
  5
4D3
102
{ACAD_XDICTIONARY
360
1A6C
102
}
102
{ACAD_REACTORS
330
4D2
102
}
330
4D2
100
AcDbModelDocViewStyle
 70
     0
  3
Metric50
290
     0
100
AcDbSectionViewStyle
 70
     0
 71
     0
 90
      102
 71
     1
340
10
 62
   256
 40
5.0
340
0
340
0
 62
   256
 40
5.0
300
I, O, Q, S, X, Z
 40
10.0
 90
        0
 40
2.5
 90
        0
 71
     2
340
14
 90
       25
 62
   256
340
14
 90
       50
 62
   256
 40
5.0
 40
2.5
 40
5.0
 71
     3
340
10
 62
   256
 40
5.0
 90
        0
 40
15.0
 90
        1
300
%<\AcVar ViewSectionStartId>%-%<\AcVar ViewSectionEndId>% (%<\AcVar ViewScale \f "%sn">%)
 71
     4
 62
   256
 62
   257
300
ANSI31
 40
1.0
 90
        0
290
     0
290
     0
 90
        6
 40
0.0
 40
1.570796326794896
 40
0.2617993877991494
 40
1.308996938995747
 40
-0.2617993877991494
 40
1.832595714594044
  0
TABLESTYLE
  5
4D0
102
{ACAD_XDICTIONARY
360
502
102
}
102
{ACAD_REACTORS
330
388
102
}
330
388
100
AcDbTableStyle
  3
Standard
 70
     0
 71
     0
 40
1.5
 41
1.5
280
     0
281
     0
  7
STANDARD
140
4.5
170
     2
 62
     0
 63
     7
283
     0
274
    -2
284
     1
 64
     0
275
    -2
285
     1
 65
     0
276
    -2
286
     1
 66
     0
277
    -2
287
     1
 67
     0
278
    -2
288
     1
 68
     0
279
    -2
289
     1
 69
     0
  7
STANDARD
140
6.0
170
     5
 62
     0
 63
     7
283
     0
274
    -2
284
     1
 64
     0
275
    -2
285
     1
 65
     0
276
    -2
286
     1
 66
     0
277
    -2
287
     1
 67
     0
278
    -2
288
     1
 68
     0
279
    -2
289
     1
 69
     0
  7
STANDARD
140
4.5
170
     5
 62
     0
 63
     7
283
     0
274
    -2
284
     1
 64
     0
275
    -2
285
     1
 65
     0
276
    -2
286
     1
 66
     0
277
    -2
287
     1
 67
     0
278
    -2
288
     1
 68
     0
279
    -2
289
     1
 69
     0
  0
VISUALSTYLE
  5
4BD
102
{ACAD_XDICTIONARY
360
1A45
102
}
102
{ACAD_REACTORS
330
4B7
102
}
330
4B7
100
AcDbVisualStyle
  2

 70
     4
 71
     0
 72
     2
 73
     0
 90
        0
 40
-0.6
 41
-30.0
 62
     5
 63
     7
 74
     1
 91
        4
 64
     7
 65
   257
 75
     1
175
     1
 42
1.0
 92
        0
 66
   257
 43
1.0
 76
     1
 77
     6
 78
     2
 67
     7
 79
     5
170
     0
171
     0
290
     0
174
     0
 93
        1
 44
0.0
173
     0
291
     0
 45
0.0
1001
ACAD
1000
AcDbSavedByObjectVersion
1070
     0
  0
VISUALSTYLE
  5
4BC
102
{ACAD_XDICTIONARY
360
1A43
102
}
102
{ACAD_REACTORS
330
4B7
102
}
330
4B7
100
AcDbVisualStyle
  2

 70
     7
 71
     1
 72
     0
 73
     1
 90
        0
 40
-0.6
 41
-30.0
 62
     5
 63
     7
 74
     0
 91
        4
 64
     7
 65
   257
 75
     1
175
     1
 42
1.0
 92
        8
 66
     7
 43
1.0
 76
     1
 77
     6
 78
     2
 67
     7
 79
     5
170
     0
171
     0
290
     0
174
     0
 93
        1
 44
0.0
173
     0
291
     1
 45
0.0
1001
ACAD
1000
AcDbSavedByObjectVersion
1070
     0
  0
VISUALSTYLE
  5
4C3
102
{ACAD_XDICTIONARY
360
1A51
102
}
102
{ACAD_REACTORS
330
4B7
102
}
330
4B7
100
AcDbVisualStyle
  2

 70
    12
 71
     2
 72
     2
 73
     0
 90
        0
 40
-0.6
 41
-30.0
 62
     5
 63
     7
 74
     1
 91
        4
 64
     7
 65
   257
 75
     1
175
     1
 42
1.0
 92
        8
 66
     7
 43
1.0
 76
     1
 77
     6
 78
     2
 67
     7
 79
     5
170
     0
171
     0
290
     0
174
     0
 93
        1
 44
50.0
173
     0
291
     1
 45
0.0
1001
ACAD
1000
AcDbSavedByObjectVersion
1070
     0
  0
VISUALSTYLE
  5
4C7
102
{ACAD_XDICTIONARY
360
1A59
102
}
102
{ACAD_REACTORS
330
4B7
102
}
330
4B7
100
AcDbVisualStyle
  2

 70
    16
 71
     2
 72
     2
 73
     3
 90
        0
 40
-0.6
 41
-30.0
 62
     5
 63
     8
 74
     1
 91
        4
 64
     7
 65
   257
 75
     1
175
     1
 42
1.0
 92
        8
 66
     8
 43
1.0
 76
     1
 77
     6
 78
     2
 67
     7
 79
     5
170
     0
171
     0
290
     0
174
     0
 93
        1
 44
0.0
173
     0
291
     1
 45
0.0
1001
ACAD
1000
AcDbSavedByObjectVersion
1070
     0
  0
VISUALSTYLE
  5
4C0
102
{ACAD_XDICTIONARY
360
1A4B
102
}
102
{ACAD_REACTORS
330
4B7
102
}
330
4B7
100
AcDbVisualStyle
  2

 70
     9
 71
     3
 72
     2
 73
     0
 90
        0
 40
-0.6
 41
-30.0
 62
     5
 63
     7
 74
     2
 91
        2
 64
     7
 65
   257
 75
     1
175
     1
 42
179.0
 92
        8
 66
     7
 43
1.0
 76
     1
 77
     6
 78
     2
 67
     7
 79
     3
170
     0
171
     0
290
     0
174
     0
 93
        1
 44
0.0
173
     0
291
     0
 45
0.0
1001
ACAD
1000
AcDbSavedByObjectVersion
1070
     0
  0
VISUALSTYLE
  5
4C2
102
{ACAD_XDICTIONARY
360
1A4F
102
}
102
{ACAD_REACTORS
330
4B7
102
}
330
4B7
100
AcDbVisualStyle
  2

 70
    11
 71
     2
 72
     2
 73
     0
 90
        0
 40
-0.6
 41
-30.0
 62
     5
 63
     7
 74
     1
 91
        4
 64
     7
 65
   257
 75
     1
175
     1
 42
1.0
 92
        8
 66
     7
 43
1.0
 76
     1
 77
     6
 78
     2
 67
     7
 79
     5
170
     0
171
     0
290
     0
174
     0
 93
        1
 44
-50.0
173
     0
291
     1
 45
0.0
1001
ACAD
1000
AcDbSavedByObjectVersion
1070
     0
  0
VISUALSTYLE
  5
4CF
102
{ACAD_XDICTIONARY
360
1A69
102
}
102
{ACAD_REACTORS
330
4B7
102
}
330
4B7
100
AcDbVisualStyle
  2

 70
    22
 71
     2
 72
     2
 73
     0
 90
        0
 40
-0.6
 41
-30.0
 62
     5
 63
     7
 74
     1
 91
        4
 64
     7
 65
   257
 75
     1
175
     1
 42
1.0
 92
        8
 66
     7
 43
1.0
 76
     1
 77
     6
 78
     2
 67
     7
 79
     5
170
     0
171
     0
290
     0
174
     0
 93
        1
 44
0.0
173
     0
291
     1
 45
0.0
1001
ACAD
1000
AcDbSavedByObjectVersion
1070
     0
  0
VISUALSTYLE
  5
4C6
102
{ACAD_XDICTIONARY
360
1A57
102
}
102
{ACAD_REACTORS
330
4B7
102
}
330
4B7
100
AcDbVisualStyle
  2

 70
    15
 71
     2
 72
     2
 73
     0
 90
        0
 40
-0.6
 41
-30.0
 62
     5
 63
     7
 74
     1
 91
        4
 64
     7
 65
   257
 75
     1
175
     1
 42
1.0
 92
        8
 66
     7
 43
1.0
 76
     1
 77
     6
 78
     2
 67
     7
 79
     5
170
     0
171
     0
290
     0
174
     0
 93
        1
 44
0.0
173
     0
291
     1
 45
0.0
1001
ACAD
1000
AcDbSavedByObjectVersion
1070
     0
  0
VISUALSTYLE
  5
4B8
102
{ACAD_XDICTIONARY
360
1A3B
102
}
102
{ACAD_REACTORS
330
4B7
102
}
330
4B7
100
AcDbVisualStyle
  2

 70
     0
 71
     2
 72
     1
 73
     1
 90
        2
 40
-0.6
 41
30.0
 62
     5
 63
     7
 74
     0
 91
        0
 64
     7
 65
   257
 75
     1
175
     1
 42
1.0
 92
        8
 66
     7
 43
1.0
 76
     1
 77
     6
 78
     2
 67
     7
 79
     5
170
     0
171
     0
290
     0
174
     0
 93
       13
 44
0.0
173
     0
291
     1
 45
0.0
1001
ACAD
1000
AcDbSavedByObjectVersion
1070
     0
  0
VISUALSTYLE
  5
4B9
102
{ACAD_XDICTIONARY
360
1A3D
102
}
102
{ACAD_REACTORS
330
4B7
102
}
330
4B7
100
AcDbVisualStyle
  2

 70
     1
 71
     2
 72
     1
 73
     1
 90
        2
 40
-0.6
 41
30.0
 62
     5
 63
     7
 74
     1
 91
        0
 64
     7
 65
   257
 75
     1
175
     1
 42
1.0
 92
        0
 66
   257
 43
1.0
 76
     1
 77
     6
 78
     2
 67
     7
 79
     5
170
     0
171
     0
290
     0
174
     0
 93
       13
 44
0.0
173
     0
291
     1
 45
0.0
1001
ACAD
1000
AcDbSavedByObjectVersion
1070
     0
  0
VISUALSTYLE
  5
4BA
102
{ACAD_XDICTIONARY
360
1A3F
102
}
102
{ACAD_REACTORS
330
4B7
102
}
330
4B7
100
AcDbVisualStyle
  2

 70
     2
 71
     2
 72
     2
 73
     1
 90
        2
 40
-0.6
 41
30.0
 62
     5
 63
     7
 74
     0
 91
        0
 64
     7
 65
   257
 75
     1
175
     1
 42
1.0
 92
        0
 66
     7
 43
1.0
 76
     1
 77
     6
 78
     2
 67
     7
 79
     5
170
     0
171
     0
290
     0
174
     0
 93
       13
 44
0.0
173
     0
291
     1
 45
0.0
1001
ACAD
1000
AcDbSavedByObjectVersion
1070
     0
  0
VISUALSTYLE
  5
4BB
102
{ACAD_XDICTIONARY
360
1A41
102
}
102
{ACAD_REACTORS
330
4B7
102
}
330
4B7
100
AcDbVisualStyle
  2

 70
     3
 71
     2
 72
     2
 73
     1
 90
        2
 40
-0.6
 41
30.0
 62
     5
 63
     7
 74
     1
 91
        0
 64
     7
 65
   257
 75
     1
175
     1
 42
1.0
 92
        0
 66
   257
 43
1.0
 76
     1
 77
     6
 78
     2
 67
     7
 79
     5
170
     0
171
     0
290
     0
174
     0
 93
       13
 44
0.0
173
     0
291
     1
 45
0.0
1001
ACAD
1000
AcDbSavedByObjectVersion
1070
     0
  0
VISUALSTYLE
  5
4BF
102
{ACAD_XDICTIONARY
360
1A49
102
}
102
{ACAD_REACTORS
330
4B7
102
}
330
4B7
100
AcDbVisualStyle
  2

 70
     6
 71
     1
 72
     2
 73
     2
 90
        0
 40
-0.6
 41
-30.0
 62
     5
 63
     7
 74
     2
 91
        2
 64
     7
 65
   257
 75
     2
175
     1
 42
40.0
 92
        0
 66
   257
 43
1.0
 76
     1
 77
     6
 78
     2
 67
     7
 79
     3
170
     0
171
     0
290
     0
174
     0
 93
        1
 44
0.0
173
     0
291
     0
 45
0.0
1001
ACAD
1000
AcDbSavedByObjectVersion
1070
     0
  0
VISUALSTYLE
  5
4CD
102
{ACAD_XDICTIONARY
360
1A65
102
}
102
{ACAD_REACTORS
330
4B7
102
}
330
4B7
100
AcDbVisualStyle
  2

 70
    20
 71
     2
 72
     2
 73
     0
 90
        0
 40
-0.6
 41
-30.0
 62
     5
 63
     7
 74
     1
 91
        4
 64
     7
 65
   257
 75
     1
175
     1
 42
1.0
 92
       10
 66
     7
 43
1.0
 76
     1
 77
     6
 78
     2
 67
     7
 79
     5
170
     0
171
     0
290
     0
174
     0
 93
        1
 44
0.0
173
     0
291
     1
 45
0.0
1001
ACAD
1000
AcDbSavedByObjectVersion
1070
     0
  0
VISUALSTYLE
  5
4C5
102
{ACAD_XDICTIONARY
360
1A55
102
}
102
{ACAD_REACTORS
330
4B7
102
}
330
4B7
100
AcDbVisualStyle
  2

 70
    14
 71
     2
 72
     2
 73
     0
 90
        0
 40
-0.6
 41
-30.0
 62
     5
 63
     7
 74
     1
 91
        4
 64
     7
 65
   257
 75
     7
175
     7
 42
1.0
 92
        8
 66
     7
 43
1.0
 76
     1
 77
     6
 78
     2
 67
     7
 79
     5
170
     0
171
     0
290
     0
174
     0
 93
        1
 44
0.0
173
     0
291
     1
 45
0.0
1001
ACAD
1000
AcDbSavedByObjectVersion
1070
     0
  0
VISUALSTYLE
  5
4CE
102
{ACAD_XDICTIONARY
360
1A67
102
}
102
{ACAD_REACTORS
330
4B7
102
}
330
4B7
100
AcDbVisualStyle
  2

 70
    21
 71
     2
 72
     2
 73
     0
 90
        0
 40
-0.6
 41
-30.0
 62
     5
 63
     7
 74
     1
 91
        4
 64
     7
 65
   257
 75
     1
175
     1
 42
1.0
 92
        9
 66
     7
 43
1.0
 76
     1
 77
     6
 78
     2
 67
     7
 79
     5
170
     0
171
     0
290
     0
174
     0
 93
        1
 44
0.0
173
     0
291
     1
 45
0.0
1001
ACAD
1000
AcDbSavedByObjectVersion
1070
     0
  0
VISUALSTYLE
  5
4C1
102
{ACAD_XDICTIONARY
360
1A4D
102
}
102
{ACAD_REACTORS
330
4B7
102
}
330
4B7
100
AcDbVisualStyle
  2

 70
     8
 71
     2
 72
     3
 73
     0
 90
        2
 40
-0.6
 41
30.0
 62
     5
 63
     7
 74
     0
 91
        0
 64
     7
 65
   257
 75
     1
175
     1
 42
1.0
 92
        8
 66
   257
 43
1.0
 76
     1
 77
     6
 78
     2
 67
     7
 79
     3
170
     0
171
     0
290
     0
174
     0
 93
       13
 44
0.0
173
     0
291
     0
 45
0.0
1001
ACAD
1000
AcDbSavedByObjectVersion
1070
     0
  0
VISUALSTYLE
  5
4CC
102
{ACAD_XDICTIONARY
360
1A63
102
}
102
{ACAD_REACTORS
330
4B7
102
}
330
4B7
100
AcDbVisualStyle
  2

 70
    27
 71
     2
 72
     2
 73
     1
 90
        2
 40
-0.6
 41
30.0
 62
     5
 63
     7
 74
     0
 91
        4
 64
     7
 65
   257
 75
     1
175
     1
 42
1.0
 92
        8
 66
   257
 43
1.0
 76
     1
 77
     6
 78
     2
 67
     8
 79
     3
170
     0
171
     0
290
     0
174
     0
 93
        5
 44
0.0
173
     0
291
     0
 45
0.0
1001
ACAD
1000
AcDbSavedByObjectVersion
1070
     0
  0
VISUALSTYLE
  5
4CB
102
{ACAD_XDICTIONARY
360
1A61
102
}
102
{ACAD_REACTORS
330
4B7
102
}
330
4B7
100
AcDbVisualStyle
  2

 70
    26
 71
     2
 72
     2
 73
     1
 90
        2
 40
-0.6
 41
30.0
 62
     5
 63
     7
 74
     1
 91
       10
 64
     7
 65
   257
 75
     2
175
     1
 42
1.0
 92
        8
 66
   257
 43
1.0
 76
     1
 77
     6
 78
     2
 67
     7
 79
     3
170
     0
171
     0
290
     0
174
     0
 93
        5
 44
0.0
173
     0
291
     0
 45
0.0
1001
ACAD
1000
AcDbSavedByObjectVersion
1070
     0
  0
VISUALSTYLE
  5
4C8
102
{ACAD_XDICTIONARY
360
1A5B
102
}
102
{ACAD_REACTORS
330
4B7
102
}
330
4B7
100
AcDbVisualStyle
  2

 70
    23
 71
     2
 72
     2
 73
     3
 90
        0
 40
-0.6
 41
-30.0
 62
     5
 63
     7
 74
     2
 91
        2
 64
     7
 65
     7
 75
     1
175
     1
 42
40.0
 92
        8
 66
     7
 43
1.0
 76
     1
 77
     6
 78
     2
 67
     7
 79
     3
170
     0
171
     0
290
     0
174
     0
 93
        1
 44
0.0
173
     0
291
     0
 45
0.0
1001
ACAD
1000
AcDbSavedByObjectVersion
1070
     0
  0
VISUALSTYLE
  5
4C9
102
{ACAD_XDICTIONARY
360
1A5D
102
}
102
{ACAD_REACTORS
330
4B7
102
}
330
4B7
100
AcDbVisualStyle
  2

 70
    24
 71
     1
 72
     2
 73
     2
 90
        0
 40
-0.6
 41
-30.0
 62
     5
 63
     7
 74
     2
 91
        2
 64
     7
 65
     7
 75
     1
175
     1
 42
40.0
 92
       11
 66
     7
 43
1.0
 76
     1
 77
     6
 78
     2
 67
     7
 79
     6
170
     0
171
     0
290
     0
174
     0
 93
        1
 44
0.0
173
     0
291
     0
 45
0.0
1001
ACAD
1000
AcDbSavedByObjectVersion
1070
     0
  0
VISUALSTYLE
  5
4C4
102
{ACAD_XDICTIONARY
360
1A53
102
}
102
{ACAD_REACTORS
330
4B7
102
}
330
4B7
100
AcDbVisualStyle
  2

 70
    13
 71
     2
 72
     2
 73
     0
 90
        0
 40
-0.6
 41
-30.0
 62
     5
 63
     7
 74
     1
 91
        4
 64
     7
 65
   257
 75
     1
175
     1
 42
1.0
 92
       12
 66
     7
 43
1.0
 76
     1
 77
     6
 78
     2
 67
     7
 79
     5
170
     0
171
     0
290
     0
174
     0
 93
        1
 44
0.0
173
     0
291
     1
 45
0.0
1001
ACAD
1000
AcDbSavedByObjectVersion
1070
     0
  0
VISUALSTYLE
  5
4BE
102
{ACAD_XDICTIONARY
360
1A47
102
}
102
{ACAD_REACTORS
330
4B7
102
}
330
4B7
100
AcDbVisualStyle
  2

 70
     5
 71
     0
 72
     2
 73
     0
 90
        0
 40
-0.6
 41
-30.0
 62
     5
 63
     7
 74
     1
 91
        4
 64
     7
 65
   257
 75
     1
175
     1
 42
1.0
 92
        0
 66
   257
 43
1.0
 76
     1
 77
     6
 78
     2
 67
     7
 79
     3
170
     0
171
     0
290
     0
174
     0
 93
        1
 44
0.0
173
     0
291
     0
 45
0.0
1001
ACAD
1000
AcDbSavedByObjectVersion
1070
     0
  0
VISUALSTYLE
  5
4CA
102
{ACAD_XDICTIONARY
360
1A5F
102
}
102
{ACAD_REACTORS
330
4B7
102
}
330
4B7
100
AcDbVisualStyle
  2

 70
    25
 71
     2
 72
     2
 73
     1
 90
        1
 40
0.5
 41
-30.0
 62
     5
 63
     7
 74
     1
 91
        0
 64
     7
 65
   257
 75
     1
175
     1
 42
1.0
 92
        8
 66
     7
 43
1.0
 76
     1
 77
     6
 78
     2
 67
     7
 79
     3
170
     0
171
     0
290
     0
174
     0
 93
       13
 44
0.0
173
     0
291
     0
 45
0.0
1001
ACAD
1000
AcDbSavedByObjectVersion
1070
     0
  0
DICTIONARYVAR
  5
499
102
{ACAD_REACTORS
330
357
102
}
330
357
100
DictionaryVariables
280
     0
  1
1:1
  0
DICTIONARYVAR
  5
4FB
102
{ACAD_REACTORS
330
357
102
}
330
357
100
DictionaryVariables
280
     0
  1
STANDARD
  0
DICTIONARYVAR
  5
38D
102
{ACAD_REACTORS
330
357
102
}
330
357
100
DictionaryVariables
280
     0
  1
STANDARD
  0
DICTIONARYVAR
  5
4FC
102
{ACAD_REACTORS
330
357
102
}
330
357
100
DictionaryVariables
280
     0
  1
Metric50
  0
DICTIONARYVAR
  5
4FD
102
{ACAD_REACTORS
330
357
102
}
330
357
100
DictionaryVariables
280
     0
  1
Metric50
  0
DICTIONARYVAR
  5
359
102
{ACAD_REACTORS
330
357
102
}
330
357
100
DictionaryVariables
280
     0
  1
2
  0
DICTIONARYVAR
  5
358
102
{ACAD_REACTORS
330
357
102
}
330
357
100
DictionaryVariables
280
     0
  1
1
  0
DICTIONARYVAR
  5
4FF
102
{ACAD_REACTORS
330
357
102
}
330
357
100
DictionaryVariables
280
     0
  1
0
  0
DICTIONARYVAR
  5
D16
102
{ACAD_REACTORS
330
357
102
}
330
357
100
DictionaryVariables
280
     0
  1
1
  0
DICTIONARYVAR
  5
D17
102
{ACAD_REACTORS
330
357
102
}
330
357
100
DictionaryVariables
280
     0
  1
15
  0
DICTIONARYVAR
  5
D15
102
{ACAD_REACTORS
330
357
102
}
330
357
100
DictionaryVariables
280
     0
  1
0
  0
DICTIONARYVAR
  5
D14
102
{ACAD_REACTORS
330
357
102
}
330
357
100
DictionaryVariables
280
     0
  1
0
  0
DICTIONARYVAR
  5
38E
102
{ACAD_REACTORS
330
357
102
}
330
357
100
DictionaryVariables
280
     0
  1

  0
DICTIONARYVAR
  5
4FE
102
{ACAD_REACTORS
330
357
102
}
330
357
100
DictionaryVariables
280
     0
  1
127
  0
DICTIONARYVAR
  5
1A30
102
{ACAD_REACTORS
330
357
102
}
330
357
100
DictionaryVariables
280
     0
  1
2
  0
DICTIONARY
  5
1A3A
102
{ACAD_REACTORS
330
1A38
102
}
330
1A38
100
AcDbDictionary
281
     1
  0
DICTIONARY
  5
1A39
102
{ACAD_REACTORS
330
1A38
102
}
330
1A38
100
AcDbDictionary
281
     1
  3
8796086187312
350
1A33
  3
8796086187328
350
1A34
  3
8796086187344
350
1A35
  3
8796086187360
350
1A36
  3
8796086187376
350
1A37
  0
DICTIONARY
  5
1A72
330
6D1
100
AcDbDictionary
280
     1
281
     1
  3
ACAD_XREC_ROUNDTRIP
360
1A73
  0
DICTIONARY
  5
1A6E
330
4D5
100
AcDbDictionary
280
     1
281
     1
  3
ACAD_XREC_ROUNDTRIP
360
1A6F
  0
DICTIONARY
  5
4A8
330
4A7
100
AcDbDictionary
280
     1
281
     1
  3
ACAD_XREC_ROUNDTRIP
360
50C
  3
BUMPTILE
360
4AA
  3
DIFFUSETILE
360
4A9
  3
OPACITYTILE
360
4AD
  3
REFLECTIONTILE
360
4AC
  3
REFRACTIONTILE
360
4AE
  3
SPECULARTILE
360
4AB
  0
DICTIONARY
  5
4A0
330
49F
100
AcDbDictionary
280
     1
281
     1
  3
ACAD_XREC_ROUNDTRIP
360
50B
  3
BUMPTILE
360
4A2
  3
DIFFUSETILE
360
4A1
  3
OPACITYTILE
360
4A5
  3
REFLECTIONTILE
360
4A4
  3
REFRACTIONTILE
360
4A6
  3
SPECULARTILE
360
4A3
  0
DICTIONARY
  5
4B0
330
4AF
100
AcDbDictionary
280
     1
281
     1
  3
ACAD_XREC_ROUNDTRIP
360
50D
  3
BUMPTILE
360
4B2
  3
DIFFUSETILE
360
4B1
  3
OPACITYTILE
360
4B5
  3
REFLECTIONTILE
360
4B4
  3
REFRACTIONTILE
360
4B6
  3
SPECULARTILE
360
4B3
  0
DICTIONARY
  5
1A70
330
6D0
100
AcDbDictionary
280
     1
281
     1
  3
ACAD_XREC_ROUNDTRIP
360
1A71
  0
DICTIONARY
  5
1A6C
330
4D3
100
AcDbDictionary
280
     1
281
     1
  3
ACAD_XREC_ROUNDTRIP
360
1A6D
  0
DICTIONARY
  5
502
330
4D0
100
AcDbDictionary
280
     1
281
     1
  3
ACAD_ROUNDTRIP_2008_TABLESTYLE_CELLSTYLEMAP
360
1A31
  3
ACAD_XREC_ROUNDTRIP
360
1A6B
  0
DICTIONARY
  5
1A45
330
4BD
100
AcDbDictionary
280
     1
281
     1
  3
ACAD_XREC_ROUNDTRIP
360
1A46
  0
DICTIONARY
  5
1A43
330
4BC
100
AcDbDictionary
280
     1
281
     1
  3
ACAD_XREC_ROUNDTRIP
360
1A44
  0
DICTIONARY
  5
1A51
330
4C3
100
AcDbDictionary
280
     1
281
     1
  3
ACAD_XREC_ROUNDTRIP
360
1A52
  0
DICTIONARY
  5
1A59
330
4C7
100
AcDbDictionary
280
     1
281
     1
  3
ACAD_XREC_ROUNDTRIP
360
1A5A
  0
DICTIONARY
  5
1A4B
330
4C0
100
AcDbDictionary
280
     1
281
     1
  3
ACAD_XREC_ROUNDTRIP
360
1A4C
  0
DICTIONARY
  5
1A4F
330
4C2
100
AcDbDictionary
280
     1
281
     1
  3
ACAD_XREC_ROUNDTRIP
360
1A50
  0
DICTIONARY
  5
1A69
330
4CF
100
AcDbDictionary
280
     1
281
     1
  3
ACAD_XREC_ROUNDTRIP
360
1A6A
  0
DICTIONARY
  5
1A57
330
4C6
100
AcDbDictionary
280
     1
281
     1
  3
ACAD_XREC_ROUNDTRIP
360
1A58
  0
DICTIONARY
  5
1A3B
330
4B8
100
AcDbDictionary
280
     1
281
     1
  3
ACAD_XREC_ROUNDTRIP
360
1A3C
  0
DICTIONARY
  5
1A3D
330
4B9
100
AcDbDictionary
280
     1
281
     1
  3
ACAD_XREC_ROUNDTRIP
360
1A3E
  0
DICTIONARY
  5
1A3F
330
4BA
100
AcDbDictionary
280
     1
281
     1
  3
ACAD_XREC_ROUNDTRIP
360
1A40
  0
DICTIONARY
  5
1A41
330
4BB
100
AcDbDictionary
280
     1
281
     1
  3
ACAD_XREC_ROUNDTRIP
360
1A42
  0
DICTIONARY
  5
1A49
330
4BF
100
AcDbDictionary
280
     1
281
     1
  3
ACAD_XREC_ROUNDTRIP
360
1A4A
  0
DICTIONARY
  5
1A65
330
4CD
100
AcDbDictionary
280
     1
281
     1
  3
ACAD_XREC_ROUNDTRIP
360
1A66
  0
DICTIONARY
  5
1A55
330
4C5
100
AcDbDictionary
280
     1
281
     1
  3
ACAD_XREC_ROUNDTRIP
360
1A56
  0
DICTIONARY
  5
1A67
330
4CE
100
AcDbDictionary
280
     1
281
     1
  3
ACAD_XREC_ROUNDTRIP
360
1A68
  0
DICTIONARY
  5
1A4D
330
4C1
100
AcDbDictionary
280
     1
281
     1
  3
ACAD_XREC_ROUNDTRIP
360
1A4E
  0
DICTIONARY
  5
1A63
330
4CC
100
AcDbDictionary
280
     1
281
     1
  3
ACAD_XREC_ROUNDTRIP
360
1A64
  0
DICTIONARY
  5
1A61
330
4CB
100
AcDbDictionary
280
     1
281
     1
  3
ACAD_XREC_ROUNDTRIP
360
1A62
  0
DICTIONARY
  5
1A5B
330
4C8
100
AcDbDictionary
280
     1
281
     1
  3
ACAD_XREC_ROUNDTRIP
360
1A5C
  0
DICTIONARY
  5
1A5D
330
4C9
100
AcDbDictionary
280
     1
281
     1
  3
ACAD_XREC_ROUNDTRIP
360
1A5E
  0
DICTIONARY
  5
1A53
330
4C4
100
AcDbDictionary
280
     1
281
     1
  3
ACAD_XREC_ROUNDTRIP
360
1A54
  0
DICTIONARY
  5
1A47
330
4BE
100
AcDbDictionary
280
     1
281
     1
  3
ACAD_XREC_ROUNDTRIP
360
1A48
  0
DICTIONARY
  5
1A5F
330
4CA
100
AcDbDictionary
280
     1
281
     1
  3
ACAD_XREC_ROUNDTRIP
360
1A60
  0
XRECORD
  5
1A33
102
{ACAD_REACTORS
330
1A39
102
}
330
1A39
100
AcDbXrecord
280
     1
  1
AcDb_Thumbnail_Schema
102
{ATTRRECORD
341
1A34
  2
AcDbDs::TreatedAsObjectData
280
     1
291
     1
102
ATTRRECORD}
102
{ATTRRECORD
341
1A35
  2
AcDbDs::Legacy
280
     1
291
     1
102
ATTRRECORD}
  2
AcDbDs::ID
280
    10
 91
        8
102
{ATTRRECORD
341
1A36
  2
AcDs:Indexable
280
     1
291
     1
102
ATTRRECORD}
102
{ATTRRECORD
341
1A37
  2
AcDbDs::HandleAttribute
280
     7
282
     1
102
ATTRRECORD}
  2
Thumbnail_Data
280
    15
 91
        0
  0
XRECORD
  5
1A34
102
{ACAD_REACTORS
330
1A39
102
}
330
1A39
100
AcDbXrecord
280
     1
  1
AcDbDs::TreatedAsObjectDataSchema
  2
AcDbDs::TreatedAsObjectData
280
     1
 91
        0
  0
XRECORD
  5
1A35
102
{ACAD_REACTORS
330
1A39
102
}
330
1A39
100
AcDbXrecord
280
     1
  1
AcDbDs::LegacySchema
  2
AcDbDs::Legacy
280
     1
 91
        0
  0
XRECORD
  5
1A36
102
{ACAD_REACTORS
330
1A39
102
}
330
1A39
100
AcDbXrecord
280
     1
  1
AcDbDs::IndexedPropertySchema
  2
AcDs:Indexable
280
     1
 91
        0
  0
XRECORD
  5
1A37
102
{ACAD_REACTORS
330
1A39
102
}
330
1A39
100
AcDbXrecord
280
     1
  1
AcDbDs::HandleAttributeSchema
  2
AcDbDs::HandleAttribute
280
     7
 91
        1
284
     1
  0
XRECORD
  5
1A73
102
{ACAD_REACTORS
330
1A72
102
}
330
1A72
100
AcDbXrecord
280
     1
102
DISPLAYNAME
  1
Imperial24
102
FLAGS
 90
        0
  0
XRECORD
  5
1A6F
102
{ACAD_REACTORS
330
1A6E
102
}
330
1A6E
100
AcDbXrecord
280
     1
102
DISPLAYNAME
  1
Metric50
102
FLAGS
 90
        0
  0
XRECORD
  5
50C
102
{ACAD_REACTORS
330
4A8
102
}
330
4A8
100
AcDbXrecord
280
     1
102
MATERIAL
148
0.0
149
0.0
149
0.0
 93
        0
 94
      127
282
     0
 72
     0
 77
     0
171
     0
175
     0
179
     0
273
     0
  0
XRECORD
  5
4AA
102
{ACAD_REACTORS
330
4A8
102
}
330
4A8
100
AcDbXrecord
280
     1
270
     1
271
     1
  0
XRECORD
  5
4A9
102
{ACAD_REACTORS
330
4A8
102
}
330
4A8
100
AcDbXrecord
280
     1
270
     1
271
     1
  0
XRECORD
  5
4AD
102
{ACAD_REACTORS
330
4A8
102
}
330
4A8
100
AcDbXrecord
280
     1
270
     1
271
     1
  0
XRECORD
  5
4AC
102
{ACAD_REACTORS
330
4A8
102
}
330
4A8
100
AcDbXrecord
280
     1
270
     1
271
     1
  0
XRECORD
  5
4AE
102
{ACAD_REACTORS
330
4A8
102
}
330
4A8
100
AcDbXrecord
280
     1
270
     1
271
     1
  0
XRECORD
  5
4AB
102
{ACAD_REACTORS
330
4A8
102
}
330
4A8
100
AcDbXrecord
280
     1
270
     1
271
     1
  0
XRECORD
  5
50B
102
{ACAD_REACTORS
330
4A0
102
}
330
4A0
100
AcDbXrecord
280
     1
102
MATERIAL
148
0.0
149
0.0
149
0.0
 93
        0
 94
      127
282
     0
 72
     0
 77
     0
171
     0
175
     0
179
     0
273
     0
  0
XRECORD
  5
4A2
102
{ACAD_REACTORS
330
4A0
102
}
330
4A0
100
AcDbXrecord
280
     1
270
     1
271
     1
  0
XRECORD
  5
4A1
102
{ACAD_REACTORS
330
4A0
102
}
330
4A0
100
AcDbXrecord
280
     1
270
     1
271
     1
  0
XRECORD
  5
4A5
102
{ACAD_REACTORS
330
4A0
102
}
330
4A0
100
AcDbXrecord
280
     1
270
     1
271
     1
  0
XRECORD
  5
4A4
102
{ACAD_REACTORS
330
4A0
102
}
330
4A0
100
AcDbXrecord
280
     1
270
     1
271
     1
  0
XRECORD
  5
4A6
102
{ACAD_REACTORS
330
4A0
102
}
330
4A0
100
AcDbXrecord
280
     1
270
     1
271
     1
  0
XRECORD
  5
4A3
102
{ACAD_REACTORS
330
4A0
102
}
330
4A0
100
AcDbXrecord
280
     1
270
     1
271
     1
  0
XRECORD
  5
50D
102
{ACAD_REACTORS
330
4B0
102
}
330
4B0
100
AcDbXrecord
280
     1
102
MATERIAL
148
0.0
149
0.0
149
0.0
 93
        0
 94
      127
282
     0
 72
     0
 77
     0
171
     0
175
     0
179
     0
273
     0
  0
XRECORD
  5
4B2
102
{ACAD_REACTORS
330
4B0
102
}
330
4B0
100
AcDbXrecord
280
     1
270
     1
271
     1
  0
XRECORD
  5
4B1
102
{ACAD_REACTORS
330
4B0
102
}
330
4B0
100
AcDbXrecord
280
     1
270
     1
271
     1
  0
XRECORD
  5
4B5
102
{ACAD_REACTORS
330
4B0
102
}
330
4B0
100
AcDbXrecord
280
     1
270
     1
271
     1
  0
XRECORD
  5
4B4
102
{ACAD_REACTORS
330
4B0
102
}
330
4B0
100
AcDbXrecord
280
     1
270
     1
271
     1
  0
XRECORD
  5
4B6
102
{ACAD_REACTORS
330
4B0
102
}
330
4B0
100
AcDbXrecord
280
     1
270
     1
271
     1
  0
XRECORD
  5
4B3
102
{ACAD_REACTORS
330
4B0
102
}
330
4B0
100
AcDbXrecord
280
     1
270
     1
271
     1
  0
XRECORD
  5
1A71
102
{ACAD_REACTORS
330
1A70
102
}
330
1A70
100
AcDbXrecord
280
     1
102
DISPLAYNAME
  1
Imperial24
102
FLAGS
 90
        0
  0
XRECORD
  5
1A6D
102
{ACAD_REACTORS
330
1A6C
102
}
330
1A6C
100
AcDbXrecord
280
     1
102
DISPLAYNAME
  1
Metric50
102
FLAGS
 90
        0
  0
CELLSTYLEMAP
  5
1A31
102
{ACAD_REACTORS
330
502
102
}
330
502
100
AcDbCellStyleMap
 90
        3
300
CELLSTYLE
  1
TABLEFORMAT_BEGIN
 90
        5
170
     1
 91
        0
 92
    32768
 62
   257
 93
        1
300
CONTENTFORMAT
  1
CONTENTFORMAT_BEGIN
 90
        0
 91
        0
 92
      512
 93
        0
300

 40
0.0
140
1.0
 94
        5
 62
     0
340
10
144
6.0
309
CONTENTFORMAT_END
171
     1
301
MARGIN
  1
CELLMARGIN_BEGIN
 40
1.5
 40
1.5
 40
1.5
 40
1.5
 40
0.18
 40
0.18
309
CELLMARGIN_END
 94
        6
 95
        1
302
GRIDFORMAT
  1
GRIDFORMAT_BEGIN
 90
        0
 91
        1
 62
     0
 92
       -2
340
0
 93
        0
 40
1.125
309
GRIDFORMAT_END
 95
        2
302
GRIDFORMAT
  1
GRIDFORMAT_BEGIN
 90
        0
 91
        1
 62
     0
 92
       -2
340
0
 93
        0
 40
1.125
309
GRIDFORMAT_END
 95
        4
302
GRIDFORMAT
  1
GRIDFORMAT_BEGIN
 90
        0
 91
        1
 62
     0
 92
       -2
340
0
 93
        0
 40
1.125
309
GRIDFORMAT_END
 95
        8
302
GRIDFORMAT
  1
GRIDFORMAT_BEGIN
 90
        0
 91
        1
 62
     0
 92
       -2
340
0
 93
        0
 40
1.125
309
GRIDFORMAT_END
 95
       16
302
GRIDFORMAT
  1
GRIDFORMAT_BEGIN
 90
        0
 91
        1
 62
     0
 92
       -2
340
0
 93
        0
 40
1.125
309
GRIDFORMAT_END
 95
       32
302
GRIDFORMAT
  1
GRIDFORMAT_BEGIN
 90
        0
 91
        1
 62
     0
 92
       -2
340
0
 93
        0
 40
1.125
309
GRIDFORMAT_END
309
TABLEFORMAT_END
  1
CELLSTYLE_BEGIN
 90
        1
 91
        1
300
_TITLE
309
CELLSTYLE_END
300
CELLSTYLE
  1
TABLEFORMAT_BEGIN
 90
        5
170
     1
 91
        0
 92
        0
 62
   257
 93
        1
300
CONTENTFORMAT
  1
CONTENTFORMAT_BEGIN
 90
        0
 91
        0
 92
      512
 93
        0
300

 40
0.0
140
1.0
 94
        5
 62
     0
340
10
144
4.5
309
CONTENTFORMAT_END
171
     1
301
MARGIN
  1
CELLMARGIN_BEGIN
 40
1.5
 40
1.5
 40
1.5
 40
1.5
 40
0.18
 40
0.18
309
CELLMARGIN_END
 94
        6
 95
        1
302
GRIDFORMAT
  1
GRIDFORMAT_BEGIN
 90
        0
 91
        1
 62
     0
 92
       -2
340
0
 93
        0
 40
1.125
309
GRIDFORMAT_END
 95
        2
302
GRIDFORMAT
  1
GRIDFORMAT_BEGIN
 90
        0
 91
        1
 62
     0
 92
       -2
340
0
 93
        0
 40
1.125
309
GRIDFORMAT_END
 95
        4
302
GRIDFORMAT
  1
GRIDFORMAT_BEGIN
 90
        0
 91
        1
 62
     0
 92
       -2
340
0
 93
        0
 40
1.125
309
GRIDFORMAT_END
 95
        8
302
GRIDFORMAT
  1
GRIDFORMAT_BEGIN
 90
        0
 91
        1
 62
     0
 92
       -2
340
0
 93
        0
 40
1.125
309
GRIDFORMAT_END
 95
       16
302
GRIDFORMAT
  1
GRIDFORMAT_BEGIN
 90
        0
 91
        1
 62
     0
 92
       -2
340
0
 93
        0
 40
1.125
309
GRIDFORMAT_END
 95
       32
302
GRIDFORMAT
  1
GRIDFORMAT_BEGIN
 90
        0
 91
        1
 62
     0
 92
       -2
340
0
 93
        0
 40
1.125
309
GRIDFORMAT_END
309
TABLEFORMAT_END
  1
CELLSTYLE_BEGIN
 90
        2
 91
        1
300
_HEADER
309
CELLSTYLE_END
300
CELLSTYLE
  1
TABLEFORMAT_BEGIN
 90
        5
170
     1
 91
        0
 92
        0
 62
   257
 93
        1
300
CONTENTFORMAT
  1
CONTENTFORMAT_BEGIN
 90
        0
 91
        0
 92
      512
 93
        0
300

 40
0.0
140
1.0
 94
        2
 62
     0
340
10
144
4.5
309
CONTENTFORMAT_END
171
     1
301
MARGIN
  1
CELLMARGIN_BEGIN
 40
1.5
 40
1.5
 40
1.5
 40
1.5
 40
0.18
 40
0.18
309
CELLMARGIN_END
 94
        6
 95
        1
302
GRIDFORMAT
  1
GRIDFORMAT_BEGIN
 90
        0
 91
        1
 62
     0
 92
       -2
340
0
 93
        0
 40
1.125
309
GRIDFORMAT_END
 95
        2
302
GRIDFORMAT
  1
GRIDFORMAT_BEGIN
 90
        0
 91
        1
 62
     0
 92
       -2
340
0
 93
        0
 40
1.125
309
GRIDFORMAT_END
 95
        4
302
GRIDFORMAT
  1
GRIDFORMAT_BEGIN
 90
        0
 91
        1
 62
     0
 92
       -2
340
0
 93
        0
 40
1.125
309
GRIDFORMAT_END
 95
        8
302
GRIDFORMAT
  1
GRIDFORMAT_BEGIN
 90
        0
 91
        1
 62
     0
 92
       -2
340
0
 93
        0
 40
1.125
309
GRIDFORMAT_END
 95
       16
302
GRIDFORMAT
  1
GRIDFORMAT_BEGIN
 90
        0
 91
        1
 62
     0
 92
       -2
340
0
 93
        0
 40
1.125
309
GRIDFORMAT_END
 95
       32
302
GRIDFORMAT
  1
GRIDFORMAT_BEGIN
 90
        0
 91
        1
 62
     0
 92
       -2
340
0
 93
        0
 40
1.125
309
GRIDFORMAT_END
309
TABLEFORMAT_END
  1
CELLSTYLE_BEGIN
 90
        3
 91
        2
300
_DATA
309
CELLSTYLE_END
  0
XRECORD
  5
1A6B
102
{ACAD_REACTORS
330
502
102
}
330
502
100
AcDbXrecord
280
     1
102
ACAD_ROUNDTRIP_PRE2007_TABLESTYLE
 90
      512
 91
        0
  1

 92
      512
 93
        0
  2

 94
      512
 95
        0
  3

  0
XRECORD
  5
1A46
102
{ACAD_REACTORS
330
1A45
102
}
330
1A45
100
AcDbXrecord
280
     1
102
RTVSPost2010Prop28
280
     1
102
RTVSPost2010PropOp28
 70
     1
102
RTVSPost2010Prop29
280
     1
102
RTVSPost2010PropOp29
 70
     1
102
RTVSPost2010Prop30
280
     0
102
RTVSPost2010PropOp30
 70
     1
102
RTVSPost2010Prop31
280
     0
102
RTVSPost2010PropOp31
 70
     1
102
RTVSPost2010Prop32
280
     0
102
RTVSPost2010PropOp32
 70
     1
102
RTVSPost2010Prop33
280
     0
102
RTVSPost2010PropOp33
 70
     1
102
RTVSPost2010Prop34
280
     0
102
RTVSPost2010PropOp34
 70
     1
102
RTVSPost2010Prop35
280
     0
102
RTVSPost2010PropOp35
 70
     1
102
RTVSPost2010Prop36
280
     0
102
RTVSPost2010PropOp36
 70
     1
102
RTVSPost2010Prop37
 90
       50
102
RTVSPost2010PropOp37
 70
     1
102
RTVSPost2010Prop38
140
0.0
102
RTVSPost2010PropOp38
 70
     1
102
RTVSPost2010Prop39
140
1.0
102
RTVSPost2010PropOp39
 70
     1
102
RTVSPost2010Prop40
 90
        0
102
RTVSPost2010PropOp40
 70
     1
102
RTVSPost2010Prop41ColorIndex
 90
       18
102
RTVSPost2010Prop41ColorRGB
 90
        0
102
RTVSPost2010PropOp41
 70
     1
102
RTVSPost2010Prop42
 90
       50
102
RTVSPost2010PropOp42
 70
     1
102
RTVSPost2010Prop43
 90
        3
102
RTVSPost2010PropOp43
 70
     1
102
RTVSPost2010Prop44ColorIndex
 90
        5
102
RTVSPost2010Prop44ColorRGB
 90
      255
102
RTVSPost2010PropOp44
 70
     1
102
RTVSPost2010Prop45
280
     0
102
RTVSPost2010PropOp45
 70
     1
102
RTVSPost2010Prop46
 90
       50
102
RTVSPost2010PropOp46
 70
     1
102
RTVSPost2010Prop47
 90
       50
102
RTVSPost2010PropOp47
 70
     1
102
RTVSPost2010Prop48
 90
       50
102
RTVSPost2010PropOp48
 70
     1
102
RTVSPost2010Prop49
280
     0
102
RTVSPost2010PropOp49
 70
     1
102
RTVSPost2010Prop50
 90
       50
102
RTVSPost2010PropOp50
 70
     1
102
RTVSPost2010Prop51ColorIndex
 90
      256
102
RTVSPost2010Prop51ColorRGB
 90
-16777216
102
RTVSPost2010PropOp51
 70
     0
102
RTVSPost2010Prop52
140
1.0
102
RTVSPost2010PropOp52
 70
     0
102
RTVSPost2010Prop53
 90
        2
102
RTVSPost2010PropOp53
 70
     1
102
RTVSPost2010Prop54
  1
strokes_ogs.tif
102
RTVSPost2010PropOp54
 70
     1
102
RTVSPost2010Prop55
280
     0
102
RTVSPost2010PropOp55
 70
     1
102
RTVSPost2010Prop56
140
1.0
102
RTVSPost2010PropOp56
 70
     1
102
RTVSPost2010Prop57
140
1.0
102
RTVSPost2010PropOp57
 70
     1
102
RTVSPropertyOp0
 70
     1
102
RTVSPropertyOp1
 70
     1
102
RTVSPropertyOp2
 70
     1
102
RTVSPropertyOp3
 70
     1
102
RTVSPropertyOp4
 70
     1
102
RTVSPropertyOp5
 70
     1
102
RTVSPropertyOp6
 70
     1
102
RTVSPropertyOp7
 70
     1
102
RTVSPropertyOp8
 70
     1
102
RTVSPropertyOp9
 70
     1
102
RTVSPropertyOp10
 70
     1
102
RTVSPropertyOp11
 70
     1
102
RTVSPropertyOp12
 70
     1
102
RTVSPropertyOp13
 70
     1
102
RTVSPropertyOp14
 70
     1
102
RTVSPropertyOp15
 70
     1
102
RTVSPropertyOp16
 70
     1
102
RTVSPropertyOp17
 70
     1
102
RTVSPropertyOp18
 70
     1
102
RTVSPropertyOp19
 70
     1
102
RTVSPropertyOp20
 70
     1
102
RTVSPropertyOp21
 70
     1
102
RTVSPropertyOp22
 70
     1
102
RTVSPropertyOp23
 70
     1
102
RTVSPropertyOp24
 70
     1
102
RTVSPropertyOp25
 70
     1
102
RTVSPropertyOp26
 70
     1
102
RTVSPropertyOp27
 70
     1
102
RTVSPropertyOp28
 70
     1
102
RTVSPropertyOp29
 70
     1
102
RTVSPropertyOp30
 70
     1
102
RTVSPropertyOp31
 70
     1
102
RTVSPropertyOp32
 70
     1
102
RTVSPropertyOp33
 70
     1
102
RTVSPropertyOp34
 70
     1
102
RTVSPropertyOp35
 70
     1
102
RTVSPropertyOp36
 70
     1
102
RTVSPropertyOp37
 70
     1
102
RTVSPropertyOp38
 70
     1
102
RTVSPropertyOp39
 70
     1
102
RTVSPropertyOp40
 70
     1
102
RTVSPropertyOp41
 70
     1
102
RTVSPropertyOp42
 70
     1
102
RTVSPropertyOp43
 70
     1
102
RTVSPropertyOp44
 70
     1
102
RTVSPropertyOp45
 70
     1
102
RTVSPropertyOp46
 70
     1
102
RTVSPropertyOp47
 70
     1
102
RTVSPropertyOp48
 70
     1
102
RTVSPropertyOp49
 70
     1
102
RTVSPropertyOp50
 70
     1
102
RTVSPropertyOp51
 70
     0
102
RTVSPropertyOp52
 70
     0
102
RTVSPropertyOp53
 70
     1
102
RTVSPropertyOp54
 70
     1
102
RTVSPropertyOp55
 70
     1
102
RTVSPropertyOp56
 70
     1
102
RTVSPropertyOp57
 70
     1
102
RTVSPropertyOp58
 70
     1
102
RTVSPropertyOp59
 70
     1
102
RTVSPropertyOp60
 70
     1
102
RTVSPropertyOp61
 70
     1
102
RTVSPropertyOp62
 70
     1
  0
XRECORD
  5
1A44
102
{ACAD_REACTORS
330
1A43
102
}
330
1A43
100
AcDbXrecord
280
     1
102
RTVSPost2010Prop28
280
     0
102
RTVSPost2010PropOp28
 70
     1
102
RTVSPost2010Prop29
280
     1
102
RTVSPost2010PropOp29
 70
     1
102
RTVSPost2010Prop30
280
     1
102
RTVSPost2010PropOp30
 70
     1
102
RTVSPost2010Prop31
280
     0
102
RTVSPost2010PropOp31
 70
     1
102
RTVSPost2010Prop32
280
     0
102
RTVSPost2010PropOp32
 70
     1
102
RTVSPost2010Prop33
280
     0
102
RTVSPost2010PropOp33
 70
     1
102
RTVSPost2010Prop34
280
     0
102
RTVSPost2010PropOp34
 70
     1
102
RTVSPost2010Prop35
280
     0
102
RTVSPost2010PropOp35
 70
     1
102
RTVSPost2010Prop36
280
     0
102
RTVSPost2010PropOp36
 70
     1
102
RTVSPost2010Prop37
 90
       50
102
RTVSPost2010PropOp37
 70
     1
102
RTVSPost2010Prop38
140
0.0
102
RTVSPost2010PropOp38
 70
     1
102
RTVSPost2010Prop39
140
1.0
102
RTVSPost2010PropOp39
 70
     1
102
RTVSPost2010Prop40
 90
        0
102
RTVSPost2010PropOp40
 70
     1
102
RTVSPost2010Prop41ColorIndex
 90
       18
102
RTVSPost2010Prop41ColorRGB
 90
        0
102
RTVSPost2010PropOp41
 70
     1
102
RTVSPost2010Prop42
 90
       50
102
RTVSPost2010PropOp42
 70
     1
102
RTVSPost2010Prop43
 90
        3
102
RTVSPost2010PropOp43
 70
     1
102
RTVSPost2010Prop44ColorIndex
 90
        5
102
RTVSPost2010Prop44ColorRGB
 90
      255
102
RTVSPost2010PropOp44
 70
     1
102
RTVSPost2010Prop45
280
     0
102
RTVSPost2010PropOp45
 70
     1
102
RTVSPost2010Prop46
 90
       50
102
RTVSPost2010PropOp46
 70
     1
102
RTVSPost2010Prop47
 90
       50
102
RTVSPost2010PropOp47
 70
     1
102
RTVSPost2010Prop48
 90
       50
102
RTVSPost2010PropOp48
 70
     1
102
RTVSPost2010Prop49
280
     0
102
RTVSPost2010PropOp49
 70
     1
102
RTVSPost2010Prop50
 90
       50
102
RTVSPost2010PropOp50
 70
     1
102
RTVSPost2010Prop51ColorIndex
 90
      256
102
RTVSPost2010Prop51ColorRGB
 90
-16777216
102
RTVSPost2010PropOp51
 70
     0
102
RTVSPost2010Prop52
140
1.0
102
RTVSPost2010PropOp52
 70
     0
102
RTVSPost2010Prop53
 90
        2
102
RTVSPost2010PropOp53
 70
     1
102
RTVSPost2010Prop54
  1
strokes_ogs.tif
102
RTVSPost2010PropOp54
 70
     1
102
RTVSPost2010Prop55
280
     0
102
RTVSPost2010PropOp55
 70
     1
102
RTVSPost2010Prop56
140
1.0
102
RTVSPost2010PropOp56
 70
     1
102
RTVSPost2010Prop57
140
1.0
102
RTVSPost2010PropOp57
 70
     1
102
RTVSPropertyOp0
 70
     1
102
RTVSPropertyOp1
 70
     1
102
RTVSPropertyOp2
 70
     1
102
RTVSPropertyOp3
 70
     1
102
RTVSPropertyOp4
 70
     1
102
RTVSPropertyOp5
 70
     1
102
RTVSPropertyOp6
 70
     1
102
RTVSPropertyOp7
 70
     1
102
RTVSPropertyOp8
 70
     1
102
RTVSPropertyOp9
 70
     1
102
RTVSPropertyOp10
 70
     1
102
RTVSPropertyOp11
 70
     1
102
RTVSPropertyOp12
 70
     1
102
RTVSPropertyOp13
 70
     1
102
RTVSPropertyOp14
 70
     1
102
RTVSPropertyOp15
 70
     1
102
RTVSPropertyOp16
 70
     1
102
RTVSPropertyOp17
 70
     1
102
RTVSPropertyOp18
 70
     1
102
RTVSPropertyOp19
 70
     1
102
RTVSPropertyOp20
 70
     1
102
RTVSPropertyOp21
 70
     1
102
RTVSPropertyOp22
 70
     1
102
RTVSPropertyOp23
 70
     1
102
RTVSPropertyOp24
 70
     1
102
RTVSPropertyOp25
 70
     1
102
RTVSPropertyOp26
 70
     1
102
RTVSPropertyOp27
 70
     1
102
RTVSPropertyOp28
 70
     1
102
RTVSPropertyOp29
 70
     1
102
RTVSPropertyOp30
 70
     1
102
RTVSPropertyOp31
 70
     1
102
RTVSPropertyOp32
 70
     1
102
RTVSPropertyOp33
 70
     1
102
RTVSPropertyOp34
 70
     1
102
RTVSPropertyOp35
 70
     1
102
RTVSPropertyOp36
 70
     1
102
RTVSPropertyOp37
 70
     1
102
RTVSPropertyOp38
 70
     1
102
RTVSPropertyOp39
 70
     1
102
RTVSPropertyOp40
 70
     1
102
RTVSPropertyOp41
 70
     1
102
RTVSPropertyOp42
 70
     1
102
RTVSPropertyOp43
 70
     1
102
RTVSPropertyOp44
 70
     1
102
RTVSPropertyOp45
 70
     1
102
RTVSPropertyOp46
 70
     1
102
RTVSPropertyOp47
 70
     1
102
RTVSPropertyOp48
 70
     1
102
RTVSPropertyOp49
 70
     1
102
RTVSPropertyOp50
 70
     1
102
RTVSPropertyOp51
 70
     0
102
RTVSPropertyOp52
 70
     0
102
RTVSPropertyOp53
 70
     1
102
RTVSPropertyOp54
 70
     1
102
RTVSPropertyOp55
 70
     1
102
RTVSPropertyOp56
 70
     1
102
RTVSPropertyOp57
 70
     1
102
RTVSPropertyOp58
 70
     1
102
RTVSPropertyOp59
 70
     1
102
RTVSPropertyOp60
 70
     1
102
RTVSPropertyOp61
 70
     1
102
RTVSPropertyOp62
 70
     1
  0
XRECORD
  5
1A52
102
{ACAD_REACTORS
330
1A51
102
}
330
1A51
100
AcDbXrecord
280
     1
102
RTVSPost2010Prop28
280
     0
102
RTVSPost2010PropOp28
 70
     1
102
RTVSPost2010Prop29
280
     1
102
RTVSPost2010PropOp29
 70
     1
102
RTVSPost2010Prop30
280
     1
102
RTVSPost2010PropOp30
 70
     1
102
RTVSPost2010Prop31
280
     0
102
RTVSPost2010PropOp31
 70
     1
102
RTVSPost2010Prop32
280
     0
102
RTVSPost2010PropOp32
 70
     1
102
RTVSPost2010Prop33
280
     0
102
RTVSPost2010PropOp33
 70
     1
102
RTVSPost2010Prop34
280
     0
102
RTVSPost2010PropOp34
 70
     1
102
RTVSPost2010Prop35
280
     0
102
RTVSPost2010PropOp35
 70
     1
102
RTVSPost2010Prop36
280
     0
102
RTVSPost2010PropOp36
 70
     1
102
RTVSPost2010Prop37
 90
       50
102
RTVSPost2010PropOp37
 70
     1
102
RTVSPost2010Prop38
140
0.0
102
RTVSPost2010PropOp38
 70
     1
102
RTVSPost2010Prop39
140
1.0
102
RTVSPost2010PropOp39
 70
     1
102
RTVSPost2010Prop40
 90
        0
102
RTVSPost2010PropOp40
 70
     1
102
RTVSPost2010Prop41ColorIndex
 90
       18
102
RTVSPost2010Prop41ColorRGB
 90
        0
102
RTVSPost2010PropOp41
 70
     1
102
RTVSPost2010Prop42
 90
       50
102
RTVSPost2010PropOp42
 70
     1
102
RTVSPost2010Prop43
 90
        3
102
RTVSPost2010PropOp43
 70
     1
102
RTVSPost2010Prop44ColorIndex
 90
        5
102
RTVSPost2010Prop44ColorRGB
 90
      255
102
RTVSPost2010PropOp44
 70
     1
102
RTVSPost2010Prop45
280
     0
102
RTVSPost2010PropOp45
 70
     1
102
RTVSPost2010Prop46
 90
       50
102
RTVSPost2010PropOp46
 70
     1
102
RTVSPost2010Prop47
 90
       50
102
RTVSPost2010PropOp47
 70
     1
102
RTVSPost2010Prop48
 90
       50
102
RTVSPost2010PropOp48
 70
     1
102
RTVSPost2010Prop49
280
     0
102
RTVSPost2010PropOp49
 70
     1
102
RTVSPost2010Prop50
 90
       50
102
RTVSPost2010PropOp50
 70
     1
102
RTVSPost2010Prop51ColorIndex
 90
      256
102
RTVSPost2010Prop51ColorRGB
 90
-16777216
102
RTVSPost2010PropOp51
 70
     0
102
RTVSPost2010Prop52
140
1.0
102
RTVSPost2010PropOp52
 70
     0
102
RTVSPost2010Prop53
 90
        2
102
RTVSPost2010PropOp53
 70
     1
102
RTVSPost2010Prop54
  1
strokes_ogs.tif
102
RTVSPost2010PropOp54
 70
     1
102
RTVSPost2010Prop55
280
     0
102
RTVSPost2010PropOp55
 70
     1
102
RTVSPost2010Prop56
140
1.0
102
RTVSPost2010PropOp56
 70
     1
102
RTVSPost2010Prop57
140
1.0
102
RTVSPost2010PropOp57
 70
     1
102
RTVSPropertyOp0
 70
     1
102
RTVSPropertyOp1
 70
     1
102
RTVSPropertyOp2
 70
     1
102
RTVSPropertyOp3
 70
     1
102
RTVSPropertyOp4
 70
     1
102
RTVSPropertyOp5
 70
     1
102
RTVSPropertyOp6
 70
     1
102
RTVSPropertyOp7
 70
     1
102
RTVSPropertyOp8
 70
     1
102
RTVSPropertyOp9
 70
     1
102
RTVSPropertyOp10
 70
     1
102
RTVSPropertyOp11
 70
     1
102
RTVSPropertyOp12
 70
     1
102
RTVSPropertyOp13
 70
     1
102
RTVSPropertyOp14
 70
     1
102
RTVSPropertyOp15
 70
     1
102
RTVSPropertyOp16
 70
     1
102
RTVSPropertyOp17
 70
     1
102
RTVSPropertyOp18
 70
     1
102
RTVSPropertyOp19
 70
     1
102
RTVSPropertyOp20
 70
     1
102
RTVSPropertyOp21
 70
     1
102
RTVSPropertyOp22
 70
     1
102
RTVSPropertyOp23
 70
     1
102
RTVSPropertyOp24
 70
     1
102
RTVSPropertyOp25
 70
     1
102
RTVSPropertyOp26
 70
     1
102
RTVSPropertyOp27
 70
     1
102
RTVSPropertyOp28
 70
     1
102
RTVSPropertyOp29
 70
     1
102
RTVSPropertyOp30
 70
     1
102
RTVSPropertyOp31
 70
     1
102
RTVSPropertyOp32
 70
     1
102
RTVSPropertyOp33
 70
     1
102
RTVSPropertyOp34
 70
     1
102
RTVSPropertyOp35
 70
     1
102
RTVSPropertyOp36
 70
     1
102
RTVSPropertyOp37
 70
     1
102
RTVSPropertyOp38
 70
     1
102
RTVSPropertyOp39
 70
     1
102
RTVSPropertyOp40
 70
     1
102
RTVSPropertyOp41
 70
     1
102
RTVSPropertyOp42
 70
     1
102
RTVSPropertyOp43
 70
     1
102
RTVSPropertyOp44
 70
     1
102
RTVSPropertyOp45
 70
     1
102
RTVSPropertyOp46
 70
     1
102
RTVSPropertyOp47
 70
     1
102
RTVSPropertyOp48
 70
     1
102
RTVSPropertyOp49
 70
     1
102
RTVSPropertyOp50
 70
     1
102
RTVSPropertyOp51
 70
     0
102
RTVSPropertyOp52
 70
     0
102
RTVSPropertyOp53
 70
     1
102
RTVSPropertyOp54
 70
     1
102
RTVSPropertyOp55
 70
     1
102
RTVSPropertyOp56
 70
     1
102
RTVSPropertyOp57
 70
     1
102
RTVSPropertyOp58
 70
     1
102
RTVSPropertyOp59
 70
     1
102
RTVSPropertyOp60
 70
     1
102
RTVSPropertyOp61
 70
     1
102
RTVSPropertyOp62
 70
     1
  0
XRECORD
  5
1A5A
102
{ACAD_REACTORS
330
1A59
102
}
330
1A59
100
AcDbXrecord
280
     1
102
RTVSPost2010Prop28
280
     0
102
RTVSPost2010PropOp28
 70
     1
102
RTVSPost2010Prop29
280
     1
102
RTVSPost2010PropOp29
 70
     1
102
RTVSPost2010Prop30
280
     1
102
RTVSPost2010PropOp30
 70
     1
102
RTVSPost2010Prop31
280
     0
102
RTVSPost2010PropOp31
 70
     1
102
RTVSPost2010Prop32
280
     0
102
RTVSPost2010PropOp32
 70
     1
102
RTVSPost2010Prop33
280
     0
102
RTVSPost2010PropOp33
 70
     1
102
RTVSPost2010Prop34
280
     0
102
RTVSPost2010PropOp34
 70
     1
102
RTVSPost2010Prop35
280
     0
102
RTVSPost2010PropOp35
 70
     1
102
RTVSPost2010Prop36
280
     0
102
RTVSPost2010PropOp36
 70
     1
102
RTVSPost2010Prop37
 90
       50
102
RTVSPost2010PropOp37
 70
     1
102
RTVSPost2010Prop38
140
0.0
102
RTVSPost2010PropOp38
 70
     1
102
RTVSPost2010Prop39
140
1.0
102
RTVSPost2010PropOp39
 70
     1
102
RTVSPost2010Prop40
 90
        0
102
RTVSPost2010PropOp40
 70
     1
102
RTVSPost2010Prop41ColorIndex
 90
       18
102
RTVSPost2010Prop41ColorRGB
 90
        0
102
RTVSPost2010PropOp41
 70
     1
102
RTVSPost2010Prop42
 90
       50
102
RTVSPost2010PropOp42
 70
     1
102
RTVSPost2010Prop43
 90
        3
102
RTVSPost2010PropOp43
 70
     1
102
RTVSPost2010Prop44ColorIndex
 90
        5
102
RTVSPost2010Prop44ColorRGB
 90
      255
102
RTVSPost2010PropOp44
 70
     1
102
RTVSPost2010Prop45
280
     0
102
RTVSPost2010PropOp45
 70
     1
102
RTVSPost2010Prop46
 90
       50
102
RTVSPost2010PropOp46
 70
     1
102
RTVSPost2010Prop47
 90
       50
102
RTVSPost2010PropOp47
 70
     1
102
RTVSPost2010Prop48
 90
       50
102
RTVSPost2010PropOp48
 70
     1
102
RTVSPost2010Prop49
280
     0
102
RTVSPost2010PropOp49
 70
     1
102
RTVSPost2010Prop50
 90
       50
102
RTVSPost2010PropOp50
 70
     1
102
RTVSPost2010Prop51ColorIndex
 90
      256
102
RTVSPost2010Prop51ColorRGB
 90
-16777216
102
RTVSPost2010PropOp51
 70
     0
102
RTVSPost2010Prop52
140
1.0
102
RTVSPost2010PropOp52
 70
     0
102
RTVSPost2010Prop53
 90
        2
102
RTVSPost2010PropOp53
 70
     1
102
RTVSPost2010Prop54
  1
strokes_ogs.tif
102
RTVSPost2010PropOp54
 70
     1
102
RTVSPost2010Prop55
280
     0
102
RTVSPost2010PropOp55
 70
     1
102
RTVSPost2010Prop56
140
1.0
102
RTVSPost2010PropOp56
 70
     1
102
RTVSPost2010Prop57
140
1.0
102
RTVSPost2010PropOp57
 70
     1
102
RTVSPropertyOp0
 70
     1
102
RTVSPropertyOp1
 70
     1
102
RTVSPropertyOp2
 70
     1
102
RTVSPropertyOp3
 70
     1
102
RTVSPropertyOp4
 70
     1
102
RTVSPropertyOp5
 70
     1
102
RTVSPropertyOp6
 70
     1
102
RTVSPropertyOp7
 70
     1
102
RTVSPropertyOp8
 70
     1
102
RTVSPropertyOp9
 70
     1
102
RTVSPropertyOp10
 70
     1
102
RTVSPropertyOp11
 70
     1
102
RTVSPropertyOp12
 70
     1
102
RTVSPropertyOp13
 70
     1
102
RTVSPropertyOp14
 70
     1
102
RTVSPropertyOp15
 70
     1
102
RTVSPropertyOp16
 70
     1
102
RTVSPropertyOp17
 70
     1
102
RTVSPropertyOp18
 70
     1
102
RTVSPropertyOp19
 70
     1
102
RTVSPropertyOp20
 70
     1
102
RTVSPropertyOp21
 70
     1
102
RTVSPropertyOp22
 70
     1
102
RTVSPropertyOp23
 70
     1
102
RTVSPropertyOp24
 70
     1
102
RTVSPropertyOp25
 70
     1
102
RTVSPropertyOp26
 70
     1
102
RTVSPropertyOp27
 70
     1
102
RTVSPropertyOp28
 70
     1
102
RTVSPropertyOp29
 70
     1
102
RTVSPropertyOp30
 70
     1
102
RTVSPropertyOp31
 70
     1
102
RTVSPropertyOp32
 70
     1
102
RTVSPropertyOp33
 70
     1
102
RTVSPropertyOp34
 70
     1
102
RTVSPropertyOp35
 70
     1
102
RTVSPropertyOp36
 70
     1
102
RTVSPropertyOp37
 70
     1
102
RTVSPropertyOp38
 70
     1
102
RTVSPropertyOp39
 70
     1
102
RTVSPropertyOp40
 70
     1
102
RTVSPropertyOp41
 70
     1
102
RTVSPropertyOp42
 70
     1
102
RTVSPropertyOp43
 70
     1
102
RTVSPropertyOp44
 70
     1
102
RTVSPropertyOp45
 70
     1
102
RTVSPropertyOp46
 70
     1
102
RTVSPropertyOp47
 70
     1
102
RTVSPropertyOp48
 70
     1
102
RTVSPropertyOp49
 70
     1
102
RTVSPropertyOp50
 70
     1
102
RTVSPropertyOp51
 70
     0
102
RTVSPropertyOp52
 70
     0
102
RTVSPropertyOp53
 70
     1
102
RTVSPropertyOp54
 70
     1
102
RTVSPropertyOp55
 70
     1
102
RTVSPropertyOp56
 70
     1
102
RTVSPropertyOp57
 70
     1
102
RTVSPropertyOp58
 70
     1
102
RTVSPropertyOp59
 70
     1
102
RTVSPropertyOp60
 70
     1
102
RTVSPropertyOp61
 70
     1
102
RTVSPropertyOp62
 70
     1
  0
XRECORD
  5
1A4C
102
{ACAD_REACTORS
330
1A4B
102
}
330
1A4B
100
AcDbXrecord
280
     1
102
RTVSPost2010Prop28
280
     0
102
RTVSPost2010PropOp28
 70
     1
102
RTVSPost2010Prop29
280
     1
102
RTVSPost2010PropOp29
 70
     1
102
RTVSPost2010Prop30
280
     1
102
RTVSPost2010PropOp30
 70
     1
102
RTVSPost2010Prop31
280
     0
102
RTVSPost2010PropOp31
 70
     1
102
RTVSPost2010Prop32
280
     0
102
RTVSPost2010PropOp32
 70
     1
102
RTVSPost2010Prop33
280
     0
102
RTVSPost2010PropOp33
 70
     1
102
RTVSPost2010Prop34
280
     0
102
RTVSPost2010PropOp34
 70
     1
102
RTVSPost2010Prop35
280
     0
102
RTVSPost2010PropOp35
 70
     1
102
RTVSPost2010Prop36
280
     0
102
RTVSPost2010PropOp36
 70
     1
102
RTVSPost2010Prop37
 90
       50
102
RTVSPost2010PropOp37
 70
     1
102
RTVSPost2010Prop38
140
0.0
102
RTVSPost2010PropOp38
 70
     1
102
RTVSPost2010Prop39
140
1.0
102
RTVSPost2010PropOp39
 70
     1
102
RTVSPost2010Prop40
 90
        0
102
RTVSPost2010PropOp40
 70
     1
102
RTVSPost2010Prop41ColorIndex
 90
       18
102
RTVSPost2010Prop41ColorRGB
 90
        0
102
RTVSPost2010PropOp41
 70
     1
102
RTVSPost2010Prop42
 90
       50
102
RTVSPost2010PropOp42
 70
     1
102
RTVSPost2010Prop43
 90
        3
102
RTVSPost2010PropOp43
 70
     1
102
RTVSPost2010Prop44ColorIndex
 90
        5
102
RTVSPost2010Prop44ColorRGB
 90
      255
102
RTVSPost2010PropOp44
 70
     1
102
RTVSPost2010Prop45
280
     0
102
RTVSPost2010PropOp45
 70
     1
102
RTVSPost2010Prop46
 90
       50
102
RTVSPost2010PropOp46
 70
     1
102
RTVSPost2010Prop47
 90
       50
102
RTVSPost2010PropOp47
 70
     1
102
RTVSPost2010Prop48
 90
       50
102
RTVSPost2010PropOp48
 70
     1
102
RTVSPost2010Prop49
280
     0
102
RTVSPost2010PropOp49
 70
     1
102
RTVSPost2010Prop50
 90
       50
102
RTVSPost2010PropOp50
 70
     1
102
RTVSPost2010Prop51ColorIndex
 90
      256
102
RTVSPost2010Prop51ColorRGB
 90
-16777216
102
RTVSPost2010PropOp51
 70
     0
102
RTVSPost2010Prop52
140
1.0
102
RTVSPost2010PropOp52
 70
     0
102
RTVSPost2010Prop53
 90
        2
102
RTVSPost2010PropOp53
 70
     1
102
RTVSPost2010Prop54
  1
strokes_ogs.tif
102
RTVSPost2010PropOp54
 70
     1
102
RTVSPost2010Prop55
280
     0
102
RTVSPost2010PropOp55
 70
     1
102
RTVSPost2010Prop56
140
1.0
102
RTVSPost2010PropOp56
 70
     1
102
RTVSPost2010Prop57
140
1.0
102
RTVSPost2010PropOp57
 70
     1
102
RTVSPropertyOp0
 70
     1
102
RTVSPropertyOp1
 70
     1
102
RTVSPropertyOp2
 70
     1
102
RTVSPropertyOp3
 70
     1
102
RTVSPropertyOp4
 70
     1
102
RTVSPropertyOp5
 70
     1
102
RTVSPropertyOp6
 70
     1
102
RTVSPropertyOp7
 70
     1
102
RTVSPropertyOp8
 70
     1
102
RTVSPropertyOp9
 70
     1
102
RTVSPropertyOp10
 70
     1
102
RTVSPropertyOp11
 70
     1
102
RTVSPropertyOp12
 70
     1
102
RTVSPropertyOp13
 70
     1
102
RTVSPropertyOp14
 70
     1
102
RTVSPropertyOp15
 70
     1
102
RTVSPropertyOp16
 70
     1
102
RTVSPropertyOp17
 70
     1
102
RTVSPropertyOp18
 70
     1
102
RTVSPropertyOp19
 70
     1
102
RTVSPropertyOp20
 70
     1
102
RTVSPropertyOp21
 70
     1
102
RTVSPropertyOp22
 70
     1
102
RTVSPropertyOp23
 70
     1
102
RTVSPropertyOp24
 70
     1
102
RTVSPropertyOp25
 70
     1
102
RTVSPropertyOp26
 70
     1
102
RTVSPropertyOp27
 70
     1
102
RTVSPropertyOp28
 70
     1
102
RTVSPropertyOp29
 70
     1
102
RTVSPropertyOp30
 70
     1
102
RTVSPropertyOp31
 70
     1
102
RTVSPropertyOp32
 70
     1
102
RTVSPropertyOp33
 70
     1
102
RTVSPropertyOp34
 70
     1
102
RTVSPropertyOp35
 70
     1
102
RTVSPropertyOp36
 70
     1
102
RTVSPropertyOp37
 70
     1
102
RTVSPropertyOp38
 70
     1
102
RTVSPropertyOp39
 70
     1
102
RTVSPropertyOp40
 70
     1
102
RTVSPropertyOp41
 70
     1
102
RTVSPropertyOp42
 70
     1
102
RTVSPropertyOp43
 70
     1
102
RTVSPropertyOp44
 70
     1
102
RTVSPropertyOp45
 70
     1
102
RTVSPropertyOp46
 70
     1
102
RTVSPropertyOp47
 70
     1
102
RTVSPropertyOp48
 70
     1
102
RTVSPropertyOp49
 70
     1
102
RTVSPropertyOp50
 70
     1
102
RTVSPropertyOp51
 70
     0
102
RTVSPropertyOp52
 70
     0
102
RTVSPropertyOp53
 70
     1
102
RTVSPropertyOp54
 70
     1
102
RTVSPropertyOp55
 70
     1
102
RTVSPropertyOp56
 70
     1
102
RTVSPropertyOp57
 70
     1
102
RTVSPropertyOp58
 70
     1
102
RTVSPropertyOp59
 70
     1
102
RTVSPropertyOp60
 70
     1
102
RTVSPropertyOp61
 70
     1
102
RTVSPropertyOp62
 70
     1
  0
XRECORD
  5
1A50
102
{ACAD_REACTORS
330
1A4F
102
}
330
1A4F
100
AcDbXrecord
280
     1
102
RTVSPost2010Prop28
280
     0
102
RTVSPost2010PropOp28
 70
     1
102
RTVSPost2010Prop29
280
     1
102
RTVSPost2010PropOp29
 70
     1
102
RTVSPost2010Prop30
280
     1
102
RTVSPost2010PropOp30
 70
     1
102
RTVSPost2010Prop31
280
     0
102
RTVSPost2010PropOp31
 70
     1
102
RTVSPost2010Prop32
280
     0
102
RTVSPost2010PropOp32
 70
     1
102
RTVSPost2010Prop33
280
     0
102
RTVSPost2010PropOp33
 70
     1
102
RTVSPost2010Prop34
280
     0
102
RTVSPost2010PropOp34
 70
     1
102
RTVSPost2010Prop35
280
     0
102
RTVSPost2010PropOp35
 70
     1
102
RTVSPost2010Prop36
280
     0
102
RTVSPost2010PropOp36
 70
     1
102
RTVSPost2010Prop37
 90
       50
102
RTVSPost2010PropOp37
 70
     1
102
RTVSPost2010Prop38
140
0.0
102
RTVSPost2010PropOp38
 70
     1
102
RTVSPost2010Prop39
140
1.0
102
RTVSPost2010PropOp39
 70
     1
102
RTVSPost2010Prop40
 90
        0
102
RTVSPost2010PropOp40
 70
     1
102
RTVSPost2010Prop41ColorIndex
 90
       18
102
RTVSPost2010Prop41ColorRGB
 90
        0
102
RTVSPost2010PropOp41
 70
     1
102
RTVSPost2010Prop42
 90
       50
102
RTVSPost2010PropOp42
 70
     1
102
RTVSPost2010Prop43
 90
        3
102
RTVSPost2010PropOp43
 70
     1
102
RTVSPost2010Prop44ColorIndex
 90
        5
102
RTVSPost2010Prop44ColorRGB
 90
      255
102
RTVSPost2010PropOp44
 70
     1
102
RTVSPost2010Prop45
280
     0
102
RTVSPost2010PropOp45
 70
     1
102
RTVSPost2010Prop46
 90
       50
102
RTVSPost2010PropOp46
 70
     1
102
RTVSPost2010Prop47
 90
       50
102
RTVSPost2010PropOp47
 70
     1
102
RTVSPost2010Prop48
 90
       50
102
RTVSPost2010PropOp48
 70
     1
102
RTVSPost2010Prop49
280
     0
102
RTVSPost2010PropOp49
 70
     1
102
RTVSPost2010Prop50
 90
       50
102
RTVSPost2010PropOp50
 70
     1
102
RTVSPost2010Prop51ColorIndex
 90
      256
102
RTVSPost2010Prop51ColorRGB
 90
-16777216
102
RTVSPost2010PropOp51
 70
     0
102
RTVSPost2010Prop52
140
1.0
102
RTVSPost2010PropOp52
 70
     0
102
RTVSPost2010Prop53
 90
        2
102
RTVSPost2010PropOp53
 70
     1
102
RTVSPost2010Prop54
  1
strokes_ogs.tif
102
RTVSPost2010PropOp54
 70
     1
102
RTVSPost2010Prop55
280
     0
102
RTVSPost2010PropOp55
 70
     1
102
RTVSPost2010Prop56
140
1.0
102
RTVSPost2010PropOp56
 70
     1
102
RTVSPost2010Prop57
140
1.0
102
RTVSPost2010PropOp57
 70
     1
102
RTVSPropertyOp0
 70
     1
102
RTVSPropertyOp1
 70
     1
102
RTVSPropertyOp2
 70
     1
102
RTVSPropertyOp3
 70
     1
102
RTVSPropertyOp4
 70
     1
102
RTVSPropertyOp5
 70
     1
102
RTVSPropertyOp6
 70
     1
102
RTVSPropertyOp7
 70
     1
102
RTVSPropertyOp8
 70
     1
102
RTVSPropertyOp9
 70
     1
102
RTVSPropertyOp10
 70
     1
102
RTVSPropertyOp11
 70
     1
102
RTVSPropertyOp12
 70
     1
102
RTVSPropertyOp13
 70
     1
102
RTVSPropertyOp14
 70
     1
102
RTVSPropertyOp15
 70
     1
102
RTVSPropertyOp16
 70
     1
102
RTVSPropertyOp17
 70
     1
102
RTVSPropertyOp18
 70
     1
102
RTVSPropertyOp19
 70
     1
102
RTVSPropertyOp20
 70
     1
102
RTVSPropertyOp21
 70
     1
102
RTVSPropertyOp22
 70
     1
102
RTVSPropertyOp23
 70
     1
102
RTVSPropertyOp24
 70
     1
102
RTVSPropertyOp25
 70
     1
102
RTVSPropertyOp26
 70
     1
102
RTVSPropertyOp27
 70
     1
102
RTVSPropertyOp28
 70
     1
102
RTVSPropertyOp29
 70
     1
102
RTVSPropertyOp30
 70
     1
102
RTVSPropertyOp31
 70
     1
102
RTVSPropertyOp32
 70
     1
102
RTVSPropertyOp33
 70
     1
102
RTVSPropertyOp34
 70
     1
102
RTVSPropertyOp35
 70
     1
102
RTVSPropertyOp36
 70
     1
102
RTVSPropertyOp37
 70
     1
102
RTVSPropertyOp38
 70
     1
102
RTVSPropertyOp39
 70
     1
102
RTVSPropertyOp40
 70
     1
102
RTVSPropertyOp41
 70
     1
102
RTVSPropertyOp42
 70
     1
102
RTVSPropertyOp43
 70
     1
102
RTVSPropertyOp44
 70
     1
102
RTVSPropertyOp45
 70
     1
102
RTVSPropertyOp46
 70
     1
102
RTVSPropertyOp47
 70
     1
102
RTVSPropertyOp48
 70
     1
102
RTVSPropertyOp49
 70
     1
102
RTVSPropertyOp50
 70
     1
102
RTVSPropertyOp51
 70
     0
102
RTVSPropertyOp52
 70
     0
102
RTVSPropertyOp53
 70
     1
102
RTVSPropertyOp54
 70
     1
102
RTVSPropertyOp55
 70
     1
102
RTVSPropertyOp56
 70
     1
102
RTVSPropertyOp57
 70
     1
102
RTVSPropertyOp58
 70
     1
102
RTVSPropertyOp59
 70
     1
102
RTVSPropertyOp60
 70
     1
102
RTVSPropertyOp61
 70
     1
102
RTVSPropertyOp62
 70
     1
  0
XRECORD
  5
1A6A
102
{ACAD_REACTORS
330
1A69
102
}
330
1A69
100
AcDbXrecord
280
     1
102
RTVSPost2010Prop28
280
     0
102
RTVSPost2010PropOp28
 70
     1
102
RTVSPost2010Prop29
280
     1
102
RTVSPost2010PropOp29
 70
     1
102
RTVSPost2010Prop30
280
     1
102
RTVSPost2010PropOp30
 70
     1
102
RTVSPost2010Prop31
280
     0
102
RTVSPost2010PropOp31
 70
     1
102
RTVSPost2010Prop32
280
     0
102
RTVSPost2010PropOp32
 70
     1
102
RTVSPost2010Prop33
280
     0
102
RTVSPost2010PropOp33
 70
     1
102
RTVSPost2010Prop34
280
     0
102
RTVSPost2010PropOp34
 70
     1
102
RTVSPost2010Prop35
280
     0
102
RTVSPost2010PropOp35
 70
     1
102
RTVSPost2010Prop36
280
     0
102
RTVSPost2010PropOp36
 70
     1
102
RTVSPost2010Prop37
 90
       50
102
RTVSPost2010PropOp37
 70
     0
102
RTVSPost2010Prop38
140
0.0
102
RTVSPost2010PropOp38
 70
     0
102
RTVSPost2010Prop39
140
1.0
102
RTVSPost2010PropOp39
 70
     0
102
RTVSPost2010Prop40
 90
        0
102
RTVSPost2010PropOp40
 70
     0
102
RTVSPost2010Prop41ColorIndex
 90
       18
102
RTVSPost2010Prop41ColorRGB
 90
        0
102
RTVSPost2010PropOp41
 70
     0
102
RTVSPost2010Prop42
 90
       50
102
RTVSPost2010PropOp42
 70
     0
102
RTVSPost2010Prop43
 90
        3
102
RTVSPost2010PropOp43
 70
     0
102
RTVSPost2010Prop44ColorIndex
 90
        5
102
RTVSPost2010Prop44ColorRGB
 90
      255
102
RTVSPost2010PropOp44
 70
     0
102
RTVSPost2010Prop45
280
     0
102
RTVSPost2010PropOp45
 70
     1
102
RTVSPost2010Prop46
 90
       50
102
RTVSPost2010PropOp46
 70
     0
102
RTVSPost2010Prop47
 90
       50
102
RTVSPost2010PropOp47
 70
     0
102
RTVSPost2010Prop48
 90
       50
102
RTVSPost2010PropOp48
 70
     0
102
RTVSPost2010Prop49
280
     0
102
RTVSPost2010PropOp49
 70
     1
102
RTVSPost2010Prop50
 90
       50
102
RTVSPost2010PropOp50
 70
     0
102
RTVSPost2010Prop51ColorIndex
 90
      256
102
RTVSPost2010Prop51ColorRGB
 90
-16777216
102
RTVSPost2010PropOp51
 70
     0
102
RTVSPost2010Prop52
140
1.0
102
RTVSPost2010PropOp52
 70
     0
102
RTVSPost2010Prop53
 90
        2
102
RTVSPost2010PropOp53
 70
     0
102
RTVSPost2010Prop54
  1
strokes_ogs.tif
102
RTVSPost2010PropOp54
 70
     0
102
RTVSPost2010Prop55
280
     0
102
RTVSPost2010PropOp55
 70
     1
102
RTVSPost2010Prop56
140
1.0
102
RTVSPost2010PropOp56
 70
     0
102
RTVSPost2010Prop57
140
1.0
102
RTVSPost2010PropOp57
 70
     0
102
RTVSPropertyOp0
 70
     0
102
RTVSPropertyOp1
 70
     0
102
RTVSPropertyOp2
 70
     0
102
RTVSPropertyOp3
 70
     0
102
RTVSPropertyOp4
 70
     0
102
RTVSPropertyOp5
 70
     0
102
RTVSPropertyOp6
 70
     0
102
RTVSPropertyOp7
 70
     0
102
RTVSPropertyOp8
 70
     0
102
RTVSPropertyOp9
 70
     0
102
RTVSPropertyOp10
 70
     0
102
RTVSPropertyOp11
 70
     0
102
RTVSPropertyOp12
 70
     0
102
RTVSPropertyOp13
 70
     0
102
RTVSPropertyOp14
 70
     2
102
RTVSPropertyOp15
 70
     0
102
RTVSPropertyOp16
 70
     0
102
RTVSPropertyOp17
 70
     0
102
RTVSPropertyOp18
 70
     0
102
RTVSPropertyOp19
 70
     0
102
RTVSPropertyOp20
 70
     0
102
RTVSPropertyOp21
 70
     0
102
RTVSPropertyOp22
 70
     0
102
RTVSPropertyOp23
 70
     0
102
RTVSPropertyOp24
 70
     0
102
RTVSPropertyOp25
 70
     0
102
RTVSPropertyOp26
 70
     0
102
RTVSPropertyOp27
 70
     0
102
RTVSPropertyOp28
 70
     1
102
RTVSPropertyOp29
 70
     1
102
RTVSPropertyOp30
 70
     1
102
RTVSPropertyOp31
 70
     1
102
RTVSPropertyOp32
 70
     1
102
RTVSPropertyOp33
 70
     1
102
RTVSPropertyOp34
 70
     1
102
RTVSPropertyOp35
 70
     1
102
RTVSPropertyOp36
 70
     1
102
RTVSPropertyOp37
 70
     0
102
RTVSPropertyOp38
 70
     0
102
RTVSPropertyOp39
 70
     0
102
RTVSPropertyOp40
 70
     0
102
RTVSPropertyOp41
 70
     0
102
RTVSPropertyOp42
 70
     0
102
RTVSPropertyOp43
 70
     0
102
RTVSPropertyOp44
 70
     0
102
RTVSPropertyOp45
 70
     1
102
RTVSPropertyOp46
 70
     0
102
RTVSPropertyOp47
 70
     0
102
RTVSPropertyOp48
 70
     0
102
RTVSPropertyOp49
 70
     1
102
RTVSPropertyOp50
 70
     0
102
RTVSPropertyOp51
 70
     0
102
RTVSPropertyOp52
 70
     0
102
RTVSPropertyOp53
 70
     0
102
RTVSPropertyOp54
 70
     0
102
RTVSPropertyOp55
 70
     1
102
RTVSPropertyOp56
 70
     0
102
RTVSPropertyOp57
 70
     0
102
RTVSPropertyOp58
 70
     1
102
RTVSPropertyOp59
 70
     1
102
RTVSPropertyOp60
 70
     1
102
RTVSPropertyOp61
 70
     1
102
RTVSPropertyOp62
 70
     1
  0
XRECORD
  5
1A58
102
{ACAD_REACTORS
330
1A57
102
}
330
1A57
100
AcDbXrecord
280
     1
102
RTVSPost2010Prop28
280
     0
102
RTVSPost2010PropOp28
 70
     1
102
RTVSPost2010Prop29
280
     1
102
RTVSPost2010PropOp29
 70
     1
102
RTVSPost2010Prop30
280
     1
102
RTVSPost2010PropOp30
 70
     1
102
RTVSPost2010Prop31
280
     0
102
RTVSPost2010PropOp31
 70
     1
102
RTVSPost2010Prop32
280
     0
102
RTVSPost2010PropOp32
 70
     1
102
RTVSPost2010Prop33
280
     0
102
RTVSPost2010PropOp33
 70
     1
102
RTVSPost2010Prop34
280
     0
102
RTVSPost2010PropOp34
 70
     1
102
RTVSPost2010Prop35
280
     0
102
RTVSPost2010PropOp35
 70
     1
102
RTVSPost2010Prop36
280
     0
102
RTVSPost2010PropOp36
 70
     1
102
RTVSPost2010Prop37
 90
       50
102
RTVSPost2010PropOp37
 70
     1
102
RTVSPost2010Prop38
140
0.0
102
RTVSPost2010PropOp38
 70
     1
102
RTVSPost2010Prop39
140
1.0
102
RTVSPost2010PropOp39
 70
     1
102
RTVSPost2010Prop40
 90
        0
102
RTVSPost2010PropOp40
 70
     1
102
RTVSPost2010Prop41ColorIndex
 90
       18
102
RTVSPost2010Prop41ColorRGB
 90
        0
102
RTVSPost2010PropOp41
 70
     1
102
RTVSPost2010Prop42
 90
       50
102
RTVSPost2010PropOp42
 70
     1
102
RTVSPost2010Prop43
 90
        3
102
RTVSPost2010PropOp43
 70
     1
102
RTVSPost2010Prop44ColorIndex
 90
        5
102
RTVSPost2010Prop44ColorRGB
 90
      255
102
RTVSPost2010PropOp44
 70
     1
102
RTVSPost2010Prop45
280
     0
102
RTVSPost2010PropOp45
 70
     1
102
RTVSPost2010Prop46
 90
       50
102
RTVSPost2010PropOp46
 70
     1
102
RTVSPost2010Prop47
 90
       50
102
RTVSPost2010PropOp47
 70
     1
102
RTVSPost2010Prop48
 90
       50
102
RTVSPost2010PropOp48
 70
     1
102
RTVSPost2010Prop49
280
     0
102
RTVSPost2010PropOp49
 70
     1
102
RTVSPost2010Prop50
 90
       50
102
RTVSPost2010PropOp50
 70
     1
102
RTVSPost2010Prop51ColorIndex
 90
      256
102
RTVSPost2010Prop51ColorRGB
 90
-16777216
102
RTVSPost2010PropOp51
 70
     0
102
RTVSPost2010Prop52
140
1.0
102
RTVSPost2010PropOp52
 70
     0
102
RTVSPost2010Prop53
 90
        2
102
RTVSPost2010PropOp53
 70
     1
102
RTVSPost2010Prop54
  1
strokes_ogs.tif
102
RTVSPost2010PropOp54
 70
     1
102
RTVSPost2010Prop55
280
     0
102
RTVSPost2010PropOp55
 70
     1
102
RTVSPost2010Prop56
140
1.0
102
RTVSPost2010PropOp56
 70
     1
102
RTVSPost2010Prop57
140
1.0
102
RTVSPost2010PropOp57
 70
     1
102
RTVSPropertyOp0
 70
     1
102
RTVSPropertyOp1
 70
     1
102
RTVSPropertyOp2
 70
     1
102
RTVSPropertyOp3
 70
     1
102
RTVSPropertyOp4
 70
     1
102
RTVSPropertyOp5
 70
     1
102
RTVSPropertyOp6
 70
     1
102
RTVSPropertyOp7
 70
     1
102
RTVSPropertyOp8
 70
     1
102
RTVSPropertyOp9
 70
     1
102
RTVSPropertyOp10
 70
     1
102
RTVSPropertyOp11
 70
     1
102
RTVSPropertyOp12
 70
     1
102
RTVSPropertyOp13
 70
     1
102
RTVSPropertyOp14
 70
     1
102
RTVSPropertyOp15
 70
     1
102
RTVSPropertyOp16
 70
     1
102
RTVSPropertyOp17
 70
     1
102
RTVSPropertyOp18
 70
     1
102
RTVSPropertyOp19
 70
     1
102
RTVSPropertyOp20
 70
     1
102
RTVSPropertyOp21
 70
     1
102
RTVSPropertyOp22
 70
     1
102
RTVSPropertyOp23
 70
     1
102
RTVSPropertyOp24
 70
     1
102
RTVSPropertyOp25
 70
     1
102
RTVSPropertyOp26
 70
     1
102
RTVSPropertyOp27
 70
     1
102
RTVSPropertyOp28
 70
     1
102
RTVSPropertyOp29
 70
     1
102
RTVSPropertyOp30
 70
     1
102
RTVSPropertyOp31
 70
     1
102
RTVSPropertyOp32
 70
     1
102
RTVSPropertyOp33
 70
     1
102
RTVSPropertyOp34
 70
     1
102
RTVSPropertyOp35
 70
     1
102
RTVSPropertyOp36
 70
     1
102
RTVSPropertyOp37
 70
     1
102
RTVSPropertyOp38
 70
     1
102
RTVSPropertyOp39
 70
     1
102
RTVSPropertyOp40
 70
     1
102
RTVSPropertyOp41
 70
     1
102
RTVSPropertyOp42
 70
     1
102
RTVSPropertyOp43
 70
     1
102
RTVSPropertyOp44
 70
     1
102
RTVSPropertyOp45
 70
     1
102
RTVSPropertyOp46
 70
     1
102
RTVSPropertyOp47
 70
     1
102
RTVSPropertyOp48
 70
     1
102
RTVSPropertyOp49
 70
     1
102
RTVSPropertyOp50
 70
     1
102
RTVSPropertyOp51
 70
     0
102
RTVSPropertyOp52
 70
     0
102
RTVSPropertyOp53
 70
     1
102
RTVSPropertyOp54
 70
     1
102
RTVSPropertyOp55
 70
     1
102
RTVSPropertyOp56
 70
     1
102
RTVSPropertyOp57
 70
     1
102
RTVSPropertyOp58
 70
     1
102
RTVSPropertyOp59
 70
     1
102
RTVSPropertyOp60
 70
     1
102
RTVSPropertyOp61
 70
     1
102
RTVSPropertyOp62
 70
     1
  0
XRECORD
  5
1A3C
102
{ACAD_REACTORS
330
1A3B
102
}
330
1A3B
100
AcDbXrecord
280
     1
102
RTVSPost2010Prop28
280
     0
102
RTVSPost2010PropOp28
 70
     1
102
RTVSPost2010Prop29
280
     1
102
RTVSPost2010PropOp29
 70
     1
102
RTVSPost2010Prop30
280
     1
102
RTVSPost2010PropOp30
 70
     1
102
RTVSPost2010Prop31
280
     0
102
RTVSPost2010PropOp31
 70
     1
102
RTVSPost2010Prop32
280
     0
102
RTVSPost2010PropOp32
 70
     1
102
RTVSPost2010Prop33
280
     0
102
RTVSPost2010PropOp33
 70
     1
102
RTVSPost2010Prop34
280
     0
102
RTVSPost2010PropOp34
 70
     1
102
RTVSPost2010Prop35
280
     0
102
RTVSPost2010PropOp35
 70
     1
102
RTVSPost2010Prop36
280
     0
102
RTVSPost2010PropOp36
 70
     1
102
RTVSPost2010Prop37
 90
       50
102
RTVSPost2010PropOp37
 70
     1
102
RTVSPost2010Prop38
140
0.0
102
RTVSPost2010PropOp38
 70
     1
102
RTVSPost2010Prop39
140
1.0
102
RTVSPost2010PropOp39
 70
     1
102
RTVSPost2010Prop40
 90
        0
102
RTVSPost2010PropOp40
 70
     1
102
RTVSPost2010Prop41ColorIndex
 90
       18
102
RTVSPost2010Prop41ColorRGB
 90
        0
102
RTVSPost2010PropOp41
 70
     1
102
RTVSPost2010Prop42
 90
       50
102
RTVSPost2010PropOp42
 70
     1
102
RTVSPost2010Prop43
 90
        3
102
RTVSPost2010PropOp43
 70
     1
102
RTVSPost2010Prop44ColorIndex
 90
        5
102
RTVSPost2010Prop44ColorRGB
 90
      255
102
RTVSPost2010PropOp44
 70
     1
102
RTVSPost2010Prop45
280
     0
102
RTVSPost2010PropOp45
 70
     1
102
RTVSPost2010Prop46
 90
       50
102
RTVSPost2010PropOp46
 70
     1
102
RTVSPost2010Prop47
 90
       50
102
RTVSPost2010PropOp47
 70
     1
102
RTVSPost2010Prop48
 90
       50
102
RTVSPost2010PropOp48
 70
     1
102
RTVSPost2010Prop49
280
     0
102
RTVSPost2010PropOp49
 70
     1
102
RTVSPost2010Prop50
 90
       50
102
RTVSPost2010PropOp50
 70
     1
102
RTVSPost2010Prop51ColorIndex
 90
      256
102
RTVSPost2010Prop51ColorRGB
 90
-16777216
102
RTVSPost2010PropOp51
 70
     0
102
RTVSPost2010Prop52
140
1.0
102
RTVSPost2010PropOp52
 70
     0
102
RTVSPost2010Prop53
 90
        2
102
RTVSPost2010PropOp53
 70
     1
102
RTVSPost2010Prop54
  1
strokes_ogs.tif
102
RTVSPost2010PropOp54
 70
     1
102
RTVSPost2010Prop55
280
     0
102
RTVSPost2010PropOp55
 70
     1
102
RTVSPost2010Prop56
140
1.0
102
RTVSPost2010PropOp56
 70
     1
102
RTVSPost2010Prop57
140
1.0
102
RTVSPost2010PropOp57
 70
     1
102
RTVSPropertyOp0
 70
     1
102
RTVSPropertyOp1
 70
     1
102
RTVSPropertyOp2
 70
     1
102
RTVSPropertyOp3
 70
     1
102
RTVSPropertyOp4
 70
     1
102
RTVSPropertyOp5
 70
     1
102
RTVSPropertyOp6
 70
     1
102
RTVSPropertyOp7
 70
     1
102
RTVSPropertyOp8
 70
     1
102
RTVSPropertyOp9
 70
     1
102
RTVSPropertyOp10
 70
     1
102
RTVSPropertyOp11
 70
     1
102
RTVSPropertyOp12
 70
     1
102
RTVSPropertyOp13
 70
     1
102
RTVSPropertyOp14
 70
     1
102
RTVSPropertyOp15
 70
     1
102
RTVSPropertyOp16
 70
     1
102
RTVSPropertyOp17
 70
     1
102
RTVSPropertyOp18
 70
     1
102
RTVSPropertyOp19
 70
     1
102
RTVSPropertyOp20
 70
     1
102
RTVSPropertyOp21
 70
     1
102
RTVSPropertyOp22
 70
     1
102
RTVSPropertyOp23
 70
     1
102
RTVSPropertyOp24
 70
     1
102
RTVSPropertyOp25
 70
     1
102
RTVSPropertyOp26
 70
     1
102
RTVSPropertyOp27
 70
     1
102
RTVSPropertyOp28
 70
     1
102
RTVSPropertyOp29
 70
     1
102
RTVSPropertyOp30
 70
     1
102
RTVSPropertyOp31
 70
     1
102
RTVSPropertyOp32
 70
     1
102
RTVSPropertyOp33
 70
     1
102
RTVSPropertyOp34
 70
     1
102
RTVSPropertyOp35
 70
     1
102
RTVSPropertyOp36
 70
     1
102
RTVSPropertyOp37
 70
     1
102
RTVSPropertyOp38
 70
     1
102
RTVSPropertyOp39
 70
     1
102
RTVSPropertyOp40
 70
     1
102
RTVSPropertyOp41
 70
     1
102
RTVSPropertyOp42
 70
     1
102
RTVSPropertyOp43
 70
     1
102
RTVSPropertyOp44
 70
     1
102
RTVSPropertyOp45
 70
     1
102
RTVSPropertyOp46
 70
     1
102
RTVSPropertyOp47
 70
     1
102
RTVSPropertyOp48
 70
     1
102
RTVSPropertyOp49
 70
     1
102
RTVSPropertyOp50
 70
     1
102
RTVSPropertyOp51
 70
     0
102
RTVSPropertyOp52
 70
     0
102
RTVSPropertyOp53
 70
     1
102
RTVSPropertyOp54
 70
     1
102
RTVSPropertyOp55
 70
     1
102
RTVSPropertyOp56
 70
     1
102
RTVSPropertyOp57
 70
     1
102
RTVSPropertyOp58
 70
     1
102
RTVSPropertyOp59
 70
     1
102
RTVSPropertyOp60
 70
     1
102
RTVSPropertyOp61
 70
     1
102
RTVSPropertyOp62
 70
     1
  0
XRECORD
  5
1A3E
102
{ACAD_REACTORS
330
1A3D
102
}
330
1A3D
100
AcDbXrecord
280
     1
102
RTVSPost2010Prop28
280
     0
102
RTVSPost2010PropOp28
 70
     1
102
RTVSPost2010Prop29
280
     1
102
RTVSPost2010PropOp29
 70
     1
102
RTVSPost2010Prop30
280
     1
102
RTVSPost2010PropOp30
 70
     1
102
RTVSPost2010Prop31
280
     0
102
RTVSPost2010PropOp31
 70
     1
102
RTVSPost2010Prop32
280
     0
102
RTVSPost2010PropOp32
 70
     1
102
RTVSPost2010Prop33
280
     0
102
RTVSPost2010PropOp33
 70
     1
102
RTVSPost2010Prop34
280
     0
102
RTVSPost2010PropOp34
 70
     1
102
RTVSPost2010Prop35
280
     0
102
RTVSPost2010PropOp35
 70
     1
102
RTVSPost2010Prop36
280
     0
102
RTVSPost2010PropOp36
 70
     1
102
RTVSPost2010Prop37
 90
       50
102
RTVSPost2010PropOp37
 70
     1
102
RTVSPost2010Prop38
140
0.0
102
RTVSPost2010PropOp38
 70
     1
102
RTVSPost2010Prop39
140
1.0
102
RTVSPost2010PropOp39
 70
     1
102
RTVSPost2010Prop40
 90
        0
102
RTVSPost2010PropOp40
 70
     1
102
RTVSPost2010Prop41ColorIndex
 90
       18
102
RTVSPost2010Prop41ColorRGB
 90
        0
102
RTVSPost2010PropOp41
 70
     1
102
RTVSPost2010Prop42
 90
       50
102
RTVSPost2010PropOp42
 70
     1
102
RTVSPost2010Prop43
 90
        3
102
RTVSPost2010PropOp43
 70
     1
102
RTVSPost2010Prop44ColorIndex
 90
        5
102
RTVSPost2010Prop44ColorRGB
 90
      255
102
RTVSPost2010PropOp44
 70
     1
102
RTVSPost2010Prop45
280
     0
102
RTVSPost2010PropOp45
 70
     1
102
RTVSPost2010Prop46
 90
       50
102
RTVSPost2010PropOp46
 70
     1
102
RTVSPost2010Prop47
 90
       50
102
RTVSPost2010PropOp47
 70
     1
102
RTVSPost2010Prop48
 90
       50
102
RTVSPost2010PropOp48
 70
     1
102
RTVSPost2010Prop49
280
     0
102
RTVSPost2010PropOp49
 70
     1
102
RTVSPost2010Prop50
 90
       50
102
RTVSPost2010PropOp50
 70
     1
102
RTVSPost2010Prop51ColorIndex
 90
      256
102
RTVSPost2010Prop51ColorRGB
 90
-16777216
102
RTVSPost2010PropOp51
 70
     0
102
RTVSPost2010Prop52
140
1.0
102
RTVSPost2010PropOp52
 70
     0
102
RTVSPost2010Prop53
 90
        2
102
RTVSPost2010PropOp53
 70
     1
102
RTVSPost2010Prop54
  1
strokes_ogs.tif
102
RTVSPost2010PropOp54
 70
     1
102
RTVSPost2010Prop55
280
     0
102
RTVSPost2010PropOp55
 70
     1
102
RTVSPost2010Prop56
140
1.0
102
RTVSPost2010PropOp56
 70
     1
102
RTVSPost2010Prop57
140
1.0
102
RTVSPost2010PropOp57
 70
     1
102
RTVSPropertyOp0
 70
     1
102
RTVSPropertyOp1
 70
     1
102
RTVSPropertyOp2
 70
     1
102
RTVSPropertyOp3
 70
     1
102
RTVSPropertyOp4
 70
     1
102
RTVSPropertyOp5
 70
     1
102
RTVSPropertyOp6
 70
     1
102
RTVSPropertyOp7
 70
     1
102
RTVSPropertyOp8
 70
     1
102
RTVSPropertyOp9
 70
     1
102
RTVSPropertyOp10
 70
     1
102
RTVSPropertyOp11
 70
     1
102
RTVSPropertyOp12
 70
     1
102
RTVSPropertyOp13
 70
     1
102
RTVSPropertyOp14
 70
     1
102
RTVSPropertyOp15
 70
     1
102
RTVSPropertyOp16
 70
     1
102
RTVSPropertyOp17
 70
     1
102
RTVSPropertyOp18
 70
     1
102
RTVSPropertyOp19
 70
     1
102
RTVSPropertyOp20
 70
     1
102
RTVSPropertyOp21
 70
     1
102
RTVSPropertyOp22
 70
     1
102
RTVSPropertyOp23
 70
     1
102
RTVSPropertyOp24
 70
     1
102
RTVSPropertyOp25
 70
     1
102
RTVSPropertyOp26
 70
     1
102
RTVSPropertyOp27
 70
     1
102
RTVSPropertyOp28
 70
     1
102
RTVSPropertyOp29
 70
     1
102
RTVSPropertyOp30
 70
     1
102
RTVSPropertyOp31
 70
     1
102
RTVSPropertyOp32
 70
     1
102
RTVSPropertyOp33
 70
     1
102
RTVSPropertyOp34
 70
     1
102
RTVSPropertyOp35
 70
     1
102
RTVSPropertyOp36
 70
     1
102
RTVSPropertyOp37
 70
     1
102
RTVSPropertyOp38
 70
     1
102
RTVSPropertyOp39
 70
     1
102
RTVSPropertyOp40
 70
     1
102
RTVSPropertyOp41
 70
     1
102
RTVSPropertyOp42
 70
     1
102
RTVSPropertyOp43
 70
     1
102
RTVSPropertyOp44
 70
     1
102
RTVSPropertyOp45
 70
     1
102
RTVSPropertyOp46
 70
     1
102
RTVSPropertyOp47
 70
     1
102
RTVSPropertyOp48
 70
     1
102
RTVSPropertyOp49
 70
     1
102
RTVSPropertyOp50
 70
     1
102
RTVSPropertyOp51
 70
     0
102
RTVSPropertyOp52
 70
     0
102
RTVSPropertyOp53
 70
     1
102
RTVSPropertyOp54
 70
     1
102
RTVSPropertyOp55
 70
     1
102
RTVSPropertyOp56
 70
     1
102
RTVSPropertyOp57
 70
     1
102
RTVSPropertyOp58
 70
     1
102
RTVSPropertyOp59
 70
     1
102
RTVSPropertyOp60
 70
     1
102
RTVSPropertyOp61
 70
     1
102
RTVSPropertyOp62
 70
     1
  0
XRECORD
  5
1A40
102
{ACAD_REACTORS
330
1A3F
102
}
330
1A3F
100
AcDbXrecord
280
     1
102
RTVSPost2010Prop28
280
     0
102
RTVSPost2010PropOp28
 70
     1
102
RTVSPost2010Prop29
280
     1
102
RTVSPost2010PropOp29
 70
     1
102
RTVSPost2010Prop30
280
     1
102
RTVSPost2010PropOp30
 70
     1
102
RTVSPost2010Prop31
280
     0
102
RTVSPost2010PropOp31
 70
     1
102
RTVSPost2010Prop32
280
     0
102
RTVSPost2010PropOp32
 70
     1
102
RTVSPost2010Prop33
280
     0
102
RTVSPost2010PropOp33
 70
     1
102
RTVSPost2010Prop34
280
     0
102
RTVSPost2010PropOp34
 70
     1
102
RTVSPost2010Prop35
280
     0
102
RTVSPost2010PropOp35
 70
     1
102
RTVSPost2010Prop36
280
     0
102
RTVSPost2010PropOp36
 70
     1
102
RTVSPost2010Prop37
 90
       50
102
RTVSPost2010PropOp37
 70
     1
102
RTVSPost2010Prop38
140
0.0
102
RTVSPost2010PropOp38
 70
     1
102
RTVSPost2010Prop39
140
1.0
102
RTVSPost2010PropOp39
 70
     1
102
RTVSPost2010Prop40
 90
        0
102
RTVSPost2010PropOp40
 70
     1
102
RTVSPost2010Prop41ColorIndex
 90
       18
102
RTVSPost2010Prop41ColorRGB
 90
        0
102
RTVSPost2010PropOp41
 70
     1
102
RTVSPost2010Prop42
 90
       50
102
RTVSPost2010PropOp42
 70
     1
102
RTVSPost2010Prop43
 90
        3
102
RTVSPost2010PropOp43
 70
     1
102
RTVSPost2010Prop44ColorIndex
 90
        5
102
RTVSPost2010Prop44ColorRGB
 90
      255
102
RTVSPost2010PropOp44
 70
     1
102
RTVSPost2010Prop45
280
     0
102
RTVSPost2010PropOp45
 70
     1
102
RTVSPost2010Prop46
 90
       50
102
RTVSPost2010PropOp46
 70
     1
102
RTVSPost2010Prop47
 90
       50
102
RTVSPost2010PropOp47
 70
     1
102
RTVSPost2010Prop48
 90
       50
102
RTVSPost2010PropOp48
 70
     1
102
RTVSPost2010Prop49
280
     0
102
RTVSPost2010PropOp49
 70
     1
102
RTVSPost2010Prop50
 90
       50
102
RTVSPost2010PropOp50
 70
     1
102
RTVSPost2010Prop51ColorIndex
 90
      256
102
RTVSPost2010Prop51ColorRGB
 90
-16777216
102
RTVSPost2010PropOp51
 70
     0
102
RTVSPost2010Prop52
140
1.0
102
RTVSPost2010PropOp52
 70
     0
102
RTVSPost2010Prop53
 90
        2
102
RTVSPost2010PropOp53
 70
     1
102
RTVSPost2010Prop54
  1
strokes_ogs.tif
102
RTVSPost2010PropOp54
 70
     1
102
RTVSPost2010Prop55
280
     0
102
RTVSPost2010PropOp55
 70
     1
102
RTVSPost2010Prop56
140
1.0
102
RTVSPost2010PropOp56
 70
     1
102
RTVSPost2010Prop57
140
1.0
102
RTVSPost2010PropOp57
 70
     1
102
RTVSPropertyOp0
 70
     1
102
RTVSPropertyOp1
 70
     1
102
RTVSPropertyOp2
 70
     1
102
RTVSPropertyOp3
 70
     1
102
RTVSPropertyOp4
 70
     1
102
RTVSPropertyOp5
 70
     1
102
RTVSPropertyOp6
 70
     1
102
RTVSPropertyOp7
 70
     1
102
RTVSPropertyOp8
 70
     1
102
RTVSPropertyOp9
 70
     1
102
RTVSPropertyOp10
 70
     1
102
RTVSPropertyOp11
 70
     1
102
RTVSPropertyOp12
 70
     1
102
RTVSPropertyOp13
 70
     1
102
RTVSPropertyOp14
 70
     1
102
RTVSPropertyOp15
 70
     1
102
RTVSPropertyOp16
 70
     1
102
RTVSPropertyOp17
 70
     1
102
RTVSPropertyOp18
 70
     1
102
RTVSPropertyOp19
 70
     1
102
RTVSPropertyOp20
 70
     1
102
RTVSPropertyOp21
 70
     1
102
RTVSPropertyOp22
 70
     1
102
RTVSPropertyOp23
 70
     1
102
RTVSPropertyOp24
 70
     1
102
RTVSPropertyOp25
 70
     1
102
RTVSPropertyOp26
 70
     1
102
RTVSPropertyOp27
 70
     1
102
RTVSPropertyOp28
 70
     1
102
RTVSPropertyOp29
 70
     1
102
RTVSPropertyOp30
 70
     1
102
RTVSPropertyOp31
 70
     1
102
RTVSPropertyOp32
 70
     1
102
RTVSPropertyOp33
 70
     1
102
RTVSPropertyOp34
 70
     1
102
RTVSPropertyOp35
 70
     1
102
RTVSPropertyOp36
 70
     1
102
RTVSPropertyOp37
 70
     1
102
RTVSPropertyOp38
 70
     1
102
RTVSPropertyOp39
 70
     1
102
RTVSPropertyOp40
 70
     1
102
RTVSPropertyOp41
 70
     1
102
RTVSPropertyOp42
 70
     1
102
RTVSPropertyOp43
 70
     1
102
RTVSPropertyOp44
 70
     1
102
RTVSPropertyOp45
 70
     1
102
RTVSPropertyOp46
 70
     1
102
RTVSPropertyOp47
 70
     1
102
RTVSPropertyOp48
 70
     1
102
RTVSPropertyOp49
 70
     1
102
RTVSPropertyOp50
 70
     1
102
RTVSPropertyOp51
 70
     0
102
RTVSPropertyOp52
 70
     0
102
RTVSPropertyOp53
 70
     1
102
RTVSPropertyOp54
 70
     1
102
RTVSPropertyOp55
 70
     1
102
RTVSPropertyOp56
 70
     1
102
RTVSPropertyOp57
 70
     1
102
RTVSPropertyOp58
 70
     1
102
RTVSPropertyOp59
 70
     1
102
RTVSPropertyOp60
 70
     1
102
RTVSPropertyOp61
 70
     1
102
RTVSPropertyOp62
 70
     1
  0
XRECORD
  5
1A42
102
{ACAD_REACTORS
330
1A41
102
}
330
1A41
100
AcDbXrecord
280
     1
102
RTVSPost2010Prop28
280
     0
102
RTVSPost2010PropOp28
 70
     1
102
RTVSPost2010Prop29
280
     1
102
RTVSPost2010PropOp29
 70
     1
102
RTVSPost2010Prop30
280
     1
102
RTVSPost2010PropOp30
 70
     1
102
RTVSPost2010Prop31
280
     0
102
RTVSPost2010PropOp31
 70
     1
102
RTVSPost2010Prop32
280
     0
102
RTVSPost2010PropOp32
 70
     1
102
RTVSPost2010Prop33
280
     0
102
RTVSPost2010PropOp33
 70
     1
102
RTVSPost2010Prop34
280
     0
102
RTVSPost2010PropOp34
 70
     1
102
RTVSPost2010Prop35
280
     0
102
RTVSPost2010PropOp35
 70
     1
102
RTVSPost2010Prop36
280
     0
102
RTVSPost2010PropOp36
 70
     1
102
RTVSPost2010Prop37
 90
       50
102
RTVSPost2010PropOp37
 70
     1
102
RTVSPost2010Prop38
140
0.0
102
RTVSPost2010PropOp38
 70
     1
102
RTVSPost2010Prop39
140
1.0
102
RTVSPost2010PropOp39
 70
     1
102
RTVSPost2010Prop40
 90
        0
102
RTVSPost2010PropOp40
 70
     1
102
RTVSPost2010Prop41ColorIndex
 90
       18
102
RTVSPost2010Prop41ColorRGB
 90
        0
102
RTVSPost2010PropOp41
 70
     1
102
RTVSPost2010Prop42
 90
       50
102
RTVSPost2010PropOp42
 70
     1
102
RTVSPost2010Prop43
 90
        3
102
RTVSPost2010PropOp43
 70
     1
102
RTVSPost2010Prop44ColorIndex
 90
        5
102
RTVSPost2010Prop44ColorRGB
 90
      255
102
RTVSPost2010PropOp44
 70
     1
102
RTVSPost2010Prop45
280
     0
102
RTVSPost2010PropOp45
 70
     1
102
RTVSPost2010Prop46
 90
       50
102
RTVSPost2010PropOp46
 70
     1
102
RTVSPost2010Prop47
 90
       50
102
RTVSPost2010PropOp47
 70
     1
102
RTVSPost2010Prop48
 90
       50
102
RTVSPost2010PropOp48
 70
     1
102
RTVSPost2010Prop49
280
     0
102
RTVSPost2010PropOp49
 70
     1
102
RTVSPost2010Prop50
 90
       50
102
RTVSPost2010PropOp50
 70
     1
102
RTVSPost2010Prop51ColorIndex
 90
      256
102
RTVSPost2010Prop51ColorRGB
 90
-16777216
102
RTVSPost2010PropOp51
 70
     0
102
RTVSPost2010Prop52
140
1.0
102
RTVSPost2010PropOp52
 70
     0
102
RTVSPost2010Prop53
 90
        2
102
RTVSPost2010PropOp53
 70
     1
102
RTVSPost2010Prop54
  1
strokes_ogs.tif
102
RTVSPost2010PropOp54
 70
     1
102
RTVSPost2010Prop55
280
     0
102
RTVSPost2010PropOp55
 70
     1
102
RTVSPost2010Prop56
140
1.0
102
RTVSPost2010PropOp56
 70
     1
102
RTVSPost2010Prop57
140
1.0
102
RTVSPost2010PropOp57
 70
     1
102
RTVSPropertyOp0
 70
     1
102
RTVSPropertyOp1
 70
     1
102
RTVSPropertyOp2
 70
     1
102
RTVSPropertyOp3
 70
     1
102
RTVSPropertyOp4
 70
     1
102
RTVSPropertyOp5
 70
     1
102
RTVSPropertyOp6
 70
     1
102
RTVSPropertyOp7
 70
     1
102
RTVSPropertyOp8
 70
     1
102
RTVSPropertyOp9
 70
     1
102
RTVSPropertyOp10
 70
     1
102
RTVSPropertyOp11
 70
     1
102
RTVSPropertyOp12
 70
     1
102
RTVSPropertyOp13
 70
     1
102
RTVSPropertyOp14
 70
     1
102
RTVSPropertyOp15
 70
     1
102
RTVSPropertyOp16
 70
     1
102
RTVSPropertyOp17
 70
     1
102
RTVSPropertyOp18
 70
     1
102
RTVSPropertyOp19
 70
     1
102
RTVSPropertyOp20
 70
     1
102
RTVSPropertyOp21
 70
     1
102
RTVSPropertyOp22
 70
     1
102
RTVSPropertyOp23
 70
     1
102
RTVSPropertyOp24
 70
     1
102
RTVSPropertyOp25
 70
     1
102
RTVSPropertyOp26
 70
     1
102
RTVSPropertyOp27
 70
     1
102
RTVSPropertyOp28
 70
     1
102
RTVSPropertyOp29
 70
     1
102
RTVSPropertyOp30
 70
     1
102
RTVSPropertyOp31
 70
     1
102
RTVSPropertyOp32
 70
     1
102
RTVSPropertyOp33
 70
     1
102
RTVSPropertyOp34
 70
     1
102
RTVSPropertyOp35
 70
     1
102
RTVSPropertyOp36
 70
     1
102
RTVSPropertyOp37
 70
     1
102
RTVSPropertyOp38
 70
     1
102
RTVSPropertyOp39
 70
     1
102
RTVSPropertyOp40
 70
     1
102
RTVSPropertyOp41
 70
     1
102
RTVSPropertyOp42
 70
     1
102
RTVSPropertyOp43
 70
     1
102
RTVSPropertyOp44
 70
     1
102
RTVSPropertyOp45
 70
     1
102
RTVSPropertyOp46
 70
     1
102
RTVSPropertyOp47
 70
     1
102
RTVSPropertyOp48
 70
     1
102
RTVSPropertyOp49
 70
     1
102
RTVSPropertyOp50
 70
     1
102
RTVSPropertyOp51
 70
     0
102
RTVSPropertyOp52
 70
     0
102
RTVSPropertyOp53
 70
     1
102
RTVSPropertyOp54
 70
     1
102
RTVSPropertyOp55
 70
     1
102
RTVSPropertyOp56
 70
     1
102
RTVSPropertyOp57
 70
     1
102
RTVSPropertyOp58
 70
     1
102
RTVSPropertyOp59
 70
     1
102
RTVSPropertyOp60
 70
     1
102
RTVSPropertyOp61
 70
     1
102
RTVSPropertyOp62
 70
     1
  0
XRECORD
  5
1A4A
102
{ACAD_REACTORS
330
1A49
102
}
330
1A49
100
AcDbXrecord
280
     1
102
RTVSPost2010Prop28
280
     0
102
RTVSPost2010PropOp28
 70
     1
102
RTVSPost2010Prop29
280
     1
102
RTVSPost2010PropOp29
 70
     1
102
RTVSPost2010Prop30
280
     1
102
RTVSPost2010PropOp30
 70
     1
102
RTVSPost2010Prop31
280
     0
102
RTVSPost2010PropOp31
 70
     1
102
RTVSPost2010Prop32
280
     0
102
RTVSPost2010PropOp32
 70
     1
102
RTVSPost2010Prop33
280
     0
102
RTVSPost2010PropOp33
 70
     1
102
RTVSPost2010Prop34
280
     0
102
RTVSPost2010PropOp34
 70
     1
102
RTVSPost2010Prop35
280
     0
102
RTVSPost2010PropOp35
 70
     1
102
RTVSPost2010Prop36
280
     0
102
RTVSPost2010PropOp36
 70
     1
102
RTVSPost2010Prop37
 90
       50
102
RTVSPost2010PropOp37
 70
     1
102
RTVSPost2010Prop38
140
0.0
102
RTVSPost2010PropOp38
 70
     1
102
RTVSPost2010Prop39
140
1.0
102
RTVSPost2010PropOp39
 70
     1
102
RTVSPost2010Prop40
 90
        0
102
RTVSPost2010PropOp40
 70
     1
102
RTVSPost2010Prop41ColorIndex
 90
       18
102
RTVSPost2010Prop41ColorRGB
 90
        0
102
RTVSPost2010PropOp41
 70
     1
102
RTVSPost2010Prop42
 90
       50
102
RTVSPost2010PropOp42
 70
     1
102
RTVSPost2010Prop43
 90
        3
102
RTVSPost2010PropOp43
 70
     1
102
RTVSPost2010Prop44ColorIndex
 90
        5
102
RTVSPost2010Prop44ColorRGB
 90
      255
102
RTVSPost2010PropOp44
 70
     1
102
RTVSPost2010Prop45
280
     0
102
RTVSPost2010PropOp45
 70
     1
102
RTVSPost2010Prop46
 90
       50
102
RTVSPost2010PropOp46
 70
     1
102
RTVSPost2010Prop47
 90
       50
102
RTVSPost2010PropOp47
 70
     1
102
RTVSPost2010Prop48
 90
       50
102
RTVSPost2010PropOp48
 70
     1
102
RTVSPost2010Prop49
280
     0
102
RTVSPost2010PropOp49
 70
     1
102
RTVSPost2010Prop50
 90
       50
102
RTVSPost2010PropOp50
 70
     1
102
RTVSPost2010Prop51ColorIndex
 90
      256
102
RTVSPost2010Prop51ColorRGB
 90
-16777216
102
RTVSPost2010PropOp51
 70
     0
102
RTVSPost2010Prop52
140
1.0
102
RTVSPost2010PropOp52
 70
     0
102
RTVSPost2010Prop53
 90
        2
102
RTVSPost2010PropOp53
 70
     1
102
RTVSPost2010Prop54
  1
strokes_ogs.tif
102
RTVSPost2010PropOp54
 70
     1
102
RTVSPost2010Prop55
280
     0
102
RTVSPost2010PropOp55
 70
     1
102
RTVSPost2010Prop56
140
1.0
102
RTVSPost2010PropOp56
 70
     1
102
RTVSPost2010Prop57
140
1.0
102
RTVSPost2010PropOp57
 70
     1
102
RTVSPropertyOp0
 70
     1
102
RTVSPropertyOp1
 70
     1
102
RTVSPropertyOp2
 70
     1
102
RTVSPropertyOp3
 70
     1
102
RTVSPropertyOp4
 70
     1
102
RTVSPropertyOp5
 70
     1
102
RTVSPropertyOp6
 70
     1
102
RTVSPropertyOp7
 70
     1
102
RTVSPropertyOp8
 70
     1
102
RTVSPropertyOp9
 70
     1
102
RTVSPropertyOp10
 70
     1
102
RTVSPropertyOp11
 70
     1
102
RTVSPropertyOp12
 70
     1
102
RTVSPropertyOp13
 70
     1
102
RTVSPropertyOp14
 70
     1
102
RTVSPropertyOp15
 70
     1
102
RTVSPropertyOp16
 70
     1
102
RTVSPropertyOp17
 70
     1
102
RTVSPropertyOp18
 70
     1
102
RTVSPropertyOp19
 70
     1
102
RTVSPropertyOp20
 70
     1
102
RTVSPropertyOp21
 70
     1
102
RTVSPropertyOp22
 70
     1
102
RTVSPropertyOp23
 70
     1
102
RTVSPropertyOp24
 70
     1
102
RTVSPropertyOp25
 70
     1
102
RTVSPropertyOp26
 70
     1
102
RTVSPropertyOp27
 70
     1
102
RTVSPropertyOp28
 70
     1
102
RTVSPropertyOp29
 70
     1
102
RTVSPropertyOp30
 70
     1
102
RTVSPropertyOp31
 70
     1
102
RTVSPropertyOp32
 70
     1
102
RTVSPropertyOp33
 70
     1
102
RTVSPropertyOp34
 70
     1
102
RTVSPropertyOp35
 70
     1
102
RTVSPropertyOp36
 70
     1
102
RTVSPropertyOp37
 70
     1
102
RTVSPropertyOp38
 70
     1
102
RTVSPropertyOp39
 70
     1
102
RTVSPropertyOp40
 70
     1
102
RTVSPropertyOp41
 70
     1
102
RTVSPropertyOp42
 70
     1
102
RTVSPropertyOp43
 70
     1
102
RTVSPropertyOp44
 70
     1
102
RTVSPropertyOp45
 70
     1
102
RTVSPropertyOp46
 70
     1
102
RTVSPropertyOp47
 70
     1
102
RTVSPropertyOp48
 70
     1
102
RTVSPropertyOp49
 70
     1
102
RTVSPropertyOp50
 70
     1
102
RTVSPropertyOp51
 70
     0
102
RTVSPropertyOp52
 70
     0
102
RTVSPropertyOp53
 70
     1
102
RTVSPropertyOp54
 70
     1
102
RTVSPropertyOp55
 70
     1
102
RTVSPropertyOp56
 70
     1
102
RTVSPropertyOp57
 70
     1
102
RTVSPropertyOp58
 70
     1
102
RTVSPropertyOp59
 70
     1
102
RTVSPropertyOp60
 70
     1
102
RTVSPropertyOp61
 70
     1
102
RTVSPropertyOp62
 70
     1
  0
XRECORD
  5
1A66
102
{ACAD_REACTORS
330
1A65
102
}
330
1A65
100
AcDbXrecord
280
     1
102
RTVSPost2010Prop28
280
     0
102
RTVSPost2010PropOp28
 70
     1
102
RTVSPost2010Prop29
280
     1
102
RTVSPost2010PropOp29
 70
     1
102
RTVSPost2010Prop30
280
     1
102
RTVSPost2010PropOp30
 70
     1
102
RTVSPost2010Prop31
280
     0
102
RTVSPost2010PropOp31
 70
     1
102
RTVSPost2010Prop32
280
     0
102
RTVSPost2010PropOp32
 70
     1
102
RTVSPost2010Prop33
280
     0
102
RTVSPost2010PropOp33
 70
     1
102
RTVSPost2010Prop34
280
     0
102
RTVSPost2010PropOp34
 70
     1
102
RTVSPost2010Prop35
280
     0
102
RTVSPost2010PropOp35
 70
     1
102
RTVSPost2010Prop36
280
     0
102
RTVSPost2010PropOp36
 70
     1
102
RTVSPost2010Prop37
 90
       50
102
RTVSPost2010PropOp37
 70
     0
102
RTVSPost2010Prop38
140
0.0
102
RTVSPost2010PropOp38
 70
     0
102
RTVSPost2010Prop39
140
1.0
102
RTVSPost2010PropOp39
 70
     0
102
RTVSPost2010Prop40
 90
        0
102
RTVSPost2010PropOp40
 70
     0
102
RTVSPost2010Prop41ColorIndex
 90
       18
102
RTVSPost2010Prop41ColorRGB
 90
        0
102
RTVSPost2010PropOp41
 70
     0
102
RTVSPost2010Prop42
 90
       50
102
RTVSPost2010PropOp42
 70
     0
102
RTVSPost2010Prop43
 90
        3
102
RTVSPost2010PropOp43
 70
     0
102
RTVSPost2010Prop44ColorIndex
 90
        5
102
RTVSPost2010Prop44ColorRGB
 90
      255
102
RTVSPost2010PropOp44
 70
     0
102
RTVSPost2010Prop45
280
     0
102
RTVSPost2010PropOp45
 70
     1
102
RTVSPost2010Prop46
 90
       50
102
RTVSPost2010PropOp46
 70
     0
102
RTVSPost2010Prop47
 90
       50
102
RTVSPost2010PropOp47
 70
     0
102
RTVSPost2010Prop48
 90
       50
102
RTVSPost2010PropOp48
 70
     0
102
RTVSPost2010Prop49
280
     0
102
RTVSPost2010PropOp49
 70
     1
102
RTVSPost2010Prop50
 90
       50
102
RTVSPost2010PropOp50
 70
     0
102
RTVSPost2010Prop51ColorIndex
 90
      256
102
RTVSPost2010Prop51ColorRGB
 90
-16777216
102
RTVSPost2010PropOp51
 70
     0
102
RTVSPost2010Prop52
140
1.0
102
RTVSPost2010PropOp52
 70
     0
102
RTVSPost2010Prop53
 90
        2
102
RTVSPost2010PropOp53
 70
     0
102
RTVSPost2010Prop54
  1
strokes_ogs.tif
102
RTVSPost2010PropOp54
 70
     0
102
RTVSPost2010Prop55
280
     0
102
RTVSPost2010PropOp55
 70
     1
102
RTVSPost2010Prop56
140
1.0
102
RTVSPost2010PropOp56
 70
     0
102
RTVSPost2010Prop57
140
1.0
102
RTVSPost2010PropOp57
 70
     0
102
RTVSPropertyOp0
 70
     0
102
RTVSPropertyOp1
 70
     0
102
RTVSPropertyOp2
 70
     0
102
RTVSPropertyOp3
 70
     0
102
RTVSPropertyOp4
 70
     0
102
RTVSPropertyOp5
 70
     0
102
RTVSPropertyOp6
 70
     0
102
RTVSPropertyOp7
 70
     0
102
RTVSPropertyOp8
 70
     0
102
RTVSPropertyOp9
 70
     0
102
RTVSPropertyOp10
 70
     0
102
RTVSPropertyOp11
 70
     0
102
RTVSPropertyOp12
 70
     0
102
RTVSPropertyOp13
 70
     0
102
RTVSPropertyOp14
 70
     2
102
RTVSPropertyOp15
 70
     0
102
RTVSPropertyOp16
 70
     0
102
RTVSPropertyOp17
 70
     0
102
RTVSPropertyOp18
 70
     0
102
RTVSPropertyOp19
 70
     0
102
RTVSPropertyOp20
 70
     0
102
RTVSPropertyOp21
 70
     0
102
RTVSPropertyOp22
 70
     0
102
RTVSPropertyOp23
 70
     0
102
RTVSPropertyOp24
 70
     0
102
RTVSPropertyOp25
 70
     0
102
RTVSPropertyOp26
 70
     0
102
RTVSPropertyOp27
 70
     0
102
RTVSPropertyOp28
 70
     1
102
RTVSPropertyOp29
 70
     1
102
RTVSPropertyOp30
 70
     1
102
RTVSPropertyOp31
 70
     1
102
RTVSPropertyOp32
 70
     1
102
RTVSPropertyOp33
 70
     1
102
RTVSPropertyOp34
 70
     1
102
RTVSPropertyOp35
 70
     1
102
RTVSPropertyOp36
 70
     1
102
RTVSPropertyOp37
 70
     0
102
RTVSPropertyOp38
 70
     0
102
RTVSPropertyOp39
 70
     0
102
RTVSPropertyOp40
 70
     0
102
RTVSPropertyOp41
 70
     0
102
RTVSPropertyOp42
 70
     0
102
RTVSPropertyOp43
 70
     0
102
RTVSPropertyOp44
 70
     0
102
RTVSPropertyOp45
 70
     1
102
RTVSPropertyOp46
 70
     0
102
RTVSPropertyOp47
 70
     0
102
RTVSPropertyOp48
 70
     0
102
RTVSPropertyOp49
 70
     1
102
RTVSPropertyOp50
 70
     0
102
RTVSPropertyOp51
 70
     0
102
RTVSPropertyOp52
 70
     0
102
RTVSPropertyOp53
 70
     0
102
RTVSPropertyOp54
 70
     0
102
RTVSPropertyOp55
 70
     1
102
RTVSPropertyOp56
 70
     0
102
RTVSPropertyOp57
 70
     0
102
RTVSPropertyOp58
 70
     1
102
RTVSPropertyOp59
 70
     1
102
RTVSPropertyOp60
 70
     1
102
RTVSPropertyOp61
 70
     1
102
RTVSPropertyOp62
 70
     1
  0
XRECORD
  5
1A56
102
{ACAD_REACTORS
330
1A55
102
}
330
1A55
100
AcDbXrecord
280
     1
102
RTVSPost2010Prop28
280
     0
102
RTVSPost2010PropOp28
 70
     1
102
RTVSPost2010Prop29
280
     1
102
RTVSPost2010PropOp29
 70
     1
102
RTVSPost2010Prop30
280
     1
102
RTVSPost2010PropOp30
 70
     1
102
RTVSPost2010Prop31
280
     0
102
RTVSPost2010PropOp31
 70
     1
102
RTVSPost2010Prop32
280
     0
102
RTVSPost2010PropOp32
 70
     1
102
RTVSPost2010Prop33
280
     0
102
RTVSPost2010PropOp33
 70
     1
102
RTVSPost2010Prop34
280
     0
102
RTVSPost2010PropOp34
 70
     1
102
RTVSPost2010Prop35
280
     0
102
RTVSPost2010PropOp35
 70
     1
102
RTVSPost2010Prop36
280
     0
102
RTVSPost2010PropOp36
 70
     1
102
RTVSPost2010Prop37
 90
       50
102
RTVSPost2010PropOp37
 70
     1
102
RTVSPost2010Prop38
140
0.0
102
RTVSPost2010PropOp38
 70
     1
102
RTVSPost2010Prop39
140
1.0
102
RTVSPost2010PropOp39
 70
     1
102
RTVSPost2010Prop40
 90
        0
102
RTVSPost2010PropOp40
 70
     1
102
RTVSPost2010Prop41ColorIndex
 90
       18
102
RTVSPost2010Prop41ColorRGB
 90
        0
102
RTVSPost2010PropOp41
 70
     1
102
RTVSPost2010Prop42
 90
       50
102
RTVSPost2010PropOp42
 70
     1
102
RTVSPost2010Prop43
 90
        3
102
RTVSPost2010PropOp43
 70
     1
102
RTVSPost2010Prop44ColorIndex
 90
        5
102
RTVSPost2010Prop44ColorRGB
 90
      255
102
RTVSPost2010PropOp44
 70
     1
102
RTVSPost2010Prop45
280
     0
102
RTVSPost2010PropOp45
 70
     1
102
RTVSPost2010Prop46
 90
       50
102
RTVSPost2010PropOp46
 70
     1
102
RTVSPost2010Prop47
 90
       50
102
RTVSPost2010PropOp47
 70
     1
102
RTVSPost2010Prop48
 90
       50
102
RTVSPost2010PropOp48
 70
     1
102
RTVSPost2010Prop49
280
     0
102
RTVSPost2010PropOp49
 70
     1
102
RTVSPost2010Prop50
 90
       50
102
RTVSPost2010PropOp50
 70
     1
102
RTVSPost2010Prop51ColorIndex
 90
      256
102
RTVSPost2010Prop51ColorRGB
 90
-16777216
102
RTVSPost2010PropOp51
 70
     0
102
RTVSPost2010Prop52
140
1.0
102
RTVSPost2010PropOp52
 70
     0
102
RTVSPost2010Prop53
 90
        2
102
RTVSPost2010PropOp53
 70
     1
102
RTVSPost2010Prop54
  1
strokes_ogs.tif
102
RTVSPost2010PropOp54
 70
     1
102
RTVSPost2010Prop55
280
     0
102
RTVSPost2010PropOp55
 70
     1
102
RTVSPost2010Prop56
140
1.0
102
RTVSPost2010PropOp56
 70
     1
102
RTVSPost2010Prop57
140
1.0
102
RTVSPost2010PropOp57
 70
     1
102
RTVSPropertyOp0
 70
     1
102
RTVSPropertyOp1
 70
     1
102
RTVSPropertyOp2
 70
     1
102
RTVSPropertyOp3
 70
     1
102
RTVSPropertyOp4
 70
     1
102
RTVSPropertyOp5
 70
     1
102
RTVSPropertyOp6
 70
     1
102
RTVSPropertyOp7
 70
     1
102
RTVSPropertyOp8
 70
     1
102
RTVSPropertyOp9
 70
     1
102
RTVSPropertyOp10
 70
     1
102
RTVSPropertyOp11
 70
     1
102
RTVSPropertyOp12
 70
     1
102
RTVSPropertyOp13
 70
     1
102
RTVSPropertyOp14
 70
     1
102
RTVSPropertyOp15
 70
     1
102
RTVSPropertyOp16
 70
     1
102
RTVSPropertyOp17
 70
     1
102
RTVSPropertyOp18
 70
     1
102
RTVSPropertyOp19
 70
     1
102
RTVSPropertyOp20
 70
     1
102
RTVSPropertyOp21
 70
     1
102
RTVSPropertyOp22
 70
     1
102
RTVSPropertyOp23
 70
     1
102
RTVSPropertyOp24
 70
     1
102
RTVSPropertyOp25
 70
     1
102
RTVSPropertyOp26
 70
     1
102
RTVSPropertyOp27
 70
     1
102
RTVSPropertyOp28
 70
     1
102
RTVSPropertyOp29
 70
     1
102
RTVSPropertyOp30
 70
     1
102
RTVSPropertyOp31
 70
     1
102
RTVSPropertyOp32
 70
     1
102
RTVSPropertyOp33
 70
     1
102
RTVSPropertyOp34
 70
     1
102
RTVSPropertyOp35
 70
     1
102
RTVSPropertyOp36
 70
     1
102
RTVSPropertyOp37
 70
     1
102
RTVSPropertyOp38
 70
     1
102
RTVSPropertyOp39
 70
     1
102
RTVSPropertyOp40
 70
     1
102
RTVSPropertyOp41
 70
     1
102
RTVSPropertyOp42
 70
     1
102
RTVSPropertyOp43
 70
     1
102
RTVSPropertyOp44
 70
     1
102
RTVSPropertyOp45
 70
     1
102
RTVSPropertyOp46
 70
     1
102
RTVSPropertyOp47
 70
     1
102
RTVSPropertyOp48
 70
     1
102
RTVSPropertyOp49
 70
     1
102
RTVSPropertyOp50
 70
     1
102
RTVSPropertyOp51
 70
     0
102
RTVSPropertyOp52
 70
     0
102
RTVSPropertyOp53
 70
     1
102
RTVSPropertyOp54
 70
     1
102
RTVSPropertyOp55
 70
     1
102
RTVSPropertyOp56
 70
     1
102
RTVSPropertyOp57
 70
     1
102
RTVSPropertyOp58
 70
     1
102
RTVSPropertyOp59
 70
     1
102
RTVSPropertyOp60
 70
     1
102
RTVSPropertyOp61
 70
     1
102
RTVSPropertyOp62
 70
     1
  0
XRECORD
  5
1A68
102
{ACAD_REACTORS
330
1A67
102
}
330
1A67
100
AcDbXrecord
280
     1
102
RTVSPost2010Prop28
280
     0
102
RTVSPost2010PropOp28
 70
     1
102
RTVSPost2010Prop29
280
     1
102
RTVSPost2010PropOp29
 70
     1
102
RTVSPost2010Prop30
280
     1
102
RTVSPost2010PropOp30
 70
     1
102
RTVSPost2010Prop31
280
     0
102
RTVSPost2010PropOp31
 70
     1
102
RTVSPost2010Prop32
280
     0
102
RTVSPost2010PropOp32
 70
     1
102
RTVSPost2010Prop33
280
     0
102
RTVSPost2010PropOp33
 70
     1
102
RTVSPost2010Prop34
280
     0
102
RTVSPost2010PropOp34
 70
     1
102
RTVSPost2010Prop35
280
     0
102
RTVSPost2010PropOp35
 70
     1
102
RTVSPost2010Prop36
280
     0
102
RTVSPost2010PropOp36
 70
     1
102
RTVSPost2010Prop37
 90
       50
102
RTVSPost2010PropOp37
 70
     0
102
RTVSPost2010Prop38
140
0.0
102
RTVSPost2010PropOp38
 70
     0
102
RTVSPost2010Prop39
140
1.0
102
RTVSPost2010PropOp39
 70
     0
102
RTVSPost2010Prop40
 90
        0
102
RTVSPost2010PropOp40
 70
     0
102
RTVSPost2010Prop41ColorIndex
 90
       18
102
RTVSPost2010Prop41ColorRGB
 90
        0
102
RTVSPost2010PropOp41
 70
     0
102
RTVSPost2010Prop42
 90
       50
102
RTVSPost2010PropOp42
 70
     0
102
RTVSPost2010Prop43
 90
        3
102
RTVSPost2010PropOp43
 70
     0
102
RTVSPost2010Prop44ColorIndex
 90
        5
102
RTVSPost2010Prop44ColorRGB
 90
      255
102
RTVSPost2010PropOp44
 70
     0
102
RTVSPost2010Prop45
280
     0
102
RTVSPost2010PropOp45
 70
     1
102
RTVSPost2010Prop46
 90
       50
102
RTVSPost2010PropOp46
 70
     0
102
RTVSPost2010Prop47
 90
       50
102
RTVSPost2010PropOp47
 70
     0
102
RTVSPost2010Prop48
 90
       50
102
RTVSPost2010PropOp48
 70
     0
102
RTVSPost2010Prop49
280
     0
102
RTVSPost2010PropOp49
 70
     1
102
RTVSPost2010Prop50
 90
       50
102
RTVSPost2010PropOp50
 70
     0
102
RTVSPost2010Prop51ColorIndex
 90
      256
102
RTVSPost2010Prop51ColorRGB
 90
-16777216
102
RTVSPost2010PropOp51
 70
     0
102
RTVSPost2010Prop52
140
1.0
102
RTVSPost2010PropOp52
 70
     0
102
RTVSPost2010Prop53
 90
        2
102
RTVSPost2010PropOp53
 70
     0
102
RTVSPost2010Prop54
  1
strokes_ogs.tif
102
RTVSPost2010PropOp54
 70
     0
102
RTVSPost2010Prop55
280
     0
102
RTVSPost2010PropOp55
 70
     1
102
RTVSPost2010Prop56
140
1.0
102
RTVSPost2010PropOp56
 70
     0
102
RTVSPost2010Prop57
140
1.0
102
RTVSPost2010PropOp57
 70
     0
102
RTVSPropertyOp0
 70
     0
102
RTVSPropertyOp1
 70
     0
102
RTVSPropertyOp2
 70
     0
102
RTVSPropertyOp3
 70
     0
102
RTVSPropertyOp4
 70
     0
102
RTVSPropertyOp5
 70
     0
102
RTVSPropertyOp6
 70
     0
102
RTVSPropertyOp7
 70
     0
102
RTVSPropertyOp8
 70
     0
102
RTVSPropertyOp9
 70
     0
102
RTVSPropertyOp10
 70
     0
102
RTVSPropertyOp11
 70
     0
102
RTVSPropertyOp12
 70
     0
102
RTVSPropertyOp13
 70
     0
102
RTVSPropertyOp14
 70
     2
102
RTVSPropertyOp15
 70
     0
102
RTVSPropertyOp16
 70
     0
102
RTVSPropertyOp17
 70
     0
102
RTVSPropertyOp18
 70
     0
102
RTVSPropertyOp19
 70
     0
102
RTVSPropertyOp20
 70
     0
102
RTVSPropertyOp21
 70
     0
102
RTVSPropertyOp22
 70
     0
102
RTVSPropertyOp23
 70
     0
102
RTVSPropertyOp24
 70
     0
102
RTVSPropertyOp25
 70
     0
102
RTVSPropertyOp26
 70
     0
102
RTVSPropertyOp27
 70
     0
102
RTVSPropertyOp28
 70
     1
102
RTVSPropertyOp29
 70
     1
102
RTVSPropertyOp30
 70
     1
102
RTVSPropertyOp31
 70
     1
102
RTVSPropertyOp32
 70
     1
102
RTVSPropertyOp33
 70
     1
102
RTVSPropertyOp34
 70
     1
102
RTVSPropertyOp35
 70
     1
102
RTVSPropertyOp36
 70
     1
102
RTVSPropertyOp37
 70
     0
102
RTVSPropertyOp38
 70
     0
102
RTVSPropertyOp39
 70
     0
102
RTVSPropertyOp40
 70
     0
102
RTVSPropertyOp41
 70
     0
102
RTVSPropertyOp42
 70
     0
102
RTVSPropertyOp43
 70
     0
102
RTVSPropertyOp44
 70
     0
102
RTVSPropertyOp45
 70
     1
102
RTVSPropertyOp46
 70
     0
102
RTVSPropertyOp47
 70
     0
102
RTVSPropertyOp48
 70
     0
102
RTVSPropertyOp49
 70
     1
102
RTVSPropertyOp50
 70
     0
102
RTVSPropertyOp51
 70
     0
102
RTVSPropertyOp52
 70
     0
102
RTVSPropertyOp53
 70
     0
102
RTVSPropertyOp54
 70
     0
102
RTVSPropertyOp55
 70
     1
102
RTVSPropertyOp56
 70
     0
102
RTVSPropertyOp57
 70
     0
102
RTVSPropertyOp58
 70
     1
102
RTVSPropertyOp59
 70
     1
102
RTVSPropertyOp60
 70
     1
102
RTVSPropertyOp61
 70
     1
102
RTVSPropertyOp62
 70
     1
  0
XRECORD
  5
1A4E
102
{ACAD_REACTORS
330
1A4D
102
}
330
1A4D
100
AcDbXrecord
280
     1
102
RTVSPost2010Prop28
280
     0
102
RTVSPost2010PropOp28
 70
     1
102
RTVSPost2010Prop29
280
     1
102
RTVSPost2010PropOp29
 70
     1
102
RTVSPost2010Prop30
280
     1
102
RTVSPost2010PropOp30
 70
     1
102
RTVSPost2010Prop31
280
     0
102
RTVSPost2010PropOp31
 70
     1
102
RTVSPost2010Prop32
280
     0
102
RTVSPost2010PropOp32
 70
     1
102
RTVSPost2010Prop33
280
     0
102
RTVSPost2010PropOp33
 70
     1
102
RTVSPost2010Prop34
280
     0
102
RTVSPost2010PropOp34
 70
     1
102
RTVSPost2010Prop35
280
     0
102
RTVSPost2010PropOp35
 70
     1
102
RTVSPost2010Prop36
280
     0
102
RTVSPost2010PropOp36
 70
     1
102
RTVSPost2010Prop37
 90
       50
102
RTVSPost2010PropOp37
 70
     1
102
RTVSPost2010Prop38
140
0.0
102
RTVSPost2010PropOp38
 70
     1
102
RTVSPost2010Prop39
140
1.0
102
RTVSPost2010PropOp39
 70
     1
102
RTVSPost2010Prop40
 90
        0
102
RTVSPost2010PropOp40
 70
     1
102
RTVSPost2010Prop41ColorIndex
 90
       18
102
RTVSPost2010Prop41ColorRGB
 90
        0
102
RTVSPost2010PropOp41
 70
     1
102
RTVSPost2010Prop42
 90
       50
102
RTVSPost2010PropOp42
 70
     1
102
RTVSPost2010Prop43
 90
        3
102
RTVSPost2010PropOp43
 70
     1
102
RTVSPost2010Prop44ColorIndex
 90
        5
102
RTVSPost2010Prop44ColorRGB
 90
      255
102
RTVSPost2010PropOp44
 70
     1
102
RTVSPost2010Prop45
280
     0
102
RTVSPost2010PropOp45
 70
     1
102
RTVSPost2010Prop46
 90
       50
102
RTVSPost2010PropOp46
 70
     1
102
RTVSPost2010Prop47
 90
       50
102
RTVSPost2010PropOp47
 70
     1
102
RTVSPost2010Prop48
 90
       50
102
RTVSPost2010PropOp48
 70
     1
102
RTVSPost2010Prop49
280
     0
102
RTVSPost2010PropOp49
 70
     1
102
RTVSPost2010Prop50
 90
       50
102
RTVSPost2010PropOp50
 70
     1
102
RTVSPost2010Prop51ColorIndex
 90
      256
102
RTVSPost2010Prop51ColorRGB
 90
-16777216
102
RTVSPost2010PropOp51
 70
     0
102
RTVSPost2010Prop52
140
1.0
102
RTVSPost2010PropOp52
 70
     0
102
RTVSPost2010Prop53
 90
        2
102
RTVSPost2010PropOp53
 70
     1
102
RTVSPost2010Prop54
  1
strokes_ogs.tif
102
RTVSPost2010PropOp54
 70
     1
102
RTVSPost2010Prop55
280
     0
102
RTVSPost2010PropOp55
 70
     1
102
RTVSPost2010Prop56
140
1.0
102
RTVSPost2010PropOp56
 70
     1
102
RTVSPost2010Prop57
140
1.0
102
RTVSPost2010PropOp57
 70
     1
102
RTVSPropertyOp0
 70
     1
102
RTVSPropertyOp1
 70
     1
102
RTVSPropertyOp2
 70
     1
102
RTVSPropertyOp3
 70
     1
102
RTVSPropertyOp4
 70
     1
102
RTVSPropertyOp5
 70
     1
102
RTVSPropertyOp6
 70
     1
102
RTVSPropertyOp7
 70
     1
102
RTVSPropertyOp8
 70
     1
102
RTVSPropertyOp9
 70
     1
102
RTVSPropertyOp10
 70
     1
102
RTVSPropertyOp11
 70
     1
102
RTVSPropertyOp12
 70
     1
102
RTVSPropertyOp13
 70
     1
102
RTVSPropertyOp14
 70
     1
102
RTVSPropertyOp15
 70
     1
102
RTVSPropertyOp16
 70
     1
102
RTVSPropertyOp17
 70
     1
102
RTVSPropertyOp18
 70
     1
102
RTVSPropertyOp19
 70
     1
102
RTVSPropertyOp20
 70
     1
102
RTVSPropertyOp21
 70
     1
102
RTVSPropertyOp22
 70
     1
102
RTVSPropertyOp23
 70
     1
102
RTVSPropertyOp24
 70
     1
102
RTVSPropertyOp25
 70
     1
102
RTVSPropertyOp26
 70
     1
102
RTVSPropertyOp27
 70
     1
102
RTVSPropertyOp28
 70
     1
102
RTVSPropertyOp29
 70
     1
102
RTVSPropertyOp30
 70
     1
102
RTVSPropertyOp31
 70
     1
102
RTVSPropertyOp32
 70
     1
102
RTVSPropertyOp33
 70
     1
102
RTVSPropertyOp34
 70
     1
102
RTVSPropertyOp35
 70
     1
102
RTVSPropertyOp36
 70
     1
102
RTVSPropertyOp37
 70
     1
102
RTVSPropertyOp38
 70
     1
102
RTVSPropertyOp39
 70
     1
102
RTVSPropertyOp40
 70
     1
102
RTVSPropertyOp41
 70
     1
102
RTVSPropertyOp42
 70
     1
102
RTVSPropertyOp43
 70
     1
102
RTVSPropertyOp44
 70
     1
102
RTVSPropertyOp45
 70
     1
102
RTVSPropertyOp46
 70
     1
102
RTVSPropertyOp47
 70
     1
102
RTVSPropertyOp48
 70
     1
102
RTVSPropertyOp49
 70
     1
102
RTVSPropertyOp50
 70
     1
102
RTVSPropertyOp51
 70
     0
102
RTVSPropertyOp52
 70
     0
102
RTVSPropertyOp53
 70
     1
102
RTVSPropertyOp54
 70
     1
102
RTVSPropertyOp55
 70
     1
102
RTVSPropertyOp56
 70
     1
102
RTVSPropertyOp57
 70
     1
102
RTVSPropertyOp58
 70
     1
102
RTVSPropertyOp59
 70
     1
102
RTVSPropertyOp60
 70
     1
102
RTVSPropertyOp61
 70
     1
102
RTVSPropertyOp62
 70
     1
  0
XRECORD
  5
1A64
102
{ACAD_REACTORS
330
1A63
102
}
330
1A63
100
AcDbXrecord
280
     1
102
RTVSPost2010Prop28
280
     0
102
RTVSPost2010PropOp28
 70
     1
102
RTVSPost2010Prop29
280
     1
102
RTVSPost2010PropOp29
 70
     1
102
RTVSPost2010Prop30
280
     1
102
RTVSPost2010PropOp30
 70
     1
102
RTVSPost2010Prop31
280
     0
102
RTVSPost2010PropOp31
 70
     1
102
RTVSPost2010Prop32
280
     0
102
RTVSPost2010PropOp32
 70
     1
102
RTVSPost2010Prop33
280
     0
102
RTVSPost2010PropOp33
 70
     1
102
RTVSPost2010Prop34
280
     0
102
RTVSPost2010PropOp34
 70
     1
102
RTVSPost2010Prop35
280
     0
102
RTVSPost2010PropOp35
 70
     1
102
RTVSPost2010Prop36
280
     0
102
RTVSPost2010PropOp36
 70
     1
102
RTVSPost2010Prop37
 90
       50
102
RTVSPost2010PropOp37
 70
     1
102
RTVSPost2010Prop38
140
0.0
102
RTVSPost2010PropOp38
 70
     1
102
RTVSPost2010Prop39
140
1.0
102
RTVSPost2010PropOp39
 70
     1
102
RTVSPost2010Prop40
 90
        0
102
RTVSPost2010PropOp40
 70
     1
102
RTVSPost2010Prop41ColorIndex
 90
       18
102
RTVSPost2010Prop41ColorRGB
 90
        0
102
RTVSPost2010PropOp41
 70
     1
102
RTVSPost2010Prop42
 90
       50
102
RTVSPost2010PropOp42
 70
     1
102
RTVSPost2010Prop43
 90
        3
102
RTVSPost2010PropOp43
 70
     1
102
RTVSPost2010Prop44ColorIndex
 90
        5
102
RTVSPost2010Prop44ColorRGB
 90
      255
102
RTVSPost2010PropOp44
 70
     1
102
RTVSPost2010Prop45
280
     0
102
RTVSPost2010PropOp45
 70
     1
102
RTVSPost2010Prop46
 90
       50
102
RTVSPost2010PropOp46
 70
     1
102
RTVSPost2010Prop47
 90
       50
102
RTVSPost2010PropOp47
 70
     1
102
RTVSPost2010Prop48
 90
       50
102
RTVSPost2010PropOp48
 70
     1
102
RTVSPost2010Prop49
280
     0
102
RTVSPost2010PropOp49
 70
     1
102
RTVSPost2010Prop50
 90
       50
102
RTVSPost2010PropOp50
 70
     1
102
RTVSPost2010Prop51ColorIndex
 90
      256
102
RTVSPost2010Prop51ColorRGB
 90
-16777216
102
RTVSPost2010PropOp51
 70
     0
102
RTVSPost2010Prop52
140
1.0
102
RTVSPost2010PropOp52
 70
     0
102
RTVSPost2010Prop53
 90
        2
102
RTVSPost2010PropOp53
 70
     1
102
RTVSPost2010Prop54
  1
strokes_ogs.tif
102
RTVSPost2010PropOp54
 70
     1
102
RTVSPost2010Prop55
280
     0
102
RTVSPost2010PropOp55
 70
     1
102
RTVSPost2010Prop56
140
1.0
102
RTVSPost2010PropOp56
 70
     1
102
RTVSPost2010Prop57
140
1.0
102
RTVSPost2010PropOp57
 70
     1
102
RTVSPropertyOp0
 70
     1
102
RTVSPropertyOp1
 70
     1
102
RTVSPropertyOp2
 70
     1
102
RTVSPropertyOp3
 70
     1
102
RTVSPropertyOp4
 70
     1
102
RTVSPropertyOp5
 70
     1
102
RTVSPropertyOp6
 70
     1
102
RTVSPropertyOp7
 70
     1
102
RTVSPropertyOp8
 70
     1
102
RTVSPropertyOp9
 70
     1
102
RTVSPropertyOp10
 70
     1
102
RTVSPropertyOp11
 70
     1
102
RTVSPropertyOp12
 70
     1
102
RTVSPropertyOp13
 70
     1
102
RTVSPropertyOp14
 70
     1
102
RTVSPropertyOp15
 70
     1
102
RTVSPropertyOp16
 70
     1
102
RTVSPropertyOp17
 70
     1
102
RTVSPropertyOp18
 70
     1
102
RTVSPropertyOp19
 70
     1
102
RTVSPropertyOp20
 70
     1
102
RTVSPropertyOp21
 70
     1
102
RTVSPropertyOp22
 70
     1
102
RTVSPropertyOp23
 70
     1
102
RTVSPropertyOp24
 70
     1
102
RTVSPropertyOp25
 70
     1
102
RTVSPropertyOp26
 70
     1
102
RTVSPropertyOp27
 70
     1
102
RTVSPropertyOp28
 70
     1
102
RTVSPropertyOp29
 70
     1
102
RTVSPropertyOp30
 70
     1
102
RTVSPropertyOp31
 70
     1
102
RTVSPropertyOp32
 70
     1
102
RTVSPropertyOp33
 70
     1
102
RTVSPropertyOp34
 70
     1
102
RTVSPropertyOp35
 70
     1
102
RTVSPropertyOp36
 70
     1
102
RTVSPropertyOp37
 70
     1
102
RTVSPropertyOp38
 70
     1
102
RTVSPropertyOp39
 70
     1
102
RTVSPropertyOp40
 70
     1
102
RTVSPropertyOp41
 70
     1
102
RTVSPropertyOp42
 70
     1
102
RTVSPropertyOp43
 70
     1
102
RTVSPropertyOp44
 70
     1
102
RTVSPropertyOp45
 70
     1
102
RTVSPropertyOp46
 70
     1
102
RTVSPropertyOp47
 70
     1
102
RTVSPropertyOp48
 70
     1
102
RTVSPropertyOp49
 70
     1
102
RTVSPropertyOp50
 70
     1
102
RTVSPropertyOp51
 70
     0
102
RTVSPropertyOp52
 70
     0
102
RTVSPropertyOp53
 70
     1
102
RTVSPropertyOp54
 70
     1
102
RTVSPropertyOp55
 70
     1
102
RTVSPropertyOp56
 70
     1
102
RTVSPropertyOp57
 70
     1
102
RTVSPropertyOp58
 70
     1
102
RTVSPropertyOp59
 70
     1
102
RTVSPropertyOp60
 70
     1
102
RTVSPropertyOp61
 70
     1
102
RTVSPropertyOp62
 70
     1
  0
XRECORD
  5
1A62
102
{ACAD_REACTORS
330
1A61
102
}
330
1A61
100
AcDbXrecord
280
     1
102
RTVSPost2010Prop28
280
     0
102
RTVSPost2010PropOp28
 70
     1
102
RTVSPost2010Prop29
280
     1
102
RTVSPost2010PropOp29
 70
     1
102
RTVSPost2010Prop30
280
     1
102
RTVSPost2010PropOp30
 70
     1
102
RTVSPost2010Prop31
280
     0
102
RTVSPost2010PropOp31
 70
     1
102
RTVSPost2010Prop32
280
     0
102
RTVSPost2010PropOp32
 70
     1
102
RTVSPost2010Prop33
280
     0
102
RTVSPost2010PropOp33
 70
     1
102
RTVSPost2010Prop34
280
     0
102
RTVSPost2010PropOp34
 70
     1
102
RTVSPost2010Prop35
280
     0
102
RTVSPost2010PropOp35
 70
     1
102
RTVSPost2010Prop36
280
     0
102
RTVSPost2010PropOp36
 70
     1
102
RTVSPost2010Prop37
 90
       50
102
RTVSPost2010PropOp37
 70
     1
102
RTVSPost2010Prop38
140
0.0
102
RTVSPost2010PropOp38
 70
     1
102
RTVSPost2010Prop39
140
1.0
102
RTVSPost2010PropOp39
 70
     1
102
RTVSPost2010Prop40
 90
        0
102
RTVSPost2010PropOp40
 70
     1
102
RTVSPost2010Prop41ColorIndex
 90
       18
102
RTVSPost2010Prop41ColorRGB
 90
        0
102
RTVSPost2010PropOp41
 70
     1
102
RTVSPost2010Prop42
 90
       50
102
RTVSPost2010PropOp42
 70
     1
102
RTVSPost2010Prop43
 90
        3
102
RTVSPost2010PropOp43
 70
     1
102
RTVSPost2010Prop44ColorIndex
 90
        5
102
RTVSPost2010Prop44ColorRGB
 90
      255
102
RTVSPost2010PropOp44
 70
     1
102
RTVSPost2010Prop45
280
     0
102
RTVSPost2010PropOp45
 70
     1
102
RTVSPost2010Prop46
 90
       50
102
RTVSPost2010PropOp46
 70
     1
102
RTVSPost2010Prop47
 90
       50
102
RTVSPost2010PropOp47
 70
     1
102
RTVSPost2010Prop48
 90
       50
102
RTVSPost2010PropOp48
 70
     1
102
RTVSPost2010Prop49
280
     0
102
RTVSPost2010PropOp49
 70
     1
102
RTVSPost2010Prop50
 90
       50
102
RTVSPost2010PropOp50
 70
     1
102
RTVSPost2010Prop51ColorIndex
 90
      256
102
RTVSPost2010Prop51ColorRGB
 90
-16777216
102
RTVSPost2010PropOp51
 70
     0
102
RTVSPost2010Prop52
140
1.0
102
RTVSPost2010PropOp52
 70
     0
102
RTVSPost2010Prop53
 90
        2
102
RTVSPost2010PropOp53
 70
     1
102
RTVSPost2010Prop54
  1
strokes_ogs.tif
102
RTVSPost2010PropOp54
 70
     1
102
RTVSPost2010Prop55
280
     0
102
RTVSPost2010PropOp55
 70
     1
102
RTVSPost2010Prop56
140
1.0
102
RTVSPost2010PropOp56
 70
     1
102
RTVSPost2010Prop57
140
1.0
102
RTVSPost2010PropOp57
 70
     1
102
RTVSPropertyOp0
 70
     1
102
RTVSPropertyOp1
 70
     1
102
RTVSPropertyOp2
 70
     1
102
RTVSPropertyOp3
 70
     1
102
RTVSPropertyOp4
 70
     1
102
RTVSPropertyOp5
 70
     1
102
RTVSPropertyOp6
 70
     1
102
RTVSPropertyOp7
 70
     1
102
RTVSPropertyOp8
 70
     1
102
RTVSPropertyOp9
 70
     1
102
RTVSPropertyOp10
 70
     1
102
RTVSPropertyOp11
 70
     1
102
RTVSPropertyOp12
 70
     1
102
RTVSPropertyOp13
 70
     1
102
RTVSPropertyOp14
 70
     1
102
RTVSPropertyOp15
 70
     1
102
RTVSPropertyOp16
 70
     1
102
RTVSPropertyOp17
 70
     1
102
RTVSPropertyOp18
 70
     1
102
RTVSPropertyOp19
 70
     1
102
RTVSPropertyOp20
 70
     1
102
RTVSPropertyOp21
 70
     1
102
RTVSPropertyOp22
 70
     1
102
RTVSPropertyOp23
 70
     1
102
RTVSPropertyOp24
 70
     1
102
RTVSPropertyOp25
 70
     1
102
RTVSPropertyOp26
 70
     1
102
RTVSPropertyOp27
 70
     1
102
RTVSPropertyOp28
 70
     1
102
RTVSPropertyOp29
 70
     1
102
RTVSPropertyOp30
 70
     1
102
RTVSPropertyOp31
 70
     1
102
RTVSPropertyOp32
 70
     1
102
RTVSPropertyOp33
 70
     1
102
RTVSPropertyOp34
 70
     1
102
RTVSPropertyOp35
 70
     1
102
RTVSPropertyOp36
 70
     1
102
RTVSPropertyOp37
 70
     1
102
RTVSPropertyOp38
 70
     1
102
RTVSPropertyOp39
 70
     1
102
RTVSPropertyOp40
 70
     1
102
RTVSPropertyOp41
 70
     1
102
RTVSPropertyOp42
 70
     1
102
RTVSPropertyOp43
 70
     1
102
RTVSPropertyOp44
 70
     1
102
RTVSPropertyOp45
 70
     1
102
RTVSPropertyOp46
 70
     1
102
RTVSPropertyOp47
 70
     1
102
RTVSPropertyOp48
 70
     1
102
RTVSPropertyOp49
 70
     1
102
RTVSPropertyOp50
 70
     1
102
RTVSPropertyOp51
 70
     0
102
RTVSPropertyOp52
 70
     0
102
RTVSPropertyOp53
 70
     1
102
RTVSPropertyOp54
 70
     1
102
RTVSPropertyOp55
 70
     1
102
RTVSPropertyOp56
 70
     1
102
RTVSPropertyOp57
 70
     1
102
RTVSPropertyOp58
 70
     1
102
RTVSPropertyOp59
 70
     1
102
RTVSPropertyOp60
 70
     1
102
RTVSPropertyOp61
 70
     1
102
RTVSPropertyOp62
 70
     1
  0
XRECORD
  5
1A5C
102
{ACAD_REACTORS
330
1A5B
102
}
330
1A5B
100
AcDbXrecord
280
     1
102
RTVSPost2010Prop28
280
     0
102
RTVSPost2010PropOp28
 70
     1
102
RTVSPost2010Prop29
280
     1
102
RTVSPost2010PropOp29
 70
     1
102
RTVSPost2010Prop30
280
     1
102
RTVSPost2010PropOp30
 70
     1
102
RTVSPost2010Prop31
280
     0
102
RTVSPost2010PropOp31
 70
     1
102
RTVSPost2010Prop32
280
     0
102
RTVSPost2010PropOp32
 70
     1
102
RTVSPost2010Prop33
280
     0
102
RTVSPost2010PropOp33
 70
     1
102
RTVSPost2010Prop34
280
     0
102
RTVSPost2010PropOp34
 70
     1
102
RTVSPost2010Prop35
280
     0
102
RTVSPost2010PropOp35
 70
     1
102
RTVSPost2010Prop36
280
     0
102
RTVSPost2010PropOp36
 70
     1
102
RTVSPost2010Prop37
 90
       50
102
RTVSPost2010PropOp37
 70
     1
102
RTVSPost2010Prop38
140
0.0
102
RTVSPost2010PropOp38
 70
     1
102
RTVSPost2010Prop39
140
1.0
102
RTVSPost2010PropOp39
 70
     1
102
RTVSPost2010Prop40
 90
        0
102
RTVSPost2010PropOp40
 70
     1
102
RTVSPost2010Prop41ColorIndex
 90
       18
102
RTVSPost2010Prop41ColorRGB
 90
        0
102
RTVSPost2010PropOp41
 70
     1
102
RTVSPost2010Prop42
 90
       50
102
RTVSPost2010PropOp42
 70
     1
102
RTVSPost2010Prop43
 90
        3
102
RTVSPost2010PropOp43
 70
     1
102
RTVSPost2010Prop44ColorIndex
 90
        5
102
RTVSPost2010Prop44ColorRGB
 90
      255
102
RTVSPost2010PropOp44
 70
     1
102
RTVSPost2010Prop45
280
     0
102
RTVSPost2010PropOp45
 70
     1
102
RTVSPost2010Prop46
 90
       50
102
RTVSPost2010PropOp46
 70
     1
102
RTVSPost2010Prop47
 90
       50
102
RTVSPost2010PropOp47
 70
     1
102
RTVSPost2010Prop48
 90
       50
102
RTVSPost2010PropOp48
 70
     1
102
RTVSPost2010Prop49
280
     0
102
RTVSPost2010PropOp49
 70
     1
102
RTVSPost2010Prop50
 90
       50
102
RTVSPost2010PropOp50
 70
     1
102
RTVSPost2010Prop51ColorIndex
 90
      256
102
RTVSPost2010Prop51ColorRGB
 90
-16777216
102
RTVSPost2010PropOp51
 70
     0
102
RTVSPost2010Prop52
140
1.0
102
RTVSPost2010PropOp52
 70
     0
102
RTVSPost2010Prop53
 90
        2
102
RTVSPost2010PropOp53
 70
     1
102
RTVSPost2010Prop54
  1
strokes_ogs.tif
102
RTVSPost2010PropOp54
 70
     1
102
RTVSPost2010Prop55
280
     0
102
RTVSPost2010PropOp55
 70
     1
102
RTVSPost2010Prop56
140
1.0
102
RTVSPost2010PropOp56
 70
     1
102
RTVSPost2010Prop57
140
1.0
102
RTVSPost2010PropOp57
 70
     1
102
RTVSPropertyOp0
 70
     1
102
RTVSPropertyOp1
 70
     1
102
RTVSPropertyOp2
 70
     1
102
RTVSPropertyOp3
 70
     1
102
RTVSPropertyOp4
 70
     1
102
RTVSPropertyOp5
 70
     1
102
RTVSPropertyOp6
 70
     1
102
RTVSPropertyOp7
 70
     1
102
RTVSPropertyOp8
 70
     1
102
RTVSPropertyOp9
 70
     1
102
RTVSPropertyOp10
 70
     1
102
RTVSPropertyOp11
 70
     1
102
RTVSPropertyOp12
 70
     1
102
RTVSPropertyOp13
 70
     1
102
RTVSPropertyOp14
 70
     1
102
RTVSPropertyOp15
 70
     1
102
RTVSPropertyOp16
 70
     1
102
RTVSPropertyOp17
 70
     1
102
RTVSPropertyOp18
 70
     1
102
RTVSPropertyOp19
 70
     1
102
RTVSPropertyOp20
 70
     1
102
RTVSPropertyOp21
 70
     1
102
RTVSPropertyOp22
 70
     1
102
RTVSPropertyOp23
 70
     1
102
RTVSPropertyOp24
 70
     1
102
RTVSPropertyOp25
 70
     1
102
RTVSPropertyOp26
 70
     1
102
RTVSPropertyOp27
 70
     1
102
RTVSPropertyOp28
 70
     1
102
RTVSPropertyOp29
 70
     1
102
RTVSPropertyOp30
 70
     1
102
RTVSPropertyOp31
 70
     1
102
RTVSPropertyOp32
 70
     1
102
RTVSPropertyOp33
 70
     1
102
RTVSPropertyOp34
 70
     1
102
RTVSPropertyOp35
 70
     1
102
RTVSPropertyOp36
 70
     1
102
RTVSPropertyOp37
 70
     1
102
RTVSPropertyOp38
 70
     1
102
RTVSPropertyOp39
 70
     1
102
RTVSPropertyOp40
 70
     1
102
RTVSPropertyOp41
 70
     1
102
RTVSPropertyOp42
 70
     1
102
RTVSPropertyOp43
 70
     1
102
RTVSPropertyOp44
 70
     1
102
RTVSPropertyOp45
 70
     1
102
RTVSPropertyOp46
 70
     1
102
RTVSPropertyOp47
 70
     1
102
RTVSPropertyOp48
 70
     1
102
RTVSPropertyOp49
 70
     1
102
RTVSPropertyOp50
 70
     1
102
RTVSPropertyOp51
 70
     0
102
RTVSPropertyOp52
 70
     0
102
RTVSPropertyOp53
 70
     1
102
RTVSPropertyOp54
 70
     1
102
RTVSPropertyOp55
 70
     1
102
RTVSPropertyOp56
 70
     1
102
RTVSPropertyOp57
 70
     1
102
RTVSPropertyOp58
 70
     1
102
RTVSPropertyOp59
 70
     1
102
RTVSPropertyOp60
 70
     1
102
RTVSPropertyOp61
 70
     1
102
RTVSPropertyOp62
 70
     1
  0
XRECORD
  5
1A5E
102
{ACAD_REACTORS
330
1A5D
102
}
330
1A5D
100
AcDbXrecord
280
     1
102
RTVSPost2010Prop28
280
     0
102
RTVSPost2010PropOp28
 70
     1
102
RTVSPost2010Prop29
280
     1
102
RTVSPost2010PropOp29
 70
     1
102
RTVSPost2010Prop30
280
     1
102
RTVSPost2010PropOp30
 70
     1
102
RTVSPost2010Prop31
280
     0
102
RTVSPost2010PropOp31
 70
     1
102
RTVSPost2010Prop32
280
     0
102
RTVSPost2010PropOp32
 70
     1
102
RTVSPost2010Prop33
280
     0
102
RTVSPost2010PropOp33
 70
     1
102
RTVSPost2010Prop34
280
     0
102
RTVSPost2010PropOp34
 70
     1
102
RTVSPost2010Prop35
280
     0
102
RTVSPost2010PropOp35
 70
     1
102
RTVSPost2010Prop36
280
     0
102
RTVSPost2010PropOp36
 70
     1
102
RTVSPost2010Prop37
 90
       50
102
RTVSPost2010PropOp37
 70
     1
102
RTVSPost2010Prop38
140
0.0
102
RTVSPost2010PropOp38
 70
     1
102
RTVSPost2010Prop39
140
1.0
102
RTVSPost2010PropOp39
 70
     1
102
RTVSPost2010Prop40
 90
        0
102
RTVSPost2010PropOp40
 70
     1
102
RTVSPost2010Prop41ColorIndex
 90
       18
102
RTVSPost2010Prop41ColorRGB
 90
        0
102
RTVSPost2010PropOp41
 70
     1
102
RTVSPost2010Prop42
 90
       50
102
RTVSPost2010PropOp42
 70
     1
102
RTVSPost2010Prop43
 90
        3
102
RTVSPost2010PropOp43
 70
     1
102
RTVSPost2010Prop44ColorIndex
 90
        5
102
RTVSPost2010Prop44ColorRGB
 90
      255
102
RTVSPost2010PropOp44
 70
     1
102
RTVSPost2010Prop45
280
     0
102
RTVSPost2010PropOp45
 70
     1
102
RTVSPost2010Prop46
 90
       50
102
RTVSPost2010PropOp46
 70
     1
102
RTVSPost2010Prop47
 90
       50
102
RTVSPost2010PropOp47
 70
     1
102
RTVSPost2010Prop48
 90
       50
102
RTVSPost2010PropOp48
 70
     1
102
RTVSPost2010Prop49
280
     0
102
RTVSPost2010PropOp49
 70
     1
102
RTVSPost2010Prop50
 90
       50
102
RTVSPost2010PropOp50
 70
     1
102
RTVSPost2010Prop51ColorIndex
 90
      256
102
RTVSPost2010Prop51ColorRGB
 90
-16777216
102
RTVSPost2010PropOp51
 70
     0
102
RTVSPost2010Prop52
140
1.0
102
RTVSPost2010PropOp52
 70
     0
102
RTVSPost2010Prop53
 90
        2
102
RTVSPost2010PropOp53
 70
     1
102
RTVSPost2010Prop54
  1
strokes_ogs.tif
102
RTVSPost2010PropOp54
 70
     1
102
RTVSPost2010Prop55
280
     0
102
RTVSPost2010PropOp55
 70
     1
102
RTVSPost2010Prop56
140
1.0
102
RTVSPost2010PropOp56
 70
     1
102
RTVSPost2010Prop57
140
1.0
102
RTVSPost2010PropOp57
 70
     1
102
RTVSPropertyOp0
 70
     1
102
RTVSPropertyOp1
 70
     1
102
RTVSPropertyOp2
 70
     1
102
RTVSPropertyOp3
 70
     1
102
RTVSPropertyOp4
 70
     1
102
RTVSPropertyOp5
 70
     1
102
RTVSPropertyOp6
 70
     1
102
RTVSPropertyOp7
 70
     1
102
RTVSPropertyOp8
 70
     1
102
RTVSPropertyOp9
 70
     1
102
RTVSPropertyOp10
 70
     1
102
RTVSPropertyOp11
 70
     1
102
RTVSPropertyOp12
 70
     1
102
RTVSPropertyOp13
 70
     1
102
RTVSPropertyOp14
 70
     1
102
RTVSPropertyOp15
 70
     1
102
RTVSPropertyOp16
 70
     1
102
RTVSPropertyOp17
 70
     1
102
RTVSPropertyOp18
 70
     1
102
RTVSPropertyOp19
 70
     1
102
RTVSPropertyOp20
 70
     1
102
RTVSPropertyOp21
 70
     1
102
RTVSPropertyOp22
 70
     1
102
RTVSPropertyOp23
 70
     1
102
RTVSPropertyOp24
 70
     1
102
RTVSPropertyOp25
 70
     1
102
RTVSPropertyOp26
 70
     1
102
RTVSPropertyOp27
 70
     1
102
RTVSPropertyOp28
 70
     1
102
RTVSPropertyOp29
 70
     1
102
RTVSPropertyOp30
 70
     1
102
RTVSPropertyOp31
 70
     1
102
RTVSPropertyOp32
 70
     1
102
RTVSPropertyOp33
 70
     1
102
RTVSPropertyOp34
 70
     1
102
RTVSPropertyOp35
 70
     1
102
RTVSPropertyOp36
 70
     1
102
RTVSPropertyOp37
 70
     1
102
RTVSPropertyOp38
 70
     1
102
RTVSPropertyOp39
 70
     1
102
RTVSPropertyOp40
 70
     1
102
RTVSPropertyOp41
 70
     1
102
RTVSPropertyOp42
 70
     1
102
RTVSPropertyOp43
 70
     1
102
RTVSPropertyOp44
 70
     1
102
RTVSPropertyOp45
 70
     1
102
RTVSPropertyOp46
 70
     1
102
RTVSPropertyOp47
 70
     1
102
RTVSPropertyOp48
 70
     1
102
RTVSPropertyOp49
 70
     1
102
RTVSPropertyOp50
 70
     1
102
RTVSPropertyOp51
 70
     0
102
RTVSPropertyOp52
 70
     0
102
RTVSPropertyOp53
 70
     1
102
RTVSPropertyOp54
 70
     1
102
RTVSPropertyOp55
 70
     1
102
RTVSPropertyOp56
 70
     1
102
RTVSPropertyOp57
 70
     1
102
RTVSPropertyOp58
 70
     1
102
RTVSPropertyOp59
 70
     1
102
RTVSPropertyOp60
 70
     1
102
RTVSPropertyOp61
 70
     1
102
RTVSPropertyOp62
 70
     1
  0
XRECORD
  5
1A54
102
{ACAD_REACTORS
330
1A53
102
}
330
1A53
100
AcDbXrecord
280
     1
102
RTVSPost2010Prop28
280
     0
102
RTVSPost2010PropOp28
 70
     1
102
RTVSPost2010Prop29
280
     1
102
RTVSPost2010PropOp29
 70
     1
102
RTVSPost2010Prop30
280
     1
102
RTVSPost2010PropOp30
 70
     1
102
RTVSPost2010Prop31
280
     0
102
RTVSPost2010PropOp31
 70
     1
102
RTVSPost2010Prop32
280
     0
102
RTVSPost2010PropOp32
 70
     1
102
RTVSPost2010Prop33
280
     0
102
RTVSPost2010PropOp33
 70
     1
102
RTVSPost2010Prop34
280
     0
102
RTVSPost2010PropOp34
 70
     1
102
RTVSPost2010Prop35
280
     0
102
RTVSPost2010PropOp35
 70
     1
102
RTVSPost2010Prop36
280
     0
102
RTVSPost2010PropOp36
 70
     1
102
RTVSPost2010Prop37
 90
       50
102
RTVSPost2010PropOp37
 70
     1
102
RTVSPost2010Prop38
140
0.0
102
RTVSPost2010PropOp38
 70
     1
102
RTVSPost2010Prop39
140
1.0
102
RTVSPost2010PropOp39
 70
     1
102
RTVSPost2010Prop40
 90
        0
102
RTVSPost2010PropOp40
 70
     1
102
RTVSPost2010Prop41ColorIndex
 90
       18
102
RTVSPost2010Prop41ColorRGB
 90
        0
102
RTVSPost2010PropOp41
 70
     1
102
RTVSPost2010Prop42
 90
       50
102
RTVSPost2010PropOp42
 70
     1
102
RTVSPost2010Prop43
 90
        3
102
RTVSPost2010PropOp43
 70
     1
102
RTVSPost2010Prop44ColorIndex
 90
        5
102
RTVSPost2010Prop44ColorRGB
 90
      255
102
RTVSPost2010PropOp44
 70
     1
102
RTVSPost2010Prop45
280
     0
102
RTVSPost2010PropOp45
 70
     1
102
RTVSPost2010Prop46
 90
       50
102
RTVSPost2010PropOp46
 70
     1
102
RTVSPost2010Prop47
 90
       50
102
RTVSPost2010PropOp47
 70
     1
102
RTVSPost2010Prop48
 90
       50
102
RTVSPost2010PropOp48
 70
     1
102
RTVSPost2010Prop49
280
     0
102
RTVSPost2010PropOp49
 70
     1
102
RTVSPost2010Prop50
 90
       50
102
RTVSPost2010PropOp50
 70
     1
102
RTVSPost2010Prop51ColorIndex
 90
      256
102
RTVSPost2010Prop51ColorRGB
 90
-16777216
102
RTVSPost2010PropOp51
 70
     0
102
RTVSPost2010Prop52
140
1.0
102
RTVSPost2010PropOp52
 70
     0
102
RTVSPost2010Prop53
 90
        2
102
RTVSPost2010PropOp53
 70
     1
102
RTVSPost2010Prop54
  1
strokes_ogs.tif
102
RTVSPost2010PropOp54
 70
     1
102
RTVSPost2010Prop55
280
     0
102
RTVSPost2010PropOp55
 70
     1
102
RTVSPost2010Prop56
140
1.0
102
RTVSPost2010PropOp56
 70
     1
102
RTVSPost2010Prop57
140
1.0
102
RTVSPost2010PropOp57
 70
     1
102
RTVSPropertyOp0
 70
     1
102
RTVSPropertyOp1
 70
     1
102
RTVSPropertyOp2
 70
     1
102
RTVSPropertyOp3
 70
     1
102
RTVSPropertyOp4
 70
     1
102
RTVSPropertyOp5
 70
     1
102
RTVSPropertyOp6
 70
     1
102
RTVSPropertyOp7
 70
     1
102
RTVSPropertyOp8
 70
     1
102
RTVSPropertyOp9
 70
     1
102
RTVSPropertyOp10
 70
     1
102
RTVSPropertyOp11
 70
     1
102
RTVSPropertyOp12
 70
     1
102
RTVSPropertyOp13
 70
     1
102
RTVSPropertyOp14
 70
     1
102
RTVSPropertyOp15
 70
     1
102
RTVSPropertyOp16
 70
     1
102
RTVSPropertyOp17
 70
     1
102
RTVSPropertyOp18
 70
     1
102
RTVSPropertyOp19
 70
     1
102
RTVSPropertyOp20
 70
     1
102
RTVSPropertyOp21
 70
     1
102
RTVSPropertyOp22
 70
     1
102
RTVSPropertyOp23
 70
     1
102
RTVSPropertyOp24
 70
     1
102
RTVSPropertyOp25
 70
     1
102
RTVSPropertyOp26
 70
     1
102
RTVSPropertyOp27
 70
     1
102
RTVSPropertyOp28
 70
     1
102
RTVSPropertyOp29
 70
     1
102
RTVSPropertyOp30
 70
     1
102
RTVSPropertyOp31
 70
     1
102
RTVSPropertyOp32
 70
     1
102
RTVSPropertyOp33
 70
     1
102
RTVSPropertyOp34
 70
     1
102
RTVSPropertyOp35
 70
     1
102
RTVSPropertyOp36
 70
     1
102
RTVSPropertyOp37
 70
     1
102
RTVSPropertyOp38
 70
     1
102
RTVSPropertyOp39
 70
     1
102
RTVSPropertyOp40
 70
     1
102
RTVSPropertyOp41
 70
     1
102
RTVSPropertyOp42
 70
     1
102
RTVSPropertyOp43
 70
     1
102
RTVSPropertyOp44
 70
     1
102
RTVSPropertyOp45
 70
     1
102
RTVSPropertyOp46
 70
     1
102
RTVSPropertyOp47
 70
     1
102
RTVSPropertyOp48
 70
     1
102
RTVSPropertyOp49
 70
     1
102
RTVSPropertyOp50
 70
     1
102
RTVSPropertyOp51
 70
     0
102
RTVSPropertyOp52
 70
     0
102
RTVSPropertyOp53
 70
     1
102
RTVSPropertyOp54
 70
     1
102
RTVSPropertyOp55
 70
     1
102
RTVSPropertyOp56
 70
     1
102
RTVSPropertyOp57
 70
     1
102
RTVSPropertyOp58
 70
     1
102
RTVSPropertyOp59
 70
     1
102
RTVSPropertyOp60
 70
     1
102
RTVSPropertyOp61
 70
     1
102
RTVSPropertyOp62
 70
     1
  0
XRECORD
  5
1A48
102
{ACAD_REACTORS
330
1A47
102
}
330
1A47
100
AcDbXrecord
280
     1
102
RTVSPost2010Prop28
280
     0
102
RTVSPost2010PropOp28
 70
     1
102
RTVSPost2010Prop29
280
     1
102
RTVSPost2010PropOp29
 70
     1
102
RTVSPost2010Prop30
280
     1
102
RTVSPost2010PropOp30
 70
     1
102
RTVSPost2010Prop31
280
     0
102
RTVSPost2010PropOp31
 70
     1
102
RTVSPost2010Prop32
280
     0
102
RTVSPost2010PropOp32
 70
     1
102
RTVSPost2010Prop33
280
     0
102
RTVSPost2010PropOp33
 70
     1
102
RTVSPost2010Prop34
280
     0
102
RTVSPost2010PropOp34
 70
     1
102
RTVSPost2010Prop35
280
     0
102
RTVSPost2010PropOp35
 70
     1
102
RTVSPost2010Prop36
280
     0
102
RTVSPost2010PropOp36
 70
     1
102
RTVSPost2010Prop37
 90
       50
102
RTVSPost2010PropOp37
 70
     1
102
RTVSPost2010Prop38
140
0.0
102
RTVSPost2010PropOp38
 70
     1
102
RTVSPost2010Prop39
140
1.0
102
RTVSPost2010PropOp39
 70
     1
102
RTVSPost2010Prop40
 90
        0
102
RTVSPost2010PropOp40
 70
     1
102
RTVSPost2010Prop41ColorIndex
 90
       18
102
RTVSPost2010Prop41ColorRGB
 90
        0
102
RTVSPost2010PropOp41
 70
     1
102
RTVSPost2010Prop42
 90
       50
102
RTVSPost2010PropOp42
 70
     1
102
RTVSPost2010Prop43
 90
        3
102
RTVSPost2010PropOp43
 70
     1
102
RTVSPost2010Prop44ColorIndex
 90
        5
102
RTVSPost2010Prop44ColorRGB
 90
      255
102
RTVSPost2010PropOp44
 70
     1
102
RTVSPost2010Prop45
280
     0
102
RTVSPost2010PropOp45
 70
     1
102
RTVSPost2010Prop46
 90
       50
102
RTVSPost2010PropOp46
 70
     1
102
RTVSPost2010Prop47
 90
       50
102
RTVSPost2010PropOp47
 70
     1
102
RTVSPost2010Prop48
 90
       50
102
RTVSPost2010PropOp48
 70
     1
102
RTVSPost2010Prop49
280
     0
102
RTVSPost2010PropOp49
 70
     1
102
RTVSPost2010Prop50
 90
       50
102
RTVSPost2010PropOp50
 70
     1
102
RTVSPost2010Prop51ColorIndex
 90
      256
102
RTVSPost2010Prop51ColorRGB
 90
-16777216
102
RTVSPost2010PropOp51
 70
     0
102
RTVSPost2010Prop52
140
1.0
102
RTVSPost2010PropOp52
 70
     0
102
RTVSPost2010Prop53
 90
        2
102
RTVSPost2010PropOp53
 70
     1
102
RTVSPost2010Prop54
  1
strokes_ogs.tif
102
RTVSPost2010PropOp54
 70
     1
102
RTVSPost2010Prop55
280
     0
102
RTVSPost2010PropOp55
 70
     1
102
RTVSPost2010Prop56
140
1.0
102
RTVSPost2010PropOp56
 70
     1
102
RTVSPost2010Prop57
140
1.0
102
RTVSPost2010PropOp57
 70
     1
102
RTVSPropertyOp0
 70
     1
102
RTVSPropertyOp1
 70
     1
102
RTVSPropertyOp2
 70
     1
102
RTVSPropertyOp3
 70
     1
102
RTVSPropertyOp4
 70
     1
102
RTVSPropertyOp5
 70
     1
102
RTVSPropertyOp6
 70
     1
102
RTVSPropertyOp7
 70
     1
102
RTVSPropertyOp8
 70
     1
102
RTVSPropertyOp9
 70
     1
102
RTVSPropertyOp10
 70
     1
102
RTVSPropertyOp11
 70
     1
102
RTVSPropertyOp12
 70
     1
102
RTVSPropertyOp13
 70
     1
102
RTVSPropertyOp14
 70
     1
102
RTVSPropertyOp15
 70
     1
102
RTVSPropertyOp16
 70
     1
102
RTVSPropertyOp17
 70
     1
102
RTVSPropertyOp18
 70
     1
102
RTVSPropertyOp19
 70
     1
102
RTVSPropertyOp20
 70
     1
102
RTVSPropertyOp21
 70
     1
102
RTVSPropertyOp22
 70
     1
102
RTVSPropertyOp23
 70
     1
102
RTVSPropertyOp24
 70
     1
102
RTVSPropertyOp25
 70
     1
102
RTVSPropertyOp26
 70
     1
102
RTVSPropertyOp27
 70
     1
102
RTVSPropertyOp28
 70
     1
102
RTVSPropertyOp29
 70
     1
102
RTVSPropertyOp30
 70
     1
102
RTVSPropertyOp31
 70
     1
102
RTVSPropertyOp32
 70
     1
102
RTVSPropertyOp33
 70
     1
102
RTVSPropertyOp34
 70
     1
102
RTVSPropertyOp35
 70
     1
102
RTVSPropertyOp36
 70
     1
102
RTVSPropertyOp37
 70
     1
102
RTVSPropertyOp38
 70
     1
102
RTVSPropertyOp39
 70
     1
102
RTVSPropertyOp40
 70
     1
102
RTVSPropertyOp41
 70
     1
102
RTVSPropertyOp42
 70
     1
102
RTVSPropertyOp43
 70
     1
102
RTVSPropertyOp44
 70
     1
102
RTVSPropertyOp45
 70
     1
102
RTVSPropertyOp46
 70
     1
102
RTVSPropertyOp47
 70
     1
102
RTVSPropertyOp48
 70
     1
102
RTVSPropertyOp49
 70
     1
102
RTVSPropertyOp50
 70
     1
102
RTVSPropertyOp51
 70
     0
102
RTVSPropertyOp52
 70
     0
102
RTVSPropertyOp53
 70
     1
102
RTVSPropertyOp54
 70
     1
102
RTVSPropertyOp55
 70
     1
102
RTVSPropertyOp56
 70
     1
102
RTVSPropertyOp57
 70
     1
102
RTVSPropertyOp58
 70
     1
102
RTVSPropertyOp59
 70
     1
102
RTVSPropertyOp60
 70
     1
102
RTVSPropertyOp61
 70
     1
102
RTVSPropertyOp62
 70
     1
  0
XRECORD
  5
1A60
102
{ACAD_REACTORS
330
1A5F
102
}
330
1A5F
100
AcDbXrecord
280
     1
102
RTVSPost2010Prop28
280
     0
102
RTVSPost2010PropOp28
 70
     1
102
RTVSPost2010Prop29
280
     1
102
RTVSPost2010PropOp29
 70
     1
102
RTVSPost2010Prop30
280
     1
102
RTVSPost2010PropOp30
 70
     1
102
RTVSPost2010Prop31
280
     0
102
RTVSPost2010PropOp31
 70
     1
102
RTVSPost2010Prop32
280
     0
102
RTVSPost2010PropOp32
 70
     1
102
RTVSPost2010Prop33
280
     0
102
RTVSPost2010PropOp33
 70
     1
102
RTVSPost2010Prop34
280
     0
102
RTVSPost2010PropOp34
 70
     1
102
RTVSPost2010Prop35
280
     0
102
RTVSPost2010PropOp35
 70
     1
102
RTVSPost2010Prop36
280
     0
102
RTVSPost2010PropOp36
 70
     1
102
RTVSPost2010Prop37
 90
       50
102
RTVSPost2010PropOp37
 70
     1
102
RTVSPost2010Prop38
140
0.0
102
RTVSPost2010PropOp38
 70
     1
102
RTVSPost2010Prop39
140
1.0
102
RTVSPost2010PropOp39
 70
     1
102
RTVSPost2010Prop40
 90
        0
102
RTVSPost2010PropOp40
 70
     1
102
RTVSPost2010Prop41ColorIndex
 90
       18
102
RTVSPost2010Prop41ColorRGB
 90
        0
102
RTVSPost2010PropOp41
 70
     1
102
RTVSPost2010Prop42
 90
       50
102
RTVSPost2010PropOp42
 70
     1
102
RTVSPost2010Prop43
 90
        3
102
RTVSPost2010PropOp43
 70
     1
102
RTVSPost2010Prop44ColorIndex
 90
        5
102
RTVSPost2010Prop44ColorRGB
 90
      255
102
RTVSPost2010PropOp44
 70
     1
102
RTVSPost2010Prop45
280
     0
102
RTVSPost2010PropOp45
 70
     1
102
RTVSPost2010Prop46
 90
       50
102
RTVSPost2010PropOp46
 70
     1
102
RTVSPost2010Prop47
 90
       50
102
RTVSPost2010PropOp47
 70
     1
102
RTVSPost2010Prop48
 90
       50
102
RTVSPost2010PropOp48
 70
     1
102
RTVSPost2010Prop49
280
     0
102
RTVSPost2010PropOp49
 70
     1
102
RTVSPost2010Prop50
 90
       50
102
RTVSPost2010PropOp50
 70
     1
102
RTVSPost2010Prop51ColorIndex
 90
      256
102
RTVSPost2010Prop51ColorRGB
 90
-16777216
102
RTVSPost2010PropOp51
 70
     0
102
RTVSPost2010Prop52
140
1.0
102
RTVSPost2010PropOp52
 70
     0
102
RTVSPost2010Prop53
 90
        2
102
RTVSPost2010PropOp53
 70
     1
102
RTVSPost2010Prop54
  1
strokes_ogs.tif
102
RTVSPost2010PropOp54
 70
     1
102
RTVSPost2010Prop55
280
     0
102
RTVSPost2010PropOp55
 70
     1
102
RTVSPost2010Prop56
140
1.0
102
RTVSPost2010PropOp56
 70
     1
102
RTVSPost2010Prop57
140
1.0
102
RTVSPost2010PropOp57
 70
     1
102
RTVSPropertyOp0
 70
     1
102
RTVSPropertyOp1
 70
     1
102
RTVSPropertyOp2
 70
     1
102
RTVSPropertyOp3
 70
     1
102
RTVSPropertyOp4
 70
     1
102
RTVSPropertyOp5
 70
     1
102
RTVSPropertyOp6
 70
     1
102
RTVSPropertyOp7
 70
     1
102
RTVSPropertyOp8
 70
     1
102
RTVSPropertyOp9
 70
     1
102
RTVSPropertyOp10
 70
     1
102
RTVSPropertyOp11
 70
     1
102
RTVSPropertyOp12
 70
     1
102
RTVSPropertyOp13
 70
     1
102
RTVSPropertyOp14
 70
     1
102
RTVSPropertyOp15
 70
     1
102
RTVSPropertyOp16
 70
     1
102
RTVSPropertyOp17
 70
     1
102
RTVSPropertyOp18
 70
     1
102
RTVSPropertyOp19
 70
     1
102
RTVSPropertyOp20
 70
     1
102
RTVSPropertyOp21
 70
     1
102
RTVSPropertyOp22
 70
     1
102
RTVSPropertyOp23
 70
     1
102
RTVSPropertyOp24
 70
     1
102
RTVSPropertyOp25
 70
     1
102
RTVSPropertyOp26
 70
     1
102
RTVSPropertyOp27
 70
     1
102
RTVSPropertyOp28
 70
     1
102
RTVSPropertyOp29
 70
     1
102
RTVSPropertyOp30
 70
     1
102
RTVSPropertyOp31
 70
     1
102
RTVSPropertyOp32
 70
     1
102
RTVSPropertyOp33
 70
     1
102
RTVSPropertyOp34
 70
     1
102
RTVSPropertyOp35
 70
     1
102
RTVSPropertyOp36
 70
     1
102
RTVSPropertyOp37
 70
     1
102
RTVSPropertyOp38
 70
     1
102
RTVSPropertyOp39
 70
     1
102
RTVSPropertyOp40
 70
     1
102
RTVSPropertyOp41
 70
     1
102
RTVSPropertyOp42
 70
     1
102
RTVSPropertyOp43
 70
     1
102
RTVSPropertyOp44
 70
     1
102
RTVSPropertyOp45
 70
     1
102
RTVSPropertyOp46
 70
     1
102
RTVSPropertyOp47
 70
     1
102
RTVSPropertyOp48
 70
     1
102
RTVSPropertyOp49
 70
     1
102
RTVSPropertyOp50
 70
     1
102
RTVSPropertyOp51
 70
     0
102
RTVSPropertyOp52
 70
     0
102
RTVSPropertyOp53
 70
     1
102
RTVSPropertyOp54
 70
     1
102
RTVSPropertyOp55
 70
     1
102
RTVSPropertyOp56
 70
     1
102
RTVSPropertyOp57
 70
     1
102
RTVSPropertyOp58
 70
     1
102
RTVSPropertyOp59
 70
     1
102
RTVSPropertyOp60
 70
     1
102
RTVSPropertyOp61
 70
     1
102
RTVSPropertyOp62
 70
     1
  0
ENDSEC
  0
EOF
