  0
SECTION
  2
HEADER
  9
$ACADVER
  1
AC1018
  9
$ACADMAINTVER
 70
   104
  9
$DWGCODEPAGE
  3
ANSI_1252
  9
$LASTSAVEDBY
  1
titadi
  9
$INSBASE
 10
0.0
 20
0.0
 30
0.0
  9
$EXTMIN
 10
-103.5769331329234
 20
-9.557036165563658
 30
-0.000000000000013
  9
$EXTMAX
 10
100.9594279974226
 20
100.5740364601067
 30
0.0000000000000023
  9
$LIMMIN
 10
-170.0
 20
-170.0
  9
$LIMMAX
 10
519.0
 20
260.0
  9
$ORTHOMODE
 70
     1
  9
$REGENMODE
 70
     1
  9
$FILLMODE
 70
     1
  9
$QTEXTMODE
 70
     0
  9
$MIRRTEXT
 70
     0
  9
$LTSCALE
 40
1.0
  9
$ATTMODE
 70
     1
  9
$TEXTSIZE
 40
3.5
  9
$TRACEWID
 40
1.0
  9
$TEXTSTYLE
  7
SIMPLEX
  9
$CLAYER
  8
1
  9
$CELTYPE
  6
BYLAYER
  9
$CECOLOR
 62
   256
  9
$CELTSCALE
 40
1.0
  9
$DISPSILH
 70
     0
  9
$DIMSCALE
 40
1.0
  9
$DIMASZ
 40
2.5
  9
$DIMEXO
 40
0.0
  9
$DIMDLI
 40
3.75
  9
$DIMRND
 40
0.0
  9
$DIMDLE
 40
0.0
  9
$DIMEXE
 40
1.25
  9
$DIMTP
 40
0.0
  9
$DIMTM
 40
0.0
  9
$DIMTXT
 40
3.5
  9
$DIMCEN
 40
0.0
  9
$DIMTSZ
 40
0.0
  9
$DIMTOL
 70
     0
  9
$DIMLIM
 70
     0
  9
$DIMTIH
 70
     0
  9
$DIMTOH
 70
     0
  9
$DIMSE1
 70
     0
  9
$DIMSE2
 70
     0
  9
$DIMTAD
 70
     1
  9
$DIMZIN
 70
     8
  9
$DIMBLK
  1

  9
$DIMASO
 70
     1
  9
$DIMSHO
 70
     1
  9
$DIMPOST
  1

  9
$DIMAPOST
  1

  9
$DIMALT
 70
     0
  9
$DIMALTD
 70
     3
  9
$DIMALTF
 40
0.039370078
  9
$DIMLFAC
 40
1.0
  9
$DIMTOFL
 70
     0
  9
$DIMTVP
 40
0.0
  9
$DIMTIX
 70
     0
  9
$DIMSOXD
 70
     0
  9
$DIMSAH
 70
     0
  9
$DIMBLK1
  1

  9
$DIMBLK2
  1

  9
$DIMSTYLE
  2
STANDARD
  9
$DIMCLRD
 70
     0
  9
$DIMCLRE
 70
     0
  9
$DIMCLRT
 70
     0
  9
$DIMTFAC
 40
1.0
  9
$DIMGAP
 40
0.625
  9
$DIMJUST
 70
     0
  9
$DIMSD1
 70
     0
  9
$DIMSD2
 70
     0
  9
$DIMTOLJ
 70
     0
  9
$DIMTZIN
 70
     8
  9
$DIMALTZ
 70
     0
  9
$DIMALTTZ
 70
     0
  9
$DIMUPT
 70
     0
  9
$DIMDEC
 70
     2
  9
$DIMTDEC
 70
     2
  9
$DIMALTU
 70
     2
  9
$DIMALTTD
 70
     3
  9
$DIMTXSTY
  7
SIMPLEX
  9
$DIMAUNIT
 70
     0
  9
$DIMADEC
 70
     2
  9
$DIMALTRND
 40
0.0
  9
$DIMAZIN
 70
     2
  9
$DIMDSEP
 70
    46
  9
$DIMATFIT
 70
     3
  9
$DIMFRAC
 70
     0
  9
$DIMLDRBLK
  1

  9
$DIMLUNIT
 70
     2
  9
$DIMLWD
 70
    -2
  9
$DIMLWE
 70
    -2
  9
$DIMTMOVE
 70
     0
  9
$LUNITS
 70
     2
  9
$LUPREC
 70
     4
  9
$SKETCHINC
 40
1.0
  9
$FILLETRAD
 40
0.0
  9
$AUNITS
 70
     0
  9
$AUPREC
 70
     0
  9
$MENU
  1
c:\tdm21\cad\caduti13\tdm13
  9
$ELEVATION
 40
0.0
  9
$PELEVATION
 40
0.0
  9
$THICKNESS
 40
0.0
  9
$LIMCHECK
 70
     0
  9
$CHAMFERA
 40
0.0
  9
$CHAMFERB
 40
0.0
  9
$CHAMFERC
 40
0.0
  9
$CHAMFERD
 40
0.0
  9
$SKPOLY
 70
     0
  9
$TDCREATE
 40
2454957.551975972
  9
$TDUCREATE
 40
2454957.510309306
  9
$TDUPDATE
 40
2457340.477003576
  9
$TDUUPDATE
 40
2457340.435336910
  9
$TDINDWG
 40
0.3052088079
  9
$TDUSRTIMER
 40
0.3051904514
  9
$USRTIMER
 70
     1
  9
$ANGBASE
 50
0.0
  9
$ANGDIR
 70
     0
  9
$PDMODE
 70
     1
  9
$PDSIZE
 40
0.0
  9
$PLINEWID
 40
0.0
  9
$SPLFRAME
 70
     0
  9
$SPLINETYPE
 70
     6
  9
$SPLINESEGS
 70
     8
  9
$HANDSEED
  5
10CB
  9
$SURFTAB1
 70
     6
  9
$SURFTAB2
 70
     6
  9
$SURFTYPE
 70
     6
  9
$SURFU
 70
     6
  9
$SURFV
 70
     6
  9
$UCSBASE
  2

  9
$UCSNAME
  2

  9
$UCSORG
 10
0.0
 20
0.0
 30
0.0
  9
$UCSXDIR
 10
1.0
 20
0.0
 30
0.0
  9
$UCSYDIR
 10
0.0
 20
1.0
 30
0.0
  9
$UCSORTHOREF
  2

  9
$UCSORTHOVIEW
 70
     0
  9
$UCSORGTOP
 10
0.0
 20
0.0
 30
0.0
  9
$UCSORGBOTTOM
 10
0.0
 20
0.0
 30
0.0
  9
$UCSORGLEFT
 10
0.0
 20
0.0
 30
0.0
  9
$UCSORGRIGHT
 10
0.0
 20
0.0
 30
0.0
  9
$UCSORGFRONT
 10
0.0
 20
0.0
 30
0.0
  9
$UCSORGBACK
 10
0.0
 20
0.0
 30
0.0
  9
$PUCSBASE
  2

  9
$PUCSNAME
  2

  9
$PUCSORG
 10
0.0
 20
0.0
 30
0.0
  9
$PUCSXDIR
 10
1.0
 20
0.0
 30
0.0
  9
$PUCSYDIR
 10
0.0
 20
1.0
 30
0.0
  9
$PUCSORTHOREF
  2

  9
$PUCSORTHOVIEW
 70
     0
  9
$PUCSORGTOP
 10
0.0
 20
0.0
 30
0.0
  9
$PUCSORGBOTTOM
 10
0.0
 20
0.0
 30
0.0
  9
$PUCSORGLEFT
 10
0.0
 20
0.0
 30
0.0
  9
$PUCSORGRIGHT
 10
0.0
 20
0.0
 30
0.0
  9
$PUCSORGFRONT
 10
0.0
 20
0.0
 30
0.0
  9
$PUCSORGBACK
 10
0.0
 20
0.0
 30
0.0
  9
$USERI1
 70
     0
  9
$USERI2
 70
     0
  9
$USERI3
 70
     0
  9
$USERI4
 70
     0
  9
$USERI5
 70
     0
  9
$USERR1
 40
0.0
  9
$USERR2
 40
0.0
  9
$USERR3
 40
0.0
  9
$USERR4
 40
0.0
  9
$USERR5
 40
0.0
  9
$WORLDVIEW
 70
     1
  9
$SHADEDGE
 70
     3
  9
$SHADEDIF
 70
    70
  9
$TILEMODE
 70
     1
  9
$MAXACTVP
 70
    64
  9
$PINSBASE
 10
0.0
 20
0.0
 30
0.0
  9
$PLIMCHECK
 70
     0
  9
$PEXTMIN
 10
0.0
 20
0.0
 30
0.0
  9
$PEXTMAX
 10
0.0
 20
0.0
 30
0.0
  9
$PLIMMIN
 10
0.0
 20
0.0
  9
$PLIMMAX
 10
12.0
 20
9.0
  9
$UNITMODE
 70
     0
  9
$VISRETAIN
 70
     0
  9
$PLINEGEN
 70
     0
  9
$PSLTSCALE
 70
     1
  9
$TREEDEPTH
 70
  3020
  9
$CMLSTYLE
  2
STANDARD
  9
$CMLJUST
 70
     0
  9
$CMLSCALE
 40
20.0
  9
$PROXYGRAPHICS
 70
     1
  9
$MEASUREMENT
 70
     1
  9
$CELWEIGHT
370
    -1
  9
$ENDCAPS
280
     0
  9
$JOINSTYLE
280
     0
  9
$LWDISPLAY
290
     0
  9
$INSUNITS
 70
     4
  9
$HYPERLINKBASE
  1

  9
$STYLESHEET
  1
MONOCHROME.CTB
  9
$XEDIT
290
     1
  9
$CEPSNTYPE
380
     0
  9
$PSTYLEMODE
290
     1
  9
$FINGERPRINTGUID
  2
{46B44192-1510-48B1-B61B-CBE2ADA013A7}
  9
$VERSIONGUID
  2
{062BF937-C206-4036-8685-676BDA73D615}
  9
$EXTNAMES
290
     1
  9
$PSVPSCALE
 40
0.0
  9
$OLESTARTUP
290
     0
  9
$SORTENTS
280
   127
  9
$INDEXCTL
280
     0
  9
$HIDETEXT
280
     1
  9
$XCLIPFRAME
290
     0
  9
$HALOGAP
280
     0
  9
$OBSCOLOR
 70
   257
  9
$OBSLTYPE
280
     0
  9
$INTERSECTIONDISPLAY
280
     0
  9
$INTERSECTIONCOLOR
 70
   257
  9
$DIMASSOC
280
     2
  9
$PROJECTNAME
  1

  0
ENDSEC
  0
SECTION
  2
CLASSES
  0
CLASS
  1
ACDBDICTIONARYWDFLT
  2
AcDbDictionaryWithDefault
  3
ObjectDBX Classes
 90
        0
 91
        1
280
     0
281
     0
  0
CLASS
  1
DICTIONARYVAR
  2
AcDbDictionaryVar
  3
ObjectDBX Classes
 90
        0
 91
       12
280
     0
281
     0
  0
CLASS
  1
TABLESTYLE
  2
AcDbTableStyle
  3
ObjectDBX Classes
 90
     4095
 91
        1
280
     0
281
     0
  0
CLASS
  1
SCALE
  2
AcDbScale
  3
ObjectDBX Classes
 90
     1153
 91
       33
280
     0
281
     0
  0
CLASS
  1
MATERIAL
  2
AcDbMaterial
  3
ObjectDBX Classes
 90
     1153
 91
        3
280
     0
281
     0
  0
CLASS
  1
VISUALSTYLE
  2
AcDbVisualStyle
  3
ObjectDBX Classes
 90
     4095
 91
       24
280
     0
281
     0
  0
CLASS
  1
MLEADERSTYLE
  2
AcDbMLeaderStyle
  3
ACDB_MLEADERSTYLE_CLASS
 90
     4095
 91
        1
280
     0
281
     0
  0
CLASS
  1
ACDBSECTIONVIEWSTYLE
  2
AcDbSectionViewStyle
  3
ObjectDBX Classes
 90
     1025
 91
        1
280
     0
281
     0
  0
CLASS
  1
ACDBDETAILVIEWSTYLE
  2
AcDbDetailViewStyle
  3
ObjectDBX Classes
 90
     1025
 91
        1
280
     0
281
     0
  0
CLASS
  1
EXACXREFPANELOBJECT
  2
ExAcXREFPanelObject
  3
EXAC_ESW
 90
     1025
 91
        0
280
     0
281
     0
  0
CLASS
  1
NPOCOLLECTION
  2
AcDbImpNonPersistentObjectsCollection
  3
ObjectDBX Classes
 90
     1153
 91
        0
280
     0
281
     0
  0
CLASS
  1
CELLSTYLEMAP
  2
AcDbCellStyleMap
  3
ObjectDBX Classes
 90
     1152
 91
        2
280
     0
281
     0
  0
CLASS
  1
SORTENTSTABLE
  2
AcDbSortentsTable
  3
ObjectDBX Classes
 90
        0
 91
        2
280
     0
281
     0
  0
CLASS
  1
DIMASSOC
  2
AcDbDimAssoc
  3
"AcDbDimAssoc|Product Desc:     AcDim ARX App For Dimension|Company:          Autodesk, Inc.|WEB Address:      www.autodesk.com"
 90
        0
 91
        0
280
     0
281
     0
  0
ENDSEC
  0
SECTION
  2
TABLES
  0
TABLE
  2
VPORT
  5
8
330
0
100
AcDbSymbolTable
 70
     1
  0
VPORT
  5
39A
330
8
100
AcDbSymbolTableRecord
100
AcDbViewportTableRecord
  2
*Active
 70
     0
 10
0.0
 20
0.0
 11
1.0
 21
1.0
 12
-1.308752567750389
 22
45.50850014727155
 13
0.0
 23
0.0
 14
5.0
 24
5.0
 15
5.0
 25
5.0
 16
0.0
 26
0.0
 36
1.0
 17
0.0
 27
0.0
 37
0.0
 40
111.0216203827513
 41
2.584345479082321
 42
50.0
 43
0.0
 44
0.0
 50
0.0
 51
0.0
 71
     0
 72
  2000
 73
     1
 74
     1
 75
     0
 76
     0
 77
     0
 78
     0
281
     0
 65
     1
110
0.0
120
0.0
130
0.0
111
1.0
121
0.0
131
0.0
112
0.0
122
1.0
132
0.0
 79
     0
146
0.0
1001
ACAD_NAV_VCDISPLAY
1070
     3
  0
ENDTAB
  0
TABLE
  2
LTYPE
  5
5
330
0
100
AcDbSymbolTable
 70
     3
  0
LTYPE
  5
12
330
5
100
AcDbSymbolTableRecord
100
AcDbLinetypeTableRecord
  2
BYBLOCK
 70
     0
  3

 72
    65
 73
     0
 40
0.0
  0
LTYPE
  5
13
330
5
100
AcDbSymbolTableRecord
100
AcDbLinetypeTableRecord
  2
BYLAYER
 70
     0
  3

 72
    65
 73
     0
 40
0.0
  0
LTYPE
  5
14
330
5
100
AcDbSymbolTableRecord
100
AcDbLinetypeTableRecord
  2
CONTINUOUS
 70
     0
  3
Solid line
 72
    65
 73
     0
 40
0.0
  0
LTYPE
  5
20
330
5
100
AcDbSymbolTableRecord
100
AcDbLinetypeTableRecord
  2
HIDDEN
 70
     0
  3
Hidden __ __ __ __ __ __ __ __ __ __ __ __ __ _
 72
    65
 73
     2
 40
9.524999999999996
 49
6.349999999999997
 74
     0
 49
-3.174999999999998
 74
     0
  0
LTYPE
  5
351
330
5
100
AcDbSymbolTableRecord
100
AcDbLinetypeTableRecord
  2
CENTER
 70
     0
  3
Dash dot __ . __ . __ . __ . __ . __ . __ . __
 72
    65
 73
     4
 40
25.4
 49
12.7
 74
     0
 49
-6.349999999999997
 74
     0
 49
0.0
 74
     0
 49
-6.349999999999997
 74
     0
  0
ENDTAB
  0
TABLE
  2
LAYER
  5
2
102
{ACAD_XDICTIONARY
360
802
102
}
330
0
100
AcDbSymbolTable
 70
    16
  0
LAYER
  5
F
102
{ACAD_XDICTIONARY
360
62F
102
}
330
2
100
AcDbSymbolTableRecord
100
AcDbLayerTableRecord
  2
0
 70
     0
 62
     7
  6
CONTINUOUS
370
    -3
390
300
  0
LAYER
  5
23
102
{ACAD_XDICTIONARY
360
631
102
}
330
2
100
AcDbSymbolTableRecord
100
AcDbLayerTableRecord
  2
1
 70
     0
 62
     4
  6
CONTINUOUS
370
    -3
390
300
  0
LAYER
  5
24
102
{ACAD_XDICTIONARY
360
633
102
}
330
2
100
AcDbSymbolTableRecord
100
AcDbLayerTableRecord
  2
SK1
 70
     0
 62
     4
  6
CONTINUOUS
370
    -3
390
300
  0
LAYER
  5
25
102
{ACAD_XDICTIONARY
360
635
102
}
330
2
100
AcDbSymbolTableRecord
100
AcDbLayerTableRecord
  2
2
 70
     0
 62
     7
  6
CONTINUOUS
370
    -3
390
300
  0
LAYER
  5
26
102
{ACAD_XDICTIONARY
360
637
102
}
330
2
100
AcDbSymbolTableRecord
100
AcDbLayerTableRecord
  2
2L
 70
     0
 62
     7
  6
CONTINUOUS
370
    -3
390
300
  0
LAYER
  5
27
102
{ACAD_XDICTIONARY
360
639
102
}
330
2
100
AcDbSymbolTableRecord
100
AcDbLayerTableRecord
  2
SK2
 70
     0
 62
     7
  6
CONTINUOUS
370
    -3
390
300
  0
LAYER
  5
28
102
{ACAD_XDICTIONARY
360
63B
102
}
330
2
100
AcDbSymbolTableRecord
100
AcDbLayerTableRecord
  2
3
 70
     0
 62
     1
  6
HIDDEN
370
    -3
390
300
  0
LAYER
  5
29
102
{ACAD_XDICTIONARY
360
63D
102
}
330
2
100
AcDbSymbolTableRecord
100
AcDbLayerTableRecord
  2
SK3
 70
     0
 62
     1
  6
HIDDEN
370
    -3
390
300
  0
LAYER
  5
2A
102
{ACAD_XDICTIONARY
360
63F
102
}
330
2
100
AcDbSymbolTableRecord
100
AcDbLayerTableRecord
  2
4
 70
     0
 62
     2
  6
CENTER
370
    -3
390
300
  0
LAYER
  5
2B
102
{ACAD_XDICTIONARY
360
641
102
}
330
2
100
AcDbSymbolTableRecord
100
AcDbLayerTableRecord
  2
SK4
 70
     0
 62
     2
  6
CENTER
370
    -3
390
300
  0
LAYER
  5
2C
102
{ACAD_XDICTIONARY
360
643
102
}
330
2
100
AcDbSymbolTableRecord
100
AcDbLayerTableRecord
  2
5
 70
     0
 62
    -7
  6
CONTINUOUS
370
    -3
390
300
  0
LAYER
  5
2D
102
{ACAD_XDICTIONARY
360
645
102
}
330
2
100
AcDbSymbolTableRecord
100
AcDbLayerTableRecord
  2
6
 70
     0
 62
     5
  6
CONTINUOUS
370
    -3
390
300
  0
LAYER
  5
2E
102
{ACAD_XDICTIONARY
360
647
102
}
330
2
100
AcDbSymbolTableRecord
100
AcDbLayerTableRecord
  2
SK6
 70
     0
 62
     5
  6
CONTINUOUS
370
    -3
390
300
  0
LAYER
  5
2F
330
2
100
AcDbSymbolTableRecord
100
AcDbLayerTableRecord
  2
DEFPOINTS
 70
     0
 62
     7
  6
CONTINUOUS
290
     0
370
    -3
390
300
  0
LAYER
  5
375
102
{ACAD_XDICTIONARY
360
649
102
}
330
2
100
AcDbSymbolTableRecord
100
AcDbLayerTableRecord
  2
CUT
 70
     0
 62
     1
  6
CONTINUOUS
370
    -3
390
300
  0
LAYER
  5
376
102
{ACAD_XDICTIONARY
360
64B
102
}
330
2
100
AcDbSymbolTableRecord
100
AcDbLayerTableRecord
  2
NOCUT
 70
     0
 62
     7
  6
CONTINUOUS
370
    -3
390
300
  0
ENDTAB
  0
TABLE
  2
STYLE
  5
3
330
0
100
AcDbSymbolTable
 70
     5
  0
STYLE
  5
10
330
3
100
AcDbSymbolTableRecord
100
AcDbTextStyleTableRecord
  2
STANDARD
 70
     0
 40
0.0
 41
1.0
 50
0.0
 71
     0
 42
5.0
  3
txt
  4

  0
STYLE
  5
1D
330
3
100
AcDbSymbolTableRecord
100
AcDbTextStyleTableRecord
  2
TXT
 70
     0
 40
8.0
 41
1.0
 50
0.0
 71
     0
 42
8.0
  3
txt
  4

  0
STYLE
  5
1E
330
3
100
AcDbSymbolTableRecord
100
AcDbTextStyleTableRecord
  2
SIMPLEX
 70
     0
 40
0.0
 41
1.0
 50
0.0
 71
     0
 42
3.5
  3
simplex
  4

  0
STYLE
  5
34C
330
3
100
AcDbSymbolTableRecord
100
AcDbTextStyleTableRecord
  2

 70
     1
 40
0.0
 41
1.0
 50
0.0
 71
     0
 42
2.5
  3
ltypeshp.shx
  4

  0
STYLE
  5
E92
330
3
100
AcDbSymbolTableRecord
100
AcDbTextStyleTableRecord
  2
SANDVIK_STYLE
 70
     0
 40
3.0
 41
1.0
 50
0.0
 71
     0
 42
3.0
  3
simplex.shx
  4

  0
ENDTAB
  0
TABLE
  2
VIEW
  5
6
330
0
100
AcDbSymbolTable
 70
     1
  0
ENDTAB
  0
TABLE
  2
UCS
  5
7
330
0
100
AcDbSymbolTable
 70
     0
  0
ENDTAB
  0
TABLE
  2
APPID
  5
9
330
0
100
AcDbSymbolTable
 70
     5
  0
APPID
  5
11
330
9
100
AcDbSymbolTableRecord
100
AcDbRegAppTableRecord
  2
ACAD
 70
     0
  0
APPID
  5
653
330
9
100
AcDbSymbolTableRecord
100
AcDbRegAppTableRecord
  2
ACAD_NAV_VCDISPLAY
 70
     0
  0
APPID
  5
691
330
9
100
AcDbSymbolTableRecord
100
AcDbRegAppTableRecord
  2
ACAD_MLEADERVER
 70
     0
  0
APPID
  5
70D
330
9
100
AcDbSymbolTableRecord
100
AcDbRegAppTableRecord
  2
ACAD_EXEMPT_FROM_CAD_STANDARDS
 70
     0
  0
APPID
  5
756
330
9
100
AcDbSymbolTableRecord
100
AcDbRegAppTableRecord
  2
AcadAnnoMonitorAlertIconDisabled
 70
     0
  0
ENDTAB
  0
TABLE
  2
DIMSTYLE
  5
A
330
0
100
AcDbSymbolTable
 70
     2
100
AcDbDimStyleTable
 71
     2
340
3F
340
E93
  0
DIMSTYLE
105
3F
330
A
100
AcDbSymbolTableRecord
100
AcDbDimStyleTableRecord
  2
STANDARD
 70
     0
 41
2.5
 42
0.0
 43
3.75
 44
1.25
 73
     0
 74
     0
 77
     1
 78
     8
 79
     2
140
3.5
141
0.0
143
0.039370078
147
0.625
171
     3
179
     2
271
     2
272
     2
274
     3
283
     0
284
     8
340
1E
  0
DIMSTYLE
105
E93
102
{ACAD_REACTORS
330
EA3
330
EA0
330
EA5
330
EA4
330
EA2
330
EA1
330
5CF
330
5B4
330
5A7
330
599
330
5DC
330
5C1
102
}
330
A
100
AcDbSymbolTableRecord
100
AcDbDimStyleTableRecord
  2
SANDVIK_DIM
 70
     0
  4
 
 40
0.0
 41
4.57
 42
0.0
 44
5.0
 73
     0
 74
     0
 77
     1
 78
     8
140
4.5
147
2.299999999999998
176
   256
177
   256
178
   256
271
     2
272
     2
279
     2
340
E92
  0
ENDTAB
  0
TABLE
  2
BLOCK_RECORD
  5
1
330
0
100
AcDbSymbolTable
 70
    19
  0
BLOCK_RECORD
  5
18
102
{ACAD_XDICTIONARY
360
777
102
}
330
1
100
AcDbSymbolTableRecord
100
AcDbBlockTableRecord
  2
*MODEL_SPACE
340
303
  0
BLOCK_RECORD
  5
338
330
1
100
AcDbSymbolTableRecord
100
AcDbBlockTableRecord
  2
*Paper_Space
340
33B
  0
BLOCK_RECORD
  5
59A
330
1
100
AcDbSymbolTableRecord
100
AcDbBlockTableRecord
  2
*D0
340
0
  0
BLOCK_RECORD
  5
5A8
330
1
100
AcDbSymbolTableRecord
100
AcDbBlockTableRecord
  2
*D1
340
0
  0
BLOCK_RECORD
  5
5B5
330
1
100
AcDbSymbolTableRecord
100
AcDbBlockTableRecord
  2
*D2
340
0
  0
BLOCK_RECORD
  5
5C2
330
1
100
AcDbSymbolTableRecord
100
AcDbBlockTableRecord
  2
*D3
340
0
  0
BLOCK_RECORD
  5
5D0
330
1
100
AcDbSymbolTableRecord
100
AcDbBlockTableRecord
  2
*D4
340
0
  0
BLOCK_RECORD
  5
5DD
330
1
100
AcDbSymbolTableRecord
100
AcDbBlockTableRecord
  2
*D5
340
0
  0
BLOCK_RECORD
  5
6DB
330
1
100
AcDbSymbolTableRecord
100
AcDbBlockTableRecord
  2
*D6
340
0
  0
BLOCK_RECORD
  5
789
330
1
100
AcDbSymbolTableRecord
100
AcDbBlockTableRecord
  2
*D7
340
0
  0
BLOCK_RECORD
  5
85D
330
1
100
AcDbSymbolTableRecord
100
AcDbBlockTableRecord
  2
*D8
340
0
  0
BLOCK_RECORD
  5
978
330
1
100
AcDbSymbolTableRecord
100
AcDbBlockTableRecord
  2
*D9
340
0
  0
BLOCK_RECORD
  5
C31
330
1
100
AcDbSymbolTableRecord
100
AcDbBlockTableRecord
  2
*D10
340
0
  0
BLOCK_RECORD
  5
D90
330
1
100
AcDbSymbolTableRecord
100
AcDbBlockTableRecord
  2
*D11
340
0
  0
BLOCK_RECORD
  5
E45
330
1
100
AcDbSymbolTableRecord
100
AcDbBlockTableRecord
  2
*D12
340
0
  0
BLOCK_RECORD
  5
E52
330
1
100
AcDbSymbolTableRecord
100
AcDbBlockTableRecord
  2
*D13
340
0
  0
BLOCK_RECORD
  5
E5F
330
1
100
AcDbSymbolTableRecord
100
AcDbBlockTableRecord
  2
*D14
340
0
  0
BLOCK_RECORD
  5
E6C
330
1
100
AcDbSymbolTableRecord
100
AcDbBlockTableRecord
  2
*D15
340
0
  0
BLOCK_RECORD
  5
E79
330
1
100
AcDbSymbolTableRecord
100
AcDbBlockTableRecord
  2
*D16
340
0
  0
BLOCK_RECORD
  5
E85
330
1
100
AcDbSymbolTableRecord
100
AcDbBlockTableRecord
  2
*D17
340
0
  0
BLOCK_RECORD
  5
E94
102
{ACAD_XDICTIONARY
360
F23
102
}
330
1
100
AcDbSymbolTableRecord
100
AcDbBlockTableRecord
  2
A$C0C20536C
340
0
1001
ACAD
1000
DesignCenter Data
1002
{
1070
     1
1070
     4
1002
}
  0
ENDTAB
  0
ENDSEC
  0
SECTION
  2
BLOCKS
  0
BLOCK
  5
32
330
18
100
AcDbEntity
  8
0
100
AcDbBlockBegin
  2
*MODEL_SPACE
 70
     0
 10
0.0
 20
0.0
 30
0.0
  3
*MODEL_SPACE
  1

  0
ENDBLK
  5
33
330
18
100
AcDbEntity
  8
0
100
AcDbBlockEnd
  0
BLOCK
  5
339
330
338
100
AcDbEntity
 67
     1
  8
0
100
AcDbBlockBegin
  2
*Paper_Space
 70
     0
 10
0.0
 20
0.0
 30
0.0
  3
*Paper_Space
  1

  0
ENDBLK
  5
33A
330
338
100
AcDbEntity
 67
     1
  8
0
100
AcDbBlockEnd
  0
BLOCK
  5
5A5
330
59A
100
AcDbEntity
  8
0
100
AcDbBlockBegin
  2
*D0
 70
     1
 10
0.0
 20
0.0
 30
0.0
  3
*D0
  1

  0
LINE
  5
1025
330
59A
100
AcDbEntity
  8
2
440
 16777216
370
    -2
100
AcDbLine
 10
48.89373495527314
 20
9.526023034882966
 30
0.0
 11
100.9425436749322
 21
9.52602303488295
 31
0.0
  0
LINE
  5
1026
330
59A
100
AcDbEntity
  8
2
440
 16777216
370
    -2
100
AcDbLine
 10
48.89373540711685
 20
-9.526023034882852
 30
0.0
 11
100.9425436749322
 21
-9.526023034882866
 31
0.0
  0
LINE
  5
1027
330
59A
100
AcDbEntity
  8
2
440
 16777216
370
    -2
100
AcDbLine
 10
95.94254367493226
 20
4.956023034882951
 30
0.0
 11
95.94254367493226
 21
-4.956023034882866
 31
0.0
  0
SOLID
  5
1028
330
59A
100
AcDbEntity
  8
2
440
 16777216
100
AcDbTrace
 10
95.1808770082656
 20
4.956023034882951
 30
0.0
 11
96.70421034159893
 21
4.956023034882951
 31
0.0
 12
95.94254367493226
 22
9.526023034882953
 32
0.0
 13
95.94254367493226
 23
9.526023034882953
 33
0.0
  0
SOLID
  5
1029
330
59A
100
AcDbEntity
  8
2
440
 16777216
100
AcDbTrace
 10
95.1808770082656
 20
-4.956023034882866
 30
0.0
 11
96.70421034159893
 21
-4.956023034882866
 31
0.0
 12
95.94254367493226
 22
-9.526023034882866
 32
0.0
 13
95.94254367493226
 23
-9.526023034882866
 33
0.0
  0
MTEXT
  5
102A
330
59A
100
AcDbEntity
  8
2
440
 16777216
100
AcDbMText
 10
92.14254367493229
 20
0.0000000000000582
 30
0.0
 40
3.0
 41
0.0
 71
     5
 72
     1
  1
\A1;%%c19.05
  7
SANDVIK_STYLE
 11
0.0000000000000001
 21
1.0
 31
0.0
 73
     1
 44
1.0
  0
POINT
  5
102B
330
59A
100
AcDbEntity
  8
DEFPOINTS
 62
     0
440
 16777216
100
AcDbPoint
 10
48.89373495527314
 20
9.526023034882966
 30
0.0
  0
POINT
  5
102C
330
59A
100
AcDbEntity
  8
DEFPOINTS
 62
     0
440
 16777216
100
AcDbPoint
 10
48.89373540711685
 20
-9.526023034882852
 30
0.0
  0
POINT
  5
102D
330
59A
100
AcDbEntity
  8
DEFPOINTS
 62
     0
440
 16777216
100
AcDbPoint
 10
95.94254367493226
 20
-9.526023034882866
 30
0.0
  0
ENDBLK
  5
5A6
330
59A
100
AcDbEntity
  8
0
100
AcDbBlockEnd
  0
BLOCK
  5
5B2
330
5A8
100
AcDbEntity
  8
0
100
AcDbBlockBegin
  2
*D1
 70
     1
 10
0.0
 20
0.0
 30
0.0
  3
*D1
  1

  0
LINE
  5
101C
330
5A8
100
AcDbEntity
  8
2
440
 16777216
370
    -2
100
AcDbLine
 10
0.0
 20
0.0
 30
0.0
 11
0.0000000000000052
 21
84.37499997499998
 31
0.0
  0
LINE
  5
101D
330
5A8
100
AcDbEntity
  8
2
440
 16777216
370
    -2
100
AcDbLine
 10
50.00499997898177
 20
-0.0000000000000045
 30
0.0
 11
50.00499997898177
 21
84.37499997499998
 31
0.0
  0
LINE
  5
101E
330
5A8
100
AcDbEntity
  8
2
440
 16777216
370
    -2
100
AcDbLine
 10
4.570000000000003
 20
79.37499997499998
 30
0.0
 11
45.43499997898178
 21
79.37499997499998
 31
0.0
  0
SOLID
  5
101F
330
5A8
100
AcDbEntity
  8
2
440
 16777216
100
AcDbTrace
 10
4.570000000000003
 20
80.13666664166667
 30
0.0
 11
4.570000000000003
 21
78.61333330833331
 31
0.0
 12
0.0000000000000049
 22
79.37499997499998
 32
0.0
 13
0.0000000000000049
 23
79.37499997499998
 33
0.0
  0
SOLID
  5
1020
330
5A8
100
AcDbEntity
  8
2
440
 16777216
100
AcDbTrace
 10
45.43499997898178
 20
80.13666664166667
 30
0.0
 11
45.43499997898178
 21
78.61333330833331
 31
0.0
 12
50.00499997898177
 22
79.37499997499998
 32
0.0
 13
50.00499997898177
 23
79.37499997499998
 33
0.0
  0
MTEXT
  5
1021
330
5A8
100
AcDbEntity
  8
2
440
 16777216
100
AcDbMText
 10
25.00249998949089
 20
83.17499997499998
 30
0.0
 40
3.0
 41
0.0
 71
     5
 72
     1
  1
\A1;50
  7
SANDVIK_STYLE
 73
     1
 44
1.0
  0
POINT
  5
1022
330
5A8
100
AcDbEntity
  8
DEFPOINTS
 62
     0
440
 16777216
100
AcDbPoint
 10
0.0
 20
0.0
 30
0.0
  0
POINT
  5
1023
330
5A8
100
AcDbEntity
  8
DEFPOINTS
 62
     0
440
 16777216
100
AcDbPoint
 10
50.00499997898177
 20
-0.0000000000000045
 30
0.0
  0
POINT
  5
1024
330
5A8
100
AcDbEntity
  8
DEFPOINTS
 62
     0
440
 16777216
100
AcDbPoint
 10
50.00499997898177
 20
79.37499997499998
 30
0.0
  0
ENDBLK
  5
5B3
330
5A8
100
AcDbEntity
  8
0
100
AcDbBlockEnd
  0
BLOCK
  5
5BF
330
5B5
100
AcDbEntity
  8
0
100
AcDbBlockBegin
  2
*D2
 70
     1
 10
0.0
 20
0.0
 30
0.0
  3
*D2
  1

  0
LINE
  5
1013
330
5B5
100
AcDbEntity
  8
2
440
 16777216
370
    -2
100
AcDbLine
 10
10.3106061487513
 20
12.05713423988345
 30
0.0
 11
10.3106061487513
 21
66.22405103574741
 31
0.0
  0
LINE
  5
1014
330
5B5
100
AcDbEntity
  8
2
440
 16777216
370
    -2
100
AcDbLine
 10
50.00499997898177
 20
8.746193667655306
 30
0.0
 11
50.00499997898177
 21
66.22405103574741
 31
0.0
  0
LINE
  5
1015
330
5B5
100
AcDbEntity
  8
2
440
 16777216
370
    -2
100
AcDbLine
 10
14.8806061487513
 20
61.22405103574739
 30
0.0
 11
45.43499997898177
 21
61.22405103574739
 31
0.0
  0
SOLID
  5
1016
330
5B5
100
AcDbEntity
  8
2
440
 16777216
100
AcDbTrace
 10
14.8806061487513
 20
61.98571770241406
 30
0.0
 11
14.8806061487513
 21
60.46238436908073
 31
0.0
 12
10.3106061487513
 22
61.22405103574739
 32
0.0
 13
10.3106061487513
 23
61.22405103574739
 33
0.0
  0
SOLID
  5
1017
330
5B5
100
AcDbEntity
  8
2
440
 16777216
100
AcDbTrace
 10
45.43499997898177
 20
61.98571770241406
 30
0.0
 11
45.43499997898177
 21
60.46238436908073
 31
0.0
 12
50.00499997898177
 22
61.22405103574739
 32
0.0
 13
50.00499997898177
 23
61.22405103574739
 33
0.0
  0
MTEXT
  5
1018
330
5B5
100
AcDbEntity
  8
2
440
 16777216
100
AcDbMText
 10
30.00280306386654
 20
65.02405103574741
 30
0.0
 40
3.0
 41
0.0
 71
     5
 72
     1
  1
\A1;39.69
  7
SANDVIK_STYLE
 73
     1
 44
1.0
  0
POINT
  5
1019
330
5B5
100
AcDbEntity
  8
DEFPOINTS
 62
     0
440
 16777216
100
AcDbPoint
 10
10.3106061487513
 20
12.05713423988345
 30
0.0
  0
POINT
  5
101A
330
5B5
100
AcDbEntity
  8
DEFPOINTS
 62
     0
440
 16777216
100
AcDbPoint
 10
50.00499997898177
 20
8.746193667655306
 30
0.0
  0
POINT
  5
101B
330
5B5
100
AcDbEntity
  8
DEFPOINTS
 62
     0
440
 16777216
100
AcDbPoint
 10
50.00499997898177
 20
61.22405103574739
 30
0.0
  0
ENDBLK
  5
5C0
330
5B5
100
AcDbEntity
  8
0
100
AcDbBlockEnd
  0
BLOCK
  5
5CD
330
5C2
100
AcDbEntity
  8
0
100
AcDbBlockBegin
  2
*D3
 70
     1
 10
0.0
 20
0.0
 30
0.0
  3
*D3
  1

  0
LINE
  5
1038
330
5C2
100
AcDbEntity
  8
SK2
440
 16777216
370
    -2
100
AcDbLine
 10
-50.64718769144035
 20
9.52602303488296
 30
0.0
 11
-103.2721876763798
 21
9.526023034882976
 31
0.0
  0
LINE
  5
1039
330
5C2
100
AcDbEntity
  8
SK2
440
 16777216
370
    -2
100
AcDbLine
 10
-50.64718769144035
 20
-9.526023034882847
 30
0.0
 11
-103.2721876763798
 21
-9.526023034882831
 31
0.0
  0
LINE
  5
103A
330
5C2
100
AcDbEntity
  8
SK2
440
 16777216
370
    -2
100
AcDbLine
 10
-98.2721876763798
 20
4.956023034882974
 30
0.0
 11
-98.2721876763798
 21
-4.956023034882832
 31
0.0
  0
SOLID
  5
103B
330
5C2
100
AcDbEntity
  8
SK2
440
 16777216
100
AcDbTrace
 10
-99.03385434304651
 20
4.956023034882974
 30
0.0
 11
-97.51052100971314
 21
4.956023034882973
 31
0.0
 12
-98.2721876763798
 22
9.526023034882976
 32
0.0
 13
-98.2721876763798
 23
9.526023034882976
 33
0.0
  0
SOLID
  5
103C
330
5C2
100
AcDbEntity
  8
SK2
440
 16777216
100
AcDbTrace
 10
-99.03385434304651
 20
-4.956023034882832
 30
0.0
 11
-97.51052100971314
 21
-4.956023034882833
 31
0.0
 12
-98.2721876763798
 22
-9.526023034882834
 32
0.0
 13
-98.2721876763798
 23
-9.526023034882834
 33
0.0
  0
MTEXT
  5
103D
330
5C2
100
AcDbEntity
  8
SK2
440
 16777216
100
AcDbMText
 10
-102.0721876763798
 20
0.0000000000000553
 30
0.0
 40
3.0
 41
0.0
 71
     5
 72
     1
  1
\A1;%%c19.05
  7
SANDVIK_STYLE
 11
0.0000000000000001
 21
1.0
 31
0.0
 73
     1
 44
1.0
  0
POINT
  5
103E
330
5C2
100
AcDbEntity
  8
DEFPOINTS
 62
     0
440
 16777216
100
AcDbPoint
 10
-50.64718769144035
 20
9.52602303488296
 30
0.0
  0
POINT
  5
103F
330
5C2
100
AcDbEntity
  8
DEFPOINTS
 62
     0
440
 16777216
100
AcDbPoint
 10
-50.64718769144035
 20
-9.526023034882847
 30
0.0
  0
POINT
  5
1040
330
5C2
100
AcDbEntity
  8
DEFPOINTS
 62
     0
440
 16777216
100
AcDbPoint
 10
-98.2721876763798
 20
-9.526023034882834
 30
0.0
  0
ENDBLK
  5
5CE
330
5C2
100
AcDbEntity
  8
0
100
AcDbBlockEnd
  0
BLOCK
  5
5DA
330
5D0
100
AcDbEntity
  8
0
100
AcDbBlockBegin
  2
*D4
 70
     1
 10
0.0
 20
0.0
 30
0.0
  3
*D4
  1

  0
LINE
  5
100A
330
5D0
100
AcDbEntity
  8
SK2
440
 16777216
370
    -2
100
AcDbLine
 10
-51.598601493
 20
0.0000000000000009
 30
0.0
 11
-51.598601493
 21
100.24999997
 31
0.0
  0
LINE
  5
100B
330
5D0
100
AcDbEntity
  8
SK2
440
 16777216
370
    -2
100
AcDbLine
 10
50.00499997898177
 20
-0.000000000000002
 30
0.0
 11
50.00499997898177
 21
100.24999997
 31
0.0
  0
LINE
  5
100C
330
5D0
100
AcDbEntity
  8
SK2
440
 16777216
370
    -2
100
AcDbLine
 10
-47.028601493
 20
95.24999997
 30
0.0
 11
45.43499997898178
 21
95.24999997
 31
0.0
  0
SOLID
  5
100D
330
5D0
100
AcDbEntity
  8
SK2
440
 16777216
100
AcDbTrace
 10
-47.028601493
 20
96.01166663666667
 30
0.0
 11
-47.028601493
 21
94.48833330333334
 31
0.0
 12
-51.598601493
 22
95.24999997
 32
0.0
 13
-51.598601493
 23
95.24999997
 33
0.0
  0
SOLID
  5
100E
330
5D0
100
AcDbEntity
  8
SK2
440
 16777216
100
AcDbTrace
 10
45.43499997898178
 20
96.01166663666667
 30
0.0
 11
45.43499997898178
 21
94.48833330333334
 31
0.0
 12
50.00499997898177
 22
95.24999997
 32
0.0
 13
50.00499997898177
 23
95.24999997
 33
0.0
  0
MTEXT
  5
100F
330
5D0
100
AcDbEntity
  8
SK2
440
 16777216
100
AcDbMText
 10
-0.7968007570091089
 20
99.04999997
 30
0.0
 40
3.0
 41
0.0
 71
     5
 72
     1
  1
\A1;101.6
  7
SANDVIK_STYLE
 73
     1
 44
1.0
  0
POINT
  5
1010
330
5D0
100
AcDbEntity
  8
DEFPOINTS
 62
     0
440
 16777216
100
AcDbPoint
 10
-51.598601493
 20
0.0000000000000009
 30
0.0
  0
POINT
  5
1011
330
5D0
100
AcDbEntity
  8
DEFPOINTS
 62
     0
440
 16777216
100
AcDbPoint
 10
50.00499997898177
 20
-0.000000000000002
 30
0.0
  0
POINT
  5
1012
330
5D0
100
AcDbEntity
  8
DEFPOINTS
 62
     0
440
 16777216
100
AcDbPoint
 10
50.00499997898177
 20
95.24999997
 30
0.0
  0
ENDBLK
  5
5DB
330
5D0
100
AcDbEntity
  8
0
100
AcDbBlockEnd
  0
BLOCK
  5
5E8
330
5DD
100
AcDbEntity
  8
0
100
AcDbBlockBegin
  2
*D5
 70
     1
 10
0.0
 20
0.0
 30
0.0
  3
*D5
  1

  0
LINE
  5
102E
330
5DD
100
AcDbEntity
  8
2
440
 16777216
370
    -2
100
AcDbLine
 10
48.89373495527314
 20
9.526023034882966
 30
0.0
 11
48.89373495527314
 21
35.76157284776821
 31
0.0
  0
LINE
  5
102F
330
5DD
100
AcDbEntity
  8
2
440
 16777216
370
    -2
100
AcDbLine
 10
50.00499997898177
 20
8.746193667655306
 30
0.0
 11
50.00499997898177
 21
35.76157284776821
 31
0.0
  0
LINE
  5
1030
330
5DD
100
AcDbEntity
  8
2
440
 16777216
370
    -2
100
AcDbLine
 10
44.32373495527314
 20
30.76157284776821
 30
0.0
 11
39.75373495527314
 21
30.76157284776821
 31
0.0
  0
LINE
  5
1031
330
5DD
100
AcDbEntity
  8
2
440
 16777216
370
    -2
100
AcDbLine
 10
54.57499997898177
 20
30.76157284776821
 30
0.0
 11
85.31642855041033
 21
30.76157284776821
 31
0.0
  0
SOLID
  5
1032
330
5DD
100
AcDbEntity
  8
2
440
 16777216
100
AcDbTrace
 10
44.32373495527314
 20
31.52323951443488
 30
0.0
 11
44.32373495527314
 21
29.99990618110155
 31
0.0
 12
48.89373495527314
 22
30.76157284776821
 32
0.0
 13
48.89373495527314
 23
30.76157284776821
 33
0.0
  0
SOLID
  5
1033
330
5DD
100
AcDbEntity
  8
2
440
 16777216
100
AcDbTrace
 10
54.57499997898177
 20
31.52323951443488
 30
0.0
 11
54.57499997898177
 21
29.99990618110155
 31
0.0
 12
50.00499997898177
 22
30.76157284776821
 32
0.0
 13
50.00499997898177
 23
30.76157284776821
 33
0.0
  0
MTEXT
  5
1034
330
5DD
100
AcDbEntity
  8
2
440
 16777216
100
AcDbMText
 10
72.23071426469606
 20
34.56157284776821
 30
0.0
 40
3.0
 41
0.0
 71
     5
 72
     1
  1
\A1;0.558x35°
  7
SANDVIK_STYLE
 73
     1
 44
1.0
  0
POINT
  5
1035
330
5DD
100
AcDbEntity
  8
DEFPOINTS
 62
     0
440
 16777216
100
AcDbPoint
 10
48.89373495527314
 20
9.526023034882966
 30
0.0
  0
POINT
  5
1036
330
5DD
100
AcDbEntity
  8
DEFPOINTS
 62
     0
440
 16777216
100
AcDbPoint
 10
50.00499997898177
 20
8.746193667655306
 30
0.0
  0
POINT
  5
1037
330
5DD
100
AcDbEntity
  8
DEFPOINTS
 62
     0
440
 16777216
100
AcDbPoint
 10
50.00499997898177
 20
30.76157284776821
 30
0.0
  0
ENDBLK
  5
5E9
330
5DD
100
AcDbEntity
  8
0
100
AcDbBlockEnd
  0
BLOCK
  5
6DC
330
6DB
100
AcDbEntity
  8
0
100
AcDbBlockBegin
  2
*D6
 70
     1
 10
0.0
 20
0.0
 30
0.0
  3
*D6
  1

  0
LINE
  5
6DE
330
6DB
100
AcDbEntity
  8
1
 62
     0
440
 16777216
370
    -2
100
AcDbLine
 10
0.0
 20
0.0
 30
0.0
 11
0.0000000000000013
 21
20.66182566528084
 31
0.0
  0
LINE
  5
6DF
330
6DB
100
AcDbEntity
  8
1
 62
     0
440
 16777216
370
    -2
100
AcDbLine
 10
-38.099999988
 20
0.0000000000000093
 30
0.0
 11
-38.099999988
 21
20.66182566528084
 31
0.0
  0
LINE
  5
6E0
330
6DB
100
AcDbEntity
  8
1
 62
     0
440
 16777216
370
    -2
100
AcDbLine
 10
-2.499999999999996
 20
19.41182566528084
 30
0.0
 11
-35.599999988
 21
19.41182566528084
 31
0.0
  0
SOLID
  5
6E1
330
6DB
100
AcDbEntity
  8
1
 62
     0
440
 16777216
100
AcDbTrace
 10
-2.499999999999996
 20
19.82849233194751
 30
0.0
 11
-2.499999999999996
 21
18.99515899861417
 31
0.0
 12
0.0000000000000012
 22
19.41182566528084
 32
0.0
 13
0.0000000000000012
 23
19.41182566528084
 33
0.0
  0
SOLID
  5
6E2
330
6DB
100
AcDbEntity
  8
1
 62
     0
440
 16777216
100
AcDbTrace
 10
-35.599999988
 20
19.82849233194751
 30
0.0
 11
-35.599999988
 21
18.99515899861417
 31
0.0
 12
-38.099999988
 22
19.41182566528084
 32
0.0
 13
-38.099999988
 23
19.41182566528084
 33
0.0
  0
MTEXT
  5
6E3
330
6DB
100
AcDbEntity
  8
1
 62
     0
440
 16777216
100
AcDbMText
 10
-19.049999994
 20
21.78682566528085
 30
0.0
 40
3.5
 41
0.0
 71
     5
 72
     1
  1
38.1
  7
SIMPLEX
 73
     1
 44
1.0
  0
POINT
  5
6E4
330
6DB
100
AcDbEntity
  8
DEFPOINTS
 62
     0
440
 16777216
100
AcDbPoint
 10
0.0
 20
0.0
 30
0.0
  0
POINT
  5
6E5
330
6DB
100
AcDbEntity
  8
DEFPOINTS
 62
     0
440
 16777216
100
AcDbPoint
 10
-38.099999988
 20
0.0000000000000093
 30
0.0
  0
POINT
  5
6E6
330
6DB
100
AcDbEntity
  8
DEFPOINTS
 62
     0
440
 16777216
100
AcDbPoint
 10
-38.099999988
 20
19.41182566528084
 30
0.0
  0
ENDBLK
  5
6DD
330
6DB
100
AcDbEntity
  8
0
100
AcDbBlockEnd
  0
BLOCK
  5
78A
330
789
100
AcDbEntity
  8
0
100
AcDbBlockBegin
  2
*D7
 70
     1
 10
0.0
 20
0.0
 30
0.0
  3
*D7
  1

  0
LINE
  5
796
330
789
100
AcDbEntity
  8
1
 62
     0
440
 16777216
370
    -2
100
AcDbLine
 10
0.0
 20
0.000000000000002
 30
0.0
 11
0.000000000000001
 21
16.58423419456989
 31
0.0
  0
LINE
  5
797
330
789
100
AcDbEntity
  8
1
 62
     0
440
 16777216
370
    -2
100
AcDbLine
 10
-35.999999988
 20
0.0000000000000047
 30
0.0
 11
-35.999999988
 21
16.58423419456988
 31
0.0
  0
LINE
  5
798
330
789
100
AcDbEntity
  8
1
 62
     0
440
 16777216
370
    -2
100
AcDbLine
 10
-2.499999999999999
 20
15.33423419456989
 30
0.0
 11
-33.499999988
 21
15.33423419456989
 31
0.0
  0
SOLID
  5
799
330
789
100
AcDbEntity
  8
1
 62
     0
440
 16777216
100
AcDbTrace
 10
-2.499999999999999
 20
15.75090086123655
 30
0.0
 11
-2.499999999999999
 21
14.91756752790322
 31
0.0
 12
0.0000000000000009
 22
15.33423419456989
 32
0.0
 13
0.0000000000000009
 23
15.33423419456989
 33
0.0
  0
SOLID
  5
79A
330
789
100
AcDbEntity
  8
1
 62
     0
440
 16777216
100
AcDbTrace
 10
-33.499999988
 20
15.75090086123655
 30
0.0
 11
-33.499999988
 21
14.91756752790322
 31
0.0
 12
-35.999999988
 22
15.33423419456989
 32
0.0
 13
-35.999999988
 23
15.33423419456989
 33
0.0
  0
MTEXT
  5
79B
330
789
100
AcDbEntity
  8
1
 62
     0
440
 16777216
100
AcDbMText
 10
-17.999999994
 20
17.70923419456989
 30
0.0
 40
3.5
 41
0.0
 71
     5
 72
     1
  1
36
  7
SIMPLEX
 73
     1
 44
1.0
  0
POINT
  5
79C
330
789
100
AcDbEntity
  8
DEFPOINTS
 62
     0
440
 16777216
100
AcDbPoint
 10
0.0
 20
0.000000000000002
 30
0.0
  0
POINT
  5
79D
330
789
100
AcDbEntity
  8
DEFPOINTS
 62
     0
440
 16777216
100
AcDbPoint
 10
-35.999999988
 20
0.0000000000000047
 30
0.0
  0
POINT
  5
79E
330
789
100
AcDbEntity
  8
DEFPOINTS
 62
     0
440
 16777216
100
AcDbPoint
 10
-35.999999988
 20
15.33423419456989
 30
0.0
  0
ENDBLK
  5
78B
330
789
100
AcDbEntity
  8
0
100
AcDbBlockEnd
  0
BLOCK
  5
85E
330
85D
100
AcDbEntity
  8
0
100
AcDbBlockBegin
  2
*D8
 70
     1
 10
0.0
 20
0.0
 30
0.0
  3
*D8
  1

  0
LINE
  5
874
330
85D
100
AcDbEntity
  8
1
 62
     0
440
 16777216
370
    -2
100
AcDbLine
 10
0.0
 20
-0.0000000000000043
 30
0.0
 11
0.0000000000000015
 21
23.73616827983477
 31
0.0
  0
LINE
  5
875
330
85D
100
AcDbEntity
  8
1
 62
     0
440
 16777216
370
    -2
100
AcDbLine
 10
-39.699999982
 20
-0.1922953458032439
 30
0.0
 11
-39.699999982
 21
23.73616827983477
 31
0.0
  0
LINE
  5
876
330
85D
100
AcDbEntity
  8
1
 62
     0
440
 16777216
370
    -2
100
AcDbLine
 10
-2.499999999999996
 20
22.48616827983477
 30
0.0
 11
-37.199999982
 21
22.48616827983477
 31
0.0
  0
SOLID
  5
877
330
85D
100
AcDbEntity
  8
1
 62
     0
440
 16777216
100
AcDbTrace
 10
-2.499999999999996
 20
22.90283494650144
 30
0.0
 11
-2.499999999999996
 21
22.0695016131681
 31
0.0
 12
0.0000000000000014
 22
22.48616827983477
 32
0.0
 13
0.0000000000000014
 23
22.48616827983477
 33
0.0
  0
SOLID
  5
878
330
85D
100
AcDbEntity
  8
1
 62
     0
440
 16777216
100
AcDbTrace
 10
-37.199999982
 20
22.90283494650144
 30
0.0
 11
-37.199999982
 21
22.0695016131681
 31
0.0
 12
-39.699999982
 22
22.48616827983477
 32
0.0
 13
-39.699999982
 23
22.48616827983477
 33
0.0
  0
MTEXT
  5
879
330
85D
100
AcDbEntity
  8
1
 62
     0
440
 16777216
100
AcDbMText
 10
-19.849999991
 20
24.86116827983477
 30
0.0
 40
3.5
 41
0.0
 71
     5
 72
     1
  1
39.7
  7
SIMPLEX
 73
     1
 44
1.0
  0
POINT
  5
87A
330
85D
100
AcDbEntity
  8
DEFPOINTS
 62
     0
440
 16777216
100
AcDbPoint
 10
0.0
 20
-0.0000000000000043
 30
0.0
  0
POINT
  5
87B
330
85D
100
AcDbEntity
  8
DEFPOINTS
 62
     0
440
 16777216
100
AcDbPoint
 10
-39.699999982
 20
-0.1922953458032439
 30
0.0
  0
POINT
  5
87C
330
85D
100
AcDbEntity
  8
DEFPOINTS
 62
     0
440
 16777216
100
AcDbPoint
 10
-39.699999982
 20
22.48616827983477
 30
0.0
  0
ENDBLK
  5
85F
330
85D
100
AcDbEntity
  8
0
100
AcDbBlockEnd
  0
BLOCK
  5
979
330
978
100
AcDbEntity
  8
0
100
AcDbBlockBegin
  2
*D9
 70
     1
 10
0.0
 20
0.0
 30
0.0
  3
*D9
  1

  0
LINE
  5
97B
330
978
100
AcDbEntity
  8
1
 62
     0
440
 16777216
370
    -2
100
AcDbLine
 10
-39.699999982
 20
0.0000000000000009
 30
0.0
 11
-39.699999982
 21
18.7387983469726
 31
0.0
  0
LINE
  5
97C
330
978
100
AcDbEntity
  8
1
 62
     0
440
 16777216
370
    -2
100
AcDbLine
 10
0.0
 20
-0.1922953458032536
 30
0.0
 11
0.0000000000000012
 21
18.7387983469726
 31
0.0
  0
LINE
  5
97D
330
978
100
AcDbEntity
  8
1
 62
     0
440
 16777216
370
    -2
100
AcDbLine
 10
-37.199999982
 20
17.4887983469726
 30
0.0
 11
-2.499999999999999
 21
17.4887983469726
 31
0.0
  0
SOLID
  5
97E
330
978
100
AcDbEntity
  8
1
 62
     0
440
 16777216
100
AcDbTrace
 10
-37.199999982
 20
17.90546501363927
 30
0.0
 11
-37.199999982
 21
17.07213168030593
 31
0.0
 12
-39.699999982
 22
17.4887983469726
 32
0.0
 13
-39.699999982
 23
17.4887983469726
 33
0.0
  0
SOLID
  5
97F
330
978
100
AcDbEntity
  8
1
 62
     0
440
 16777216
100
AcDbTrace
 10
-2.499999999999999
 20
17.90546501363927
 30
0.0
 11
-2.499999999999999
 21
17.07213168030593
 31
0.0
 12
0.0000000000000011
 22
17.4887983469726
 32
0.0
 13
0.0000000000000011
 23
17.4887983469726
 33
0.0
  0
MTEXT
  5
980
330
978
100
AcDbEntity
  8
1
 62
     0
440
 16777216
100
AcDbMText
 10
-19.849999991
 20
19.8637983469726
 30
0.0
 40
3.5
 41
0.0
 71
     5
 72
     1
  1
39.7
  7
SIMPLEX
 73
     1
 44
1.0
  0
POINT
  5
981
330
978
100
AcDbEntity
  8
DEFPOINTS
 62
     0
440
 16777216
100
AcDbPoint
 10
-39.699999982
 20
0.0000000000000009
 30
0.0
  0
POINT
  5
982
330
978
100
AcDbEntity
  8
DEFPOINTS
 62
     0
440
 16777216
100
AcDbPoint
 10
0.0
 20
-0.1922953458032536
 30
0.0
  0
POINT
  5
983
330
978
100
AcDbEntity
  8
DEFPOINTS
 62
     0
440
 16777216
100
AcDbPoint
 10
0.0000000000000011
 20
17.4887983469726
 30
0.0
  0
ENDBLK
  5
97A
330
978
100
AcDbEntity
  8
0
100
AcDbBlockEnd
  0
BLOCK
  5
C32
330
C31
100
AcDbEntity
  8
0
100
AcDbBlockBegin
  2
*D10
 70
     1
 10
0.0
 20
0.0
 30
0.0
  3
*D10
  1

  0
LINE
  5
C34
330
C31
100
AcDbEntity
  8
1
 62
     0
440
 16777216
370
    -2
100
AcDbLine
 10
0.0
 20
0.059812880767723
 30
0.0
 11
0.000000000000001
 21
16.46289801302202
 31
0.0
  0
LINE
  5
C35
330
C31
100
AcDbEntity
  8
1
 62
     0
440
 16777216
370
    -2
100
AcDbLine
 10
-48.3988345775
 20
0.0598128807677266
 30
0.0
 11
-48.3988345775
 21
16.46289801302202
 31
0.0
  0
LINE
  5
C36
330
C31
100
AcDbEntity
  8
1
 62
     0
440
 16777216
370
    -2
100
AcDbLine
 10
-2.499999999999999
 20
15.21289801302202
 30
0.0
 11
-45.8988345775
 21
15.21289801302202
 31
0.0
  0
SOLID
  5
C37
330
C31
100
AcDbEntity
  8
1
 62
     0
440
 16777216
100
AcDbTrace
 10
-2.499999999999999
 20
15.62956467968869
 30
0.0
 11
-2.499999999999999
 21
14.79623134635536
 31
0.0
 12
0.0000000000000009
 22
15.21289801302202
 32
0.0
 13
0.0000000000000009
 23
15.21289801302202
 33
0.0
  0
SOLID
  5
C38
330
C31
100
AcDbEntity
  8
1
 62
     0
440
 16777216
100
AcDbTrace
 10
-45.8988345775
 20
15.62956467968869
 30
0.0
 11
-45.8988345775
 21
14.79623134635536
 31
0.0
 12
-48.3988345775
 22
15.21289801302202
 32
0.0
 13
-48.3988345775
 23
15.21289801302202
 33
0.0
  0
MTEXT
  5
C39
330
C31
100
AcDbEntity
  8
1
 62
     0
440
 16777216
100
AcDbMText
 10
-24.19941728875
 20
17.58789801302202
 30
0.0
 40
3.5
 41
0.0
 71
     5
 72
     1
  1
48.4
  7
SIMPLEX
 73
     1
 44
1.0
  0
POINT
  5
C3A
330
C31
100
AcDbEntity
  8
DEFPOINTS
 62
     0
440
 16777216
100
AcDbPoint
 10
0.0
 20
0.059812880767723
 30
0.0
  0
POINT
  5
C3B
330
C31
100
AcDbEntity
  8
DEFPOINTS
 62
     0
440
 16777216
100
AcDbPoint
 10
-48.3988345775
 20
0.0598128807677266
 30
0.0
  0
POINT
  5
C3C
330
C31
100
AcDbEntity
  8
DEFPOINTS
 62
     0
440
 16777216
100
AcDbPoint
 10
-48.3988345775
 20
15.21289801302202
 30
0.0
  0
ENDBLK
  5
C33
330
C31
100
AcDbEntity
  8
0
100
AcDbBlockEnd
  0
BLOCK
  5
D91
330
D90
100
AcDbEntity
  8
0
100
AcDbBlockBegin
  2
*D11
 70
     1
 10
0.0
 20
0.0
 30
0.0
  3
*D11
  1

  0
LINE
  5
D9D
330
D90
100
AcDbEntity
  8
1
 62
     0
440
 16777216
370
    -2
100
AcDbLine
 10
0.0
 20
-0.000000000000003
 30
0.0
 11
0.0000000000000014
 21
22.87674810966604
 31
0.0
  0
LINE
  5
D9E
330
D90
100
AcDbEntity
  8
1
 62
     0
440
 16777216
370
    -2
100
AcDbLine
 10
-51.598601493
 20
-0.400377433961361
 30
0.0
 11
-51.598601493
 21
22.87674810966604
 31
0.0
  0
LINE
  5
D9F
330
D90
100
AcDbEntity
  8
1
 62
     0
440
 16777216
370
    -2
100
AcDbLine
 10
-2.499999999999996
 20
21.62674810966604
 30
0.0
 11
-49.098601493
 21
21.62674810966604
 31
0.0
  0
SOLID
  5
DA0
330
D90
100
AcDbEntity
  8
1
 62
     0
440
 16777216
100
AcDbTrace
 10
-2.499999999999996
 20
22.04341477633271
 30
0.0
 11
-2.499999999999996
 21
21.21008144299937
 31
0.0
 12
0.0000000000000013
 22
21.62674810966604
 32
0.0
 13
0.0000000000000013
 23
21.62674810966604
 33
0.0
  0
SOLID
  5
DA1
330
D90
100
AcDbEntity
  8
1
 62
     0
440
 16777216
100
AcDbTrace
 10
-49.098601493
 20
22.04341477633271
 30
0.0
 11
-49.098601493
 21
21.21008144299937
 31
0.0
 12
-51.598601493
 22
21.62674810966604
 32
0.0
 13
-51.598601493
 23
21.62674810966604
 33
0.0
  0
MTEXT
  5
DA2
330
D90
100
AcDbEntity
  8
1
 62
     0
440
 16777216
100
AcDbMText
 10
-25.7993007465
 20
24.00174810966604
 30
0.0
 40
3.5
 41
0.0
 71
     5
 72
     1
  1
51.6
  7
SIMPLEX
 73
     1
 44
1.0
  0
POINT
  5
DA3
330
D90
100
AcDbEntity
  8
DEFPOINTS
 62
     0
440
 16777216
100
AcDbPoint
 10
0.0
 20
-0.000000000000003
 30
0.0
  0
POINT
  5
DA4
330
D90
100
AcDbEntity
  8
DEFPOINTS
 62
     0
440
 16777216
100
AcDbPoint
 10
-51.598601493
 20
-0.400377433961361
 30
0.0
  0
POINT
  5
DA5
330
D90
100
AcDbEntity
  8
DEFPOINTS
 62
     0
440
 16777216
100
AcDbPoint
 10
-51.598601493
 20
21.62674810966604
 30
0.0
  0
ENDBLK
  5
D92
330
D90
100
AcDbEntity
  8
0
100
AcDbBlockEnd
  0
BLOCK
  5
E46
330
E45
100
AcDbEntity
  8
0
100
AcDbBlockBegin
  2
*D12
 70
     1
 10
0.0
 20
0.0
 30
0.0
  3
*D12
  1

  0
LINE
  5
E47
330
E45
100
AcDbEntity
  8
2
440
 16777216
370
    -2
100
AcDbLine
 10
12.1
 20
1.586999999999999
 30
0.0
 11
31.26000000000001
 21
1.586999999999993
 31
0.0
  0
LINE
  5
E48
330
E45
100
AcDbEntity
  8
2
440
 16777216
370
    -2
100
AcDbLine
 10
12.01833993666911
 20
-1.586999999999995
 30
0.0
 11
31.26
 21
-1.587000000000003
 31
0.0
  0
LINE
  5
E49
330
E45
100
AcDbEntity
  8
2
440
 16777216
370
    -2
100
AcDbLine
 10
26.26
 20
6.156999999999992
 30
0.0
 11
26.26000000000001
 21
10.72699999999999
 31
0.0
  0
LINE
  5
E4A
330
E45
100
AcDbEntity
  8
2
440
 16777216
370
    -2
100
AcDbLine
 10
26.26
 20
-6.157000000000002
 30
0.0
 11
26.25999999999999
 21
-26.61271428571428
 31
0.0
  0
SOLID
  5
E4B
330
E45
100
AcDbEntity
  8
2
440
 16777216
100
AcDbTrace
 10
25.49833333333334
 20
6.156999999999995
 30
0.0
 11
27.02166666666667
 21
6.156999999999992
 31
0.0
 12
26.26
 22
1.586999999999995
 32
0.0
 13
26.26
 23
1.586999999999995
 33
0.0
  0
SOLID
  5
E4C
330
E45
100
AcDbEntity
  8
2
440
 16777216
100
AcDbTrace
 10
25.49833333333334
 20
-6.157
 30
0.0
 11
27.02166666666667
 21
-6.157000000000002
 31
0.0
 12
26.26
 22
-1.586999999999999
 32
0.0
 13
26.26
 23
-1.586999999999999
 33
0.0
  0
MTEXT
  5
E4D
330
E45
100
AcDbEntity
  8
2
440
 16777216
100
AcDbMText
 10
22.46
 20
-18.66985714285713
 30
0.0
 40
3.0
 41
0.0
 71
     5
 72
     1
  1
\A1;%%c3.18
  7
SANDVIK_STYLE
 11
0.0000000000000001
 21
1.0
 31
0.0
 73
     1
 44
1.0
  0
POINT
  5
E4E
330
E45
100
AcDbEntity
  8
DEFPOINTS
 62
     0
440
 16777216
100
AcDbPoint
 10
12.1
 20
1.586999999999999
 30
0.0
  0
POINT
  5
E4F
330
E45
100
AcDbEntity
  8
DEFPOINTS
 62
     0
440
 16777216
100
AcDbPoint
 10
12.01833993666911
 20
-1.586999999999995
 30
0.0
  0
POINT
  5
E50
330
E45
100
AcDbEntity
  8
DEFPOINTS
 62
     0
440
 16777216
100
AcDbPoint
 10
26.26
 20
-1.586999999999999
 30
0.0
  0
ENDBLK
  5
E51
330
E45
100
AcDbEntity
  8
0
100
AcDbBlockEnd
  0
BLOCK
  5
E53
330
E52
100
AcDbEntity
  8
0
100
AcDbBlockBegin
  2
*D13
 70
     1
 10
0.0
 20
0.0
 30
0.0
  3
*D13
  1

  0
LINE
  5
E54
330
E52
100
AcDbEntity
  8
2
440
 16777216
370
    -2
100
AcDbLine
 10
0.0
 20
0.0
 30
0.0
 11
0.0000000000000045
 21
73.01002865527427
 31
0.0
  0
LINE
  5
E55
330
E52
100
AcDbEntity
  8
2
440
 16777216
370
    -2
100
AcDbLine
 10
12.1
 20
0.0
 30
0.0
 11
12.1
 21
73.01002865527427
 31
0.0
  0
LINE
  5
E56
330
E52
100
AcDbEntity
  8
2
440
 16777216
370
    -2
100
AcDbLine
 10
-4.569999999999994
 20
68.01002865527426
 30
0.0
 11
-9.139999999999997
 21
68.01002865527426
 31
0.0
  0
LINE
  5
E57
330
E52
100
AcDbEntity
  8
2
440
 16777216
370
    -2
100
AcDbLine
 10
16.67
 20
68.01002865527426
 30
0.0
 11
33.12571428571428
 21
68.01002865527426
 31
0.0
  0
SOLID
  5
E58
330
E52
100
AcDbEntity
  8
2
440
 16777216
100
AcDbTrace
 10
-4.569999999999994
 20
68.77169532194092
 30
0.0
 11
-4.569999999999994
 21
67.24836198860758
 31
0.0
 12
0.0000000000000042
 22
68.01002865527426
 32
0.0
 13
0.0000000000000042
 23
68.01002865527426
 33
0.0
  0
SOLID
  5
E59
330
E52
100
AcDbEntity
  8
2
440
 16777216
100
AcDbTrace
 10
16.67
 20
68.77169532194092
 30
0.0
 11
16.67
 21
67.24836198860758
 31
0.0
 12
12.1
 22
68.01002865527426
 32
0.0
 13
12.1
 23
68.01002865527426
 33
0.0
  0
MTEXT
  5
E5A
330
E52
100
AcDbEntity
  8
2
440
 16777216
100
AcDbMText
 10
27.18285714285715
 20
71.81002865527425
 30
0.0
 40
3.0
 41
0.0
 71
     5
 72
     1
  1
\A1;12.1
  7
SANDVIK_STYLE
 73
     1
 44
1.0
  0
POINT
  5
E5B
330
E52
100
AcDbEntity
  8
DEFPOINTS
 62
     0
440
 16777216
100
AcDbPoint
 10
0.0
 20
0.0
 30
0.0
  0
POINT
  5
E5C
330
E52
100
AcDbEntity
  8
DEFPOINTS
 62
     0
440
 16777216
100
AcDbPoint
 10
12.1
 20
0.0
 30
0.0
  0
POINT
  5
E5D
330
E52
100
AcDbEntity
  8
DEFPOINTS
 62
     0
440
 16777216
100
AcDbPoint
 10
12.1
 20
68.01002865527426
 30
0.0
  0
ENDBLK
  5
E5E
330
E52
100
AcDbEntity
  8
0
100
AcDbBlockEnd
  0
BLOCK
  5
E60
330
E5F
100
AcDbEntity
  8
0
100
AcDbBlockBegin
  2
*D14
 70
     1
 10
0.0
 20
0.0
 30
0.0
  3
*D14
  1

  0
LINE
  5
E61
330
E5F
100
AcDbEntity
  8
2
440
 16777216
370
    -2
100
AcDbLine
 10
12.1
 20
1.652364248344006
 30
0.0
 11
12.1
 21
50.15236424834402
 31
0.0
  0
LINE
  5
E62
330
E5F
100
AcDbEntity
  8
2
440
 16777216
370
    -2
100
AcDbLine
 10
4.165
 20
1.690790506212522
 30
0.0
 11
4.165
 21
50.15236424834402
 31
0.0
  0
LINE
  5
E63
330
E5F
100
AcDbEntity
  8
2
440
 16777216
370
    -2
100
AcDbLine
 10
-0.4049999999999976
 20
45.15236424834401
 30
0.0
 11
-4.974999999999996
 21
45.15236424834401
 31
0.0
  0
LINE
  5
E64
330
E5F
100
AcDbEntity
  8
2
440
 16777216
370
    -2
100
AcDbLine
 10
16.67
 20
45.15236424834401
 30
0.0
 11
35.12571428571428
 21
45.15236424834401
 31
0.0
  0
SOLID
  5
E65
330
E5F
100
AcDbEntity
  8
2
440
 16777216
100
AcDbTrace
 10
-0.4049999999999976
 20
45.91403091501068
 30
0.0
 11
-0.4049999999999976
 21
44.39069758167734
 31
0.0
 12
4.165
 22
45.15236424834401
 32
0.0
 13
4.165
 23
45.15236424834401
 33
0.0
  0
SOLID
  5
E66
330
E5F
100
AcDbEntity
  8
2
440
 16777216
100
AcDbTrace
 10
16.67
 20
45.91403091501068
 30
0.0
 11
16.67
 21
44.39069758167734
 31
0.0
 12
12.1
 22
45.15236424834401
 32
0.0
 13
12.1
 23
45.15236424834401
 33
0.0
  0
MTEXT
  5
E67
330
E5F
100
AcDbEntity
  8
2
440
 16777216
100
AcDbMText
 10
28.18285714285714
 20
48.95236424834401
 30
0.0
 40
3.0
 41
0.0
 71
     5
 72
     1
  1
\A1;7.94
  7
SANDVIK_STYLE
 73
     1
 44
1.0
  0
POINT
  5
E68
330
E5F
100
AcDbEntity
  8
DEFPOINTS
 62
     0
440
 16777216
100
AcDbPoint
 10
12.1
 20
1.652364248344006
 30
0.0
  0
POINT
  5
E69
330
E5F
100
AcDbEntity
  8
DEFPOINTS
 62
     0
440
 16777216
100
AcDbPoint
 10
4.165
 20
1.690790506212522
 30
0.0
  0
POINT
  5
E6A
330
E5F
100
AcDbEntity
  8
DEFPOINTS
 62
     0
440
 16777216
100
AcDbPoint
 10
4.165
 20
45.15236424834401
 30
0.0
  0
ENDBLK
  5
E6B
330
E5F
100
AcDbEntity
  8
0
100
AcDbBlockEnd
  0
BLOCK
  5
E6D
330
E6C
100
AcDbEntity
  8
0
100
AcDbBlockBegin
  2
*D15
 70
     1
 10
0.0
 20
0.0
 30
0.0
  3
*D15
  1

  0
LINE
  5
E6E
330
E6C
100
AcDbEntity
  8
SK2
440
 16777216
370
    -2
100
AcDbLine
 10
-25.841
 20
1.587497999999999
 30
0.0
 11
-55.99999999998468
 21
1.587498000000007
 31
0.0
  0
LINE
  5
E6F
330
E6C
100
AcDbEntity
  8
SK2
440
 16777216
370
    -2
100
AcDbLine
 10
-25.841
 20
-1.592502000000002
 30
0.0
 11
-55.99999999998468
 21
-1.592501999999993
 31
0.0
  0
LINE
  5
E70
330
E6C
100
AcDbEntity
  8
SK2
440
 16777216
370
    -2
100
AcDbLine
 10
-50.99999999998468
 20
6.157498000000004
 30
0.0
 11
-50.99999999998468
 21
10.727498
 31
0.0
  0
LINE
  5
E71
330
E6C
100
AcDbEntity
  8
SK2
440
 16777216
370
    -2
100
AcDbLine
 10
-50.99999999998468
 20
-6.162501999999995
 30
0.0
 11
-50.99999999998468
 21
-26.61821628571428
 31
0.0
  0
SOLID
  5
E72
330
E6C
100
AcDbEntity
  8
SK2
440
 16777216
100
AcDbTrace
 10
-51.76166666665135
 20
6.157498000000004
 30
0.0
 11
-50.23833333331801
 21
6.157498000000004
 31
0.0
 12
-50.99999999998468
 22
1.587498000000006
 32
0.0
 13
-50.99999999998468
 23
1.587498000000006
 33
0.0
  0
SOLID
  5
E73
330
E6C
100
AcDbEntity
  8
SK2
440
 16777216
100
AcDbTrace
 10
-51.76166666665135
 20
-6.162501999999995
 30
0.0
 11
-50.23833333331801
 21
-6.162501999999995
 31
0.0
 12
-50.99999999998468
 22
-1.592501999999995
 32
0.0
 13
-50.99999999998468
 23
-1.592501999999995
 33
0.0
  0
MTEXT
  5
E74
330
E6C
100
AcDbEntity
  8
SK2
440
 16777216
100
AcDbMText
 10
-54.79999999998469
 20
-18.67535914285714
 30
0.0
 40
3.0
 41
0.0
 71
     5
 72
     1
  1
\A1;%%c3.18
  7
SANDVIK_STYLE
 11
0.0000000000000001
 21
1.0
 31
0.0
 73
     1
 44
1.0
  0
POINT
  5
E75
330
E6C
100
AcDbEntity
  8
DEFPOINTS
 62
     0
440
 16777216
100
AcDbPoint
 10
-25.841
 20
1.587497999999999
 30
0.0
  0
POINT
  5
E76
330
E6C
100
AcDbEntity
  8
DEFPOINTS
 62
     0
440
 16777216
100
AcDbPoint
 10
-25.841
 20
-1.592502000000002
 30
0.0
  0
POINT
  5
E77
330
E6C
100
AcDbEntity
  8
DEFPOINTS
 62
     0
440
 16777216
100
AcDbPoint
 10
-50.99999999998468
 20
-1.592501999999995
 30
0.0
  0
ENDBLK
  5
E78
330
E6C
100
AcDbEntity
  8
0
100
AcDbBlockEnd
  0
BLOCK
  5
E7A
330
E79
100
AcDbEntity
  8
0
100
AcDbBlockBegin
  2
*D16
 70
     1
 10
0.0
 20
0.0
 30
0.0
  3
*D16
  1

  0
LINE
  5
E7B
330
E79
100
AcDbEntity
  8
SK2
440
 16777216
370
    -2
100
AcDbLine
 10
-26.0
 20
0.0
 30
0.0
 11
-26.0
 21
95.0
 31
0.0
  0
LINE
  5
E7C
330
E79
100
AcDbEntity
  8
SK2
440
 16777216
370
    -2
100
AcDbLine
 10
12.1
 20
0.0
 30
0.0
 11
12.1
 21
95.0
 31
0.0
  0
LINE
  5
E7D
330
E79
100
AcDbEntity
  8
SK2
440
 16777216
370
    -2
100
AcDbLine
 10
-21.42999999999999
 20
90.0
 30
0.0
 11
7.530000000000002
 21
90.0
 31
0.0
  0
SOLID
  5
E7E
330
E79
100
AcDbEntity
  8
SK2
440
 16777216
100
AcDbTrace
 10
-21.42999999999999
 20
90.76166666666669
 30
0.0
 11
-21.42999999999999
 21
89.23833333333332
 31
0.0
 12
-26.0
 22
90.0
 32
0.0
 13
-26.0
 23
90.0
 33
0.0
  0
SOLID
  5
E7F
330
E79
100
AcDbEntity
  8
SK2
440
 16777216
100
AcDbTrace
 10
7.530000000000002
 20
90.76166666666669
 30
0.0
 11
7.530000000000002
 21
89.23833333333332
 31
0.0
 12
12.1
 22
90.0
 32
0.0
 13
12.1
 23
90.0
 33
0.0
  0
MTEXT
  5
E80
330
E79
100
AcDbEntity
  8
SK2
440
 16777216
100
AcDbMText
 10
-6.949999999999991
 20
93.8
 30
0.0
 40
3.0
 41
0.0
 71
     5
 72
     1
  1
\A1;38.1
  7
SANDVIK_STYLE
 73
     1
 44
1.0
  0
POINT
  5
E81
330
E79
100
AcDbEntity
  8
DEFPOINTS
 62
     0
440
 16777216
100
AcDbPoint
 10
-26.0
 20
0.0
 30
0.0
  0
POINT
  5
E82
330
E79
100
AcDbEntity
  8
DEFPOINTS
 62
     0
440
 16777216
100
AcDbPoint
 10
12.1
 20
0.0
 30
0.0
  0
POINT
  5
E83
330
E79
100
AcDbEntity
  8
DEFPOINTS
 62
     0
440
 16777216
100
AcDbPoint
 10
12.1
 20
90.0
 30
0.0
  0
ENDBLK
  5
E84
330
E79
100
AcDbEntity
  8
0
100
AcDbBlockEnd
  0
BLOCK
  5
E86
330
E85
100
AcDbEntity
  8
0
100
AcDbBlockBegin
  2
*D17
 70
     1
 10
0.0
 20
0.0
 30
0.0
  3
*D17
  1

  0
LINE
  5
E87
330
E85
100
AcDbEntity
  8
2
440
 16777216
370
    -2
100
AcDbLine
 10
12.0152
 20
1.65694821576909
 30
0.0
 11
12.0152
 21
24.98817130491938
 31
0.0
  0
LINE
  5
E88
330
E85
100
AcDbEntity
  8
2
440
 16777216
370
    -2
100
AcDbLine
 10
12.1
 20
0.0
 30
0.0
 11
12.1
 21
24.98817130491938
 31
0.0
  0
LINE
  5
E89
330
E85
100
AcDbEntity
  8
2
440
 16777216
370
    -2
100
AcDbLine
 10
7.445200000000001
 20
19.98817130491937
 30
0.0
 11
2.875200000000001
 21
19.98817130491937
 31
0.0
  0
LINE
  5
E8A
330
E85
100
AcDbEntity
  8
2
440
 16777216
370
    -2
100
AcDbLine
 10
16.67
 20
19.98817130491937
 30
0.0
 11
46.83999999999999
 21
19.98817130491937
 31
0.0
  0
SOLID
  5
E8B
330
E85
100
AcDbEntity
  8
2
440
 16777216
100
AcDbTrace
 10
7.445200000000001
 20
20.74983797158604
 30
0.0
 11
7.445200000000001
 21
19.22650463825271
 31
0.0
 12
12.0152
 22
19.98817130491937
 32
0.0
 13
12.0152
 23
19.98817130491937
 33
0.0
  0
SOLID
  5
E8C
330
E85
100
AcDbEntity
  8
2
440
 16777216
100
AcDbTrace
 10
16.67
 20
20.74983797158604
 30
0.0
 11
16.67
 21
19.22650463825271
 31
0.0
 12
12.1
 22
19.98817130491937
 32
0.0
 13
12.1
 23
19.98817130491937
 33
0.0
  0
MTEXT
  5
E8D
330
E85
100
AcDbEntity
  8
2
440
 16777216
100
AcDbMText
 10
34.03999999999999
 20
23.78817130491937
 30
0.0
 40
3.0
 41
0.0
 71
     5
 72
     1
  1
\A1;0.081x45°
  7
SANDVIK_STYLE
 73
     1
 44
1.0
  0
POINT
  5
E8E
330
E85
100
AcDbEntity
  8
DEFPOINTS
 62
     0
440
 16777216
100
AcDbPoint
 10
12.0152
 20
1.65694821576909
 30
0.0
  0
POINT
  5
E8F
330
E85
100
AcDbEntity
  8
DEFPOINTS
 62
     0
440
 16777216
100
AcDbPoint
 10
12.1
 20
0.0
 30
0.0
  0
POINT
  5
E90
330
E85
100
AcDbEntity
  8
DEFPOINTS
 62
     0
440
 16777216
100
AcDbPoint
 10
12.1
 20
19.98817130491937
 30
0.0
  0
ENDBLK
  5
E91
330
E85
100
AcDbEntity
  8
0
100
AcDbBlockEnd
  0
BLOCK
  5
F25
330
E94
100
AcDbEntity
  8
0
100
AcDbBlockBegin
  2
A$C0C20536C
 70
     0
 10
0.0
 20
0.0
 30
0.0
  3
A$C0C20536C
  1

  0
LINE
  5
E95
330
E94
100
AcDbEntity
  8
SK4
100
AcDbLine
 10
15.40313462659208
 20
-60.43802737875506
 30
0.0
 11
55.40313462659207
 21
-60.43802737875506
 31
0.0
  0
LINE
  5
E96
330
E94
100
AcDbEntity
  8
4
100
AcDbLine
 10
53.40313462659207
 20
-60.43802737875506
 30
0.0
 11
69.40313462659208
 21
-60.43802737875506
 31
0.0
  0
LINE
  5
E97
330
E94
100
AcDbEntity
  8
SK4
100
AcDbLine
 10
53.40313462659207
 20
-60.43802737875506
 30
0.0
 11
69.40313462659208
 21
-60.43802737875506
 31
0.0
  0
LINE
  5
E98
330
E94
100
AcDbEntity
  8
SK1
100
AcDbLine
 10
53.40313462659207
 20
-58.85052937875506
 30
0.0
 11
27.56213462659208
 21
-58.85052937875506
 31
0.0
  0
LINE
  5
E99
330
E94
100
AcDbEntity
  8
SK1
100
AcDbLine
 10
27.56213462659208
 20
-58.85052937875506
 30
0.0
 11
27.40313462659208
 21
-59.00952937875508
 31
0.0
  0
LINE
  5
E9A
330
E94
100
AcDbEntity
  8
SK1
100
AcDbLine
 10
27.40313462659208
 20
-59.00952937875508
 30
0.0
 11
27.40313462659208
 21
-59.01095206935925
 31
0.0
  0
LINE
  5
E9B
330
E94
100
AcDbEntity
  8
SK1
100
AcDbLine
 10
27.40313462659208
 20
-59.01095206935925
 30
0.0
 11
27.40313462659208
 21
-59.13792816087514
 31
0.0
  0
LINE
  5
E9C
330
E94
100
AcDbEntity
  8
SK1
100
AcDbLine
 10
27.40313462659208
 20
-59.13792816087514
 30
0.0
 11
27.40313462659208
 21
-61.87152937875506
 31
0.0
  0
LINE
  5
E9D
330
E94
100
AcDbEntity
  8
SK1
100
AcDbLine
 10
27.56213462659208
 20
-58.85052937875506
 30
0.0
 11
27.56213462659208
 21
-62.03052937565956
 31
0.0
  0
LINE
  5
E9E
330
E94
100
AcDbEntity
  8
SK1
100
AcDbLine
 10
53.40313462659207
 20
-62.03052937875506
 30
0.0
 11
27.56213462659208
 21
-62.03052937875506
 31
0.0
  0
LINE
  5
E9F
330
E94
100
AcDbEntity
  8
SK1
100
AcDbLine
 10
27.56213462659207
 20
-62.03052937875506
 30
0.0
 11
27.40313462659208
 21
-61.87152937875506
 31
0.0
  0
DIMENSION
  5
EA0
330
E94
100
AcDbEntity
  8
2
100
AcDbDimension
  2
*D12
 10
79.66313462659207
 20
-62.02502737875508
 30
0.0
 11
75.8631346265921
 21
-79.10788452161219
 31
0.0
 12
53.40313462659207
 22
-60.43802737875506
 32
0.0
  1
%%c3.18
 71
     5
 42
3.173999999999995
  3
SANDVIK_DIM
100
AcDbAlignedDimension
 13
65.50313462659207
 23
-58.85102737875507
 33
0.0
 14
65.42147456326119
 24
-62.02502737875506
 34
0.0
 50
90.0
100
AcDbRotatedDimension
1001
ACAD
1000
DSTYLE
1002
{
1070
   279
1070
     0
1070
   140
1040
3.0
1070
    40
1040
1.0
1002
}
  0
DIMENSION
  5
EA1
330
E94
100
AcDbEntity
  8
2
100
AcDbDimension
  2
*D13
 10
65.50313462659207
 20
7.572001276519187
 30
0.0
 11
80.58599176944921
 21
7.572001276519187
 31
0.0
 12
53.40313462659207
 22
-60.43802737875506
 32
0.0
 70
   128
  1
<>
 71
     5
 42
12.1
  3
SANDVIK_DIM
100
AcDbAlignedDimension
 13
53.40313462659207
 23
-60.43802737875506
 33
0.0
 14
65.50313462659207
 24
-60.43802737875506
 34
0.0
100
AcDbRotatedDimension
1001
ACAD
1000
DSTYLE
1002
{
1070
    40
1040
1.0
1070
   140
1040
3.0
1070
   279
1070
     0
1002
}
  0
DIMENSION
  5
EA2
330
E94
100
AcDbEntity
  8
2
100
AcDbDimension
  2
*D14
 10
57.56813462659208
 20
-15.28566313041105
 30
0.0
 11
81.58599176944923
 21
-15.28566313041105
 31
0.0
 12
53.40313462659207
 22
-60.43802737875506
 32
0.0
 70
   128
  1
<>
 71
     5
 42
7.934999999999997
  3
SANDVIK_DIM
100
AcDbAlignedDimension
 13
65.50313462659207
 23
-58.78566313041106
 33
0.0
 14
57.56813462659208
 24
-58.74723687254254
 34
0.0
100
AcDbRotatedDimension
1001
ACAD
1000
DSTYLE
1002
{
1070
   279
1070
     0
1070
   140
1040
3.0
1070
    40
1040
1.0
1002
}
  0
DIMENSION
  5
EA3
330
E94
100
AcDbEntity
  8
SK2
100
AcDbDimension
  2
*D15
 10
2.403134626607395
 20
-62.03052937875506
 30
0.0
 11
-1.396865373392607
 21
-79.11338652161219
 31
0.0
 12
53.40313462659207
 22
-60.43802737875506
 32
0.0
  1
%%c<>
 71
     5
 42
3.180000000000001
  3
SANDVIK_DIM
100
AcDbAlignedDimension
 13
27.56213462659208
 23
-58.85052937875506
 33
0.0
 14
27.56213462659208
 24
-62.03052937875508
 34
0.0
 50
90.00000000029229
100
AcDbRotatedDimension
1001
ACAD
1000
DSTYLE
1002
{
1070
   279
1070
     0
1070
   140
1040
3.0
1070
    40
1040
1.0
1002
}
  0
DIMENSION
  5
EA4
330
E94
100
AcDbEntity
  8
SK2
100
AcDbDimension
  2
*D16
 10
65.50313462659207
 20
29.56197262124494
 30
0.0
 11
46.45313462659209
 21
33.36197262124493
 31
0.0
 12
53.40313462659207
 22
-60.43802737875506
 32
0.0
  1
<>
 71
     5
 42
38.1
  3
SANDVIK_DIM
100
AcDbAlignedDimension
 13
27.40313462659208
 23
-60.43802737875506
 33
0.0
 14
65.50313462659207
 24
-60.43802737875506
 34
0.0
100
AcDbRotatedDimension
1001
ACAD
1000
DSTYLE
1002
{
1070
   279
1070
     0
1070
   140
1040
3.0
1070
    40
1040
1.0
1002
}
  0
DIMENSION
  5
EA5
330
E94
100
AcDbEntity
  8
2
100
AcDbDimension
  2
*D17
 10
65.50313462659207
 20
-40.44985607383567
 30
0.0
 11
87.44313462659206
 21
-36.64985607383569
 31
0.0
 12
53.40313462659207
 22
-60.43802737875506
 32
0.0
  1
0.081x45°
 71
     5
 42
0.0847999999999996
  3
SANDVIK_DIM
100
AcDbAlignedDimension
 13
65.41833462659207
 23
-58.78107916298597
 33
0.0
 14
65.50313462659207
 24
-60.43802737875506
 34
0.0
100
AcDbRotatedDimension
1001
ACAD
1000
DSTYLE
1002
{
1070
    40
1040
1.0
1070
   140
1040
3.0
1070
   279
1070
     0
1002
}
  0
LINE
  5
EA6
330
E94
100
AcDbEntity
  8
1
100
AcDbLine
 10
54.28833462659207
 20
-58.85052937875506
 30
0.0
 11
53.40313462659207
 21
-58.85052937875506
 31
0.0
  0
LINE
  5
EA7
330
E94
100
AcDbEntity
  8
1
100
AcDbLine
 10
54.28833462659207
 20
-58.85102737875507
 30
0.0
 11
56.51196798799206
 21
-58.85102737875507
 31
0.0
  0
LINE
  5
EA8
330
E94
100
AcDbEntity
  8
1
100
AcDbLine
 10
54.28833462659207
 20
-62.03001156185557
 30
0.0
 11
53.40313462659207
 21
-62.03052937875506
 31
0.0
  0
LINE
  5
EA9
330
E94
100
AcDbEntity
  8
1
100
AcDbLine
 10
54.28833462659207
 20
-62.03250365340585
 30
0.0
 11
57.57047312250449
 21
-62.03001156185557
 31
0.0
  0
LINE
  5
EAA
330
E94
100
AcDbEntity
  8
1
100
AcDbLine
 10
56.51196798799206
 20
-59.84565017800449
 30
0.0
 11
57.57030131799208
 21
-60.38808639931636
 31
0.0
  0
LINE
  5
EAB
330
E94
100
AcDbEntity
  8
1
100
AcDbLine
 10
57.57030131799208
 20
-60.40796015208889
 30
0.0
 11
56.51196798799206
 21
-60.07924379313021
 31
0.0
  0
ARC
  5
EAC
330
E94
100
AcDbEntity
  8
1
100
AcDbCircle
 10
59.85051403224968
 20
-67.24201838796588
 30
0.0
 40
8.465354433384712
100
AcDbArc
 50
105.6262328438791
 51
109.8963727964559
  0
LINE
  5
EAD
330
E94
100
AcDbEntity
  8
1
100
AcDbLine
 10
56.51196798799206
 20
-61.87185736911754
 30
0.0
 11
56.77657223003017
 21
-61.92614600382803
 31
0.0
  0
LINE
  5
EAE
330
E94
100
AcDbEntity
  8
1
100
AcDbLine
 10
56.77657223003017
 20
-61.92614600382803
 30
0.0
 11
57.04115387145082
 21
-61.96898934902092
 31
0.0
  0
LINE
  5
EAF
330
E94
100
AcDbEntity
  8
1
100
AcDbLine
 10
57.04115387145082
 20
-61.96898934902092
 30
0.0
 11
57.30572792158017
 21
-62.00005485953639
 31
0.0
  0
LINE
  5
EB0
330
E94
100
AcDbEntity
  8
1
100
AcDbLine
 10
57.30572792158017
 20
-62.00005485953639
 30
0.0
 11
57.57030131799208
 21
-62.01910827308346
 31
0.0
  0
LINE
  5
EB1
330
E94
100
AcDbEntity
  8
1
100
AcDbLine
 10
56.51196798799206
 20
-59.84565017800449
 30
0.0
 11
56.51196798799206
 21
-61.87185736911754
 31
0.0
  0
LINE
  5
EB2
330
E94
100
AcDbEntity
  8
1
100
AcDbLine
 10
57.57030131799208
 20
-59.52001761547314
 30
0.0
 11
57.57030131799208
 21
-60.38808639931636
 31
0.0
  0
LINE
  5
EB3
330
E94
100
AcDbEntity
  8
1
100
AcDbLine
 10
56.51196798799206
 20
-59.13085389991683
 30
0.0
 11
57.04115399052023
 21
-59.3080829469306
 31
0.0
  0
LINE
  5
EB4
330
E94
100
AcDbEntity
  8
1
100
AcDbLine
 10
57.04115399052023
 20
-59.3080829469306
 30
0.0
 11
57.57030131799208
 21
-59.52001761547314
 31
0.0
  0
LINE
  5
EB5
330
E94
100
AcDbEntity
  8
1
100
AcDbLine
 10
56.51196798799206
 20
-58.85102737875507
 30
0.0
 11
56.51196798799206
 21
-58.8510884378499
 31
0.0
  0
LINE
  5
EB6
330
E94
100
AcDbEntity
  8
1
100
AcDbLine
 10
56.51196798799206
 20
-58.8510884378499
 30
0.0
 11
56.51196798799206
 21
-58.86947084332707
 31
0.0
  0
LINE
  5
EB7
330
E94
100
AcDbEntity
  8
1
100
AcDbLine
 10
56.51196798799206
 20
-58.86947084332707
 30
0.0
 11
56.51196798799206
 21
-59.13085389991683
 31
0.0
  0
LINE
  5
EB8
330
E94
100
AcDbEntity
  8
1
100
AcDbLine
 10
57.57030131799208
 20
-59.52001761547314
 30
0.0
 11
57.57030131799208
 21
-59.08962670304582
 31
0.0
  0
LINE
  5
EB9
330
E94
100
AcDbEntity
  8
1
100
AcDbLine
 10
57.57030131799208
 20
-60.40796015208889
 30
0.0
 11
57.57030131799208
 21
-60.38808639931636
 31
0.0
  0
LINE
  5
EBA
330
E94
100
AcDbEntity
  8
1
100
AcDbLine
 10
57.57030131799208
 20
-62.01910827308346
 30
0.0
 11
57.57030131799208
 21
-60.40796015208889
 31
0.0
  0
LINE
  5
EBB
330
E94
100
AcDbEntity
  8
1
100
AcDbLine
 10
57.57030131799208
 20
-62.01910827308346
 30
0.0
 11
57.57030131799208
 21
-62.0260273669561
 31
0.0
  0
LINE
  5
EBC
330
E94
100
AcDbEntity
  8
1
 62
     1
100
AcDbLine
 10
57.57030131799208
 20
-60.38808639931636
 30
0.0
 11
57.66613173077395
 21
-60.43852737375423
 31
0.0
  0
LINE
  5
EBD
330
E94
100
AcDbEntity
  8
1
 62
     1
100
AcDbLine
 10
57.57030131799208
 20
-59.52001761547311
 30
0.0
 11
57.73926404176425
 21
-59.5939700372104
 31
0.0
  0
LINE
  5
EBE
330
E94
100
AcDbEntity
  8
1
 62
     1
100
AcDbLine
 10
65.50780129299207
 20
-60.26611608908806
 30
0.0
 11
65.42313462659206
 21
-60.26859828788143
 31
0.0
  0
LINE
  5
EBF
330
E94
100
AcDbEntity
  8
1
 62
     1
100
AcDbLine
 10
65.42313462659207
 20
-60.26859828788143
 30
0.0
 11
65.42313462659206
 21
-61.16874650887321
 31
0.0
  0
LINE
  5
EC0
330
E94
100
AcDbEntity
  8
1
 62
     1
100
AcDbLine
 10
65.50780129299207
 20
-61.16699040090503
 30
0.0
 11
65.42313462659206
 21
-61.16874650887321
 31
0.0
  0
LINE
  5
EC1
330
E94
100
AcDbEntity
  8
1
 62
     1
100
AcDbLine
 10
65.5078012929921
 20
-60.26611608908806
 30
0.0
 11
65.5078012929921
 21
-61.16699040090503
 31
0.0
  0
LINE
  5
EC2
330
E94
100
AcDbEntity
  8
1
 62
     1
100
AcDbLine
 10
65.5078012929921
 20
-58.93592543552919
 30
0.0
 11
65.42313462659207
 21
-58.85267942856374
 31
0.0
  0
LINE
  5
EC3
330
E94
100
AcDbEntity
  8
1
 62
     1
100
AcDbLine
 10
65.5078012929921
 20
-59.47664786389683
 30
0.0
 11
65.5078012929921
 21
-58.93592543552919
 31
0.0
  0
LINE
  5
EC4
330
E94
100
AcDbEntity
  8
1
 62
     1
100
AcDbLine
 10
65.42313462659207
 20
-60.26859828788143
 30
0.0
 11
64.05493268381929
 21
-59.59397092253553
 31
0.0
  0
LINE
  5
EC5
330
E94
100
AcDbEntity
  8
1
 62
     1
100
AcDbLine
 10
65.5078012929921
 20
-59.47664786389683
 30
0.0
 11
65.5078012929921
 21
-60.26611608908806
 31
0.0
  0
LINE
  5
EC6
330
E94
100
AcDbEntity
  8
1
 62
     1
100
AcDbLine
 10
65.50780129299221
 20
-59.47664786389683
 30
0.0
 11
65.14458423106948
 21
-59.48564916087296
 31
0.0
  0
LINE
  5
EC7
330
E94
100
AcDbEntity
  8
1
 62
     1
100
AcDbLine
 10
65.14458423106948
 20
-59.48564916087296
 30
0.0
 11
64.78136716914676
 21
-59.50845322717079
 31
0.0
  0
LINE
  5
EC8
330
E94
100
AcDbEntity
  8
1
 62
     1
100
AcDbLine
 10
64.78136716914676
 20
-59.50845322717079
 30
0.0
 11
64.41815010722402
 21
-59.54473613530037
 31
0.0
  0
LINE
  5
EC9
330
E94
100
AcDbEntity
  8
1
 62
     1
100
AcDbLine
 10
64.41815010722402
 20
-59.54473613530037
 30
0.0
 11
64.05493304530128
 21
-59.59397011159047
 31
0.0
  0
LINE
  5
ECA
330
E94
100
AcDbEntity
  8
1
 62
     1
100
AcDbLine
 10
65.5078012929921
 20
-61.81763160911619
 30
0.0
 11
65.42313462659207
 21
-61.89040824731507
 31
0.0
  0
LINE
  5
ECB
330
E94
100
AcDbEntity
  8
1
 62
     1
100
AcDbLine
 10
65.5078012929921
 20
-61.16699040090503
 30
0.0
 11
65.5078012929921
 21
-61.8176316091162
 31
0.0
  0
LINE
  5
ECC
330
E94
100
AcDbEntity
  8
1
 62
     1
100
AcDbLine
 10
57.57030131799208
 20
-62.01910827308346
 30
0.0
 11
57.57030131799208
 21
-60.40796015208889
 31
0.0
  0
ARC
  5
ECD
330
E94
100
AcDbEntity
  8
1
 62
     1
100
AcDbCircle
 10
57.85216362777164
 20
-56.28220495465583
 30
0.0
 40
5.743823142313337
100
AcDbArc
 50
267.1872377459691
 51
269.9967994595055
  0
LINE
  5
ECE
330
E94
100
AcDbEntity
  8
1
 62
     1
100
AcDbLine
 10
57.85184277802668
 20
-62.02602736769852
 30
0.0
 11
57.85194637446882
 21
-62.02602736863472
 31
0.0
  0
LINE
  5
ECF
330
E94
100
AcDbEntity
  8
1
 62
     1
100
AcDbLine
 10
57.57030131799208
 20
-60.40796015208889
 30
0.0
 11
57.57030131799208
 21
-60.38808639931636
 31
0.0
  0
LINE
  5
ED0
330
E94
100
AcDbEntity
  8
1
 62
     1
100
AcDbLine
 10
57.57030131799208
 20
-59.08962670304582
 30
0.0
 11
57.98899314496403
 21
-58.98676252076122
 31
0.0
  0
LINE
  5
ED1
330
E94
100
AcDbEntity
  8
1
 62
     1
100
AcDbLine
 10
57.98899314496403
 20
-58.98676252076122
 30
0.0
 11
58.40767802715792
 21
-58.9118419902576
 31
0.0
  0
LINE
  5
ED2
330
E94
100
AcDbEntity
  8
1
 62
     1
100
AcDbLine
 10
58.40767802715792
 20
-58.9118419902576
 30
0.0
 11
58.61702197672664
 21
-58.88533174495137
 31
0.0
  0
LINE
  5
ED3
330
E94
100
AcDbEntity
  8
1
 62
     1
100
AcDbLine
 10
58.61702197672664
 20
-58.88533174495137
 30
0.0
 11
58.82636946297864
 21
-58.86630411583428
 31
0.0
  0
LINE
  5
ED4
330
E94
100
AcDbEntity
  8
1
 62
     1
100
AcDbLine
 10
58.82636946297864
 20
-58.86630411583428
 30
0.0
 11
59.03571299270833
 21
-58.85485137618768
 31
0.0
  0
LINE
  5
ED5
330
E94
100
AcDbEntity
  8
1
 62
     1
100
AcDbLine
 10
59.03571299270833
 20
-58.85485137618768
 30
0.0
 11
59.24504903967086
 21
-58.85102737875507
 31
0.0
  0
LINE
  5
ED6
330
E94
100
AcDbEntity
  8
1
 62
     1
100
AcDbLine
 10
59.24504903967086
 20
-58.85102737875507
 30
0.0
 11
61.00978085729032
 21
-58.85102737875507
 31
0.0
  0
LINE
  5
ED7
330
E94
100
AcDbEntity
  8
1
 62
     1
100
AcDbLine
 10
65.42313462659207
 20
-61.16874650887321
 30
0.0
 11
63.9818007461149
 21
-60.43852737376544
 31
0.0
  0
LINE
  5
ED8
330
E94
100
AcDbEntity
  8
1
 62
     1
100
AcDbLine
 10
57.57030131799208
 20
-59.52001761547314
 30
0.0
 11
57.57030131799208
 21
-59.08962670304582
 31
0.0
  0
LINE
  5
ED9
330
E94
100
AcDbEntity
  8
1
 62
     1
100
AcDbLine
 10
57.57030131799208
 20
-62.01910827308346
 30
0.0
 11
57.57047312250449
 21
-62.03001156185557
 31
0.0
  0
LINE
  5
EDA
330
E94
100
AcDbEntity
  8
1
 62
     1
100
AcDbLine
 10
57.57030131799208
 20
-59.52001761547314
 30
0.0
 11
57.57030131799208
 21
-60.38808639931636
 31
0.0
  0
LINE
  5
EDB
330
E94
100
AcDbEntity
  8
1
 62
     1
100
AcDbLine
 10
64.16761490366309
 20
-62.02602736865206
 30
0.0
 11
64.48149981236048
 21
-62.01743368026853
 31
0.0
  0
LINE
  5
EDC
330
E94
100
AcDbEntity
  8
1
 62
     1
100
AcDbLine
 10
64.48149981236048
 20
-62.01743368026853
 30
0.0
 11
64.79537319528076
 21
-61.9917503126333
 31
0.0
  0
LINE
  5
EDD
330
E94
100
AcDbEntity
  8
1
 62
     1
100
AcDbLine
 10
64.79537319528076
 20
-61.9917503126333
 30
0.0
 11
65.10924715093465
 21
-61.94925597092559
 31
0.0
  0
LINE
  5
EDE
330
E94
100
AcDbEntity
  8
1
 62
     1
100
AcDbLine
 10
65.10924715093465
 20
-61.94925597092559
 30
0.0
 11
65.42313462659207
 21
-61.89040824731507
 31
0.0
  0
LINE
  5
EDF
330
E94
100
AcDbEntity
  8
1
 62
     1
100
AcDbLine
 10
62.40288352980694
 20
-62.02602736875507
 30
0.0
 11
64.16761490366309
 21
-62.02602736875507
 31
0.0
  0
LINE
  5
EE0
330
E94
100
AcDbEntity
  8
1
 62
     1
100
AcDbLine
 10
63.28524934490751
 20
-59.28194884595747
 30
0.0
 11
63.81971065303342
 21
-59.10834348555265
 31
0.0
  0
LINE
  5
EE1
330
E94
100
AcDbEntity
  8
1
 62
     1
100
AcDbLine
 10
63.81971065303342
 20
-59.10834348555265
 30
0.0
 11
64.08696073451007
 21
-59.03687373295563
 31
0.0
  0
LINE
  5
EE2
330
E94
100
AcDbEntity
  8
1
 62
     1
100
AcDbLine
 10
64.08696073451007
 20
-59.03687373295563
 30
0.0
 11
64.35418926721232
 21
-58.97641156053254
 31
0.0
  0
LINE
  5
EE3
330
E94
100
AcDbEntity
  8
1
 62
     1
100
AcDbLine
 10
64.35418926721232
 20
-58.97641156053254
 30
0.0
 11
64.62142215984531
 21
-58.92742051258693
 31
0.0
  0
LINE
  5
EE4
330
E94
100
AcDbEntity
  8
1
 62
     1
100
AcDbLine
 10
64.62142215984531
 20
-58.92742051258693
 30
0.0
 11
64.88867065483347
 21
-58.89028975311042
 31
0.0
  0
LINE
  5
EE5
330
E94
100
AcDbEntity
  8
1
 62
     1
100
AcDbLine
 10
64.88867065483347
 20
-58.89028975311042
 30
0.0
 11
65.15589561976414
 21
-58.86531313084393
 31
0.0
  0
LINE
  5
EE6
330
E94
100
AcDbEntity
  8
1
 62
     1
100
AcDbLine
 10
65.15589561976414
 20
-58.86531313084393
 30
0.0
 11
65.42313462659207
 21
-58.85267942856374
 31
0.0
  0
LINE
  5
EE7
330
E94
100
AcDbEntity
  8
1
 62
     1
100
AcDbLine
 10
64.05493268381929
 20
-59.59397092253553
 30
0.0
 11
63.67428664705538
 21
-59.43146255414543
 31
0.0
  0
LINE
  5
EE8
330
E94
100
AcDbEntity
  8
1
 62
     1
100
AcDbLine
 10
63.67428664705538
 20
-59.43146255414543
 30
0.0
 11
63.29363894815625
 21
-59.28497860817731
 31
0.0
  0
LINE
  5
EE9
330
E94
100
AcDbEntity
  8
1
 62
     1
100
AcDbLine
 10
63.29363894815625
 20
-59.28497860817731
 30
0.0
 11
62.91298888410873
 21
-59.15685059304138
 31
0.0
  0
LINE
  5
EEA
330
E94
100
AcDbEntity
  8
1
 62
     1
100
AcDbLine
 10
62.91298888410873
 20
-59.15685059304138
 30
0.0
 11
62.53233704920933
 21
-59.04911773258696
 31
0.0
  0
LINE
  5
EEB
330
E94
100
AcDbEntity
  8
1
 62
     1
100
AcDbLine
 10
62.53233704920933
 20
-59.04911773258696
 30
0.0
 11
62.1516873666565
 21
-58.96349546709172
 31
0.0
  0
LINE
  5
EEC
330
E94
100
AcDbEntity
  8
1
 62
     1
100
AcDbLine
 10
62.1516873666565
 20
-58.96349546709172
 30
0.0
 11
61.77104006304162
 21
-58.90134581109054
 31
0.0
  0
LINE
  5
EED
330
E94
100
AcDbEntity
  8
1
 62
     1
100
AcDbLine
 10
61.77104006304162
 20
-58.90134581109054
 30
0.0
 11
61.39039430223874
 21
-58.86365734896415
 31
0.0
  0
LINE
  5
EEE
330
E94
100
AcDbEntity
  8
1
 62
     1
100
AcDbLine
 10
61.39039430223874
 20
-58.86365734896415
 30
0.0
 11
61.00978085729032
 21
-58.85102737875507
 31
0.0
  0
LINE
  5
EEF
330
E94
100
AcDbEntity
  8
1
 62
     1
100
AcDbLine
 10
57.73926404176425
 20
-59.5939700372104
 30
0.0
 11
60.95337224377928
 21
-61.20642140657462
 31
0.0
  0
LINE
  5
EF0
330
E94
100
AcDbEntity
  8
1
 62
     1
100
AcDbLine
 10
60.95337224377928
 20
-61.20642140657462
 30
0.0
 11
61.35515486572715
 21
-61.38419315062169
 31
0.0
  0
LINE
  5
EF1
330
E94
100
AcDbEntity
  8
1
 62
     1
100
AcDbLine
 10
61.35515486572715
 20
-61.38419315062169
 30
0.0
 11
61.7569376161339
 21
-61.54520126043642
 31
0.0
  0
LINE
  5
EF2
330
E94
100
AcDbEntity
  8
1
 62
     1
100
AcDbLine
 10
61.7569376161339
 20
-61.54520126043642
 30
0.0
 11
62.15872051805606
 21
-61.6865918504196
 31
0.0
  0
LINE
  5
EF3
330
E94
100
AcDbEntity
  8
1
 62
     1
100
AcDbLine
 10
62.15872051805606
 20
-61.6865918504196
 30
0.0
 11
62.56050295925771
 21
-61.80585937358711
 31
0.0
  0
LINE
  5
EF4
330
E94
100
AcDbEntity
  8
1
 62
     1
100
AcDbLine
 10
62.56050295925771
 20
-61.80585937358711
 30
0.0
 11
62.96228538999397
 21
-61.90088908582993
 31
0.0
  0
LINE
  5
EF5
330
E94
100
AcDbEntity
  8
1
 62
     1
100
AcDbLine
 10
62.96228538999397
 20
-61.90088908582993
 30
0.0
 11
63.36406812504353
 21
-61.9699963516113
 31
0.0
  0
LINE
  5
EF6
330
E94
100
AcDbEntity
  8
1
 62
     1
100
AcDbLine
 10
63.36406812504353
 20
-61.9699963516113
 30
0.0
 11
63.76585082355309
 21
-62.0119564831159
 31
0.0
  0
LINE
  5
EF7
330
E94
100
AcDbEntity
  8
1
 62
     1
100
AcDbLine
 10
63.76585082355309
 20
-62.0119564831159
 30
0.0
 11
64.16761490366309
 21
-62.02602736865206
 31
0.0
  0
LINE
  5
EF8
330
E94
100
AcDbEntity
  8
1
 62
     1
100
AcDbLine
 10
57.66613173077395
 20
-60.43852737375423
 30
0.0
 11
58.85032516032218
 21
-61.04603945188575
 31
0.0
  0
LINE
  5
EF9
330
E94
100
AcDbEntity
  8
1
 62
     1
100
AcDbLine
 10
58.85032516032218
 20
-61.04603945188575
 30
0.0
 11
59.44241025577422
 21
-61.32049331123814
 31
0.0
  0
LINE
  5
EFA
330
E94
100
AcDbEntity
  8
1
 62
     1
100
AcDbLine
 10
59.44241025577422
 20
-61.32049331123814
 30
0.0
 11
60.03451651492547
 21
-61.56106122324452
 31
0.0
  0
LINE
  5
EFB
330
E94
100
AcDbEntity
  8
1
 62
     1
100
AcDbLine
 10
60.03451651492547
 20
-61.56106122324452
 30
0.0
 11
60.33055651947995
 21
-61.66568100737276
 31
0.0
  0
LINE
  5
EFC
330
E94
100
AcDbEntity
  8
1
 62
     1
100
AcDbLine
 10
60.33055651947995
 20
-61.66568100737276
 30
0.0
 11
60.62661173792719
 21
-61.75848835129034
 31
0.0
  0
LINE
  5
EFD
330
E94
100
AcDbEntity
  8
1
 62
     1
100
AcDbLine
 10
60.62661173792719
 20
-61.75848835129034
 30
0.0
 11
60.92266623655825
 21
-61.83858051145561
 31
0.0
  0
LINE
  5
EFE
330
E94
100
AcDbEntity
  8
1
 62
     1
100
AcDbLine
 10
60.92266623655825
 20
-61.83858051145561
 30
0.0
 11
61.21870609791972
 21
-61.90518636153538
 31
0.0
  0
LINE
  5
EFF
330
E94
100
AcDbEntity
  8
1
 62
     1
100
AcDbLine
 10
61.21870609791972
 20
-61.90518636153538
 30
0.0
 11
61.51475121896284
 21
-61.95767101202847
 31
0.0
  0
LINE
  5
F00
330
E94
100
AcDbEntity
  8
1
 62
     1
100
AcDbLine
 10
61.51475121896284
 20
-61.95767101202847
 30
0.0
 11
61.81081211419385
 21
-61.99552579741617
 31
0.0
  0
LINE
  5
F01
330
E94
100
AcDbEntity
  8
1
 62
     1
100
AcDbLine
 10
61.81081211419385
 20
-61.99552579741617
 30
0.0
 11
62.10685663028025
 21
-62.01838214120087
 31
0.0
  0
LINE
  5
F02
330
E94
100
AcDbEntity
  8
1
 62
     1
100
AcDbLine
 10
62.10685663028025
 20
-62.01838214120087
 30
0.0
 11
62.40288352980692
 21
-62.02602736875061
 31
0.0
  0
LINE
  5
F03
330
E94
100
AcDbEntity
  8
1
 62
     1
100
AcDbLine
 10
57.66613173077356
 20
-60.43852737375506
 30
0.0
 11
57.57030131799208
 21
-60.40796015208889
 31
0.0
  0
LINE
  5
F04
330
E94
100
AcDbEntity
  8
1
 62
     1
100
AcDbLine
 10
57.85194637446883
 20
-62.02602736863472
 30
0.0
 11
58.13638116361943
 21
-62.01896871022055
 31
0.0
  0
LINE
  5
F05
330
E94
100
AcDbEntity
  8
1
 62
     1
100
AcDbLine
 10
58.13638116361943
 20
-62.01896871022055
 30
0.0
 11
58.42080539287739
 21
-61.99786245951884
 31
0.0
  0
LINE
  5
F06
330
E94
100
AcDbEntity
  8
1
 62
     1
100
AcDbLine
 10
58.42080539287739
 20
-61.99786245951884
 30
0.0
 11
58.70524583618891
 21
-61.96289303707621
 31
0.0
  0
LINE
  5
F07
330
E94
100
AcDbEntity
  8
1
 62
     1
100
AcDbLine
 10
58.70524583618891
 20
-61.96289303707621
 30
0.0
 11
58.98968557755854
 21
-61.91436796351824
 31
0.0
  0
LINE
  5
F08
330
E94
100
AcDbEntity
  8
1
 62
     1
100
AcDbLine
 10
58.98968557755854
 20
-61.91436796351824
 30
0.0
 11
59.2741096047056
 21
-61.85272655847839
 31
0.0
  0
LINE
  5
F09
330
E94
100
AcDbEntity
  8
1
 62
     1
100
AcDbLine
 10
59.2741096047056
 20
-61.85272655847839
 30
0.0
 11
59.55854524801574
 21
-61.77851164134857
 31
0.0
  0
LINE
  5
F0A
330
E94
100
AcDbEntity
  8
1
 62
     1
100
AcDbLine
 10
59.55854524801574
 20
-61.77851164134857
 30
0.0
 11
59.84298881458943
 21
-61.69237853409223
 31
0.0
  0
LINE
  5
F0B
330
E94
100
AcDbEntity
  8
1
 62
     1
100
AcDbLine
 10
59.84298881458943
 20
-61.69237853409223
 30
0.0
 11
60.1274137230769
 21
-61.5951050738755
 31
0.0
  0
LINE
  5
F0C
330
E94
100
AcDbEntity
  8
1
 62
     1
100
AcDbLine
 10
57.57047312250449
 20
-62.03001156185557
 30
0.0
 11
57.85194637446882
 21
-62.02602736875507
 31
0.0
  0
LINE
  5
F0D
330
E94
100
AcDbEntity
  8
1
 62
     1
100
AcDbLine
 10
63.9818007461149
 20
-60.43852737376544
 30
0.0
 11
62.79760250461468
 21
-59.8310127277019
 31
0.0
  0
LINE
  5
F0E
330
E94
100
AcDbEntity
  8
1
 62
     1
100
AcDbLine
 10
62.79760250461468
 20
-59.8310127277019
 30
0.0
 11
62.20551882989746
 21
-59.55656021520084
 31
0.0
  0
LINE
  5
F0F
330
E94
100
AcDbEntity
  8
1
 62
     1
100
AcDbLine
 10
62.20551882989746
 20
-59.55656021520084
 30
0.0
 11
61.6134101574131
 21
-59.31599113799839
 31
0.0
  0
LINE
  5
F10
330
E94
100
AcDbEntity
  8
1
 62
     1
100
AcDbLine
 10
61.6134101574131
 20
-59.31599113799839
 30
0.0
 11
61.31737096778996
 21
-59.21137233515255
 31
0.0
  0
LINE
  5
F11
330
E94
100
AcDbEntity
  8
1
 62
     1
100
AcDbLine
 10
61.31737096778996
 20
-59.21137233515255
 30
0.0
 11
61.02132147865862
 21
-59.11856672245271
 31
0.0
  0
LINE
  5
F12
330
E94
100
AcDbEntity
  8
1
 62
     1
100
AcDbLine
 10
61.02132147865862
 20
-59.11856672245271
 30
0.0
 11
60.72526234485392
 21
-59.03847289083556
 31
0.0
  0
LINE
  5
F13
330
E94
100
AcDbEntity
  8
1
 62
     1
100
AcDbLine
 10
60.72526234485392
 20
-59.03847289083556
 30
0.0
 11
60.429220922544
 21
-58.97186735600104
 31
0.0
  0
LINE
  5
F14
330
E94
100
AcDbEntity
  8
1
 62
     1
100
AcDbLine
 10
60.429220922544
 20
-58.97186735600104
 30
0.0
 11
60.13317912003909
 21
-58.91938381621596
 31
0.0
  0
LINE
  5
F15
330
E94
100
AcDbEntity
  8
1
 62
     1
100
AcDbLine
 10
60.13317912003909
 20
-58.91938381621596
 30
0.0
 11
59.83711965952229
 21
-58.88152851336577
 31
0.0
  0
LINE
  5
F16
330
E94
100
AcDbEntity
  8
1
 62
     1
100
AcDbLine
 10
59.83711965952229
 20
-58.88152851336577
 30
0.0
 11
59.54107111314325
 21
-58.85867213201396
 31
0.0
  0
LINE
  5
F17
330
E94
100
AcDbEntity
  8
1
 62
     1
100
AcDbLine
 10
59.54107111314325
 20
-58.85867213201396
 30
0.0
 11
59.24504903967086
 21
-58.85102737875507
 31
0.0
  0
LINE
  5
F18
330
E94
100
AcDbEntity
  8
1
 62
     1
100
AcDbLine
 10
63.98180074612032
 20
-60.43852737375506
 30
0.0
 11
62.42116657041428
 21
-59.96257511215976
 31
0.0
  0
LINE
  5
F19
330
E94
100
AcDbEntity
  8
1
 62
     1
100
AcDbLine
 10
62.42116657041428
 20
-59.96257511215976
 30
0.0
 11
61.64084948256128
 21
-59.7644876593153
 31
0.0
  0
LINE
  5
F1A
330
E94
100
AcDbEntity
  8
1
 62
     1
100
AcDbLine
 10
61.64084948256128
 20
-59.7644876593153
 30
0.0
 11
60.86053239470825
 21
-59.61128344234524
 31
0.0
  0
LINE
  5
F1B
330
E94
100
AcDbEntity
  8
1
 62
     1
100
AcDbLine
 10
60.86053239470825
 20
-59.61128344234524
 30
0.0
 11
60.47037385078176
 21
-59.55483711160232
 31
0.0
  0
LINE
  5
F1C
330
E94
100
AcDbEntity
  8
1
 62
     1
100
AcDbLine
 10
60.47037385078176
 20
-59.55483711160232
 30
0.0
 11
60.08021530685525
 21
-59.51316326918469
 31
0.0
  0
LINE
  5
F1D
330
E94
100
AcDbEntity
  8
1
 62
     1
100
AcDbLine
 10
60.08021530685525
 20
-59.51316326918469
 30
0.0
 11
59.69005676292874
 21
-59.4869588664646
 31
0.0
  0
LINE
  5
F1E
330
E94
100
AcDbEntity
  8
1
 62
     1
100
AcDbLine
 10
59.69005676292874
 20
-59.4869588664646
 30
0.0
 11
59.29989821900223
 21
-59.4766618010701
 31
0.0
  0
LINE
  5
F1F
330
E94
100
AcDbEntity
  8
1
 62
     1
100
AcDbLine
 10
59.29989821900223
 20
-59.4766618010701
 30
0.0
 11
58.90973967507571
 21
-59.48244395199506
 31
0.0
  0
LINE
  5
F20
330
E94
100
AcDbEntity
  8
1
 62
     1
100
AcDbLine
 10
58.90973967507571
 20
-59.48244395199506
 30
0.0
 11
58.51958113114921
 21
-59.50420863445518
 31
0.0
  0
LINE
  5
F21
330
E94
100
AcDbEntity
  8
1
 62
     1
100
AcDbLine
 10
58.51958113114921
 20
-59.50420863445518
 30
0.0
 11
58.12942258722269
 21
-59.54159222156991
 31
0.0
  0
LINE
  5
F22
330
E94
100
AcDbEntity
  8
1
 62
     1
100
AcDbLine
 10
58.12942258722269
 20
-59.54159222156991
 30
0.0
 11
57.73926404329618
 21
-59.5939700337737
 31
0.0
  0
ENDBLK
  5
F26
330
E94
100
AcDbEntity
  8
0
100
AcDbBlockEnd
  0
ENDSEC
  0
SECTION
  2
ENTITIES
  0
LINE
  5
3C2
330
18
100
AcDbEntity
  8
SK4
100
AcDbLine
 10
-68.01072529179823
 20
0.0000000000000005
 30
0.0
 11
0.0
 21
-0.000000000000001
 31
0.0
  0
LINE
  5
3C3
330
18
100
AcDbEntity
  8
4
100
AcDbLine
 10
0.0
 20
0.000000000000003
 30
0.0
 11
59.3197342031442
 21
-0.0000000000000016
 31
0.0
  0
LINE
  5
3C5
330
18
100
AcDbEntity
  8
1
100
AcDbLine
 10
3.967206149752136
 20
4.372733846666461
 30
0.0
 11
7.142206148751306
 21
2.155357777587559
 31
0.0
  0
LINE
  5
3C6
330
18
100
AcDbEntity
  8
1
100
AcDbLine
 10
7.142499992492445
 20
1.306146823825887
 30
0.0
 11
3.967499993493278
 21
2.649876711079873
 31
0.0
  0
LINE
  5
3C7
330
18
100
AcDbEntity
  8
1
100
AcDbLine
 10
3.967499993493278
 20
8.461963344816744
 30
0.0
 11
4.761257191844826
 21
8.717311455351746
 31
0.0
  0
LINE
  5
3C8
330
18
100
AcDbEntity
  8
1
100
AcDbLine
 10
4.761257191844826
 20
8.717311455351746
 30
0.0
 11
5.554988012664678
 21
8.938964362726357
 31
0.0
  0
LINE
  5
3C9
330
18
100
AcDbEntity
  8
1
100
AcDbLine
 10
5.554988012664678
 20
8.938964362726357
 30
0.0
 11
6.348731814101197
 21
9.126081282486801
 31
0.0
  0
LINE
  5
3CA
330
18
100
AcDbEntity
  8
1
100
AcDbLine
 10
6.348731814101197
 20
9.126081282486801
 30
0.0
 11
7.142499992492468
 21
9.277933918356898
 31
0.0
  0
LINE
  5
3CB
330
18
100
AcDbEntity
  8
1
100
AcDbLine
 10
3.967499993493278
 20
-8.461963344816737
 30
0.0
 11
4.761257191844842
 21
-8.71731145535174
 31
0.0
  0
LINE
  5
3CC
330
18
100
AcDbEntity
  8
1
100
AcDbLine
 10
4.761257191844842
 20
-8.71731145535174
 30
0.0
 11
5.554988012664704
 21
-8.93896436272635
 31
0.0
  0
LINE
  5
3CD
330
18
100
AcDbEntity
  8
1
100
AcDbLine
 10
5.554988012664704
 20
-8.93896436272635
 30
0.0
 11
6.348731814101197
 21
-9.126081282486802
 31
0.0
  0
LINE
  5
3CE
330
18
100
AcDbEntity
  8
1
100
AcDbLine
 10
6.348731814101197
 20
-9.126081282486802
 30
0.0
 11
7.142499992492468
 21
-9.277933918356893
 31
0.0
  0
LINE
  5
3CF
330
18
100
AcDbEntity
  8
1
100
AcDbLine
 10
3.967499993493298
 20
-8.461963344816737
 30
0.0
 11
3.967499993493298
 21
-9.524999996997607
 31
0.0
  0
LINE
  5
3D0
330
18
100
AcDbEntity
  8
1
100
AcDbLine
 10
10.31060614875131
 20
-7.325545511744527
 30
0.0
 11
10.31060614875131
 21
-9.524452885585979
 31
0.0
  0
LINE
  5
3D1
330
18
100
AcDbEntity
  8
1
100
AcDbLine
 10
3.967499993493278
 20
-5.601689638954643
 30
0.0
 11
5.554985320181923
 21
-6.513908098332606
 31
0.0
  0
LINE
  5
3D2
330
18
100
AcDbEntity
  8
1
100
AcDbLine
 10
5.554985320181923
 20
-6.513908098332606
 30
0.0
 11
7.142499992492468
 21
-7.325545511744532
 31
0.0
  0
LINE
  5
3D3
330
18
100
AcDbEntity
  8
1
100
AcDbLine
 10
3.967499993493298
 20
4.372733846666461
 30
0.0
 11
3.967499993493298
 21
-5.601689638954643
 31
0.0
  0
LINE
  5
3D4
330
18
100
AcDbEntity
  8
1
100
AcDbLine
 10
10.31060614875131
 20
6.08785741440814
 30
0.0
 11
10.31060614875131
 21
2.155357777587563
 31
0.0
  0
LINE
  5
3D5
330
18
100
AcDbEntity
  8
1
100
AcDbLine
 10
3.967499993493278
 20
7.703680817092098
 30
0.0
 11
5.554985320181898
 21
6.949430173211911
 31
0.0
  0
LINE
  5
3D6
330
18
100
AcDbEntity
  8
1
100
AcDbLine
 10
5.554985320181898
 20
6.949430173211911
 30
0.0
 11
7.142499992492468
 21
6.087857414408136
 31
0.0
  0
LINE
  5
3D7
330
18
100
AcDbEntity
  8
1
100
AcDbLine
 10
3.967499993493298
 20
9.524999996997618
 30
0.0
 11
3.967499993493298
 21
9.524602641389847
 31
0.0
  0
LINE
  5
3D8
330
18
100
AcDbEntity
  8
1
100
AcDbLine
 10
3.967499993493298
 20
9.524602641389847
 30
0.0
 11
3.967499993493298
 21
9.404799016472773
 31
0.0
  0
LINE
  5
3D9
330
18
100
AcDbEntity
  8
1
100
AcDbLine
 10
3.967499993493298
 20
9.404799016472773
 30
0.0
 11
3.967499993493298
 21
7.703680817092098
 31
0.0
  0
LINE
  5
3DA
330
18
100
AcDbEntity
  8
1
100
AcDbLine
 10
0.0029892624268285
 20
9.526023034882962
 30
0.0
 11
3.967499993493298
 21
9.524999996997618
 31
0.0
  0
LINE
  5
3DB
330
18
100
AcDbEntity
  8
1
100
AcDbLine
 10
10.31060614875131
 20
6.087857414408155
 30
0.0
 11
10.3106061487513
 21
9.524452888588003
 31
0.0
  0
LINE
  5
3DC
330
18
100
AcDbEntity
  8
1
100
AcDbLine
 10
10.31060614875131
 20
1.306146823825895
 30
0.0
 11
10.31060614875131
 21
2.155357777587567
 31
0.0
  0
LINE
  5
3DD
330
18
100
AcDbEntity
  8
1
100
AcDbLine
 10
10.31060614875131
 20
-7.325545511744527
 30
0.0
 11
10.31060614875131
 21
1.306146823825895
 31
0.0
  0
LINE
  5
3DE
330
18
100
AcDbEntity
  8
1
100
AcDbLine
 10
0.0
 20
-9.526023034882852
 30
0.0
 11
3.967499993493298
 21
-9.524999996997612
 31
0.0
  0
LINE
  5
3DF
330
18
100
AcDbEntity
  8
1
 62
     1
100
AcDbLine
 10
12.02406249094538
 20
9.412112681369267
 30
0.0
 11
13.17499999059096
 21
8.348837055080434
 31
0.0
  0
LINE
  5
3E0
330
18
100
AcDbEntity
  8
1
 62
     1
100
AcDbLine
 10
13.17499999059098
 20
8.348837055080425
 30
0.0
 11
13.17499999059096
 21
8.604249997287842
 31
0.0
  0
LINE
  5
3E1
330
18
100
AcDbEntity
  8
1
 62
     1
100
AcDbLine
 10
31.58999998478639
 20
8.546510367700799
 30
0.0
 11
31.58999998478639
 21
8.604249997287842
 31
0.0
  0
ARC
  5
3E2
330
18
100
AcDbEntity
  8
1
 62
     1
100
AcDbCircle
 10
55.1863967974265
 20
-36.69375140477902
 30
0.0
 40
46.6461696424575
100
AcDbArc
 50
97.75295339218814
 51
100.6669566152292
  0
ARC
  5
3E3
330
18
100
AcDbEntity
  8
1
 62
     1
100
AcDbCircle
 10
39.69793852125309
 20
-3.323495476993268
 30
0.0
 40
12.68956817725525
100
AcDbArc
 50
63.29225839958941
 51
68.97650992256621
  0
ARC
  5
3E4
330
18
100
AcDbEntity
  8
1
 62
     1
100
AcDbCircle
 10
40.37297829181621
 20
-32.79957149313838
 30
0.0
 40
30.74908488127591
100
AcDbArc
 50
125.8084057708136
 51
128.4991465079526
  0
ARC
  5
3EA
330
18
100
AcDbEntity
  8
1
 62
     1
100
AcDbCircle
 10
-10.79878057895589
 20
22.82444008621853
 30
0.0
 40
39.21749287372524
100
AcDbArc
 50
305.5882141192589
 51
307.6838008464469
  0
LINE
  5
3EB
330
18
100
AcDbEntity
  8
1
 62
     1
100
AcDbLine
 10
16.62781248949428
 20
-9.513286637184537
 30
0.0
 11
17.77874998913981
 21
-8.590003696327562
 31
0.0
  0
LINE
  5
3EC
330
18
100
AcDbEntity
  8
1
100
AcDbLine
 10
7.142499992492468
 20
2.155357777587564
 30
0.0
 11
7.420312492404897
 21
1.952965724885751
 31
0.0
  0
LINE
  5
3ED
330
18
100
AcDbEntity
  8
1
100
AcDbLine
 10
7.420312492404897
 20
1.952965721608453
 30
0.0
 11
7.420312492404897
 21
5.927016460494347
 31
0.0
  0
LINE
  5
3EE
330
18
100
AcDbEntity
  8
1
100
AcDbLine
 10
7.142499992492468
 20
6.087857414408155
 30
0.0
 11
7.420312492404897
 21
5.927016460494337
 31
0.0
  0
LINE
  5
3EF
330
18
100
AcDbEntity
  8
1
100
AcDbLine
 10
9.722187491679321
 20
4.493794342774846
 30
0.0
 11
10.00060614875131
 21
4.302819296316298
 31
0.0
  0
LINE
  5
3F1
330
18
100
AcDbEntity
  8
1
100
AcDbLine
 10
9.722187491679338
 20
0.2494731039168235
 30
0.0
 11
10.00060614875131
 21
0.0417705443550636
 31
0.0
  0
LINE
  5
3F2
330
18
100
AcDbEntity
  8
1
 62
     1
100
AcDbLine
 10
14.32593749022816
 20
1.241445801395613
 30
0.0
 11
16.62781248950255
 21
-0.472231195177467
 31
0.0
  0
LINE
  5
3F3
330
18
100
AcDbEntity
  8
1
 62
     1
100
AcDbLine
 10
14.32593749022816
 20
-3.126284140543538
 30
0.0
 11
14.32593749022816
 21
1.241445801395613
 31
0.0
  0
LINE
  5
3F4
330
18
100
AcDbEntity
  8
1
 62
     1
100
AcDbLine
 10
14.32593749022816
 20
-3.126284140543538
 30
0.0
 11
16.62781248950259
 21
-4.689099055639252
 31
0.0
  0
ARC
  5
3F5
330
18
100
AcDbEntity
  8
1
 62
     1
100
AcDbCircle
 10
54.99271810168369
 20
35.47520756203468
 30
0.0
 40
45.41264521194039
100
AcDbArc
 50
259.2886120501099
 51
262.2817737120839
  0
LINE
  5
3F6
330
18
100
AcDbEntity
  8
1
 62
     1
100
AcDbLine
 10
39.6465624822468
 20
-2.649313310746633
 30
0.0
 11
37.34468748297246
 21
-0.9656465362931982
 31
0.0
  0
LINE
  5
3F7
330
18
100
AcDbEntity
  8
1
 62
     1
100
AcDbLine
 10
37.34468748297241
 20
-5.113338260086166
 30
0.0
 11
37.34468748297246
 21
-0.9656465362931982
 31
0.0
  0
LINE
  5
3F8
330
18
100
AcDbEntity
  8
1
 62
     1
100
AcDbLine
 10
39.6465624822468
 20
-6.471568302320298
 30
0.0
 11
37.34468748297241
 21
-5.113338260086166
 31
0.0
  0
LINE
  5
3F9
330
18
100
AcDbEntity
  8
1
 62
     1
100
AcDbLine
 10
35.04281248369805
 20
0.7493314028822807
 30
0.0
 11
32.74093748442356
 21
2.440012449519968
 31
0.0
  0
LINE
  5
3FA
330
18
100
AcDbEntity
  8
1
 62
     1
100
AcDbLine
 10
32.74093748442356
 20
-1.948932549841495
 30
0.0
 11
32.74093748442356
 21
2.440012449519968
 31
0.0
  0
LINE
  5
3FB
330
18
100
AcDbEntity
  8
1
 62
     1
100
AcDbLine
 10
35.04281248369805
 20
-3.589322399197618
 30
0.0
 11
32.74093748442356
 21
-1.948932549841495
 31
0.0
  0
LINE
  5
3FC
330
18
100
AcDbEntity
  8
1
 62
     1
100
AcDbLine
 10
30.43906248514913
 20
4.051581545019537
 30
0.0
 11
28.13718748587472
 21
5.531791965744773
 31
0.0
  0
LINE
  5
3FD
330
18
100
AcDbEntity
  8
1
 62
     1
100
AcDbLine
 10
28.13718748587472
 20
1.46617896070872
 30
0.0
 11
28.13718748587472
 21
5.531791965744782
 31
0.0
  0
LINE
  5
3FE
330
18
100
AcDbEntity
  8
1
 62
     1
100
AcDbLine
 10
30.43906248514913
 20
-0.2453542441006898
 30
0.0
 11
30.11017419524843
 21
-0.0000000000017507
 31
0.0
  0
LINE
  5
3FF
330
18
100
AcDbEntity
  8
1
 62
     1
100
AcDbLine
 10
25.8353124866003
 20
6.832649016107802
 30
0.0
 11
24.6843747494755
 21
7.40237303786206
 31
0.0
  0
LINE
  5
400
330
18
100
AcDbEntity
  8
1
 62
     1
100
AcDbLine
 10
24.6843747494755
 20
7.40237303786206
 30
0.0
 11
23.53343748732587
 21
7.911974621393397
 31
0.0
  0
LINE
  5
401
330
18
100
AcDbEntity
  8
1
 62
     1
100
AcDbLine
 10
23.53343748732587
 20
4.692684985941887
 30
0.0
 11
23.53343748732587
 21
7.911974621713389
 31
0.0
  0
LINE
  5
402
330
18
100
AcDbEntity
  8
1
 62
     1
100
AcDbLine
 10
25.83531248660027
 20
3.130175670691976
 30
0.0
 11
23.53343748732587
 21
4.692684985941887
 31
0.0
  0
LINE
  5
403
330
18
100
AcDbEntity
  8
1
 62
     1
100
AcDbLine
 10
21.23156248805144
 20
8.734777982292415
 30
0.0
 11
20.08062522933667
 21
9.041296197003976
 31
0.0
  0
LINE
  5
404
330
18
100
AcDbEntity
  8
1
 62
     1
100
AcDbLine
 10
20.08062522933667
 20
9.041296197003976
 30
0.0
 11
18.92968748877704
 21
9.274380676902213
 31
0.0
  0
LINE
  5
405
330
18
100
AcDbEntity
  8
1
 62
     1
100
AcDbLine
 10
18.92968748877702
 20
7.315534815585417
 30
0.0
 11
18.92968748877702
 21
9.274380676902213
 31
0.0
  0
LINE
  5
406
330
18
100
AcDbEntity
  8
1
 62
     1
100
AcDbLine
 10
21.23156248805148
 20
6.103046943862143
 30
0.0
 11
20.08062485319316
 21
6.736647591440362
 31
0.0
  0
LINE
  5
407
330
18
100
AcDbEntity
  8
1
 62
     1
100
AcDbLine
 10
20.08062485319316
 20
6.736647591440362
 30
0.0
 11
18.92968748877702
 21
7.315534815585417
 31
0.0
  0
LINE
  5
408
330
18
100
AcDbEntity
  8
1
 62
     1
100
AcDbLine
 10
14.32593749022816
 20
8.997331405221814
 30
0.0
 11
14.32593749022816
 21
9.524999996997618
 31
0.0
  0
LINE
  5
409
330
18
100
AcDbEntity
  8
1
 62
     1
100
AcDbLine
 10
12.02406249095375
 20
9.41211268136168
 30
0.0
 11
12.02406249095375
 21
9.524999996997618
 31
0.0
  0
LINE
  5
40A
330
18
100
AcDbEntity
  8
1
 62
     1
100
AcDbLine
 10
48.89374997933202
 20
-8.046723776728692
 30
0.0
 11
48.89373540711684
 21
-9.526023034882847
 31
0.0
  0
ARC
  5
40B
330
18
100
AcDbEntity
  8
1
 62
     1
100
AcDbCircle
 10
61.42879154027224
 20
-26.20665782834965
 30
0.0
 40
20.86555078051791
100
AcDbArc
 50
123.1954066773261
 51
126.9238941174108
  0
LINE
  5
40C
330
18
100
AcDbEntity
  8
1
 62
     1
100
AcDbLine
 10
50.00499997898177
 20
-7.477457749081572
 30
0.0
 11
50.00499997898177
 21
-8.746218107511321
 31
0.0
  0
LINE
  5
40D
330
18
100
AcDbEntity
  8
1
 62
     1
100
AcDbLine
 10
35.04281248365787
 20
-9.495479313444775
 30
0.0
 11
36.19374998333525
 21
-8.582696249402262
 31
0.0
  0
ARC
  5
40E
330
18
100
AcDbEntity
  8
1
 62
     1
100
AcDbCircle
 10
43.39181639181187
 20
-0.5501905956051181
 30
0.0
 40
10.78578722749086
100
AcDbArc
 50
228.1359358651093
 51
231.3031960991123
  0
LINE
  5
40F
330
18
100
AcDbEntity
  8
1
 62
     1
100
AcDbLine
 10
39.64656248220279
 20
-9.149140064779784
 30
0.0
 11
40.79749998188407
 21
-8.245424402553082
 31
0.0
  0
LINE
  5
410
330
18
100
AcDbEntity
  8
1
 62
     1
100
AcDbLine
 10
26.9862499862375
 20
-8.347936214683027
 30
0.0
 11
28.13718748590785
 21
-9.411479384164026
 31
0.0
  0
LINE
  5
411
330
18
100
AcDbEntity
  8
1
 62
     1
100
AcDbLine
 10
28.13718748587472
 20
-9.411479384134015
 30
0.0
 11
28.13718748587472
 21
-7.754024928417963
 31
0.0
  0
ARC
  5
412
330
18
100
AcDbEntity
  8
1
 62
     1
100
AcDbCircle
 10
15.89716841963328
 20
13.41085170203977
 30
0.0
 40
26.3977334076629
100
AcDbArc
 50
303.4271763184118
 51
306.4753181320646
  0
ARC
  5
413
330
18
100
AcDbEntity
  8
1
 62
     1
100
AcDbCircle
 10
42.54136834706143
 20
-3.591376165396026
 30
0.0
 40
4.970000139704808
100
AcDbArc
 50
249.4590637251953
 51
263.1479598310381
  0
ARC
  5
414
330
18
100
AcDbEntity
  8
1
 62
     1
100
AcDbCircle
 10
50.79872705850526
 20
6.898565618609659
 30
0.0
 40
24.19688131502925
100
AcDbArc
 50
217.4532263535238
 51
221.7297571575524
  0
LINE
  5
415
330
18
100
AcDbEntity
  8
1
 62
     1
100
AcDbLine
 10
22.38249998768865
 20
-3.494051090072454
 30
0.0
 11
23.53343748735902
 21
-5.303421775487629
 31
0.0
  0
LINE
  5
416
330
18
100
AcDbEntity
  8
1
 62
     1
100
AcDbLine
 10
22.38249998768865
 20
-7.075503117158281
 30
0.0
 11
22.38249998768865
 21
-3.494051090072516
 31
0.0
  0
LINE
  5
417
330
18
100
AcDbEntity
  8
1
 62
     1
100
AcDbLine
 10
22.38249998768865
 20
-7.075503117158281
 30
0.0
 11
23.53343748735902
 21
-8.288807668543457
 31
0.0
  0
LINE
  5
418
330
18
100
AcDbEntity
  8
1
 62
     1
100
AcDbLine
 10
23.53343748732587
 20
-8.288807668508185
 30
0.0
 11
23.53343748732587
 21
-5.303421775436032
 31
0.0
  0
ARC
  5
419
330
18
100
AcDbEntity
  8
1
 62
     1
100
AcDbCircle
 10
20.82751437302782
 20
4.502683192051535
 30
0.0
 40
12.21291545713862
100
AcDbArc
 50
294.2074402255332
 51
300.2834937404821
  0
LINE
  5
41A
330
18
100
AcDbEntity
  8
1
 62
     1
100
AcDbLine
 10
25.8353124866003
 20
-8.995978279954476
 30
0.0
 11
25.8353124866003
 21
-6.636304119424315
 31
0.0
  0
LINE
  5
41B
330
18
100
AcDbEntity
  8
1
 62
     1
100
AcDbLine
 10
26.9862499862375
 20
-8.347936214683024
 30
0.0
 11
26.9862499862375
 21
-6.043703343960821
 31
0.0
  0
LINE
  5
41C
330
18
100
AcDbEntity
  8
1
 62
     1
100
AcDbLine
 10
17.77874998913981
 20
-4.892893784437386
 30
0.0
 11
18.92968748880681
 21
-6.099883220616315
 31
0.0
  0
LINE
  5
41D
330
18
100
AcDbEntity
  8
1
 62
     1
100
AcDbLine
 10
18.92968748877704
 20
-6.099883220583995
 30
0.0
 11
18.92968748877702
 21
-2.170596232077135
 31
0.0
  0
LINE
  5
41E
330
18
100
AcDbEntity
  8
1
 62
     1
100
AcDbLine
 10
21.23156248805148
 20
-7.312895660668186
 30
0.0
 11
21.23156248805148
 21
-3.798589020000096
 31
0.0
  0
ARC
  5
41F
330
18
100
AcDbEntity
  8
1
 62
     1
100
AcDbCircle
 10
17.32705919970034
 20
5.711955870011317
 30
0.0
 40
6.223546765316957
100
AcDbArc
 50
263.548958681252
 51
274.1622225090633
  0
LINE
  5
420
330
18
100
AcDbEntity
  8
1
 62
     1
100
AcDbLine
 10
16.62781248950259
 20
-4.689099055639252
 30
0.0
 11
16.62781248950255
 21
-0.472231195177467
 31
0.0
  0
ARC
  5
421
330
18
100
AcDbEntity
  8
1
 62
     1
100
AcDbCircle
 10
18.55103545576611
 20
2.817981782862955
 30
0.0
 40
7.749508302728566
100
AcDbArc
 50
255.6305624045614
 51
264.2805940397968
  0
LINE
  5
422
330
18
100
AcDbEntity
  8
1
 62
     1
100
AcDbLine
 10
17.77874998913981
 20
-4.892893784437386
 30
0.0
 11
17.77874998913981
 21
-0.4949287957961185
 31
0.0
  0
LINE
  5
423
330
18
100
AcDbEntity
  8
1
 62
     1
100
AcDbLine
 10
13.17499999059098
 20
-2.080874297871895
 30
0.0
 11
13.17499999059098
 21
2.567857714409786
 31
0.0
  0
ARC
  5
424
330
18
100
AcDbEntity
  8
1
 62
     1
100
AcDbCircle
 10
-1.944020290968424
 20
-19.87665725645095
 30
0.0
 40
23.35115751998312
100
AcDbArc
 50
45.83354189409407
 51
49.64928913033475
  0
LINE
  5
425
330
18
100
AcDbEntity
  8
1
 62
     1
100
AcDbLine
 10
12.02406249095375
 20
-1.462108004271638
 30
0.0
 11
12.02406249095375
 21
2.914874705882341
 31
0.0
  0
ARC
  5
426
330
18
100
AcDbEntity
  8
1
100
AcDbCircle
 10
20.34881401931639
 20
16.37113242670162
 30
0.0
 40
19.36563873369244
100
AcDbArc
 50
228.118012553562
 51
231.6841979063148
  0
LINE
  5
428
330
18
100
AcDbEntity
  8
1
100
AcDbLine
 10
9.722187491679338
 20
9.521732411304588
 30
0.0
 11
10.0006061487513
 21
9.524452888588003
 31
0.0
  0
LINE
  5
429
330
18
100
AcDbEntity
  8
1
100
AcDbLine
 10
10.05659823131925
 20
9.524999996997618
 30
0.0
 11
10.3106061487513
 21
9.524999996997618
 31
0.0
  0
LINE
  5
42A
330
18
100
AcDbEntity
  8
1
 62
     1
100
AcDbLine
 10
14.32593749022816
 20
9.524999996997618
 30
0.0
 11
15.99461556638199
 21
9.524999996997618
 31
0.0
  0
LINE
  5
42B
330
18
100
AcDbEntity
  8
1
 62
     1
100
AcDbLine
 10
48.89374997933202
 20
5.096651979861686
 30
0.0
 11
47.93736841969489
 21
5.684592715509626
 31
0.0
  0
LINE
  5
42C
330
18
100
AcDbEntity
  8
1
 62
     1
100
AcDbLine
 10
46.55218748007007
 20
2.658764810100811
 30
0.0
 11
46.55218748007011
 21
6.478786379544096
 31
0.0
  0
LINE
  5
42D
330
18
100
AcDbEntity
  8
1
 62
     1
100
AcDbLine
 10
48.89374997933202
 20
5.096651979862248
 30
0.0
 11
48.89374997933202
 21
0.9459762879486307
 31
0.0
  0
LINE
  5
42E
330
18
100
AcDbEntity
  8
1
 62
     1
100
AcDbLine
 10
44.25031248079569
 20
7.625876400563503
 30
0.0
 11
43.09937515524586
 21
8.1087277259764
 31
0.0
  0
LINE
  5
42F
330
18
100
AcDbEntity
  8
1
 62
     1
100
AcDbLine
 10
43.09937515524586
 20
8.1087277259764
 30
0.0
 11
41.94843748152131
 21
8.525720328457316
 31
0.0
  0
LINE
  5
430
330
18
100
AcDbEntity
  8
1
 62
     1
100
AcDbLine
 10
41.94843748152126
 20
5.715032022188557
 30
0.0
 11
41.94843748152131
 21
8.525720328457316
 31
0.0
  0
LINE
  5
431
330
18
100
AcDbEntity
  8
1
 62
     1
100
AcDbLine
 10
44.25031248079569
 20
4.255891118999913
 30
0.0
 11
41.94843748152126
 21
5.715032022188557
 31
0.0
  0
ARC
  5
432
330
18
100
AcDbEntity
  8
1
 62
     1
100
AcDbCircle
 10
35.95954369896086
 20
-8.539026232935198
 30
0.0
 40
18.06831272879024
100
AcDbArc
 50
78.22555150410306
 51
85.60326025770162
  0
LINE
  5
433
330
18
100
AcDbEntity
  8
1
 62
     1
100
AcDbLine
 10
37.34468748297241
 20
8.036130709535752
 30
0.0
 11
37.34468748297246
 21
9.475924847198275
 31
0.0
  0
LINE
  5
434
330
18
100
AcDbEntity
  8
1
 62
     1
100
AcDbLine
 10
39.6465624822468
 20
6.988878926638218
 30
0.0
 11
38.49562500880548
 21
7.543136753136245
 31
0.0
  0
LINE
  5
435
330
18
100
AcDbEntity
  8
1
 62
     1
100
AcDbLine
 10
38.49562500880548
 20
7.543136753136245
 30
0.0
 11
37.34468748297241
 21
8.036130709535752
 31
0.0
  0
LINE
  5
436
330
18
100
AcDbEntity
  8
1
 62
     1
100
AcDbLine
 10
35.04281248369801
 20
8.822833425687193
 30
0.0
 11
35.04281248369801
 21
9.524999996997618
 31
0.0
  0
LINE
  5
437
330
18
100
AcDbEntity
  8
1
 62
     1
100
AcDbLine
 10
32.74093748442356
 20
9.3234804048152
 30
0.0
 11
32.74093748442356
 21
9.524999996997618
 31
0.0
  0
LINE
  5
438
330
18
100
AcDbEntity
  8
1
 62
     1
100
AcDbLine
 10
30.43906248514913
 20
9.521839435618856
 30
0.0
 11
30.43906248514913
 21
9.524999996997618
 31
0.0
  0
LINE
  5
439
330
18
100
AcDbEntity
  8
1
 62
     1
100
AcDbLine
 10
30.11017419524944
 20
9.524999996997618
 30
0.0
 11
30.43906248514913
 21
9.524999996997618
 31
0.0
  0
LINE
  5
43A
330
18
100
AcDbEntity
  8
1
 62
     1
100
AcDbLine
 10
45.4012499804329
 20
-5.210100678576525
 30
0.0
 11
46.55218748011414
 21
-6.982188195111937
 31
0.0
  0
LINE
  5
43B
330
18
100
AcDbEntity
  8
1
 62
     1
100
AcDbLine
 10
45.4012499804329
 20
-8.012461133536536
 30
0.0
 11
45.4012499804329
 21
-5.210100678576523
 31
0.0
  0
LINE
  5
43C
330
18
100
AcDbEntity
  8
1
 62
     1
100
AcDbLine
 10
45.4012499804329
 20
-8.01246113353657
 30
0.0
 11
46.55218748011414
 21
-9.146397904539306
 31
0.0
  0
LINE
  5
43D
330
18
100
AcDbEntity
  8
1
 62
     1
100
AcDbLine
 10
46.55218748007011
 20
-9.146397904496296
 30
0.0
 11
46.55218748007011
 21
-6.982188195045906
 31
0.0
  0
LINE
  5
43E
330
18
100
AcDbEntity
  8
1
 62
     1
100
AcDbLine
 10
50.00499997898177
 20
4.538258117137324
 30
0.0
 11
49.44737223941986
 21
4.80073573936924
 31
0.0
  0
LINE
  5
43F
330
18
100
AcDbEntity
  8
1
 62
     1
100
AcDbLine
 10
49.44737223941986
 20
4.80073573936924
 30
0.0
 11
48.89374997933202
 21
5.096651979861686
 31
0.0
  0
LINE
  5
440
330
18
100
AcDbEntity
  8
1
 62
     1
100
AcDbLine
 10
44.25031248079569
 20
-8.521327110610316
 30
0.0
 11
44.25031248079569
 21
-5.707156390544548
 31
0.0
  0
LINE
  5
441
330
18
100
AcDbEntity
  8
1
 62
     1
100
AcDbLine
 10
35.04281248365789
 20
0.749331402890913
 30
0.0
 11
35.32965246779647
 21
0.6944060442771151
 31
0.0
  0
LINE
  5
442
330
18
100
AcDbEntity
  8
1
 62
     1
100
AcDbLine
 10
35.32965246779647
 20
0.6944060442771151
 30
0.0
 11
35.617284223654
 21
0.6522700707904036
 31
0.0
  0
LINE
  5
443
330
18
100
AcDbEntity
  8
1
 62
     1
100
AcDbLine
 10
35.617284223654
 20
0.6522700707904036
 30
0.0
 11
35.90546224957936
 21
0.6234782330335601
 31
0.0
  0
LINE
  5
444
330
18
100
AcDbEntity
  8
1
 62
     1
100
AcDbLine
 10
35.90546224957936
 20
0.6234782330335601
 30
0.0
 11
36.19374998333525
 21
0.6086403752004405
 31
0.0
  0
LINE
  5
445
330
18
100
AcDbEntity
  8
1
 62
     1
100
AcDbLine
 10
35.04281248369805
 20
-3.589322399197618
 30
0.0
 11
35.04281248369805
 21
0.7493314028822807
 31
0.0
  0
ARC
  5
446
330
18
100
AcDbEntity
  8
1
 62
     1
100
AcDbCircle
 10
38.1155356420185
 20
4.269559586581203
 30
0.0
 40
8.438197270522339
100
AcDbArc
 50
248.6451320932791
 51
256.8352192116273
  0
LINE
  5
447
330
18
100
AcDbEntity
  8
1
 62
     1
100
AcDbLine
 10
36.1937499833352
 20
-3.946729522556903
 30
0.0
 11
36.1937499833352
 21
0.6086403752004405
 31
0.0
  0
ARC
  5
448
330
18
100
AcDbEntity
  8
1
 62
     1
100
AcDbCircle
 10
11.73831524711842
 20
-29.21855644973935
 30
0.0
 40
35.16725492985842
100
AcDbArc
 50
43.27034980327929
 51
45.94056305483475
  0
ARC
  5
449
330
18
100
AcDbEntity
  8
1
 62
     1
100
AcDbCircle
 10
39.13269504899696
 20
4.032719554682429
 30
0.0
 40
6.701749084239223
100
AcDbArc
 50
274.3975537820641
 51
284.383813136801
  0
LINE
  5
44A
330
18
100
AcDbEntity
  8
1
 62
     1
100
AcDbLine
 10
39.6465624822468
 20
-6.471568302320298
 30
0.0
 11
39.6465624822468
 21
-2.649313310746633
 31
0.0
  0
ARC
  5
44B
330
18
100
AcDbEntity
  8
1
 62
     1
100
AcDbCircle
 10
39.67036387245203
 20
1.398405786056581
 30
0.0
 40
7.870034899153932
100
AcDbArc
 50
269.8267192452284
 51
278.2339995246569
  0
LINE
  5
44C
330
18
100
AcDbEntity
  8
1
 62
     1
100
AcDbLine
 10
40.79749998188407
 20
-6.390633326085352
 30
0.0
 11
40.79749998188407
 21
-2.458880728626331
 31
0.0
  0
LINE
  5
44D
330
18
100
AcDbEntity
  8
1
 62
     1
100
AcDbLine
 10
41.94843748152126
 20
-7.619975979500456
 30
0.0
 11
41.94843748152131
 21
-4.247083449113573
 31
0.0
  0
LINE
  5
44E
330
18
100
AcDbEntity
  8
1
 62
     1
100
AcDbLine
 10
30.43906248514913
 20
-0.2453542440772126
 30
0.0
 11
30.43906248514913
 21
4.051581545019537
 31
0.0
  0
ARC
  5
44F
330
18
100
AcDbEntity
  8
1
 62
     1
100
AcDbCircle
 10
38.29729003140335
 20
10.55373436345199
 30
0.0
 40
13.35555212854668
100
AcDbArc
 50
233.9575519350316
 51
239.8530518180089
  0
LINE
  5
450
330
18
100
AcDbEntity
  8
1
 62
     1
100
AcDbLine
 10
31.58999998478639
 20
-0.9951274042104904
 30
0.0
 11
31.58999998478639
 21
3.597868664537435
 31
0.0
  0
ARC
  5
451
330
18
100
AcDbEntity
  8
1
 62
     1
100
AcDbCircle
 10
20.13792894146222
 20
-15.97990291089367
 30
0.0
 40
18.85988122089663
100
AcDbArc
 50
48.06893413784596
 51
52.6112342451044
  0
LINE
  5
452
330
18
100
AcDbEntity
  8
1
 62
     1
100
AcDbLine
 10
22.38249998768865
 20
4.89595482566079
 30
0.0
 11
22.38249998768865
 21
7.862870022821878
 31
0.0
  0
LINE
  5
453
330
18
100
AcDbEntity
  8
1
 62
     1
100
AcDbLine
 10
25.83531248660027
 20
3.130175670691976
 30
0.0
 11
25.83531248660027
 21
6.832649016107811
 31
0.0
  0
ARC
  5
454
330
18
100
AcDbEntity
  8
1
 62
     1
100
AcDbCircle
 10
42.55611920766478
 20
20.37179664695365
 30
0.0
 40
24.01784627343305
100
AcDbArc
 50
225.8785626341309
 51
229.5888321002079
  0
LINE
  5
455
330
18
100
AcDbEntity
  8
1
 62
     1
100
AcDbLine
 10
26.9862499862375
 20
2.084485301318153
 30
0.0
 11
26.9862499862375
 21
6.124276929240272
 31
0.0
  0
LINE
  5
456
330
18
100
AcDbEntity
  8
1
 62
     1
100
AcDbLine
 10
21.23156248805148
 20
6.103046943862143
 30
0.0
 11
21.23156248805144
 21
8.734777982292415
 31
0.0
  0
ARC
  5
457
330
18
100
AcDbEntity
  8
1
 62
     1
100
AcDbCircle
 10
55.73066281681594
 20
37.83782640757642
 30
0.0
 40
46.87516854970279
100
AcDbArc
 50
222.6101044704604
 51
224.6488388873833
  0
LINE
  5
458
330
18
100
AcDbEntity
  8
1
 62
     1
100
AcDbLine
 10
16.62781248949428
 20
9.513286637184542
 30
0.0
 11
17.77874998913981
 21
8.590003696327567
 31
0.0
  0
LINE
  5
459
330
18
100
AcDbEntity
  8
1
 62
     1
100
AcDbLine
 10
16.62781248950259
 20
8.290836808743005
 30
0.0
 11
16.62781248950259
 21
9.513286637177817
 31
0.0
  0
LINE
  5
45A
330
18
100
AcDbEntity
  8
1
 62
     1
100
AcDbLine
 10
16.62781248949428
 20
8.290836808751857
 30
0.0
 11
17.77874998913981
 21
7.077620251895544
 31
0.0
  0
LINE
  5
45B
330
18
100
AcDbEntity
  8
1
 62
     1
100
AcDbLine
 10
17.77874998913981
 20
7.077620251895543
 30
0.0
 11
17.77874998913981
 21
8.590003696327482
 31
0.0
  0
LINE
  5
45C
330
18
100
AcDbEntity
  8
1
 62
     1
100
AcDbLine
 10
14.32593749022816
 20
9.524999996997618
 30
0.0
 11
13.17499999059096
 21
8.604249997287842
 31
0.0
  0
LINE
  5
45D
330
18
100
AcDbEntity
  8
1
 62
     1
100
AcDbLine
 10
13.17499999059096
 20
8.604249997287842
 30
0.0
 11
12.02406249095375
 21
9.524999996997618
 31
0.0
  0
ARC
  5
45E
330
18
100
AcDbEntity
  8
1
 62
     1
100
AcDbCircle
 10
30.11604451458577
 20
-7.770719881287223
 30
0.0
 40
17.29576541472348
100
AcDbArc
 50
90.01944669038449
 51
96.56975387595052
  0
LINE
  5
45F
330
18
100
AcDbEntity
  8
1
 62
     1
100
AcDbLine
 10
32.74093748442356
 20
9.524999996997618
 30
0.0
 11
35.04281248369801
 21
9.524999996997618
 31
0.0
  0
LINE
  5
460
330
18
100
AcDbEntity
  8
1
 62
     1
100
AcDbLine
 10
50.00499997898177
 20
5.771715888536628
 30
0.0
 11
50.00499997898177
 21
4.538258117137348
 31
0.0
  0
LINE
  5
461
330
18
100
AcDbEntity
  8
1
 62
     1
100
AcDbLine
 10
50.00499997898177
 20
4.538258117137348
 30
0.0
 11
50.00499997898177
 21
0.1087655409800757
 31
0.0
  0
LINE
  5
462
330
18
100
AcDbEntity
  8
1
 62
     1
100
AcDbLine
 10
45.4012499804329
 20
3.135854684036596
 30
0.0
 11
45.4012499804329
 21
6.847479020407752
 31
0.0
  0
ARC
  5
463
330
18
100
AcDbEntity
  8
1
 62
     1
100
AcDbCircle
 10
42.44989646588662
 20
-5.6058932032675
 30
0.0
 40
9.226558167231324
100
AcDbArc
 50
63.60178462244418
 51
71.34449737601134
  0
LINE
  5
464
330
18
100
AcDbEntity
  8
1
 62
     1
100
AcDbLine
 10
44.25031248079569
 20
4.255891118999913
 30
0.0
 11
44.25031248079569
 21
7.625876400563503
 31
0.0
  0
LINE
  5
465
330
18
100
AcDbEntity
  8
1
 62
     1
100
AcDbLine
 10
36.1937499833352
 20
8.604249997287842
 30
0.0
 11
35.04281248369801
 21
9.524999996997623
 31
0.0
  0
LINE
  5
466
330
18
100
AcDbEntity
  8
1
 62
     1
100
AcDbLine
 10
36.64856718095505
 20
8.968103755383703
 30
0.0
 11
36.1937499833352
 21
8.604249997287842
 31
0.0
  0
LINE
  5
467
330
18
100
AcDbEntity
  8
1
 62
     1
100
AcDbLine
 10
36.1937499833352
 20
7.645681401392917
 30
0.0
 11
36.1937499833352
 21
8.604249997287842
 31
0.0
  0
ARC
  5
468
330
18
100
AcDbEntity
  8
1
 62
     1
100
AcDbCircle
 10
40.22544245921596
 20
-2.33944985266585
 30
0.0
 40
10.76830618606717
100
AcDbArc
 50
105.5171860775881
 51
111.987358766487
  0
LINE
  5
469
330
18
100
AcDbEntity
  8
1
 62
     1
100
AcDbLine
 10
39.64656248220278
 20
9.149140064779787
 30
0.0
 11
40.79749998188407
 21
8.245424402553089
 31
0.0
  0
LINE
  5
46A
330
18
100
AcDbEntity
  8
1
 62
     1
100
AcDbLine
 10
39.6465624822468
 20
6.988878926638218
 30
0.0
 11
39.6465624822468
 21
9.149140064744083
 31
0.0
  0
LINE
  5
46B
330
18
100
AcDbEntity
  8
1
 62
     1
100
AcDbLine
 10
39.64656248220278
 20
6.988878926686393
 30
0.0
 11
40.797499981884
 21
5.761330029373004
 31
0.0
  0
LINE
  5
46C
330
18
100
AcDbEntity
  8
1
 62
     1
100
AcDbLine
 10
40.79749998188407
 20
5.761330029373004
 30
0.0
 11
40.79749998188407
 21
8.245424402553092
 31
0.0
  0
LINE
  5
46D
330
18
100
AcDbEntity
  8
1
 62
     1
100
AcDbLine
 10
31.58999998478639
 20
8.604249997287842
 30
0.0
 11
30.43906248514913
 21
9.524999996997618
 31
0.0
  0
LINE
  5
46E
330
18
100
AcDbEntity
  8
1
 62
     1
100
AcDbLine
 10
32.74093748442356
 20
9.524999996997618
 30
0.0
 11
31.58999998478639
 21
8.604249997287842
 31
0.0
  0
LINE
  5
46F
330
18
100
AcDbEntity
  8
1
 62
     1
100
AcDbLine
 10
23.19321902107966
 20
7.927628678781994
 30
0.0
 11
23.53343748735905
 21
8.288807668543462
 31
0.0
  0
LINE
  5
470
330
18
100
AcDbEntity
  8
1
 62
     1
100
AcDbLine
 10
50.00499997898177
 20
5.771715888536628
 30
0.0
 11
47.93736849964139
 21
5.684592849050678
 31
0.0
  0
LINE
  5
471
330
18
100
AcDbEntity
  8
1
 62
     1
100
AcDbLine
 10
50.00499997898177
 20
5.771715888536628
 30
0.0
 11
50.00499997898177
 21
8.746218107511326
 31
0.0
  0
ARC
  5
472
330
18
100
AcDbEntity
  8
1
 62
     1
100
AcDbCircle
 10
60.713740308672
 20
25.18772512257367
 30
0.0
 40
19.62145353530045
100
AcDbArc
 50
232.9578682344199
 51
236.9228528793964
  0
LINE
  5
473
330
18
100
AcDbEntity
  8
1
 62
     1
100
AcDbLine
 10
45.4012499804329
 20
8.012461133536572
 30
0.0
 11
46.55218748011421
 21
9.14639790453932
 31
0.0
  0
ARC
  5
474
330
18
100
AcDbEntity
  8
1
 62
     1
100
AcDbCircle
 10
51.76149529229197
 20
-13.9624120284541
 30
0.0
 40
23.70524777648144
100
AcDbArc
 50
108.473019402034
 51
111.4156397864506
  0
LINE
  5
475
330
18
100
AcDbEntity
  8
1
100
AcDbLine
 10
9.722187491679321
 20
-9.521732393841935
 30
0.0
 11
10.00060614875131
 21
-9.524999996903734
 31
0.0
  0
LINE
  5
477
330
18
100
AcDbEntity
  8
1
100
AcDbLine
 10
7.142499992492445
 20
-9.277933918356893
 30
0.0
 11
9.722187491679321
 21
-9.521732393841935
 31
0.0
  0
ARC
  5
478
330
18
100
AcDbEntity
  8
1
 62
     1
100
AcDbCircle
 10
42.5962311447882
 20
1.548229988844383
 30
0.0
 40
9.509410396419637
100
AcDbArc
 50
123.5216896312957
 51
128.7151606545367
  0
ARC
  5
479
330
18
100
AcDbEntity
  8
1
 62
     1
100
AcDbCircle
 10
42.54136834706151
 20
3.591376165395935
 30
0.0
 40
4.970000139704924
100
AcDbArc
 50
96.85204016896273
 51
110.5409362748053
  0
LINE
  5
47A
330
18
100
AcDbEntity
  8
1
 62
     1
100
AcDbLine
 10
44.25031248075163
 20
7.625876400595712
 30
0.0
 11
44.82478433075009
 21
7.221170719298317
 31
0.0
  0
LINE
  5
47B
330
18
100
AcDbEntity
  8
1
 62
     1
100
AcDbLine
 10
44.82478433075009
 20
7.221170719298317
 30
0.0
 11
45.4012499804329
 21
6.847479020407758
 31
0.0
  0
LINE
  5
47C
330
18
100
AcDbEntity
  8
1
 62
     1
100
AcDbLine
 10
45.4012499804329
 20
6.847479020407758
 30
0.0
 11
45.68730795175381
 21
6.781952563718955
 31
0.0
  0
LINE
  5
47D
330
18
100
AcDbEntity
  8
1
 62
     1
100
AcDbLine
 10
45.68730795175381
 20
6.781952563718955
 30
0.0
 11
45.97468516497186
 21
6.698444041027671
 31
0.0
  0
LINE
  5
47E
330
18
100
AcDbEntity
  8
1
 62
     1
100
AcDbLine
 10
45.97468516497186
 20
6.698444041027671
 30
0.0
 11
46.26308897666524
 21
6.59726696260988
 31
0.0
  0
LINE
  5
47F
330
18
100
AcDbEntity
  8
1
 62
     1
100
AcDbLine
 10
46.26308897666524
 20
6.59726696260988
 30
0.0
 11
46.55218748011414
 21
6.478786379524755
 31
0.0
  0
LINE
  5
480
330
18
100
AcDbEntity
  8
1
 62
     1
100
AcDbLine
 10
50.00499997898171
 20
0.071775456921276
 30
0.0
 11
44.47469791656049
 21
2.487914376076765
 31
0.0
  0
LINE
  5
481
330
18
100
AcDbEntity
  8
1
 62
     1
100
AcDbLine
 10
44.47469791656049
 20
2.487914376076765
 30
0.0
 11
41.70954688534989
 21
3.54910531656983
 31
0.0
  0
LINE
  5
482
330
18
100
AcDbEntity
  8
1
 62
     1
100
AcDbLine
 10
41.70954688534989
 20
3.54910531656983
 30
0.0
 11
38.94439585413923
 21
4.444446687629116
 31
0.0
  0
LINE
  5
483
330
18
100
AcDbEntity
  8
1
 62
     1
100
AcDbLine
 10
38.94439585413923
 20
4.444446687629116
 30
0.0
 11
37.56182033853392
 21
4.816489915029301
 31
0.0
  0
LINE
  5
484
330
18
100
AcDbEntity
  8
1
 62
     1
100
AcDbLine
 10
37.56182033853392
 20
4.816489915029301
 30
0.0
 11
36.1792448229286
 21
5.132099245413171
 31
0.0
  0
LINE
  5
485
330
18
100
AcDbEntity
  8
1
 62
     1
100
AcDbLine
 10
36.1792448229286
 20
5.132099245413171
 30
0.0
 11
34.79666930732329
 21
5.387576747772861
 31
0.0
  0
LINE
  5
486
330
18
100
AcDbEntity
  8
1
 62
     1
100
AcDbLine
 10
34.79666930732329
 20
5.387576747772861
 30
0.0
 11
33.414093791718
 21
5.579929044321005
 31
0.0
  0
LINE
  5
487
330
18
100
AcDbEntity
  8
1
 62
     1
100
AcDbLine
 10
33.414093791718
 20
5.579929044321005
 30
0.0
 11
32.03151827611264
 21
5.706902383006508
 31
0.0
  0
LINE
  5
488
330
18
100
AcDbEntity
  8
1
 62
     1
100
AcDbLine
 10
32.03151827611264
 20
5.706902383006508
 30
0.0
 11
30.64894276050733
 21
5.767009044236183
 31
0.0
  0
LINE
  5
489
330
18
100
AcDbEntity
  8
1
 62
     1
100
AcDbLine
 10
30.64894276050733
 20
5.767009044236183
 30
0.0
 11
29.26636724490201
 21
5.759544772086187
 31
0.0
  0
LINE
  5
48A
330
18
100
AcDbEntity
  8
1
 62
     1
100
AcDbLine
 10
29.26636724490201
 20
5.759544772086187
 30
0.0
 11
27.88379172929672
 21
5.68459702585448
 31
0.0
  0
LINE
  5
48B
330
18
100
AcDbEntity
  8
1
 62
     1
100
AcDbLine
 10
50.00499997898177
 20
0.0717754569212814
 30
0.0
 11
50.00499997898177
 21
0.1087655409800253
 31
0.0
  0
ARC
  5
48C
330
18
100
AcDbEntity
  8
1
 62
     1
100
AcDbCircle
 10
60.43535453958249
 20
15.10467100114358
 30
0.0
 40
18.26665613953361
100
AcDbArc
 50
230.8144506406119
 51
235.1795783141203
  0
LINE
  5
48D
330
18
100
AcDbEntity
  8
1
 62
     1
100
AcDbLine
 10
48.89374997933202
 20
0.9459762879486303
 30
0.0
 11
46.55218748007007
 21
2.658764810100811
 31
0.0
  0
ARC
  5
48E
330
18
100
AcDbEntity
  8
1
 62
     1
100
AcDbCircle
 10
65.74027079314724
 20
25.18128533218718
 30
0.0
 40
29.99480408076074
100
AcDbArc
 50
224.2374169219891
 51
227.3054989456189
  0
ARC
  5
48F
330
18
100
AcDbEntity
  8
1
 62
     1
100
AcDbCircle
 10
41.0680453685005
 20
-1.849633902682935
 30
0.0
 40
7.615762993282362
100
AcDbArc
 50
83.36165796658567
 51
92.03582423554356
  0
LINE
  5
490
330
18
100
AcDbEntity
  8
1
 62
     1
100
AcDbLine
 10
35.04281248365787
 20
8.822833425728207
 30
0.0
 11
36.19374998333525
 21
7.645681401393008
 31
0.0
  0
LINE
  5
491
330
18
100
AcDbEntity
  8
1
 62
     1
100
AcDbLine
 10
35.04281248369801
 20
8.822833425687193
 30
0.0
 11
33.89187504108092
 21
9.110151794085027
 31
0.0
  0
LINE
  5
492
330
18
100
AcDbEntity
  8
1
 62
     1
100
AcDbLine
 10
33.89187504108092
 20
9.110151794085027
 30
0.0
 11
32.74093748442356
 21
9.3234804048152
 31
0.0
  0
ARC
  5
493
330
18
100
AcDbEntity
  8
1
 62
     1
100
AcDbCircle
 10
45.49971110981092
 20
-10.80958487874229
 30
0.0
 40
23.83561649916108
100
AcDbArc
 50
122.3633491681652
 51
125.7018461094213
  0
LINE
  5
494
330
18
100
AcDbEntity
  8
1
 62
     1
100
AcDbLine
 10
30.439062485116
 20
9.521839435646036
 30
0.0
 11
31.58999998478639
 21
8.546510367700799
 31
0.0
  0
LINE
  5
495
330
18
100
AcDbEntity
  8
1
 62
     1
100
AcDbLine
 10
30.43906248514913
 20
9.521839435618856
 30
0.0
 11
30.11017419524944
 21
9.524999996997618
 31
0.0
  0
LINE
  5
496
330
18
100
AcDbEntity
  8
1
 62
     1
100
AcDbLine
 10
26.9862499862375
 20
8.347936214683034
 30
0.0
 11
28.13718748590785
 21
9.411479384164042
 31
0.0
  0
ARC
  5
497
330
18
100
AcDbEntity
  8
1
 62
     1
100
AcDbCircle
 10
18.2076906470219
 20
-5.889592859380297
 30
0.0
 40
16.72609816633674
100
AcDbArc
 50
58.34289424013846
 51
62.86862030794368
  0
LINE
  5
498
330
18
100
AcDbEntity
  8
1
 62
     1
100
AcDbLine
 10
23.53343748732592
 20
8.288807668508207
 30
0.0
 11
24.68437520052758
 21
8.677632721190146
 31
0.0
  0
LINE
  5
499
330
18
100
AcDbEntity
  8
1
 62
     1
100
AcDbLine
 10
24.68437520052758
 20
8.677632721190146
 30
0.0
 11
25.8353124866003
 21
8.99597827995448
 31
0.0
  0
LINE
  5
49A
330
18
100
AcDbEntity
  8
1
 62
     1
100
AcDbLine
 10
16.62781248950259
 20
9.513286637177813
 30
0.0
 11
15.99461556638199
 21
9.524999996997618
 31
0.0
  0
LINE
  5
49B
330
18
100
AcDbEntity
  8
1
 62
     1
100
AcDbLine
 10
17.77874998913981
 20
8.590003696327567
 30
0.0
 11
18.06480713721121
 21
8.786698950761349
 31
0.0
  0
LINE
  5
49C
330
18
100
AcDbEntity
  8
1
 62
     1
100
AcDbLine
 10
18.06480713721121
 20
8.786698950761349
 30
0.0
 11
18.35218380430644
 21
8.966321334285488
 31
0.0
  0
LINE
  5
49D
330
18
100
AcDbEntity
  8
1
 62
     1
100
AcDbLine
 10
18.35218380430644
 20
8.966321334285488
 30
0.0
 11
18.64058792520869
 21
9.128887440330014
 31
0.0
  0
LINE
  5
49E
330
18
100
AcDbEntity
  8
1
 62
     1
100
AcDbLine
 10
18.64058792520869
 20
9.128887440330014
 30
0.0
 11
18.92968748880681
 21
9.274380676916306
 31
0.0
  0
ARC
  5
49F
330
18
100
AcDbEntity
  8
1
 62
     1
100
AcDbCircle
 10
40.37297829184668
 20
32.79957149317848
 30
0.0
 40
30.74908488132626
100
AcDbArc
 50
231.5008534920495
 51
234.1915942291839
  0
ARC
  5
4A0
330
18
100
AcDbEntity
  8
1
 62
     1
100
AcDbCircle
 10
23.14996494486226
 20
3.369499123762086
 30
0.0
 40
4.558467470274315
100
AcDbArc
 50
85.17457243471843
 51
99.6925539755491
  0
LINE
  5
4A1
330
18
100
AcDbEntity
  8
1
 62
     1
100
AcDbLine
 10
25.83531248656716
 20
6.832649016130309
 30
0.0
 11
26.40978415428471
 21
6.460272732077639
 31
0.0
  0
LINE
  5
4A2
330
18
100
AcDbEntity
  8
1
 62
     1
100
AcDbLine
 10
26.40978415428471
 20
6.460272732077639
 30
0.0
 11
26.9862499862375
 21
6.124276929240272
 31
0.0
  0
LINE
  5
4A3
330
18
100
AcDbEntity
  8
1
 62
     1
100
AcDbLine
 10
26.9862499862375
 20
6.124276929240272
 30
0.0
 11
27.20950268849249
 21
6.030118538554662
 31
0.0
  0
LINE
  5
4A4
330
18
100
AcDbEntity
  8
1
 62
     1
100
AcDbLine
 10
27.20950268849249
 20
6.030118538554662
 30
0.0
 11
27.43362355949847
 21
5.925326953950039
 31
0.0
  0
LINE
  5
4A5
330
18
100
AcDbEntity
  8
1
 62
     1
100
AcDbLine
 10
27.43362355949847
 20
5.925326953950039
 30
0.0
 11
27.65841811046172
 21
5.810097134464342
 31
0.0
  0
LINE
  5
4A6
330
18
100
AcDbEntity
  8
1
 62
     1
100
AcDbLine
 10
27.65841811046172
 20
5.810097134464342
 30
0.0
 11
27.88379136949617
 21
5.684596404148512
 31
0.0
  0
LINE
  5
4A7
330
18
100
AcDbEntity
  8
1
 62
     1
100
AcDbLine
 10
30.439062485116
 20
4.051581545035342
 30
0.0
 11
31.01353431015793
 21
3.800731222247028
 31
0.0
  0
LINE
  5
4A8
330
18
100
AcDbEntity
  8
1
 62
     1
100
AcDbLine
 10
31.01353431015793
 20
3.800731222247028
 30
0.0
 11
31.30171229107475
 21
3.6929644766336
 31
0.0
  0
LINE
  5
4A9
330
18
100
AcDbEntity
  8
1
 62
     1
100
AcDbLine
 10
31.30171229107475
 20
3.6929644766336
 30
0.0
 11
31.58999998478639
 21
3.597868664537435
 31
0.0
  0
LINE
  5
4AA
330
18
100
AcDbEntity
  8
1
 62
     1
100
AcDbLine
 10
31.58999998478639
 20
3.597868664537435
 30
0.0
 11
32.16343461830064
 21
3.046040063086675
 31
0.0
  0
LINE
  5
4AB
330
18
100
AcDbEntity
  8
1
 62
     1
100
AcDbLine
 10
32.16343461830064
 20
3.046040063086675
 30
0.0
 11
32.74093748446353
 21
2.440012449476358
 31
0.0
  0
LINE
  5
4AC
330
18
100
AcDbEntity
  8
1
 62
     1
100
AcDbLine
 10
36.1937499833352
 20
0.6086403752004343
 30
0.0
 11
37.34468748301253
 21
-0.9656465363499352
 31
0.0
  0
LINE
  5
4AD
330
18
100
AcDbEntity
  8
1
 62
     1
100
AcDbLine
 10
40.79749998188407
 20
-2.458880728626326
 30
0.0
 11
41.94843748156531
 21
-4.247083449182142
 31
0.0
  0
LINE
  5
4AE
330
18
100
AcDbEntity
  8
1
 62
     1
100
AcDbLine
 10
44.25031248079569
 20
-5.707156390544548
 30
0.0
 11
41.94843748152131
 21
-4.247083449113573
 31
0.0
  0
ARC
  5
4AF
330
18
100
AcDbEntity
  8
1
 62
     1
100
AcDbCircle
 10
40.89228389324293
 20
3.648389967892466
 30
0.0
 40
9.939959261003977
100
AcDbArc
 50
289.744814789568
 51
296.976064924712
  0
LINE
  5
4B0
330
18
100
AcDbEntity
  8
1
 62
     1
100
AcDbLine
 10
48.89374997933202
 20
-8.046723776729047
 30
0.0
 11
47.72296692786588
 21
-7.546168079558905
 31
0.0
  0
LINE
  5
4B1
330
18
100
AcDbEntity
  8
1
 62
     1
100
AcDbLine
 10
47.72296692786588
 20
-7.546168079558905
 30
0.0
 11
46.55218748007007
 21
-6.982188195045892
 31
0.0
  0
ARC
  5
4B2
330
18
100
AcDbEntity
  8
1
 62
     1
100
AcDbCircle
 10
40.70305544116228
 20
9.309001628432023
 30
0.0
 40
19.1914301548545
100
AcDbArc
 50
295.264049462131
 51
298.9923183782148
  0
LINE
  5
4B3
330
18
100
AcDbEntity
  8
1
 62
     1
100
AcDbLine
 10
50.00499997898177
 20
0.0717754569212814
 30
0.0
 11
50.00499997898177
 21
-7.477457749081557
 31
0.0
  0
ARC
  5
4B4
330
18
100
AcDbEntity
  8
1
 62
     1
100
AcDbCircle
 10
39.69793852125412
 20
3.323495476990578
 30
0.0
 40
12.6895681772524
100
AcDbArc
 50
291.0234900774341
 51
296.7077416004121
  0
LINE
  5
4B5
330
18
100
AcDbEntity
  8
1
 62
     1
100
AcDbLine
 10
44.25031248079569
 20
-8.521327110610316
 30
0.0
 11
43.09937503333595
 21
-8.103559882524924
 31
0.0
  0
LINE
  5
4B6
330
18
100
AcDbEntity
  8
1
 62
     1
100
AcDbLine
 10
43.09937503333595
 20
-8.103559882524924
 30
0.0
 11
41.94843748152126
 21
-7.619975979500456
 31
0.0
  0
LINE
  5
4B7
330
18
100
AcDbEntity
  8
1
 62
     1
100
AcDbLine
 10
40.79749998188407
 20
-6.390633326085352
 30
0.0
 11
41.94843748156531
 21
-7.619975979548356
 31
0.0
  0
ARC
  5
4B8
330
18
100
AcDbEntity
  8
1
 62
     1
100
AcDbCircle
 10
22.44414435060342
 20
-7.745471327029508
 30
0.0
 40
10.82865572931796
100
AcDbArc
 50
58.28283990153082
 51
65.19986548296897
  0
ARC
  5
4B9
330
18
100
AcDbEntity
  8
1
 62
     1
100
AcDbCircle
 10
21.62035253908395
 20
-2.776197497682681
 30
0.0
 40
7.709927041657997
100
AcDbArc
 50
75.63309686359083
 51
84.32688089738205
  0
ARC
  5
4BA
330
18
100
AcDbEntity
  8
1
 62
     1
100
AcDbCircle
 10
20.16350645549191
 20
-1.547426883069928
 30
0.0
 40
8.948621402591482
100
AcDbArc
 50
97.92525052047665
 51
105.4556954914018
  0
LINE
  5
4BB
330
18
100
AcDbEntity
  8
1
 62
     1
100
AcDbLine
 10
16.62781248950259
 20
8.290836808743005
 30
0.0
 11
15.47687484459791
 21
8.679330402612169
 31
0.0
  0
LINE
  5
4BC
330
18
100
AcDbEntity
  8
1
 62
     1
100
AcDbLine
 10
15.47687484459791
 20
8.679330402612169
 30
0.0
 11
14.32593749022816
 21
8.997331405221814
 31
0.0
  0
ARC
  5
4BD
330
18
100
AcDbEntity
  8
1
 62
     1
100
AcDbCircle
 10
22.20919094261094
 20
-6.332051846689758
 30
0.0
 40
17.23785326244573
100
AcDbArc
 50
117.2148424098599
 51
121.6069298138722
  0
ARC
  5
4BE
330
18
100
AcDbEntity
  8
1
 62
     1
100
AcDbCircle
 10
10.05075424938546
 20
-7.770030073622335
 30
0.0
 40
17.29507554279944
100
AcDbArc
 50
83.44848621594724
 51
89.13891377589775
  0
LINE
  5
4C1
330
18
100
AcDbEntity
  8
1
100
AcDbLine
 10
7.142499992492468
 20
9.277933918356898
 30
0.0
 11
9.722187491679338
 21
9.521732411304588
 31
0.0
  0
LINE
  5
4C2
330
18
100
AcDbEntity
  8
1
100
AcDbLine
 10
7.420312492396552
 20
5.927016460499474
 30
0.0
 11
7.830216025960067
 21
5.684598806269709
 31
0.0
  0
LINE
  5
4C3
330
18
100
AcDbEntity
  8
1
100
AcDbLine
 10
8.571249992042105
 20
5.300320359926181
 30
0.0
 11
8.857307746338918
 21
5.122870511363788
 31
0.0
  0
LINE
  5
4C4
330
18
100
AcDbEntity
  8
1
100
AcDbLine
 10
8.857307746338918
 20
5.122870511363788
 30
0.0
 11
9.144684918670787
 21
4.929009547842214
 31
0.0
  0
LINE
  5
4C5
330
18
100
AcDbEntity
  8
1
100
AcDbLine
 10
9.144684918670787
 20
4.929009547842214
 30
0.0
 11
9.542499992491862
 21
4.62920972525417
 31
0.0
  0
LINE
  5
4C6
330
18
100
AcDbEntity
  8
1
 62
     1
100
AcDbLine
 10
12.02406249094538
 20
2.914874705885507
 30
0.0
 11
12.31090244488463
 21
2.809420585146618
 31
0.0
  0
LINE
  5
4C7
330
18
100
AcDbEntity
  8
1
 62
     1
100
AcDbLine
 10
12.31090244488463
 20
2.809420585146618
 30
0.0
 11
12.59853419975708
 21
2.716020513644386
 31
0.0
  0
LINE
  5
4C8
330
18
100
AcDbEntity
  8
1
 62
     1
100
AcDbLine
 10
12.59853419975708
 20
2.716020513644386
 30
0.0
 11
12.88671224719077
 21
2.635274327159439
 31
0.0
  0
LINE
  5
4C9
330
18
100
AcDbEntity
  8
1
 62
     1
100
AcDbLine
 10
12.88671224719077
 20
2.635274327159439
 30
0.0
 11
13.17499999059096
 21
2.567857714409786
 31
0.0
  0
LINE
  5
4CA
330
18
100
AcDbEntity
  8
1
 62
     1
100
AcDbLine
 10
13.17499999059096
 20
2.567857714409783
 30
0.0
 11
14.32593749023651
 21
1.241445801385412
 31
0.0
  0
LINE
  5
4CB
330
18
100
AcDbEntity
  8
1
 62
     1
100
AcDbLine
 10
17.77874998913981
 20
-0.4949287957959748
 30
0.0
 11
18.92968748880681
 21
-2.170596232121446
 31
0.0
  0
LINE
  5
4CC
330
18
100
AcDbEntity
  8
1
 62
     1
100
AcDbLine
 10
18.92968748877702
 20
-2.170596232077135
 30
0.0
 11
21.23156248805148
 21
-3.798589020000096
 31
0.0
  0
ARC
  5
4CD
330
18
100
AcDbEntity
  8
1
 62
     1
100
AcDbCircle
 10
19.90845166275771
 20
3.529177635566883
 30
0.0
 40
7.446259191545866
100
AcDbArc
 50
280.2351196253385
 51
289.4056542389856
  0
LINE
  5
4CE
330
18
100
AcDbEntity
  8
1
 62
     1
100
AcDbLine
 10
23.53343748732587
 20
-5.303421775436032
 30
0.0
 11
25.8353124866003
 21
-6.636304119424315
 31
0.0
  0
ARC
  5
4CF
330
18
100
AcDbEntity
  8
1
 62
     1
100
AcDbCircle
 10
76.75109812130163
 20
26.19958412997331
 30
0.0
 40
59.29728753363727
100
AcDbArc
 50
212.9397230036339
 51
214.9317584268656
  0
LINE
  5
4D0
330
18
100
AcDbEntity
  8
1
 62
     1
100
AcDbLine
 10
28.13718748587472
 20
-7.754024928417963
 30
0.0
 11
29.28812541307369
 21
-8.220565546686557
 31
0.0
  0
LINE
  5
4D1
330
18
100
AcDbEntity
  8
1
 62
     1
100
AcDbLine
 10
29.28812541307369
 20
-8.220565546686557
 30
0.0
 11
30.43906248514917
 21
-8.620342912370817
 31
0.0
  0
ARC
  5
4D2
330
18
100
AcDbEntity
  8
1
 62
     1
100
AcDbCircle
 10
36.10924128767226
 20
8.339723893938883
 30
0.0
 40
17.86722489145446
100
AcDbArc
 50
259.1336780651532
 51
266.5781602617638
  0
ARC
  5
4D3
330
18
100
AcDbEntity
  8
1
 62
     1
100
AcDbCircle
 10
35.98205201425201
 20
8.378368079276535
 30
0.0
 40
17.90625509167253
100
AcDbArc
 50
274.3643399768089
 51
281.8088426851953
  0
ARC
  5
4D4
330
18
100
AcDbEntity
  8
1
 62
     1
100
AcDbCircle
 10
34.53833465189453
 20
13.72037567927117
 30
0.0
 40
23.44779058248747
100
AcDbArc
 50
288.4227495266877
 51
291.4316594931523
  0
LINE
  5
4D5
330
18
100
AcDbEntity
  8
1
 62
     1
100
AcDbLine
 10
10.31060614875131
 20
1.306146823825895
 30
0.0
 11
10.31060614875131
 21
2.155357777587567
 31
0.0
  0
ARC
  5
4D6
330
18
100
AcDbEntity
  8
1
 62
     1
100
AcDbCircle
 10
30.11604940357808
 20
7.770774631291427
 30
0.0
 40
17.29582033056623
100
AcDbArc
 50
263.4302507857049
 51
269.980537175349
  0
ARC
  5
4D7
330
18
100
AcDbEntity
  8
1
 62
     1
100
AcDbCircle
 10
18.20769064702034
 20
5.889592859383168
 30
0.0
 40
16.72609816634001
100
AcDbArc
 50
297.1313796920566
 51
301.6571057598608
  0
LINE
  5
4D8
330
18
100
AcDbEntity
  8
1
 62
     1
100
AcDbLine
 10
23.53343748732587
 20
-8.288807668508185
 30
0.0
 11
24.68437520052758
 21
-8.677632721190143
 31
0.0
  0
LINE
  5
4D9
330
18
100
AcDbEntity
  8
1
 62
     1
100
AcDbLine
 10
24.68437520052758
 20
-8.677632721190143
 30
0.0
 11
25.8353124866003
 21
-8.995978279954476
 31
0.0
  0
ARC
  5
4DA
330
18
100
AcDbEntity
  8
1
 62
     1
100
AcDbCircle
 10
20.03258596443577
 20
1.399349786496487
 30
0.0
 40
8.794398849202286
100
AcDbArc
 50
277.8358069233184
 51
285.4976728080238
  0
LINE
  5
4DB
330
18
100
AcDbEntity
  8
1
 62
     1
100
AcDbLine
 10
18.92968748877704
 20
-6.099883220583995
 30
0.0
 11
20.08062512487633
 21
-6.733734659034714
 31
0.0
  0
LINE
  5
4DC
330
18
100
AcDbEntity
  8
1
 62
     1
100
AcDbLine
 10
20.08062512487633
 20
-6.733734659034714
 30
0.0
 11
21.23156248805148
 21
-7.312895660668186
 31
0.0
  0
ARC
  5
4DD
330
18
100
AcDbEntity
  8
1
 62
     1
100
AcDbCircle
 10
17.83091925492233
 20
7.954001973839786
 30
0.0
 40
11.06262621140474
100
AcDbArc
 50
238.3381220729352
 51
245.1099370361056
  0
ARC
  5
4DE
330
18
100
AcDbEntity
  8
1
100
AcDbCircle
 10
2.041653236650525
 20
-10.28322129787159
 30
0.0
 40
13.03539246612694
100
AcDbArc
 50
53.90013710966865
 51
54.87083558236304
  0
LINE
  5
4E0
330
18
100
AcDbEntity
  8
1
100
AcDbLine
 10
9.722004629463787
 20
-8.398240808777892
 30
0.0
 11
9.999216942801254
 21
-8.487472278489088
 31
0.0
  0
LINE
  5
4E1
330
18
100
AcDbEntity
  8
1
 62
     1
100
AcDbLine
 10
10.87312518979243
 20
-8.768773337352326
 30
0.0
 11
12.02406249095377
 21
-9.068027921869887
 31
0.0
  0
LINE
  5
4E2
330
18
100
AcDbEntity
  8
1
 62
     1
100
AcDbLine
 10
13.17499999059096
 20
-8.212138867211999
 30
0.0
 11
13.7484350105035
 21
-8.85545618196515
 31
0.0
  0
LINE
  5
4E3
330
18
100
AcDbEntity
  8
1
 62
     1
100
AcDbLine
 10
13.7484350105035
 20
-8.85545618196515
 30
0.0
 11
14.32593749023651
 21
-9.44375122846606
 31
0.0
  0
ARC
  5
4E4
330
18
100
AcDbEntity
  8
1
 62
     1
100
AcDbCircle
 10
15.99819173396645
 20
7.718506813262673
 30
0.0
 40
17.24353084583485
100
AcDbArc
 50
264.4347879657249
 51
269.9684700732581
  0
ARC
  5
4E5
330
18
100
AcDbEntity
  8
1
 62
     1
100
AcDbCircle
 10
15.99461533713096
 20
7.585725891344512
 30
0.0
 40
17.11072588830206
100
AcDbArc
 50
269.9802010684066
 51
270.000000767727
  0
LINE
  5
4E6
330
18
100
AcDbEntity
  8
1
 62
     1
100
AcDbLine
 10
17.77874998913981
 20
-8.590003696327562
 30
0.0
 11
18.0648071372112
 21
-8.786698950761342
 31
0.0
  0
LINE
  5
4E7
330
18
100
AcDbEntity
  8
1
 62
     1
100
AcDbLine
 10
18.0648071372112
 20
-8.786698950761342
 30
0.0
 11
18.35218380430644
 21
-8.966321334285476
 31
0.0
  0
LINE
  5
4E8
330
18
100
AcDbEntity
  8
1
 62
     1
100
AcDbLine
 10
18.35218380430644
 20
-8.966321334285476
 30
0.0
 11
18.64058792520869
 21
-9.128887440330007
 31
0.0
  0
LINE
  5
4E9
330
18
100
AcDbEntity
  8
1
 62
     1
100
AcDbLine
 10
18.64058792520869
 20
-9.128887440330007
 30
0.0
 11
18.92968748880681
 21
-9.274380676916301
 31
0.0
  0
LINE
  5
4EA
330
18
100
AcDbEntity
  8
1
 62
     1
100
AcDbLine
 10
18.92968748877702
 20
-9.274380676902207
 30
0.0
 11
20.08062461048463
 21
-9.041293803416079
 31
0.0
  0
LINE
  5
4EB
330
18
100
AcDbEntity
  8
1
 62
     1
100
AcDbLine
 10
20.08062461048463
 20
-9.041293803416079
 30
0.0
 11
21.23156248805148
 21
-8.734777982292348
 31
0.0
  0
ARC
  5
4EC
330
18
100
AcDbEntity
  8
1
 62
     1
100
AcDbCircle
 10
23.14661956196835
 20
-3.400746330061098
 30
0.0
 40
4.527083448030118
100
AcDbArc
 50
260.282599406511
 51
270.5897785335774
  0
LINE
  5
4ED
330
18
100
AcDbEntity
  8
1
 62
     1
100
AcDbLine
 10
10.31060614875131
 20
-7.325545511744516
 30
0.0
 11
10.31060614875131
 21
-9.524452885585979
 31
0.0
  0
LINE
  5
4EE
330
18
100
AcDbEntity
  8
1
100
AcDbLine
 10
7.142499992492468
 20
-7.325545511744516
 30
0.0
 11
9.722004629463787
 21
-8.398240808777892
 31
0.0
  0
LINE
  5
4EF
330
18
100
AcDbEntity
  8
1
 62
     1
100
AcDbLine
 10
10.31060614875131
 20
-7.325545511744516
 30
0.0
 11
10.31060614875131
 21
1.306146823825895
 31
0.0
  0
LINE
  5
4F0
330
18
100
AcDbEntity
  8
1
 62
     1
100
AcDbLine
 10
10.31060614875131
 20
6.087857414408155
 30
0.0
 11
10.31060614875131
 21
2.155357777587564
 31
0.0
  0
LINE
  5
4F1
330
18
100
AcDbEntity
  8
1
 62
     1
100
AcDbLine
 10
10.31060614875131
 20
6.087857414408155
 30
0.0
 11
10.3106061487513
 21
9.524452888588003
 31
0.0
  0
LINE
  5
4F2
330
18
100
AcDbEntity
  8
1
 62
     1
100
AcDbLine
 10
12.02406249095377
 20
-9.524999996964762
 30
0.0
 11
12.02406249095377
 21
-9.524999996964773
 31
0.0
  0
LINE
  5
4F3
330
18
100
AcDbEntity
  8
1
 62
     1
100
AcDbLine
 10
12.02406249095377
 20
-9.524999996964773
 30
0.0
 11
12.02406249095377
 21
-9.524999996964773
 31
0.0
  0
LINE
  5
4F4
330
18
100
AcDbEntity
  8
1
 62
     1
100
AcDbLine
 10
12.02406249095377
 20
-9.524999996964773
 30
0.0
 11
12.02406249095375
 21
-9.524999996964773
 31
0.0
  0
LINE
  5
4F5
330
18
100
AcDbEntity
  8
1
 62
     1
100
AcDbLine
 10
12.02406249095375
 20
-9.524999996964773
 30
0.0
 11
12.02406249095377
 21
-9.524999996964773
 31
0.0
  0
LINE
  5
4F6
330
18
100
AcDbEntity
  8
1
 62
     1
100
AcDbLine
 10
12.02406249095377
 20
-9.524999996964773
 30
0.0
 11
12.02406249095377
 21
-9.524999996962407
 31
0.0
  0
LINE
  5
4F7
330
18
100
AcDbEntity
  8
1
 62
     1
100
AcDbLine
 10
12.02406249095377
 20
-9.524999996962407
 30
0.0
 11
12.02406249095377
 21
-9.524999996283199
 31
0.0
  0
LINE
  5
4F8
330
18
100
AcDbEntity
  8
1
 62
     1
100
AcDbLine
 10
12.02406249095377
 20
-9.524999996283199
 30
0.0
 11
12.02406249095377
 21
-9.524999947392256
 31
0.0
  0
LINE
  5
4F9
330
18
100
AcDbEntity
  8
1
 62
     1
100
AcDbLine
 10
12.02406249095377
 20
-9.524999947392256
 30
0.0
 11
12.02406249095377
 21
-9.524999637271394
 31
0.0
  0
LINE
  5
4FA
330
18
100
AcDbEntity
  8
1
 62
     1
100
AcDbLine
 10
12.02406249095377
 20
-9.524999637271394
 30
0.0
 11
12.02406249095377
 21
-9.524874483479358
 31
0.0
  0
LINE
  5
4FB
330
18
100
AcDbEntity
  8
1
 62
     1
100
AcDbLine
 10
12.02406249095377
 20
-9.524874483479358
 30
0.0
 11
12.02406249095375
 21
-9.492349530675827
 31
0.0
  0
LINE
  5
4FC
330
18
100
AcDbEntity
  8
1
 62
     1
100
AcDbLine
 10
12.02406249095375
 20
-9.492349530675827
 30
0.0
 11
12.02406249095377
 21
-9.068027921869887
 31
0.0
  0
LINE
  5
4FD
330
18
100
AcDbEntity
  8
1
100
AcDbLine
 10
10.00060614875131
 20
-9.524452885585979
 30
0.0
 11
10.31060612608788
 21
-9.52453670480247
 31
0.0
  0
LINE
  5
4FE
330
18
100
AcDbEntity
  8
1
 62
     1
100
AcDbLine
 10
14.32593749022816
 20
-9.524999996964773
 30
0.0
 11
14.32593749022816
 21
-9.524999996964778
 31
0.0
  0
LINE
  5
4FF
330
18
100
AcDbEntity
  8
1
 62
     1
100
AcDbLine
 10
14.32593749022816
 20
-9.524999996964778
 30
0.0
 11
14.32593749022816
 21
-9.524999996964778
 31
0.0
  0
LINE
  5
500
330
18
100
AcDbEntity
  8
1
 62
     1
100
AcDbLine
 10
14.32593749022816
 20
-9.524999996964778
 30
0.0
 11
14.32593749022816
 21
-9.524999996964773
 31
0.0
  0
LINE
  5
501
330
18
100
AcDbEntity
  8
1
 62
     1
100
AcDbLine
 10
14.32593749022816
 20
-9.524999996964773
 30
0.0
 11
14.32593749022816
 21
-9.524999996964773
 31
0.0
  0
LINE
  5
502
330
18
100
AcDbEntity
  8
1
 62
     1
100
AcDbLine
 10
14.32593749022816
 20
-9.524999996964773
 30
0.0
 11
14.32593749022819
 21
-9.524999996962412
 31
0.0
  0
LINE
  5
503
330
18
100
AcDbEntity
  8
1
 62
     1
100
AcDbLine
 10
14.32593749022819
 20
-9.524999996962412
 30
0.0
 11
14.32593749022816
 21
-9.524999996283199
 31
0.0
  0
LINE
  5
504
330
18
100
AcDbEntity
  8
1
 62
     1
100
AcDbLine
 10
14.32593749022816
 20
-9.524999996283199
 30
0.0
 11
14.32593749022816
 21
-9.524999947392256
 31
0.0
  0
LINE
  5
505
330
18
100
AcDbEntity
  8
1
 62
     1
100
AcDbLine
 10
14.32593749022816
 20
-9.524999947392256
 30
0.0
 11
14.32593749022816
 21
-9.524999637271394
 31
0.0
  0
LINE
  5
506
330
18
100
AcDbEntity
  8
1
 62
     1
100
AcDbLine
 10
14.32593749022816
 20
-9.524999637271394
 30
0.0
 11
14.32593749022816
 21
-9.443751228457985
 31
0.0
  0
ARC
  5
507
330
18
100
AcDbEntity
  8
1
 62
     1
100
AcDbCircle
 10
15.99451913547331
 20
7.599387975981396
 30
0.0
 40
17.12438807824663
100
AcDbArc
 50
270.0003226442509
 51
272.1193931526971
  0
LINE
  5
508
330
18
100
AcDbEntity
  8
1
 62
     1
100
AcDbLine
 10
14.32593749022816
 20
-9.524999996997612
 30
0.0
 11
15.99461556640379
 21
-9.524999996997612
 31
0.0
  0
LINE
  5
509
330
18
100
AcDbEntity
  8
1
 62
     1
100
AcDbLine
 10
13.17499999059098
 20
-8.604249994655415
 30
0.0
 11
13.17499999059096
 21
-8.60424959647532
 31
0.0
  0
LINE
  5
50A
330
18
100
AcDbEntity
  8
1
 62
     1
100
AcDbLine
 10
13.17499999059096
 20
-8.60424959647532
 30
0.0
 11
13.17499999059096
 21
-8.604150976551311
 31
0.0
  0
LINE
  5
50B
330
18
100
AcDbEntity
  8
1
 62
     1
100
AcDbLine
 10
13.17499999059096
 20
-8.604150976551311
 30
0.0
 11
13.17499999059098
 21
-8.578229745528291
 31
0.0
  0
LINE
  5
50C
330
18
100
AcDbEntity
  8
1
 62
     1
100
AcDbLine
 10
13.17499999059098
 20
-8.578229745528291
 30
0.0
 11
13.17499999059096
 21
-8.212138867211999
 31
0.0
  0
LINE
  5
50D
330
18
100
AcDbEntity
  8
1
 62
     1
100
AcDbLine
 10
13.17499999059096
 20
-8.604249997287839
 30
0.0
 11
12.02406249094538
 21
-9.524999997004302
 31
0.0
  0
LINE
  5
50E
330
18
100
AcDbEntity
  8
1
 62
     1
100
AcDbLine
 10
14.32593749023651
 20
-9.524999997004279
 30
0.0
 11
13.17499999059096
 21
-8.604249997287839
 31
0.0
  0
LINE
  5
50F
330
18
100
AcDbEntity
  8
1
 62
     1
100
AcDbLine
 10
30.43906248514913
 20
-9.524999996964762
 30
0.0
 11
30.43906248514913
 21
-9.524999996964773
 31
0.0
  0
LINE
  5
510
330
18
100
AcDbEntity
  8
1
 62
     1
100
AcDbLine
 10
30.43906248514913
 20
-9.524999996964773
 30
0.0
 11
30.43906248514913
 21
-9.524999996964773
 31
0.0
  0
LINE
  5
511
330
18
100
AcDbEntity
  8
1
 62
     1
100
AcDbLine
 10
30.43906248514913
 20
-9.524999996964773
 30
0.0
 11
30.43906248514913
 21
-9.524999996964773
 31
0.0
  0
LINE
  5
512
330
18
100
AcDbEntity
  8
1
 62
     1
100
AcDbLine
 10
30.43906248514913
 20
-9.524999996964773
 30
0.0
 11
30.43906248514913
 21
-9.524999996964773
 31
0.0
  0
LINE
  5
513
330
18
100
AcDbEntity
  8
1
 62
     1
100
AcDbLine
 10
30.43906248514913
 20
-9.524999996964773
 30
0.0
 11
30.43906248514917
 21
-9.524999996962407
 31
0.0
  0
LINE
  5
514
330
18
100
AcDbEntity
  8
1
 62
     1
100
AcDbLine
 10
30.43906248514917
 20
-9.524999996962407
 30
0.0
 11
30.43906248514917
 21
-9.524999996283199
 31
0.0
  0
LINE
  5
515
330
18
100
AcDbEntity
  8
1
 62
     1
100
AcDbLine
 10
30.43906248514917
 20
-9.524999996283199
 30
0.0
 11
30.43906248514913
 21
-9.524999947392256
 31
0.0
  0
LINE
  5
516
330
18
100
AcDbEntity
  8
1
 62
     1
100
AcDbLine
 10
30.43906248514913
 20
-9.524999947392256
 30
0.0
 11
30.43906248514913
 21
-9.524999637271394
 31
0.0
  0
LINE
  5
517
330
18
100
AcDbEntity
  8
1
 62
     1
100
AcDbLine
 10
30.43906248514913
 20
-9.524999637271394
 30
0.0
 11
30.43906248514913
 21
-9.5249345276839
 31
0.0
  0
LINE
  5
518
330
18
100
AcDbEntity
  8
1
 62
     1
100
AcDbLine
 10
30.43906248514913
 20
-9.5249345276839
 30
0.0
 11
30.43906248514913
 21
-9.508646946047321
 31
0.0
  0
LINE
  5
519
330
18
100
AcDbEntity
  8
1
 62
     1
100
AcDbLine
 10
30.43906248514913
 20
-9.508646946047321
 30
0.0
 11
30.43906248514917
 21
-8.620342912370817
 31
0.0
  0
LINE
  5
51A
330
18
100
AcDbEntity
  8
1
 62
     1
100
AcDbLine
 10
30.11017419523638
 20
-9.524999996997612
 30
0.0
 11
30.43906248514913
 21
-9.524999996997612
 31
0.0
  0
LINE
  5
51B
330
18
100
AcDbEntity
  8
1
 62
     1
100
AcDbLine
 10
32.74093748442356
 20
-9.524999996964773
 30
0.0
 11
32.74093748442356
 21
-9.524999996964773
 31
0.0
  0
LINE
  5
51C
330
18
100
AcDbEntity
  8
1
 62
     1
100
AcDbLine
 10
32.74093748442356
 20
-9.524999996964773
 30
0.0
 11
32.74093748442356
 21
-9.524999996964773
 31
0.0
  0
LINE
  5
51D
330
18
100
AcDbEntity
  8
1
 62
     1
100
AcDbLine
 10
32.74093748442356
 20
-9.524999996964773
 30
0.0
 11
32.74093748442356
 21
-9.524999996964773
 31
0.0
  0
LINE
  5
51E
330
18
100
AcDbEntity
  8
1
 62
     1
100
AcDbLine
 10
32.74093748442356
 20
-9.524999996964773
 30
0.0
 11
32.74093748442361
 21
-9.524999996964778
 31
0.0
  0
LINE
  5
51F
330
18
100
AcDbEntity
  8
1
 62
     1
100
AcDbLine
 10
32.74093748442361
 20
-9.524999996964778
 30
0.0
 11
32.74093748442361
 21
-9.524999996962407
 31
0.0
  0
LINE
  5
520
330
18
100
AcDbEntity
  8
1
 62
     1
100
AcDbLine
 10
32.74093748442361
 20
-9.524999996962407
 30
0.0
 11
32.74093748442356
 21
-9.524999996283199
 31
0.0
  0
LINE
  5
521
330
18
100
AcDbEntity
  8
1
 62
     1
100
AcDbLine
 10
32.74093748442356
 20
-9.524999996283199
 30
0.0
 11
32.74093748442356
 21
-9.524999947392256
 31
0.0
  0
LINE
  5
522
330
18
100
AcDbEntity
  8
1
 62
     1
100
AcDbLine
 10
32.74093748442356
 20
-9.524999947392256
 30
0.0
 11
32.74093748442356
 21
-9.524999637271394
 31
0.0
  0
LINE
  5
523
330
18
100
AcDbEntity
  8
1
 62
     1
100
AcDbLine
 10
32.74093748442356
 20
-9.524999637271394
 30
0.0
 11
32.74093748442356
 21
-9.524911068700721
 31
0.0
  0
LINE
  5
524
330
18
100
AcDbEntity
  8
1
 62
     1
100
AcDbLine
 10
32.74093748442356
 20
-9.524911068700721
 30
0.0
 11
32.74093748442356
 21
-9.502317935030774
 31
0.0
  0
LINE
  5
525
330
18
100
AcDbEntity
  8
1
 62
     1
100
AcDbLine
 10
32.74093748442356
 20
-9.502317935030774
 30
0.0
 11
32.74093748442356
 21
-9.207169173475199
 31
0.0
  0
LINE
  5
526
330
18
100
AcDbEntity
  8
1
 62
     1
100
AcDbLine
 10
35.04281248369801
 20
-9.524999996964773
 30
0.0
 11
35.04281248369801
 21
-9.524999996964778
 31
0.0
  0
LINE
  5
527
330
18
100
AcDbEntity
  8
1
 62
     1
100
AcDbLine
 10
35.04281248369801
 20
-9.524999996964778
 30
0.0
 11
35.04281248369801
 21
-9.524999996964778
 31
0.0
  0
LINE
  5
528
330
18
100
AcDbEntity
  8
1
 62
     1
100
AcDbLine
 10
35.04281248369801
 20
-9.524999996964778
 30
0.0
 11
35.04281248369801
 21
-9.524999996964778
 31
0.0
  0
LINE
  5
529
330
18
100
AcDbEntity
  8
1
 62
     1
100
AcDbLine
 10
35.04281248369801
 20
-9.524999996964778
 30
0.0
 11
35.04281248369801
 21
-9.524999996964778
 31
0.0
  0
LINE
  5
52A
330
18
100
AcDbEntity
  8
1
 62
     1
100
AcDbLine
 10
35.04281248369801
 20
-9.524999996964778
 30
0.0
 11
35.04281248369801
 21
-9.524999996962412
 31
0.0
  0
LINE
  5
52B
330
18
100
AcDbEntity
  8
1
 62
     1
100
AcDbLine
 10
35.04281248369801
 20
-9.524999996962412
 30
0.0
 11
35.04281248369801
 21
-9.524999996283199
 31
0.0
  0
LINE
  5
52C
330
18
100
AcDbEntity
  8
1
 62
     1
100
AcDbLine
 10
35.04281248369801
 20
-9.524999996283199
 30
0.0
 11
35.04281248369801
 21
-9.524999947392256
 31
0.0
  0
LINE
  5
52D
330
18
100
AcDbEntity
  8
1
 62
     1
100
AcDbLine
 10
35.04281248369801
 20
-9.524999947392256
 30
0.0
 11
35.04281248369801
 21
-9.524999637271404
 31
0.0
  0
LINE
  5
52E
330
18
100
AcDbEntity
  8
1
 62
     1
100
AcDbLine
 10
35.04281248369801
 20
-9.524999637271404
 30
0.0
 11
35.04281248369801
 21
-9.524872078922456
 31
0.0
  0
LINE
  5
52F
330
18
100
AcDbEntity
  8
1
 62
     1
100
AcDbLine
 10
35.04281248369801
 20
-9.524872078922456
 30
0.0
 11
35.04281248369803
 21
-9.495479313413254
 31
0.0
  0
LINE
  5
530
330
18
100
AcDbEntity
  8
1
 62
     1
100
AcDbLine
 10
32.74093748442356
 20
-9.524999996997612
 30
0.0
 11
35.04281248369801
 21
-9.524999996997612
 31
0.0
  0
LINE
  5
531
330
18
100
AcDbEntity
  8
1
 62
     1
100
AcDbLine
 10
36.19374998333525
 20
-8.604249991696697
 30
0.0
 11
36.19374998333525
 21
-8.604248544226186
 31
0.0
  0
LINE
  5
532
330
18
100
AcDbEntity
  8
1
 62
     1
100
AcDbLine
 10
36.19374998333525
 20
-8.604248544226186
 30
0.0
 11
36.19374998333525
 21
-8.603876329001192
 31
0.0
  0
LINE
  5
533
330
18
100
AcDbEntity
  8
1
 62
     1
100
AcDbLine
 10
36.19374998333525
 20
-8.603876329001192
 30
0.0
 11
36.1937499833352
 21
-8.582696249402262
 31
0.0
  0
LINE
  5
534
330
18
100
AcDbEntity
  8
1
 62
     1
100
AcDbLine
 10
36.19374998333525
 20
-8.604249997287839
 30
0.0
 11
35.04281248365787
 21
-9.524999997029723
 31
0.0
  0
ARC
  5
535
330
18
100
AcDbEntity
  8
1
 62
     1
100
AcDbCircle
 10
42.59625782747212
 20
-1.548193824154278
 30
0.0
 40
9.509455311605416
100
AcDbArc
 50
231.284850187591
 51
236.4782966752929
  0
LINE
  5
536
330
18
100
AcDbEntity
  8
1
 62
     1
100
AcDbLine
 10
36.64856718085669
 20
-8.968103755304998
 30
0.0
 11
36.19374998333525
 21
-8.604249997287839
 31
0.0
  0
LINE
  5
537
330
18
100
AcDbEntity
  8
1
 62
     1
100
AcDbLine
 10
31.58999998478639
 20
-8.604249997287839
 30
0.0
 11
31.58999998478639
 21
-8.604080021695846
 31
0.0
  0
LINE
  5
538
330
18
100
AcDbEntity
  8
1
 62
     1
100
AcDbLine
 10
31.58999998478639
 20
-8.604080021695846
 30
0.0
 11
31.58999998478639
 21
-8.553166516810952
 31
0.0
  0
LINE
  5
539
330
18
100
AcDbEntity
  8
1
 62
     1
100
AcDbLine
 10
31.58999998478639
 20
-8.553166516810952
 30
0.0
 11
31.58999998478639
 21
-7.815910637191772
 31
0.0
  0
LINE
  5
53A
330
18
100
AcDbEntity
  8
1
 62
     1
100
AcDbLine
 10
31.58999998478639
 20
-8.604249997287839
 30
0.0
 11
30.439062485116
 21
-9.52499999702414
 31
0.0
  0
LINE
  5
53B
330
18
100
AcDbEntity
  8
1
 62
     1
100
AcDbLine
 10
32.74093748446353
 20
-9.52499999702958
 30
0.0
 11
31.58999998478639
 21
-8.604249997287839
 31
0.0
  0
ARC
  5
53C
330
18
100
AcDbEntity
  8
1
 62
     1
100
AcDbCircle
 10
26.6542147576508
 20
-29.82521325395704
 30
0.0
 40
41.39948650754091
100
AcDbArc
 50
59.06321812636564
 51
61.27315533698778
  0
ARC
  5
53D
330
18
100
AcDbEntity
  8
1
 62
     1
100
AcDbCircle
 10
23.72632760599376
 20
-1.495797321957969
 30
0.0
 40
8.297142914714633
100
AcDbArc
 50
57.88560117169652
 51
59.92906428413495
  0
LINE
  5
53E
330
18
100
AcDbEntity
  8
1
 62
     1
100
AcDbLine
 10
30.11017419524843
 20
-0.0000000000017507
 30
0.0
 11
28.13718748587472
 21
1.46617896070872
 31
0.0
  0
LINE
  5
53F
330
18
100
AcDbEntity
  8
1
 62
     1
100
AcDbLine
 10
30.11017419524958
 20
-0.0000000000000619
 30
0.0
 11
24.54018465475183
 21
2.439232127396881
 31
0.0
  0
LINE
  5
540
330
18
100
AcDbEntity
  8
1
 62
     1
100
AcDbLine
 10
24.54018465475183
 20
2.439232127396881
 30
0.0
 11
21.75518988450299
 21
3.513620961165151
 31
0.0
  0
LINE
  5
541
330
18
100
AcDbEntity
  8
1
 62
     1
100
AcDbLine
 10
21.75518988450299
 20
3.513620961165151
 30
0.0
 11
18.9701951142541
 21
4.421462826136748
 31
0.0
  0
LINE
  5
542
330
18
100
AcDbEntity
  8
1
 62
     1
100
AcDbLine
 10
18.9701951142541
 20
4.421462826136748
 30
0.0
 11
17.5776977291297
 21
4.799113944040771
 31
0.0
  0
LINE
  5
543
330
18
100
AcDbEntity
  8
1
 62
     1
100
AcDbLine
 10
17.5776977291297
 20
4.799113944040771
 30
0.0
 11
16.18520034400528
 21
5.119725589186137
 31
0.0
  0
LINE
  5
544
330
18
100
AcDbEntity
  8
1
 62
     1
100
AcDbLine
 10
16.18520034400528
 20
5.119725589186137
 30
0.0
 11
14.79270295888084
 21
5.379487152899706
 31
0.0
  0
LINE
  5
545
330
18
100
AcDbEntity
  8
1
 62
     1
100
AcDbLine
 10
14.79270295888084
 20
5.379487152899706
 30
0.0
 11
13.4002055737564
 21
5.575311263627646
 31
0.0
  0
LINE
  5
546
330
18
100
AcDbEntity
  8
1
 62
     1
100
AcDbLine
 10
13.4002055737564
 20
5.575311263627646
 30
0.0
 11
12.00770818863195
 21
5.704870467429877
 31
0.0
  0
LINE
  5
547
330
18
100
AcDbEntity
  8
1
 62
     1
100
AcDbLine
 10
12.00770818863195
 20
5.704870467429877
 30
0.0
 11
10.61521080350752
 21
5.766624941041846
 31
0.0
  0
LINE
  5
548
330
18
100
AcDbEntity
  8
1
 62
     1
100
AcDbLine
 10
10.61521080350752
 20
5.766624941041846
 30
0.0
 11
10.31053067980634
 21
5.765140505074755
 31
0.0
  0
LINE
  5
549
330
18
100
AcDbEntity
  8
1
100
AcDbLine
 10
9.222713418383088
 20
5.759840536540994
 30
0.0
 11
8.342206148751312
 21
5.712263447270918
 31
0.0
  0
ARC
  5
54A
330
18
100
AcDbEntity
  8
1
100
AcDbCircle
 10
13.27711280214195
 20
15.27780505123883
 30
0.0
 40
11.03167385541115
100
AcDbArc
 50
240.4126575173776
 51
243.4268647633167
  0
LINE
  5
54B
330
18
100
AcDbEntity
  8
1
100
AcDbLine
 10
10.05659823131912
 20
-0.0000000000000895
 30
0.0
 11
10.31060614875131
 21
-0.1887642977032274
 31
0.0
  0
LINE
  5
54C
330
18
100
AcDbEntity
  8
1
100
AcDbLine
 10
10.05659823131925
 20
0.0000000000000005
 30
0.0
 11
10.00060614875131
 21
0.0250965735578505
 31
0.0
  0
DIMENSION
  5
599
330
18
100
AcDbEntity
  8
2
100
AcDbDimension
  2
*D0
 10
95.94254367493226
 20
-9.526023034882866
 30
0.0
 11
95.94254367493226
 21
0.0000000000000577
 31
0.0
 70
   160
  1
%%c<>
 71
     5
 42
19.05204606976582
  3
SANDVIK_DIM
100
AcDbAlignedDimension
 13
48.89373495527314
 23
9.526023034882966
 33
0.0
 14
48.89373540711685
 24
-9.526023034882852
 34
0.0
 50
90.00000000000017
100
AcDbRotatedDimension
1001
ACAD
1000
DSTYLE
1002
{
1070
   279
1070
     0
1070
   140
1040
3.0
1070
    40
1040
1.0
1002
}
  0
DIMENSION
  5
5A7
330
18
100
AcDbEntity
  8
2
100
AcDbDimension
  2
*D1
 10
50.00499997898177
 20
79.37499997499998
 30
0.0
 11
25.00249998949089
 21
83.17499997499998
 31
0.0
 70
    32
  1
<>
 71
     5
 42
50.00499997898177
  3
SANDVIK_DIM
100
AcDbAlignedDimension
 13
0.0
 23
0.0
 33
0.0
 14
50.00499997898177
 24
-0.0000000000000045
 34
0.0
100
AcDbRotatedDimension
1001
ACAD
1000
DSTYLE
1002
{
1070
   279
1070
     0
1070
   140
1040
3.0
1070
    40
1040
1.0
1002
}
  0
DIMENSION
  5
5B4
330
18
100
AcDbEntity
  8
2
100
AcDbDimension
  2
*D2
 10
50.00499997898177
 20
61.22405103574739
 30
0.0
 11
30.00280306386654
 21
61.22405103574739
 31
0.0
 70
   160
 71
     5
 42
39.69439383023047
  3
SANDVIK_DIM
100
AcDbAlignedDimension
 13
10.3106061487513
 23
12.05713423988345
 33
0.0
 14
50.00499997898177
 24
8.746193667655306
 34
0.0
100
AcDbRotatedDimension
1001
ACAD
1000
DSTYLE
1002
{
1070
   279
1070
     0
1070
   140
1040
3.0
1070
    40
1040
1.0
1002
}
  0
DIMENSION
  5
5C1
330
18
100
AcDbEntity
  8
SK2
100
AcDbDimension
  2
*D3
 10
-98.2721876763798
 20
-9.526023034882834
 30
0.0
 11
-102.0721876763798
 21
0.0000000000000553
 31
0.0
 70
    32
  1
%%c<>
 71
     5
 42
19.05204606976581
  3
SANDVIK_DIM
100
AcDbAlignedDimension
 13
-50.64718769144035
 23
9.52602303488296
 33
0.0
 14
-50.64718769144035
 24
-9.526023034882847
 34
0.0
 50
90.00000000029237
100
AcDbRotatedDimension
1001
ACAD
1000
DSTYLE
1002
{
1070
   279
1070
     0
1070
   140
1040
3.0
1070
    40
1040
1.0
1002
}
  0
DIMENSION
  5
5CF
330
18
100
AcDbEntity
  8
SK2
100
AcDbDimension
  2
*D4
 10
50.00499997898177
 20
95.24999997
 30
0.0
 11
-0.7968007570091089
 21
99.04999997
 31
0.0
 70
    32
  1
<>
 71
     5
 42
101.6036014719817
  3
SANDVIK_DIM
100
AcDbAlignedDimension
 13
-51.598601493
 23
0.0000000000000009
 33
0.0
 14
50.00499997898177
 24
-0.000000000000002
 34
0.0
100
AcDbRotatedDimension
1001
ACAD
1000
DSTYLE
1002
{
1070
   279
1070
     0
1070
   140
1040
3.0
1070
    40
1040
1.0
1002
}
  0
DIMENSION
  5
5DC
330
18
100
AcDbEntity
  8
2
100
AcDbDimension
  2
*D5
 10
50.00499997898177
 20
30.76157284776821
 30
0.0
 11
72.23071426469606
 21
34.56157284776821
 31
0.0
 70
    32
  1
0.558x35°
 71
     5
 42
1.111265023708632
  3
SANDVIK_DIM
100
AcDbAlignedDimension
 13
48.89373495527314
 23
9.526023034882966
 33
0.0
 14
50.00499997898177
 24
8.746193667655306
 34
0.0
100
AcDbRotatedDimension
1001
ACAD
1000
DSTYLE
1002
{
1070
   279
1070
     0
1070
   140
1040
3.0
1070
    40
1040
1.0
1002
}
  0
LINE
  5
779
330
18
100
AcDbEntity
  8
1
100
AcDbLine
 10
9.542511306717884
 20
5.761398627964473
 30
0.0
 11
9.222713418383088
 21
5.759840536540994
 31
0.0
  0
LINE
  5
77A
330
18
100
AcDbEntity
  8
1
100
AcDbLine
 10
9.542499992491862
 20
4.62920972525417
 30
0.0
 11
9.722187491687655
 21
4.493794342768146
 31
0.0
  0
ARC
  5
77B
330
18
100
AcDbEntity
  8
1
100
AcDbCircle
 10
2.041653236650525
 20
-10.28322129787159
 30
0.0
 40
13.03539246612694
100
AcDbArc
 50
54.87083558236304
 51
59.9394576857288
  0
LINE
  5
77C
330
18
100
AcDbEntity
  8
1
100
AcDbLine
 10
9.542499992491862
 20
0.2304272974850789
 30
0.0
 11
8.342499992492157
 21
0.7682870606554834
 31
0.0
  0
LINE
  5
A5B
330
18
100
AcDbEntity
  8
SK1
100
AcDbLine
 10
0.0029892624268285
 20
9.526023034882962
 30
0.0
 11
-50.64718769144035
 21
9.52602303488296
 31
0.0
  0
LINE
  5
A61
330
18
100
AcDbEntity
  8
SK1
100
AcDbLine
 10
0.0
 20
-9.526023034882852
 30
0.0
 11
-50.64419842901362
 21
-9.523033772456116
 31
0.0
  0
LINE
  5
B01
330
18
100
AcDbEntity
  8
1
100
AcDbLine
 10
8.342499992492157
 20
0.7682870606554834
 30
0.0
 11
7.142499992492445
 21
1.306146823825887
 31
0.0
  0
ARC
  5
B02
330
18
100
AcDbEntity
  8
1
100
AcDbCircle
 10
20.34881401931639
 20
16.37113242670162
 30
0.0
 40
19.36563873369244
100
AcDbArc
 50
231.6841979063148
 51
232.5423048335924
  0
ARC
  5
B03
330
18
100
AcDbEntity
  8
1
100
AcDbCircle
 10
13.27711280214195
 20
15.27780505123883
 30
0.0
 40
11.03167385541115
100
AcDbArc
 50
243.4268647633167
 51
244.7491754302675
  0
LINE
  5
B04
330
18
100
AcDbEntity
  8
1
100
AcDbLine
 10
8.342206148751312
 20
5.712263447270918
 30
0.0
 11
7.830216033258667
 21
5.684598713235982
 31
0.0
  0
LINE
  5
BCE
330
18
100
AcDbEntity
  8
1
100
AcDbLine
 10
-13.26858146807081
 20
-9.526023034882852
 30
0.0
 11
-13.26858146807081
 21
-9.526023034882852
 31
0.0
  0
LINE
  5
C58
330
18
100
AcDbEntity
  8
1
100
AcDbLine
 10
9.999216942801254
 20
-8.487472278489088
 30
0.0
 11
10.29755717517943
 21
-8.58350458343464
 31
0.0
  0
LINE
  5
C59
330
18
100
AcDbEntity
  8
1
100
AcDbLine
 10
10.00060614875131
 20
0.0417705443550636
 30
0.0
 11
10.05659823131912
 21
-0.0000000000000895
 31
0.0
  0
LINE
  5
C5A
330
18
100
AcDbEntity
  8
1
100
AcDbLine
 10
10.00060614875131
 20
0.0250965735578505
 30
0.0
 11
9.542499992491862
 21
0.2304272974850789
 31
0.0
  0
LINE
  5
C5B
330
18
100
AcDbEntity
  8
1
100
AcDbLine
 10
10.00060614875131
 20
4.302819296316298
 30
0.0
 11
10.31060614875131
 21
4.090181734506483
 31
0.0
  0
LINE
  5
C5C
330
18
100
AcDbEntity
  8
1
100
AcDbLine
 10
10.00060614875131
 20
5.763630517762837
 30
0.0
 11
9.542511306717884
 21
5.761398627964473
 31
0.0
  0
LINE
  5
C5D
330
18
100
AcDbEntity
  8
1
100
AcDbLine
 10
10.0006061487513
 20
9.524452888588003
 30
0.0
 11
10.05659823131925
 21
9.524999996997618
 31
0.0
  0
LINE
  5
CC6
330
18
100
AcDbEntity
  8
SK1
100
AcDbLine
 10
-50.64419842901362
 20
9.529012297309694
 30
0.0
 11
-51.598601493
 21
8.574609233323322
 31
0.0
  0
LINE
  5
CC7
330
18
100
AcDbEntity
  8
SK1
100
AcDbLine
 10
-51.598601493
 20
8.574609233323322
 30
0.0
 11
-51.598601493
 21
8.56606948318659
 31
0.0
  0
LINE
  5
CC8
330
18
100
AcDbEntity
  8
SK1
100
AcDbLine
 10
-51.598601493
 20
8.56606948318659
 30
0.0
 11
-51.598601493
 21
7.803891050508682
 31
0.0
  0
LINE
  5
CC9
330
18
100
AcDbEntity
  8
SK1
100
AcDbLine
 10
-51.598601493
 20
7.803891050508682
 30
0.0
 11
-51.598601493
 21
-8.604645918431405
 31
0.0
  0
LINE
  5
CCA
330
18
100
AcDbEntity
  8
SK1
100
AcDbLine
 10
-50.64419842901362
 20
9.529012297309694
 30
0.0
 11
-50.64419842901362
 21
-9.523033772456116
 31
0.0
  0
LINE
  5
CCB
330
18
100
AcDbEntity
  8
SK1
100
AcDbLine
 10
-50.64419842901362
 20
-9.523033772456116
 30
0.0
 11
-51.598601493
 21
-8.604645918431405
 31
0.0
  0
LINE
  5
E02
330
18
100
AcDbEntity
  8
1
 62
     1
100
AcDbLine
 10
10.3106061487513
 20
9.524999996997618
 30
0.0
 11
12.02406249095375
 21
9.524999996997618
 31
0.0
  0
ARC
  5
E03
330
18
100
AcDbEntity
  8
1
100
AcDbCircle
 10
10.05075424938546
 20
-7.770030073622335
 30
0.0
 40
17.29507554279944
100
AcDbArc
 50
89.13891377589775
 51
89.98063978575073
  0
LINE
  5
E04
330
18
100
AcDbEntity
  8
1
100
AcDbLine
 10
10.31053067980634
 20
5.765140505074755
 30
0.0
 11
10.00060614875131
 21
5.763630517762837
 31
0.0
  0
LINE
  5
E05
330
18
100
AcDbEntity
  8
1
 62
     1
100
AcDbLine
 10
10.31060614875131
 20
4.090181734506483
 30
0.0
 11
12.02406249095375
 21
2.914874705882341
 31
0.0
  0
LINE
  5
E06
330
18
100
AcDbEntity
  8
1
 62
     1
100
AcDbLine
 10
10.31060614875131
 20
-0.1887642977032274
 30
0.0
 11
12.02406249095375
 21
-1.462108004271638
 31
0.0
  0
LINE
  5
E07
330
18
100
AcDbEntity
  8
1
 62
     1
100
AcDbLine
 10
10.29755717517943
 20
-8.58350458343464
 30
0.0
 11
10.87312518979243
 21
-8.768773337352326
 31
0.0
  0
LINE
  5
E08
330
18
100
AcDbEntity
  8
1
 62
     1
100
AcDbLine
 10
10.31060612608788
 20
-9.52453670480247
 30
0.0
 11
12.02406249095377
 21
-9.524999996997612
 31
0.0
  0
ENDSEC
  0
SECTION
  2
OBJECTS
  0
DICTIONARY
  5
C
330
0
100
AcDbDictionary
281
     1
  3
ACAD_CIP_PREVIOUS_PRODUCT_INFO
350
62C
  3
ACAD_COLOR
350
387
  3
ACAD_DETAILVIEWSTYLE
350
626
  3
ACAD_GROUP
350
D
  3
ACAD_LAYOUT
350
301
  3
ACAD_MATERIAL
350
386
  3
ACAD_MLEADERSTYLE
350
5EA
  3
ACAD_MLINESTYLE
350
E
  3
ACAD_PLOTSETTINGS
350
302
  3
ACAD_PLOTSTYLENAME
350
2FF
  3
ACAD_SCALELIST
350
3A0
  3
ACAD_SECTIONVIEWSTYLE
350
624
  3
ACAD_TABLESTYLE
350
388
  3
ACAD_VISUALSTYLE
350
609
  3
ACDB_RECOMPOSE_DATA
350
108D
  3
AcDbVariableDictionary
350
357
  3
AcDsDecomposeData
350
1093
  0
DICTIONARY
  5
802
330
2
100
AcDbDictionary
280
     1
281
     1
  3
ACAD_LAYERSTATES
360
803
  0
DICTIONARY
  5
62F
330
F
100
AcDbDictionary
280
     1
281
     1
  3
ADSK_XREC_LAYER_RECONCILED
360
630
  0
DICTIONARY
  5
631
330
23
100
AcDbDictionary
280
     1
281
     1
  3
ADSK_XREC_LAYER_RECONCILED
360
632
  0
DICTIONARY
  5
633
330
24
100
AcDbDictionary
280
     1
281
     1
  3
ADSK_XREC_LAYER_RECONCILED
360
634
  0
DICTIONARY
  5
635
330
25
100
AcDbDictionary
280
     1
281
     1
  3
ADSK_XREC_LAYER_RECONCILED
360
636
  0
DICTIONARY
  5
637
330
26
100
AcDbDictionary
280
     1
281
     1
  3
ADSK_XREC_LAYER_RECONCILED
360
638
  0
DICTIONARY
  5
639
330
27
100
AcDbDictionary
280
     1
281
     1
  3
ADSK_XREC_LAYER_RECONCILED
360
63A
  0
DICTIONARY
  5
63B
330
28
100
AcDbDictionary
280
     1
281
     1
  3
ADSK_XREC_LAYER_RECONCILED
360
63C
  0
DICTIONARY
  5
63D
330
29
100
AcDbDictionary
280
     1
281
     1
  3
ADSK_XREC_LAYER_RECONCILED
360
63E
  0
DICTIONARY
  5
63F
330
2A
100
AcDbDictionary
280
     1
281
     1
  3
ADSK_XREC_LAYER_RECONCILED
360
640
  0
DICTIONARY
  5
641
330
2B
100
AcDbDictionary
280
     1
281
     1
  3
ADSK_XREC_LAYER_RECONCILED
360
642
  0
DICTIONARY
  5
643
330
2C
100
AcDbDictionary
280
     1
281
     1
  3
ADSK_XREC_LAYER_RECONCILED
360
644
  0
DICTIONARY
  5
645
330
2D
100
AcDbDictionary
280
     1
281
     1
  3
ADSK_XREC_LAYER_RECONCILED
360
646
  0
DICTIONARY
  5
647
330
2E
100
AcDbDictionary
280
     1
281
     1
  3
ADSK_XREC_LAYER_RECONCILED
360
648
  0
DICTIONARY
  5
649
330
375
100
AcDbDictionary
280
     1
281
     1
  3
ADSK_XREC_LAYER_RECONCILED
360
64A
  0
DICTIONARY
  5
64B
330
376
100
AcDbDictionary
280
     1
281
     1
  3
ADSK_XREC_LAYER_RECONCILED
360
64C
  0
DICTIONARY
  5
777
330
18
100
AcDbDictionary
280
     1
281
     1
  3
ACAD_SORTENTS
360
778
  0
DICTIONARY
  5
F23
330
E94
100
AcDbDictionary
280
     1
281
     1
  3
ACAD_SORTENTS
360
F24
  0
XRECORD
  5
62C
102
{ACAD_REACTORS
330
C
102
}
330
C
100
AcDbXrecord
280
     1
300
AMECH_PP
300
2014
300
86132PDSS_2014_0F
  0
DICTIONARY
  5
387
102
{ACAD_REACTORS
330
C
102
}
330
C
100
AcDbDictionary
281
     1
  0
DICTIONARY
  5
626
102
{ACAD_REACTORS
330
C
102
}
330
C
100
AcDbDictionary
281
     1
  3
Metric50
350
627
  0
DICTIONARY
  5
D
102
{ACAD_REACTORS
330
C
102
}
330
C
100
AcDbDictionary
281
     1
  0
DICTIONARY
  5
301
102
{ACAD_REACTORS
330
C
102
}
330
C
100
AcDbDictionary
281
     1
  3
Layout1
350
33B
  3
Model
350
303
  0
DICTIONARY
  5
386
102
{ACAD_REACTORS
330
C
102
}
330
C
100
AcDbDictionary
281
     1
  3
ByBlock
350
5F9
  3
ByLayer
350
5F1
  3
Global
350
601
  0
DICTIONARY
  5
5EA
102
{ACAD_REACTORS
330
C
102
}
330
C
100
AcDbDictionary
281
     1
  3
Standard
350
623
  0
DICTIONARY
  5
E
102
{ACAD_REACTORS
330
C
102
}
330
C
100
AcDbDictionary
281
     1
  3
STANDARD
350
1B
  0
DICTIONARY
  5
302
102
{ACAD_REACTORS
330
C
102
}
330
C
100
AcDbDictionary
281
     1
  0
ACDBDICTIONARYWDFLT
  5
2FF
102
{ACAD_REACTORS
330
C
102
}
330
C
100
AcDbDictionary
281
     1
  3
Normal
350
300
100
AcDbDictionaryWithDefault
340
300
  0
DICTIONARY
  5
3A0
102
{ACAD_REACTORS
330
C
102
}
330
C
100
AcDbDictionary
281
     1
  3
A0
350
3A1
  3
A1
350
3A2
  3
A2
350
3A3
  3
A3
350
3A4
  3
A4
350
3A5
  3
A5
350
3A6
  3
A6
350
3A7
  3
A7
350
3A8
  3
A8
350
3A9
  3
A9
350
3AA
  3
B0
350
3AB
  3
B1
350
3AC
  3
B2
350
3AD
  3
B3
350
3AE
  3
B4
350
3AF
  3
B5
350
3B0
  3
B6
350
3B1
  3
B7
350
3B2
  3
B8
350
3B3
  3
B9
350
3B4
  3
C0
350
3B5
  3
C1
350
3B6
  3
C2
350
3B7
  3
C3
350
3B8
  3
C4
350
3B9
  3
C5
350
3BA
  3
C6
350
3BB
  3
C7
350
3BC
  3
C8
350
3BD
  3
C9
350
3BE
  3
D0
350
3BF
  3
D1
350
3C0
  3
D2
350
3C1
  0
DICTIONARY
  5
624
102
{ACAD_REACTORS
330
C
102
}
330
C
100
AcDbDictionary
281
     1
  3
Metric50
350
625
  0
DICTIONARY
  5
388
102
{ACAD_REACTORS
330
C
102
}
330
C
100
AcDbDictionary
281
     1
  3
Standard
350
622
  0
DICTIONARY
  5
609
102
{ACAD_REACTORS
330
C
102
}
330
C
100
AcDbDictionary
281
     1
  3
2dWireframe
350
60F
  3
Basic
350
60E
  3
Brighten
350
615
  3
ColorChange
350
619
  3
Conceptual
350
612
  3
Dim
350
614
  3
EdgeColorOff
350
621
  3
Facepattern
350
618
  3
Flat
350
60A
  3
FlatWithEdges
350
60B
  3
Gouraud
350
60C
  3
GouraudWithEdges
350
60D
  3
Hidden
350
611
  3
JitterOff
350
61F
  3
Linepattern
350
617
  3
OverhangOff
350
620
  3
Realistic
350
613
  3
Shaded
350
61E
  3
Shaded with edges
350
61D
  3
Shades of Gray
350
61A
  3
Sketchy
350
61B
  3
Thicken
350
616
  3
Wireframe
350
610
  3
X-Ray
350
61C
  0
XRECORD
  5
108D
102
{ACAD_REACTORS
330
C
102
}
330
C
100
AcDbXrecord
280
     1
 90
        1
330
622
  0
DICTIONARY
  5
357
102
{ACAD_REACTORS
330
C
102
}
330
C
100
AcDbDictionary
281
     1
  3
CANNOSCALE
350
5EB
  3
CMLEADERSTYLE
350
64D
  3
CTABLESTYLE
350
38D
  3
CVIEWDETAILSTYLE
350
64E
  3
CVIEWSECTIONSTYLE
350
64F
  3
DIMASSOC
350
359
  3
HIDETEXT
350
358
  3
INDEXCTL
350
651
  3
PROJECTNAME
350
38E
  3
SORTENTS
350
650
  3
XCLIPFRAME
350
108B
  0
DICTIONARY
  5
1093
102
{ACAD_REACTORS
330
C
102
}
330
C
100
AcDbDictionary
281
     1
  3
AcDsRecords
350
1095
  3
AcDsSchemas
350
1094
1001
ACAD
1070
     2
  0
DICTIONARY
  5
803
102
{ACAD_REACTORS
330
802
102
}
330
802
100
AcDbDictionary
281
     1
  0
XRECORD
  5
630
102
{ACAD_REACTORS
330
62F
102
}
330
62F
100
AcDbXrecord
280
     1
290
     1
  0
XRECORD
  5
632
102
{ACAD_REACTORS
330
631
102
}
330
631
100
AcDbXrecord
280
     1
290
     1
  0
XRECORD
  5
634
102
{ACAD_REACTORS
330
633
102
}
330
633
100
AcDbXrecord
280
     1
290
     1
  0
XRECORD
  5
636
102
{ACAD_REACTORS
330
635
102
}
330
635
100
AcDbXrecord
280
     1
290
     1
  0
XRECORD
  5
638
102
{ACAD_REACTORS
330
637
102
}
330
637
100
AcDbXrecord
280
     1
290
     1
  0
XRECORD
  5
63A
102
{ACAD_REACTORS
330
639
102
}
330
639
100
AcDbXrecord
280
     1
290
     1
  0
XRECORD
  5
63C
102
{ACAD_REACTORS
330
63B
102
}
330
63B
100
AcDbXrecord
280
     1
290
     1
  0
XRECORD
  5
63E
102
{ACAD_REACTORS
330
63D
102
}
330
63D
100
AcDbXrecord
280
     1
290
     1
  0
XRECORD
  5
640
102
{ACAD_REACTORS
330
63F
102
}
330
63F
100
AcDbXrecord
280
     1
290
     1
  0
XRECORD
  5
642
102
{ACAD_REACTORS
330
641
102
}
330
641
100
AcDbXrecord
280
     1
290
     1
  0
XRECORD
  5
644
102
{ACAD_REACTORS
330
643
102
}
330
643
100
AcDbXrecord
280
     1
290
     1
  0
XRECORD
  5
646
102
{ACAD_REACTORS
330
645
102
}
330
645
100
AcDbXrecord
280
     1
290
     1
  0
XRECORD
  5
648
102
{ACAD_REACTORS
330
647
102
}
330
647
100
AcDbXrecord
280
     1
290
     1
  0
XRECORD
  5
64A
102
{ACAD_REACTORS
330
649
102
}
330
649
100
AcDbXrecord
280
     1
290
     1
  0
XRECORD
  5
64C
102
{ACAD_REACTORS
330
64B
102
}
330
64B
100
AcDbXrecord
280
     1
290
     1
  0
SORTENTSTABLE
  5
778
102
{ACAD_REACTORS
330
777
102
}
330
777
100
AcDbSortentsTable
330
18
331
3FC
  5
401
331
3F8
  5
3FD
331
437
  5
43F
331
4EC
  5
4FD
331
472
  5
47A
331
46E
  5
476
331
4AD
  5
4B6
331
3F4
  5
3F9
331
4E8
  5
4F9
331
527
  5
539
331
433
  5
43B
331
46A
  5
472
331
4A9
  5
4B2
331
4E4
  5
4F5
331
523
  5
535
331
4E0
  5
4EF
331
42F
  5
437
331
3EC
  5
3EE
331
42B
  5
433
331
51F
  5
531
331
466
  5
46E
331
4A5
  5
4AE
331
4A1
  5
4AA
331
4DC
  5
4E9
331
51B
  5
52D
331
462
  5
46A
331
E05
  5
3F4
331
49D
  5
4A6
331
3E4
  5
3E4
331
423
  5
428
331
4D8
  5
4E5
331
517
  5
529
331
77A
  5
4D2
331
45E
  5
466
331
45A
  5
462
331
499
  5
4A2
331
3E0
  5
3E0
331
4D4
  5
4E1
331
513
  5
525
331
54A
  5
A61
331
CC9
  5
E06
331
4D0
  5
4DD
331
41F
  5
424
331
3DC
  5
3DC
331
41B
  5
420
331
50F
  5
521
331
456
  5
45E
331
495
  5
49E
331
3D8
  5
3D8
331
417
  5
41C
331
4CC
  5
4D9
331
50B
  5
51D
331
546
  5
77D
331
452
  5
45A
331
491
  5
49A
331
48D
  5
496
331
3D4
  5
3D4
331
413
  5
418
331
4C8
  5
4D5
331
507
  5
519
331
542
  5
779
331
44E
  5
456
331
44A
  5
452
331
489
  5
492
331
3D0
  5
3D0
331
C5D
  5
42F
331
4C4
  5
4D0
331
503
  5
515
331
53E
  5
551
331
53A
  5
54C
331
C59
  5
3F6
331
40F
  5
414
331
40B
  5
410
331
4FF
  5
511
331
446
  5
44E
331
485
  5
48E
331
3CC
  5
3CC
331
3C8
  5
3C8
331
407
  5
40C
331
4BC
  5
4C5
331
4FB
  5
50C
331
536
  5
548
331
442
  5
44A
331
481
  5
48A
331
47D
  5
486
331
403
  5
408
331
4B8
  5
4C1
331
4F7
  5
508
331
532
  5
544
331
43E
  5
446
331
43A
  5
442
331
479
  5
482
331
4B4
  5
4BD
331
4F3
  5
504
331
52E
  5
540
331
52A
  5
53C
331
B01
  5
B7D
331
4B0
  5
4B9
331
3FF
  5
404
331
3FB
  5
400
331
4EF
  5
500
331
475
  5
47F
331
3F7
  5
3FC
331
436
  5
43E
331
4EB
  5
4FC
331
471
  5
479
331
46D
  5
475
331
4AC
  5
4B5
331
3F3
  5
3F8
331
4E7
  5
4F8
331
526
  5
538
331
A61
  5
CCB
331
432
  5
43A
331
522
  5
534
331
469
  5
471
331
4A8
  5
4B1
331
4E3
  5
4F4
331
5C1
  5
CC7
331
E08
  5
50F
331
42E
  5
436
331
3EF
  5
3F1
331
3EB
  5
3ED
331
42A
  5
432
331
51E
  5
530
331
465
  5
46D
331
4A4
  5
4AD
331
4A0
  5
4A9
331
426
  5
42B
331
4DB
  5
4E8
331
51A
  5
52C
331
461
  5
469
331
E04
  5
A5C
331
45D
  5
465
331
49C
  5
4A5
331
3E3
  5
3E3
331
4D7
  5
4E4
331
516
  5
528
331
779
  5
A5E
331
422
  5
427
331
459
  5
461
331
498
  5
4A1
331
4D3
  5
4E0
331
512
  5
524
331
599
  5
B7E
331
549
  5
A5F
331
CC8
  5
E05
331
41E
  5
423
331
3DF
  5
3DF
331
3DB
  5
3DB
331
41A
  5
41F
331
50E
  5
520
331
455
  5
45D
331
494
  5
49D
331
4CF
  5
4DC
331
490
  5
499
331
3D7
  5
3D7
331
416
  5
41B
331
4CB
  5
4D8
331
50A
  5
51C
331
545
  5
77C
331
451
  5
459
331
48C
  5
495
331
3D3
  5
3D3
331
412
  5
417
331
4C7
  5
4D4
331
506
  5
518
331
541
  5
597
331
44D
  5
455
331
449
  5
451
331
488
  5
491
331
53D
  5
550
331
C5C
  5
A5D
331
4C3
  5
4CF
331
502
  5
514
331
539
  5
54B
331
C58
  5
4F0
331
40E
  5
413
331
3CF
  5
3CF
331
3CB
  5
3CB
331
40A
  5
40F
331
4FE
  5
510
331
445
  5
44D
331
484
  5
48D
331
3C7
  5
3C7
331
406
  5
40B
331
4BB
  5
4C4
331
4FA
  5
50B
331
535
  5
547
331
441
  5
449
331
480
  5
489
331
47C
  5
485
331
3C3
  5
3C3
331
402
  5
407
331
4B7
  5
4C0
331
4F6
  5
507
331
531
  5
543
331
43D
  5
445
331
439
  5
441
331
478
  5
481
331
B04
  5
A60
331
4B3
  5
4BC
331
4F2
  5
503
331
52D
  5
53F
331
529
  5
53B
331
3FE
  5
403
331
3FA
  5
3FF
331
4EE
  5
4FF
331
474
  5
47E
331
4AF
  5
4B8
331
3F6
  5
3FB
331
435
  5
43D
331
4EA
  5
4FB
331
470
  5
478
331
431
  5
439
331
46C
  5
474
331
4AB
  5
4B4
331
3F2
  5
3F7
331
4E6
  5
4F7
331
525
  5
537
331
521
  5
533
331
468
  5
470
331
4E2
  5
4F3
331
42D
  5
435
331
4A7
  5
4B0
331
3EE
  5
3F0
331
3EA
  5
3EC
331
429
  5
430
331
4DE
  5
4ED
331
51D
  5
52F
331
464
  5
46C
331
E07
  5
4F1
331
4A3
  5
4AC
331
49F
  5
4A8
331
425
  5
42A
331
4DA
  5
4E7
331
519
  5
52B
331
460
  5
468
331
5DC
  5
CC9
331
77C
  5
B7C
331
E03
  5
4CC
331
45C
  5
464
331
49B
  5
4A4
331
3E2
  5
3E2
331
4D6
  5
4E3
331
515
  5
527
331
421
  5
426
331
511
  5
523
331
458
  5
460
331
54C
  5
B7A
331
CCB
  5
E08
331
4D2
  5
4DF
331
548
  5
A5B
331
41D
  5
422
331
497
  5
4A0
331
3DE
  5
3DE
331
3DA
  5
3DA
331
419
  5
41E
331
50D
  5
51F
331
454
  5
45C
331
493
  5
49C
331
CC7
  5
E04
331
4CE
  5
4DB
331
48F
  5
498
331
3D6
  5
3D6
331
415
  5
41A
331
4CA
  5
4D7
331
509
  5
51B
331
544
  5
77B
331
450
  5
458
331
44C
  5
454
331
48B
  5
494
331
3D2
  5
3D2
331
4C6
  5
4D3
331
505
  5
517
331
540
  5
553
331
411
  5
416
331
448
  5
450
331
53C
  5
54F
331
C5B
  5
3F2
331
4C2
  5
4CE
331
5B4
  5
CC6
331
501
  5
513
331
538
  5
54A
331
40D
  5
412
331
487
  5
490
331
3CE
  5
3CE
331
3CA
  5
3CA
331
409
  5
40E
331
4FD
  5
50E
331
444
  5
44C
331
483
  5
48C
331
4BE
  5
4CB
331
47F
  5
488
331
3C6
  5
3C6
331
405
  5
40A
331
4BA
  5
4C3
331
4F9
  5
50A
331
534
  5
546
331
440
  5
448
331
47B
  5
484
331
3C2
  5
3C2
331
401
  5
406
331
4B6
  5
4BF
331
4F5
  5
506
331
530
  5
542
331
43C
  5
444
331
438
  5
440
331
52C
  5
53E
331
B03
  5
A62
331
4B2
  5
4BB
331
4F1
  5
502
331
528
  5
53A
331
3FD
  5
402
331
477
  5
480
331
3F9
  5
3FE
331
4ED
  5
4FE
331
473
  5
47B
331
4AE
  5
4B7
331
3F5
  5
3FA
331
434
  5
43C
331
4E9
  5
4FA
331
46F
  5
477
331
430
  5
438
331
46B
  5
473
331
4AA
  5
4B3
331
3F1
  5
3F5
331
4E5
  5
4F6
331
524
  5
536
331
520
  5
532
331
A5B
  5
CCA
331
4E1
  5
4F2
331
3ED
  5
3EF
331
42C
  5
434
331
467
  5
46F
331
4A6
  5
4AF
331
428
  5
42E
331
4DD
  5
4EC
331
51C
  5
52E
331
463
  5
46B
331
E06
  5
B79
331
4A2
  5
4AB
331
49E
  5
4A7
331
424
  5
429
331
E02
  5
431
331
4D9
  5
4E6
331
518
  5
52A
331
77B
  5
4EE
331
45F
  5
467
331
420
  5
425
331
45B
  5
463
331
49A
  5
4A3
331
3E1
  5
3E1
331
4D5
  5
4E2
331
514
  5
526
331
510
  5
522
331
54B
  5
B04
331
CCA
  5
E07
331
4D1
  5
4DE
331
41C
  5
421
331
457
  5
45F
331
496
  5
49F
331
3DD
  5
3DD
331
3D9
  5
3D9
331
418
  5
41D
331
4CD
  5
4DA
331
50C
  5
51E
331
453
  5
45B
331
5A7
  5
C5D
331
547
  5
77E
331
CC6
  5
E03
331
492
  5
49B
331
48E
  5
497
331
3D5
  5
3D5
331
414
  5
419
331
4C9
  5
4D6
331
508
  5
51A
331
543
  5
77A
331
44F
  5
457
331
44B
  5
453
331
48A
  5
493
331
3D1
  5
3D1
331
4C5
  5
4D1
331
504
  5
516
331
53F
  5
552
331
410
  5
415
331
500
  5
512
331
53B
  5
54D
331
C5A
  5
B7B
331
4C1
  5
4CD
331
40C
  5
411
331
447
  5
44F
331
486
  5
48F
331
3CD
  5
3CD
331
3C9
  5
3C9
331
408
  5
40D
331
4FC
  5
50D
331
443
  5
44B
331
482
  5
48B
331
5CF
  5
CC8
331
537
  5
549
331
BCE
  5
E02
331
4BD
  5
4CA
331
47E
  5
487
331
3C5
  5
3C5
331
404
  5
409
331
4B9
  5
4C2
331
4F8
  5
509
331
533
  5
545
331
43F
  5
447
331
43B
  5
443
331
47A
  5
483
331
4B5
  5
4BE
331
4F4
  5
505
331
52F
  5
541
331
400
  5
405
331
52B
  5
53D
331
B02
  5
42D
331
4B1
  5
4BA
331
4F0
  5
501
  0
SORTENTSTABLE
  5
F24
102
{ACAD_REACTORS
330
F23
102
}
330
F23
100
AcDbSortentsTable
330
E94
  0
ACDBDETAILVIEWSTYLE
  5
627
102
{ACAD_XDICTIONARY
360
10C9
102
}
102
{ACAD_REACTORS
330
626
102
}
330
626
100
AcDbModelDocViewStyle
 70
     0
  3
Metric50
290
     0
100
AcDbDetailViewStyle
 70
     0
 71
     0
 90
        3
 71
     1
340
10
 62
   256
 40
5.0
340
0
 62
   256
 40
5.0
300

 40
0.0
280
     1
 71
     2
340
14
 90
       25
 62
   256
 71
     3
340
10
 62
   256
 40
5.0
 90
        0
 40
15.0
 90
        1
300
%<\AcVar ViewDetailId>% (%<\AcVar ViewScale \f "%sn">%)
 71
     4
340
14
 90
       25
 62
   256
340
14
 90
       25
 62
   256
280
     0
  0
LAYOUT
  5
33B
102
{ACAD_REACTORS
330
301
102
}
330
301
100
AcDbPlotSettings
  1

  2
Lexmark Optra PS2
  4

  6

 40
0.0
 41
0.0
 42
0.0
 43
0.0
 44
0.0
 45
0.0
 46
0.0
 47
0.0
 48
0.0
 49
0.0
140
0.0
141
0.0
142
1.0
143
1.0
 70
   688
 72
     0
 73
     0
 74
     5
  7
monochrome.ctb
 75
    16
147
1.0
 76
     0
 77
     2
 78
   300
148
0.0
149
0.0
100
AcDbLayout
  1
Layout1
 70
     1
 71
     1
 10
0.0
 20
0.0
 11
12.0
 21
9.0
 12
0.0
 22
0.0
 32
0.0
 14
0.0
 24
0.0
 34
0.0
 15
0.0
 25
0.0
 35
0.0
146
0.0
 13
0.0
 23
0.0
 33
0.0
 16
1.0
 26
0.0
 36
0.0
 17
0.0
 27
1.0
 37
0.0
 76
     0
330
338
  0
LAYOUT
  5
303
102
{ACAD_REACTORS
330
301
102
}
330
301
100
AcDbPlotSettings
  1

  2
Lexmark Optra Rx
  4
A4
  6

 40
6.805083274841307
 41
5.535083293914794
 42
6.974411010742187
 43
7.14373779296875
 44
209.9733276367186
 45
296.9259948730469
 46
0.0
 47
0.0
 48
0.0
 49
0.0
140
0.0
141
0.0
142
1.0
143
2.976565420630883
 70
 11952
 72
     1
 73
     1
 74
     0
  7
monochrome.ctb
 75
     0
147
0.335957675604539
 76
     0
 77
     2
 78
   300
148
204.1199660668592
149
172.3933209647495
100
AcDbLayout
  1
Model
 70
     1
 71
     0
 10
0.0
 20
0.0
 11
12.0
 21
9.0
 12
0.0
 22
0.0
 32
0.0
 14
0.0
 24
0.0
 34
0.0
 15
0.0
 25
0.0
 35
0.0
146
0.0
 13
0.0
 23
0.0
 33
0.0
 16
1.0
 26
0.0
 36
0.0
 17
0.0
 27
1.0
 37
0.0
 76
     0
330
18
331
39A
  0
MATERIAL
  5
5F9
102
{ACAD_XDICTIONARY
360
5FA
102
}
102
{ACAD_REACTORS
330
386
102
}
330
386
100
AcDbMaterial
  1
ByBlock
 72
     0
 43
0.0008202099737533
 43
0.0
 43
0.0
 43
0.0
 43
0.0
 43
0.0008202099737533
 43
0.0
 43
0.0
 43
0.0
 43
0.0
 43
1.0
 43
0.0
 43
0.0
 43
0.0
 43
0.0
 43
1.0
 77
     0
 47
0.0008202099737533
 47
0.0
 47
0.0
 47
0.0
 47
0.0
 47
0.0008202099737533
 47
0.0
 47
0.0
 47
0.0
 47
0.0
 47
1.0
 47
0.0
 47
0.0
 47
0.0
 47
0.0
 47
1.0
171
     0
 49
0.0008202099737533
 49
0.0
 49
0.0
 49
0.0
 49
0.0
 49
0.0008202099737533
 49
0.0
 49
0.0
 49
0.0
 49
0.0
 49
1.0
 49
0.0
 49
0.0
 49
0.0
 49
0.0
 49
1.0
175
     0
142
0.0008202099737533
142
0.0
142
0.0
142
0.0
142
0.0
142
0.0008202099737533
142
0.0
142
0.0
142
0.0
142
0.0
142
1.0
142
0.0
142
0.0
142
0.0
142
0.0
142
1.0
179
     0
144
0.0008202099737533
144
0.0
144
0.0
144
0.0
144
0.0
144
0.0008202099737533
144
0.0
144
0.0
144
0.0
144
0.0
144
1.0
144
0.0
144
0.0
144
0.0
144
0.0
144
1.0
147
0.0008202099737533
147
0.0
147
0.0
147
0.0
147
0.0
147
0.0008202099737533
147
0.0
147
0.0
147
0.0
147
0.0
147
1.0
147
0.0
147
0.0
147
0.0
147
0.0
147
1.0
  0
MATERIAL
  5
5F1
102
{ACAD_XDICTIONARY
360
5F2
102
}
102
{ACAD_REACTORS
330
386
102
}
330
386
100
AcDbMaterial
  1
ByLayer
 72
     0
 43
0.0008202099737533
 43
0.0
 43
0.0
 43
0.0
 43
0.0
 43
0.0008202099737533
 43
0.0
 43
0.0
 43
0.0
 43
0.0
 43
1.0
 43
0.0
 43
0.0
 43
0.0
 43
0.0
 43
1.0
 77
     0
 47
0.0008202099737533
 47
0.0
 47
0.0
 47
0.0
 47
0.0
 47
0.0008202099737533
 47
0.0
 47
0.0
 47
0.0
 47
0.0
 47
1.0
 47
0.0
 47
0.0
 47
0.0
 47
0.0
 47
1.0
171
     0
 49
0.0008202099737533
 49
0.0
 49
0.0
 49
0.0
 49
0.0
 49
0.0008202099737533
 49
0.0
 49
0.0
 49
0.0
 49
0.0
 49
1.0
 49
0.0
 49
0.0
 49
0.0
 49
0.0
 49
1.0
175
     0
142
0.0008202099737533
142
0.0
142
0.0
142
0.0
142
0.0
142
0.0008202099737533
142
0.0
142
0.0
142
0.0
142
0.0
142
1.0
142
0.0
142
0.0
142
0.0
142
0.0
142
1.0
179
     0
144
0.0008202099737533
144
0.0
144
0.0
144
0.0
144
0.0
144
0.0008202099737533
144
0.0
144
0.0
144
0.0
144
0.0
144
1.0
144
0.0
144
0.0
144
0.0
144
0.0
144
1.0
147
0.0008202099737533
147
0.0
147
0.0
147
0.0
147
0.0
147
0.0008202099737533
147
0.0
147
0.0
147
0.0
147
0.0
147
1.0
147
0.0
147
0.0
147
0.0
147
0.0
147
1.0
  0
MATERIAL
  5
601
102
{ACAD_XDICTIONARY
360
602
102
}
102
{ACAD_REACTORS
330
386
102
}
330
386
100
AcDbMaterial
  1
Global
 72
     0
 43
0.0008202099737533
 43
0.0
 43
0.0
 43
0.0
 43
0.0
 43
0.0008202099737533
 43
0.0
 43
0.0
 43
0.0
 43
0.0
 43
1.0
 43
0.0
 43
0.0
 43
0.0
 43
0.0
 43
1.0
 77
     0
 47
0.0008202099737533
 47
0.0
 47
0.0
 47
0.0
 47
0.0
 47
0.0008202099737533
 47
0.0
 47
0.0
 47
0.0
 47
0.0
 47
1.0
 47
0.0
 47
0.0
 47
0.0
 47
0.0
 47
1.0
171
     0
 49
0.0008202099737533
 49
0.0
 49
0.0
 49
0.0
 49
0.0
 49
0.0008202099737533
 49
0.0
 49
0.0
 49
0.0
 49
0.0
 49
1.0
 49
0.0
 49
0.0
 49
0.0
 49
0.0
 49
1.0
175
     0
142
0.0008202099737533
142
0.0
142
0.0
142
0.0
142
0.0
142
0.0008202099737533
142
0.0
142
0.0
142
0.0
142
0.0
142
1.0
142
0.0
142
0.0
142
0.0
142
0.0
142
1.0
179
     0
144
0.0008202099737533
144
0.0
144
0.0
144
0.0
144
0.0
144
0.0008202099737533
144
0.0
144
0.0
144
0.0
144
0.0
144
1.0
144
0.0
144
0.0
144
0.0
144
0.0
144
1.0
147
0.0008202099737533
147
0.0
147
0.0
147
0.0
147
0.0
147
0.0008202099737533
147
0.0
147
0.0
147
0.0
147
0.0
147
1.0
147
0.0
147
0.0
147
0.0
147
0.0
147
1.0
  0
MLEADERSTYLE
  5
623
102
{ACAD_REACTORS
330
5EA
102
}
330
5EA
100
AcDbMLeaderStyle
170
     2
171
     1
172
     0
 90
        2
 40
0.0
 41
0.0
173
     1
 91
-1056964608
340
12
 92
       -2
290
     1
 42
2.0
291
     1
 43
0.36
  3
Standard
 44
4.0
300

342
10
174
     1
178
     6
175
     1
176
     0
 93
-1056964608
 45
4.0
292
     0
297
     0
 46
4.0
 94
-1056964608
 47
1.0
 49
1.0
140
1.0
293
     1
141
0.0
294
     1
177
     0
142
1.0
295
     0
296
     0
143
0.125
1001
ACAD_MLEADERVER
1070
     2
  0
MLINESTYLE
  5
1B
102
{ACAD_REACTORS
330
E
102
}
330
E
100
AcDbMlineStyle
  2
STANDARD
 70
     0
  3

 62
     0
 51
90.0
 52
90.0
 71
     2
 49
0.5
 62
   256
  6
BYLAYER
 49
-0.5
 62
   256
  6
BYLAYER
  0
ACDBPLACEHOLDER
  5
300
102
{ACAD_REACTORS
330
2FF
102
}
330
2FF
  0
SCALE
  5
3A1
102
{ACAD_REACTORS
330
3A0
102
}
330
3A0
100
AcDbScale
 70
     0
300
1:1
140
1.0
141
1.0
290
     1
  0
SCALE
  5
3A2
102
{ACAD_REACTORS
330
3A0
102
}
330
3A0
100
AcDbScale
 70
     0
300
1:2
140
1.0
141
2.0
290
     0
  0
SCALE
  5
3A3
102
{ACAD_REACTORS
330
3A0
102
}
330
3A0
100
AcDbScale
 70
     0
300
1:4
140
1.0
141
4.0
290
     0
  0
SCALE
  5
3A4
102
{ACAD_REACTORS
330
3A0
102
}
330
3A0
100
AcDbScale
 70
     0
300
1:5
140
1.0
141
5.0
290
     0
  0
SCALE
  5
3A5
102
{ACAD_REACTORS
330
3A0
102
}
330
3A0
100
AcDbScale
 70
     0
300
1:8
140
1.0
141
8.0
290
     0
  0
SCALE
  5
3A6
102
{ACAD_REACTORS
330
3A0
102
}
330
3A0
100
AcDbScale
 70
     0
300
1:10
140
1.0
141
10.0
290
     0
  0
SCALE
  5
3A7
102
{ACAD_REACTORS
330
3A0
102
}
330
3A0
100
AcDbScale
 70
     0
300
1:16
140
1.0
141
16.0
290
     0
  0
SCALE
  5
3A8
102
{ACAD_REACTORS
330
3A0
102
}
330
3A0
100
AcDbScale
 70
     0
300
1:20
140
1.0
141
20.0
290
     0
  0
SCALE
  5
3A9
102
{ACAD_REACTORS
330
3A0
102
}
330
3A0
100
AcDbScale
 70
     0
300
1:30
140
1.0
141
30.0
290
     0
  0
SCALE
  5
3AA
102
{ACAD_REACTORS
330
3A0
102
}
330
3A0
100
AcDbScale
 70
     0
300
1:40
140
1.0
141
40.0
290
     0
  0
SCALE
  5
3AB
102
{ACAD_REACTORS
330
3A0
102
}
330
3A0
100
AcDbScale
 70
     0
300
1:50
140
1.0
141
50.0
290
     0
  0
SCALE
  5
3AC
102
{ACAD_REACTORS
330
3A0
102
}
330
3A0
100
AcDbScale
 70
     0
300
1:100
140
1.0
141
100.0
290
     0
  0
SCALE
  5
3AD
102
{ACAD_REACTORS
330
3A0
102
}
330
3A0
100
AcDbScale
 70
     0
300
2:1
140
2.0
141
1.0
290
     0
  0
SCALE
  5
3AE
102
{ACAD_REACTORS
330
3A0
102
}
330
3A0
100
AcDbScale
 70
     0
300
4:1
140
4.0
141
1.0
290
     0
  0
SCALE
  5
3AF
102
{ACAD_REACTORS
330
3A0
102
}
330
3A0
100
AcDbScale
 70
     0
300
8:1
140
8.0
141
1.0
290
     0
  0
SCALE
  5
3B0
102
{ACAD_REACTORS
330
3A0
102
}
330
3A0
100
AcDbScale
 70
     0
300
10:1
140
10.0
141
1.0
290
     0
  0
SCALE
  5
3B1
102
{ACAD_REACTORS
330
3A0
102
}
330
3A0
100
AcDbScale
 70
     0
300
100:1
140
100.0
141
1.0
290
     0
  0
SCALE
  5
3B2
102
{ACAD_REACTORS
330
3A0
102
}
330
3A0
100
AcDbScale
 70
     0
300
1/128" = 1'-0"
140
0.0078125
141
12.0
290
     0
  0
SCALE
  5
3B3
102
{ACAD_REACTORS
330
3A0
102
}
330
3A0
100
AcDbScale
 70
     0
300
1/64" = 1'-0"
140
0.015625
141
12.0
290
     0
  0
SCALE
  5
3B4
102
{ACAD_REACTORS
330
3A0
102
}
330
3A0
100
AcDbScale
 70
     0
300
1/32" = 1'-0"
140
0.03125
141
12.0
290
     0
  0
SCALE
  5
3B5
102
{ACAD_REACTORS
330
3A0
102
}
330
3A0
100
AcDbScale
 70
     0
300
1/16" = 1'-0"
140
0.0625
141
12.0
290
     0
  0
SCALE
  5
3B6
102
{ACAD_REACTORS
330
3A0
102
}
330
3A0
100
AcDbScale
 70
     0
300
3/32" = 1'-0"
140
0.09375
141
12.0
290
     0
  0
SCALE
  5
3B7
102
{ACAD_REACTORS
330
3A0
102
}
330
3A0
100
AcDbScale
 70
     0
300
1/8" = 1'-0"
140
0.125
141
12.0
290
     0
  0
SCALE
  5
3B8
102
{ACAD_REACTORS
330
3A0
102
}
330
3A0
100
AcDbScale
 70
     0
300
3/16" = 1'-0"
140
0.1875
141
12.0
290
     0
  0
SCALE
  5
3B9
102
{ACAD_REACTORS
330
3A0
102
}
330
3A0
100
AcDbScale
 70
     0
300
1/4" = 1'-0"
140
0.25
141
12.0
290
     0
  0
SCALE
  5
3BA
102
{ACAD_REACTORS
330
3A0
102
}
330
3A0
100
AcDbScale
 70
     0
300
3/8" = 1'-0"
140
0.375
141
12.0
290
     0
  0
SCALE
  5
3BB
102
{ACAD_REACTORS
330
3A0
102
}
330
3A0
100
AcDbScale
 70
     0
300
1/2" = 1'-0"
140
0.5
141
12.0
290
     0
  0
SCALE
  5
3BC
102
{ACAD_REACTORS
330
3A0
102
}
330
3A0
100
AcDbScale
 70
     0
300
3/4" = 1'-0"
140
0.75
141
12.0
290
     0
  0
SCALE
  5
3BD
102
{ACAD_REACTORS
330
3A0
102
}
330
3A0
100
AcDbScale
 70
     0
300
1" = 1'-0"
140
1.0
141
12.0
290
     0
  0
SCALE
  5
3BE
102
{ACAD_REACTORS
330
3A0
102
}
330
3A0
100
AcDbScale
 70
     0
300
1-1/2" = 1'-0"
140
1.5
141
12.0
290
     0
  0
SCALE
  5
3BF
102
{ACAD_REACTORS
330
3A0
102
}
330
3A0
100
AcDbScale
 70
     0
300
3" = 1'-0"
140
3.0
141
12.0
290
     0
  0
SCALE
  5
3C0
102
{ACAD_REACTORS
330
3A0
102
}
330
3A0
100
AcDbScale
 70
     0
300
6" = 1'-0"
140
6.0
141
12.0
290
     0
  0
SCALE
  5
3C1
102
{ACAD_REACTORS
330
3A0
102
}
330
3A0
100
AcDbScale
 70
     0
300
1'-0" = 1'-0"
140
12.0
141
12.0
290
     0
  0
ACDBSECTIONVIEWSTYLE
  5
625
102
{ACAD_XDICTIONARY
360
10C7
102
}
102
{ACAD_REACTORS
330
624
102
}
330
624
100
AcDbModelDocViewStyle
 70
     0
  3
Metric50
290
     0
100
AcDbSectionViewStyle
 70
     0
 71
     0
 90
      102
 71
     1
340
10
 62
   256
 40
5.0
340
0
340
0
 62
   256
 40
5.0
300
I, O, Q, S, X, Z
 40
10.0
 90
        0
 40
2.5
 90
        0
 71
     2
340
14
 90
       25
 62
   256
340
14
 90
       50
 62
   256
 40
5.0
 40
2.5
 40
5.0
 71
     3
340
10
 62
   256
 40
5.0
 90
        0
 40
15.0
 90
        1
300
%<\AcVar ViewSectionStartId>%-%<\AcVar ViewSectionEndId>% (%<\AcVar ViewScale \f "%sn">%)
 71
     4
 62
   256
 62
   257
300
ANSI31
 40
1.0
 90
        0
290
     0
290
     0
 90
        6
 40
0.0
 40
1.570796326794896
 40
0.2617993877991494
 40
1.308996938995747
 40
-0.2617993877991494
 40
1.832595714594044
  0
TABLESTYLE
  5
622
102
{ACAD_XDICTIONARY
360
654
102
}
102
{ACAD_REACTORS
330
388
102
}
330
388
100
AcDbTableStyle
  3
Standard
 70
     0
 71
     0
 40
1.5
 41
1.5
280
     0
281
     0
  7
STANDARD
140
4.5
170
     2
 62
     0
 63
     7
283
     0
274
    -2
284
     1
 64
     0
275
    -2
285
     1
 65
     0
276
    -2
286
     1
 66
     0
277
    -2
287
     1
 67
     0
278
    -2
288
     1
 68
     0
279
    -2
289
     1
 69
     0
  7
STANDARD
140
6.0
170
     5
 62
     0
 63
     7
283
     0
274
    -2
284
     1
 64
     0
275
    -2
285
     1
 65
     0
276
    -2
286
     1
 66
     0
277
    -2
287
     1
 67
     0
278
    -2
288
     1
 68
     0
279
    -2
289
     1
 69
     0
  7
STANDARD
140
4.5
170
     5
 62
     0
 63
     7
283
     0
274
    -2
284
     1
 64
     0
275
    -2
285
     1
 65
     0
276
    -2
286
     1
 66
     0
277
    -2
287
     1
 67
     0
278
    -2
288
     1
 68
     0
279
    -2
289
     1
 69
     0
  0
VISUALSTYLE
  5
60F
102
{ACAD_XDICTIONARY
360
10A0
102
}
102
{ACAD_REACTORS
330
609
102
}
330
609
100
AcDbVisualStyle
  2

 70
     4
 71
     0
 72
     2
 73
     0
 90
        0
 40
-0.6
 41
-30.0
 62
     5
 63
     7
 74
     1
 91
        4
 64
     7
 65
   257
 75
     1
175
     1
 42
1.0
 92
        0
 66
   257
 43
1.0
 76
     1
 77
     6
 78
     2
 67
     7
 79
     5
170
     0
171
     0
290
     0
174
     0
 93
        1
 44
0.0
173
     0
291
     0
 45
0.0
1001
ACAD
1000
AcDbSavedByObjectVersion
1070
     0
  0
VISUALSTYLE
  5
60E
102
{ACAD_XDICTIONARY
360
109E
102
}
102
{ACAD_REACTORS
330
609
102
}
330
609
100
AcDbVisualStyle
  2

 70
     7
 71
     1
 72
     0
 73
     1
 90
        0
 40
-0.6
 41
-30.0
 62
     5
 63
     7
 74
     0
 91
        4
 64
     7
 65
   257
 75
     1
175
     1
 42
1.0
 92
        8
 66
     7
 43
1.0
 76
     1
 77
     6
 78
     2
 67
     7
 79
     5
170
     0
171
     0
290
     0
174
     0
 93
        1
 44
0.0
173
     0
291
     1
 45
0.0
1001
ACAD
1000
AcDbSavedByObjectVersion
1070
     0
  0
VISUALSTYLE
  5
615
102
{ACAD_XDICTIONARY
360
10AC
102
}
102
{ACAD_REACTORS
330
609
102
}
330
609
100
AcDbVisualStyle
  2

 70
    12
 71
     2
 72
     2
 73
     0
 90
        0
 40
-0.6
 41
-30.0
 62
     5
 63
     7
 74
     1
 91
        4
 64
     7
 65
   257
 75
     1
175
     1
 42
1.0
 92
        8
 66
     7
 43
1.0
 76
     1
 77
     6
 78
     2
 67
     7
 79
     5
170
     0
171
     0
290
     0
174
     0
 93
        1
 44
50.0
173
     0
291
     1
 45
0.0
1001
ACAD
1000
AcDbSavedByObjectVersion
1070
     0
  0
VISUALSTYLE
  5
619
102
{ACAD_XDICTIONARY
360
10B4
102
}
102
{ACAD_REACTORS
330
609
102
}
330
609
100
AcDbVisualStyle
  2

 70
    16
 71
     2
 72
     2
 73
     3
 90
        0
 40
-0.6
 41
-30.0
 62
     5
 63
     8
 74
     1
 91
        4
 64
     7
 65
   257
 75
     1
175
     1
 42
1.0
 92
        8
 66
     8
 43
1.0
 76
     1
 77
     6
 78
     2
 67
     7
 79
     5
170
     0
171
     0
290
     0
174
     0
 93
        1
 44
0.0
173
     0
291
     1
 45
0.0
1001
ACAD
1000
AcDbSavedByObjectVersion
1070
     0
  0
VISUALSTYLE
  5
612
102
{ACAD_XDICTIONARY
360
10A6
102
}
102
{ACAD_REACTORS
330
609
102
}
330
609
100
AcDbVisualStyle
  2

 70
     9
 71
     3
 72
     2
 73
     0
 90
        0
 40
-0.6
 41
-30.0
 62
     5
 63
     7
 74
     2
 91
        2
 64
     7
 65
   257
 75
     1
175
     1
 42
179.0
 92
        8
 66
     7
 43
1.0
 76
     1
 77
     6
 78
     2
 67
     7
 79
     3
170
     0
171
     0
290
     0
174
     0
 93
        1
 44
0.0
173
     0
291
     0
 45
0.0
1001
ACAD
1000
AcDbSavedByObjectVersion
1070
     0
  0
VISUALSTYLE
  5
614
102
{ACAD_XDICTIONARY
360
10AA
102
}
102
{ACAD_REACTORS
330
609
102
}
330
609
100
AcDbVisualStyle
  2

 70
    11
 71
     2
 72
     2
 73
     0
 90
        0
 40
-0.6
 41
-30.0
 62
     5
 63
     7
 74
     1
 91
        4
 64
     7
 65
   257
 75
     1
175
     1
 42
1.0
 92
        8
 66
     7
 43
1.0
 76
     1
 77
     6
 78
     2
 67
     7
 79
     5
170
     0
171
     0
290
     0
174
     0
 93
        1
 44
-50.0
173
     0
291
     1
 45
0.0
1001
ACAD
1000
AcDbSavedByObjectVersion
1070
     0
  0
VISUALSTYLE
  5
621
102
{ACAD_XDICTIONARY
360
10C4
102
}
102
{ACAD_REACTORS
330
609
102
}
330
609
100
AcDbVisualStyle
  2

 70
    22
 71
     2
 72
     2
 73
     0
 90
        0
 40
-0.6
 41
-30.0
 62
     5
 63
     7
 74
     1
 91
        4
 64
     7
 65
   257
 75
     1
175
     1
 42
1.0
 92
        8
 66
     7
 43
1.0
 76
     1
 77
     6
 78
     2
 67
     7
 79
     5
170
     0
171
     0
290
     0
174
     0
 93
        1
 44
0.0
173
     0
291
     1
 45
0.0
1001
ACAD
1000
AcDbSavedByObjectVersion
1070
     0
  0
VISUALSTYLE
  5
618
102
{ACAD_XDICTIONARY
360
10B2
102
}
102
{ACAD_REACTORS
330
609
102
}
330
609
100
AcDbVisualStyle
  2

 70
    15
 71
     2
 72
     2
 73
     0
 90
        0
 40
-0.6
 41
-30.0
 62
     5
 63
     7
 74
     1
 91
        4
 64
     7
 65
   257
 75
     1
175
     1
 42
1.0
 92
        8
 66
     7
 43
1.0
 76
     1
 77
     6
 78
     2
 67
     7
 79
     5
170
     0
171
     0
290
     0
174
     0
 93
        1
 44
0.0
173
     0
291
     1
 45
0.0
1001
ACAD
1000
AcDbSavedByObjectVersion
1070
     0
  0
VISUALSTYLE
  5
60A
102
{ACAD_XDICTIONARY
360
1096
102
}
102
{ACAD_REACTORS
330
609
102
}
330
609
100
AcDbVisualStyle
  2

 70
     0
 71
     2
 72
     1
 73
     1
 90
        2
 40
-0.6
 41
30.0
 62
     5
 63
     7
 74
     0
 91
        0
 64
     7
 65
   257
 75
     1
175
     1
 42
1.0
 92
        8
 66
     7
 43
1.0
 76
     1
 77
     6
 78
     2
 67
     7
 79
     5
170
     0
171
     0
290
     0
174
     0
 93
       13
 44
0.0
173
     0
291
     1
 45
0.0
1001
ACAD
1000
AcDbSavedByObjectVersion
1070
     0
  0
VISUALSTYLE
  5
60B
102
{ACAD_XDICTIONARY
360
1098
102
}
102
{ACAD_REACTORS
330
609
102
}
330
609
100
AcDbVisualStyle
  2

 70
     1
 71
     2
 72
     1
 73
     1
 90
        2
 40
-0.6
 41
30.0
 62
     5
 63
     7
 74
     1
 91
        0
 64
     7
 65
   257
 75
     1
175
     1
 42
1.0
 92
        0
 66
   257
 43
1.0
 76
     1
 77
     6
 78
     2
 67
     7
 79
     5
170
     0
171
     0
290
     0
174
     0
 93
       13
 44
0.0
173
     0
291
     1
 45
0.0
1001
ACAD
1000
AcDbSavedByObjectVersion
1070
     0
  0
VISUALSTYLE
  5
60C
102
{ACAD_XDICTIONARY
360
109A
102
}
102
{ACAD_REACTORS
330
609
102
}
330
609
100
AcDbVisualStyle
  2

 70
     2
 71
     2
 72
     2
 73
     1
 90
        2
 40
-0.6
 41
30.0
 62
     5
 63
     7
 74
     0
 91
        0
 64
     7
 65
   257
 75
     1
175
     1
 42
1.0
 92
        0
 66
     7
 43
1.0
 76
     1
 77
     6
 78
     2
 67
     7
 79
     5
170
     0
171
     0
290
     0
174
     0
 93
       13
 44
0.0
173
     0
291
     1
 45
0.0
1001
ACAD
1000
AcDbSavedByObjectVersion
1070
     0
  0
VISUALSTYLE
  5
60D
102
{ACAD_XDICTIONARY
360
109C
102
}
102
{ACAD_REACTORS
330
609
102
}
330
609
100
AcDbVisualStyle
  2

 70
     3
 71
     2
 72
     2
 73
     1
 90
        2
 40
-0.6
 41
30.0
 62
     5
 63
     7
 74
     1
 91
        0
 64
     7
 65
   257
 75
     1
175
     1
 42
1.0
 92
        0
 66
   257
 43
1.0
 76
     1
 77
     6
 78
     2
 67
     7
 79
     5
170
     0
171
     0
290
     0
174
     0
 93
       13
 44
0.0
173
     0
291
     1
 45
0.0
1001
ACAD
1000
AcDbSavedByObjectVersion
1070
     0
  0
VISUALSTYLE
  5
611
102
{ACAD_XDICTIONARY
360
10A4
102
}
102
{ACAD_REACTORS
330
609
102
}
330
609
100
AcDbVisualStyle
  2

 70
     6
 71
     1
 72
     2
 73
     2
 90
        0
 40
-0.6
 41
-30.0
 62
     5
 63
     7
 74
     2
 91
        2
 64
     7
 65
   257
 75
     2
175
     1
 42
40.0
 92
        0
 66
   257
 43
1.0
 76
     1
 77
     6
 78
     2
 67
     7
 79
     3
170
     0
171
     0
290
     0
174
     0
 93
        1
 44
0.0
173
     0
291
     0
 45
0.0
1001
ACAD
1000
AcDbSavedByObjectVersion
1070
     0
  0
VISUALSTYLE
  5
61F
102
{ACAD_XDICTIONARY
360
10C0
102
}
102
{ACAD_REACTORS
330
609
102
}
330
609
100
AcDbVisualStyle
  2

 70
    20
 71
     2
 72
     2
 73
     0
 90
        0
 40
-0.6
 41
-30.0
 62
     5
 63
     7
 74
     1
 91
        4
 64
     7
 65
   257
 75
     1
175
     1
 42
1.0
 92
       10
 66
     7
 43
1.0
 76
     1
 77
     6
 78
     2
 67
     7
 79
     5
170
     0
171
     0
290
     0
174
     0
 93
        1
 44
0.0
173
     0
291
     1
 45
0.0
1001
ACAD
1000
AcDbSavedByObjectVersion
1070
     0
  0
VISUALSTYLE
  5
617
102
{ACAD_XDICTIONARY
360
10B0
102
}
102
{ACAD_REACTORS
330
609
102
}
330
609
100
AcDbVisualStyle
  2

 70
    14
 71
     2
 72
     2
 73
     0
 90
        0
 40
-0.6
 41
-30.0
 62
     5
 63
     7
 74
     1
 91
        4
 64
     7
 65
   257
 75
     7
175
     7
 42
1.0
 92
        8
 66
     7
 43
1.0
 76
     1
 77
     6
 78
     2
 67
     7
 79
     5
170
     0
171
     0
290
     0
174
     0
 93
        1
 44
0.0
173
     0
291
     1
 45
0.0
1001
ACAD
1000
AcDbSavedByObjectVersion
1070
     0
  0
VISUALSTYLE
  5
620
102
{ACAD_XDICTIONARY
360
10C2
102
}
102
{ACAD_REACTORS
330
609
102
}
330
609
100
AcDbVisualStyle
  2

 70
    21
 71
     2
 72
     2
 73
     0
 90
        0
 40
-0.6
 41
-30.0
 62
     5
 63
     7
 74
     1
 91
        4
 64
     7
 65
   257
 75
     1
175
     1
 42
1.0
 92
        9
 66
     7
 43
1.0
 76
     1
 77
     6
 78
     2
 67
     7
 79
     5
170
     0
171
     0
290
     0
174
     0
 93
        1
 44
0.0
173
     0
291
     1
 45
0.0
1001
ACAD
1000
AcDbSavedByObjectVersion
1070
     0
  0
VISUALSTYLE
  5
613
102
{ACAD_XDICTIONARY
360
10A8
102
}
102
{ACAD_REACTORS
330
609
102
}
330
609
100
AcDbVisualStyle
  2

 70
     8
 71
     2
 72
     3
 73
     0
 90
        2
 40
-0.6
 41
30.0
 62
     5
 63
     7
 74
     0
 91
        0
 64
     7
 65
   257
 75
     1
175
     1
 42
1.0
 92
        8
 66
   257
 43
1.0
 76
     1
 77
     6
 78
     2
 67
     7
 79
     3
170
     0
171
     0
290
     0
174
     0
 93
       13
 44
0.0
173
     0
291
     0
 45
0.0
1001
ACAD
1000
AcDbSavedByObjectVersion
1070
     0
  0
VISUALSTYLE
  5
61E
102
{ACAD_XDICTIONARY
360
10BE
102
}
102
{ACAD_REACTORS
330
609
102
}
330
609
100
AcDbVisualStyle
  2

 70
    27
 71
     2
 72
     2
 73
     1
 90
        2
 40
-0.6
 41
30.0
 62
     5
 63
     7
 74
     0
 91
        4
 64
     7
 65
   257
 75
     1
175
     1
 42
1.0
 92
        8
 66
   257
 43
1.0
 76
     1
 77
     6
 78
     2
 67
     8
 79
     3
170
     0
171
     0
290
     0
174
     0
 93
        5
 44
0.0
173
     0
291
     0
 45
0.0
1001
ACAD
1000
AcDbSavedByObjectVersion
1070
     0
  0
VISUALSTYLE
  5
61D
102
{ACAD_XDICTIONARY
360
10BC
102
}
102
{ACAD_REACTORS
330
609
102
}
330
609
100
AcDbVisualStyle
  2

 70
    26
 71
     2
 72
     2
 73
     1
 90
        2
 40
-0.6
 41
30.0
 62
     5
 63
     7
 74
     1
 91
       10
 64
     7
 65
   257
 75
     2
175
     1
 42
1.0
 92
        8
 66
   257
 43
1.0
 76
     1
 77
     6
 78
     2
 67
     7
 79
     3
170
     0
171
     0
290
     0
174
     0
 93
        5
 44
0.0
173
     0
291
     0
 45
0.0
1001
ACAD
1000
AcDbSavedByObjectVersion
1070
     0
  0
VISUALSTYLE
  5
61A
102
{ACAD_XDICTIONARY
360
10B6
102
}
102
{ACAD_REACTORS
330
609
102
}
330
609
100
AcDbVisualStyle
  2

 70
    23
 71
     2
 72
     2
 73
     3
 90
        0
 40
-0.6
 41
-30.0
 62
     5
 63
     7
 74
     2
 91
        2
 64
     7
 65
     7
 75
     1
175
     1
 42
40.0
 92
        8
 66
     7
 43
1.0
 76
     1
 77
     6
 78
     2
 67
     7
 79
     3
170
     0
171
     0
290
     0
174
     0
 93
        1
 44
0.0
173
     0
291
     0
 45
0.0
1001
ACAD
1000
AcDbSavedByObjectVersion
1070
     0
  0
VISUALSTYLE
  5
61B
102
{ACAD_XDICTIONARY
360
10B8
102
}
102
{ACAD_REACTORS
330
609
102
}
330
609
100
AcDbVisualStyle
  2

 70
    24
 71
     1
 72
     2
 73
     2
 90
        0
 40
-0.6
 41
-30.0
 62
     5
 63
     7
 74
     2
 91
        2
 64
     7
 65
     7
 75
     1
175
     1
 42
40.0
 92
       11
 66
     7
 43
1.0
 76
     1
 77
     6
 78
     2
 67
     7
 79
     6
170
     0
171
     0
290
     0
174
     0
 93
        1
 44
0.0
173
     0
291
     0
 45
0.0
1001
ACAD
1000
AcDbSavedByObjectVersion
1070
     0
  0
VISUALSTYLE
  5
616
102
{ACAD_XDICTIONARY
360
10AE
102
}
102
{ACAD_REACTORS
330
609
102
}
330
609
100
AcDbVisualStyle
  2

 70
    13
 71
     2
 72
     2
 73
     0
 90
        0
 40
-0.6
 41
-30.0
 62
     5
 63
     7
 74
     1
 91
        4
 64
     7
 65
   257
 75
     1
175
     1
 42
1.0
 92
       12
 66
     7
 43
1.0
 76
     1
 77
     6
 78
     2
 67
     7
 79
     5
170
     0
171
     0
290
     0
174
     0
 93
        1
 44
0.0
173
     0
291
     1
 45
0.0
1001
ACAD
1000
AcDbSavedByObjectVersion
1070
     0
  0
VISUALSTYLE
  5
610
102
{ACAD_XDICTIONARY
360
10A2
102
}
102
{ACAD_REACTORS
330
609
102
}
330
609
100
AcDbVisualStyle
  2

 70
     5
 71
     0
 72
     2
 73
     0
 90
        0
 40
-0.6
 41
-30.0
 62
     5
 63
     7
 74
     1
 91
        4
 64
     7
 65
   257
 75
     1
175
     1
 42
1.0
 92
        0
 66
   257
 43
1.0
 76
     1
 77
     6
 78
     2
 67
     7
 79
     3
170
     0
171
     0
290
     0
174
     0
 93
        1
 44
0.0
173
     0
291
     0
 45
0.0
1001
ACAD
1000
AcDbSavedByObjectVersion
1070
     0
  0
VISUALSTYLE
  5
61C
102
{ACAD_XDICTIONARY
360
10BA
102
}
102
{ACAD_REACTORS
330
609
102
}
330
609
100
AcDbVisualStyle
  2

 70
    25
 71
     2
 72
     2
 73
     1
 90
        1
 40
0.5
 41
-30.0
 62
     5
 63
     7
 74
     1
 91
        0
 64
     7
 65
   257
 75
     1
175
     1
 42
1.0
 92
        8
 66
     7
 43
1.0
 76
     1
 77
     6
 78
     2
 67
     7
 79
     3
170
     0
171
     0
290
     0
174
     0
 93
       13
 44
0.0
173
     0
291
     0
 45
0.0
1001
ACAD
1000
AcDbSavedByObjectVersion
1070
     0
  0
DICTIONARYVAR
  5
5EB
102
{ACAD_REACTORS
330
357
102
}
330
357
100
DictionaryVariables
280
     0
  1
1:1
  0
DICTIONARYVAR
  5
64D
102
{ACAD_REACTORS
330
357
102
}
330
357
100
DictionaryVariables
280
     0
  1
STANDARD
  0
DICTIONARYVAR
  5
38D
102
{ACAD_REACTORS
330
357
102
}
330
357
100
DictionaryVariables
280
     0
  1
STANDARD
  0
DICTIONARYVAR
  5
64E
102
{ACAD_REACTORS
330
357
102
}
330
357
100
DictionaryVariables
280
     0
  1
Metric50
  0
DICTIONARYVAR
  5
64F
102
{ACAD_REACTORS
330
357
102
}
330
357
100
DictionaryVariables
280
     0
  1
Metric50
  0
DICTIONARYVAR
  5
359
102
{ACAD_REACTORS
330
357
102
}
330
357
100
DictionaryVariables
280
     0
  1
2
  0
DICTIONARYVAR
  5
358
102
{ACAD_REACTORS
330
357
102
}
330
357
100
DictionaryVariables
280
     0
  1
1
  0
DICTIONARYVAR
  5
651
102
{ACAD_REACTORS
330
357
102
}
330
357
100
DictionaryVariables
280
     0
  1
0
  0
DICTIONARYVAR
  5
38E
102
{ACAD_REACTORS
330
357
102
}
330
357
100
DictionaryVariables
280
     0
  1

  0
DICTIONARYVAR
  5
650
102
{ACAD_REACTORS
330
357
102
}
330
357
100
DictionaryVariables
280
     0
  1
127
  0
DICTIONARYVAR
  5
108B
102
{ACAD_REACTORS
330
357
102
}
330
357
100
DictionaryVariables
280
     0
  1
2
  0
DICTIONARY
  5
1095
102
{ACAD_REACTORS
330
1093
102
}
330
1093
100
AcDbDictionary
281
     1
  0
DICTIONARY
  5
1094
102
{ACAD_REACTORS
330
1093
102
}
330
1093
100
AcDbDictionary
281
     1
  3
8796085044192
350
108E
  3
8796085044208
350
108F
  3
8796085044224
350
1090
  3
8796085044240
350
1091
  3
8796085044256
350
1092
  0
DICTIONARY
  5
10C9
330
627
100
AcDbDictionary
280
     1
281
     1
  3
ACAD_XREC_ROUNDTRIP
360
10CA
  0
DICTIONARY
  5
5FA
330
5F9
100
AcDbDictionary
280
     1
281
     1
  3
ACAD_XREC_ROUNDTRIP
360
65E
  3
BUMPTILE
360
5FC
  3
DIFFUSETILE
360
5FB
  3
OPACITYTILE
360
5FF
  3
REFLECTIONTILE
360
5FE
  3
REFRACTIONTILE
360
600
  3
SPECULARTILE
360
5FD
  0
DICTIONARY
  5
5F2
330
5F1
100
AcDbDictionary
280
     1
281
     1
  3
ACAD_XREC_ROUNDTRIP
360
65D
  3
BUMPTILE
360
5F4
  3
DIFFUSETILE
360
5F3
  3
OPACITYTILE
360
5F7
  3
REFLECTIONTILE
360
5F6
  3
REFRACTIONTILE
360
5F8
  3
SPECULARTILE
360
5F5
  0
DICTIONARY
  5
602
330
601
100
AcDbDictionary
280
     1
281
     1
  3
ACAD_XREC_ROUNDTRIP
360
65F
  3
BUMPTILE
360
604
  3
DIFFUSETILE
360
603
  3
OPACITYTILE
360
607
  3
REFLECTIONTILE
360
606
  3
REFRACTIONTILE
360
608
  3
SPECULARTILE
360
605
  0
DICTIONARY
  5
10C7
330
625
100
AcDbDictionary
280
     1
281
     1
  3
ACAD_XREC_ROUNDTRIP
360
10C8
  0
DICTIONARY
  5
654
330
622
100
AcDbDictionary
280
     1
281
     1
  3
ACAD_ROUNDTRIP_2008_TABLESTYLE_CELLSTYLEMAP
360
108C
  3
ACAD_XREC_ROUNDTRIP
360
10C6
  0
DICTIONARY
  5
10A0
330
60F
100
AcDbDictionary
280
     1
281
     1
  3
ACAD_XREC_ROUNDTRIP
360
10A1
  0
DICTIONARY
  5
109E
330
60E
100
AcDbDictionary
280
     1
281
     1
  3
ACAD_XREC_ROUNDTRIP
360
109F
  0
DICTIONARY
  5
10AC
330
615
100
AcDbDictionary
280
     1
281
     1
  3
ACAD_XREC_ROUNDTRIP
360
10AD
  0
DICTIONARY
  5
10B4
330
619
100
AcDbDictionary
280
     1
281
     1
  3
ACAD_XREC_ROUNDTRIP
360
10B5
  0
DICTIONARY
  5
10A6
330
612
100
AcDbDictionary
280
     1
281
     1
  3
ACAD_XREC_ROUNDTRIP
360
10A7
  0
DICTIONARY
  5
10AA
330
614
100
AcDbDictionary
280
     1
281
     1
  3
ACAD_XREC_ROUNDTRIP
360
10AB
  0
DICTIONARY
  5
10C4
330
621
100
AcDbDictionary
280
     1
281
     1
  3
ACAD_XREC_ROUNDTRIP
360
10C5
  0
DICTIONARY
  5
10B2
330
618
100
AcDbDictionary
280
     1
281
     1
  3
ACAD_XREC_ROUNDTRIP
360
10B3
  0
DICTIONARY
  5
1096
330
60A
100
AcDbDictionary
280
     1
281
     1
  3
ACAD_XREC_ROUNDTRIP
360
1097
  0
DICTIONARY
  5
1098
330
60B
100
AcDbDictionary
280
     1
281
     1
  3
ACAD_XREC_ROUNDTRIP
360
1099
  0
DICTIONARY
  5
109A
330
60C
100
AcDbDictionary
280
     1
281
     1
  3
ACAD_XREC_ROUNDTRIP
360
109B
  0
DICTIONARY
  5
109C
330
60D
100
AcDbDictionary
280
     1
281
     1
  3
ACAD_XREC_ROUNDTRIP
360
109D
  0
DICTIONARY
  5
10A4
330
611
100
AcDbDictionary
280
     1
281
     1
  3
ACAD_XREC_ROUNDTRIP
360
10A5
  0
DICTIONARY
  5
10C0
330
61F
100
AcDbDictionary
280
     1
281
     1
  3
ACAD_XREC_ROUNDTRIP
360
10C1
  0
DICTIONARY
  5
10B0
330
617
100
AcDbDictionary
280
     1
281
     1
  3
ACAD_XREC_ROUNDTRIP
360
10B1
  0
DICTIONARY
  5
10C2
330
620
100
AcDbDictionary
280
     1
281
     1
  3
ACAD_XREC_ROUNDTRIP
360
10C3
  0
DICTIONARY
  5
10A8
330
613
100
AcDbDictionary
280
     1
281
     1
  3
ACAD_XREC_ROUNDTRIP
360
10A9
  0
DICTIONARY
  5
10BE
330
61E
100
AcDbDictionary
280
     1
281
     1
  3
ACAD_XREC_ROUNDTRIP
360
10BF
  0
DICTIONARY
  5
10BC
330
61D
100
AcDbDictionary
280
     1
281
     1
  3
ACAD_XREC_ROUNDTRIP
360
10BD
  0
DICTIONARY
  5
10B6
330
61A
100
AcDbDictionary
280
     1
281
     1
  3
ACAD_XREC_ROUNDTRIP
360
10B7
  0
DICTIONARY
  5
10B8
330
61B
100
AcDbDictionary
280
     1
281
     1
  3
ACAD_XREC_ROUNDTRIP
360
10B9
  0
DICTIONARY
  5
10AE
330
616
100
AcDbDictionary
280
     1
281
     1
  3
ACAD_XREC_ROUNDTRIP
360
10AF
  0
DICTIONARY
  5
10A2
330
610
100
AcDbDictionary
280
     1
281
     1
  3
ACAD_XREC_ROUNDTRIP
360
10A3
  0
DICTIONARY
  5
10BA
330
61C
100
AcDbDictionary
280
     1
281
     1
  3
ACAD_XREC_ROUNDTRIP
360
10BB
  0
XRECORD
  5
108E
102
{ACAD_REACTORS
330
1094
102
}
330
1094
100
AcDbXrecord
280
     1
  1
AcDb_Thumbnail_Schema
102
{ATTRRECORD
341
108F
  2
AcDbDs::TreatedAsObjectData
280
     1
291
     1
102
ATTRRECORD}
102
{ATTRRECORD
341
1090
  2
AcDbDs::Legacy
280
     1
291
     1
102
ATTRRECORD}
  2
AcDbDs::ID
280
    10
 91
        8
102
{ATTRRECORD
341
1091
  2
AcDs:Indexable
280
     1
291
     1
102
ATTRRECORD}
102
{ATTRRECORD
341
1092
  2
AcDbDs::HandleAttribute
280
     7
282
     1
102
ATTRRECORD}
  2
Thumbnail_Data
280
    15
 91
        0
  0
XRECORD
  5
108F
102
{ACAD_REACTORS
330
1094
102
}
330
1094
100
AcDbXrecord
280
     1
  1
AcDbDs::TreatedAsObjectDataSchema
  2
AcDbDs::TreatedAsObjectData
280
     1
 91
        0
  0
XRECORD
  5
1090
102
{ACAD_REACTORS
330
1094
102
}
330
1094
100
AcDbXrecord
280
     1
  1
AcDbDs::LegacySchema
  2
AcDbDs::Legacy
280
     1
 91
        0
  0
XRECORD
  5
1091
102
{ACAD_REACTORS
330
1094
102
}
330
1094
100
AcDbXrecord
280
     1
  1
AcDbDs::IndexedPropertySchema
  2
AcDs:Indexable
280
     1
 91
        0
  0
XRECORD
  5
1092
102
{ACAD_REACTORS
330
1094
102
}
330
1094
100
AcDbXrecord
280
     1
  1
AcDbDs::HandleAttributeSchema
  2
AcDbDs::HandleAttribute
280
     7
 91
        1
284
     1
  0
XRECORD
  5
10CA
102
{ACAD_REACTORS
330
10C9
102
}
330
10C9
100
AcDbXrecord
280
     1
102
DISPLAYNAME
  1
Metric50
102
FLAGS
 90
        0
  0
XRECORD
  5
65E
102
{ACAD_REACTORS
330
5FA
102
}
330
5FA
100
AcDbXrecord
280
     1
102
MATERIAL
148
0.0
149
0.0
149
0.0
 93
        0
 94
      127
282
     0
 72
     0
 77
     0
171
     0
175
     0
179
     0
273
     0
  0
XRECORD
  5
5FC
102
{ACAD_REACTORS
330
5FA
102
}
330
5FA
100
AcDbXrecord
280
     1
270
     1
271
     1
  0
XRECORD
  5
5FB
102
{ACAD_REACTORS
330
5FA
102
}
330
5FA
100
AcDbXrecord
280
     1
270
     1
271
     1
  0
XRECORD
  5
5FF
102
{ACAD_REACTORS
330
5FA
102
}
330
5FA
100
AcDbXrecord
280
     1
270
     1
271
     1
  0
XRECORD
  5
5FE
102
{ACAD_REACTORS
330
5FA
102
}
330
5FA
100
AcDbXrecord
280
     1
270
     1
271
     1
  0
XRECORD
  5
600
102
{ACAD_REACTORS
330
5FA
102
}
330
5FA
100
AcDbXrecord
280
     1
270
     1
271
     1
  0
XRECORD
  5
5FD
102
{ACAD_REACTORS
330
5FA
102
}
330
5FA
100
AcDbXrecord
280
     1
270
     1
271
     1
  0
XRECORD
  5
65D
102
{ACAD_REACTORS
330
5F2
102
}
330
5F2
100
AcDbXrecord
280
     1
102
MATERIAL
148
0.0
149
0.0
149
0.0
 93
        0
 94
      127
282
     0
 72
     0
 77
     0
171
     0
175
     0
179
     0
273
     0
  0
XRECORD
  5
5F4
102
{ACAD_REACTORS
330
5F2
102
}
330
5F2
100
AcDbXrecord
280
     1
270
     1
271
     1
  0
XRECORD
  5
5F3
102
{ACAD_REACTORS
330
5F2
102
}
330
5F2
100
AcDbXrecord
280
     1
270
     1
271
     1
  0
XRECORD
  5
5F7
102
{ACAD_REACTORS
330
5F2
102
}
330
5F2
100
AcDbXrecord
280
     1
270
     1
271
     1
  0
XRECORD
  5
5F6
102
{ACAD_REACTORS
330
5F2
102
}
330
5F2
100
AcDbXrecord
280
     1
270
     1
271
     1
  0
XRECORD
  5
5F8
102
{ACAD_REACTORS
330
5F2
102
}
330
5F2
100
AcDbXrecord
280
     1
270
     1
271
     1
  0
XRECORD
  5
5F5
102
{ACAD_REACTORS
330
5F2
102
}
330
5F2
100
AcDbXrecord
280
     1
270
     1
271
     1
  0
XRECORD
  5
65F
102
{ACAD_REACTORS
330
602
102
}
330
602
100
AcDbXrecord
280
     1
102
MATERIAL
148
0.0
149
0.0
149
0.0
 93
        0
 94
      127
282
     0
 72
     0
 77
     0
171
     0
175
     0
179
     0
273
     0
  0
XRECORD
  5
604
102
{ACAD_REACTORS
330
602
102
}
330
602
100
AcDbXrecord
280
     1
270
     1
271
     1
  0
XRECORD
  5
603
102
{ACAD_REACTORS
330
602
102
}
330
602
100
AcDbXrecord
280
     1
270
     1
271
     1
  0
XRECORD
  5
607
102
{ACAD_REACTORS
330
602
102
}
330
602
100
AcDbXrecord
280
     1
270
     1
271
     1
  0
XRECORD
  5
606
102
{ACAD_REACTORS
330
602
102
}
330
602
100
AcDbXrecord
280
     1
270
     1
271
     1
  0
XRECORD
  5
608
102
{ACAD_REACTORS
330
602
102
}
330
602
100
AcDbXrecord
280
     1
270
     1
271
     1
  0
XRECORD
  5
605
102
{ACAD_REACTORS
330
602
102
}
330
602
100
AcDbXrecord
280
     1
270
     1
271
     1
  0
XRECORD
  5
10C8
102
{ACAD_REACTORS
330
10C7
102
}
330
10C7
100
AcDbXrecord
280
     1
102
DISPLAYNAME
  1
Metric50
102
FLAGS
 90
        0
  0
CELLSTYLEMAP
  5
108C
102
{ACAD_REACTORS
330
654
102
}
330
654
100
AcDbCellStyleMap
 90
        3
300
CELLSTYLE
  1
TABLEFORMAT_BEGIN
 90
        5
170
     1
 91
        0
 92
    32768
 62
   257
 93
        1
300
CONTENTFORMAT
  1
CONTENTFORMAT_BEGIN
 90
        0
 91
        0
 92
      512
 93
        0
300

 40
0.0
140
1.0
 94
        5
 62
     0
340
10
144
6.0
309
CONTENTFORMAT_END
171
     1
301
MARGIN
  1
CELLMARGIN_BEGIN
 40
1.5
 40
1.5
 40
1.5
 40
1.5
 40
0.18
 40
0.18
309
CELLMARGIN_END
 94
        6
 95
        1
302
GRIDFORMAT
  1
GRIDFORMAT_BEGIN
 90
        0
 91
        1
 62
     0
 92
       -2
340
0
 93
        0
 40
1.125
309
GRIDFORMAT_END
 95
        2
302
GRIDFORMAT
  1
GRIDFORMAT_BEGIN
 90
        0
 91
        1
 62
     0
 92
       -2
340
0
 93
        0
 40
1.125
309
GRIDFORMAT_END
 95
        4
302
GRIDFORMAT
  1
GRIDFORMAT_BEGIN
 90
        0
 91
        1
 62
     0
 92
       -2
340
0
 93
        0
 40
1.125
309
GRIDFORMAT_END
 95
        8
302
GRIDFORMAT
  1
GRIDFORMAT_BEGIN
 90
        0
 91
        1
 62
     0
 92
       -2
340
0
 93
        0
 40
1.125
309
GRIDFORMAT_END
 95
       16
302
GRIDFORMAT
  1
GRIDFORMAT_BEGIN
 90
        0
 91
        1
 62
     0
 92
       -2
340
0
 93
        0
 40
1.125
309
GRIDFORMAT_END
 95
       32
302
GRIDFORMAT
  1
GRIDFORMAT_BEGIN
 90
        0
 91
        1
 62
     0
 92
       -2
340
0
 93
        0
 40
1.125
309
GRIDFORMAT_END
309
TABLEFORMAT_END
  1
CELLSTYLE_BEGIN
 90
        1
 91
        1
300
_TITLE
309
CELLSTYLE_END
300
CELLSTYLE
  1
TABLEFORMAT_BEGIN
 90
        5
170
     1
 91
        0
 92
        0
 62
   257
 93
        1
300
CONTENTFORMAT
  1
CONTENTFORMAT_BEGIN
 90
        0
 91
        0
 92
      512
 93
        0
300

 40
0.0
140
1.0
 94
        5
 62
     0
340
10
144
4.5
309
CONTENTFORMAT_END
171
     1
301
MARGIN
  1
CELLMARGIN_BEGIN
 40
1.5
 40
1.5
 40
1.5
 40
1.5
 40
0.18
 40
0.18
309
CELLMARGIN_END
 94
        6
 95
        1
302
GRIDFORMAT
  1
GRIDFORMAT_BEGIN
 90
        0
 91
        1
 62
     0
 92
       -2
340
0
 93
        0
 40
1.125
309
GRIDFORMAT_END
 95
        2
302
GRIDFORMAT
  1
GRIDFORMAT_BEGIN
 90
        0
 91
        1
 62
     0
 92
       -2
340
0
 93
        0
 40
1.125
309
GRIDFORMAT_END
 95
        4
302
GRIDFORMAT
  1
GRIDFORMAT_BEGIN
 90
        0
 91
        1
 62
     0
 92
       -2
340
0
 93
        0
 40
1.125
309
GRIDFORMAT_END
 95
        8
302
GRIDFORMAT
  1
GRIDFORMAT_BEGIN
 90
        0
 91
        1
 62
     0
 92
       -2
340
0
 93
        0
 40
1.125
309
GRIDFORMAT_END
 95
       16
302
GRIDFORMAT
  1
GRIDFORMAT_BEGIN
 90
        0
 91
        1
 62
     0
 92
       -2
340
0
 93
        0
 40
1.125
309
GRIDFORMAT_END
 95
       32
302
GRIDFORMAT
  1
GRIDFORMAT_BEGIN
 90
        0
 91
        1
 62
     0
 92
       -2
340
0
 93
        0
 40
1.125
309
GRIDFORMAT_END
309
TABLEFORMAT_END
  1
CELLSTYLE_BEGIN
 90
        2
 91
        1
300
_HEADER
309
CELLSTYLE_END
300
CELLSTYLE
  1
TABLEFORMAT_BEGIN
 90
        5
170
     1
 91
        0
 92
        0
 62
   257
 93
        1
300
CONTENTFORMAT
  1
CONTENTFORMAT_BEGIN
 90
        0
 91
        0
 92
      512
 93
        0
300

 40
0.0
140
1.0
 94
        2
 62
     0
340
10
144
4.5
309
CONTENTFORMAT_END
171
     1
301
MARGIN
  1
CELLMARGIN_BEGIN
 40
1.5
 40
1.5
 40
1.5
 40
1.5
 40
0.18
 40
0.18
309
CELLMARGIN_END
 94
        6
 95
        1
302
GRIDFORMAT
  1
GRIDFORMAT_BEGIN
 90
        0
 91
        1
 62
     0
 92
       -2
340
0
 93
        0
 40
1.125
309
GRIDFORMAT_END
 95
        2
302
GRIDFORMAT
  1
GRIDFORMAT_BEGIN
 90
        0
 91
        1
 62
     0
 92
       -2
340
0
 93
        0
 40
1.125
309
GRIDFORMAT_END
 95
        4
302
GRIDFORMAT
  1
GRIDFORMAT_BEGIN
 90
        0
 91
        1
 62
     0
 92
       -2
340
0
 93
        0
 40
1.125
309
GRIDFORMAT_END
 95
        8
302
GRIDFORMAT
  1
GRIDFORMAT_BEGIN
 90
        0
 91
        1
 62
     0
 92
       -2
340
0
 93
        0
 40
1.125
309
GRIDFORMAT_END
 95
       16
302
GRIDFORMAT
  1
GRIDFORMAT_BEGIN
 90
        0
 91
        1
 62
     0
 92
       -2
340
0
 93
        0
 40
1.125
309
GRIDFORMAT_END
 95
       32
302
GRIDFORMAT
  1
GRIDFORMAT_BEGIN
 90
        0
 91
        1
 62
     0
 92
       -2
340
0
 93
        0
 40
1.125
309
GRIDFORMAT_END
309
TABLEFORMAT_END
  1
CELLSTYLE_BEGIN
 90
        3
 91
        2
300
_DATA
309
CELLSTYLE_END
  0
XRECORD
  5
10C6
102
{ACAD_REACTORS
330
654
102
}
330
654
100
AcDbXrecord
280
     1
102
ACAD_ROUNDTRIP_PRE2007_TABLESTYLE
 90
      512
 91
        0
  1

 92
      512
 93
        0
  2

 94
      512
 95
        0
  3

  0
XRECORD
  5
10A1
102
{ACAD_REACTORS
330
10A0
102
}
330
10A0
100
AcDbXrecord
280
     1
102
RTVSPost2010Prop28
280
     1
102
RTVSPost2010PropOp28
 70
     1
102
RTVSPost2010Prop29
280
     1
102
RTVSPost2010PropOp29
 70
     1
102
RTVSPost2010Prop30
280
     0
102
RTVSPost2010PropOp30
 70
     1
102
RTVSPost2010Prop31
280
     0
102
RTVSPost2010PropOp31
 70
     1
102
RTVSPost2010Prop32
280
     0
102
RTVSPost2010PropOp32
 70
     1
102
RTVSPost2010Prop33
280
     0
102
RTVSPost2010PropOp33
 70
     1
102
RTVSPost2010Prop34
280
     0
102
RTVSPost2010PropOp34
 70
     1
102
RTVSPost2010Prop35
280
     0
102
RTVSPost2010PropOp35
 70
     1
102
RTVSPost2010Prop36
280
     0
102
RTVSPost2010PropOp36
 70
     1
102
RTVSPost2010Prop37
 90
       50
102
RTVSPost2010PropOp37
 70
     1
102
RTVSPost2010Prop38
140
0.0
102
RTVSPost2010PropOp38
 70
     1
102
RTVSPost2010Prop39
140
1.0
102
RTVSPost2010PropOp39
 70
     1
102
RTVSPost2010Prop40
 90
        0
102
RTVSPost2010PropOp40
 70
     1
102
RTVSPost2010Prop41ColorIndex
 90
       18
102
RTVSPost2010Prop41ColorRGB
 90
        0
102
RTVSPost2010PropOp41
 70
     1
102
RTVSPost2010Prop42
 90
       50
102
RTVSPost2010PropOp42
 70
     1
102
RTVSPost2010Prop43
 90
        3
102
RTVSPost2010PropOp43
 70
     1
102
RTVSPost2010Prop44ColorIndex
 90
        5
102
RTVSPost2010Prop44ColorRGB
 90
      255
102
RTVSPost2010PropOp44
 70
     1
102
RTVSPost2010Prop45
280
     0
102
RTVSPost2010PropOp45
 70
     1
102
RTVSPost2010Prop46
 90
       50
102
RTVSPost2010PropOp46
 70
     1
102
RTVSPost2010Prop47
 90
       50
102
RTVSPost2010PropOp47
 70
     1
102
RTVSPost2010Prop48
 90
       50
102
RTVSPost2010PropOp48
 70
     1
102
RTVSPost2010Prop49
280
     0
102
RTVSPost2010PropOp49
 70
     1
102
RTVSPost2010Prop50
 90
       50
102
RTVSPost2010PropOp50
 70
     1
102
RTVSPost2010Prop51ColorIndex
 90
      256
102
RTVSPost2010Prop51ColorRGB
 90
-16777216
102
RTVSPost2010PropOp51
 70
     0
102
RTVSPost2010Prop52
140
1.0
102
RTVSPost2010PropOp52
 70
     0
102
RTVSPost2010Prop53
 90
        2
102
RTVSPost2010PropOp53
 70
     1
102
RTVSPost2010Prop54
  1
strokes_ogs.tif
102
RTVSPost2010PropOp54
 70
     1
102
RTVSPost2010Prop55
280
     0
102
RTVSPost2010PropOp55
 70
     1
102
RTVSPost2010Prop56
140
1.0
102
RTVSPost2010PropOp56
 70
     1
102
RTVSPost2010Prop57
140
1.0
102
RTVSPost2010PropOp57
 70
     1
102
RTVSPropertyOp0
 70
     1
102
RTVSPropertyOp1
 70
     1
102
RTVSPropertyOp2
 70
     1
102
RTVSPropertyOp3
 70
     1
102
RTVSPropertyOp4
 70
     1
102
RTVSPropertyOp5
 70
     1
102
RTVSPropertyOp6
 70
     1
102
RTVSPropertyOp7
 70
     1
102
RTVSPropertyOp8
 70
     1
102
RTVSPropertyOp9
 70
     1
102
RTVSPropertyOp10
 70
     1
102
RTVSPropertyOp11
 70
     1
102
RTVSPropertyOp12
 70
     1
102
RTVSPropertyOp13
 70
     1
102
RTVSPropertyOp14
 70
     1
102
RTVSPropertyOp15
 70
     1
102
RTVSPropertyOp16
 70
     1
102
RTVSPropertyOp17
 70
     1
102
RTVSPropertyOp18
 70
     1
102
RTVSPropertyOp19
 70
     1
102
RTVSPropertyOp20
 70
     1
102
RTVSPropertyOp21
 70
     1
102
RTVSPropertyOp22
 70
     1
102
RTVSPropertyOp23
 70
     1
102
RTVSPropertyOp24
 70
     1
102
RTVSPropertyOp25
 70
     1
102
RTVSPropertyOp26
 70
     1
102
RTVSPropertyOp27
 70
     1
102
RTVSPropertyOp28
 70
     1
102
RTVSPropertyOp29
 70
     1
102
RTVSPropertyOp30
 70
     1
102
RTVSPropertyOp31
 70
     1
102
RTVSPropertyOp32
 70
     1
102
RTVSPropertyOp33
 70
     1
102
RTVSPropertyOp34
 70
     1
102
RTVSPropertyOp35
 70
     1
102
RTVSPropertyOp36
 70
     1
102
RTVSPropertyOp37
 70
     1
102
RTVSPropertyOp38
 70
     1
102
RTVSPropertyOp39
 70
     1
102
RTVSPropertyOp40
 70
     1
102
RTVSPropertyOp41
 70
     1
102
RTVSPropertyOp42
 70
     1
102
RTVSPropertyOp43
 70
     1
102
RTVSPropertyOp44
 70
     1
102
RTVSPropertyOp45
 70
     1
102
RTVSPropertyOp46
 70
     1
102
RTVSPropertyOp47
 70
     1
102
RTVSPropertyOp48
 70
     1
102
RTVSPropertyOp49
 70
     1
102
RTVSPropertyOp50
 70
     1
102
RTVSPropertyOp51
 70
     0
102
RTVSPropertyOp52
 70
     0
102
RTVSPropertyOp53
 70
     1
102
RTVSPropertyOp54
 70
     1
102
RTVSPropertyOp55
 70
     1
102
RTVSPropertyOp56
 70
     1
102
RTVSPropertyOp57
 70
     1
102
RTVSPropertyOp58
 70
     1
102
RTVSPropertyOp59
 70
     1
102
RTVSPropertyOp60
 70
     1
102
RTVSPropertyOp61
 70
     1
102
RTVSPropertyOp62
 70
     1
  0
XRECORD
  5
109F
102
{ACAD_REACTORS
330
109E
102
}
330
109E
100
AcDbXrecord
280
     1
102
RTVSPost2010Prop28
280
     0
102
RTVSPost2010PropOp28
 70
     1
102
RTVSPost2010Prop29
280
     1
102
RTVSPost2010PropOp29
 70
     1
102
RTVSPost2010Prop30
280
     1
102
RTVSPost2010PropOp30
 70
     1
102
RTVSPost2010Prop31
280
     0
102
RTVSPost2010PropOp31
 70
     1
102
RTVSPost2010Prop32
280
     0
102
RTVSPost2010PropOp32
 70
     1
102
RTVSPost2010Prop33
280
     0
102
RTVSPost2010PropOp33
 70
     1
102
RTVSPost2010Prop34
280
     0
102
RTVSPost2010PropOp34
 70
     1
102
RTVSPost2010Prop35
280
     0
102
RTVSPost2010PropOp35
 70
     1
102
RTVSPost2010Prop36
280
     0
102
RTVSPost2010PropOp36
 70
     1
102
RTVSPost2010Prop37
 90
       50
102
RTVSPost2010PropOp37
 70
     1
102
RTVSPost2010Prop38
140
0.0
102
RTVSPost2010PropOp38
 70
     1
102
RTVSPost2010Prop39
140
1.0
102
RTVSPost2010PropOp39
 70
     1
102
RTVSPost2010Prop40
 90
        0
102
RTVSPost2010PropOp40
 70
     1
102
RTVSPost2010Prop41ColorIndex
 90
       18
102
RTVSPost2010Prop41ColorRGB
 90
        0
102
RTVSPost2010PropOp41
 70
     1
102
RTVSPost2010Prop42
 90
       50
102
RTVSPost2010PropOp42
 70
     1
102
RTVSPost2010Prop43
 90
        3
102
RTVSPost2010PropOp43
 70
     1
102
RTVSPost2010Prop44ColorIndex
 90
        5
102
RTVSPost2010Prop44ColorRGB
 90
      255
102
RTVSPost2010PropOp44
 70
     1
102
RTVSPost2010Prop45
280
     0
102
RTVSPost2010PropOp45
 70
     1
102
RTVSPost2010Prop46
 90
       50
102
RTVSPost2010PropOp46
 70
     1
102
RTVSPost2010Prop47
 90
       50
102
RTVSPost2010PropOp47
 70
     1
102
RTVSPost2010Prop48
 90
       50
102
RTVSPost2010PropOp48
 70
     1
102
RTVSPost2010Prop49
280
     0
102
RTVSPost2010PropOp49
 70
     1
102
RTVSPost2010Prop50
 90
       50
102
RTVSPost2010PropOp50
 70
     1
102
RTVSPost2010Prop51ColorIndex
 90
      256
102
RTVSPost2010Prop51ColorRGB
 90
-16777216
102
RTVSPost2010PropOp51
 70
     0
102
RTVSPost2010Prop52
140
1.0
102
RTVSPost2010PropOp52
 70
     0
102
RTVSPost2010Prop53
 90
        2
102
RTVSPost2010PropOp53
 70
     1
102
RTVSPost2010Prop54
  1
strokes_ogs.tif
102
RTVSPost2010PropOp54
 70
     1
102
RTVSPost2010Prop55
280
     0
102
RTVSPost2010PropOp55
 70
     1
102
RTVSPost2010Prop56
140
1.0
102
RTVSPost2010PropOp56
 70
     1
102
RTVSPost2010Prop57
140
1.0
102
RTVSPost2010PropOp57
 70
     1
102
RTVSPropertyOp0
 70
     1
102
RTVSPropertyOp1
 70
     1
102
RTVSPropertyOp2
 70
     1
102
RTVSPropertyOp3
 70
     1
102
RTVSPropertyOp4
 70
     1
102
RTVSPropertyOp5
 70
     1
102
RTVSPropertyOp6
 70
     1
102
RTVSPropertyOp7
 70
     1
102
RTVSPropertyOp8
 70
     1
102
RTVSPropertyOp9
 70
     1
102
RTVSPropertyOp10
 70
     1
102
RTVSPropertyOp11
 70
     1
102
RTVSPropertyOp12
 70
     1
102
RTVSPropertyOp13
 70
     1
102
RTVSPropertyOp14
 70
     1
102
RTVSPropertyOp15
 70
     1
102
RTVSPropertyOp16
 70
     1
102
RTVSPropertyOp17
 70
     1
102
RTVSPropertyOp18
 70
     1
102
RTVSPropertyOp19
 70
     1
102
RTVSPropertyOp20
 70
     1
102
RTVSPropertyOp21
 70
     1
102
RTVSPropertyOp22
 70
     1
102
RTVSPropertyOp23
 70
     1
102
RTVSPropertyOp24
 70
     1
102
RTVSPropertyOp25
 70
     1
102
RTVSPropertyOp26
 70
     1
102
RTVSPropertyOp27
 70
     1
102
RTVSPropertyOp28
 70
     1
102
RTVSPropertyOp29
 70
     1
102
RTVSPropertyOp30
 70
     1
102
RTVSPropertyOp31
 70
     1
102
RTVSPropertyOp32
 70
     1
102
RTVSPropertyOp33
 70
     1
102
RTVSPropertyOp34
 70
     1
102
RTVSPropertyOp35
 70
     1
102
RTVSPropertyOp36
 70
     1
102
RTVSPropertyOp37
 70
     1
102
RTVSPropertyOp38
 70
     1
102
RTVSPropertyOp39
 70
     1
102
RTVSPropertyOp40
 70
     1
102
RTVSPropertyOp41
 70
     1
102
RTVSPropertyOp42
 70
     1
102
RTVSPropertyOp43
 70
     1
102
RTVSPropertyOp44
 70
     1
102
RTVSPropertyOp45
 70
     1
102
RTVSPropertyOp46
 70
     1
102
RTVSPropertyOp47
 70
     1
102
RTVSPropertyOp48
 70
     1
102
RTVSPropertyOp49
 70
     1
102
RTVSPropertyOp50
 70
     1
102
RTVSPropertyOp51
 70
     0
102
RTVSPropertyOp52
 70
     0
102
RTVSPropertyOp53
 70
     1
102
RTVSPropertyOp54
 70
     1
102
RTVSPropertyOp55
 70
     1
102
RTVSPropertyOp56
 70
     1
102
RTVSPropertyOp57
 70
     1
102
RTVSPropertyOp58
 70
     1
102
RTVSPropertyOp59
 70
     1
102
RTVSPropertyOp60
 70
     1
102
RTVSPropertyOp61
 70
     1
102
RTVSPropertyOp62
 70
     1
  0
XRECORD
  5
10AD
102
{ACAD_REACTORS
330
10AC
102
}
330
10AC
100
AcDbXrecord
280
     1
102
RTVSPost2010Prop28
280
     0
102
RTVSPost2010PropOp28
 70
     1
102
RTVSPost2010Prop29
280
     1
102
RTVSPost2010PropOp29
 70
     1
102
RTVSPost2010Prop30
280
     1
102
RTVSPost2010PropOp30
 70
     1
102
RTVSPost2010Prop31
280
     0
102
RTVSPost2010PropOp31
 70
     1
102
RTVSPost2010Prop32
280
     0
102
RTVSPost2010PropOp32
 70
     1
102
RTVSPost2010Prop33
280
     0
102
RTVSPost2010PropOp33
 70
     1
102
RTVSPost2010Prop34
280
     0
102
RTVSPost2010PropOp34
 70
     1
102
RTVSPost2010Prop35
280
     0
102
RTVSPost2010PropOp35
 70
     1
102
RTVSPost2010Prop36
280
     0
102
RTVSPost2010PropOp36
 70
     1
102
RTVSPost2010Prop37
 90
       50
102
RTVSPost2010PropOp37
 70
     1
102
RTVSPost2010Prop38
140
0.0
102
RTVSPost2010PropOp38
 70
     1
102
RTVSPost2010Prop39
140
1.0
102
RTVSPost2010PropOp39
 70
     1
102
RTVSPost2010Prop40
 90
        0
102
RTVSPost2010PropOp40
 70
     1
102
RTVSPost2010Prop41ColorIndex
 90
       18
102
RTVSPost2010Prop41ColorRGB
 90
        0
102
RTVSPost2010PropOp41
 70
     1
102
RTVSPost2010Prop42
 90
       50
102
RTVSPost2010PropOp42
 70
     1
102
RTVSPost2010Prop43
 90
        3
102
RTVSPost2010PropOp43
 70
     1
102
RTVSPost2010Prop44ColorIndex
 90
        5
102
RTVSPost2010Prop44ColorRGB
 90
      255
102
RTVSPost2010PropOp44
 70
     1
102
RTVSPost2010Prop45
280
     0
102
RTVSPost2010PropOp45
 70
     1
102
RTVSPost2010Prop46
 90
       50
102
RTVSPost2010PropOp46
 70
     1
102
RTVSPost2010Prop47
 90
       50
102
RTVSPost2010PropOp47
 70
     1
102
RTVSPost2010Prop48
 90
       50
102
RTVSPost2010PropOp48
 70
     1
102
RTVSPost2010Prop49
280
     0
102
RTVSPost2010PropOp49
 70
     1
102
RTVSPost2010Prop50
 90
       50
102
RTVSPost2010PropOp50
 70
     1
102
RTVSPost2010Prop51ColorIndex
 90
      256
102
RTVSPost2010Prop51ColorRGB
 90
-16777216
102
RTVSPost2010PropOp51
 70
     0
102
RTVSPost2010Prop52
140
1.0
102
RTVSPost2010PropOp52
 70
     0
102
RTVSPost2010Prop53
 90
        2
102
RTVSPost2010PropOp53
 70
     1
102
RTVSPost2010Prop54
  1
strokes_ogs.tif
102
RTVSPost2010PropOp54
 70
     1
102
RTVSPost2010Prop55
280
     0
102
RTVSPost2010PropOp55
 70
     1
102
RTVSPost2010Prop56
140
1.0
102
RTVSPost2010PropOp56
 70
     1
102
RTVSPost2010Prop57
140
1.0
102
RTVSPost2010PropOp57
 70
     1
102
RTVSPropertyOp0
 70
     1
102
RTVSPropertyOp1
 70
     1
102
RTVSPropertyOp2
 70
     1
102
RTVSPropertyOp3
 70
     1
102
RTVSPropertyOp4
 70
     1
102
RTVSPropertyOp5
 70
     1
102
RTVSPropertyOp6
 70
     1
102
RTVSPropertyOp7
 70
     1
102
RTVSPropertyOp8
 70
     1
102
RTVSPropertyOp9
 70
     1
102
RTVSPropertyOp10
 70
     1
102
RTVSPropertyOp11
 70
     1
102
RTVSPropertyOp12
 70
     1
102
RTVSPropertyOp13
 70
     1
102
RTVSPropertyOp14
 70
     1
102
RTVSPropertyOp15
 70
     1
102
RTVSPropertyOp16
 70
     1
102
RTVSPropertyOp17
 70
     1
102
RTVSPropertyOp18
 70
     1
102
RTVSPropertyOp19
 70
     1
102
RTVSPropertyOp20
 70
     1
102
RTVSPropertyOp21
 70
     1
102
RTVSPropertyOp22
 70
     1
102
RTVSPropertyOp23
 70
     1
102
RTVSPropertyOp24
 70
     1
102
RTVSPropertyOp25
 70
     1
102
RTVSPropertyOp26
 70
     1
102
RTVSPropertyOp27
 70
     1
102
RTVSPropertyOp28
 70
     1
102
RTVSPropertyOp29
 70
     1
102
RTVSPropertyOp30
 70
     1
102
RTVSPropertyOp31
 70
     1
102
RTVSPropertyOp32
 70
     1
102
RTVSPropertyOp33
 70
     1
102
RTVSPropertyOp34
 70
     1
102
RTVSPropertyOp35
 70
     1
102
RTVSPropertyOp36
 70
     1
102
RTVSPropertyOp37
 70
     1
102
RTVSPropertyOp38
 70
     1
102
RTVSPropertyOp39
 70
     1
102
RTVSPropertyOp40
 70
     1
102
RTVSPropertyOp41
 70
     1
102
RTVSPropertyOp42
 70
     1
102
RTVSPropertyOp43
 70
     1
102
RTVSPropertyOp44
 70
     1
102
RTVSPropertyOp45
 70
     1
102
RTVSPropertyOp46
 70
     1
102
RTVSPropertyOp47
 70
     1
102
RTVSPropertyOp48
 70
     1
102
RTVSPropertyOp49
 70
     1
102
RTVSPropertyOp50
 70
     1
102
RTVSPropertyOp51
 70
     0
102
RTVSPropertyOp52
 70
     0
102
RTVSPropertyOp53
 70
     1
102
RTVSPropertyOp54
 70
     1
102
RTVSPropertyOp55
 70
     1
102
RTVSPropertyOp56
 70
     1
102
RTVSPropertyOp57
 70
     1
102
RTVSPropertyOp58
 70
     1
102
RTVSPropertyOp59
 70
     1
102
RTVSPropertyOp60
 70
     1
102
RTVSPropertyOp61
 70
     1
102
RTVSPropertyOp62
 70
     1
  0
XRECORD
  5
10B5
102
{ACAD_REACTORS
330
10B4
102
}
330
10B4
100
AcDbXrecord
280
     1
102
RTVSPost2010Prop28
280
     0
102
RTVSPost2010PropOp28
 70
     1
102
RTVSPost2010Prop29
280
     1
102
RTVSPost2010PropOp29
 70
     1
102
RTVSPost2010Prop30
280
     1
102
RTVSPost2010PropOp30
 70
     1
102
RTVSPost2010Prop31
280
     0
102
RTVSPost2010PropOp31
 70
     1
102
RTVSPost2010Prop32
280
     0
102
RTVSPost2010PropOp32
 70
     1
102
RTVSPost2010Prop33
280
     0
102
RTVSPost2010PropOp33
 70
     1
102
RTVSPost2010Prop34
280
     0
102
RTVSPost2010PropOp34
 70
     1
102
RTVSPost2010Prop35
280
     0
102
RTVSPost2010PropOp35
 70
     1
102
RTVSPost2010Prop36
280
     0
102
RTVSPost2010PropOp36
 70
     1
102
RTVSPost2010Prop37
 90
       50
102
RTVSPost2010PropOp37
 70
     1
102
RTVSPost2010Prop38
140
0.0
102
RTVSPost2010PropOp38
 70
     1
102
RTVSPost2010Prop39
140
1.0
102
RTVSPost2010PropOp39
 70
     1
102
RTVSPost2010Prop40
 90
        0
102
RTVSPost2010PropOp40
 70
     1
102
RTVSPost2010Prop41ColorIndex
 90
       18
102
RTVSPost2010Prop41ColorRGB
 90
        0
102
RTVSPost2010PropOp41
 70
     1
102
RTVSPost2010Prop42
 90
       50
102
RTVSPost2010PropOp42
 70
     1
102
RTVSPost2010Prop43
 90
        3
102
RTVSPost2010PropOp43
 70
     1
102
RTVSPost2010Prop44ColorIndex
 90
        5
102
RTVSPost2010Prop44ColorRGB
 90
      255
102
RTVSPost2010PropOp44
 70
     1
102
RTVSPost2010Prop45
280
     0
102
RTVSPost2010PropOp45
 70
     1
102
RTVSPost2010Prop46
 90
       50
102
RTVSPost2010PropOp46
 70
     1
102
RTVSPost2010Prop47
 90
       50
102
RTVSPost2010PropOp47
 70
     1
102
RTVSPost2010Prop48
 90
       50
102
RTVSPost2010PropOp48
 70
     1
102
RTVSPost2010Prop49
280
     0
102
RTVSPost2010PropOp49
 70
     1
102
RTVSPost2010Prop50
 90
       50
102
RTVSPost2010PropOp50
 70
     1
102
RTVSPost2010Prop51ColorIndex
 90
      256
102
RTVSPost2010Prop51ColorRGB
 90
-16777216
102
RTVSPost2010PropOp51
 70
     0
102
RTVSPost2010Prop52
140
1.0
102
RTVSPost2010PropOp52
 70
     0
102
RTVSPost2010Prop53
 90
        2
102
RTVSPost2010PropOp53
 70
     1
102
RTVSPost2010Prop54
  1
strokes_ogs.tif
102
RTVSPost2010PropOp54
 70
     1
102
RTVSPost2010Prop55
280
     0
102
RTVSPost2010PropOp55
 70
     1
102
RTVSPost2010Prop56
140
1.0
102
RTVSPost2010PropOp56
 70
     1
102
RTVSPost2010Prop57
140
1.0
102
RTVSPost2010PropOp57
 70
     1
102
RTVSPropertyOp0
 70
     1
102
RTVSPropertyOp1
 70
     1
102
RTVSPropertyOp2
 70
     1
102
RTVSPropertyOp3
 70
     1
102
RTVSPropertyOp4
 70
     1
102
RTVSPropertyOp5
 70
     1
102
RTVSPropertyOp6
 70
     1
102
RTVSPropertyOp7
 70
     1
102
RTVSPropertyOp8
 70
     1
102
RTVSPropertyOp9
 70
     1
102
RTVSPropertyOp10
 70
     1
102
RTVSPropertyOp11
 70
     1
102
RTVSPropertyOp12
 70
     1
102
RTVSPropertyOp13
 70
     1
102
RTVSPropertyOp14
 70
     1
102
RTVSPropertyOp15
 70
     1
102
RTVSPropertyOp16
 70
     1
102
RTVSPropertyOp17
 70
     1
102
RTVSPropertyOp18
 70
     1
102
RTVSPropertyOp19
 70
     1
102
RTVSPropertyOp20
 70
     1
102
RTVSPropertyOp21
 70
     1
102
RTVSPropertyOp22
 70
     1
102
RTVSPropertyOp23
 70
     1
102
RTVSPropertyOp24
 70
     1
102
RTVSPropertyOp25
 70
     1
102
RTVSPropertyOp26
 70
     1
102
RTVSPropertyOp27
 70
     1
102
RTVSPropertyOp28
 70
     1
102
RTVSPropertyOp29
 70
     1
102
RTVSPropertyOp30
 70
     1
102
RTVSPropertyOp31
 70
     1
102
RTVSPropertyOp32
 70
     1
102
RTVSPropertyOp33
 70
     1
102
RTVSPropertyOp34
 70
     1
102
RTVSPropertyOp35
 70
     1
102
RTVSPropertyOp36
 70
     1
102
RTVSPropertyOp37
 70
     1
102
RTVSPropertyOp38
 70
     1
102
RTVSPropertyOp39
 70
     1
102
RTVSPropertyOp40
 70
     1
102
RTVSPropertyOp41
 70
     1
102
RTVSPropertyOp42
 70
     1
102
RTVSPropertyOp43
 70
     1
102
RTVSPropertyOp44
 70
     1
102
RTVSPropertyOp45
 70
     1
102
RTVSPropertyOp46
 70
     1
102
RTVSPropertyOp47
 70
     1
102
RTVSPropertyOp48
 70
     1
102
RTVSPropertyOp49
 70
     1
102
RTVSPropertyOp50
 70
     1
102
RTVSPropertyOp51
 70
     0
102
RTVSPropertyOp52
 70
     0
102
RTVSPropertyOp53
 70
     1
102
RTVSPropertyOp54
 70
     1
102
RTVSPropertyOp55
 70
     1
102
RTVSPropertyOp56
 70
     1
102
RTVSPropertyOp57
 70
     1
102
RTVSPropertyOp58
 70
     1
102
RTVSPropertyOp59
 70
     1
102
RTVSPropertyOp60
 70
     1
102
RTVSPropertyOp61
 70
     1
102
RTVSPropertyOp62
 70
     1
  0
XRECORD
  5
10A7
102
{ACAD_REACTORS
330
10A6
102
}
330
10A6
100
AcDbXrecord
280
     1
102
RTVSPost2010Prop28
280
     0
102
RTVSPost2010PropOp28
 70
     1
102
RTVSPost2010Prop29
280
     1
102
RTVSPost2010PropOp29
 70
     1
102
RTVSPost2010Prop30
280
     1
102
RTVSPost2010PropOp30
 70
     1
102
RTVSPost2010Prop31
280
     0
102
RTVSPost2010PropOp31
 70
     1
102
RTVSPost2010Prop32
280
     0
102
RTVSPost2010PropOp32
 70
     1
102
RTVSPost2010Prop33
280
     0
102
RTVSPost2010PropOp33
 70
     1
102
RTVSPost2010Prop34
280
     0
102
RTVSPost2010PropOp34
 70
     1
102
RTVSPost2010Prop35
280
     0
102
RTVSPost2010PropOp35
 70
     1
102
RTVSPost2010Prop36
280
     0
102
RTVSPost2010PropOp36
 70
     1
102
RTVSPost2010Prop37
 90
       50
102
RTVSPost2010PropOp37
 70
     1
102
RTVSPost2010Prop38
140
0.0
102
RTVSPost2010PropOp38
 70
     1
102
RTVSPost2010Prop39
140
1.0
102
RTVSPost2010PropOp39
 70
     1
102
RTVSPost2010Prop40
 90
        0
102
RTVSPost2010PropOp40
 70
     1
102
RTVSPost2010Prop41ColorIndex
 90
       18
102
RTVSPost2010Prop41ColorRGB
 90
        0
102
RTVSPost2010PropOp41
 70
     1
102
RTVSPost2010Prop42
 90
       50
102
RTVSPost2010PropOp42
 70
     1
102
RTVSPost2010Prop43
 90
        3
102
RTVSPost2010PropOp43
 70
     1
102
RTVSPost2010Prop44ColorIndex
 90
        5
102
RTVSPost2010Prop44ColorRGB
 90
      255
102
RTVSPost2010PropOp44
 70
     1
102
RTVSPost2010Prop45
280
     0
102
RTVSPost2010PropOp45
 70
     1
102
RTVSPost2010Prop46
 90
       50
102
RTVSPost2010PropOp46
 70
     1
102
RTVSPost2010Prop47
 90
       50
102
RTVSPost2010PropOp47
 70
     1
102
RTVSPost2010Prop48
 90
       50
102
RTVSPost2010PropOp48
 70
     1
102
RTVSPost2010Prop49
280
     0
102
RTVSPost2010PropOp49
 70
     1
102
RTVSPost2010Prop50
 90
       50
102
RTVSPost2010PropOp50
 70
     1
102
RTVSPost2010Prop51ColorIndex
 90
      256
102
RTVSPost2010Prop51ColorRGB
 90
-16777216
102
RTVSPost2010PropOp51
 70
     0
102
RTVSPost2010Prop52
140
1.0
102
RTVSPost2010PropOp52
 70
     0
102
RTVSPost2010Prop53
 90
        2
102
RTVSPost2010PropOp53
 70
     1
102
RTVSPost2010Prop54
  1
strokes_ogs.tif
102
RTVSPost2010PropOp54
 70
     1
102
RTVSPost2010Prop55
280
     0
102
RTVSPost2010PropOp55
 70
     1
102
RTVSPost2010Prop56
140
1.0
102
RTVSPost2010PropOp56
 70
     1
102
RTVSPost2010Prop57
140
1.0
102
RTVSPost2010PropOp57
 70
     1
102
RTVSPropertyOp0
 70
     1
102
RTVSPropertyOp1
 70
     1
102
RTVSPropertyOp2
 70
     1
102
RTVSPropertyOp3
 70
     1
102
RTVSPropertyOp4
 70
     1
102
RTVSPropertyOp5
 70
     1
102
RTVSPropertyOp6
 70
     1
102
RTVSPropertyOp7
 70
     1
102
RTVSPropertyOp8
 70
     1
102
RTVSPropertyOp9
 70
     1
102
RTVSPropertyOp10
 70
     1
102
RTVSPropertyOp11
 70
     1
102
RTVSPropertyOp12
 70
     1
102
RTVSPropertyOp13
 70
     1
102
RTVSPropertyOp14
 70
     1
102
RTVSPropertyOp15
 70
     1
102
RTVSPropertyOp16
 70
     1
102
RTVSPropertyOp17
 70
     1
102
RTVSPropertyOp18
 70
     1
102
RTVSPropertyOp19
 70
     1
102
RTVSPropertyOp20
 70
     1
102
RTVSPropertyOp21
 70
     1
102
RTVSPropertyOp22
 70
     1
102
RTVSPropertyOp23
 70
     1
102
RTVSPropertyOp24
 70
     1
102
RTVSPropertyOp25
 70
     1
102
RTVSPropertyOp26
 70
     1
102
RTVSPropertyOp27
 70
     1
102
RTVSPropertyOp28
 70
     1
102
RTVSPropertyOp29
 70
     1
102
RTVSPropertyOp30
 70
     1
102
RTVSPropertyOp31
 70
     1
102
RTVSPropertyOp32
 70
     1
102
RTVSPropertyOp33
 70
     1
102
RTVSPropertyOp34
 70
     1
102
RTVSPropertyOp35
 70
     1
102
RTVSPropertyOp36
 70
     1
102
RTVSPropertyOp37
 70
     1
102
RTVSPropertyOp38
 70
     1
102
RTVSPropertyOp39
 70
     1
102
RTVSPropertyOp40
 70
     1
102
RTVSPropertyOp41
 70
     1
102
RTVSPropertyOp42
 70
     1
102
RTVSPropertyOp43
 70
     1
102
RTVSPropertyOp44
 70
     1
102
RTVSPropertyOp45
 70
     1
102
RTVSPropertyOp46
 70
     1
102
RTVSPropertyOp47
 70
     1
102
RTVSPropertyOp48
 70
     1
102
RTVSPropertyOp49
 70
     1
102
RTVSPropertyOp50
 70
     1
102
RTVSPropertyOp51
 70
     0
102
RTVSPropertyOp52
 70
     0
102
RTVSPropertyOp53
 70
     1
102
RTVSPropertyOp54
 70
     1
102
RTVSPropertyOp55
 70
     1
102
RTVSPropertyOp56
 70
     1
102
RTVSPropertyOp57
 70
     1
102
RTVSPropertyOp58
 70
     1
102
RTVSPropertyOp59
 70
     1
102
RTVSPropertyOp60
 70
     1
102
RTVSPropertyOp61
 70
     1
102
RTVSPropertyOp62
 70
     1
  0
XRECORD
  5
10AB
102
{ACAD_REACTORS
330
10AA
102
}
330
10AA
100
AcDbXrecord
280
     1
102
RTVSPost2010Prop28
280
     0
102
RTVSPost2010PropOp28
 70
     1
102
RTVSPost2010Prop29
280
     1
102
RTVSPost2010PropOp29
 70
     1
102
RTVSPost2010Prop30
280
     1
102
RTVSPost2010PropOp30
 70
     1
102
RTVSPost2010Prop31
280
     0
102
RTVSPost2010PropOp31
 70
     1
102
RTVSPost2010Prop32
280
     0
102
RTVSPost2010PropOp32
 70
     1
102
RTVSPost2010Prop33
280
     0
102
RTVSPost2010PropOp33
 70
     1
102
RTVSPost2010Prop34
280
     0
102
RTVSPost2010PropOp34
 70
     1
102
RTVSPost2010Prop35
280
     0
102
RTVSPost2010PropOp35
 70
     1
102
RTVSPost2010Prop36
280
     0
102
RTVSPost2010PropOp36
 70
     1
102
RTVSPost2010Prop37
 90
       50
102
RTVSPost2010PropOp37
 70
     1
102
RTVSPost2010Prop38
140
0.0
102
RTVSPost2010PropOp38
 70
     1
102
RTVSPost2010Prop39
140
1.0
102
RTVSPost2010PropOp39
 70
     1
102
RTVSPost2010Prop40
 90
        0
102
RTVSPost2010PropOp40
 70
     1
102
RTVSPost2010Prop41ColorIndex
 90
       18
102
RTVSPost2010Prop41ColorRGB
 90
        0
102
RTVSPost2010PropOp41
 70
     1
102
RTVSPost2010Prop42
 90
       50
102
RTVSPost2010PropOp42
 70
     1
102
RTVSPost2010Prop43
 90
        3
102
RTVSPost2010PropOp43
 70
     1
102
RTVSPost2010Prop44ColorIndex
 90
        5
102
RTVSPost2010Prop44ColorRGB
 90
      255
102
RTVSPost2010PropOp44
 70
     1
102
RTVSPost2010Prop45
280
     0
102
RTVSPost2010PropOp45
 70
     1
102
RTVSPost2010Prop46
 90
       50
102
RTVSPost2010PropOp46
 70
     1
102
RTVSPost2010Prop47
 90
       50
102
RTVSPost2010PropOp47
 70
     1
102
RTVSPost2010Prop48
 90
       50
102
RTVSPost2010PropOp48
 70
     1
102
RTVSPost2010Prop49
280
     0
102
RTVSPost2010PropOp49
 70
     1
102
RTVSPost2010Prop50
 90
       50
102
RTVSPost2010PropOp50
 70
     1
102
RTVSPost2010Prop51ColorIndex
 90
      256
102
RTVSPost2010Prop51ColorRGB
 90
-16777216
102
RTVSPost2010PropOp51
 70
     0
102
RTVSPost2010Prop52
140
1.0
102
RTVSPost2010PropOp52
 70
     0
102
RTVSPost2010Prop53
 90
        2
102
RTVSPost2010PropOp53
 70
     1
102
RTVSPost2010Prop54
  1
strokes_ogs.tif
102
RTVSPost2010PropOp54
 70
     1
102
RTVSPost2010Prop55
280
     0
102
RTVSPost2010PropOp55
 70
     1
102
RTVSPost2010Prop56
140
1.0
102
RTVSPost2010PropOp56
 70
     1
102
RTVSPost2010Prop57
140
1.0
102
RTVSPost2010PropOp57
 70
     1
102
RTVSPropertyOp0
 70
     1
102
RTVSPropertyOp1
 70
     1
102
RTVSPropertyOp2
 70
     1
102
RTVSPropertyOp3
 70
     1
102
RTVSPropertyOp4
 70
     1
102
RTVSPropertyOp5
 70
     1
102
RTVSPropertyOp6
 70
     1
102
RTVSPropertyOp7
 70
     1
102
RTVSPropertyOp8
 70
     1
102
RTVSPropertyOp9
 70
     1
102
RTVSPropertyOp10
 70
     1
102
RTVSPropertyOp11
 70
     1
102
RTVSPropertyOp12
 70
     1
102
RTVSPropertyOp13
 70
     1
102
RTVSPropertyOp14
 70
     1
102
RTVSPropertyOp15
 70
     1
102
RTVSPropertyOp16
 70
     1
102
RTVSPropertyOp17
 70
     1
102
RTVSPropertyOp18
 70
     1
102
RTVSPropertyOp19
 70
     1
102
RTVSPropertyOp20
 70
     1
102
RTVSPropertyOp21
 70
     1
102
RTVSPropertyOp22
 70
     1
102
RTVSPropertyOp23
 70
     1
102
RTVSPropertyOp24
 70
     1
102
RTVSPropertyOp25
 70
     1
102
RTVSPropertyOp26
 70
     1
102
RTVSPropertyOp27
 70
     1
102
RTVSPropertyOp28
 70
     1
102
RTVSPropertyOp29
 70
     1
102
RTVSPropertyOp30
 70
     1
102
RTVSPropertyOp31
 70
     1
102
RTVSPropertyOp32
 70
     1
102
RTVSPropertyOp33
 70
     1
102
RTVSPropertyOp34
 70
     1
102
RTVSPropertyOp35
 70
     1
102
RTVSPropertyOp36
 70
     1
102
RTVSPropertyOp37
 70
     1
102
RTVSPropertyOp38
 70
     1
102
RTVSPropertyOp39
 70
     1
102
RTVSPropertyOp40
 70
     1
102
RTVSPropertyOp41
 70
     1
102
RTVSPropertyOp42
 70
     1
102
RTVSPropertyOp43
 70
     1
102
RTVSPropertyOp44
 70
     1
102
RTVSPropertyOp45
 70
     1
102
RTVSPropertyOp46
 70
     1
102
RTVSPropertyOp47
 70
     1
102
RTVSPropertyOp48
 70
     1
102
RTVSPropertyOp49
 70
     1
102
RTVSPropertyOp50
 70
     1
102
RTVSPropertyOp51
 70
     0
102
RTVSPropertyOp52
 70
     0
102
RTVSPropertyOp53
 70
     1
102
RTVSPropertyOp54
 70
     1
102
RTVSPropertyOp55
 70
     1
102
RTVSPropertyOp56
 70
     1
102
RTVSPropertyOp57
 70
     1
102
RTVSPropertyOp58
 70
     1
102
RTVSPropertyOp59
 70
     1
102
RTVSPropertyOp60
 70
     1
102
RTVSPropertyOp61
 70
     1
102
RTVSPropertyOp62
 70
     1
  0
XRECORD
  5
10C5
102
{ACAD_REACTORS
330
10C4
102
}
330
10C4
100
AcDbXrecord
280
     1
102
RTVSPost2010Prop28
280
     0
102
RTVSPost2010PropOp28
 70
     1
102
RTVSPost2010Prop29
280
     1
102
RTVSPost2010PropOp29
 70
     1
102
RTVSPost2010Prop30
280
     1
102
RTVSPost2010PropOp30
 70
     1
102
RTVSPost2010Prop31
280
     0
102
RTVSPost2010PropOp31
 70
     1
102
RTVSPost2010Prop32
280
     0
102
RTVSPost2010PropOp32
 70
     1
102
RTVSPost2010Prop33
280
     0
102
RTVSPost2010PropOp33
 70
     1
102
RTVSPost2010Prop34
280
     0
102
RTVSPost2010PropOp34
 70
     1
102
RTVSPost2010Prop35
280
     0
102
RTVSPost2010PropOp35
 70
     1
102
RTVSPost2010Prop36
280
     0
102
RTVSPost2010PropOp36
 70
     1
102
RTVSPost2010Prop37
 90
       50
102
RTVSPost2010PropOp37
 70
     0
102
RTVSPost2010Prop38
140
0.0
102
RTVSPost2010PropOp38
 70
     0
102
RTVSPost2010Prop39
140
1.0
102
RTVSPost2010PropOp39
 70
     0
102
RTVSPost2010Prop40
 90
        0
102
RTVSPost2010PropOp40
 70
     0
102
RTVSPost2010Prop41ColorIndex
 90
       18
102
RTVSPost2010Prop41ColorRGB
 90
        0
102
RTVSPost2010PropOp41
 70
     0
102
RTVSPost2010Prop42
 90
       50
102
RTVSPost2010PropOp42
 70
     0
102
RTVSPost2010Prop43
 90
        3
102
RTVSPost2010PropOp43
 70
     0
102
RTVSPost2010Prop44ColorIndex
 90
        5
102
RTVSPost2010Prop44ColorRGB
 90
      255
102
RTVSPost2010PropOp44
 70
     0
102
RTVSPost2010Prop45
280
     0
102
RTVSPost2010PropOp45
 70
     1
102
RTVSPost2010Prop46
 90
       50
102
RTVSPost2010PropOp46
 70
     0
102
RTVSPost2010Prop47
 90
       50
102
RTVSPost2010PropOp47
 70
     0
102
RTVSPost2010Prop48
 90
       50
102
RTVSPost2010PropOp48
 70
     0
102
RTVSPost2010Prop49
280
     0
102
RTVSPost2010PropOp49
 70
     1
102
RTVSPost2010Prop50
 90
       50
102
RTVSPost2010PropOp50
 70
     0
102
RTVSPost2010Prop51ColorIndex
 90
      256
102
RTVSPost2010Prop51ColorRGB
 90
-16777216
102
RTVSPost2010PropOp51
 70
     0
102
RTVSPost2010Prop52
140
1.0
102
RTVSPost2010PropOp52
 70
     0
102
RTVSPost2010Prop53
 90
        2
102
RTVSPost2010PropOp53
 70
     0
102
RTVSPost2010Prop54
  1
strokes_ogs.tif
102
RTVSPost2010PropOp54
 70
     0
102
RTVSPost2010Prop55
280
     0
102
RTVSPost2010PropOp55
 70
     1
102
RTVSPost2010Prop56
140
1.0
102
RTVSPost2010PropOp56
 70
     0
102
RTVSPost2010Prop57
140
1.0
102
RTVSPost2010PropOp57
 70
     0
102
RTVSPropertyOp0
 70
     0
102
RTVSPropertyOp1
 70
     0
102
RTVSPropertyOp2
 70
     0
102
RTVSPropertyOp3
 70
     0
102
RTVSPropertyOp4
 70
     0
102
RTVSPropertyOp5
 70
     0
102
RTVSPropertyOp6
 70
     0
102
RTVSPropertyOp7
 70
     0
102
RTVSPropertyOp8
 70
     0
102
RTVSPropertyOp9
 70
     0
102
RTVSPropertyOp10
 70
     0
102
RTVSPropertyOp11
 70
     0
102
RTVSPropertyOp12
 70
     0
102
RTVSPropertyOp13
 70
     0
102
RTVSPropertyOp14
 70
     2
102
RTVSPropertyOp15
 70
     0
102
RTVSPropertyOp16
 70
     0
102
RTVSPropertyOp17
 70
     0
102
RTVSPropertyOp18
 70
     0
102
RTVSPropertyOp19
 70
     0
102
RTVSPropertyOp20
 70
     0
102
RTVSPropertyOp21
 70
     0
102
RTVSPropertyOp22
 70
     0
102
RTVSPropertyOp23
 70
     0
102
RTVSPropertyOp24
 70
     0
102
RTVSPropertyOp25
 70
     0
102
RTVSPropertyOp26
 70
     0
102
RTVSPropertyOp27
 70
     0
102
RTVSPropertyOp28
 70
     1
102
RTVSPropertyOp29
 70
     1
102
RTVSPropertyOp30
 70
     1
102
RTVSPropertyOp31
 70
     1
102
RTVSPropertyOp32
 70
     1
102
RTVSPropertyOp33
 70
     1
102
RTVSPropertyOp34
 70
     1
102
RTVSPropertyOp35
 70
     1
102
RTVSPropertyOp36
 70
     1
102
RTVSPropertyOp37
 70
     0
102
RTVSPropertyOp38
 70
     0
102
RTVSPropertyOp39
 70
     0
102
RTVSPropertyOp40
 70
     0
102
RTVSPropertyOp41
 70
     0
102
RTVSPropertyOp42
 70
     0
102
RTVSPropertyOp43
 70
     0
102
RTVSPropertyOp44
 70
     0
102
RTVSPropertyOp45
 70
     1
102
RTVSPropertyOp46
 70
     0
102
RTVSPropertyOp47
 70
     0
102
RTVSPropertyOp48
 70
     0
102
RTVSPropertyOp49
 70
     1
102
RTVSPropertyOp50
 70
     0
102
RTVSPropertyOp51
 70
     0
102
RTVSPropertyOp52
 70
     0
102
RTVSPropertyOp53
 70
     0
102
RTVSPropertyOp54
 70
     0
102
RTVSPropertyOp55
 70
     1
102
RTVSPropertyOp56
 70
     0
102
RTVSPropertyOp57
 70
     0
102
RTVSPropertyOp58
 70
     0
102
RTVSPropertyOp59
 70
     0
102
RTVSPropertyOp60
 70
     0
102
RTVSPropertyOp61
 70
     0
102
RTVSPropertyOp62
 70
     0
  0
XRECORD
  5
10B3
102
{ACAD_REACTORS
330
10B2
102
}
330
10B2
100
AcDbXrecord
280
     1
102
RTVSPost2010Prop28
280
     0
102
RTVSPost2010PropOp28
 70
     1
102
RTVSPost2010Prop29
280
     1
102
RTVSPost2010PropOp29
 70
     1
102
RTVSPost2010Prop30
280
     1
102
RTVSPost2010PropOp30
 70
     1
102
RTVSPost2010Prop31
280
     0
102
RTVSPost2010PropOp31
 70
     1
102
RTVSPost2010Prop32
280
     0
102
RTVSPost2010PropOp32
 70
     1
102
RTVSPost2010Prop33
280
     0
102
RTVSPost2010PropOp33
 70
     1
102
RTVSPost2010Prop34
280
     0
102
RTVSPost2010PropOp34
 70
     1
102
RTVSPost2010Prop35
280
     0
102
RTVSPost2010PropOp35
 70
     1
102
RTVSPost2010Prop36
280
     0
102
RTVSPost2010PropOp36
 70
     1
102
RTVSPost2010Prop37
 90
       50
102
RTVSPost2010PropOp37
 70
     1
102
RTVSPost2010Prop38
140
0.0
102
RTVSPost2010PropOp38
 70
     1
102
RTVSPost2010Prop39
140
1.0
102
RTVSPost2010PropOp39
 70
     1
102
RTVSPost2010Prop40
 90
        0
102
RTVSPost2010PropOp40
 70
     1
102
RTVSPost2010Prop41ColorIndex
 90
       18
102
RTVSPost2010Prop41ColorRGB
 90
        0
102
RTVSPost2010PropOp41
 70
     1
102
RTVSPost2010Prop42
 90
       50
102
RTVSPost2010PropOp42
 70
     1
102
RTVSPost2010Prop43
 90
        3
102
RTVSPost2010PropOp43
 70
     1
102
RTVSPost2010Prop44ColorIndex
 90
        5
102
RTVSPost2010Prop44ColorRGB
 90
      255
102
RTVSPost2010PropOp44
 70
     1
102
RTVSPost2010Prop45
280
     0
102
RTVSPost2010PropOp45
 70
     1
102
RTVSPost2010Prop46
 90
       50
102
RTVSPost2010PropOp46
 70
     1
102
RTVSPost2010Prop47
 90
       50
102
RTVSPost2010PropOp47
 70
     1
102
RTVSPost2010Prop48
 90
       50
102
RTVSPost2010PropOp48
 70
     1
102
RTVSPost2010Prop49
280
     0
102
RTVSPost2010PropOp49
 70
     1
102
RTVSPost2010Prop50
 90
       50
102
RTVSPost2010PropOp50
 70
     1
102
RTVSPost2010Prop51ColorIndex
 90
      256
102
RTVSPost2010Prop51ColorRGB
 90
-16777216
102
RTVSPost2010PropOp51
 70
     0
102
RTVSPost2010Prop52
140
1.0
102
RTVSPost2010PropOp52
 70
     0
102
RTVSPost2010Prop53
 90
        2
102
RTVSPost2010PropOp53
 70
     1
102
RTVSPost2010Prop54
  1
strokes_ogs.tif
102
RTVSPost2010PropOp54
 70
     1
102
RTVSPost2010Prop55
280
     0
102
RTVSPost2010PropOp55
 70
     1
102
RTVSPost2010Prop56
140
1.0
102
RTVSPost2010PropOp56
 70
     1
102
RTVSPost2010Prop57
140
1.0
102
RTVSPost2010PropOp57
 70
     1
102
RTVSPropertyOp0
 70
     1
102
RTVSPropertyOp1
 70
     1
102
RTVSPropertyOp2
 70
     1
102
RTVSPropertyOp3
 70
     1
102
RTVSPropertyOp4
 70
     1
102
RTVSPropertyOp5
 70
     1
102
RTVSPropertyOp6
 70
     1
102
RTVSPropertyOp7
 70
     1
102
RTVSPropertyOp8
 70
     1
102
RTVSPropertyOp9
 70
     1
102
RTVSPropertyOp10
 70
     1
102
RTVSPropertyOp11
 70
     1
102
RTVSPropertyOp12
 70
     1
102
RTVSPropertyOp13
 70
     1
102
RTVSPropertyOp14
 70
     1
102
RTVSPropertyOp15
 70
     1
102
RTVSPropertyOp16
 70
     1
102
RTVSPropertyOp17
 70
     1
102
RTVSPropertyOp18
 70
     1
102
RTVSPropertyOp19
 70
     1
102
RTVSPropertyOp20
 70
     1
102
RTVSPropertyOp21
 70
     1
102
RTVSPropertyOp22
 70
     1
102
RTVSPropertyOp23
 70
     1
102
RTVSPropertyOp24
 70
     1
102
RTVSPropertyOp25
 70
     1
102
RTVSPropertyOp26
 70
     1
102
RTVSPropertyOp27
 70
     1
102
RTVSPropertyOp28
 70
     1
102
RTVSPropertyOp29
 70
     1
102
RTVSPropertyOp30
 70
     1
102
RTVSPropertyOp31
 70
     1
102
RTVSPropertyOp32
 70
     1
102
RTVSPropertyOp33
 70
     1
102
RTVSPropertyOp34
 70
     1
102
RTVSPropertyOp35
 70
     1
102
RTVSPropertyOp36
 70
     1
102
RTVSPropertyOp37
 70
     1
102
RTVSPropertyOp38
 70
     1
102
RTVSPropertyOp39
 70
     1
102
RTVSPropertyOp40
 70
     1
102
RTVSPropertyOp41
 70
     1
102
RTVSPropertyOp42
 70
     1
102
RTVSPropertyOp43
 70
     1
102
RTVSPropertyOp44
 70
     1
102
RTVSPropertyOp45
 70
     1
102
RTVSPropertyOp46
 70
     1
102
RTVSPropertyOp47
 70
     1
102
RTVSPropertyOp48
 70
     1
102
RTVSPropertyOp49
 70
     1
102
RTVSPropertyOp50
 70
     1
102
RTVSPropertyOp51
 70
     0
102
RTVSPropertyOp52
 70
     0
102
RTVSPropertyOp53
 70
     1
102
RTVSPropertyOp54
 70
     1
102
RTVSPropertyOp55
 70
     1
102
RTVSPropertyOp56
 70
     1
102
RTVSPropertyOp57
 70
     1
102
RTVSPropertyOp58
 70
     1
102
RTVSPropertyOp59
 70
     1
102
RTVSPropertyOp60
 70
     1
102
RTVSPropertyOp61
 70
     1
102
RTVSPropertyOp62
 70
     1
  0
XRECORD
  5
1097
102
{ACAD_REACTORS
330
1096
102
}
330
1096
100
AcDbXrecord
280
     1
102
RTVSPost2010Prop28
280
     0
102
RTVSPost2010PropOp28
 70
     1
102
RTVSPost2010Prop29
280
     1
102
RTVSPost2010PropOp29
 70
     1
102
RTVSPost2010Prop30
280
     1
102
RTVSPost2010PropOp30
 70
     1
102
RTVSPost2010Prop31
280
     0
102
RTVSPost2010PropOp31
 70
     1
102
RTVSPost2010Prop32
280
     0
102
RTVSPost2010PropOp32
 70
     1
102
RTVSPost2010Prop33
280
     0
102
RTVSPost2010PropOp33
 70
     1
102
RTVSPost2010Prop34
280
     0
102
RTVSPost2010PropOp34
 70
     1
102
RTVSPost2010Prop35
280
     0
102
RTVSPost2010PropOp35
 70
     1
102
RTVSPost2010Prop36
280
     0
102
RTVSPost2010PropOp36
 70
     1
102
RTVSPost2010Prop37
 90
       50
102
RTVSPost2010PropOp37
 70
     1
102
RTVSPost2010Prop38
140
0.0
102
RTVSPost2010PropOp38
 70
     1
102
RTVSPost2010Prop39
140
1.0
102
RTVSPost2010PropOp39
 70
     1
102
RTVSPost2010Prop40
 90
        0
102
RTVSPost2010PropOp40
 70
     1
102
RTVSPost2010Prop41ColorIndex
 90
       18
102
RTVSPost2010Prop41ColorRGB
 90
        0
102
RTVSPost2010PropOp41
 70
     1
102
RTVSPost2010Prop42
 90
       50
102
RTVSPost2010PropOp42
 70
     1
102
RTVSPost2010Prop43
 90
        3
102
RTVSPost2010PropOp43
 70
     1
102
RTVSPost2010Prop44ColorIndex
 90
        5
102
RTVSPost2010Prop44ColorRGB
 90
      255
102
RTVSPost2010PropOp44
 70
     1
102
RTVSPost2010Prop45
280
     0
102
RTVSPost2010PropOp45
 70
     1
102
RTVSPost2010Prop46
 90
       50
102
RTVSPost2010PropOp46
 70
     1
102
RTVSPost2010Prop47
 90
       50
102
RTVSPost2010PropOp47
 70
     1
102
RTVSPost2010Prop48
 90
       50
102
RTVSPost2010PropOp48
 70
     1
102
RTVSPost2010Prop49
280
     0
102
RTVSPost2010PropOp49
 70
     1
102
RTVSPost2010Prop50
 90
       50
102
RTVSPost2010PropOp50
 70
     1
102
RTVSPost2010Prop51ColorIndex
 90
      256
102
RTVSPost2010Prop51ColorRGB
 90
-16777216
102
RTVSPost2010PropOp51
 70
     0
102
RTVSPost2010Prop52
140
1.0
102
RTVSPost2010PropOp52
 70
     0
102
RTVSPost2010Prop53
 90
        2
102
RTVSPost2010PropOp53
 70
     1
102
RTVSPost2010Prop54
  1
strokes_ogs.tif
102
RTVSPost2010PropOp54
 70
     1
102
RTVSPost2010Prop55
280
     0
102
RTVSPost2010PropOp55
 70
     1
102
RTVSPost2010Prop56
140
1.0
102
RTVSPost2010PropOp56
 70
     1
102
RTVSPost2010Prop57
140
1.0
102
RTVSPost2010PropOp57
 70
     1
102
RTVSPropertyOp0
 70
     1
102
RTVSPropertyOp1
 70
     1
102
RTVSPropertyOp2
 70
     1
102
RTVSPropertyOp3
 70
     1
102
RTVSPropertyOp4
 70
     1
102
RTVSPropertyOp5
 70
     1
102
RTVSPropertyOp6
 70
     1
102
RTVSPropertyOp7
 70
     1
102
RTVSPropertyOp8
 70
     1
102
RTVSPropertyOp9
 70
     1
102
RTVSPropertyOp10
 70
     1
102
RTVSPropertyOp11
 70
     1
102
RTVSPropertyOp12
 70
     1
102
RTVSPropertyOp13
 70
     1
102
RTVSPropertyOp14
 70
     1
102
RTVSPropertyOp15
 70
     1
102
RTVSPropertyOp16
 70
     1
102
RTVSPropertyOp17
 70
     1
102
RTVSPropertyOp18
 70
     1
102
RTVSPropertyOp19
 70
     1
102
RTVSPropertyOp20
 70
     1
102
RTVSPropertyOp21
 70
     1
102
RTVSPropertyOp22
 70
     1
102
RTVSPropertyOp23
 70
     1
102
RTVSPropertyOp24
 70
     1
102
RTVSPropertyOp25
 70
     1
102
RTVSPropertyOp26
 70
     1
102
RTVSPropertyOp27
 70
     1
102
RTVSPropertyOp28
 70
     1
102
RTVSPropertyOp29
 70
     1
102
RTVSPropertyOp30
 70
     1
102
RTVSPropertyOp31
 70
     1
102
RTVSPropertyOp32
 70
     1
102
RTVSPropertyOp33
 70
     1
102
RTVSPropertyOp34
 70
     1
102
RTVSPropertyOp35
 70
     1
102
RTVSPropertyOp36
 70
     1
102
RTVSPropertyOp37
 70
     1
102
RTVSPropertyOp38
 70
     1
102
RTVSPropertyOp39
 70
     1
102
RTVSPropertyOp40
 70
     1
102
RTVSPropertyOp41
 70
     1
102
RTVSPropertyOp42
 70
     1
102
RTVSPropertyOp43
 70
     1
102
RTVSPropertyOp44
 70
     1
102
RTVSPropertyOp45
 70
     1
102
RTVSPropertyOp46
 70
     1
102
RTVSPropertyOp47
 70
     1
102
RTVSPropertyOp48
 70
     1
102
RTVSPropertyOp49
 70
     1
102
RTVSPropertyOp50
 70
     1
102
RTVSPropertyOp51
 70
     0
102
RTVSPropertyOp52
 70
     0
102
RTVSPropertyOp53
 70
     1
102
RTVSPropertyOp54
 70
     1
102
RTVSPropertyOp55
 70
     1
102
RTVSPropertyOp56
 70
     1
102
RTVSPropertyOp57
 70
     1
102
RTVSPropertyOp58
 70
     1
102
RTVSPropertyOp59
 70
     1
102
RTVSPropertyOp60
 70
     1
102
RTVSPropertyOp61
 70
     1
102
RTVSPropertyOp62
 70
     1
  0
XRECORD
  5
1099
102
{ACAD_REACTORS
330
1098
102
}
330
1098
100
AcDbXrecord
280
     1
102
RTVSPost2010Prop28
280
     0
102
RTVSPost2010PropOp28
 70
     1
102
RTVSPost2010Prop29
280
     1
102
RTVSPost2010PropOp29
 70
     1
102
RTVSPost2010Prop30
280
     1
102
RTVSPost2010PropOp30
 70
     1
102
RTVSPost2010Prop31
280
     0
102
RTVSPost2010PropOp31
 70
     1
102
RTVSPost2010Prop32
280
     0
102
RTVSPost2010PropOp32
 70
     1
102
RTVSPost2010Prop33
280
     0
102
RTVSPost2010PropOp33
 70
     1
102
RTVSPost2010Prop34
280
     0
102
RTVSPost2010PropOp34
 70
     1
102
RTVSPost2010Prop35
280
     0
102
RTVSPost2010PropOp35
 70
     1
102
RTVSPost2010Prop36
280
     0
102
RTVSPost2010PropOp36
 70
     1
102
RTVSPost2010Prop37
 90
       50
102
RTVSPost2010PropOp37
 70
     1
102
RTVSPost2010Prop38
140
0.0
102
RTVSPost2010PropOp38
 70
     1
102
RTVSPost2010Prop39
140
1.0
102
RTVSPost2010PropOp39
 70
     1
102
RTVSPost2010Prop40
 90
        0
102
RTVSPost2010PropOp40
 70
     1
102
RTVSPost2010Prop41ColorIndex
 90
       18
102
RTVSPost2010Prop41ColorRGB
 90
        0
102
RTVSPost2010PropOp41
 70
     1
102
RTVSPost2010Prop42
 90
       50
102
RTVSPost2010PropOp42
 70
     1
102
RTVSPost2010Prop43
 90
        3
102
RTVSPost2010PropOp43
 70
     1
102
RTVSPost2010Prop44ColorIndex
 90
        5
102
RTVSPost2010Prop44ColorRGB
 90
      255
102
RTVSPost2010PropOp44
 70
     1
102
RTVSPost2010Prop45
280
     0
102
RTVSPost2010PropOp45
 70
     1
102
RTVSPost2010Prop46
 90
       50
102
RTVSPost2010PropOp46
 70
     1
102
RTVSPost2010Prop47
 90
       50
102
RTVSPost2010PropOp47
 70
     1
102
RTVSPost2010Prop48
 90
       50
102
RTVSPost2010PropOp48
 70
     1
102
RTVSPost2010Prop49
280
     0
102
RTVSPost2010PropOp49
 70
     1
102
RTVSPost2010Prop50
 90
       50
102
RTVSPost2010PropOp50
 70
     1
102
RTVSPost2010Prop51ColorIndex
 90
      256
102
RTVSPost2010Prop51ColorRGB
 90
-16777216
102
RTVSPost2010PropOp51
 70
     0
102
RTVSPost2010Prop52
140
1.0
102
RTVSPost2010PropOp52
 70
     0
102
RTVSPost2010Prop53
 90
        2
102
RTVSPost2010PropOp53
 70
     1
102
RTVSPost2010Prop54
  1
strokes_ogs.tif
102
RTVSPost2010PropOp54
 70
     1
102
RTVSPost2010Prop55
280
     0
102
RTVSPost2010PropOp55
 70
     1
102
RTVSPost2010Prop56
140
1.0
102
RTVSPost2010PropOp56
 70
     1
102
RTVSPost2010Prop57
140
1.0
102
RTVSPost2010PropOp57
 70
     1
102
RTVSPropertyOp0
 70
     1
102
RTVSPropertyOp1
 70
     1
102
RTVSPropertyOp2
 70
     1
102
RTVSPropertyOp3
 70
     1
102
RTVSPropertyOp4
 70
     1
102
RTVSPropertyOp5
 70
     1
102
RTVSPropertyOp6
 70
     1
102
RTVSPropertyOp7
 70
     1
102
RTVSPropertyOp8
 70
     1
102
RTVSPropertyOp9
 70
     1
102
RTVSPropertyOp10
 70
     1
102
RTVSPropertyOp11
 70
     1
102
RTVSPropertyOp12
 70
     1
102
RTVSPropertyOp13
 70
     1
102
RTVSPropertyOp14
 70
     1
102
RTVSPropertyOp15
 70
     1
102
RTVSPropertyOp16
 70
     1
102
RTVSPropertyOp17
 70
     1
102
RTVSPropertyOp18
 70
     1
102
RTVSPropertyOp19
 70
     1
102
RTVSPropertyOp20
 70
     1
102
RTVSPropertyOp21
 70
     1
102
RTVSPropertyOp22
 70
     1
102
RTVSPropertyOp23
 70
     1
102
RTVSPropertyOp24
 70
     1
102
RTVSPropertyOp25
 70
     1
102
RTVSPropertyOp26
 70
     1
102
RTVSPropertyOp27
 70
     1
102
RTVSPropertyOp28
 70
     1
102
RTVSPropertyOp29
 70
     1
102
RTVSPropertyOp30
 70
     1
102
RTVSPropertyOp31
 70
     1
102
RTVSPropertyOp32
 70
     1
102
RTVSPropertyOp33
 70
     1
102
RTVSPropertyOp34
 70
     1
102
RTVSPropertyOp35
 70
     1
102
RTVSPropertyOp36
 70
     1
102
RTVSPropertyOp37
 70
     1
102
RTVSPropertyOp38
 70
     1
102
RTVSPropertyOp39
 70
     1
102
RTVSPropertyOp40
 70
     1
102
RTVSPropertyOp41
 70
     1
102
RTVSPropertyOp42
 70
     1
102
RTVSPropertyOp43
 70
     1
102
RTVSPropertyOp44
 70
     1
102
RTVSPropertyOp45
 70
     1
102
RTVSPropertyOp46
 70
     1
102
RTVSPropertyOp47
 70
     1
102
RTVSPropertyOp48
 70
     1
102
RTVSPropertyOp49
 70
     1
102
RTVSPropertyOp50
 70
     1
102
RTVSPropertyOp51
 70
     0
102
RTVSPropertyOp52
 70
     0
102
RTVSPropertyOp53
 70
     1
102
RTVSPropertyOp54
 70
     1
102
RTVSPropertyOp55
 70
     1
102
RTVSPropertyOp56
 70
     1
102
RTVSPropertyOp57
 70
     1
102
RTVSPropertyOp58
 70
     1
102
RTVSPropertyOp59
 70
     1
102
RTVSPropertyOp60
 70
     1
102
RTVSPropertyOp61
 70
     1
102
RTVSPropertyOp62
 70
     1
  0
XRECORD
  5
109B
102
{ACAD_REACTORS
330
109A
102
}
330
109A
100
AcDbXrecord
280
     1
102
RTVSPost2010Prop28
280
     0
102
RTVSPost2010PropOp28
 70
     1
102
RTVSPost2010Prop29
280
     1
102
RTVSPost2010PropOp29
 70
     1
102
RTVSPost2010Prop30
280
     1
102
RTVSPost2010PropOp30
 70
     1
102
RTVSPost2010Prop31
280
     0
102
RTVSPost2010PropOp31
 70
     1
102
RTVSPost2010Prop32
280
     0
102
RTVSPost2010PropOp32
 70
     1
102
RTVSPost2010Prop33
280
     0
102
RTVSPost2010PropOp33
 70
     1
102
RTVSPost2010Prop34
280
     0
102
RTVSPost2010PropOp34
 70
     1
102
RTVSPost2010Prop35
280
     0
102
RTVSPost2010PropOp35
 70
     1
102
RTVSPost2010Prop36
280
     0
102
RTVSPost2010PropOp36
 70
     1
102
RTVSPost2010Prop37
 90
       50
102
RTVSPost2010PropOp37
 70
     1
102
RTVSPost2010Prop38
140
0.0
102
RTVSPost2010PropOp38
 70
     1
102
RTVSPost2010Prop39
140
1.0
102
RTVSPost2010PropOp39
 70
     1
102
RTVSPost2010Prop40
 90
        0
102
RTVSPost2010PropOp40
 70
     1
102
RTVSPost2010Prop41ColorIndex
 90
       18
102
RTVSPost2010Prop41ColorRGB
 90
        0
102
RTVSPost2010PropOp41
 70
     1
102
RTVSPost2010Prop42
 90
       50
102
RTVSPost2010PropOp42
 70
     1
102
RTVSPost2010Prop43
 90
        3
102
RTVSPost2010PropOp43
 70
     1
102
RTVSPost2010Prop44ColorIndex
 90
        5
102
RTVSPost2010Prop44ColorRGB
 90
      255
102
RTVSPost2010PropOp44
 70
     1
102
RTVSPost2010Prop45
280
     0
102
RTVSPost2010PropOp45
 70
     1
102
RTVSPost2010Prop46
 90
       50
102
RTVSPost2010PropOp46
 70
     1
102
RTVSPost2010Prop47
 90
       50
102
RTVSPost2010PropOp47
 70
     1
102
RTVSPost2010Prop48
 90
       50
102
RTVSPost2010PropOp48
 70
     1
102
RTVSPost2010Prop49
280
     0
102
RTVSPost2010PropOp49
 70
     1
102
RTVSPost2010Prop50
 90
       50
102
RTVSPost2010PropOp50
 70
     1
102
RTVSPost2010Prop51ColorIndex
 90
      256
102
RTVSPost2010Prop51ColorRGB
 90
-16777216
102
RTVSPost2010PropOp51
 70
     0
102
RTVSPost2010Prop52
140
1.0
102
RTVSPost2010PropOp52
 70
     0
102
RTVSPost2010Prop53
 90
        2
102
RTVSPost2010PropOp53
 70
     1
102
RTVSPost2010Prop54
  1
strokes_ogs.tif
102
RTVSPost2010PropOp54
 70
     1
102
RTVSPost2010Prop55
280
     0
102
RTVSPost2010PropOp55
 70
     1
102
RTVSPost2010Prop56
140
1.0
102
RTVSPost2010PropOp56
 70
     1
102
RTVSPost2010Prop57
140
1.0
102
RTVSPost2010PropOp57
 70
     1
102
RTVSPropertyOp0
 70
     1
102
RTVSPropertyOp1
 70
     1
102
RTVSPropertyOp2
 70
     1
102
RTVSPropertyOp3
 70
     1
102
RTVSPropertyOp4
 70
     1
102
RTVSPropertyOp5
 70
     1
102
RTVSPropertyOp6
 70
     1
102
RTVSPropertyOp7
 70
     1
102
RTVSPropertyOp8
 70
     1
102
RTVSPropertyOp9
 70
     1
102
RTVSPropertyOp10
 70
     1
102
RTVSPropertyOp11
 70
     1
102
RTVSPropertyOp12
 70
     1
102
RTVSPropertyOp13
 70
     1
102
RTVSPropertyOp14
 70
     1
102
RTVSPropertyOp15
 70
     1
102
RTVSPropertyOp16
 70
     1
102
RTVSPropertyOp17
 70
     1
102
RTVSPropertyOp18
 70
     1
102
RTVSPropertyOp19
 70
     1
102
RTVSPropertyOp20
 70
     1
102
RTVSPropertyOp21
 70
     1
102
RTVSPropertyOp22
 70
     1
102
RTVSPropertyOp23
 70
     1
102
RTVSPropertyOp24
 70
     1
102
RTVSPropertyOp25
 70
     1
102
RTVSPropertyOp26
 70
     1
102
RTVSPropertyOp27
 70
     1
102
RTVSPropertyOp28
 70
     1
102
RTVSPropertyOp29
 70
     1
102
RTVSPropertyOp30
 70
     1
102
RTVSPropertyOp31
 70
     1
102
RTVSPropertyOp32
 70
     1
102
RTVSPropertyOp33
 70
     1
102
RTVSPropertyOp34
 70
     1
102
RTVSPropertyOp35
 70
     1
102
RTVSPropertyOp36
 70
     1
102
RTVSPropertyOp37
 70
     1
102
RTVSPropertyOp38
 70
     1
102
RTVSPropertyOp39
 70
     1
102
RTVSPropertyOp40
 70
     1
102
RTVSPropertyOp41
 70
     1
102
RTVSPropertyOp42
 70
     1
102
RTVSPropertyOp43
 70
     1
102
RTVSPropertyOp44
 70
     1
102
RTVSPropertyOp45
 70
     1
102
RTVSPropertyOp46
 70
     1
102
RTVSPropertyOp47
 70
     1
102
RTVSPropertyOp48
 70
     1
102
RTVSPropertyOp49
 70
     1
102
RTVSPropertyOp50
 70
     1
102
RTVSPropertyOp51
 70
     0
102
RTVSPropertyOp52
 70
     0
102
RTVSPropertyOp53
 70
     1
102
RTVSPropertyOp54
 70
     1
102
RTVSPropertyOp55
 70
     1
102
RTVSPropertyOp56
 70
     1
102
RTVSPropertyOp57
 70
     1
102
RTVSPropertyOp58
 70
     1
102
RTVSPropertyOp59
 70
     1
102
RTVSPropertyOp60
 70
     1
102
RTVSPropertyOp61
 70
     1
102
RTVSPropertyOp62
 70
     1
  0
XRECORD
  5
109D
102
{ACAD_REACTORS
330
109C
102
}
330
109C
100
AcDbXrecord
280
     1
102
RTVSPost2010Prop28
280
     0
102
RTVSPost2010PropOp28
 70
     1
102
RTVSPost2010Prop29
280
     1
102
RTVSPost2010PropOp29
 70
     1
102
RTVSPost2010Prop30
280
     1
102
RTVSPost2010PropOp30
 70
     1
102
RTVSPost2010Prop31
280
     0
102
RTVSPost2010PropOp31
 70
     1
102
RTVSPost2010Prop32
280
     0
102
RTVSPost2010PropOp32
 70
     1
102
RTVSPost2010Prop33
280
     0
102
RTVSPost2010PropOp33
 70
     1
102
RTVSPost2010Prop34
280
     0
102
RTVSPost2010PropOp34
 70
     1
102
RTVSPost2010Prop35
280
     0
102
RTVSPost2010PropOp35
 70
     1
102
RTVSPost2010Prop36
280
     0
102
RTVSPost2010PropOp36
 70
     1
102
RTVSPost2010Prop37
 90
       50
102
RTVSPost2010PropOp37
 70
     1
102
RTVSPost2010Prop38
140
0.0
102
RTVSPost2010PropOp38
 70
     1
102
RTVSPost2010Prop39
140
1.0
102
RTVSPost2010PropOp39
 70
     1
102
RTVSPost2010Prop40
 90
        0
102
RTVSPost2010PropOp40
 70
     1
102
RTVSPost2010Prop41ColorIndex
 90
       18
102
RTVSPost2010Prop41ColorRGB
 90
        0
102
RTVSPost2010PropOp41
 70
     1
102
RTVSPost2010Prop42
 90
       50
102
RTVSPost2010PropOp42
 70
     1
102
RTVSPost2010Prop43
 90
        3
102
RTVSPost2010PropOp43
 70
     1
102
RTVSPost2010Prop44ColorIndex
 90
        5
102
RTVSPost2010Prop44ColorRGB
 90
      255
102
RTVSPost2010PropOp44
 70
     1
102
RTVSPost2010Prop45
280
     0
102
RTVSPost2010PropOp45
 70
     1
102
RTVSPost2010Prop46
 90
       50
102
RTVSPost2010PropOp46
 70
     1
102
RTVSPost2010Prop47
 90
       50
102
RTVSPost2010PropOp47
 70
     1
102
RTVSPost2010Prop48
 90
       50
102
RTVSPost2010PropOp48
 70
     1
102
RTVSPost2010Prop49
280
     0
102
RTVSPost2010PropOp49
 70
     1
102
RTVSPost2010Prop50
 90
       50
102
RTVSPost2010PropOp50
 70
     1
102
RTVSPost2010Prop51ColorIndex
 90
      256
102
RTVSPost2010Prop51ColorRGB
 90
-16777216
102
RTVSPost2010PropOp51
 70
     0
102
RTVSPost2010Prop52
140
1.0
102
RTVSPost2010PropOp52
 70
     0
102
RTVSPost2010Prop53
 90
        2
102
RTVSPost2010PropOp53
 70
     1
102
RTVSPost2010Prop54
  1
strokes_ogs.tif
102
RTVSPost2010PropOp54
 70
     1
102
RTVSPost2010Prop55
280
     0
102
RTVSPost2010PropOp55
 70
     1
102
RTVSPost2010Prop56
140
1.0
102
RTVSPost2010PropOp56
 70
     1
102
RTVSPost2010Prop57
140
1.0
102
RTVSPost2010PropOp57
 70
     1
102
RTVSPropertyOp0
 70
     1
102
RTVSPropertyOp1
 70
     1
102
RTVSPropertyOp2
 70
     1
102
RTVSPropertyOp3
 70
     1
102
RTVSPropertyOp4
 70
     1
102
RTVSPropertyOp5
 70
     1
102
RTVSPropertyOp6
 70
     1
102
RTVSPropertyOp7
 70
     1
102
RTVSPropertyOp8
 70
     1
102
RTVSPropertyOp9
 70
     1
102
RTVSPropertyOp10
 70
     1
102
RTVSPropertyOp11
 70
     1
102
RTVSPropertyOp12
 70
     1
102
RTVSPropertyOp13
 70
     1
102
RTVSPropertyOp14
 70
     1
102
RTVSPropertyOp15
 70
     1
102
RTVSPropertyOp16
 70
     1
102
RTVSPropertyOp17
 70
     1
102
RTVSPropertyOp18
 70
     1
102
RTVSPropertyOp19
 70
     1
102
RTVSPropertyOp20
 70
     1
102
RTVSPropertyOp21
 70
     1
102
RTVSPropertyOp22
 70
     1
102
RTVSPropertyOp23
 70
     1
102
RTVSPropertyOp24
 70
     1
102
RTVSPropertyOp25
 70
     1
102
RTVSPropertyOp26
 70
     1
102
RTVSPropertyOp27
 70
     1
102
RTVSPropertyOp28
 70
     1
102
RTVSPropertyOp29
 70
     1
102
RTVSPropertyOp30
 70
     1
102
RTVSPropertyOp31
 70
     1
102
RTVSPropertyOp32
 70
     1
102
RTVSPropertyOp33
 70
     1
102
RTVSPropertyOp34
 70
     1
102
RTVSPropertyOp35
 70
     1
102
RTVSPropertyOp36
 70
     1
102
RTVSPropertyOp37
 70
     1
102
RTVSPropertyOp38
 70
     1
102
RTVSPropertyOp39
 70
     1
102
RTVSPropertyOp40
 70
     1
102
RTVSPropertyOp41
 70
     1
102
RTVSPropertyOp42
 70
     1
102
RTVSPropertyOp43
 70
     1
102
RTVSPropertyOp44
 70
     1
102
RTVSPropertyOp45
 70
     1
102
RTVSPropertyOp46
 70
     1
102
RTVSPropertyOp47
 70
     1
102
RTVSPropertyOp48
 70
     1
102
RTVSPropertyOp49
 70
     1
102
RTVSPropertyOp50
 70
     1
102
RTVSPropertyOp51
 70
     0
102
RTVSPropertyOp52
 70
     0
102
RTVSPropertyOp53
 70
     1
102
RTVSPropertyOp54
 70
     1
102
RTVSPropertyOp55
 70
     1
102
RTVSPropertyOp56
 70
     1
102
RTVSPropertyOp57
 70
     1
102
RTVSPropertyOp58
 70
     1
102
RTVSPropertyOp59
 70
     1
102
RTVSPropertyOp60
 70
     1
102
RTVSPropertyOp61
 70
     1
102
RTVSPropertyOp62
 70
     1
  0
XRECORD
  5
10A5
102
{ACAD_REACTORS
330
10A4
102
}
330
10A4
100
AcDbXrecord
280
     1
102
RTVSPost2010Prop28
280
     0
102
RTVSPost2010PropOp28
 70
     1
102
RTVSPost2010Prop29
280
     1
102
RTVSPost2010PropOp29
 70
     1
102
RTVSPost2010Prop30
280
     1
102
RTVSPost2010PropOp30
 70
     1
102
RTVSPost2010Prop31
280
     0
102
RTVSPost2010PropOp31
 70
     1
102
RTVSPost2010Prop32
280
     0
102
RTVSPost2010PropOp32
 70
     1
102
RTVSPost2010Prop33
280
     0
102
RTVSPost2010PropOp33
 70
     1
102
RTVSPost2010Prop34
280
     0
102
RTVSPost2010PropOp34
 70
     1
102
RTVSPost2010Prop35
280
     0
102
RTVSPost2010PropOp35
 70
     1
102
RTVSPost2010Prop36
280
     0
102
RTVSPost2010PropOp36
 70
     1
102
RTVSPost2010Prop37
 90
       50
102
RTVSPost2010PropOp37
 70
     1
102
RTVSPost2010Prop38
140
0.0
102
RTVSPost2010PropOp38
 70
     1
102
RTVSPost2010Prop39
140
1.0
102
RTVSPost2010PropOp39
 70
     1
102
RTVSPost2010Prop40
 90
        0
102
RTVSPost2010PropOp40
 70
     1
102
RTVSPost2010Prop41ColorIndex
 90
       18
102
RTVSPost2010Prop41ColorRGB
 90
        0
102
RTVSPost2010PropOp41
 70
     1
102
RTVSPost2010Prop42
 90
       50
102
RTVSPost2010PropOp42
 70
     1
102
RTVSPost2010Prop43
 90
        3
102
RTVSPost2010PropOp43
 70
     1
102
RTVSPost2010Prop44ColorIndex
 90
        5
102
RTVSPost2010Prop44ColorRGB
 90
      255
102
RTVSPost2010PropOp44
 70
     1
102
RTVSPost2010Prop45
280
     0
102
RTVSPost2010PropOp45
 70
     1
102
RTVSPost2010Prop46
 90
       50
102
RTVSPost2010PropOp46
 70
     1
102
RTVSPost2010Prop47
 90
       50
102
RTVSPost2010PropOp47
 70
     1
102
RTVSPost2010Prop48
 90
       50
102
RTVSPost2010PropOp48
 70
     1
102
RTVSPost2010Prop49
280
     0
102
RTVSPost2010PropOp49
 70
     1
102
RTVSPost2010Prop50
 90
       50
102
RTVSPost2010PropOp50
 70
     1
102
RTVSPost2010Prop51ColorIndex
 90
      256
102
RTVSPost2010Prop51ColorRGB
 90
-16777216
102
RTVSPost2010PropOp51
 70
     0
102
RTVSPost2010Prop52
140
1.0
102
RTVSPost2010PropOp52
 70
     0
102
RTVSPost2010Prop53
 90
        2
102
RTVSPost2010PropOp53
 70
     1
102
RTVSPost2010Prop54
  1
strokes_ogs.tif
102
RTVSPost2010PropOp54
 70
     1
102
RTVSPost2010Prop55
280
     0
102
RTVSPost2010PropOp55
 70
     1
102
RTVSPost2010Prop56
140
1.0
102
RTVSPost2010PropOp56
 70
     1
102
RTVSPost2010Prop57
140
1.0
102
RTVSPost2010PropOp57
 70
     1
102
RTVSPropertyOp0
 70
     1
102
RTVSPropertyOp1
 70
     1
102
RTVSPropertyOp2
 70
     1
102
RTVSPropertyOp3
 70
     1
102
RTVSPropertyOp4
 70
     1
102
RTVSPropertyOp5
 70
     1
102
RTVSPropertyOp6
 70
     1
102
RTVSPropertyOp7
 70
     1
102
RTVSPropertyOp8
 70
     1
102
RTVSPropertyOp9
 70
     1
102
RTVSPropertyOp10
 70
     1
102
RTVSPropertyOp11
 70
     1
102
RTVSPropertyOp12
 70
     1
102
RTVSPropertyOp13
 70
     1
102
RTVSPropertyOp14
 70
     1
102
RTVSPropertyOp15
 70
     1
102
RTVSPropertyOp16
 70
     1
102
RTVSPropertyOp17
 70
     1
102
RTVSPropertyOp18
 70
     1
102
RTVSPropertyOp19
 70
     1
102
RTVSPropertyOp20
 70
     1
102
RTVSPropertyOp21
 70
     1
102
RTVSPropertyOp22
 70
     1
102
RTVSPropertyOp23
 70
     1
102
RTVSPropertyOp24
 70
     1
102
RTVSPropertyOp25
 70
     1
102
RTVSPropertyOp26
 70
     1
102
RTVSPropertyOp27
 70
     1
102
RTVSPropertyOp28
 70
     1
102
RTVSPropertyOp29
 70
     1
102
RTVSPropertyOp30
 70
     1
102
RTVSPropertyOp31
 70
     1
102
RTVSPropertyOp32
 70
     1
102
RTVSPropertyOp33
 70
     1
102
RTVSPropertyOp34
 70
     1
102
RTVSPropertyOp35
 70
     1
102
RTVSPropertyOp36
 70
     1
102
RTVSPropertyOp37
 70
     1
102
RTVSPropertyOp38
 70
     1
102
RTVSPropertyOp39
 70
     1
102
RTVSPropertyOp40
 70
     1
102
RTVSPropertyOp41
 70
     1
102
RTVSPropertyOp42
 70
     1
102
RTVSPropertyOp43
 70
     1
102
RTVSPropertyOp44
 70
     1
102
RTVSPropertyOp45
 70
     1
102
RTVSPropertyOp46
 70
     1
102
RTVSPropertyOp47
 70
     1
102
RTVSPropertyOp48
 70
     1
102
RTVSPropertyOp49
 70
     1
102
RTVSPropertyOp50
 70
     1
102
RTVSPropertyOp51
 70
     0
102
RTVSPropertyOp52
 70
     0
102
RTVSPropertyOp53
 70
     1
102
RTVSPropertyOp54
 70
     1
102
RTVSPropertyOp55
 70
     1
102
RTVSPropertyOp56
 70
     1
102
RTVSPropertyOp57
 70
     1
102
RTVSPropertyOp58
 70
     1
102
RTVSPropertyOp59
 70
     1
102
RTVSPropertyOp60
 70
     1
102
RTVSPropertyOp61
 70
     1
102
RTVSPropertyOp62
 70
     1
  0
XRECORD
  5
10C1
102
{ACAD_REACTORS
330
10C0
102
}
330
10C0
100
AcDbXrecord
280
     1
102
RTVSPost2010Prop28
280
     0
102
RTVSPost2010PropOp28
 70
     1
102
RTVSPost2010Prop29
280
     1
102
RTVSPost2010PropOp29
 70
     1
102
RTVSPost2010Prop30
280
     1
102
RTVSPost2010PropOp30
 70
     1
102
RTVSPost2010Prop31
280
     0
102
RTVSPost2010PropOp31
 70
     1
102
RTVSPost2010Prop32
280
     0
102
RTVSPost2010PropOp32
 70
     1
102
RTVSPost2010Prop33
280
     0
102
RTVSPost2010PropOp33
 70
     1
102
RTVSPost2010Prop34
280
     0
102
RTVSPost2010PropOp34
 70
     1
102
RTVSPost2010Prop35
280
     0
102
RTVSPost2010PropOp35
 70
     1
102
RTVSPost2010Prop36
280
     0
102
RTVSPost2010PropOp36
 70
     1
102
RTVSPost2010Prop37
 90
       50
102
RTVSPost2010PropOp37
 70
     0
102
RTVSPost2010Prop38
140
0.0
102
RTVSPost2010PropOp38
 70
     0
102
RTVSPost2010Prop39
140
1.0
102
RTVSPost2010PropOp39
 70
     0
102
RTVSPost2010Prop40
 90
        0
102
RTVSPost2010PropOp40
 70
     0
102
RTVSPost2010Prop41ColorIndex
 90
       18
102
RTVSPost2010Prop41ColorRGB
 90
        0
102
RTVSPost2010PropOp41
 70
     0
102
RTVSPost2010Prop42
 90
       50
102
RTVSPost2010PropOp42
 70
     0
102
RTVSPost2010Prop43
 90
        3
102
RTVSPost2010PropOp43
 70
     0
102
RTVSPost2010Prop44ColorIndex
 90
        5
102
RTVSPost2010Prop44ColorRGB
 90
      255
102
RTVSPost2010PropOp44
 70
     0
102
RTVSPost2010Prop45
280
     0
102
RTVSPost2010PropOp45
 70
     1
102
RTVSPost2010Prop46
 90
       50
102
RTVSPost2010PropOp46
 70
     0
102
RTVSPost2010Prop47
 90
       50
102
RTVSPost2010PropOp47
 70
     0
102
RTVSPost2010Prop48
 90
       50
102
RTVSPost2010PropOp48
 70
     0
102
RTVSPost2010Prop49
280
     0
102
RTVSPost2010PropOp49
 70
     1
102
RTVSPost2010Prop50
 90
       50
102
RTVSPost2010PropOp50
 70
     0
102
RTVSPost2010Prop51ColorIndex
 90
      256
102
RTVSPost2010Prop51ColorRGB
 90
-16777216
102
RTVSPost2010PropOp51
 70
     0
102
RTVSPost2010Prop52
140
1.0
102
RTVSPost2010PropOp52
 70
     0
102
RTVSPost2010Prop53
 90
        2
102
RTVSPost2010PropOp53
 70
     0
102
RTVSPost2010Prop54
  1
strokes_ogs.tif
102
RTVSPost2010PropOp54
 70
     0
102
RTVSPost2010Prop55
280
     0
102
RTVSPost2010PropOp55
 70
     1
102
RTVSPost2010Prop56
140
1.0
102
RTVSPost2010PropOp56
 70
     0
102
RTVSPost2010Prop57
140
1.0
102
RTVSPost2010PropOp57
 70
     0
102
RTVSPropertyOp0
 70
     0
102
RTVSPropertyOp1
 70
     0
102
RTVSPropertyOp2
 70
     0
102
RTVSPropertyOp3
 70
     0
102
RTVSPropertyOp4
 70
     0
102
RTVSPropertyOp5
 70
     0
102
RTVSPropertyOp6
 70
     0
102
RTVSPropertyOp7
 70
     0
102
RTVSPropertyOp8
 70
     0
102
RTVSPropertyOp9
 70
     0
102
RTVSPropertyOp10
 70
     0
102
RTVSPropertyOp11
 70
     0
102
RTVSPropertyOp12
 70
     0
102
RTVSPropertyOp13
 70
     0
102
RTVSPropertyOp14
 70
     2
102
RTVSPropertyOp15
 70
     0
102
RTVSPropertyOp16
 70
     0
102
RTVSPropertyOp17
 70
     0
102
RTVSPropertyOp18
 70
     0
102
RTVSPropertyOp19
 70
     0
102
RTVSPropertyOp20
 70
     0
102
RTVSPropertyOp21
 70
     0
102
RTVSPropertyOp22
 70
     0
102
RTVSPropertyOp23
 70
     0
102
RTVSPropertyOp24
 70
     0
102
RTVSPropertyOp25
 70
     0
102
RTVSPropertyOp26
 70
     0
102
RTVSPropertyOp27
 70
     0
102
RTVSPropertyOp28
 70
     1
102
RTVSPropertyOp29
 70
     1
102
RTVSPropertyOp30
 70
     1
102
RTVSPropertyOp31
 70
     1
102
RTVSPropertyOp32
 70
     1
102
RTVSPropertyOp33
 70
     1
102
RTVSPropertyOp34
 70
     1
102
RTVSPropertyOp35
 70
     1
102
RTVSPropertyOp36
 70
     1
102
RTVSPropertyOp37
 70
     0
102
RTVSPropertyOp38
 70
     0
102
RTVSPropertyOp39
 70
     0
102
RTVSPropertyOp40
 70
     0
102
RTVSPropertyOp41
 70
     0
102
RTVSPropertyOp42
 70
     0
102
RTVSPropertyOp43
 70
     0
102
RTVSPropertyOp44
 70
     0
102
RTVSPropertyOp45
 70
     1
102
RTVSPropertyOp46
 70
     0
102
RTVSPropertyOp47
 70
     0
102
RTVSPropertyOp48
 70
     0
102
RTVSPropertyOp49
 70
     1
102
RTVSPropertyOp50
 70
     0
102
RTVSPropertyOp51
 70
     0
102
RTVSPropertyOp52
 70
     0
102
RTVSPropertyOp53
 70
     0
102
RTVSPropertyOp54
 70
     0
102
RTVSPropertyOp55
 70
     1
102
RTVSPropertyOp56
 70
     0
102
RTVSPropertyOp57
 70
     0
102
RTVSPropertyOp58
 70
     0
102
RTVSPropertyOp59
 70
     0
102
RTVSPropertyOp60
 70
     0
102
RTVSPropertyOp61
 70
     0
102
RTVSPropertyOp62
 70
     0
  0
XRECORD
  5
10B1
102
{ACAD_REACTORS
330
10B0
102
}
330
10B0
100
AcDbXrecord
280
     1
102
RTVSPost2010Prop28
280
     0
102
RTVSPost2010PropOp28
 70
     1
102
RTVSPost2010Prop29
280
     1
102
RTVSPost2010PropOp29
 70
     1
102
RTVSPost2010Prop30
280
     1
102
RTVSPost2010PropOp30
 70
     1
102
RTVSPost2010Prop31
280
     0
102
RTVSPost2010PropOp31
 70
     1
102
RTVSPost2010Prop32
280
     0
102
RTVSPost2010PropOp32
 70
     1
102
RTVSPost2010Prop33
280
     0
102
RTVSPost2010PropOp33
 70
     1
102
RTVSPost2010Prop34
280
     0
102
RTVSPost2010PropOp34
 70
     1
102
RTVSPost2010Prop35
280
     0
102
RTVSPost2010PropOp35
 70
     1
102
RTVSPost2010Prop36
280
     0
102
RTVSPost2010PropOp36
 70
     1
102
RTVSPost2010Prop37
 90
       50
102
RTVSPost2010PropOp37
 70
     1
102
RTVSPost2010Prop38
140
0.0
102
RTVSPost2010PropOp38
 70
     1
102
RTVSPost2010Prop39
140
1.0
102
RTVSPost2010PropOp39
 70
     1
102
RTVSPost2010Prop40
 90
        0
102
RTVSPost2010PropOp40
 70
     1
102
RTVSPost2010Prop41ColorIndex
 90
       18
102
RTVSPost2010Prop41ColorRGB
 90
        0
102
RTVSPost2010PropOp41
 70
     1
102
RTVSPost2010Prop42
 90
       50
102
RTVSPost2010PropOp42
 70
     1
102
RTVSPost2010Prop43
 90
        3
102
RTVSPost2010PropOp43
 70
     1
102
RTVSPost2010Prop44ColorIndex
 90
        5
102
RTVSPost2010Prop44ColorRGB
 90
      255
102
RTVSPost2010PropOp44
 70
     1
102
RTVSPost2010Prop45
280
     0
102
RTVSPost2010PropOp45
 70
     1
102
RTVSPost2010Prop46
 90
       50
102
RTVSPost2010PropOp46
 70
     1
102
RTVSPost2010Prop47
 90
       50
102
RTVSPost2010PropOp47
 70
     1
102
RTVSPost2010Prop48
 90
       50
102
RTVSPost2010PropOp48
 70
     1
102
RTVSPost2010Prop49
280
     0
102
RTVSPost2010PropOp49
 70
     1
102
RTVSPost2010Prop50
 90
       50
102
RTVSPost2010PropOp50
 70
     1
102
RTVSPost2010Prop51ColorIndex
 90
      256
102
RTVSPost2010Prop51ColorRGB
 90
-16777216
102
RTVSPost2010PropOp51
 70
     0
102
RTVSPost2010Prop52
140
1.0
102
RTVSPost2010PropOp52
 70
     0
102
RTVSPost2010Prop53
 90
        2
102
RTVSPost2010PropOp53
 70
     1
102
RTVSPost2010Prop54
  1
strokes_ogs.tif
102
RTVSPost2010PropOp54
 70
     1
102
RTVSPost2010Prop55
280
     0
102
RTVSPost2010PropOp55
 70
     1
102
RTVSPost2010Prop56
140
1.0
102
RTVSPost2010PropOp56
 70
     1
102
RTVSPost2010Prop57
140
1.0
102
RTVSPost2010PropOp57
 70
     1
102
RTVSPropertyOp0
 70
     1
102
RTVSPropertyOp1
 70
     1
102
RTVSPropertyOp2
 70
     1
102
RTVSPropertyOp3
 70
     1
102
RTVSPropertyOp4
 70
     1
102
RTVSPropertyOp5
 70
     1
102
RTVSPropertyOp6
 70
     1
102
RTVSPropertyOp7
 70
     1
102
RTVSPropertyOp8
 70
     1
102
RTVSPropertyOp9
 70
     1
102
RTVSPropertyOp10
 70
     1
102
RTVSPropertyOp11
 70
     1
102
RTVSPropertyOp12
 70
     1
102
RTVSPropertyOp13
 70
     1
102
RTVSPropertyOp14
 70
     1
102
RTVSPropertyOp15
 70
     1
102
RTVSPropertyOp16
 70
     1
102
RTVSPropertyOp17
 70
     1
102
RTVSPropertyOp18
 70
     1
102
RTVSPropertyOp19
 70
     1
102
RTVSPropertyOp20
 70
     1
102
RTVSPropertyOp21
 70
     1
102
RTVSPropertyOp22
 70
     1
102
RTVSPropertyOp23
 70
     1
102
RTVSPropertyOp24
 70
     1
102
RTVSPropertyOp25
 70
     1
102
RTVSPropertyOp26
 70
     1
102
RTVSPropertyOp27
 70
     1
102
RTVSPropertyOp28
 70
     1
102
RTVSPropertyOp29
 70
     1
102
RTVSPropertyOp30
 70
     1
102
RTVSPropertyOp31
 70
     1
102
RTVSPropertyOp32
 70
     1
102
RTVSPropertyOp33
 70
     1
102
RTVSPropertyOp34
 70
     1
102
RTVSPropertyOp35
 70
     1
102
RTVSPropertyOp36
 70
     1
102
RTVSPropertyOp37
 70
     1
102
RTVSPropertyOp38
 70
     1
102
RTVSPropertyOp39
 70
     1
102
RTVSPropertyOp40
 70
     1
102
RTVSPropertyOp41
 70
     1
102
RTVSPropertyOp42
 70
     1
102
RTVSPropertyOp43
 70
     1
102
RTVSPropertyOp44
 70
     1
102
RTVSPropertyOp45
 70
     1
102
RTVSPropertyOp46
 70
     1
102
RTVSPropertyOp47
 70
     1
102
RTVSPropertyOp48
 70
     1
102
RTVSPropertyOp49
 70
     1
102
RTVSPropertyOp50
 70
     1
102
RTVSPropertyOp51
 70
     0
102
RTVSPropertyOp52
 70
     0
102
RTVSPropertyOp53
 70
     1
102
RTVSPropertyOp54
 70
     1
102
RTVSPropertyOp55
 70
     1
102
RTVSPropertyOp56
 70
     1
102
RTVSPropertyOp57
 70
     1
102
RTVSPropertyOp58
 70
     1
102
RTVSPropertyOp59
 70
     1
102
RTVSPropertyOp60
 70
     1
102
RTVSPropertyOp61
 70
     1
102
RTVSPropertyOp62
 70
     1
  0
XRECORD
  5
10C3
102
{ACAD_REACTORS
330
10C2
102
}
330
10C2
100
AcDbXrecord
280
     1
102
RTVSPost2010Prop28
280
     0
102
RTVSPost2010PropOp28
 70
     1
102
RTVSPost2010Prop29
280
     1
102
RTVSPost2010PropOp29
 70
     1
102
RTVSPost2010Prop30
280
     1
102
RTVSPost2010PropOp30
 70
     1
102
RTVSPost2010Prop31
280
     0
102
RTVSPost2010PropOp31
 70
     1
102
RTVSPost2010Prop32
280
     0
102
RTVSPost2010PropOp32
 70
     1
102
RTVSPost2010Prop33
280
     0
102
RTVSPost2010PropOp33
 70
     1
102
RTVSPost2010Prop34
280
     0
102
RTVSPost2010PropOp34
 70
     1
102
RTVSPost2010Prop35
280
     0
102
RTVSPost2010PropOp35
 70
     1
102
RTVSPost2010Prop36
280
     0
102
RTVSPost2010PropOp36
 70
     1
102
RTVSPost2010Prop37
 90
       50
102
RTVSPost2010PropOp37
 70
     0
102
RTVSPost2010Prop38
140
0.0
102
RTVSPost2010PropOp38
 70
     0
102
RTVSPost2010Prop39
140
1.0
102
RTVSPost2010PropOp39
 70
     0
102
RTVSPost2010Prop40
 90
        0
102
RTVSPost2010PropOp40
 70
     0
102
RTVSPost2010Prop41ColorIndex
 90
       18
102
RTVSPost2010Prop41ColorRGB
 90
        0
102
RTVSPost2010PropOp41
 70
     0
102
RTVSPost2010Prop42
 90
       50
102
RTVSPost2010PropOp42
 70
     0
102
RTVSPost2010Prop43
 90
        3
102
RTVSPost2010PropOp43
 70
     0
102
RTVSPost2010Prop44ColorIndex
 90
        5
102
RTVSPost2010Prop44ColorRGB
 90
      255
102
RTVSPost2010PropOp44
 70
     0
102
RTVSPost2010Prop45
280
     0
102
RTVSPost2010PropOp45
 70
     1
102
RTVSPost2010Prop46
 90
       50
102
RTVSPost2010PropOp46
 70
     0
102
RTVSPost2010Prop47
 90
       50
102
RTVSPost2010PropOp47
 70
     0
102
RTVSPost2010Prop48
 90
       50
102
RTVSPost2010PropOp48
 70
     0
102
RTVSPost2010Prop49
280
     0
102
RTVSPost2010PropOp49
 70
     1
102
RTVSPost2010Prop50
 90
       50
102
RTVSPost2010PropOp50
 70
     0
102
RTVSPost2010Prop51ColorIndex
 90
      256
102
RTVSPost2010Prop51ColorRGB
 90
-16777216
102
RTVSPost2010PropOp51
 70
     0
102
RTVSPost2010Prop52
140
1.0
102
RTVSPost2010PropOp52
 70
     0
102
RTVSPost2010Prop53
 90
        2
102
RTVSPost2010PropOp53
 70
     0
102
RTVSPost2010Prop54
  1
strokes_ogs.tif
102
RTVSPost2010PropOp54
 70
     0
102
RTVSPost2010Prop55
280
     0
102
RTVSPost2010PropOp55
 70
     1
102
RTVSPost2010Prop56
140
1.0
102
RTVSPost2010PropOp56
 70
     0
102
RTVSPost2010Prop57
140
1.0
102
RTVSPost2010PropOp57
 70
     0
102
RTVSPropertyOp0
 70
     0
102
RTVSPropertyOp1
 70
     0
102
RTVSPropertyOp2
 70
     0
102
RTVSPropertyOp3
 70
     0
102
RTVSPropertyOp4
 70
     0
102
RTVSPropertyOp5
 70
     0
102
RTVSPropertyOp6
 70
     0
102
RTVSPropertyOp7
 70
     0
102
RTVSPropertyOp8
 70
     0
102
RTVSPropertyOp9
 70
     0
102
RTVSPropertyOp10
 70
     0
102
RTVSPropertyOp11
 70
     0
102
RTVSPropertyOp12
 70
     0
102
RTVSPropertyOp13
 70
     0
102
RTVSPropertyOp14
 70
     2
102
RTVSPropertyOp15
 70
     0
102
RTVSPropertyOp16
 70
     0
102
RTVSPropertyOp17
 70
     0
102
RTVSPropertyOp18
 70
     0
102
RTVSPropertyOp19
 70
     0
102
RTVSPropertyOp20
 70
     0
102
RTVSPropertyOp21
 70
     0
102
RTVSPropertyOp22
 70
     0
102
RTVSPropertyOp23
 70
     0
102
RTVSPropertyOp24
 70
     0
102
RTVSPropertyOp25
 70
     0
102
RTVSPropertyOp26
 70
     0
102
RTVSPropertyOp27
 70
     0
102
RTVSPropertyOp28
 70
     1
102
RTVSPropertyOp29
 70
     1
102
RTVSPropertyOp30
 70
     1
102
RTVSPropertyOp31
 70
     1
102
RTVSPropertyOp32
 70
     1
102
RTVSPropertyOp33
 70
     1
102
RTVSPropertyOp34
 70
     1
102
RTVSPropertyOp35
 70
     1
102
RTVSPropertyOp36
 70
     1
102
RTVSPropertyOp37
 70
     0
102
RTVSPropertyOp38
 70
     0
102
RTVSPropertyOp39
 70
     0
102
RTVSPropertyOp40
 70
     0
102
RTVSPropertyOp41
 70
     0
102
RTVSPropertyOp42
 70
     0
102
RTVSPropertyOp43
 70
     0
102
RTVSPropertyOp44
 70
     0
102
RTVSPropertyOp45
 70
     1
102
RTVSPropertyOp46
 70
     0
102
RTVSPropertyOp47
 70
     0
102
RTVSPropertyOp48
 70
     0
102
RTVSPropertyOp49
 70
     1
102
RTVSPropertyOp50
 70
     0
102
RTVSPropertyOp51
 70
     0
102
RTVSPropertyOp52
 70
     0
102
RTVSPropertyOp53
 70
     0
102
RTVSPropertyOp54
 70
     0
102
RTVSPropertyOp55
 70
     1
102
RTVSPropertyOp56
 70
     0
102
RTVSPropertyOp57
 70
     0
102
RTVSPropertyOp58
 70
     0
102
RTVSPropertyOp59
 70
     0
102
RTVSPropertyOp60
 70
     0
102
RTVSPropertyOp61
 70
     0
102
RTVSPropertyOp62
 70
     0
  0
XRECORD
  5
10A9
102
{ACAD_REACTORS
330
10A8
102
}
330
10A8
100
AcDbXrecord
280
     1
102
RTVSPost2010Prop28
280
     0
102
RTVSPost2010PropOp28
 70
     1
102
RTVSPost2010Prop29
280
     1
102
RTVSPost2010PropOp29
 70
     1
102
RTVSPost2010Prop30
280
     1
102
RTVSPost2010PropOp30
 70
     1
102
RTVSPost2010Prop31
280
     0
102
RTVSPost2010PropOp31
 70
     1
102
RTVSPost2010Prop32
280
     0
102
RTVSPost2010PropOp32
 70
     1
102
RTVSPost2010Prop33
280
     0
102
RTVSPost2010PropOp33
 70
     1
102
RTVSPost2010Prop34
280
     0
102
RTVSPost2010PropOp34
 70
     1
102
RTVSPost2010Prop35
280
     0
102
RTVSPost2010PropOp35
 70
     1
102
RTVSPost2010Prop36
280
     0
102
RTVSPost2010PropOp36
 70
     1
102
RTVSPost2010Prop37
 90
       50
102
RTVSPost2010PropOp37
 70
     1
102
RTVSPost2010Prop38
140
0.0
102
RTVSPost2010PropOp38
 70
     1
102
RTVSPost2010Prop39
140
1.0
102
RTVSPost2010PropOp39
 70
     1
102
RTVSPost2010Prop40
 90
        0
102
RTVSPost2010PropOp40
 70
     1
102
RTVSPost2010Prop41ColorIndex
 90
       18
102
RTVSPost2010Prop41ColorRGB
 90
        0
102
RTVSPost2010PropOp41
 70
     1
102
RTVSPost2010Prop42
 90
       50
102
RTVSPost2010PropOp42
 70
     1
102
RTVSPost2010Prop43
 90
        3
102
RTVSPost2010PropOp43
 70
     1
102
RTVSPost2010Prop44ColorIndex
 90
        5
102
RTVSPost2010Prop44ColorRGB
 90
      255
102
RTVSPost2010PropOp44
 70
     1
102
RTVSPost2010Prop45
280
     0
102
RTVSPost2010PropOp45
 70
     1
102
RTVSPost2010Prop46
 90
       50
102
RTVSPost2010PropOp46
 70
     1
102
RTVSPost2010Prop47
 90
       50
102
RTVSPost2010PropOp47
 70
     1
102
RTVSPost2010Prop48
 90
       50
102
RTVSPost2010PropOp48
 70
     1
102
RTVSPost2010Prop49
280
     0
102
RTVSPost2010PropOp49
 70
     1
102
RTVSPost2010Prop50
 90
       50
102
RTVSPost2010PropOp50
 70
     1
102
RTVSPost2010Prop51ColorIndex
 90
      256
102
RTVSPost2010Prop51ColorRGB
 90
-16777216
102
RTVSPost2010PropOp51
 70
     0
102
RTVSPost2010Prop52
140
1.0
102
RTVSPost2010PropOp52
 70
     0
102
RTVSPost2010Prop53
 90
        2
102
RTVSPost2010PropOp53
 70
     1
102
RTVSPost2010Prop54
  1
strokes_ogs.tif
102
RTVSPost2010PropOp54
 70
     1
102
RTVSPost2010Prop55
280
     0
102
RTVSPost2010PropOp55
 70
     1
102
RTVSPost2010Prop56
140
1.0
102
RTVSPost2010PropOp56
 70
     1
102
RTVSPost2010Prop57
140
1.0
102
RTVSPost2010PropOp57
 70
     1
102
RTVSPropertyOp0
 70
     1
102
RTVSPropertyOp1
 70
     1
102
RTVSPropertyOp2
 70
     1
102
RTVSPropertyOp3
 70
     1
102
RTVSPropertyOp4
 70
     1
102
RTVSPropertyOp5
 70
     1
102
RTVSPropertyOp6
 70
     1
102
RTVSPropertyOp7
 70
     1
102
RTVSPropertyOp8
 70
     1
102
RTVSPropertyOp9
 70
     1
102
RTVSPropertyOp10
 70
     1
102
RTVSPropertyOp11
 70
     1
102
RTVSPropertyOp12
 70
     1
102
RTVSPropertyOp13
 70
     1
102
RTVSPropertyOp14
 70
     1
102
RTVSPropertyOp15
 70
     1
102
RTVSPropertyOp16
 70
     1
102
RTVSPropertyOp17
 70
     1
102
RTVSPropertyOp18
 70
     1
102
RTVSPropertyOp19
 70
     1
102
RTVSPropertyOp20
 70
     1
102
RTVSPropertyOp21
 70
     1
102
RTVSPropertyOp22
 70
     1
102
RTVSPropertyOp23
 70
     1
102
RTVSPropertyOp24
 70
     1
102
RTVSPropertyOp25
 70
     1
102
RTVSPropertyOp26
 70
     1
102
RTVSPropertyOp27
 70
     1
102
RTVSPropertyOp28
 70
     1
102
RTVSPropertyOp29
 70
     1
102
RTVSPropertyOp30
 70
     1
102
RTVSPropertyOp31
 70
     1
102
RTVSPropertyOp32
 70
     1
102
RTVSPropertyOp33
 70
     1
102
RTVSPropertyOp34
 70
     1
102
RTVSPropertyOp35
 70
     1
102
RTVSPropertyOp36
 70
     1
102
RTVSPropertyOp37
 70
     1
102
RTVSPropertyOp38
 70
     1
102
RTVSPropertyOp39
 70
     1
102
RTVSPropertyOp40
 70
     1
102
RTVSPropertyOp41
 70
     1
102
RTVSPropertyOp42
 70
     1
102
RTVSPropertyOp43
 70
     1
102
RTVSPropertyOp44
 70
     1
102
RTVSPropertyOp45
 70
     1
102
RTVSPropertyOp46
 70
     1
102
RTVSPropertyOp47
 70
     1
102
RTVSPropertyOp48
 70
     1
102
RTVSPropertyOp49
 70
     1
102
RTVSPropertyOp50
 70
     1
102
RTVSPropertyOp51
 70
     0
102
RTVSPropertyOp52
 70
     0
102
RTVSPropertyOp53
 70
     1
102
RTVSPropertyOp54
 70
     1
102
RTVSPropertyOp55
 70
     1
102
RTVSPropertyOp56
 70
     1
102
RTVSPropertyOp57
 70
     1
102
RTVSPropertyOp58
 70
     1
102
RTVSPropertyOp59
 70
     1
102
RTVSPropertyOp60
 70
     1
102
RTVSPropertyOp61
 70
     1
102
RTVSPropertyOp62
 70
     1
  0
XRECORD
  5
10BF
102
{ACAD_REACTORS
330
10BE
102
}
330
10BE
100
AcDbXrecord
280
     1
102
RTVSPost2010Prop28
280
     0
102
RTVSPost2010PropOp28
 70
     1
102
RTVSPost2010Prop29
280
     1
102
RTVSPost2010PropOp29
 70
     1
102
RTVSPost2010Prop30
280
     1
102
RTVSPost2010PropOp30
 70
     1
102
RTVSPost2010Prop31
280
     0
102
RTVSPost2010PropOp31
 70
     1
102
RTVSPost2010Prop32
280
     0
102
RTVSPost2010PropOp32
 70
     1
102
RTVSPost2010Prop33
280
     0
102
RTVSPost2010PropOp33
 70
     1
102
RTVSPost2010Prop34
280
     0
102
RTVSPost2010PropOp34
 70
     1
102
RTVSPost2010Prop35
280
     0
102
RTVSPost2010PropOp35
 70
     1
102
RTVSPost2010Prop36
280
     0
102
RTVSPost2010PropOp36
 70
     1
102
RTVSPost2010Prop37
 90
       50
102
RTVSPost2010PropOp37
 70
     1
102
RTVSPost2010Prop38
140
0.0
102
RTVSPost2010PropOp38
 70
     1
102
RTVSPost2010Prop39
140
1.0
102
RTVSPost2010PropOp39
 70
     1
102
RTVSPost2010Prop40
 90
        0
102
RTVSPost2010PropOp40
 70
     1
102
RTVSPost2010Prop41ColorIndex
 90
       18
102
RTVSPost2010Prop41ColorRGB
 90
        0
102
RTVSPost2010PropOp41
 70
     1
102
RTVSPost2010Prop42
 90
       50
102
RTVSPost2010PropOp42
 70
     1
102
RTVSPost2010Prop43
 90
        3
102
RTVSPost2010PropOp43
 70
     1
102
RTVSPost2010Prop44ColorIndex
 90
        5
102
RTVSPost2010Prop44ColorRGB
 90
      255
102
RTVSPost2010PropOp44
 70
     1
102
RTVSPost2010Prop45
280
     0
102
RTVSPost2010PropOp45
 70
     1
102
RTVSPost2010Prop46
 90
       50
102
RTVSPost2010PropOp46
 70
     1
102
RTVSPost2010Prop47
 90
       50
102
RTVSPost2010PropOp47
 70
     1
102
RTVSPost2010Prop48
 90
       50
102
RTVSPost2010PropOp48
 70
     1
102
RTVSPost2010Prop49
280
     0
102
RTVSPost2010PropOp49
 70
     1
102
RTVSPost2010Prop50
 90
       50
102
RTVSPost2010PropOp50
 70
     1
102
RTVSPost2010Prop51ColorIndex
 90
      256
102
RTVSPost2010Prop51ColorRGB
 90
-16777216
102
RTVSPost2010PropOp51
 70
     0
102
RTVSPost2010Prop52
140
1.0
102
RTVSPost2010PropOp52
 70
     0
102
RTVSPost2010Prop53
 90
        2
102
RTVSPost2010PropOp53
 70
     1
102
RTVSPost2010Prop54
  1
strokes_ogs.tif
102
RTVSPost2010PropOp54
 70
     1
102
RTVSPost2010Prop55
280
     0
102
RTVSPost2010PropOp55
 70
     1
102
RTVSPost2010Prop56
140
1.0
102
RTVSPost2010PropOp56
 70
     1
102
RTVSPost2010Prop57
140
1.0
102
RTVSPost2010PropOp57
 70
     1
102
RTVSPropertyOp0
 70
     1
102
RTVSPropertyOp1
 70
     1
102
RTVSPropertyOp2
 70
     1
102
RTVSPropertyOp3
 70
     1
102
RTVSPropertyOp4
 70
     1
102
RTVSPropertyOp5
 70
     1
102
RTVSPropertyOp6
 70
     1
102
RTVSPropertyOp7
 70
     1
102
RTVSPropertyOp8
 70
     1
102
RTVSPropertyOp9
 70
     1
102
RTVSPropertyOp10
 70
     1
102
RTVSPropertyOp11
 70
     1
102
RTVSPropertyOp12
 70
     1
102
RTVSPropertyOp13
 70
     1
102
RTVSPropertyOp14
 70
     1
102
RTVSPropertyOp15
 70
     1
102
RTVSPropertyOp16
 70
     1
102
RTVSPropertyOp17
 70
     1
102
RTVSPropertyOp18
 70
     1
102
RTVSPropertyOp19
 70
     1
102
RTVSPropertyOp20
 70
     1
102
RTVSPropertyOp21
 70
     1
102
RTVSPropertyOp22
 70
     1
102
RTVSPropertyOp23
 70
     1
102
RTVSPropertyOp24
 70
     1
102
RTVSPropertyOp25
 70
     1
102
RTVSPropertyOp26
 70
     1
102
RTVSPropertyOp27
 70
     1
102
RTVSPropertyOp28
 70
     1
102
RTVSPropertyOp29
 70
     1
102
RTVSPropertyOp30
 70
     1
102
RTVSPropertyOp31
 70
     1
102
RTVSPropertyOp32
 70
     1
102
RTVSPropertyOp33
 70
     1
102
RTVSPropertyOp34
 70
     1
102
RTVSPropertyOp35
 70
     1
102
RTVSPropertyOp36
 70
     1
102
RTVSPropertyOp37
 70
     1
102
RTVSPropertyOp38
 70
     1
102
RTVSPropertyOp39
 70
     1
102
RTVSPropertyOp40
 70
     1
102
RTVSPropertyOp41
 70
     1
102
RTVSPropertyOp42
 70
     1
102
RTVSPropertyOp43
 70
     1
102
RTVSPropertyOp44
 70
     1
102
RTVSPropertyOp45
 70
     1
102
RTVSPropertyOp46
 70
     1
102
RTVSPropertyOp47
 70
     1
102
RTVSPropertyOp48
 70
     1
102
RTVSPropertyOp49
 70
     1
102
RTVSPropertyOp50
 70
     1
102
RTVSPropertyOp51
 70
     0
102
RTVSPropertyOp52
 70
     0
102
RTVSPropertyOp53
 70
     1
102
RTVSPropertyOp54
 70
     1
102
RTVSPropertyOp55
 70
     1
102
RTVSPropertyOp56
 70
     1
102
RTVSPropertyOp57
 70
     1
102
RTVSPropertyOp58
 70
     1
102
RTVSPropertyOp59
 70
     1
102
RTVSPropertyOp60
 70
     1
102
RTVSPropertyOp61
 70
     1
102
RTVSPropertyOp62
 70
     1
  0
XRECORD
  5
10BD
102
{ACAD_REACTORS
330
10BC
102
}
330
10BC
100
AcDbXrecord
280
     1
102
RTVSPost2010Prop28
280
     0
102
RTVSPost2010PropOp28
 70
     1
102
RTVSPost2010Prop29
280
     1
102
RTVSPost2010PropOp29
 70
     1
102
RTVSPost2010Prop30
280
     1
102
RTVSPost2010PropOp30
 70
     1
102
RTVSPost2010Prop31
280
     0
102
RTVSPost2010PropOp31
 70
     1
102
RTVSPost2010Prop32
280
     0
102
RTVSPost2010PropOp32
 70
     1
102
RTVSPost2010Prop33
280
     0
102
RTVSPost2010PropOp33
 70
     1
102
RTVSPost2010Prop34
280
     0
102
RTVSPost2010PropOp34
 70
     1
102
RTVSPost2010Prop35
280
     0
102
RTVSPost2010PropOp35
 70
     1
102
RTVSPost2010Prop36
280
     0
102
RTVSPost2010PropOp36
 70
     1
102
RTVSPost2010Prop37
 90
       50
102
RTVSPost2010PropOp37
 70
     1
102
RTVSPost2010Prop38
140
0.0
102
RTVSPost2010PropOp38
 70
     1
102
RTVSPost2010Prop39
140
1.0
102
RTVSPost2010PropOp39
 70
     1
102
RTVSPost2010Prop40
 90
        0
102
RTVSPost2010PropOp40
 70
     1
102
RTVSPost2010Prop41ColorIndex
 90
       18
102
RTVSPost2010Prop41ColorRGB
 90
        0
102
RTVSPost2010PropOp41
 70
     1
102
RTVSPost2010Prop42
 90
       50
102
RTVSPost2010PropOp42
 70
     1
102
RTVSPost2010Prop43
 90
        3
102
RTVSPost2010PropOp43
 70
     1
102
RTVSPost2010Prop44ColorIndex
 90
        5
102
RTVSPost2010Prop44ColorRGB
 90
      255
102
RTVSPost2010PropOp44
 70
     1
102
RTVSPost2010Prop45
280
     0
102
RTVSPost2010PropOp45
 70
     1
102
RTVSPost2010Prop46
 90
       50
102
RTVSPost2010PropOp46
 70
     1
102
RTVSPost2010Prop47
 90
       50
102
RTVSPost2010PropOp47
 70
     1
102
RTVSPost2010Prop48
 90
       50
102
RTVSPost2010PropOp48
 70
     1
102
RTVSPost2010Prop49
280
     0
102
RTVSPost2010PropOp49
 70
     1
102
RTVSPost2010Prop50
 90
       50
102
RTVSPost2010PropOp50
 70
     1
102
RTVSPost2010Prop51ColorIndex
 90
      256
102
RTVSPost2010Prop51ColorRGB
 90
-16777216
102
RTVSPost2010PropOp51
 70
     0
102
RTVSPost2010Prop52
140
1.0
102
RTVSPost2010PropOp52
 70
     0
102
RTVSPost2010Prop53
 90
        2
102
RTVSPost2010PropOp53
 70
     1
102
RTVSPost2010Prop54
  1
strokes_ogs.tif
102
RTVSPost2010PropOp54
 70
     1
102
RTVSPost2010Prop55
280
     0
102
RTVSPost2010PropOp55
 70
     1
102
RTVSPost2010Prop56
140
1.0
102
RTVSPost2010PropOp56
 70
     1
102
RTVSPost2010Prop57
140
1.0
102
RTVSPost2010PropOp57
 70
     1
102
RTVSPropertyOp0
 70
     1
102
RTVSPropertyOp1
 70
     1
102
RTVSPropertyOp2
 70
     1
102
RTVSPropertyOp3
 70
     1
102
RTVSPropertyOp4
 70
     1
102
RTVSPropertyOp5
 70
     1
102
RTVSPropertyOp6
 70
     1
102
RTVSPropertyOp7
 70
     1
102
RTVSPropertyOp8
 70
     1
102
RTVSPropertyOp9
 70
     1
102
RTVSPropertyOp10
 70
     1
102
RTVSPropertyOp11
 70
     1
102
RTVSPropertyOp12
 70
     1
102
RTVSPropertyOp13
 70
     1
102
RTVSPropertyOp14
 70
     1
102
RTVSPropertyOp15
 70
     1
102
RTVSPropertyOp16
 70
     1
102
RTVSPropertyOp17
 70
     1
102
RTVSPropertyOp18
 70
     1
102
RTVSPropertyOp19
 70
     1
102
RTVSPropertyOp20
 70
     1
102
RTVSPropertyOp21
 70
     1
102
RTVSPropertyOp22
 70
     1
102
RTVSPropertyOp23
 70
     1
102
RTVSPropertyOp24
 70
     1
102
RTVSPropertyOp25
 70
     1
102
RTVSPropertyOp26
 70
     1
102
RTVSPropertyOp27
 70
     1
102
RTVSPropertyOp28
 70
     1
102
RTVSPropertyOp29
 70
     1
102
RTVSPropertyOp30
 70
     1
102
RTVSPropertyOp31
 70
     1
102
RTVSPropertyOp32
 70
     1
102
RTVSPropertyOp33
 70
     1
102
RTVSPropertyOp34
 70
     1
102
RTVSPropertyOp35
 70
     1
102
RTVSPropertyOp36
 70
     1
102
RTVSPropertyOp37
 70
     1
102
RTVSPropertyOp38
 70
     1
102
RTVSPropertyOp39
 70
     1
102
RTVSPropertyOp40
 70
     1
102
RTVSPropertyOp41
 70
     1
102
RTVSPropertyOp42
 70
     1
102
RTVSPropertyOp43
 70
     1
102
RTVSPropertyOp44
 70
     1
102
RTVSPropertyOp45
 70
     1
102
RTVSPropertyOp46
 70
     1
102
RTVSPropertyOp47
 70
     1
102
RTVSPropertyOp48
 70
     1
102
RTVSPropertyOp49
 70
     1
102
RTVSPropertyOp50
 70
     1
102
RTVSPropertyOp51
 70
     0
102
RTVSPropertyOp52
 70
     0
102
RTVSPropertyOp53
 70
     1
102
RTVSPropertyOp54
 70
     1
102
RTVSPropertyOp55
 70
     1
102
RTVSPropertyOp56
 70
     1
102
RTVSPropertyOp57
 70
     1
102
RTVSPropertyOp58
 70
     1
102
RTVSPropertyOp59
 70
     1
102
RTVSPropertyOp60
 70
     1
102
RTVSPropertyOp61
 70
     1
102
RTVSPropertyOp62
 70
     1
  0
XRECORD
  5
10B7
102
{ACAD_REACTORS
330
10B6
102
}
330
10B6
100
AcDbXrecord
280
     1
102
RTVSPost2010Prop28
280
     0
102
RTVSPost2010PropOp28
 70
     1
102
RTVSPost2010Prop29
280
     1
102
RTVSPost2010PropOp29
 70
     1
102
RTVSPost2010Prop30
280
     1
102
RTVSPost2010PropOp30
 70
     1
102
RTVSPost2010Prop31
280
     0
102
RTVSPost2010PropOp31
 70
     1
102
RTVSPost2010Prop32
280
     0
102
RTVSPost2010PropOp32
 70
     1
102
RTVSPost2010Prop33
280
     0
102
RTVSPost2010PropOp33
 70
     1
102
RTVSPost2010Prop34
280
     0
102
RTVSPost2010PropOp34
 70
     1
102
RTVSPost2010Prop35
280
     0
102
RTVSPost2010PropOp35
 70
     1
102
RTVSPost2010Prop36
280
     0
102
RTVSPost2010PropOp36
 70
     1
102
RTVSPost2010Prop37
 90
       50
102
RTVSPost2010PropOp37
 70
     1
102
RTVSPost2010Prop38
140
0.0
102
RTVSPost2010PropOp38
 70
     1
102
RTVSPost2010Prop39
140
1.0
102
RTVSPost2010PropOp39
 70
     1
102
RTVSPost2010Prop40
 90
        0
102
RTVSPost2010PropOp40
 70
     1
102
RTVSPost2010Prop41ColorIndex
 90
       18
102
RTVSPost2010Prop41ColorRGB
 90
        0
102
RTVSPost2010PropOp41
 70
     1
102
RTVSPost2010Prop42
 90
       50
102
RTVSPost2010PropOp42
 70
     1
102
RTVSPost2010Prop43
 90
        3
102
RTVSPost2010PropOp43
 70
     1
102
RTVSPost2010Prop44ColorIndex
 90
        5
102
RTVSPost2010Prop44ColorRGB
 90
      255
102
RTVSPost2010PropOp44
 70
     1
102
RTVSPost2010Prop45
280
     0
102
RTVSPost2010PropOp45
 70
     1
102
RTVSPost2010Prop46
 90
       50
102
RTVSPost2010PropOp46
 70
     1
102
RTVSPost2010Prop47
 90
       50
102
RTVSPost2010PropOp47
 70
     1
102
RTVSPost2010Prop48
 90
       50
102
RTVSPost2010PropOp48
 70
     1
102
RTVSPost2010Prop49
280
     0
102
RTVSPost2010PropOp49
 70
     1
102
RTVSPost2010Prop50
 90
       50
102
RTVSPost2010PropOp50
 70
     1
102
RTVSPost2010Prop51ColorIndex
 90
      256
102
RTVSPost2010Prop51ColorRGB
 90
-16777216
102
RTVSPost2010PropOp51
 70
     0
102
RTVSPost2010Prop52
140
1.0
102
RTVSPost2010PropOp52
 70
     0
102
RTVSPost2010Prop53
 90
        2
102
RTVSPost2010PropOp53
 70
     1
102
RTVSPost2010Prop54
  1
strokes_ogs.tif
102
RTVSPost2010PropOp54
 70
     1
102
RTVSPost2010Prop55
280
     0
102
RTVSPost2010PropOp55
 70
     1
102
RTVSPost2010Prop56
140
1.0
102
RTVSPost2010PropOp56
 70
     1
102
RTVSPost2010Prop57
140
1.0
102
RTVSPost2010PropOp57
 70
     1
102
RTVSPropertyOp0
 70
     1
102
RTVSPropertyOp1
 70
     1
102
RTVSPropertyOp2
 70
     1
102
RTVSPropertyOp3
 70
     1
102
RTVSPropertyOp4
 70
     1
102
RTVSPropertyOp5
 70
     1
102
RTVSPropertyOp6
 70
     1
102
RTVSPropertyOp7
 70
     1
102
RTVSPropertyOp8
 70
     1
102
RTVSPropertyOp9
 70
     1
102
RTVSPropertyOp10
 70
     1
102
RTVSPropertyOp11
 70
     1
102
RTVSPropertyOp12
 70
     1
102
RTVSPropertyOp13
 70
     1
102
RTVSPropertyOp14
 70
     1
102
RTVSPropertyOp15
 70
     1
102
RTVSPropertyOp16
 70
     1
102
RTVSPropertyOp17
 70
     1
102
RTVSPropertyOp18
 70
     1
102
RTVSPropertyOp19
 70
     1
102
RTVSPropertyOp20
 70
     1
102
RTVSPropertyOp21
 70
     1
102
RTVSPropertyOp22
 70
     1
102
RTVSPropertyOp23
 70
     1
102
RTVSPropertyOp24
 70
     1
102
RTVSPropertyOp25
 70
     1
102
RTVSPropertyOp26
 70
     1
102
RTVSPropertyOp27
 70
     1
102
RTVSPropertyOp28
 70
     1
102
RTVSPropertyOp29
 70
     1
102
RTVSPropertyOp30
 70
     1
102
RTVSPropertyOp31
 70
     1
102
RTVSPropertyOp32
 70
     1
102
RTVSPropertyOp33
 70
     1
102
RTVSPropertyOp34
 70
     1
102
RTVSPropertyOp35
 70
     1
102
RTVSPropertyOp36
 70
     1
102
RTVSPropertyOp37
 70
     1
102
RTVSPropertyOp38
 70
     1
102
RTVSPropertyOp39
 70
     1
102
RTVSPropertyOp40
 70
     1
102
RTVSPropertyOp41
 70
     1
102
RTVSPropertyOp42
 70
     1
102
RTVSPropertyOp43
 70
     1
102
RTVSPropertyOp44
 70
     1
102
RTVSPropertyOp45
 70
     1
102
RTVSPropertyOp46
 70
     1
102
RTVSPropertyOp47
 70
     1
102
RTVSPropertyOp48
 70
     1
102
RTVSPropertyOp49
 70
     1
102
RTVSPropertyOp50
 70
     1
102
RTVSPropertyOp51
 70
     0
102
RTVSPropertyOp52
 70
     0
102
RTVSPropertyOp53
 70
     1
102
RTVSPropertyOp54
 70
     1
102
RTVSPropertyOp55
 70
     1
102
RTVSPropertyOp56
 70
     1
102
RTVSPropertyOp57
 70
     1
102
RTVSPropertyOp58
 70
     1
102
RTVSPropertyOp59
 70
     1
102
RTVSPropertyOp60
 70
     1
102
RTVSPropertyOp61
 70
     1
102
RTVSPropertyOp62
 70
     1
  0
XRECORD
  5
10B9
102
{ACAD_REACTORS
330
10B8
102
}
330
10B8
100
AcDbXrecord
280
     1
102
RTVSPost2010Prop28
280
     0
102
RTVSPost2010PropOp28
 70
     1
102
RTVSPost2010Prop29
280
     1
102
RTVSPost2010PropOp29
 70
     1
102
RTVSPost2010Prop30
280
     1
102
RTVSPost2010PropOp30
 70
     1
102
RTVSPost2010Prop31
280
     0
102
RTVSPost2010PropOp31
 70
     1
102
RTVSPost2010Prop32
280
     0
102
RTVSPost2010PropOp32
 70
     1
102
RTVSPost2010Prop33
280
     0
102
RTVSPost2010PropOp33
 70
     1
102
RTVSPost2010Prop34
280
     0
102
RTVSPost2010PropOp34
 70
     1
102
RTVSPost2010Prop35
280
     0
102
RTVSPost2010PropOp35
 70
     1
102
RTVSPost2010Prop36
280
     0
102
RTVSPost2010PropOp36
 70
     1
102
RTVSPost2010Prop37
 90
       50
102
RTVSPost2010PropOp37
 70
     1
102
RTVSPost2010Prop38
140
0.0
102
RTVSPost2010PropOp38
 70
     1
102
RTVSPost2010Prop39
140
1.0
102
RTVSPost2010PropOp39
 70
     1
102
RTVSPost2010Prop40
 90
        0
102
RTVSPost2010PropOp40
 70
     1
102
RTVSPost2010Prop41ColorIndex
 90
       18
102
RTVSPost2010Prop41ColorRGB
 90
        0
102
RTVSPost2010PropOp41
 70
     1
102
RTVSPost2010Prop42
 90
       50
102
RTVSPost2010PropOp42
 70
     1
102
RTVSPost2010Prop43
 90
        3
102
RTVSPost2010PropOp43
 70
     1
102
RTVSPost2010Prop44ColorIndex
 90
        5
102
RTVSPost2010Prop44ColorRGB
 90
      255
102
RTVSPost2010PropOp44
 70
     1
102
RTVSPost2010Prop45
280
     0
102
RTVSPost2010PropOp45
 70
     1
102
RTVSPost2010Prop46
 90
       50
102
RTVSPost2010PropOp46
 70
     1
102
RTVSPost2010Prop47
 90
       50
102
RTVSPost2010PropOp47
 70
     1
102
RTVSPost2010Prop48
 90
       50
102
RTVSPost2010PropOp48
 70
     1
102
RTVSPost2010Prop49
280
     0
102
RTVSPost2010PropOp49
 70
     1
102
RTVSPost2010Prop50
 90
       50
102
RTVSPost2010PropOp50
 70
     1
102
RTVSPost2010Prop51ColorIndex
 90
      256
102
RTVSPost2010Prop51ColorRGB
 90
-16777216
102
RTVSPost2010PropOp51
 70
     0
102
RTVSPost2010Prop52
140
1.0
102
RTVSPost2010PropOp52
 70
     0
102
RTVSPost2010Prop53
 90
        2
102
RTVSPost2010PropOp53
 70
     1
102
RTVSPost2010Prop54
  1
strokes_ogs.tif
102
RTVSPost2010PropOp54
 70
     1
102
RTVSPost2010Prop55
280
     0
102
RTVSPost2010PropOp55
 70
     1
102
RTVSPost2010Prop56
140
1.0
102
RTVSPost2010PropOp56
 70
     1
102
RTVSPost2010Prop57
140
1.0
102
RTVSPost2010PropOp57
 70
     1
102
RTVSPropertyOp0
 70
     1
102
RTVSPropertyOp1
 70
     1
102
RTVSPropertyOp2
 70
     1
102
RTVSPropertyOp3
 70
     1
102
RTVSPropertyOp4
 70
     1
102
RTVSPropertyOp5
 70
     1
102
RTVSPropertyOp6
 70
     1
102
RTVSPropertyOp7
 70
     1
102
RTVSPropertyOp8
 70
     1
102
RTVSPropertyOp9
 70
     1
102
RTVSPropertyOp10
 70
     1
102
RTVSPropertyOp11
 70
     1
102
RTVSPropertyOp12
 70
     1
102
RTVSPropertyOp13
 70
     1
102
RTVSPropertyOp14
 70
     1
102
RTVSPropertyOp15
 70
     1
102
RTVSPropertyOp16
 70
     1
102
RTVSPropertyOp17
 70
     1
102
RTVSPropertyOp18
 70
     1
102
RTVSPropertyOp19
 70
     1
102
RTVSPropertyOp20
 70
     1
102
RTVSPropertyOp21
 70
     1
102
RTVSPropertyOp22
 70
     1
102
RTVSPropertyOp23
 70
     1
102
RTVSPropertyOp24
 70
     1
102
RTVSPropertyOp25
 70
     1
102
RTVSPropertyOp26
 70
     1
102
RTVSPropertyOp27
 70
     1
102
RTVSPropertyOp28
 70
     1
102
RTVSPropertyOp29
 70
     1
102
RTVSPropertyOp30
 70
     1
102
RTVSPropertyOp31
 70
     1
102
RTVSPropertyOp32
 70
     1
102
RTVSPropertyOp33
 70
     1
102
RTVSPropertyOp34
 70
     1
102
RTVSPropertyOp35
 70
     1
102
RTVSPropertyOp36
 70
     1
102
RTVSPropertyOp37
 70
     1
102
RTVSPropertyOp38
 70
     1
102
RTVSPropertyOp39
 70
     1
102
RTVSPropertyOp40
 70
     1
102
RTVSPropertyOp41
 70
     1
102
RTVSPropertyOp42
 70
     1
102
RTVSPropertyOp43
 70
     1
102
RTVSPropertyOp44
 70
     1
102
RTVSPropertyOp45
 70
     1
102
RTVSPropertyOp46
 70
     1
102
RTVSPropertyOp47
 70
     1
102
RTVSPropertyOp48
 70
     1
102
RTVSPropertyOp49
 70
     1
102
RTVSPropertyOp50
 70
     1
102
RTVSPropertyOp51
 70
     0
102
RTVSPropertyOp52
 70
     0
102
RTVSPropertyOp53
 70
     1
102
RTVSPropertyOp54
 70
     1
102
RTVSPropertyOp55
 70
     1
102
RTVSPropertyOp56
 70
     1
102
RTVSPropertyOp57
 70
     1
102
RTVSPropertyOp58
 70
     1
102
RTVSPropertyOp59
 70
     1
102
RTVSPropertyOp60
 70
     1
102
RTVSPropertyOp61
 70
     1
102
RTVSPropertyOp62
 70
     1
  0
XRECORD
  5
10AF
102
{ACAD_REACTORS
330
10AE
102
}
330
10AE
100
AcDbXrecord
280
     1
102
RTVSPost2010Prop28
280
     0
102
RTVSPost2010PropOp28
 70
     1
102
RTVSPost2010Prop29
280
     1
102
RTVSPost2010PropOp29
 70
     1
102
RTVSPost2010Prop30
280
     1
102
RTVSPost2010PropOp30
 70
     1
102
RTVSPost2010Prop31
280
     0
102
RTVSPost2010PropOp31
 70
     1
102
RTVSPost2010Prop32
280
     0
102
RTVSPost2010PropOp32
 70
     1
102
RTVSPost2010Prop33
280
     0
102
RTVSPost2010PropOp33
 70
     1
102
RTVSPost2010Prop34
280
     0
102
RTVSPost2010PropOp34
 70
     1
102
RTVSPost2010Prop35
280
     0
102
RTVSPost2010PropOp35
 70
     1
102
RTVSPost2010Prop36
280
     0
102
RTVSPost2010PropOp36
 70
     1
102
RTVSPost2010Prop37
 90
       50
102
RTVSPost2010PropOp37
 70
     1
102
RTVSPost2010Prop38
140
0.0
102
RTVSPost2010PropOp38
 70
     1
102
RTVSPost2010Prop39
140
1.0
102
RTVSPost2010PropOp39
 70
     1
102
RTVSPost2010Prop40
 90
        0
102
RTVSPost2010PropOp40
 70
     1
102
RTVSPost2010Prop41ColorIndex
 90
       18
102
RTVSPost2010Prop41ColorRGB
 90
        0
102
RTVSPost2010PropOp41
 70
     1
102
RTVSPost2010Prop42
 90
       50
102
RTVSPost2010PropOp42
 70
     1
102
RTVSPost2010Prop43
 90
        3
102
RTVSPost2010PropOp43
 70
     1
102
RTVSPost2010Prop44ColorIndex
 90
        5
102
RTVSPost2010Prop44ColorRGB
 90
      255
102
RTVSPost2010PropOp44
 70
     1
102
RTVSPost2010Prop45
280
     0
102
RTVSPost2010PropOp45
 70
     1
102
RTVSPost2010Prop46
 90
       50
102
RTVSPost2010PropOp46
 70
     1
102
RTVSPost2010Prop47
 90
       50
102
RTVSPost2010PropOp47
 70
     1
102
RTVSPost2010Prop48
 90
       50
102
RTVSPost2010PropOp48
 70
     1
102
RTVSPost2010Prop49
280
     0
102
RTVSPost2010PropOp49
 70
     1
102
RTVSPost2010Prop50
 90
       50
102
RTVSPost2010PropOp50
 70
     1
102
RTVSPost2010Prop51ColorIndex
 90
      256
102
RTVSPost2010Prop51ColorRGB
 90
-16777216
102
RTVSPost2010PropOp51
 70
     0
102
RTVSPost2010Prop52
140
1.0
102
RTVSPost2010PropOp52
 70
     0
102
RTVSPost2010Prop53
 90
        2
102
RTVSPost2010PropOp53
 70
     1
102
RTVSPost2010Prop54
  1
strokes_ogs.tif
102
RTVSPost2010PropOp54
 70
     1
102
RTVSPost2010Prop55
280
     0
102
RTVSPost2010PropOp55
 70
     1
102
RTVSPost2010Prop56
140
1.0
102
RTVSPost2010PropOp56
 70
     1
102
RTVSPost2010Prop57
140
1.0
102
RTVSPost2010PropOp57
 70
     1
102
RTVSPropertyOp0
 70
     1
102
RTVSPropertyOp1
 70
     1
102
RTVSPropertyOp2
 70
     1
102
RTVSPropertyOp3
 70
     1
102
RTVSPropertyOp4
 70
     1
102
RTVSPropertyOp5
 70
     1
102
RTVSPropertyOp6
 70
     1
102
RTVSPropertyOp7
 70
     1
102
RTVSPropertyOp8
 70
     1
102
RTVSPropertyOp9
 70
     1
102
RTVSPropertyOp10
 70
     1
102
RTVSPropertyOp11
 70
     1
102
RTVSPropertyOp12
 70
     1
102
RTVSPropertyOp13
 70
     1
102
RTVSPropertyOp14
 70
     1
102
RTVSPropertyOp15
 70
     1
102
RTVSPropertyOp16
 70
     1
102
RTVSPropertyOp17
 70
     1
102
RTVSPropertyOp18
 70
     1
102
RTVSPropertyOp19
 70
     1
102
RTVSPropertyOp20
 70
     1
102
RTVSPropertyOp21
 70
     1
102
RTVSPropertyOp22
 70
     1
102
RTVSPropertyOp23
 70
     1
102
RTVSPropertyOp24
 70
     1
102
RTVSPropertyOp25
 70
     1
102
RTVSPropertyOp26
 70
     1
102
RTVSPropertyOp27
 70
     1
102
RTVSPropertyOp28
 70
     1
102
RTVSPropertyOp29
 70
     1
102
RTVSPropertyOp30
 70
     1
102
RTVSPropertyOp31
 70
     1
102
RTVSPropertyOp32
 70
     1
102
RTVSPropertyOp33
 70
     1
102
RTVSPropertyOp34
 70
     1
102
RTVSPropertyOp35
 70
     1
102
RTVSPropertyOp36
 70
     1
102
RTVSPropertyOp37
 70
     1
102
RTVSPropertyOp38
 70
     1
102
RTVSPropertyOp39
 70
     1
102
RTVSPropertyOp40
 70
     1
102
RTVSPropertyOp41
 70
     1
102
RTVSPropertyOp42
 70
     1
102
RTVSPropertyOp43
 70
     1
102
RTVSPropertyOp44
 70
     1
102
RTVSPropertyOp45
 70
     1
102
RTVSPropertyOp46
 70
     1
102
RTVSPropertyOp47
 70
     1
102
RTVSPropertyOp48
 70
     1
102
RTVSPropertyOp49
 70
     1
102
RTVSPropertyOp50
 70
     1
102
RTVSPropertyOp51
 70
     0
102
RTVSPropertyOp52
 70
     0
102
RTVSPropertyOp53
 70
     1
102
RTVSPropertyOp54
 70
     1
102
RTVSPropertyOp55
 70
     1
102
RTVSPropertyOp56
 70
     1
102
RTVSPropertyOp57
 70
     1
102
RTVSPropertyOp58
 70
     1
102
RTVSPropertyOp59
 70
     1
102
RTVSPropertyOp60
 70
     1
102
RTVSPropertyOp61
 70
     1
102
RTVSPropertyOp62
 70
     1
  0
XRECORD
  5
10A3
102
{ACAD_REACTORS
330
10A2
102
}
330
10A2
100
AcDbXrecord
280
     1
102
RTVSPost2010Prop28
280
     0
102
RTVSPost2010PropOp28
 70
     1
102
RTVSPost2010Prop29
280
     1
102
RTVSPost2010PropOp29
 70
     1
102
RTVSPost2010Prop30
280
     1
102
RTVSPost2010PropOp30
 70
     1
102
RTVSPost2010Prop31
280
     0
102
RTVSPost2010PropOp31
 70
     1
102
RTVSPost2010Prop32
280
     0
102
RTVSPost2010PropOp32
 70
     1
102
RTVSPost2010Prop33
280
     0
102
RTVSPost2010PropOp33
 70
     1
102
RTVSPost2010Prop34
280
     0
102
RTVSPost2010PropOp34
 70
     1
102
RTVSPost2010Prop35
280
     0
102
RTVSPost2010PropOp35
 70
     1
102
RTVSPost2010Prop36
280
     0
102
RTVSPost2010PropOp36
 70
     1
102
RTVSPost2010Prop37
 90
       50
102
RTVSPost2010PropOp37
 70
     1
102
RTVSPost2010Prop38
140
0.0
102
RTVSPost2010PropOp38
 70
     1
102
RTVSPost2010Prop39
140
1.0
102
RTVSPost2010PropOp39
 70
     1
102
RTVSPost2010Prop40
 90
        0
102
RTVSPost2010PropOp40
 70
     1
102
RTVSPost2010Prop41ColorIndex
 90
       18
102
RTVSPost2010Prop41ColorRGB
 90
        0
102
RTVSPost2010PropOp41
 70
     1
102
RTVSPost2010Prop42
 90
       50
102
RTVSPost2010PropOp42
 70
     1
102
RTVSPost2010Prop43
 90
        3
102
RTVSPost2010PropOp43
 70
     1
102
RTVSPost2010Prop44ColorIndex
 90
        5
102
RTVSPost2010Prop44ColorRGB
 90
      255
102
RTVSPost2010PropOp44
 70
     1
102
RTVSPost2010Prop45
280
     0
102
RTVSPost2010PropOp45
 70
     1
102
RTVSPost2010Prop46
 90
       50
102
RTVSPost2010PropOp46
 70
     1
102
RTVSPost2010Prop47
 90
       50
102
RTVSPost2010PropOp47
 70
     1
102
RTVSPost2010Prop48
 90
       50
102
RTVSPost2010PropOp48
 70
     1
102
RTVSPost2010Prop49
280
     0
102
RTVSPost2010PropOp49
 70
     1
102
RTVSPost2010Prop50
 90
       50
102
RTVSPost2010PropOp50
 70
     1
102
RTVSPost2010Prop51ColorIndex
 90
      256
102
RTVSPost2010Prop51ColorRGB
 90
-16777216
102
RTVSPost2010PropOp51
 70
     0
102
RTVSPost2010Prop52
140
1.0
102
RTVSPost2010PropOp52
 70
     0
102
RTVSPost2010Prop53
 90
        2
102
RTVSPost2010PropOp53
 70
     1
102
RTVSPost2010Prop54
  1
strokes_ogs.tif
102
RTVSPost2010PropOp54
 70
     1
102
RTVSPost2010Prop55
280
     0
102
RTVSPost2010PropOp55
 70
     1
102
RTVSPost2010Prop56
140
1.0
102
RTVSPost2010PropOp56
 70
     1
102
RTVSPost2010Prop57
140
1.0
102
RTVSPost2010PropOp57
 70
     1
102
RTVSPropertyOp0
 70
     1
102
RTVSPropertyOp1
 70
     1
102
RTVSPropertyOp2
 70
     1
102
RTVSPropertyOp3
 70
     1
102
RTVSPropertyOp4
 70
     1
102
RTVSPropertyOp5
 70
     1
102
RTVSPropertyOp6
 70
     1
102
RTVSPropertyOp7
 70
     1
102
RTVSPropertyOp8
 70
     1
102
RTVSPropertyOp9
 70
     1
102
RTVSPropertyOp10
 70
     1
102
RTVSPropertyOp11
 70
     1
102
RTVSPropertyOp12
 70
     1
102
RTVSPropertyOp13
 70
     1
102
RTVSPropertyOp14
 70
     1
102
RTVSPropertyOp15
 70
     1
102
RTVSPropertyOp16
 70
     1
102
RTVSPropertyOp17
 70
     1
102
RTVSPropertyOp18
 70
     1
102
RTVSPropertyOp19
 70
     1
102
RTVSPropertyOp20
 70
     1
102
RTVSPropertyOp21
 70
     1
102
RTVSPropertyOp22
 70
     1
102
RTVSPropertyOp23
 70
     1
102
RTVSPropertyOp24
 70
     1
102
RTVSPropertyOp25
 70
     1
102
RTVSPropertyOp26
 70
     1
102
RTVSPropertyOp27
 70
     1
102
RTVSPropertyOp28
 70
     1
102
RTVSPropertyOp29
 70
     1
102
RTVSPropertyOp30
 70
     1
102
RTVSPropertyOp31
 70
     1
102
RTVSPropertyOp32
 70
     1
102
RTVSPropertyOp33
 70
     1
102
RTVSPropertyOp34
 70
     1
102
RTVSPropertyOp35
 70
     1
102
RTVSPropertyOp36
 70
     1
102
RTVSPropertyOp37
 70
     1
102
RTVSPropertyOp38
 70
     1
102
RTVSPropertyOp39
 70
     1
102
RTVSPropertyOp40
 70
     1
102
RTVSPropertyOp41
 70
     1
102
RTVSPropertyOp42
 70
     1
102
RTVSPropertyOp43
 70
     1
102
RTVSPropertyOp44
 70
     1
102
RTVSPropertyOp45
 70
     1
102
RTVSPropertyOp46
 70
     1
102
RTVSPropertyOp47
 70
     1
102
RTVSPropertyOp48
 70
     1
102
RTVSPropertyOp49
 70
     1
102
RTVSPropertyOp50
 70
     1
102
RTVSPropertyOp51
 70
     0
102
RTVSPropertyOp52
 70
     0
102
RTVSPropertyOp53
 70
     1
102
RTVSPropertyOp54
 70
     1
102
RTVSPropertyOp55
 70
     1
102
RTVSPropertyOp56
 70
     1
102
RTVSPropertyOp57
 70
     1
102
RTVSPropertyOp58
 70
     1
102
RTVSPropertyOp59
 70
     1
102
RTVSPropertyOp60
 70
     1
102
RTVSPropertyOp61
 70
     1
102
RTVSPropertyOp62
 70
     1
  0
XRECORD
  5
10BB
102
{ACAD_REACTORS
330
10BA
102
}
330
10BA
100
AcDbXrecord
280
     1
102
RTVSPost2010Prop28
280
     0
102
RTVSPost2010PropOp28
 70
     1
102
RTVSPost2010Prop29
280
     1
102
RTVSPost2010PropOp29
 70
     1
102
RTVSPost2010Prop30
280
     1
102
RTVSPost2010PropOp30
 70
     1
102
RTVSPost2010Prop31
280
     0
102
RTVSPost2010PropOp31
 70
     1
102
RTVSPost2010Prop32
280
     0
102
RTVSPost2010PropOp32
 70
     1
102
RTVSPost2010Prop33
280
     0
102
RTVSPost2010PropOp33
 70
     1
102
RTVSPost2010Prop34
280
     0
102
RTVSPost2010PropOp34
 70
     1
102
RTVSPost2010Prop35
280
     0
102
RTVSPost2010PropOp35
 70
     1
102
RTVSPost2010Prop36
280
     0
102
RTVSPost2010PropOp36
 70
     1
102
RTVSPost2010Prop37
 90
       50
102
RTVSPost2010PropOp37
 70
     1
102
RTVSPost2010Prop38
140
0.0
102
RTVSPost2010PropOp38
 70
     1
102
RTVSPost2010Prop39
140
1.0
102
RTVSPost2010PropOp39
 70
     1
102
RTVSPost2010Prop40
 90
        0
102
RTVSPost2010PropOp40
 70
     1
102
RTVSPost2010Prop41ColorIndex
 90
       18
102
RTVSPost2010Prop41ColorRGB
 90
        0
102
RTVSPost2010PropOp41
 70
     1
102
RTVSPost2010Prop42
 90
       50
102
RTVSPost2010PropOp42
 70
     1
102
RTVSPost2010Prop43
 90
        3
102
RTVSPost2010PropOp43
 70
     1
102
RTVSPost2010Prop44ColorIndex
 90
        5
102
RTVSPost2010Prop44ColorRGB
 90
      255
102
RTVSPost2010PropOp44
 70
     1
102
RTVSPost2010Prop45
280
     0
102
RTVSPost2010PropOp45
 70
     1
102
RTVSPost2010Prop46
 90
       50
102
RTVSPost2010PropOp46
 70
     1
102
RTVSPost2010Prop47
 90
       50
102
RTVSPost2010PropOp47
 70
     1
102
RTVSPost2010Prop48
 90
       50
102
RTVSPost2010PropOp48
 70
     1
102
RTVSPost2010Prop49
280
     0
102
RTVSPost2010PropOp49
 70
     1
102
RTVSPost2010Prop50
 90
       50
102
RTVSPost2010PropOp50
 70
     1
102
RTVSPost2010Prop51ColorIndex
 90
      256
102
RTVSPost2010Prop51ColorRGB
 90
-16777216
102
RTVSPost2010PropOp51
 70
     0
102
RTVSPost2010Prop52
140
1.0
102
RTVSPost2010PropOp52
 70
     0
102
RTVSPost2010Prop53
 90
        2
102
RTVSPost2010PropOp53
 70
     1
102
RTVSPost2010Prop54
  1
strokes_ogs.tif
102
RTVSPost2010PropOp54
 70
     1
102
RTVSPost2010Prop55
280
     0
102
RTVSPost2010PropOp55
 70
     1
102
RTVSPost2010Prop56
140
1.0
102
RTVSPost2010PropOp56
 70
     1
102
RTVSPost2010Prop57
140
1.0
102
RTVSPost2010PropOp57
 70
     1
102
RTVSPropertyOp0
 70
     1
102
RTVSPropertyOp1
 70
     1
102
RTVSPropertyOp2
 70
     1
102
RTVSPropertyOp3
 70
     1
102
RTVSPropertyOp4
 70
     1
102
RTVSPropertyOp5
 70
     1
102
RTVSPropertyOp6
 70
     1
102
RTVSPropertyOp7
 70
     1
102
RTVSPropertyOp8
 70
     1
102
RTVSPropertyOp9
 70
     1
102
RTVSPropertyOp10
 70
     1
102
RTVSPropertyOp11
 70
     1
102
RTVSPropertyOp12
 70
     1
102
RTVSPropertyOp13
 70
     1
102
RTVSPropertyOp14
 70
     1
102
RTVSPropertyOp15
 70
     1
102
RTVSPropertyOp16
 70
     1
102
RTVSPropertyOp17
 70
     1
102
RTVSPropertyOp18
 70
     1
102
RTVSPropertyOp19
 70
     1
102
RTVSPropertyOp20
 70
     1
102
RTVSPropertyOp21
 70
     1
102
RTVSPropertyOp22
 70
     1
102
RTVSPropertyOp23
 70
     1
102
RTVSPropertyOp24
 70
     1
102
RTVSPropertyOp25
 70
     1
102
RTVSPropertyOp26
 70
     1
102
RTVSPropertyOp27
 70
     1
102
RTVSPropertyOp28
 70
     1
102
RTVSPropertyOp29
 70
     1
102
RTVSPropertyOp30
 70
     1
102
RTVSPropertyOp31
 70
     1
102
RTVSPropertyOp32
 70
     1
102
RTVSPropertyOp33
 70
     1
102
RTVSPropertyOp34
 70
     1
102
RTVSPropertyOp35
 70
     1
102
RTVSPropertyOp36
 70
     1
102
RTVSPropertyOp37
 70
     1
102
RTVSPropertyOp38
 70
     1
102
RTVSPropertyOp39
 70
     1
102
RTVSPropertyOp40
 70
     1
102
RTVSPropertyOp41
 70
     1
102
RTVSPropertyOp42
 70
     1
102
RTVSPropertyOp43
 70
     1
102
RTVSPropertyOp44
 70
     1
102
RTVSPropertyOp45
 70
     1
102
RTVSPropertyOp46
 70
     1
102
RTVSPropertyOp47
 70
     1
102
RTVSPropertyOp48
 70
     1
102
RTVSPropertyOp49
 70
     1
102
RTVSPropertyOp50
 70
     1
102
RTVSPropertyOp51
 70
     0
102
RTVSPropertyOp52
 70
     0
102
RTVSPropertyOp53
 70
     1
102
RTVSPropertyOp54
 70
     1
102
RTVSPropertyOp55
 70
     1
102
RTVSPropertyOp56
 70
     1
102
RTVSPropertyOp57
 70
     1
102
RTVSPropertyOp58
 70
     1
102
RTVSPropertyOp59
 70
     1
102
RTVSPropertyOp60
 70
     1
102
RTVSPropertyOp61
 70
     1
102
RTVSPropertyOp62
 70
     1
  0
ENDSEC
  0
EOF
