  0
SECTION
  2
HEADER
  9
$ACADVER
  1
AC1018
  9
$ACADMAINTVER
 70
   104
  9
$DWGCODEPAGE
  3
ANSI_1252
  9
$LASTSAVEDBY
  1
titadi
  9
$INSBASE
 10
0.0
 20
0.0
 30
0.0
  9
$EXTMIN
 10
-94.74575636482995
 20
-31.27487066350273
 30
-0.000000000000013
  9
$EXTMAX
 10
94.86171070516775
 20
100.5740364601067
 30
0.0000000000000023
  9
$LIMMIN
 10
-170.0
 20
-170.0
  9
$LIMMAX
 10
519.0
 20
260.0
  9
$ORTHOMODE
 70
     1
  9
$REGENMODE
 70
     1
  9
$FILLMODE
 70
     1
  9
$QTEXTMODE
 70
     0
  9
$MIRRTEXT
 70
     0
  9
$LTSCALE
 40
1.0
  9
$ATTMODE
 70
     1
  9
$TEXTSIZE
 40
3.5
  9
$TRACEWID
 40
1.0
  9
$TEXTSTYLE
  7
SIMPLEX
  9
$CLAYER
  8
1
  9
$CELTYPE
  6
BYLAYER
  9
$CECOLOR
 62
   256
  9
$CELTSCALE
 40
1.0
  9
$DISPSILH
 70
     0
  9
$DIMSCALE
 40
1.0
  9
$DIMASZ
 40
2.5
  9
$DIMEXO
 40
0.0
  9
$DIMDLI
 40
3.75
  9
$DIMRND
 40
0.0
  9
$DIMDLE
 40
0.0
  9
$DIMEXE
 40
1.25
  9
$DIMTP
 40
0.0
  9
$DIMTM
 40
0.0
  9
$DIMTXT
 40
3.5
  9
$DIMCEN
 40
0.0
  9
$DIMTSZ
 40
0.0
  9
$DIMTOL
 70
     0
  9
$DIMLIM
 70
     0
  9
$DIMTIH
 70
     0
  9
$DIMTOH
 70
     0
  9
$DIMSE1
 70
     0
  9
$DIMSE2
 70
     0
  9
$DIMTAD
 70
     1
  9
$DIMZIN
 70
     8
  9
$DIMBLK
  1

  9
$DIMASO
 70
     1
  9
$DIMSHO
 70
     1
  9
$DIMPOST
  1

  9
$DIMAPOST
  1

  9
$DIMALT
 70
     0
  9
$DIMALTD
 70
     3
  9
$DIMALTF
 40
0.039370078
  9
$DIMLFAC
 40
1.0
  9
$DIMTOFL
 70
     0
  9
$DIMTVP
 40
0.0
  9
$DIMTIX
 70
     0
  9
$DIMSOXD
 70
     0
  9
$DIMSAH
 70
     0
  9
$DIMBLK1
  1

  9
$DIMBLK2
  1

  9
$DIMSTYLE
  2
STANDARD
  9
$DIMCLRD
 70
     0
  9
$DIMCLRE
 70
     0
  9
$DIMCLRT
 70
     0
  9
$DIMTFAC
 40
1.0
  9
$DIMGAP
 40
0.625
  9
$DIMJUST
 70
     0
  9
$DIMSD1
 70
     0
  9
$DIMSD2
 70
     0
  9
$DIMTOLJ
 70
     0
  9
$DIMTZIN
 70
     8
  9
$DIMALTZ
 70
     0
  9
$DIMALTTZ
 70
     0
  9
$DIMUPT
 70
     0
  9
$DIMDEC
 70
     2
  9
$DIMTDEC
 70
     2
  9
$DIMALTU
 70
     2
  9
$DIMALTTD
 70
     3
  9
$DIMTXSTY
  7
SIMPLEX
  9
$DIMAUNIT
 70
     0
  9
$DIMADEC
 70
     2
  9
$DIMALTRND
 40
0.0
  9
$DIMAZIN
 70
     2
  9
$DIMDSEP
 70
    46
  9
$DIMATFIT
 70
     3
  9
$DIMFRAC
 70
     0
  9
$DIMLDRBLK
  1

  9
$DIMLUNIT
 70
     2
  9
$DIMLWD
 70
    -2
  9
$DIMLWE
 70
    -2
  9
$DIMTMOVE
 70
     0
  9
$LUNITS
 70
     2
  9
$LUPREC
 70
     4
  9
$SKETCHINC
 40
1.0
  9
$FILLETRAD
 40
0.0
  9
$AUNITS
 70
     0
  9
$AUPREC
 70
     0
  9
$MENU
  1
c:\tdm21\cad\caduti13\tdm13
  9
$ELEVATION
 40
0.0
  9
$PELEVATION
 40
0.0
  9
$THICKNESS
 40
0.0
  9
$LIMCHECK
 70
     0
  9
$CHAMFERA
 40
0.0
  9
$CHAMFERB
 40
0.0
  9
$CHAMFERC
 40
0.0
  9
$CHAMFERD
 40
0.0
  9
$SKPOLY
 70
     0
  9
$TDCREATE
 40
2454957.551975972
  9
$TDUCREATE
 40
2454957.510309306
  9
$TDUPDATE
 40
2457340.477215567
  9
$TDUUPDATE
 40
2457340.435548901
  9
$TDINDWG
 40
0.2994004977
  9
$TDUSRTIMER
 40
0.2993825116
  9
$USRTIMER
 70
     1
  9
$ANGBASE
 50
0.0
  9
$ANGDIR
 70
     0
  9
$PDMODE
 70
     1
  9
$PDSIZE
 40
0.0
  9
$PLINEWID
 40
0.0
  9
$SPLFRAME
 70
     0
  9
$SPLINETYPE
 70
     6
  9
$SPLINESEGS
 70
     8
  9
$HANDSEED
  5
FB1
  9
$SURFTAB1
 70
     6
  9
$SURFTAB2
 70
     6
  9
$SURFTYPE
 70
     6
  9
$SURFU
 70
     6
  9
$SURFV
 70
     6
  9
$UCSBASE
  2

  9
$UCSNAME
  2

  9
$UCSORG
 10
0.0
 20
0.0
 30
0.0
  9
$UCSXDIR
 10
1.0
 20
0.0
 30
0.0
  9
$UCSYDIR
 10
0.0
 20
1.0
 30
0.0
  9
$UCSORTHOREF
  2

  9
$UCSORTHOVIEW
 70
     0
  9
$UCSORGTOP
 10
0.0
 20
0.0
 30
0.0
  9
$UCSORGBOTTOM
 10
0.0
 20
0.0
 30
0.0
  9
$UCSORGLEFT
 10
0.0
 20
0.0
 30
0.0
  9
$UCSORGRIGHT
 10
0.0
 20
0.0
 30
0.0
  9
$UCSORGFRONT
 10
0.0
 20
0.0
 30
0.0
  9
$UCSORGBACK
 10
0.0
 20
0.0
 30
0.0
  9
$PUCSBASE
  2

  9
$PUCSNAME
  2

  9
$PUCSORG
 10
0.0
 20
0.0
 30
0.0
  9
$PUCSXDIR
 10
1.0
 20
0.0
 30
0.0
  9
$PUCSYDIR
 10
0.0
 20
1.0
 30
0.0
  9
$PUCSORTHOREF
  2

  9
$PUCSORTHOVIEW
 70
     0
  9
$PUCSORGTOP
 10
0.0
 20
0.0
 30
0.0
  9
$PUCSORGBOTTOM
 10
0.0
 20
0.0
 30
0.0
  9
$PUCSORGLEFT
 10
0.0
 20
0.0
 30
0.0
  9
$PUCSORGRIGHT
 10
0.0
 20
0.0
 30
0.0
  9
$PUCSORGFRONT
 10
0.0
 20
0.0
 30
0.0
  9
$PUCSORGBACK
 10
0.0
 20
0.0
 30
0.0
  9
$USERI1
 70
     0
  9
$USERI2
 70
     0
  9
$USERI3
 70
     0
  9
$USERI4
 70
     0
  9
$USERI5
 70
     0
  9
$USERR1
 40
0.0
  9
$USERR2
 40
0.0
  9
$USERR3
 40
0.0
  9
$USERR4
 40
0.0
  9
$USERR5
 40
0.0
  9
$WORLDVIEW
 70
     1
  9
$SHADEDGE
 70
     3
  9
$SHADEDIF
 70
    70
  9
$TILEMODE
 70
     1
  9
$MAXACTVP
 70
    64
  9
$PINSBASE
 10
0.0
 20
0.0
 30
0.0
  9
$PLIMCHECK
 70
     0
  9
$PEXTMIN
 10
0.0
 20
0.0
 30
0.0
  9
$PEXTMAX
 10
0.0
 20
0.0
 30
0.0
  9
$PLIMMIN
 10
0.0
 20
0.0
  9
$PLIMMAX
 10
12.0
 20
9.0
  9
$UNITMODE
 70
     0
  9
$VISRETAIN
 70
     0
  9
$PLINEGEN
 70
     0
  9
$PSLTSCALE
 70
     1
  9
$TREEDEPTH
 70
  3020
  9
$CMLSTYLE
  2
STANDARD
  9
$CMLJUST
 70
     0
  9
$CMLSCALE
 40
20.0
  9
$PROXYGRAPHICS
 70
     1
  9
$MEASUREMENT
 70
     1
  9
$CELWEIGHT
370
    -1
  9
$ENDCAPS
280
     0
  9
$JOINSTYLE
280
     0
  9
$LWDISPLAY
290
     0
  9
$INSUNITS
 70
     4
  9
$HYPERLINKBASE
  1

  9
$STYLESHEET
  1
MONOCHROME.CTB
  9
$XEDIT
290
     1
  9
$CEPSNTYPE
380
     0
  9
$PSTYLEMODE
290
     1
  9
$FINGERPRINTGUID
  2
{46B44192-1510-48B1-B61B-CBE2ADA013A7}
  9
$VERSIONGUID
  2
{E9931E1F-F8CB-4A59-B0CC-1F391273862C}
  9
$EXTNAMES
290
     1
  9
$PSVPSCALE
 40
0.0
  9
$OLESTARTUP
290
     0
  9
$SORTENTS
280
   127
  9
$INDEXCTL
280
     0
  9
$HIDETEXT
280
     1
  9
$XCLIPFRAME
290
     0
  9
$HALOGAP
280
     0
  9
$OBSCOLOR
 70
   257
  9
$OBSLTYPE
280
     0
  9
$INTERSECTIONDISPLAY
280
     0
  9
$INTERSECTIONCOLOR
 70
   257
  9
$DIMASSOC
280
     2
  9
$PROJECTNAME
  1

  0
ENDSEC
  0
SECTION
  2
CLASSES
  0
CLASS
  1
ACDBDICTIONARYWDFLT
  2
AcDbDictionaryWithDefault
  3
ObjectDBX Classes
 90
        0
 91
        1
280
     0
281
     0
  0
CLASS
  1
DICTIONARYVAR
  2
AcDbDictionaryVar
  3
ObjectDBX Classes
 90
        0
 91
       12
280
     0
281
     0
  0
CLASS
  1
TABLESTYLE
  2
AcDbTableStyle
  3
ObjectDBX Classes
 90
     4095
 91
        1
280
     0
281
     0
  0
CLASS
  1
SCALE
  2
AcDbScale
  3
ObjectDBX Classes
 90
     1153
 91
       33
280
     0
281
     0
  0
CLASS
  1
MATERIAL
  2
AcDbMaterial
  3
ObjectDBX Classes
 90
     1153
 91
        3
280
     0
281
     0
  0
CLASS
  1
VISUALSTYLE
  2
AcDbVisualStyle
  3
ObjectDBX Classes
 90
     4095
 91
       24
280
     0
281
     0
  0
CLASS
  1
MLEADERSTYLE
  2
AcDbMLeaderStyle
  3
ACDB_MLEADERSTYLE_CLASS
 90
     4095
 91
        1
280
     0
281
     0
  0
CLASS
  1
ACDBSECTIONVIEWSTYLE
  2
AcDbSectionViewStyle
  3
ObjectDBX Classes
 90
     1025
 91
        1
280
     0
281
     0
  0
CLASS
  1
ACDBDETAILVIEWSTYLE
  2
AcDbDetailViewStyle
  3
ObjectDBX Classes
 90
     1025
 91
        1
280
     0
281
     0
  0
CLASS
  1
EXACXREFPANELOBJECT
  2
ExAcXREFPanelObject
  3
EXAC_ESW
 90
     1025
 91
        0
280
     0
281
     0
  0
CLASS
  1
NPOCOLLECTION
  2
AcDbImpNonPersistentObjectsCollection
  3
ObjectDBX Classes
 90
     1153
 91
        0
280
     0
281
     0
  0
CLASS
  1
CELLSTYLEMAP
  2
AcDbCellStyleMap
  3
ObjectDBX Classes
 90
     1152
 91
        2
280
     0
281
     0
  0
CLASS
  1
SORTENTSTABLE
  2
AcDbSortentsTable
  3
ObjectDBX Classes
 90
        0
 91
        2
280
     0
281
     0
  0
CLASS
  1
DIMASSOC
  2
AcDbDimAssoc
  3
"AcDbDimAssoc|Product Desc:     AcDim ARX App For Dimension|Company:          Autodesk, Inc.|WEB Address:      www.autodesk.com"
 90
        0
 91
        0
280
     0
281
     0
  0
ENDSEC
  0
SECTION
  2
TABLES
  0
TABLE
  2
VPORT
  5
8
330
0
100
AcDbSymbolTable
 70
     1
  0
VPORT
  5
39A
330
8
100
AcDbSymbolTableRecord
100
AcDbViewportTableRecord
  2
*Active
 70
     0
 10
0.0
 20
0.0
 11
1.0
 21
1.0
 12
0.0579771701689111
 22
34.64958289830202
 13
0.0
 23
0.0
 14
5.0
 24
5.0
 15
5.0
 25
5.0
 16
0.0
 26
0.0
 36
1.0
 17
0.0
 27
0.0
 37
0.0
 40
132.9150707930726
 41
2.584345479082321
 42
50.0
 43
0.0
 44
0.0
 50
0.0
 51
0.0
 71
     0
 72
  2000
 73
     1
 74
     1
 75
     0
 76
     0
 77
     0
 78
     0
281
     0
 65
     1
110
0.0
120
0.0
130
0.0
111
1.0
121
0.0
131
0.0
112
0.0
122
1.0
132
0.0
 79
     0
146
0.0
1001
ACAD_NAV_VCDISPLAY
1070
     3
  0
ENDTAB
  0
TABLE
  2
LTYPE
  5
5
330
0
100
AcDbSymbolTable
 70
     3
  0
LTYPE
  5
12
330
5
100
AcDbSymbolTableRecord
100
AcDbLinetypeTableRecord
  2
BYBLOCK
 70
     0
  3

 72
    65
 73
     0
 40
0.0
  0
LTYPE
  5
13
330
5
100
AcDbSymbolTableRecord
100
AcDbLinetypeTableRecord
  2
BYLAYER
 70
     0
  3

 72
    65
 73
     0
 40
0.0
  0
LTYPE
  5
14
330
5
100
AcDbSymbolTableRecord
100
AcDbLinetypeTableRecord
  2
CONTINUOUS
 70
     0
  3
Solid line
 72
    65
 73
     0
 40
0.0
  0
LTYPE
  5
20
330
5
100
AcDbSymbolTableRecord
100
AcDbLinetypeTableRecord
  2
HIDDEN
 70
     0
  3
Hidden __ __ __ __ __ __ __ __ __ __ __ __ __ _
 72
    65
 73
     2
 40
9.524999999999996
 49
6.349999999999997
 74
     0
 49
-3.174999999999998
 74
     0
  0
LTYPE
  5
351
330
5
100
AcDbSymbolTableRecord
100
AcDbLinetypeTableRecord
  2
CENTER
 70
     0
  3
Dash dot __ . __ . __ . __ . __ . __ . __ . __
 72
    65
 73
     4
 40
25.4
 49
12.7
 74
     0
 49
-6.349999999999997
 74
     0
 49
0.0
 74
     0
 49
-6.349999999999997
 74
     0
  0
ENDTAB
  0
TABLE
  2
LAYER
  5
2
102
{ACAD_XDICTIONARY
360
802
102
}
330
0
100
AcDbSymbolTable
 70
    16
  0
LAYER
  5
F
102
{ACAD_XDICTIONARY
360
62F
102
}
330
2
100
AcDbSymbolTableRecord
100
AcDbLayerTableRecord
  2
0
 70
     0
 62
     7
  6
CONTINUOUS
370
    -3
390
300
  0
LAYER
  5
23
102
{ACAD_XDICTIONARY
360
631
102
}
330
2
100
AcDbSymbolTableRecord
100
AcDbLayerTableRecord
  2
1
 70
     0
 62
     4
  6
CONTINUOUS
370
    -3
390
300
  0
LAYER
  5
24
102
{ACAD_XDICTIONARY
360
633
102
}
330
2
100
AcDbSymbolTableRecord
100
AcDbLayerTableRecord
  2
SK1
 70
     0
 62
     4
  6
CONTINUOUS
370
    -3
390
300
  0
LAYER
  5
25
102
{ACAD_XDICTIONARY
360
635
102
}
330
2
100
AcDbSymbolTableRecord
100
AcDbLayerTableRecord
  2
2
 70
     0
 62
     7
  6
CONTINUOUS
370
    -3
390
300
  0
LAYER
  5
26
102
{ACAD_XDICTIONARY
360
637
102
}
330
2
100
AcDbSymbolTableRecord
100
AcDbLayerTableRecord
  2
2L
 70
     0
 62
     7
  6
CONTINUOUS
370
    -3
390
300
  0
LAYER
  5
27
102
{ACAD_XDICTIONARY
360
639
102
}
330
2
100
AcDbSymbolTableRecord
100
AcDbLayerTableRecord
  2
SK2
 70
     0
 62
     7
  6
CONTINUOUS
370
    -3
390
300
  0
LAYER
  5
28
102
{ACAD_XDICTIONARY
360
63B
102
}
330
2
100
AcDbSymbolTableRecord
100
AcDbLayerTableRecord
  2
3
 70
     0
 62
     1
  6
HIDDEN
370
    -3
390
300
  0
LAYER
  5
29
102
{ACAD_XDICTIONARY
360
63D
102
}
330
2
100
AcDbSymbolTableRecord
100
AcDbLayerTableRecord
  2
SK3
 70
     0
 62
     1
  6
HIDDEN
370
    -3
390
300
  0
LAYER
  5
2A
102
{ACAD_XDICTIONARY
360
63F
102
}
330
2
100
AcDbSymbolTableRecord
100
AcDbLayerTableRecord
  2
4
 70
     0
 62
     2
  6
CENTER
370
    -3
390
300
  0
LAYER
  5
2B
102
{ACAD_XDICTIONARY
360
641
102
}
330
2
100
AcDbSymbolTableRecord
100
AcDbLayerTableRecord
  2
SK4
 70
     0
 62
     2
  6
CENTER
370
    -3
390
300
  0
LAYER
  5
2C
102
{ACAD_XDICTIONARY
360
643
102
}
330
2
100
AcDbSymbolTableRecord
100
AcDbLayerTableRecord
  2
5
 70
     0
 62
    -7
  6
CONTINUOUS
370
    -3
390
300
  0
LAYER
  5
2D
102
{ACAD_XDICTIONARY
360
645
102
}
330
2
100
AcDbSymbolTableRecord
100
AcDbLayerTableRecord
  2
6
 70
     0
 62
     5
  6
CONTINUOUS
370
    -3
390
300
  0
LAYER
  5
2E
102
{ACAD_XDICTIONARY
360
647
102
}
330
2
100
AcDbSymbolTableRecord
100
AcDbLayerTableRecord
  2
SK6
 70
     0
 62
     5
  6
CONTINUOUS
370
    -3
390
300
  0
LAYER
  5
2F
330
2
100
AcDbSymbolTableRecord
100
AcDbLayerTableRecord
  2
DEFPOINTS
 70
     0
 62
     7
  6
CONTINUOUS
290
     0
370
    -3
390
300
  0
LAYER
  5
375
102
{ACAD_XDICTIONARY
360
649
102
}
330
2
100
AcDbSymbolTableRecord
100
AcDbLayerTableRecord
  2
CUT
 70
     0
 62
     1
  6
CONTINUOUS
370
    -3
390
300
  0
LAYER
  5
376
102
{ACAD_XDICTIONARY
360
64B
102
}
330
2
100
AcDbSymbolTableRecord
100
AcDbLayerTableRecord
  2
NOCUT
 70
     0
 62
     7
  6
CONTINUOUS
370
    -3
390
300
  0
ENDTAB
  0
TABLE
  2
STYLE
  5
3
330
0
100
AcDbSymbolTable
 70
     5
  0
STYLE
  5
10
330
3
100
AcDbSymbolTableRecord
100
AcDbTextStyleTableRecord
  2
STANDARD
 70
     0
 40
0.0
 41
1.0
 50
0.0
 71
     0
 42
5.0
  3
txt
  4

  0
STYLE
  5
1D
330
3
100
AcDbSymbolTableRecord
100
AcDbTextStyleTableRecord
  2
TXT
 70
     0
 40
8.0
 41
1.0
 50
0.0
 71
     0
 42
8.0
  3
txt
  4

  0
STYLE
  5
1E
330
3
100
AcDbSymbolTableRecord
100
AcDbTextStyleTableRecord
  2
SIMPLEX
 70
     0
 40
0.0
 41
1.0
 50
0.0
 71
     0
 42
3.5
  3
simplex
  4

  0
STYLE
  5
34C
330
3
100
AcDbSymbolTableRecord
100
AcDbTextStyleTableRecord
  2

 70
     1
 40
0.0
 41
1.0
 50
0.0
 71
     0
 42
2.5
  3
ltypeshp.shx
  4

  0
STYLE
  5
CE7
330
3
100
AcDbSymbolTableRecord
100
AcDbTextStyleTableRecord
  2
SANDVIK_STYLE
 70
     0
 40
3.0
 41
1.0
 50
0.0
 71
     0
 42
3.0
  3
simplex.shx
  4

  0
ENDTAB
  0
TABLE
  2
VIEW
  5
6
330
0
100
AcDbSymbolTable
 70
     1
  0
ENDTAB
  0
TABLE
  2
UCS
  5
7
330
0
100
AcDbSymbolTable
 70
     0
  0
ENDTAB
  0
TABLE
  2
APPID
  5
9
330
0
100
AcDbSymbolTable
 70
     5
  0
APPID
  5
11
330
9
100
AcDbSymbolTableRecord
100
AcDbRegAppTableRecord
  2
ACAD
 70
     0
  0
APPID
  5
653
330
9
100
AcDbSymbolTableRecord
100
AcDbRegAppTableRecord
  2
ACAD_NAV_VCDISPLAY
 70
     0
  0
APPID
  5
691
330
9
100
AcDbSymbolTableRecord
100
AcDbRegAppTableRecord
  2
ACAD_MLEADERVER
 70
     0
  0
APPID
  5
70D
330
9
100
AcDbSymbolTableRecord
100
AcDbRegAppTableRecord
  2
ACAD_EXEMPT_FROM_CAD_STANDARDS
 70
     0
  0
APPID
  5
756
330
9
100
AcDbSymbolTableRecord
100
AcDbRegAppTableRecord
  2
AcadAnnoMonitorAlertIconDisabled
 70
     0
  0
ENDTAB
  0
TABLE
  2
DIMSTYLE
  5
A
330
0
100
AcDbSymbolTable
 70
     2
100
AcDbDimStyleTable
 71
     2
340
CE8
340
3F
  0
DIMSTYLE
105
3F
330
A
100
AcDbSymbolTableRecord
100
AcDbDimStyleTableRecord
  2
STANDARD
 70
     0
 41
2.5
 42
0.0
 43
3.75
 44
1.25
 73
     0
 74
     0
 77
     1
 78
     8
 79
     2
140
3.5
141
0.0
143
0.039370078
147
0.625
171
     3
179
     2
271
     2
272
     2
274
     3
283
     0
284
     8
340
1E
  0
DIMSTYLE
105
CE8
102
{ACAD_REACTORS
330
CF8
330
CF5
330
CFA
330
CF9
330
CF7
330
CF6
330
5CF
330
5A7
330
5DC
330
5B4
330
599
330
5C1
102
}
330
A
100
AcDbSymbolTableRecord
100
AcDbDimStyleTableRecord
  2
SANDVIK_DIM
 70
     0
  4
 
 40
0.0
 41
4.57
 42
0.0
 44
5.0
 73
     0
 74
     0
 77
     1
 78
     8
140
4.5
147
2.299999999999998
176
   256
177
   256
178
   256
271
     2
272
     2
279
     2
340
CE7
  0
ENDTAB
  0
TABLE
  2
BLOCK_RECORD
  5
1
330
0
100
AcDbSymbolTable
 70
    18
  0
BLOCK_RECORD
  5
18
102
{ACAD_XDICTIONARY
360
777
102
}
330
1
100
AcDbSymbolTableRecord
100
AcDbBlockTableRecord
  2
*MODEL_SPACE
340
303
  0
BLOCK_RECORD
  5
338
330
1
100
AcDbSymbolTableRecord
100
AcDbBlockTableRecord
  2
*Paper_Space
340
33B
  0
BLOCK_RECORD
  5
59A
330
1
100
AcDbSymbolTableRecord
100
AcDbBlockTableRecord
  2
*D0
340
0
  0
BLOCK_RECORD
  5
5A8
330
1
100
AcDbSymbolTableRecord
100
AcDbBlockTableRecord
  2
*D1
340
0
  0
BLOCK_RECORD
  5
5B5
330
1
100
AcDbSymbolTableRecord
100
AcDbBlockTableRecord
  2
*D2
340
0
  0
BLOCK_RECORD
  5
5C2
330
1
100
AcDbSymbolTableRecord
100
AcDbBlockTableRecord
  2
*D3
340
0
  0
BLOCK_RECORD
  5
5D0
330
1
100
AcDbSymbolTableRecord
100
AcDbBlockTableRecord
  2
*D4
340
0
  0
BLOCK_RECORD
  5
5DD
330
1
100
AcDbSymbolTableRecord
100
AcDbBlockTableRecord
  2
*D5
340
0
  0
BLOCK_RECORD
  5
6DB
330
1
100
AcDbSymbolTableRecord
100
AcDbBlockTableRecord
  2
*D6
340
0
  0
BLOCK_RECORD
  5
789
330
1
100
AcDbSymbolTableRecord
100
AcDbBlockTableRecord
  2
*D7
340
0
  0
BLOCK_RECORD
  5
85D
330
1
100
AcDbSymbolTableRecord
100
AcDbBlockTableRecord
  2
*D8
340
0
  0
BLOCK_RECORD
  5
978
330
1
100
AcDbSymbolTableRecord
100
AcDbBlockTableRecord
  2
*D9
340
0
  0
BLOCK_RECORD
  5
C31
330
1
100
AcDbSymbolTableRecord
100
AcDbBlockTableRecord
  2
*D10
340
0
  0
BLOCK_RECORD
  5
C9A
330
1
100
AcDbSymbolTableRecord
100
AcDbBlockTableRecord
  2
*D11
340
0
  0
BLOCK_RECORD
  5
CA7
330
1
100
AcDbSymbolTableRecord
100
AcDbBlockTableRecord
  2
*D12
340
0
  0
BLOCK_RECORD
  5
CB4
330
1
100
AcDbSymbolTableRecord
100
AcDbBlockTableRecord
  2
*D13
340
0
  0
BLOCK_RECORD
  5
CC1
330
1
100
AcDbSymbolTableRecord
100
AcDbBlockTableRecord
  2
*D14
340
0
  0
BLOCK_RECORD
  5
CCE
330
1
100
AcDbSymbolTableRecord
100
AcDbBlockTableRecord
  2
*D15
340
0
  0
BLOCK_RECORD
  5
CDA
330
1
100
AcDbSymbolTableRecord
100
AcDbBlockTableRecord
  2
*D16
340
0
  0
BLOCK_RECORD
  5
CE9
102
{ACAD_XDICTIONARY
360
D78
102
}
330
1
100
AcDbSymbolTableRecord
100
AcDbBlockTableRecord
  2
A$C1F443842
340
0
1001
ACAD
1000
DesignCenter Data
1002
{
1070
     1
1070
     4
1002
}
  0
ENDTAB
  0
ENDSEC
  0
SECTION
  2
BLOCKS
  0
BLOCK
  5
32
330
18
100
AcDbEntity
  8
0
100
AcDbBlockBegin
  2
*MODEL_SPACE
 70
     0
 10
0.0
 20
0.0
 30
0.0
  3
*MODEL_SPACE
  1

  0
ENDBLK
  5
33
330
18
100
AcDbEntity
  8
0
100
AcDbBlockEnd
  0
BLOCK
  5
339
330
338
100
AcDbEntity
 67
     1
  8
0
100
AcDbBlockBegin
  2
*Paper_Space
 70
     0
 10
0.0
 20
0.0
 30
0.0
  3
*Paper_Space
  1

  0
ENDBLK
  5
33A
330
338
100
AcDbEntity
 67
     1
  8
0
100
AcDbBlockEnd
  0
BLOCK
  5
5A5
330
59A
100
AcDbEntity
  8
0
100
AcDbBlockBegin
  2
*D0
 70
     1
 10
0.0
 20
0.0
 30
0.0
  3
*D0
  1

  0
LINE
  5
F10
330
59A
100
AcDbEntity
  8
2
440
 16777216
370
    -2
100
AcDbLine
 10
52.27811246272756
 20
7.938352529069135
 30
0.0
 11
94.84061245021765
 21
7.938352529069121
 31
0.0
  0
LINE
  5
F11
330
59A
100
AcDbEntity
  8
2
440
 16777216
370
    -2
100
AcDbLine
 10
52.27811283926404
 20
-7.938352529069043
 30
0.0
 11
94.84061245021765
 21
-7.938352529069056
 31
0.0
  0
LINE
  5
F12
330
59A
100
AcDbEntity
  8
2
440
 16777216
370
    -2
100
AcDbLine
 10
89.84061245021765
 20
3.368352529069123
 30
0.0
 11
89.84061245021765
 21
-3.368352529069053
 31
0.0
  0
LINE
  5
F13
330
59A
100
AcDbEntity
  8
2
440
 16777216
370
    -2
100
AcDbLine
 10
89.84061245021765
 20
-7.938352529069054
 30
0.0
 11
89.84061245021765
 21
-31.2512096719262
 31
0.0
  0
SOLID
  5
F14
330
59A
100
AcDbEntity
  8
2
440
 16777216
100
AcDbTrace
 10
89.07894578355096
 20
3.368352529069123
 30
0.0
 11
90.6022791168843
 21
3.368352529069123
 31
0.0
 12
89.84061245021765
 22
7.938352529069124
 32
0.0
 13
89.84061245021765
 23
7.938352529069124
 33
0.0
  0
SOLID
  5
F15
330
59A
100
AcDbEntity
  8
2
440
 16777216
100
AcDbTrace
 10
89.07894578355096
 20
-3.368352529069053
 30
0.0
 11
90.6022791168843
 21
-3.368352529069053
 31
0.0
 12
89.84061245021765
 22
-7.938352529069054
 32
0.0
 13
89.84061245021765
 23
-7.938352529069054
 33
0.0
  0
MTEXT
  5
F16
330
59A
100
AcDbEntity
  8
2
440
 16777216
100
AcDbMText
 10
86.04061245021766
 20
-21.87978110049761
 30
0.0
 40
3.0
 41
0.0
 71
     5
 72
     1
  1
\A1;%%c15.88
  7
SANDVIK_STYLE
 11
0.0000000000000001
 21
1.0
 31
0.0
 73
     1
 44
1.0
  0
POINT
  5
F17
330
59A
100
AcDbEntity
  8
DEFPOINTS
 62
     0
440
 16777216
100
AcDbPoint
 10
52.27811246272756
 20
7.938352529069135
 30
0.0
  0
POINT
  5
F18
330
59A
100
AcDbEntity
  8
DEFPOINTS
 62
     0
440
 16777216
100
AcDbPoint
 10
52.27811283926404
 20
-7.938352529069043
 30
0.0
  0
POINT
  5
F19
330
59A
100
AcDbEntity
  8
DEFPOINTS
 62
     0
440
 16777216
100
AcDbPoint
 10
89.84061245021765
 20
-7.938352529069054
 30
0.0
  0
ENDBLK
  5
5A6
330
59A
100
AcDbEntity
  8
0
100
AcDbBlockEnd
  0
BLOCK
  5
5B2
330
5A8
100
AcDbEntity
  8
0
100
AcDbBlockBegin
  2
*D1
 70
     1
 10
0.0
 20
0.0
 30
0.0
  3
*D1
  1

  0
LINE
  5
F24
330
5A8
100
AcDbEntity
  8
2
440
 16777216
370
    -2
100
AcDbLine
 10
0.0
 20
0.0
 30
0.0
 11
0.0000000000000048
 21
78.07314465933888
 31
0.0
  0
LINE
  5
F25
330
5A8
100
AcDbEntity
  8
2
440
 16777216
370
    -2
100
AcDbLine
 10
53.20416664915146
 20
-0.0000000000000045
 30
0.0
 11
53.20416664915146
 21
78.07314465933888
 31
0.0
  0
LINE
  5
F26
330
5A8
100
AcDbEntity
  8
2
440
 16777216
370
    -2
100
AcDbLine
 10
4.570000000000003
 20
73.07314465933888
 30
0.0
 11
48.63416664915146
 21
73.07314465933888
 31
0.0
  0
SOLID
  5
F27
330
5A8
100
AcDbEntity
  8
2
440
 16777216
100
AcDbTrace
 10
4.570000000000003
 20
73.83481132600555
 30
0.0
 11
4.570000000000003
 21
72.31147799267221
 31
0.0
 12
0.0000000000000045
 22
73.07314465933888
 32
0.0
 13
0.0000000000000045
 23
73.07314465933888
 33
0.0
  0
SOLID
  5
F28
330
5A8
100
AcDbEntity
  8
2
440
 16777216
100
AcDbTrace
 10
48.63416664915146
 20
73.83481132600555
 30
0.0
 11
48.63416664915146
 21
72.31147799267221
 31
0.0
 12
53.20416664915146
 22
73.07314465933888
 32
0.0
 13
53.20416664915146
 23
73.07314465933888
 33
0.0
  0
MTEXT
  5
F29
330
5A8
100
AcDbEntity
  8
2
440
 16777216
100
AcDbMText
 10
26.60208332457574
 20
76.87314465933887
 30
0.0
 40
3.0
 41
0.0
 71
     5
 72
     1
  1
\A1;53.2
  7
SANDVIK_STYLE
 73
     1
 44
1.0
  0
POINT
  5
F2A
330
5A8
100
AcDbEntity
  8
DEFPOINTS
 62
     0
440
 16777216
100
AcDbPoint
 10
0.0
 20
0.0
 30
0.0
  0
POINT
  5
F2B
330
5A8
100
AcDbEntity
  8
DEFPOINTS
 62
     0
440
 16777216
100
AcDbPoint
 10
53.20416664915146
 20
-0.0000000000000045
 30
0.0
  0
POINT
  5
F2C
330
5A8
100
AcDbEntity
  8
DEFPOINTS
 62
     0
440
 16777216
100
AcDbPoint
 10
53.20416664915146
 20
73.07314465933888
 30
0.0
  0
ENDBLK
  5
5B3
330
5A8
100
AcDbEntity
  8
0
100
AcDbBlockEnd
  0
BLOCK
  5
5BF
330
5B5
100
AcDbEntity
  8
0
100
AcDbBlockBegin
  2
*D2
 70
     1
 10
0.0
 20
0.0
 30
0.0
  3
*D2
  1

  0
LINE
  5
F07
330
5B5
100
AcDbEntity
  8
2
440
 16777216
370
    -2
100
AcDbLine
 10
19.86717179062608
 20
9.335956287205137
 30
0.0
 11
19.86717179062608
 21
56.02004252978949
 31
0.0
  0
LINE
  5
F08
330
5B5
100
AcDbEntity
  8
2
440
 16777216
370
    -2
100
AcDbLine
 10
53.20416664915146
 20
7.288494723046087
 30
0.0
 11
53.20416664915146
 21
56.02004252978949
 31
0.0
  0
LINE
  5
F09
330
5B5
100
AcDbEntity
  8
2
440
 16777216
370
    -2
100
AcDbLine
 10
24.43717179062608
 20
51.02004252978949
 30
0.0
 11
48.63416664915146
 21
51.02004252978949
 31
0.0
  0
SOLID
  5
F0A
330
5B5
100
AcDbEntity
  8
2
440
 16777216
100
AcDbTrace
 10
24.43717179062608
 20
51.78170919645616
 30
0.0
 11
24.43717179062608
 21
50.25837586312281
 31
0.0
 12
19.86717179062608
 22
51.02004252978949
 32
0.0
 13
19.86717179062608
 23
51.02004252978949
 33
0.0
  0
SOLID
  5
F0B
330
5B5
100
AcDbEntity
  8
2
440
 16777216
100
AcDbTrace
 10
48.63416664915146
 20
51.78170919645616
 30
0.0
 11
48.63416664915146
 21
50.25837586312281
 31
0.0
 12
53.20416664915146
 22
51.02004252978949
 32
0.0
 13
53.20416664915146
 23
51.02004252978949
 33
0.0
  0
MTEXT
  5
F0C
330
5B5
100
AcDbEntity
  8
2
440
 16777216
100
AcDbMText
 10
38.50716921988879
 20
54.82004252978949
 30
0.0
 40
3.0
 41
0.0
 71
     5
 72
     1
  1
\A1;33.34
  7
SANDVIK_STYLE
 73
     1
 44
1.0
  0
POINT
  5
F0D
330
5B5
100
AcDbEntity
  8
DEFPOINTS
 62
     0
440
 16777216
100
AcDbPoint
 10
19.86717179062608
 20
9.335956287205137
 30
0.0
  0
POINT
  5
F0E
330
5B5
100
AcDbEntity
  8
DEFPOINTS
 62
     0
440
 16777216
100
AcDbPoint
 10
53.20416664915146
 20
7.288494723046087
 30
0.0
  0
POINT
  5
F0F
330
5B5
100
AcDbEntity
  8
DEFPOINTS
 62
     0
440
 16777216
100
AcDbPoint
 10
53.20416664915146
 20
51.02004252978949
 30
0.0
  0
ENDBLK
  5
5C0
330
5B5
100
AcDbEntity
  8
0
100
AcDbBlockEnd
  0
BLOCK
  5
5CD
330
5C2
100
AcDbEntity
  8
0
100
AcDbBlockBegin
  2
*D3
 70
     1
 10
0.0
 20
0.0
 30
0.0
  3
*D3
  1

  0
LINE
  5
F1A
330
5C2
100
AcDbEntity
  8
SK2
440
 16777216
370
    -2
100
AcDbLine
 10
-47.60349869084468
 20
7.938352529069132
 30
0.0
 11
-94.41599867829422
 21
7.938352529069145
 31
0.0
  0
LINE
  5
F1B
330
5C2
100
AcDbEntity
  8
SK2
440
 16777216
370
    -2
100
AcDbLine
 10
-47.60349869084468
 20
-7.938352529069043
 30
0.0
 11
-94.41599867829422
 21
-7.93835252906903
 31
0.0
  0
LINE
  5
F1C
330
5C2
100
AcDbEntity
  8
SK2
440
 16777216
370
    -2
100
AcDbLine
 10
-89.41599867829422
 20
3.368352529069143
 30
0.0
 11
-89.41599867829422
 21
-3.368352529069031
 31
0.0
  0
LINE
  5
F1D
330
5C2
100
AcDbEntity
  8
SK2
440
 16777216
370
    -2
100
AcDbLine
 10
-89.41599867829422
 20
-7.938352529069033
 30
0.0
 11
-89.41599867829422
 21
-31.25120967192617
 31
0.0
  0
SOLID
  5
F1E
330
5C2
100
AcDbEntity
  8
SK2
440
 16777216
100
AcDbTrace
 10
-90.17766534496088
 20
3.368352529069143
 30
0.0
 11
-88.65433201162755
 21
3.368352529069142
 31
0.0
 12
-89.41599867829422
 22
7.938352529069143
 32
0.0
 13
-89.41599867829422
 23
7.938352529069143
 33
0.0
  0
SOLID
  5
F1F
330
5C2
100
AcDbEntity
  8
SK2
440
 16777216
100
AcDbTrace
 10
-90.17766534496088
 20
-3.368352529069031
 30
0.0
 11
-88.65433201162755
 21
-3.368352529069031
 31
0.0
 12
-89.41599867829422
 22
-7.938352529069033
 32
0.0
 13
-89.41599867829422
 23
-7.938352529069033
 33
0.0
  0
MTEXT
  5
F20
330
5C2
100
AcDbEntity
  8
SK2
440
 16777216
100
AcDbMText
 10
-93.21599867829419
 20
-21.87978110049762
 30
0.0
 40
3.0
 41
0.0
 71
     5
 72
     1
  1
\A1;%%c15.88
  7
SANDVIK_STYLE
 11
0.0000000000000001
 21
1.0
 31
0.0
 73
     1
 44
1.0
  0
POINT
  5
F21
330
5C2
100
AcDbEntity
  8
DEFPOINTS
 62
     0
440
 16777216
100
AcDbPoint
 10
-47.60349869084468
 20
7.938352529069132
 30
0.0
  0
POINT
  5
F22
330
5C2
100
AcDbEntity
  8
DEFPOINTS
 62
     0
440
 16777216
100
AcDbPoint
 10
-47.60349869084468
 20
-7.938352529069043
 30
0.0
  0
POINT
  5
F23
330
5C2
100
AcDbEntity
  8
DEFPOINTS
 62
     0
440
 16777216
100
AcDbPoint
 10
-89.41599867829422
 20
-7.938352529069033
 30
0.0
  0
ENDBLK
  5
5CE
330
5C2
100
AcDbEntity
  8
0
100
AcDbBlockEnd
  0
BLOCK
  5
5DA
330
5D0
100
AcDbEntity
  8
0
100
AcDbBlockBegin
  2
*D4
 70
     1
 10
0.0
 20
0.0
 30
0.0
  3
*D4
  1

  0
LINE
  5
EEB
330
5D0
100
AcDbEntity
  8
SK2
440
 16777216
370
    -2
100
AcDbLine
 10
-48.3988345775
 20
0.0000000000000009
 30
0.0
 11
-48.39883457749999
 21
100.24999997
 31
0.0
  0
LINE
  5
EEC
330
5D0
100
AcDbEntity
  8
SK2
440
 16777216
370
    -2
100
AcDbLine
 10
53.20416664915146
 20
-0.000000000000002
 30
0.0
 11
53.20416664915146
 21
100.24999997
 31
0.0
  0
LINE
  5
EED
330
5D0
100
AcDbEntity
  8
SK2
440
 16777216
370
    -2
100
AcDbLine
 10
-43.82883457749999
 20
95.24999997
 30
0.0
 11
48.63416664915146
 21
95.24999997
 31
0.0
  0
SOLID
  5
EEE
330
5D0
100
AcDbEntity
  8
SK2
440
 16777216
100
AcDbTrace
 10
-43.82883457749999
 20
96.01166663666667
 30
0.0
 11
-43.82883457749999
 21
94.48833330333334
 31
0.0
 12
-48.39883457749999
 22
95.24999997
 32
0.0
 13
-48.39883457749999
 23
95.24999997
 33
0.0
  0
SOLID
  5
EEF
330
5D0
100
AcDbEntity
  8
SK2
440
 16777216
100
AcDbTrace
 10
48.63416664915146
 20
96.01166663666667
 30
0.0
 11
48.63416664915146
 21
94.48833330333334
 31
0.0
 12
53.20416664915146
 22
95.24999997
 32
0.0
 13
53.20416664915146
 23
95.24999997
 33
0.0
  0
MTEXT
  5
EF0
330
5D0
100
AcDbEntity
  8
SK2
440
 16777216
100
AcDbMText
 10
2.402666035825739
 20
99.04999997
 30
0.0
 40
3.0
 41
0.0
 71
     5
 72
     1
  1
\A1;101.6
  7
SANDVIK_STYLE
 73
     1
 44
1.0
  0
POINT
  5
EF1
330
5D0
100
AcDbEntity
  8
DEFPOINTS
 62
     0
440
 16777216
100
AcDbPoint
 10
-48.3988345775
 20
0.0000000000000009
 30
0.0
  0
POINT
  5
EF2
330
5D0
100
AcDbEntity
  8
DEFPOINTS
 62
     0
440
 16777216
100
AcDbPoint
 10
53.20416664915146
 20
-0.000000000000002
 30
0.0
  0
POINT
  5
EF3
330
5D0
100
AcDbEntity
  8
DEFPOINTS
 62
     0
440
 16777216
100
AcDbPoint
 10
53.20416664915146
 20
95.24999997
 30
0.0
  0
ENDBLK
  5
5DB
330
5D0
100
AcDbEntity
  8
0
100
AcDbBlockEnd
  0
BLOCK
  5
5E8
330
5DD
100
AcDbEntity
  8
0
100
AcDbBlockBegin
  2
*D5
 70
     1
 10
0.0
 20
0.0
 30
0.0
  3
*D5
  1

  0
LINE
  5
EFD
330
5DD
100
AcDbEntity
  8
2
440
 16777216
370
    -2
100
AcDbLine
 10
52.27811246272756
 20
7.938352529069135
 30
0.0
 11
52.27811246272756
 21
30.63464403980684
 31
0.0
  0
LINE
  5
EFE
330
5DD
100
AcDbEntity
  8
2
440
 16777216
370
    -2
100
AcDbLine
 10
53.20416664915146
 20
7.288515089592769
 30
0.0
 11
53.20416664915146
 21
30.63464403980684
 31
0.0
  0
LINE
  5
EFF
330
5DD
100
AcDbEntity
  8
2
440
 16777216
370
    -2
100
AcDbLine
 10
47.70811246272756
 20
25.63464403980684
 30
0.0
 11
43.13811246272756
 21
25.63464403980684
 31
0.0
  0
LINE
  5
F00
330
5DD
100
AcDbEntity
  8
2
440
 16777216
370
    -2
100
AcDbLine
 10
57.77416664915146
 20
25.63464403980684
 30
0.0
 11
88.51559522058002
 21
25.63464403980684
 31
0.0
  0
SOLID
  5
F01
330
5DD
100
AcDbEntity
  8
2
440
 16777216
100
AcDbTrace
 10
47.70811246272756
 20
26.39631070647352
 30
0.0
 11
47.70811246272756
 21
24.87297737314018
 31
0.0
 12
52.27811246272756
 22
25.63464403980684
 32
0.0
 13
52.27811246272756
 23
25.63464403980684
 33
0.0
  0
SOLID
  5
F02
330
5DD
100
AcDbEntity
  8
2
440
 16777216
100
AcDbTrace
 10
57.77416664915146
 20
26.39631070647352
 30
0.0
 11
57.77416664915146
 21
24.87297737314018
 31
0.0
 12
53.20416664915146
 22
25.63464403980684
 32
0.0
 13
53.20416664915146
 23
25.63464403980684
 33
0.0
  0
MTEXT
  5
F03
330
5DD
100
AcDbEntity
  8
2
440
 16777216
100
AcDbMText
 10
75.42988093486575
 20
29.43464403980684
 30
0.0
 40
3.0
 41
0.0
 71
     5
 72
     1
  1
\A1;0.508x35°
  7
SANDVIK_STYLE
 73
     1
 44
1.0
  0
POINT
  5
F04
330
5DD
100
AcDbEntity
  8
DEFPOINTS
 62
     0
440
 16777216
100
AcDbPoint
 10
52.27811246272756
 20
7.938352529069135
 30
0.0
  0
POINT
  5
F05
330
5DD
100
AcDbEntity
  8
DEFPOINTS
 62
     0
440
 16777216
100
AcDbPoint
 10
53.20416664915146
 20
7.288515089592769
 30
0.0
  0
POINT
  5
F06
330
5DD
100
AcDbEntity
  8
DEFPOINTS
 62
     0
440
 16777216
100
AcDbPoint
 10
53.20416664915146
 20
25.63464403980684
 30
0.0
  0
ENDBLK
  5
5E9
330
5DD
100
AcDbEntity
  8
0
100
AcDbBlockEnd
  0
BLOCK
  5
6DC
330
6DB
100
AcDbEntity
  8
0
100
AcDbBlockBegin
  2
*D6
 70
     1
 10
0.0
 20
0.0
 30
0.0
  3
*D6
  1

  0
LINE
  5
6DE
330
6DB
100
AcDbEntity
  8
1
 62
     0
440
 16777216
370
    -2
100
AcDbLine
 10
0.0
 20
0.0
 30
0.0
 11
0.0000000000000013
 21
20.66182566528084
 31
0.0
  0
LINE
  5
6DF
330
6DB
100
AcDbEntity
  8
1
 62
     0
440
 16777216
370
    -2
100
AcDbLine
 10
-38.099999988
 20
0.0000000000000093
 30
0.0
 11
-38.099999988
 21
20.66182566528084
 31
0.0
  0
LINE
  5
6E0
330
6DB
100
AcDbEntity
  8
1
 62
     0
440
 16777216
370
    -2
100
AcDbLine
 10
-2.499999999999996
 20
19.41182566528084
 30
0.0
 11
-35.599999988
 21
19.41182566528084
 31
0.0
  0
SOLID
  5
6E1
330
6DB
100
AcDbEntity
  8
1
 62
     0
440
 16777216
100
AcDbTrace
 10
-2.499999999999996
 20
19.82849233194751
 30
0.0
 11
-2.499999999999996
 21
18.99515899861417
 31
0.0
 12
0.0000000000000012
 22
19.41182566528084
 32
0.0
 13
0.0000000000000012
 23
19.41182566528084
 33
0.0
  0
SOLID
  5
6E2
330
6DB
100
AcDbEntity
  8
1
 62
     0
440
 16777216
100
AcDbTrace
 10
-35.599999988
 20
19.82849233194751
 30
0.0
 11
-35.599999988
 21
18.99515899861417
 31
0.0
 12
-38.099999988
 22
19.41182566528084
 32
0.0
 13
-38.099999988
 23
19.41182566528084
 33
0.0
  0
MTEXT
  5
6E3
330
6DB
100
AcDbEntity
  8
1
 62
     0
440
 16777216
100
AcDbMText
 10
-19.049999994
 20
21.78682566528085
 30
0.0
 40
3.5
 41
0.0
 71
     5
 72
     1
  1
38.1
  7
SIMPLEX
 73
     1
 44
1.0
  0
POINT
  5
6E4
330
6DB
100
AcDbEntity
  8
DEFPOINTS
 62
     0
440
 16777216
100
AcDbPoint
 10
0.0
 20
0.0
 30
0.0
  0
POINT
  5
6E5
330
6DB
100
AcDbEntity
  8
DEFPOINTS
 62
     0
440
 16777216
100
AcDbPoint
 10
-38.099999988
 20
0.0000000000000093
 30
0.0
  0
POINT
  5
6E6
330
6DB
100
AcDbEntity
  8
DEFPOINTS
 62
     0
440
 16777216
100
AcDbPoint
 10
-38.099999988
 20
19.41182566528084
 30
0.0
  0
ENDBLK
  5
6DD
330
6DB
100
AcDbEntity
  8
0
100
AcDbBlockEnd
  0
BLOCK
  5
78A
330
789
100
AcDbEntity
  8
0
100
AcDbBlockBegin
  2
*D7
 70
     1
 10
0.0
 20
0.0
 30
0.0
  3
*D7
  1

  0
LINE
  5
796
330
789
100
AcDbEntity
  8
1
 62
     0
440
 16777216
370
    -2
100
AcDbLine
 10
0.0
 20
0.000000000000002
 30
0.0
 11
0.000000000000001
 21
16.58423419456989
 31
0.0
  0
LINE
  5
797
330
789
100
AcDbEntity
  8
1
 62
     0
440
 16777216
370
    -2
100
AcDbLine
 10
-35.999999988
 20
0.0000000000000047
 30
0.0
 11
-35.999999988
 21
16.58423419456988
 31
0.0
  0
LINE
  5
798
330
789
100
AcDbEntity
  8
1
 62
     0
440
 16777216
370
    -2
100
AcDbLine
 10
-2.499999999999999
 20
15.33423419456989
 30
0.0
 11
-33.499999988
 21
15.33423419456989
 31
0.0
  0
SOLID
  5
799
330
789
100
AcDbEntity
  8
1
 62
     0
440
 16777216
100
AcDbTrace
 10
-2.499999999999999
 20
15.75090086123655
 30
0.0
 11
-2.499999999999999
 21
14.91756752790322
 31
0.0
 12
0.0000000000000009
 22
15.33423419456989
 32
0.0
 13
0.0000000000000009
 23
15.33423419456989
 33
0.0
  0
SOLID
  5
79A
330
789
100
AcDbEntity
  8
1
 62
     0
440
 16777216
100
AcDbTrace
 10
-33.499999988
 20
15.75090086123655
 30
0.0
 11
-33.499999988
 21
14.91756752790322
 31
0.0
 12
-35.999999988
 22
15.33423419456989
 32
0.0
 13
-35.999999988
 23
15.33423419456989
 33
0.0
  0
MTEXT
  5
79B
330
789
100
AcDbEntity
  8
1
 62
     0
440
 16777216
100
AcDbMText
 10
-17.999999994
 20
17.70923419456989
 30
0.0
 40
3.5
 41
0.0
 71
     5
 72
     1
  1
36
  7
SIMPLEX
 73
     1
 44
1.0
  0
POINT
  5
79C
330
789
100
AcDbEntity
  8
DEFPOINTS
 62
     0
440
 16777216
100
AcDbPoint
 10
0.0
 20
0.000000000000002
 30
0.0
  0
POINT
  5
79D
330
789
100
AcDbEntity
  8
DEFPOINTS
 62
     0
440
 16777216
100
AcDbPoint
 10
-35.999999988
 20
0.0000000000000047
 30
0.0
  0
POINT
  5
79E
330
789
100
AcDbEntity
  8
DEFPOINTS
 62
     0
440
 16777216
100
AcDbPoint
 10
-35.999999988
 20
15.33423419456989
 30
0.0
  0
ENDBLK
  5
78B
330
789
100
AcDbEntity
  8
0
100
AcDbBlockEnd
  0
BLOCK
  5
85E
330
85D
100
AcDbEntity
  8
0
100
AcDbBlockBegin
  2
*D8
 70
     1
 10
0.0
 20
0.0
 30
0.0
  3
*D8
  1

  0
LINE
  5
874
330
85D
100
AcDbEntity
  8
1
 62
     0
440
 16777216
370
    -2
100
AcDbLine
 10
0.0
 20
-0.0000000000000043
 30
0.0
 11
0.0000000000000015
 21
23.73616827983477
 31
0.0
  0
LINE
  5
875
330
85D
100
AcDbEntity
  8
1
 62
     0
440
 16777216
370
    -2
100
AcDbLine
 10
-39.699999982
 20
-0.1922953458032439
 30
0.0
 11
-39.699999982
 21
23.73616827983477
 31
0.0
  0
LINE
  5
876
330
85D
100
AcDbEntity
  8
1
 62
     0
440
 16777216
370
    -2
100
AcDbLine
 10
-2.499999999999996
 20
22.48616827983477
 30
0.0
 11
-37.199999982
 21
22.48616827983477
 31
0.0
  0
SOLID
  5
877
330
85D
100
AcDbEntity
  8
1
 62
     0
440
 16777216
100
AcDbTrace
 10
-2.499999999999996
 20
22.90283494650144
 30
0.0
 11
-2.499999999999996
 21
22.0695016131681
 31
0.0
 12
0.0000000000000014
 22
22.48616827983477
 32
0.0
 13
0.0000000000000014
 23
22.48616827983477
 33
0.0
  0
SOLID
  5
878
330
85D
100
AcDbEntity
  8
1
 62
     0
440
 16777216
100
AcDbTrace
 10
-37.199999982
 20
22.90283494650144
 30
0.0
 11
-37.199999982
 21
22.0695016131681
 31
0.0
 12
-39.699999982
 22
22.48616827983477
 32
0.0
 13
-39.699999982
 23
22.48616827983477
 33
0.0
  0
MTEXT
  5
879
330
85D
100
AcDbEntity
  8
1
 62
     0
440
 16777216
100
AcDbMText
 10
-19.849999991
 20
24.86116827983477
 30
0.0
 40
3.5
 41
0.0
 71
     5
 72
     1
  1
39.7
  7
SIMPLEX
 73
     1
 44
1.0
  0
POINT
  5
87A
330
85D
100
AcDbEntity
  8
DEFPOINTS
 62
     0
440
 16777216
100
AcDbPoint
 10
0.0
 20
-0.0000000000000043
 30
0.0
  0
POINT
  5
87B
330
85D
100
AcDbEntity
  8
DEFPOINTS
 62
     0
440
 16777216
100
AcDbPoint
 10
-39.699999982
 20
-0.1922953458032439
 30
0.0
  0
POINT
  5
87C
330
85D
100
AcDbEntity
  8
DEFPOINTS
 62
     0
440
 16777216
100
AcDbPoint
 10
-39.699999982
 20
22.48616827983477
 30
0.0
  0
ENDBLK
  5
85F
330
85D
100
AcDbEntity
  8
0
100
AcDbBlockEnd
  0
BLOCK
  5
979
330
978
100
AcDbEntity
  8
0
100
AcDbBlockBegin
  2
*D9
 70
     1
 10
0.0
 20
0.0
 30
0.0
  3
*D9
  1

  0
LINE
  5
97B
330
978
100
AcDbEntity
  8
1
 62
     0
440
 16777216
370
    -2
100
AcDbLine
 10
-39.699999982
 20
0.0000000000000009
 30
0.0
 11
-39.699999982
 21
18.7387983469726
 31
0.0
  0
LINE
  5
97C
330
978
100
AcDbEntity
  8
1
 62
     0
440
 16777216
370
    -2
100
AcDbLine
 10
0.0
 20
-0.1922953458032536
 30
0.0
 11
0.0000000000000012
 21
18.7387983469726
 31
0.0
  0
LINE
  5
97D
330
978
100
AcDbEntity
  8
1
 62
     0
440
 16777216
370
    -2
100
AcDbLine
 10
-37.199999982
 20
17.4887983469726
 30
0.0
 11
-2.499999999999999
 21
17.4887983469726
 31
0.0
  0
SOLID
  5
97E
330
978
100
AcDbEntity
  8
1
 62
     0
440
 16777216
100
AcDbTrace
 10
-37.199999982
 20
17.90546501363927
 30
0.0
 11
-37.199999982
 21
17.07213168030593
 31
0.0
 12
-39.699999982
 22
17.4887983469726
 32
0.0
 13
-39.699999982
 23
17.4887983469726
 33
0.0
  0
SOLID
  5
97F
330
978
100
AcDbEntity
  8
1
 62
     0
440
 16777216
100
AcDbTrace
 10
-2.499999999999999
 20
17.90546501363927
 30
0.0
 11
-2.499999999999999
 21
17.07213168030593
 31
0.0
 12
0.0000000000000011
 22
17.4887983469726
 32
0.0
 13
0.0000000000000011
 23
17.4887983469726
 33
0.0
  0
MTEXT
  5
980
330
978
100
AcDbEntity
  8
1
 62
     0
440
 16777216
100
AcDbMText
 10
-19.849999991
 20
19.8637983469726
 30
0.0
 40
3.5
 41
0.0
 71
     5
 72
     1
  1
39.7
  7
SIMPLEX
 73
     1
 44
1.0
  0
POINT
  5
981
330
978
100
AcDbEntity
  8
DEFPOINTS
 62
     0
440
 16777216
100
AcDbPoint
 10
-39.699999982
 20
0.0000000000000009
 30
0.0
  0
POINT
  5
982
330
978
100
AcDbEntity
  8
DEFPOINTS
 62
     0
440
 16777216
100
AcDbPoint
 10
0.0
 20
-0.1922953458032536
 30
0.0
  0
POINT
  5
983
330
978
100
AcDbEntity
  8
DEFPOINTS
 62
     0
440
 16777216
100
AcDbPoint
 10
0.0000000000000011
 20
17.4887983469726
 30
0.0
  0
ENDBLK
  5
97A
330
978
100
AcDbEntity
  8
0
100
AcDbBlockEnd
  0
BLOCK
  5
C32
330
C31
100
AcDbEntity
  8
0
100
AcDbBlockBegin
  2
*D10
 70
     1
 10
0.0
 20
0.0
 30
0.0
  3
*D10
  1

  0
LINE
  5
C34
330
C31
100
AcDbEntity
  8
1
 62
     0
440
 16777216
370
    -2
100
AcDbLine
 10
0.0
 20
0.059812880767723
 30
0.0
 11
0.000000000000001
 21
16.46289801302202
 31
0.0
  0
LINE
  5
C35
330
C31
100
AcDbEntity
  8
1
 62
     0
440
 16777216
370
    -2
100
AcDbLine
 10
-48.3988345775
 20
0.0598128807677266
 30
0.0
 11
-48.3988345775
 21
16.46289801302202
 31
0.0
  0
LINE
  5
C36
330
C31
100
AcDbEntity
  8
1
 62
     0
440
 16777216
370
    -2
100
AcDbLine
 10
-2.499999999999999
 20
15.21289801302202
 30
0.0
 11
-45.8988345775
 21
15.21289801302202
 31
0.0
  0
SOLID
  5
C37
330
C31
100
AcDbEntity
  8
1
 62
     0
440
 16777216
100
AcDbTrace
 10
-2.499999999999999
 20
15.62956467968869
 30
0.0
 11
-2.499999999999999
 21
14.79623134635536
 31
0.0
 12
0.0000000000000009
 22
15.21289801302202
 32
0.0
 13
0.0000000000000009
 23
15.21289801302202
 33
0.0
  0
SOLID
  5
C38
330
C31
100
AcDbEntity
  8
1
 62
     0
440
 16777216
100
AcDbTrace
 10
-45.8988345775
 20
15.62956467968869
 30
0.0
 11
-45.8988345775
 21
14.79623134635536
 31
0.0
 12
-48.3988345775
 22
15.21289801302202
 32
0.0
 13
-48.3988345775
 23
15.21289801302202
 33
0.0
  0
MTEXT
  5
C39
330
C31
100
AcDbEntity
  8
1
 62
     0
440
 16777216
100
AcDbMText
 10
-24.19941728875
 20
17.58789801302202
 30
0.0
 40
3.5
 41
0.0
 71
     5
 72
     1
  1
48.4
  7
SIMPLEX
 73
     1
 44
1.0
  0
POINT
  5
C3A
330
C31
100
AcDbEntity
  8
DEFPOINTS
 62
     0
440
 16777216
100
AcDbPoint
 10
0.0
 20
0.059812880767723
 30
0.0
  0
POINT
  5
C3B
330
C31
100
AcDbEntity
  8
DEFPOINTS
 62
     0
440
 16777216
100
AcDbPoint
 10
-48.3988345775
 20
0.0598128807677266
 30
0.0
  0
POINT
  5
C3C
330
C31
100
AcDbEntity
  8
DEFPOINTS
 62
     0
440
 16777216
100
AcDbPoint
 10
-48.3988345775
 20
15.21289801302202
 30
0.0
  0
ENDBLK
  5
C33
330
C31
100
AcDbEntity
  8
0
100
AcDbBlockEnd
  0
BLOCK
  5
C9B
330
C9A
100
AcDbEntity
  8
0
100
AcDbBlockBegin
  2
*D11
 70
     1
 10
0.0
 20
0.0
 30
0.0
  3
*D11
  1

  0
LINE
  5
C9C
330
C9A
100
AcDbEntity
  8
2
440
 16777216
370
    -2
100
AcDbLine
 10
12.1
 20
1.586999999999999
 30
0.0
 11
31.26000000000001
 21
1.586999999999993
 31
0.0
  0
LINE
  5
C9D
330
C9A
100
AcDbEntity
  8
2
440
 16777216
370
    -2
100
AcDbLine
 10
12.01833993666911
 20
-1.586999999999995
 30
0.0
 11
31.26
 21
-1.587000000000003
 31
0.0
  0
LINE
  5
C9E
330
C9A
100
AcDbEntity
  8
2
440
 16777216
370
    -2
100
AcDbLine
 10
26.26
 20
6.156999999999992
 30
0.0
 11
26.26000000000001
 21
10.72699999999999
 31
0.0
  0
LINE
  5
C9F
330
C9A
100
AcDbEntity
  8
2
440
 16777216
370
    -2
100
AcDbLine
 10
26.26
 20
-6.157000000000002
 30
0.0
 11
26.25999999999999
 21
-26.61271428571428
 31
0.0
  0
SOLID
  5
CA0
330
C9A
100
AcDbEntity
  8
2
440
 16777216
100
AcDbTrace
 10
25.49833333333334
 20
6.156999999999995
 30
0.0
 11
27.02166666666667
 21
6.156999999999992
 31
0.0
 12
26.26
 22
1.586999999999995
 32
0.0
 13
26.26
 23
1.586999999999995
 33
0.0
  0
SOLID
  5
CA1
330
C9A
100
AcDbEntity
  8
2
440
 16777216
100
AcDbTrace
 10
25.49833333333334
 20
-6.157
 30
0.0
 11
27.02166666666667
 21
-6.157000000000002
 31
0.0
 12
26.26
 22
-1.586999999999999
 32
0.0
 13
26.26
 23
-1.586999999999999
 33
0.0
  0
MTEXT
  5
CA2
330
C9A
100
AcDbEntity
  8
2
440
 16777216
100
AcDbMText
 10
22.46
 20
-18.66985714285713
 30
0.0
 40
3.0
 41
0.0
 71
     5
 72
     1
  1
\A1;%%c3.18
  7
SANDVIK_STYLE
 11
0.0000000000000001
 21
1.0
 31
0.0
 73
     1
 44
1.0
  0
POINT
  5
CA3
330
C9A
100
AcDbEntity
  8
DEFPOINTS
 62
     0
440
 16777216
100
AcDbPoint
 10
12.1
 20
1.586999999999999
 30
0.0
  0
POINT
  5
CA4
330
C9A
100
AcDbEntity
  8
DEFPOINTS
 62
     0
440
 16777216
100
AcDbPoint
 10
12.01833993666911
 20
-1.586999999999995
 30
0.0
  0
POINT
  5
CA5
330
C9A
100
AcDbEntity
  8
DEFPOINTS
 62
     0
440
 16777216
100
AcDbPoint
 10
26.26
 20
-1.586999999999999
 30
0.0
  0
ENDBLK
  5
CA6
330
C9A
100
AcDbEntity
  8
0
100
AcDbBlockEnd
  0
BLOCK
  5
CA8
330
CA7
100
AcDbEntity
  8
0
100
AcDbBlockBegin
  2
*D12
 70
     1
 10
0.0
 20
0.0
 30
0.0
  3
*D12
  1

  0
LINE
  5
CA9
330
CA7
100
AcDbEntity
  8
2
440
 16777216
370
    -2
100
AcDbLine
 10
0.0
 20
0.0
 30
0.0
 11
0.0000000000000045
 21
73.01002865527427
 31
0.0
  0
LINE
  5
CAA
330
CA7
100
AcDbEntity
  8
2
440
 16777216
370
    -2
100
AcDbLine
 10
12.1
 20
0.0
 30
0.0
 11
12.1
 21
73.01002865527427
 31
0.0
  0
LINE
  5
CAB
330
CA7
100
AcDbEntity
  8
2
440
 16777216
370
    -2
100
AcDbLine
 10
-4.569999999999994
 20
68.01002865527426
 30
0.0
 11
-9.139999999999997
 21
68.01002865527426
 31
0.0
  0
LINE
  5
CAC
330
CA7
100
AcDbEntity
  8
2
440
 16777216
370
    -2
100
AcDbLine
 10
16.67
 20
68.01002865527426
 30
0.0
 11
33.12571428571428
 21
68.01002865527426
 31
0.0
  0
SOLID
  5
CAD
330
CA7
100
AcDbEntity
  8
2
440
 16777216
100
AcDbTrace
 10
-4.569999999999994
 20
68.77169532194092
 30
0.0
 11
-4.569999999999994
 21
67.24836198860758
 31
0.0
 12
0.0000000000000042
 22
68.01002865527426
 32
0.0
 13
0.0000000000000042
 23
68.01002865527426
 33
0.0
  0
SOLID
  5
CAE
330
CA7
100
AcDbEntity
  8
2
440
 16777216
100
AcDbTrace
 10
16.67
 20
68.77169532194092
 30
0.0
 11
16.67
 21
67.24836198860758
 31
0.0
 12
12.1
 22
68.01002865527426
 32
0.0
 13
12.1
 23
68.01002865527426
 33
0.0
  0
MTEXT
  5
CAF
330
CA7
100
AcDbEntity
  8
2
440
 16777216
100
AcDbMText
 10
27.18285714285715
 20
71.81002865527425
 30
0.0
 40
3.0
 41
0.0
 71
     5
 72
     1
  1
\A1;12.1
  7
SANDVIK_STYLE
 73
     1
 44
1.0
  0
POINT
  5
CB0
330
CA7
100
AcDbEntity
  8
DEFPOINTS
 62
     0
440
 16777216
100
AcDbPoint
 10
0.0
 20
0.0
 30
0.0
  0
POINT
  5
CB1
330
CA7
100
AcDbEntity
  8
DEFPOINTS
 62
     0
440
 16777216
100
AcDbPoint
 10
12.1
 20
0.0
 30
0.0
  0
POINT
  5
CB2
330
CA7
100
AcDbEntity
  8
DEFPOINTS
 62
     0
440
 16777216
100
AcDbPoint
 10
12.1
 20
68.01002865527426
 30
0.0
  0
ENDBLK
  5
CB3
330
CA7
100
AcDbEntity
  8
0
100
AcDbBlockEnd
  0
BLOCK
  5
CB5
330
CB4
100
AcDbEntity
  8
0
100
AcDbBlockBegin
  2
*D13
 70
     1
 10
0.0
 20
0.0
 30
0.0
  3
*D13
  1

  0
LINE
  5
CB6
330
CB4
100
AcDbEntity
  8
2
440
 16777216
370
    -2
100
AcDbLine
 10
12.1
 20
1.652364248344006
 30
0.0
 11
12.1
 21
50.15236424834402
 31
0.0
  0
LINE
  5
CB7
330
CB4
100
AcDbEntity
  8
2
440
 16777216
370
    -2
100
AcDbLine
 10
4.165
 20
1.690790506212522
 30
0.0
 11
4.165
 21
50.15236424834402
 31
0.0
  0
LINE
  5
CB8
330
CB4
100
AcDbEntity
  8
2
440
 16777216
370
    -2
100
AcDbLine
 10
-0.4049999999999976
 20
45.15236424834401
 30
0.0
 11
-4.974999999999996
 21
45.15236424834401
 31
0.0
  0
LINE
  5
CB9
330
CB4
100
AcDbEntity
  8
2
440
 16777216
370
    -2
100
AcDbLine
 10
16.67
 20
45.15236424834401
 30
0.0
 11
35.12571428571428
 21
45.15236424834401
 31
0.0
  0
SOLID
  5
CBA
330
CB4
100
AcDbEntity
  8
2
440
 16777216
100
AcDbTrace
 10
-0.4049999999999976
 20
45.91403091501068
 30
0.0
 11
-0.4049999999999976
 21
44.39069758167734
 31
0.0
 12
4.165
 22
45.15236424834401
 32
0.0
 13
4.165
 23
45.15236424834401
 33
0.0
  0
SOLID
  5
CBB
330
CB4
100
AcDbEntity
  8
2
440
 16777216
100
AcDbTrace
 10
16.67
 20
45.91403091501068
 30
0.0
 11
16.67
 21
44.39069758167734
 31
0.0
 12
12.1
 22
45.15236424834401
 32
0.0
 13
12.1
 23
45.15236424834401
 33
0.0
  0
MTEXT
  5
CBC
330
CB4
100
AcDbEntity
  8
2
440
 16777216
100
AcDbMText
 10
28.18285714285714
 20
48.95236424834401
 30
0.0
 40
3.0
 41
0.0
 71
     5
 72
     1
  1
\A1;7.94
  7
SANDVIK_STYLE
 73
     1
 44
1.0
  0
POINT
  5
CBD
330
CB4
100
AcDbEntity
  8
DEFPOINTS
 62
     0
440
 16777216
100
AcDbPoint
 10
12.1
 20
1.652364248344006
 30
0.0
  0
POINT
  5
CBE
330
CB4
100
AcDbEntity
  8
DEFPOINTS
 62
     0
440
 16777216
100
AcDbPoint
 10
4.165
 20
1.690790506212522
 30
0.0
  0
POINT
  5
CBF
330
CB4
100
AcDbEntity
  8
DEFPOINTS
 62
     0
440
 16777216
100
AcDbPoint
 10
4.165
 20
45.15236424834401
 30
0.0
  0
ENDBLK
  5
CC0
330
CB4
100
AcDbEntity
  8
0
100
AcDbBlockEnd
  0
BLOCK
  5
CC2
330
CC1
100
AcDbEntity
  8
0
100
AcDbBlockBegin
  2
*D14
 70
     1
 10
0.0
 20
0.0
 30
0.0
  3
*D14
  1

  0
LINE
  5
CC3
330
CC1
100
AcDbEntity
  8
SK2
440
 16777216
370
    -2
100
AcDbLine
 10
-25.841
 20
1.587497999999999
 30
0.0
 11
-55.99999999998468
 21
1.587498000000007
 31
0.0
  0
LINE
  5
CC4
330
CC1
100
AcDbEntity
  8
SK2
440
 16777216
370
    -2
100
AcDbLine
 10
-25.841
 20
-1.592502000000002
 30
0.0
 11
-55.99999999998468
 21
-1.592501999999993
 31
0.0
  0
LINE
  5
CC5
330
CC1
100
AcDbEntity
  8
SK2
440
 16777216
370
    -2
100
AcDbLine
 10
-50.99999999998468
 20
6.157498000000004
 30
0.0
 11
-50.99999999998468
 21
10.727498
 31
0.0
  0
LINE
  5
CC6
330
CC1
100
AcDbEntity
  8
SK2
440
 16777216
370
    -2
100
AcDbLine
 10
-50.99999999998468
 20
-6.162501999999995
 30
0.0
 11
-50.99999999998468
 21
-26.61821628571428
 31
0.0
  0
SOLID
  5
CC7
330
CC1
100
AcDbEntity
  8
SK2
440
 16777216
100
AcDbTrace
 10
-51.76166666665135
 20
6.157498000000004
 30
0.0
 11
-50.23833333331801
 21
6.157498000000004
 31
0.0
 12
-50.99999999998468
 22
1.587498000000006
 32
0.0
 13
-50.99999999998468
 23
1.587498000000006
 33
0.0
  0
SOLID
  5
CC8
330
CC1
100
AcDbEntity
  8
SK2
440
 16777216
100
AcDbTrace
 10
-51.76166666665135
 20
-6.162501999999995
 30
0.0
 11
-50.23833333331801
 21
-6.162501999999995
 31
0.0
 12
-50.99999999998468
 22
-1.592501999999995
 32
0.0
 13
-50.99999999998468
 23
-1.592501999999995
 33
0.0
  0
MTEXT
  5
CC9
330
CC1
100
AcDbEntity
  8
SK2
440
 16777216
100
AcDbMText
 10
-54.79999999998469
 20
-18.67535914285714
 30
0.0
 40
3.0
 41
0.0
 71
     5
 72
     1
  1
\A1;%%c3.18
  7
SANDVIK_STYLE
 11
0.0000000000000001
 21
1.0
 31
0.0
 73
     1
 44
1.0
  0
POINT
  5
CCA
330
CC1
100
AcDbEntity
  8
DEFPOINTS
 62
     0
440
 16777216
100
AcDbPoint
 10
-25.841
 20
1.587497999999999
 30
0.0
  0
POINT
  5
CCB
330
CC1
100
AcDbEntity
  8
DEFPOINTS
 62
     0
440
 16777216
100
AcDbPoint
 10
-25.841
 20
-1.592502000000002
 30
0.0
  0
POINT
  5
CCC
330
CC1
100
AcDbEntity
  8
DEFPOINTS
 62
     0
440
 16777216
100
AcDbPoint
 10
-50.99999999998468
 20
-1.592501999999995
 30
0.0
  0
ENDBLK
  5
CCD
330
CC1
100
AcDbEntity
  8
0
100
AcDbBlockEnd
  0
BLOCK
  5
CCF
330
CCE
100
AcDbEntity
  8
0
100
AcDbBlockBegin
  2
*D15
 70
     1
 10
0.0
 20
0.0
 30
0.0
  3
*D15
  1

  0
LINE
  5
CD0
330
CCE
100
AcDbEntity
  8
SK2
440
 16777216
370
    -2
100
AcDbLine
 10
-26.0
 20
0.0
 30
0.0
 11
-26.0
 21
95.0
 31
0.0
  0
LINE
  5
CD1
330
CCE
100
AcDbEntity
  8
SK2
440
 16777216
370
    -2
100
AcDbLine
 10
12.1
 20
0.0
 30
0.0
 11
12.1
 21
95.0
 31
0.0
  0
LINE
  5
CD2
330
CCE
100
AcDbEntity
  8
SK2
440
 16777216
370
    -2
100
AcDbLine
 10
-21.42999999999999
 20
90.0
 30
0.0
 11
7.530000000000002
 21
90.0
 31
0.0
  0
SOLID
  5
CD3
330
CCE
100
AcDbEntity
  8
SK2
440
 16777216
100
AcDbTrace
 10
-21.42999999999999
 20
90.76166666666669
 30
0.0
 11
-21.42999999999999
 21
89.23833333333332
 31
0.0
 12
-26.0
 22
90.0
 32
0.0
 13
-26.0
 23
90.0
 33
0.0
  0
SOLID
  5
CD4
330
CCE
100
AcDbEntity
  8
SK2
440
 16777216
100
AcDbTrace
 10
7.530000000000002
 20
90.76166666666669
 30
0.0
 11
7.530000000000002
 21
89.23833333333332
 31
0.0
 12
12.1
 22
90.0
 32
0.0
 13
12.1
 23
90.0
 33
0.0
  0
MTEXT
  5
CD5
330
CCE
100
AcDbEntity
  8
SK2
440
 16777216
100
AcDbMText
 10
-6.949999999999991
 20
93.8
 30
0.0
 40
3.0
 41
0.0
 71
     5
 72
     1
  1
\A1;38.1
  7
SANDVIK_STYLE
 73
     1
 44
1.0
  0
POINT
  5
CD6
330
CCE
100
AcDbEntity
  8
DEFPOINTS
 62
     0
440
 16777216
100
AcDbPoint
 10
-26.0
 20
0.0
 30
0.0
  0
POINT
  5
CD7
330
CCE
100
AcDbEntity
  8
DEFPOINTS
 62
     0
440
 16777216
100
AcDbPoint
 10
12.1
 20
0.0
 30
0.0
  0
POINT
  5
CD8
330
CCE
100
AcDbEntity
  8
DEFPOINTS
 62
     0
440
 16777216
100
AcDbPoint
 10
12.1
 20
90.0
 30
0.0
  0
ENDBLK
  5
CD9
330
CCE
100
AcDbEntity
  8
0
100
AcDbBlockEnd
  0
BLOCK
  5
CDB
330
CDA
100
AcDbEntity
  8
0
100
AcDbBlockBegin
  2
*D16
 70
     1
 10
0.0
 20
0.0
 30
0.0
  3
*D16
  1

  0
LINE
  5
CDC
330
CDA
100
AcDbEntity
  8
2
440
 16777216
370
    -2
100
AcDbLine
 10
12.0152
 20
1.65694821576909
 30
0.0
 11
12.0152
 21
24.98817130491938
 31
0.0
  0
LINE
  5
CDD
330
CDA
100
AcDbEntity
  8
2
440
 16777216
370
    -2
100
AcDbLine
 10
12.1
 20
0.0
 30
0.0
 11
12.1
 21
24.98817130491938
 31
0.0
  0
LINE
  5
CDE
330
CDA
100
AcDbEntity
  8
2
440
 16777216
370
    -2
100
AcDbLine
 10
7.445200000000001
 20
19.98817130491937
 30
0.0
 11
2.875200000000001
 21
19.98817130491937
 31
0.0
  0
LINE
  5
CDF
330
CDA
100
AcDbEntity
  8
2
440
 16777216
370
    -2
100
AcDbLine
 10
16.67
 20
19.98817130491937
 30
0.0
 11
46.83999999999999
 21
19.98817130491937
 31
0.0
  0
SOLID
  5
CE0
330
CDA
100
AcDbEntity
  8
2
440
 16777216
100
AcDbTrace
 10
7.445200000000001
 20
20.74983797158604
 30
0.0
 11
7.445200000000001
 21
19.22650463825271
 31
0.0
 12
12.0152
 22
19.98817130491937
 32
0.0
 13
12.0152
 23
19.98817130491937
 33
0.0
  0
SOLID
  5
CE1
330
CDA
100
AcDbEntity
  8
2
440
 16777216
100
AcDbTrace
 10
16.67
 20
20.74983797158604
 30
0.0
 11
16.67
 21
19.22650463825271
 31
0.0
 12
12.1
 22
19.98817130491937
 32
0.0
 13
12.1
 23
19.98817130491937
 33
0.0
  0
MTEXT
  5
CE2
330
CDA
100
AcDbEntity
  8
2
440
 16777216
100
AcDbMText
 10
34.03999999999999
 20
23.78817130491937
 30
0.0
 40
3.0
 41
0.0
 71
     5
 72
     1
  1
\A1;0.081x45°
  7
SANDVIK_STYLE
 73
     1
 44
1.0
  0
POINT
  5
CE3
330
CDA
100
AcDbEntity
  8
DEFPOINTS
 62
     0
440
 16777216
100
AcDbPoint
 10
12.0152
 20
1.65694821576909
 30
0.0
  0
POINT
  5
CE4
330
CDA
100
AcDbEntity
  8
DEFPOINTS
 62
     0
440
 16777216
100
AcDbPoint
 10
12.1
 20
0.0
 30
0.0
  0
POINT
  5
CE5
330
CDA
100
AcDbEntity
  8
DEFPOINTS
 62
     0
440
 16777216
100
AcDbPoint
 10
12.1
 20
19.98817130491937
 30
0.0
  0
ENDBLK
  5
CE6
330
CDA
100
AcDbEntity
  8
0
100
AcDbBlockEnd
  0
BLOCK
  5
D7A
330
CE9
100
AcDbEntity
  8
0
100
AcDbBlockBegin
  2
A$C1F443842
 70
     0
 10
0.0
 20
0.0
 30
0.0
  3
A$C1F443842
  1

  0
LINE
  5
CEA
330
CE9
100
AcDbEntity
  8
SK4
100
AcDbLine
 10
15.40313462659208
 20
-60.43802737875506
 30
0.0
 11
55.40313462659207
 21
-60.43802737875506
 31
0.0
  0
LINE
  5
CEB
330
CE9
100
AcDbEntity
  8
4
100
AcDbLine
 10
53.40313462659207
 20
-60.43802737875506
 30
0.0
 11
69.40313462659208
 21
-60.43802737875506
 31
0.0
  0
LINE
  5
CEC
330
CE9
100
AcDbEntity
  8
SK4
100
AcDbLine
 10
53.40313462659207
 20
-60.43802737875506
 30
0.0
 11
69.40313462659208
 21
-60.43802737875506
 31
0.0
  0
LINE
  5
CED
330
CE9
100
AcDbEntity
  8
SK1
100
AcDbLine
 10
53.40313462659207
 20
-58.85052937875506
 30
0.0
 11
27.56213462659208
 21
-58.85052937875506
 31
0.0
  0
LINE
  5
CEE
330
CE9
100
AcDbEntity
  8
SK1
100
AcDbLine
 10
27.56213462659208
 20
-58.85052937875506
 30
0.0
 11
27.40313462659208
 21
-59.00952937875508
 31
0.0
  0
LINE
  5
CEF
330
CE9
100
AcDbEntity
  8
SK1
100
AcDbLine
 10
27.40313462659208
 20
-59.00952937875508
 30
0.0
 11
27.40313462659208
 21
-59.01095206935925
 31
0.0
  0
LINE
  5
CF0
330
CE9
100
AcDbEntity
  8
SK1
100
AcDbLine
 10
27.40313462659208
 20
-59.01095206935925
 30
0.0
 11
27.40313462659208
 21
-59.13792816087514
 31
0.0
  0
LINE
  5
CF1
330
CE9
100
AcDbEntity
  8
SK1
100
AcDbLine
 10
27.40313462659208
 20
-59.13792816087514
 30
0.0
 11
27.40313462659208
 21
-61.87152937875506
 31
0.0
  0
LINE
  5
CF2
330
CE9
100
AcDbEntity
  8
SK1
100
AcDbLine
 10
27.56213462659208
 20
-58.85052937875506
 30
0.0
 11
27.56213462659208
 21
-62.03052937565956
 31
0.0
  0
LINE
  5
CF3
330
CE9
100
AcDbEntity
  8
SK1
100
AcDbLine
 10
53.40313462659207
 20
-62.03052937875506
 30
0.0
 11
27.56213462659208
 21
-62.03052937875506
 31
0.0
  0
LINE
  5
CF4
330
CE9
100
AcDbEntity
  8
SK1
100
AcDbLine
 10
27.56213462659207
 20
-62.03052937875506
 30
0.0
 11
27.40313462659208
 21
-61.87152937875506
 31
0.0
  0
DIMENSION
  5
CF5
330
CE9
100
AcDbEntity
  8
2
100
AcDbDimension
  2
*D11
 10
79.66313462659207
 20
-62.02502737875508
 30
0.0
 11
75.8631346265921
 21
-79.10788452161219
 31
0.0
 12
53.40313462659207
 22
-60.43802737875506
 32
0.0
  1
%%c3.18
 71
     5
 42
3.173999999999995
  3
SANDVIK_DIM
100
AcDbAlignedDimension
 13
65.50313462659207
 23
-58.85102737875507
 33
0.0
 14
65.42147456326119
 24
-62.02502737875506
 34
0.0
 50
90.0
100
AcDbRotatedDimension
1001
ACAD
1000
DSTYLE
1002
{
1070
   279
1070
     0
1070
   140
1040
3.0
1070
    40
1040
1.0
1002
}
  0
DIMENSION
  5
CF6
330
CE9
100
AcDbEntity
  8
2
100
AcDbDimension
  2
*D12
 10
65.50313462659207
 20
7.572001276519187
 30
0.0
 11
80.58599176944921
 21
7.572001276519187
 31
0.0
 12
53.40313462659207
 22
-60.43802737875506
 32
0.0
 70
   128
  1
<>
 71
     5
 42
12.1
  3
SANDVIK_DIM
100
AcDbAlignedDimension
 13
53.40313462659207
 23
-60.43802737875506
 33
0.0
 14
65.50313462659207
 24
-60.43802737875506
 34
0.0
100
AcDbRotatedDimension
1001
ACAD
1000
DSTYLE
1002
{
1070
    40
1040
1.0
1070
   140
1040
3.0
1070
   279
1070
     0
1002
}
  0
DIMENSION
  5
CF7
330
CE9
100
AcDbEntity
  8
2
100
AcDbDimension
  2
*D13
 10
57.56813462659208
 20
-15.28566313041105
 30
0.0
 11
81.58599176944923
 21
-15.28566313041105
 31
0.0
 12
53.40313462659207
 22
-60.43802737875506
 32
0.0
 70
   128
  1
<>
 71
     5
 42
7.934999999999997
  3
SANDVIK_DIM
100
AcDbAlignedDimension
 13
65.50313462659207
 23
-58.78566313041106
 33
0.0
 14
57.56813462659208
 24
-58.74723687254254
 34
0.0
100
AcDbRotatedDimension
1001
ACAD
1000
DSTYLE
1002
{
1070
   279
1070
     0
1070
   140
1040
3.0
1070
    40
1040
1.0
1002
}
  0
DIMENSION
  5
CF8
330
CE9
100
AcDbEntity
  8
SK2
100
AcDbDimension
  2
*D14
 10
2.403134626607395
 20
-62.03052937875506
 30
0.0
 11
-1.396865373392607
 21
-79.11338652161219
 31
0.0
 12
53.40313462659207
 22
-60.43802737875506
 32
0.0
  1
%%c<>
 71
     5
 42
3.180000000000001
  3
SANDVIK_DIM
100
AcDbAlignedDimension
 13
27.56213462659208
 23
-58.85052937875506
 33
0.0
 14
27.56213462659208
 24
-62.03052937875508
 34
0.0
 50
90.00000000029229
100
AcDbRotatedDimension
1001
ACAD
1000
DSTYLE
1002
{
1070
   279
1070
     0
1070
   140
1040
3.0
1070
    40
1040
1.0
1002
}
  0
DIMENSION
  5
CF9
330
CE9
100
AcDbEntity
  8
SK2
100
AcDbDimension
  2
*D15
 10
65.50313462659207
 20
29.56197262124494
 30
0.0
 11
46.45313462659209
 21
33.36197262124493
 31
0.0
 12
53.40313462659207
 22
-60.43802737875506
 32
0.0
  1
<>
 71
     5
 42
38.1
  3
SANDVIK_DIM
100
AcDbAlignedDimension
 13
27.40313462659208
 23
-60.43802737875506
 33
0.0
 14
65.50313462659207
 24
-60.43802737875506
 34
0.0
100
AcDbRotatedDimension
1001
ACAD
1000
DSTYLE
1002
{
1070
   279
1070
     0
1070
   140
1040
3.0
1070
    40
1040
1.0
1002
}
  0
DIMENSION
  5
CFA
330
CE9
100
AcDbEntity
  8
2
100
AcDbDimension
  2
*D16
 10
65.50313462659207
 20
-40.44985607383567
 30
0.0
 11
87.44313462659206
 21
-36.64985607383569
 31
0.0
 12
53.40313462659207
 22
-60.43802737875506
 32
0.0
  1
0.081x45°
 71
     5
 42
0.0847999999999996
  3
SANDVIK_DIM
100
AcDbAlignedDimension
 13
65.41833462659207
 23
-58.78107916298597
 33
0.0
 14
65.50313462659207
 24
-60.43802737875506
 34
0.0
100
AcDbRotatedDimension
1001
ACAD
1000
DSTYLE
1002
{
1070
    40
1040
1.0
1070
   140
1040
3.0
1070
   279
1070
     0
1002
}
  0
LINE
  5
CFB
330
CE9
100
AcDbEntity
  8
1
100
AcDbLine
 10
54.28833462659207
 20
-58.85052937875506
 30
0.0
 11
53.40313462659207
 21
-58.85052937875506
 31
0.0
  0
LINE
  5
CFC
330
CE9
100
AcDbEntity
  8
1
100
AcDbLine
 10
54.28833462659207
 20
-58.85102737875507
 30
0.0
 11
56.51196798799206
 21
-58.85102737875507
 31
0.0
  0
LINE
  5
CFD
330
CE9
100
AcDbEntity
  8
1
100
AcDbLine
 10
54.28833462659207
 20
-62.03001156185557
 30
0.0
 11
53.40313462659207
 21
-62.03052937875506
 31
0.0
  0
LINE
  5
CFE
330
CE9
100
AcDbEntity
  8
1
100
AcDbLine
 10
54.28833462659207
 20
-62.03250365340585
 30
0.0
 11
57.57047312250449
 21
-62.03001156185557
 31
0.0
  0
LINE
  5
CFF
330
CE9
100
AcDbEntity
  8
1
100
AcDbLine
 10
56.51196798799206
 20
-59.84565017800449
 30
0.0
 11
57.57030131799208
 21
-60.38808639931636
 31
0.0
  0
LINE
  5
D00
330
CE9
100
AcDbEntity
  8
1
100
AcDbLine
 10
57.57030131799208
 20
-60.40796015208889
 30
0.0
 11
56.51196798799206
 21
-60.07924379313021
 31
0.0
  0
ARC
  5
D01
330
CE9
100
AcDbEntity
  8
1
100
AcDbCircle
 10
59.85051403224968
 20
-67.24201838796588
 30
0.0
 40
8.465354433384712
100
AcDbArc
 50
105.6262328438791
 51
109.8963727964559
  0
LINE
  5
D02
330
CE9
100
AcDbEntity
  8
1
100
AcDbLine
 10
56.51196798799206
 20
-61.87185736911754
 30
0.0
 11
56.77657223003017
 21
-61.92614600382803
 31
0.0
  0
LINE
  5
D03
330
CE9
100
AcDbEntity
  8
1
100
AcDbLine
 10
56.77657223003017
 20
-61.92614600382803
 30
0.0
 11
57.04115387145082
 21
-61.96898934902092
 31
0.0
  0
LINE
  5
D04
330
CE9
100
AcDbEntity
  8
1
100
AcDbLine
 10
57.04115387145082
 20
-61.96898934902092
 30
0.0
 11
57.30572792158017
 21
-62.00005485953639
 31
0.0
  0
LINE
  5
D05
330
CE9
100
AcDbEntity
  8
1
100
AcDbLine
 10
57.30572792158017
 20
-62.00005485953639
 30
0.0
 11
57.57030131799208
 21
-62.01910827308346
 31
0.0
  0
LINE
  5
D06
330
CE9
100
AcDbEntity
  8
1
100
AcDbLine
 10
56.51196798799206
 20
-59.84565017800449
 30
0.0
 11
56.51196798799206
 21
-61.87185736911754
 31
0.0
  0
LINE
  5
D07
330
CE9
100
AcDbEntity
  8
1
100
AcDbLine
 10
57.57030131799208
 20
-59.52001761547314
 30
0.0
 11
57.57030131799208
 21
-60.38808639931636
 31
0.0
  0
LINE
  5
D08
330
CE9
100
AcDbEntity
  8
1
100
AcDbLine
 10
56.51196798799206
 20
-59.13085389991683
 30
0.0
 11
57.04115399052023
 21
-59.3080829469306
 31
0.0
  0
LINE
  5
D09
330
CE9
100
AcDbEntity
  8
1
100
AcDbLine
 10
57.04115399052023
 20
-59.3080829469306
 30
0.0
 11
57.57030131799208
 21
-59.52001761547314
 31
0.0
  0
LINE
  5
D0A
330
CE9
100
AcDbEntity
  8
1
100
AcDbLine
 10
56.51196798799206
 20
-58.85102737875507
 30
0.0
 11
56.51196798799206
 21
-58.8510884378499
 31
0.0
  0
LINE
  5
D0B
330
CE9
100
AcDbEntity
  8
1
100
AcDbLine
 10
56.51196798799206
 20
-58.8510884378499
 30
0.0
 11
56.51196798799206
 21
-58.86947084332707
 31
0.0
  0
LINE
  5
D0C
330
CE9
100
AcDbEntity
  8
1
100
AcDbLine
 10
56.51196798799206
 20
-58.86947084332707
 30
0.0
 11
56.51196798799206
 21
-59.13085389991683
 31
0.0
  0
LINE
  5
D0D
330
CE9
100
AcDbEntity
  8
1
100
AcDbLine
 10
57.57030131799208
 20
-59.52001761547314
 30
0.0
 11
57.57030131799208
 21
-59.08962670304582
 31
0.0
  0
LINE
  5
D0E
330
CE9
100
AcDbEntity
  8
1
100
AcDbLine
 10
57.57030131799208
 20
-60.40796015208889
 30
0.0
 11
57.57030131799208
 21
-60.38808639931636
 31
0.0
  0
LINE
  5
D0F
330
CE9
100
AcDbEntity
  8
1
100
AcDbLine
 10
57.57030131799208
 20
-62.01910827308346
 30
0.0
 11
57.57030131799208
 21
-60.40796015208889
 31
0.0
  0
LINE
  5
D10
330
CE9
100
AcDbEntity
  8
1
100
AcDbLine
 10
57.57030131799208
 20
-62.01910827308346
 30
0.0
 11
57.57030131799208
 21
-62.0260273669561
 31
0.0
  0
LINE
  5
D11
330
CE9
100
AcDbEntity
  8
1
 62
     1
100
AcDbLine
 10
57.57030131799208
 20
-60.38808639931636
 30
0.0
 11
57.66613173077395
 21
-60.43852737375423
 31
0.0
  0
LINE
  5
D12
330
CE9
100
AcDbEntity
  8
1
 62
     1
100
AcDbLine
 10
57.57030131799208
 20
-59.52001761547311
 30
0.0
 11
57.73926404176425
 21
-59.5939700372104
 31
0.0
  0
LINE
  5
D13
330
CE9
100
AcDbEntity
  8
1
 62
     1
100
AcDbLine
 10
65.50780129299207
 20
-60.26611608908806
 30
0.0
 11
65.42313462659206
 21
-60.26859828788143
 31
0.0
  0
LINE
  5
D14
330
CE9
100
AcDbEntity
  8
1
 62
     1
100
AcDbLine
 10
65.42313462659207
 20
-60.26859828788143
 30
0.0
 11
65.42313462659206
 21
-61.16874650887321
 31
0.0
  0
LINE
  5
D15
330
CE9
100
AcDbEntity
  8
1
 62
     1
100
AcDbLine
 10
65.50780129299207
 20
-61.16699040090503
 30
0.0
 11
65.42313462659206
 21
-61.16874650887321
 31
0.0
  0
LINE
  5
D16
330
CE9
100
AcDbEntity
  8
1
 62
     1
100
AcDbLine
 10
65.5078012929921
 20
-60.26611608908806
 30
0.0
 11
65.5078012929921
 21
-61.16699040090503
 31
0.0
  0
LINE
  5
D17
330
CE9
100
AcDbEntity
  8
1
 62
     1
100
AcDbLine
 10
65.5078012929921
 20
-58.93592543552919
 30
0.0
 11
65.42313462659207
 21
-58.85267942856374
 31
0.0
  0
LINE
  5
D18
330
CE9
100
AcDbEntity
  8
1
 62
     1
100
AcDbLine
 10
65.5078012929921
 20
-59.47664786389683
 30
0.0
 11
65.5078012929921
 21
-58.93592543552919
 31
0.0
  0
LINE
  5
D19
330
CE9
100
AcDbEntity
  8
1
 62
     1
100
AcDbLine
 10
65.42313462659207
 20
-60.26859828788143
 30
0.0
 11
64.05493268381929
 21
-59.59397092253553
 31
0.0
  0
LINE
  5
D1A
330
CE9
100
AcDbEntity
  8
1
 62
     1
100
AcDbLine
 10
65.5078012929921
 20
-59.47664786389683
 30
0.0
 11
65.5078012929921
 21
-60.26611608908806
 31
0.0
  0
LINE
  5
D1B
330
CE9
100
AcDbEntity
  8
1
 62
     1
100
AcDbLine
 10
65.50780129299221
 20
-59.47664786389683
 30
0.0
 11
65.14458423106948
 21
-59.48564916087296
 31
0.0
  0
LINE
  5
D1C
330
CE9
100
AcDbEntity
  8
1
 62
     1
100
AcDbLine
 10
65.14458423106948
 20
-59.48564916087296
 30
0.0
 11
64.78136716914676
 21
-59.50845322717079
 31
0.0
  0
LINE
  5
D1D
330
CE9
100
AcDbEntity
  8
1
 62
     1
100
AcDbLine
 10
64.78136716914676
 20
-59.50845322717079
 30
0.0
 11
64.41815010722402
 21
-59.54473613530037
 31
0.0
  0
LINE
  5
D1E
330
CE9
100
AcDbEntity
  8
1
 62
     1
100
AcDbLine
 10
64.41815010722402
 20
-59.54473613530037
 30
0.0
 11
64.05493304530128
 21
-59.59397011159047
 31
0.0
  0
LINE
  5
D1F
330
CE9
100
AcDbEntity
  8
1
 62
     1
100
AcDbLine
 10
65.5078012929921
 20
-61.81763160911619
 30
0.0
 11
65.42313462659207
 21
-61.89040824731507
 31
0.0
  0
LINE
  5
D20
330
CE9
100
AcDbEntity
  8
1
 62
     1
100
AcDbLine
 10
65.5078012929921
 20
-61.16699040090503
 30
0.0
 11
65.5078012929921
 21
-61.8176316091162
 31
0.0
  0
LINE
  5
D21
330
CE9
100
AcDbEntity
  8
1
 62
     1
100
AcDbLine
 10
57.57030131799208
 20
-62.01910827308346
 30
0.0
 11
57.57030131799208
 21
-60.40796015208889
 31
0.0
  0
ARC
  5
D22
330
CE9
100
AcDbEntity
  8
1
 62
     1
100
AcDbCircle
 10
57.85216362777164
 20
-56.28220495465583
 30
0.0
 40
5.743823142313337
100
AcDbArc
 50
267.1872377459691
 51
269.9967994595055
  0
LINE
  5
D23
330
CE9
100
AcDbEntity
  8
1
 62
     1
100
AcDbLine
 10
57.85184277802668
 20
-62.02602736769852
 30
0.0
 11
57.85194637446882
 21
-62.02602736863472
 31
0.0
  0
LINE
  5
D24
330
CE9
100
AcDbEntity
  8
1
 62
     1
100
AcDbLine
 10
57.57030131799208
 20
-60.40796015208889
 30
0.0
 11
57.57030131799208
 21
-60.38808639931636
 31
0.0
  0
LINE
  5
D25
330
CE9
100
AcDbEntity
  8
1
 62
     1
100
AcDbLine
 10
57.57030131799208
 20
-59.08962670304582
 30
0.0
 11
57.98899314496403
 21
-58.98676252076122
 31
0.0
  0
LINE
  5
D26
330
CE9
100
AcDbEntity
  8
1
 62
     1
100
AcDbLine
 10
57.98899314496403
 20
-58.98676252076122
 30
0.0
 11
58.40767802715792
 21
-58.9118419902576
 31
0.0
  0
LINE
  5
D27
330
CE9
100
AcDbEntity
  8
1
 62
     1
100
AcDbLine
 10
58.40767802715792
 20
-58.9118419902576
 30
0.0
 11
58.61702197672664
 21
-58.88533174495137
 31
0.0
  0
LINE
  5
D28
330
CE9
100
AcDbEntity
  8
1
 62
     1
100
AcDbLine
 10
58.61702197672664
 20
-58.88533174495137
 30
0.0
 11
58.82636946297864
 21
-58.86630411583428
 31
0.0
  0
LINE
  5
D29
330
CE9
100
AcDbEntity
  8
1
 62
     1
100
AcDbLine
 10
58.82636946297864
 20
-58.86630411583428
 30
0.0
 11
59.03571299270833
 21
-58.85485137618768
 31
0.0
  0
LINE
  5
D2A
330
CE9
100
AcDbEntity
  8
1
 62
     1
100
AcDbLine
 10
59.03571299270833
 20
-58.85485137618768
 30
0.0
 11
59.24504903967086
 21
-58.85102737875507
 31
0.0
  0
LINE
  5
D2B
330
CE9
100
AcDbEntity
  8
1
 62
     1
100
AcDbLine
 10
59.24504903967086
 20
-58.85102737875507
 30
0.0
 11
61.00978085729032
 21
-58.85102737875507
 31
0.0
  0
LINE
  5
D2C
330
CE9
100
AcDbEntity
  8
1
 62
     1
100
AcDbLine
 10
65.42313462659207
 20
-61.16874650887321
 30
0.0
 11
63.9818007461149
 21
-60.43852737376544
 31
0.0
  0
LINE
  5
D2D
330
CE9
100
AcDbEntity
  8
1
 62
     1
100
AcDbLine
 10
57.57030131799208
 20
-59.52001761547314
 30
0.0
 11
57.57030131799208
 21
-59.08962670304582
 31
0.0
  0
LINE
  5
D2E
330
CE9
100
AcDbEntity
  8
1
 62
     1
100
AcDbLine
 10
57.57030131799208
 20
-62.01910827308346
 30
0.0
 11
57.57047312250449
 21
-62.03001156185557
 31
0.0
  0
LINE
  5
D2F
330
CE9
100
AcDbEntity
  8
1
 62
     1
100
AcDbLine
 10
57.57030131799208
 20
-59.52001761547314
 30
0.0
 11
57.57030131799208
 21
-60.38808639931636
 31
0.0
  0
LINE
  5
D30
330
CE9
100
AcDbEntity
  8
1
 62
     1
100
AcDbLine
 10
64.16761490366309
 20
-62.02602736865206
 30
0.0
 11
64.48149981236048
 21
-62.01743368026853
 31
0.0
  0
LINE
  5
D31
330
CE9
100
AcDbEntity
  8
1
 62
     1
100
AcDbLine
 10
64.48149981236048
 20
-62.01743368026853
 30
0.0
 11
64.79537319528076
 21
-61.9917503126333
 31
0.0
  0
LINE
  5
D32
330
CE9
100
AcDbEntity
  8
1
 62
     1
100
AcDbLine
 10
64.79537319528076
 20
-61.9917503126333
 30
0.0
 11
65.10924715093465
 21
-61.94925597092559
 31
0.0
  0
LINE
  5
D33
330
CE9
100
AcDbEntity
  8
1
 62
     1
100
AcDbLine
 10
65.10924715093465
 20
-61.94925597092559
 30
0.0
 11
65.42313462659207
 21
-61.89040824731507
 31
0.0
  0
LINE
  5
D34
330
CE9
100
AcDbEntity
  8
1
 62
     1
100
AcDbLine
 10
62.40288352980694
 20
-62.02602736875507
 30
0.0
 11
64.16761490366309
 21
-62.02602736875507
 31
0.0
  0
LINE
  5
D35
330
CE9
100
AcDbEntity
  8
1
 62
     1
100
AcDbLine
 10
63.28524934490751
 20
-59.28194884595747
 30
0.0
 11
63.81971065303342
 21
-59.10834348555265
 31
0.0
  0
LINE
  5
D36
330
CE9
100
AcDbEntity
  8
1
 62
     1
100
AcDbLine
 10
63.81971065303342
 20
-59.10834348555265
 30
0.0
 11
64.08696073451007
 21
-59.03687373295563
 31
0.0
  0
LINE
  5
D37
330
CE9
100
AcDbEntity
  8
1
 62
     1
100
AcDbLine
 10
64.08696073451007
 20
-59.03687373295563
 30
0.0
 11
64.35418926721232
 21
-58.97641156053254
 31
0.0
  0
LINE
  5
D38
330
CE9
100
AcDbEntity
  8
1
 62
     1
100
AcDbLine
 10
64.35418926721232
 20
-58.97641156053254
 30
0.0
 11
64.62142215984531
 21
-58.92742051258693
 31
0.0
  0
LINE
  5
D39
330
CE9
100
AcDbEntity
  8
1
 62
     1
100
AcDbLine
 10
64.62142215984531
 20
-58.92742051258693
 30
0.0
 11
64.88867065483347
 21
-58.89028975311042
 31
0.0
  0
LINE
  5
D3A
330
CE9
100
AcDbEntity
  8
1
 62
     1
100
AcDbLine
 10
64.88867065483347
 20
-58.89028975311042
 30
0.0
 11
65.15589561976414
 21
-58.86531313084393
 31
0.0
  0
LINE
  5
D3B
330
CE9
100
AcDbEntity
  8
1
 62
     1
100
AcDbLine
 10
65.15589561976414
 20
-58.86531313084393
 30
0.0
 11
65.42313462659207
 21
-58.85267942856374
 31
0.0
  0
LINE
  5
D3C
330
CE9
100
AcDbEntity
  8
1
 62
     1
100
AcDbLine
 10
64.05493268381929
 20
-59.59397092253553
 30
0.0
 11
63.67428664705538
 21
-59.43146255414543
 31
0.0
  0
LINE
  5
D3D
330
CE9
100
AcDbEntity
  8
1
 62
     1
100
AcDbLine
 10
63.67428664705538
 20
-59.43146255414543
 30
0.0
 11
63.29363894815625
 21
-59.28497860817731
 31
0.0
  0
LINE
  5
D3E
330
CE9
100
AcDbEntity
  8
1
 62
     1
100
AcDbLine
 10
63.29363894815625
 20
-59.28497860817731
 30
0.0
 11
62.91298888410873
 21
-59.15685059304138
 31
0.0
  0
LINE
  5
D3F
330
CE9
100
AcDbEntity
  8
1
 62
     1
100
AcDbLine
 10
62.91298888410873
 20
-59.15685059304138
 30
0.0
 11
62.53233704920933
 21
-59.04911773258696
 31
0.0
  0
LINE
  5
D40
330
CE9
100
AcDbEntity
  8
1
 62
     1
100
AcDbLine
 10
62.53233704920933
 20
-59.04911773258696
 30
0.0
 11
62.1516873666565
 21
-58.96349546709172
 31
0.0
  0
LINE
  5
D41
330
CE9
100
AcDbEntity
  8
1
 62
     1
100
AcDbLine
 10
62.1516873666565
 20
-58.96349546709172
 30
0.0
 11
61.77104006304162
 21
-58.90134581109054
 31
0.0
  0
LINE
  5
D42
330
CE9
100
AcDbEntity
  8
1
 62
     1
100
AcDbLine
 10
61.77104006304162
 20
-58.90134581109054
 30
0.0
 11
61.39039430223874
 21
-58.86365734896415
 31
0.0
  0
LINE
  5
D43
330
CE9
100
AcDbEntity
  8
1
 62
     1
100
AcDbLine
 10
61.39039430223874
 20
-58.86365734896415
 30
0.0
 11
61.00978085729032
 21
-58.85102737875507
 31
0.0
  0
LINE
  5
D44
330
CE9
100
AcDbEntity
  8
1
 62
     1
100
AcDbLine
 10
57.73926404176425
 20
-59.5939700372104
 30
0.0
 11
60.95337224377928
 21
-61.20642140657462
 31
0.0
  0
LINE
  5
D45
330
CE9
100
AcDbEntity
  8
1
 62
     1
100
AcDbLine
 10
60.95337224377928
 20
-61.20642140657462
 30
0.0
 11
61.35515486572715
 21
-61.38419315062169
 31
0.0
  0
LINE
  5
D46
330
CE9
100
AcDbEntity
  8
1
 62
     1
100
AcDbLine
 10
61.35515486572715
 20
-61.38419315062169
 30
0.0
 11
61.7569376161339
 21
-61.54520126043642
 31
0.0
  0
LINE
  5
D47
330
CE9
100
AcDbEntity
  8
1
 62
     1
100
AcDbLine
 10
61.7569376161339
 20
-61.54520126043642
 30
0.0
 11
62.15872051805606
 21
-61.6865918504196
 31
0.0
  0
LINE
  5
D48
330
CE9
100
AcDbEntity
  8
1
 62
     1
100
AcDbLine
 10
62.15872051805606
 20
-61.6865918504196
 30
0.0
 11
62.56050295925771
 21
-61.80585937358711
 31
0.0
  0
LINE
  5
D49
330
CE9
100
AcDbEntity
  8
1
 62
     1
100
AcDbLine
 10
62.56050295925771
 20
-61.80585937358711
 30
0.0
 11
62.96228538999397
 21
-61.90088908582993
 31
0.0
  0
LINE
  5
D4A
330
CE9
100
AcDbEntity
  8
1
 62
     1
100
AcDbLine
 10
62.96228538999397
 20
-61.90088908582993
 30
0.0
 11
63.36406812504353
 21
-61.9699963516113
 31
0.0
  0
LINE
  5
D4B
330
CE9
100
AcDbEntity
  8
1
 62
     1
100
AcDbLine
 10
63.36406812504353
 20
-61.9699963516113
 30
0.0
 11
63.76585082355309
 21
-62.0119564831159
 31
0.0
  0
LINE
  5
D4C
330
CE9
100
AcDbEntity
  8
1
 62
     1
100
AcDbLine
 10
63.76585082355309
 20
-62.0119564831159
 30
0.0
 11
64.16761490366309
 21
-62.02602736865206
 31
0.0
  0
LINE
  5
D4D
330
CE9
100
AcDbEntity
  8
1
 62
     1
100
AcDbLine
 10
57.66613173077395
 20
-60.43852737375423
 30
0.0
 11
58.85032516032218
 21
-61.04603945188575
 31
0.0
  0
LINE
  5
D4E
330
CE9
100
AcDbEntity
  8
1
 62
     1
100
AcDbLine
 10
58.85032516032218
 20
-61.04603945188575
 30
0.0
 11
59.44241025577422
 21
-61.32049331123814
 31
0.0
  0
LINE
  5
D4F
330
CE9
100
AcDbEntity
  8
1
 62
     1
100
AcDbLine
 10
59.44241025577422
 20
-61.32049331123814
 30
0.0
 11
60.03451651492547
 21
-61.56106122324452
 31
0.0
  0
LINE
  5
D50
330
CE9
100
AcDbEntity
  8
1
 62
     1
100
AcDbLine
 10
60.03451651492547
 20
-61.56106122324452
 30
0.0
 11
60.33055651947995
 21
-61.66568100737276
 31
0.0
  0
LINE
  5
D51
330
CE9
100
AcDbEntity
  8
1
 62
     1
100
AcDbLine
 10
60.33055651947995
 20
-61.66568100737276
 30
0.0
 11
60.62661173792719
 21
-61.75848835129034
 31
0.0
  0
LINE
  5
D52
330
CE9
100
AcDbEntity
  8
1
 62
     1
100
AcDbLine
 10
60.62661173792719
 20
-61.75848835129034
 30
0.0
 11
60.92266623655825
 21
-61.83858051145561
 31
0.0
  0
LINE
  5
D53
330
CE9
100
AcDbEntity
  8
1
 62
     1
100
AcDbLine
 10
60.92266623655825
 20
-61.83858051145561
 30
0.0
 11
61.21870609791972
 21
-61.90518636153538
 31
0.0
  0
LINE
  5
D54
330
CE9
100
AcDbEntity
  8
1
 62
     1
100
AcDbLine
 10
61.21870609791972
 20
-61.90518636153538
 30
0.0
 11
61.51475121896284
 21
-61.95767101202847
 31
0.0
  0
LINE
  5
D55
330
CE9
100
AcDbEntity
  8
1
 62
     1
100
AcDbLine
 10
61.51475121896284
 20
-61.95767101202847
 30
0.0
 11
61.81081211419385
 21
-61.99552579741617
 31
0.0
  0
LINE
  5
D56
330
CE9
100
AcDbEntity
  8
1
 62
     1
100
AcDbLine
 10
61.81081211419385
 20
-61.99552579741617
 30
0.0
 11
62.10685663028025
 21
-62.01838214120087
 31
0.0
  0
LINE
  5
D57
330
CE9
100
AcDbEntity
  8
1
 62
     1
100
AcDbLine
 10
62.10685663028025
 20
-62.01838214120087
 30
0.0
 11
62.40288352980692
 21
-62.02602736875061
 31
0.0
  0
LINE
  5
D58
330
CE9
100
AcDbEntity
  8
1
 62
     1
100
AcDbLine
 10
57.66613173077356
 20
-60.43852737375506
 30
0.0
 11
57.57030131799208
 21
-60.40796015208889
 31
0.0
  0
LINE
  5
D59
330
CE9
100
AcDbEntity
  8
1
 62
     1
100
AcDbLine
 10
57.85194637446883
 20
-62.02602736863472
 30
0.0
 11
58.13638116361943
 21
-62.01896871022055
 31
0.0
  0
LINE
  5
D5A
330
CE9
100
AcDbEntity
  8
1
 62
     1
100
AcDbLine
 10
58.13638116361943
 20
-62.01896871022055
 30
0.0
 11
58.42080539287739
 21
-61.99786245951884
 31
0.0
  0
LINE
  5
D5B
330
CE9
100
AcDbEntity
  8
1
 62
     1
100
AcDbLine
 10
58.42080539287739
 20
-61.99786245951884
 30
0.0
 11
58.70524583618891
 21
-61.96289303707621
 31
0.0
  0
LINE
  5
D5C
330
CE9
100
AcDbEntity
  8
1
 62
     1
100
AcDbLine
 10
58.70524583618891
 20
-61.96289303707621
 30
0.0
 11
58.98968557755854
 21
-61.91436796351824
 31
0.0
  0
LINE
  5
D5D
330
CE9
100
AcDbEntity
  8
1
 62
     1
100
AcDbLine
 10
58.98968557755854
 20
-61.91436796351824
 30
0.0
 11
59.2741096047056
 21
-61.85272655847839
 31
0.0
  0
LINE
  5
D5E
330
CE9
100
AcDbEntity
  8
1
 62
     1
100
AcDbLine
 10
59.2741096047056
 20
-61.85272655847839
 30
0.0
 11
59.55854524801574
 21
-61.77851164134857
 31
0.0
  0
LINE
  5
D5F
330
CE9
100
AcDbEntity
  8
1
 62
     1
100
AcDbLine
 10
59.55854524801574
 20
-61.77851164134857
 30
0.0
 11
59.84298881458943
 21
-61.69237853409223
 31
0.0
  0
LINE
  5
D60
330
CE9
100
AcDbEntity
  8
1
 62
     1
100
AcDbLine
 10
59.84298881458943
 20
-61.69237853409223
 30
0.0
 11
60.1274137230769
 21
-61.5951050738755
 31
0.0
  0
LINE
  5
D61
330
CE9
100
AcDbEntity
  8
1
 62
     1
100
AcDbLine
 10
57.57047312250449
 20
-62.03001156185557
 30
0.0
 11
57.85194637446882
 21
-62.02602736875507
 31
0.0
  0
LINE
  5
D62
330
CE9
100
AcDbEntity
  8
1
 62
     1
100
AcDbLine
 10
63.9818007461149
 20
-60.43852737376544
 30
0.0
 11
62.79760250461468
 21
-59.8310127277019
 31
0.0
  0
LINE
  5
D63
330
CE9
100
AcDbEntity
  8
1
 62
     1
100
AcDbLine
 10
62.79760250461468
 20
-59.8310127277019
 30
0.0
 11
62.20551882989746
 21
-59.55656021520084
 31
0.0
  0
LINE
  5
D64
330
CE9
100
AcDbEntity
  8
1
 62
     1
100
AcDbLine
 10
62.20551882989746
 20
-59.55656021520084
 30
0.0
 11
61.6134101574131
 21
-59.31599113799839
 31
0.0
  0
LINE
  5
D65
330
CE9
100
AcDbEntity
  8
1
 62
     1
100
AcDbLine
 10
61.6134101574131
 20
-59.31599113799839
 30
0.0
 11
61.31737096778996
 21
-59.21137233515255
 31
0.0
  0
LINE
  5
D66
330
CE9
100
AcDbEntity
  8
1
 62
     1
100
AcDbLine
 10
61.31737096778996
 20
-59.21137233515255
 30
0.0
 11
61.02132147865862
 21
-59.11856672245271
 31
0.0
  0
LINE
  5
D67
330
CE9
100
AcDbEntity
  8
1
 62
     1
100
AcDbLine
 10
61.02132147865862
 20
-59.11856672245271
 30
0.0
 11
60.72526234485392
 21
-59.03847289083556
 31
0.0
  0
LINE
  5
D68
330
CE9
100
AcDbEntity
  8
1
 62
     1
100
AcDbLine
 10
60.72526234485392
 20
-59.03847289083556
 30
0.0
 11
60.429220922544
 21
-58.97186735600104
 31
0.0
  0
LINE
  5
D69
330
CE9
100
AcDbEntity
  8
1
 62
     1
100
AcDbLine
 10
60.429220922544
 20
-58.97186735600104
 30
0.0
 11
60.13317912003909
 21
-58.91938381621596
 31
0.0
  0
LINE
  5
D6A
330
CE9
100
AcDbEntity
  8
1
 62
     1
100
AcDbLine
 10
60.13317912003909
 20
-58.91938381621596
 30
0.0
 11
59.83711965952229
 21
-58.88152851336577
 31
0.0
  0
LINE
  5
D6B
330
CE9
100
AcDbEntity
  8
1
 62
     1
100
AcDbLine
 10
59.83711965952229
 20
-58.88152851336577
 30
0.0
 11
59.54107111314325
 21
-58.85867213201396
 31
0.0
  0
LINE
  5
D6C
330
CE9
100
AcDbEntity
  8
1
 62
     1
100
AcDbLine
 10
59.54107111314325
 20
-58.85867213201396
 30
0.0
 11
59.24504903967086
 21
-58.85102737875507
 31
0.0
  0
LINE
  5
D6D
330
CE9
100
AcDbEntity
  8
1
 62
     1
100
AcDbLine
 10
63.98180074612032
 20
-60.43852737375506
 30
0.0
 11
62.42116657041428
 21
-59.96257511215976
 31
0.0
  0
LINE
  5
D6E
330
CE9
100
AcDbEntity
  8
1
 62
     1
100
AcDbLine
 10
62.42116657041428
 20
-59.96257511215976
 30
0.0
 11
61.64084948256128
 21
-59.7644876593153
 31
0.0
  0
LINE
  5
D6F
330
CE9
100
AcDbEntity
  8
1
 62
     1
100
AcDbLine
 10
61.64084948256128
 20
-59.7644876593153
 30
0.0
 11
60.86053239470825
 21
-59.61128344234524
 31
0.0
  0
LINE
  5
D70
330
CE9
100
AcDbEntity
  8
1
 62
     1
100
AcDbLine
 10
60.86053239470825
 20
-59.61128344234524
 30
0.0
 11
60.47037385078176
 21
-59.55483711160232
 31
0.0
  0
LINE
  5
D71
330
CE9
100
AcDbEntity
  8
1
 62
     1
100
AcDbLine
 10
60.47037385078176
 20
-59.55483711160232
 30
0.0
 11
60.08021530685525
 21
-59.51316326918469
 31
0.0
  0
LINE
  5
D72
330
CE9
100
AcDbEntity
  8
1
 62
     1
100
AcDbLine
 10
60.08021530685525
 20
-59.51316326918469
 30
0.0
 11
59.69005676292874
 21
-59.4869588664646
 31
0.0
  0
LINE
  5
D73
330
CE9
100
AcDbEntity
  8
1
 62
     1
100
AcDbLine
 10
59.69005676292874
 20
-59.4869588664646
 30
0.0
 11
59.29989821900223
 21
-59.4766618010701
 31
0.0
  0
LINE
  5
D74
330
CE9
100
AcDbEntity
  8
1
 62
     1
100
AcDbLine
 10
59.29989821900223
 20
-59.4766618010701
 30
0.0
 11
58.90973967507571
 21
-59.48244395199506
 31
0.0
  0
LINE
  5
D75
330
CE9
100
AcDbEntity
  8
1
 62
     1
100
AcDbLine
 10
58.90973967507571
 20
-59.48244395199506
 30
0.0
 11
58.51958113114921
 21
-59.50420863445518
 31
0.0
  0
LINE
  5
D76
330
CE9
100
AcDbEntity
  8
1
 62
     1
100
AcDbLine
 10
58.51958113114921
 20
-59.50420863445518
 30
0.0
 11
58.12942258722269
 21
-59.54159222156991
 31
0.0
  0
LINE
  5
D77
330
CE9
100
AcDbEntity
  8
1
 62
     1
100
AcDbLine
 10
58.12942258722269
 20
-59.54159222156991
 30
0.0
 11
57.73926404329618
 21
-59.5939700337737
 31
0.0
  0
ENDBLK
  5
D7B
330
CE9
100
AcDbEntity
  8
0
100
AcDbBlockEnd
  0
ENDSEC
  0
SECTION
  2
ENTITIES
  0
LINE
  5
3C2
330
18
100
AcDbEntity
  8
SK4
100
AcDbLine
 10
-56.67560440983185
 20
0.0000000000000009
 30
0.0
 11
0.0
 21
-0.0000000000000003
 31
0.0
  0
LINE
  5
3C3
330
18
100
AcDbEntity
  8
4
100
AcDbLine
 10
0.0
 20
0.000000000000003
 30
0.0
 11
65.06440567485402
 21
-0.000000000000002
 31
0.0
  0
LINE
  5
3C5
330
18
100
AcDbEntity
  8
1
100
AcDbLine
 10
14.83933845812678
 20
3.643944872222049
 30
0.0
 11
17.48517179062609
 21
1.796131481322964
 31
0.0
  0
LINE
  5
3C6
330
18
100
AcDbEntity
  8
1
100
AcDbLine
 10
17.48541666041037
 20
1.088455686521569
 30
0.0
 11
14.83958332791107
 21
2.208230592566558
 31
0.0
  0
LINE
  5
3C7
330
18
100
AcDbEntity
  8
1
100
AcDbLine
 10
14.83958332791107
 20
7.051636120680619
 30
0.0
 11
15.50104765987069
 21
7.26442621279312
 31
0.0
  0
LINE
  5
3C8
330
18
100
AcDbEntity
  8
1
100
AcDbLine
 10
15.50104765987069
 20
7.26442621279312
 30
0.0
 11
16.1624900105539
 21
7.449136968938628
 31
0.0
  0
LINE
  5
3C9
330
18
100
AcDbEntity
  8
1
100
AcDbLine
 10
16.1624900105539
 20
7.449136968938628
 30
0.0
 11
16.82394317841767
 21
7.605067735405664
 31
0.0
  0
LINE
  5
3CA
330
18
100
AcDbEntity
  8
1
100
AcDbLine
 10
16.82394317841767
 20
7.605067735405664
 30
0.0
 11
17.48541666041039
 21
7.731611598630746
 31
0.0
  0
LINE
  5
3CB
330
18
100
AcDbEntity
  8
1
100
AcDbLine
 10
14.83958332791107
 20
-7.051636120680615
 30
0.0
 11
15.5010476598707
 21
-7.264426212793117
 31
0.0
  0
LINE
  5
3CC
330
18
100
AcDbEntity
  8
1
100
AcDbLine
 10
15.5010476598707
 20
-7.264426212793117
 30
0.0
 11
16.16249001055392
 21
-7.449136968938628
 31
0.0
  0
LINE
  5
3CD
330
18
100
AcDbEntity
  8
1
100
AcDbLine
 10
16.16249001055392
 20
-7.449136968938628
 30
0.0
 11
16.82394317841767
 21
-7.60506773540567
 31
0.0
  0
LINE
  5
3CE
330
18
100
AcDbEntity
  8
1
100
AcDbLine
 10
16.82394317841767
 20
-7.60506773540567
 30
0.0
 11
17.48541666041039
 21
-7.731611598630746
 31
0.0
  0
LINE
  5
3CF
330
18
100
AcDbEntity
  8
1
100
AcDbLine
 10
14.83958332791108
 20
-7.051636120680615
 30
0.0
 11
14.83958332791108
 21
-7.937499997498009
 31
0.0
  0
LINE
  5
3D0
330
18
100
AcDbEntity
  8
1
100
AcDbLine
 10
19.86717179062608
 20
-6.104621259787109
 30
0.0
 11
19.86717179062608
 21
-7.937044071321651
 31
0.0
  0
LINE
  5
3D1
330
18
100
AcDbEntity
  8
1
100
AcDbLine
 10
14.83958332791107
 20
-4.66807469912887
 30
0.0
 11
16.16248776681827
 21
-5.428256748610506
 31
0.0
  0
LINE
  5
3D2
330
18
100
AcDbEntity
  8
1
100
AcDbLine
 10
16.16248776681827
 20
-5.428256748610506
 30
0.0
 11
17.48541666041039
 21
-6.104621259787109
 31
0.0
  0
LINE
  5
3D3
330
18
100
AcDbEntity
  8
1
100
AcDbLine
 10
14.83958332791108
 20
3.643944872222049
 30
0.0
 11
14.83958332791108
 21
-4.66807469912887
 31
0.0
  0
LINE
  5
3D4
330
18
100
AcDbEntity
  8
1
100
AcDbLine
 10
19.86717179062608
 20
5.073214512006781
 30
0.0
 11
19.86717179062608
 21
1.796131481322968
 31
0.0
  0
LINE
  5
3D5
330
18
100
AcDbEntity
  8
1
100
AcDbLine
 10
14.83958332791107
 20
6.419734014243414
 30
0.0
 11
16.16248776681825
 21
5.791191811009924
 31
0.0
  0
LINE
  5
3D6
330
18
100
AcDbEntity
  8
1
100
AcDbLine
 10
16.16248776681825
 20
5.791191811009924
 30
0.0
 11
17.48541666041039
 21
5.07321451200678
 31
0.0
  0
LINE
  5
3D7
330
18
100
AcDbEntity
  8
1
100
AcDbLine
 10
14.83958332791108
 20
7.937499997498012
 30
0.0
 11
14.83958332791108
 21
7.937168867824871
 31
0.0
  0
LINE
  5
3D8
330
18
100
AcDbEntity
  8
1
100
AcDbLine
 10
14.83958332791108
 20
7.937168867824871
 30
0.0
 11
14.83958332791108
 21
7.837332513727306
 31
0.0
  0
LINE
  5
3D9
330
18
100
AcDbEntity
  8
1
100
AcDbLine
 10
14.83958332791108
 20
7.837332513727306
 30
0.0
 11
14.83958332791108
 21
6.419734014243414
 31
0.0
  0
LINE
  5
3DA
330
18
100
AcDbEntity
  8
1
100
AcDbLine
 10
0.0024910520223571
 20
7.938352529069135
 30
0.0
 11
14.83958332791108
 21
7.937499997498012
 31
0.0
  0
LINE
  5
3DB
330
18
100
AcDbEntity
  8
1
100
AcDbLine
 10
19.86717179062608
 20
5.073214512006794
 30
0.0
 11
19.86717179062608
 21
7.937044073823336
 31
0.0
  0
LINE
  5
3DC
330
18
100
AcDbEntity
  8
1
100
AcDbLine
 10
19.86717179062608
 20
1.088455686521577
 30
0.0
 11
19.86717179062608
 21
1.79613148132297
 31
0.0
  0
LINE
  5
3DD
330
18
100
AcDbEntity
  8
1
100
AcDbLine
 10
19.86717179062608
 20
-6.104621259787109
 30
0.0
 11
19.86717179062608
 21
1.088455686521577
 31
0.0
  0
LINE
  5
3DE
330
18
100
AcDbEntity
  8
1
100
AcDbLine
 10
0.0
 20
-7.938352529069043
 30
0.0
 11
14.83958332791108
 21
-7.937499997498012
 31
0.0
  0
LINE
  5
3DF
330
18
100
AcDbEntity
  8
1
 62
     1
100
AcDbLine
 10
21.55338540912115
 20
7.843427234474387
 30
0.0
 11
22.51249999215914
 21
6.957364212567028
 31
0.0
  0
LINE
  5
3E0
330
18
100
AcDbEntity
  8
1
 62
     1
100
AcDbLine
 10
22.51249999215914
 20
6.957364212567021
 30
0.0
 11
22.51249999215914
 21
7.170208331073202
 31
0.0
  0
LINE
  5
3E1
330
18
100
AcDbEntity
  8
1
 62
     1
100
AcDbLine
 10
37.85833332065533
 20
7.122091973084
 30
0.0
 11
37.85833332065533
 21
7.170208331073202
 31
0.0
  0
ARC
  5
3E2
330
18
100
AcDbEntity
  8
1
 62
     1
100
AcDbCircle
 10
57.52199733118875
 20
-30.57812617064918
 30
0.0
 40
38.87180803538126
100
AcDbArc
 50
97.75295339218821
 51
100.6669566152292
  0
ARC
  5
3E3
330
18
100
AcDbEntity
  8
1
 62
     1
100
AcDbCircle
 10
44.61494876771089
 20
-2.769579564161058
 30
0.0
 40
10.5746401477127
100
AcDbArc
 50
63.29225839958936
 51
68.97650992256621
  0
ARC
  5
3E4
330
18
100
AcDbEntity
  8
1
 62
     1
100
AcDbCircle
 10
45.17748190984685
 20
-27.33297624428198
 30
0.0
 40
25.62423740106326
100
AcDbArc
 50
125.8084057708136
 51
128.4991465079526
  0
ARC
  5
3EA
330
18
100
AcDbEntity
  8
1
 62
     1
100
AcDbCircle
 10
2.534349517536751
 20
19.02036673851544
 30
0.0
 40
32.68124406143769
100
AcDbArc
 50
305.5882141192589
 51
307.683800846447
  0
LINE
  5
3EB
330
18
100
AcDbEntity
  8
1
 62
     1
100
AcDbLine
 10
25.38984374124523
 20
-7.927738864320447
 30
0.0
 11
26.34895832428318
 21
-7.158336413606302
 31
0.0
  0
LINE
  5
3EC
330
18
100
AcDbEntity
  8
1
100
AcDbLine
 10
17.48541666041039
 20
1.796131481322968
 30
0.0
 11
17.71692707700407
 21
1.627471437404791
 31
0.0
  0
LINE
  5
3ED
330
18
100
AcDbEntity
  8
1
100
AcDbLine
 10
17.71692707700407
 20
1.627471434673708
 30
0.0
 11
17.71692707700407
 21
4.939180383745289
 31
0.0
  0
LINE
  5
3EE
330
18
100
AcDbEntity
  8
1
100
AcDbLine
 10
17.48541666041039
 20
5.073214512006794
 30
0.0
 11
17.71692707700407
 21
4.939180383745283
 31
0.0
  0
LINE
  5
3EF
330
18
100
AcDbEntity
  8
1
100
AcDbLine
 10
19.6351562430661
 20
3.744828618979037
 30
0.0
 11
19.86717179062608
 21
3.585682746930246
 31
0.0
  0
LINE
  5
3F1
330
18
100
AcDbEntity
  8
1
100
AcDbLine
 10
19.63515624306612
 20
0.2078942532640186
 30
0.0
 11
19.8671717906261
 21
0.0348087869625521
 31
0.0
  0
LINE
  5
3F2
330
18
100
AcDbEntity
  8
1
 62
     1
100
AcDbLine
 10
23.47161457519014
 20
1.034538167829677
 30
0.0
 11
25.38984374125213
 21
-0.3935259959812233
 31
0.0
  0
LINE
  5
3F3
330
18
100
AcDbEntity
  8
1
 62
     1
100
AcDbLine
 10
23.47161457519014
 20
-2.605236783786283
 30
0.0
 11
23.47161457519014
 21
1.034538167829677
 31
0.0
  0
LINE
  5
3F4
330
18
100
AcDbEntity
  8
1
 62
     1
100
AcDbLine
 10
23.47161457519014
 20
-2.605236783786283
 30
0.0
 11
25.38984374125217
 21
-3.907582546366045
 31
0.0
  0
ARC
  5
3F5
330
18
100
AcDbEntity
  8
1
 62
     1
100
AcDbCircle
 10
57.36059841806976
 20
29.56267296836223
 30
0.0
 40
37.84387100995036
100
AcDbArc
 50
259.2886120501098
 51
262.2817737120839
  0
LINE
  5
3F6
330
18
100
AcDbEntity
  8
1
 62
     1
100
AcDbLine
 10
44.57213540187233
 20
-2.207761092288861
 30
0.0
 11
42.65390623581036
 21
-0.8047054469109996
 31
0.0
  0
LINE
  5
3F7
330
18
100
AcDbEntity
  8
1
 62
     1
100
AcDbLine
 10
42.65390623581033
 20
-4.261115216738473
 30
0.0
 11
42.65390623581036
 21
-0.8047054469109996
 31
0.0
  0
LINE
  5
3F8
330
18
100
AcDbEntity
  8
1
 62
     1
100
AcDbLine
 10
44.57213540187233
 20
-5.392973585266915
 30
0.0
 11
42.65390623581033
 21
-4.261115216738473
 31
0.0
  0
LINE
  5
3F9
330
18
100
AcDbEntity
  8
1
 62
     1
100
AcDbLine
 10
40.73567706974837
 20
0.6244428357352329
 30
0.0
 11
38.81744790368632
 21
2.033343707933303
 31
0.0
  0
LINE
  5
3FA
330
18
100
AcDbEntity
  8
1
 62
     1
100
AcDbLine
 10
38.81744790368632
 20
-1.624110458201245
 30
0.0
 11
38.81744790368632
 21
2.033343707933303
 31
0.0
  0
LINE
  5
3FB
330
18
100
AcDbEntity
  8
1
 62
     1
100
AcDbLine
 10
40.73567706974837
 20
-2.99110199933135
 30
0.0
 11
38.81744790368632
 21
-1.624110458201245
 31
0.0
  0
LINE
  5
3FC
330
18
100
AcDbEntity
  8
1
 62
     1
100
AcDbLine
 10
36.89921873762428
 20
3.376317954182948
 30
0.0
 11
34.98098957156227
 21
4.609826638120643
 31
0.0
  0
LINE
  5
3FD
330
18
100
AcDbEntity
  8
1
 62
     1
100
AcDbLine
 10
34.98098957156227
 20
1.2218158005906
 30
0.0
 11
34.98098957156227
 21
4.609826638120652
 31
0.0
  0
LINE
  5
3FE
330
18
100
AcDbEntity
  8
1
 62
     1
100
AcDbLine
 10
36.89921873762428
 20
-0.2044618700839091
 30
0.0
 11
36.62514516270704
 21
-0.0000000000014599
 31
0.0
  0
LINE
  5
3FF
330
18
100
AcDbEntity
  8
1
 62
     1
100
AcDbLine
 10
33.06276040550025
 20
5.693874180089832
 30
0.0
 11
32.10364562456292
 21
6.168644198218382
 31
0.0
  0
LINE
  5
400
330
18
100
AcDbEntity
  8
1
 62
     1
100
AcDbLine
 10
32.10364562456292
 20
6.168644198218382
 30
0.0
 11
31.14453123943823
 21
6.593312184494496
 31
0.0
  0
LINE
  5
401
330
18
100
AcDbEntity
  8
1
 62
     1
100
AcDbLine
 10
31.14453123943823
 20
3.910570821618238
 30
0.0
 11
31.14453123943823
 21
6.593312184761155
 31
0.0
  0
LINE
  5
402
330
18
100
AcDbEntity
  8
1
 62
     1
100
AcDbLine
 10
33.06276040550023
 20
2.608479725576645
 30
0.0
 11
31.14453123943823
 21
3.910570821618238
 31
0.0
  0
LINE
  5
403
330
18
100
AcDbEntity
  8
1
 62
     1
100
AcDbLine
 10
29.2263020733762
 20
7.278981651910343
 30
0.0
 11
28.2671876911139
 21
7.534413497503313
 31
0.0
  0
LINE
  5
404
330
18
100
AcDbEntity
  8
1
 62
     1
100
AcDbLine
 10
28.2671876911139
 20
7.534413497503313
 30
0.0
 11
27.30807290731421
 21
7.728650564085175
 31
0.0
  0
LINE
  5
405
330
18
100
AcDbEntity
  8
1
 62
     1
100
AcDbLine
 10
27.30807290731418
 20
6.096279012987847
 30
0.0
 11
27.30807290731418
 21
7.728650564085175
 31
0.0
  0
LINE
  5
406
330
18
100
AcDbEntity
  8
1
 62
     1
100
AcDbLine
 10
29.22630207337623
 20
5.085872453218454
 30
0.0
 11
28.26718737766097
 21
5.613872992866967
 31
0.0
  0
LINE
  5
407
330
18
100
AcDbEntity
  8
1
 62
     1
100
AcDbLine
 10
28.26718737766097
 20
5.613872992866967
 30
0.0
 11
27.30807290731418
 21
6.096279012987847
 31
0.0
  0
LINE
  5
408
330
18
100
AcDbEntity
  8
1
 62
     1
100
AcDbLine
 10
23.47161457519014
 20
7.497776171018177
 30
0.0
 11
23.47161457519014
 21
7.937499997498012
 31
0.0
  0
LINE
  5
409
330
18
100
AcDbEntity
  8
1
 62
     1
100
AcDbLine
 10
21.55338540912813
 20
7.843427234468066
 30
0.0
 11
21.55338540912813
 21
7.937499997498012
 31
0.0
  0
LINE
  5
40A
330
18
100
AcDbEntity
  8
1
 62
     1
100
AcDbLine
 10
52.27812498277669
 20
-6.705603147273911
 30
0.0
 11
52.27811283926404
 21
-7.938352529069043
 31
0.0
  0
ARC
  5
40B
330
18
100
AcDbEntity
  8
1
 62
     1
100
AcDbCircle
 10
62.72399295022687
 20
-21.83888152362471
 30
0.0
 40
17.38795898376492
100
AcDbArc
 50
123.1954066773261
 51
126.9238941174108
  0
LINE
  5
40C
330
18
100
AcDbEntity
  8
1
 62
     1
100
AcDbLine
 10
53.20416664915146
 20
-6.231214790901312
 30
0.0
 11
53.20416664915146
 21
-7.288515089592769
 31
0.0
  0
LINE
  5
40D
330
18
100
AcDbEntity
  8
1
 62
     1
100
AcDbLine
 10
40.73567706971489
 20
-7.912899427870647
 30
0.0
 11
41.69479165277937
 21
-7.152246874501887
 31
0.0
  0
ARC
  5
40E
330
18
100
AcDbEntity
  8
1
 62
     1
100
AcDbCircle
 10
47.69318032650989
 20
-0.4584921630042662
 30
0.0
 40
8.988156022909057
100
AcDbArc
 50
228.1359358651093
 51
231.3031960991123
  0
LINE
  5
40F
330
18
100
AcDbEntity
  8
1
 62
     1
100
AcDbLine
 10
44.57213540183565
 20
-7.624283387316486
 30
0.0
 11
45.53124998490338
 21
-6.87118700212757
 31
0.0
  0
LINE
  5
410
330
18
100
AcDbEntity
  8
1
 62
     1
100
AcDbLine
 10
34.02187498853125
 20
-6.956613512235857
 30
0.0
 11
34.98098957158988
 21
-7.84289948680336
 31
0.0
  0
LINE
  5
411
330
18
100
AcDbEntity
  8
1
 62
     1
100
AcDbLine
 10
34.98098957156227
 20
-7.842899486778347
 30
0.0
 11
34.98098957156227
 21
-6.461687440348303
 31
0.0
  0
ARC
  5
412
330
18
100
AcDbEntity
  8
1
 62
     1
100
AcDbCircle
 10
24.78097368302774
 20
11.17570975169981
 30
0.0
 40
21.99811117305242
100
AcDbArc
 50
303.4271763184117
 51
306.4753181320646
  0
ARC
  5
413
330
18
100
AcDbEntity
  8
1
 62
     1
100
AcDbCircle
 10
46.98447362255119
 20
-2.992813471163356
 30
0.0
 40
4.141666783087341
100
AcDbArc
 50
249.4590637251952
 51
263.1479598310381
  0
ARC
  5
414
330
18
100
AcDbEntity
  8
1
 62
     1
100
AcDbCircle
 10
53.86560588208773
 20
5.748804682174713
 30
0.0
 40
20.16406776252438
100
AcDbArc
 50
217.4532263535238
 51
221.7297571575524
  0
LINE
  5
415
330
18
100
AcDbEntity
  8
1
 62
     1
100
AcDbLine
 10
30.18541665640722
 20
-2.911709241727048
 30
0.0
 11
31.14453123946586
 21
-4.419518146239693
 31
0.0
  0
LINE
  5
416
330
18
100
AcDbEntity
  8
1
 62
     1
100
AcDbLine
 10
30.18541665640722
 20
-5.896252597631902
 30
0.0
 11
30.18541665640722
 21
-2.911709241727096
 31
0.0
  0
LINE
  5
417
330
18
100
AcDbEntity
  8
1
 62
     1
100
AcDbLine
 10
30.18541665640722
 20
-5.896252597631902
 30
0.0
 11
31.14453123946586
 21
-6.907339723786216
 31
0.0
  0
LINE
  5
418
330
18
100
AcDbEntity
  8
1
 62
     1
100
AcDbLine
 10
31.14453123943823
 20
-6.907339723756821
 30
0.0
 11
31.14453123943823
 21
-4.419518146196696
 31
0.0
  0
ARC
  5
419
330
18
100
AcDbEntity
  8
1
 62
     1
100
AcDbCircle
 10
28.88959531085652
 20
3.75223599337628
 30
0.0
 40
10.17742954761552
100
AcDbArc
 50
294.2074402255332
 51
300.2834937404821
  0
LINE
  5
41A
330
18
100
AcDbEntity
  8
1
 62
     1
100
AcDbLine
 10
33.06276040550025
 20
-7.496648566628732
 30
0.0
 11
33.06276040550025
 21
-5.530253432853596
 31
0.0
  0
LINE
  5
41B
330
18
100
AcDbEntity
  8
1
 62
     1
100
AcDbLine
 10
34.02187498853125
 20
-6.956613512235856
 30
0.0
 11
34.02187498853125
 21
-5.036419453300683
 31
0.0
  0
LINE
  5
41C
330
18
100
AcDbEntity
  8
1
 62
     1
100
AcDbLine
 10
26.34895832428318
 20
-4.077411487031157
 30
0.0
 11
27.30807290733901
 21
-5.083236017180261
 31
0.0
  0
LINE
  5
41D
330
18
100
AcDbEntity
  8
1
 62
     1
100
AcDbLine
 10
27.30807290731421
 20
-5.083236017153332
 30
0.0
 11
27.30807290731418
 21
-1.808830193397614
 31
0.0
  0
LINE
  5
41E
330
18
100
AcDbEntity
  8
1
 62
     1
100
AcDbLine
 10
29.22630207337623
 20
-6.094079717223491
 30
0.0
 11
29.22630207337623
 21
-3.165490850000081
 31
0.0
  0
ARC
  5
41F
330
18
100
AcDbEntity
  8
1
 62
     1
100
AcDbCircle
 10
25.97254933308362
 20
4.759963225009431
 30
0.0
 40
5.186288971097464
100
AcDbArc
 50
263.548958681252
 51
274.1622225090633
  0
LINE
  5
420
330
18
100
AcDbEntity
  8
1
 62
     1
100
AcDbLine
 10
25.38984374125217
 20
-3.907582546366045
 30
0.0
 11
25.38984374125213
 21
-0.3935259959812233
 31
0.0
  0
ARC
  5
421
330
18
100
AcDbEntity
  8
1
 62
     1
100
AcDbCircle
 10
26.99252954647176
 20
2.348318152385794
 30
0.0
 40
6.457923585607137
100
AcDbArc
 50
255.6305624045615
 51
264.2805940397968
  0
LINE
  5
422
330
18
100
AcDbEntity
  8
1
 62
     1
100
AcDbLine
 10
26.34895832428318
 20
-4.077411487031157
 30
0.0
 11
26.34895832428318
 21
-0.412440663163433
 31
0.0
  0
LINE
  5
423
330
18
100
AcDbEntity
  8
1
 62
     1
100
AcDbLine
 10
22.51249999215914
 20
-1.734061914893245
 30
0.0
 11
22.51249999215914
 21
2.13988142867482
 31
0.0
  0
ARC
  5
424
330
18
100
AcDbEntity
  8
1
 62
     1
100
AcDbCircle
 10
9.913316424192981
 20
-16.56388104704246
 30
0.0
 40
19.45929793331927
100
AcDbArc
 50
45.83354189409407
 51
49.64928913033471
  0
LINE
  5
425
330
18
100
AcDbEntity
  8
1
 62
     1
100
AcDbLine
 10
21.55338540912813
 20
-1.218423336893031
 30
0.0
 11
21.55338540912813
 21
2.429062254901951
 31
0.0
  0
ARC
  5
426
330
18
100
AcDbEntity
  8
1
100
AcDbCircle
 10
28.49067834943033
 20
13.64261035558468
 30
0.0
 40
16.13803227807703
100
AcDbArc
 50
228.118012553562
 51
231.6841979063148
  0
LINE
  5
428
330
18
100
AcDbEntity
  8
1
100
AcDbLine
 10
19.63515624306612
 20
7.934777009420487
 30
0.0
 11
19.86717179062608
 21
7.937044073823335
 31
0.0
  0
LINE
  5
429
330
18
100
AcDbEntity
  8
1
 62
     1
100
AcDbLine
 10
19.91383185943271
 20
7.937499997498012
 30
0.0
 11
21.55338540912813
 21
7.937499997498012
 31
0.0
  0
LINE
  5
42A
330
18
100
AcDbEntity
  8
1
 62
     1
100
AcDbLine
 10
23.47161457519014
 20
7.937499997498012
 30
0.0
 11
24.86217963865166
 21
7.937499997498012
 31
0.0
  0
LINE
  5
42B
330
18
100
AcDbEntity
  8
1
 62
     1
100
AcDbLine
 10
52.27812498277669
 20
4.247209983218072
 30
0.0
 11
51.48114034974575
 21
4.73716059625802
 31
0.0
  0
LINE
  5
42C
330
18
100
AcDbEntity
  8
1
 62
     1
100
AcDbLine
 10
50.3268229000584
 20
2.215637341750674
 30
0.0
 11
50.32682290005843
 21
5.398988649620082
 31
0.0
  0
LINE
  5
42D
330
18
100
AcDbEntity
  8
1
 62
     1
100
AcDbLine
 10
52.27812498277669
 20
4.24720998321854
 30
0.0
 11
52.27812498277669
 21
0.7883135732905248
 31
0.0
  0
LINE
  5
42E
330
18
100
AcDbEntity
  8
1
 62
     1
100
AcDbLine
 10
48.40859373399641
 20
6.354897000469588
 30
0.0
 11
47.44947929603822
 21
6.75727310498033
 31
0.0
  0
LINE
  5
42F
330
18
100
AcDbEntity
  8
1
 62
     1
100
AcDbLine
 10
47.44947929603822
 20
6.75727310498033
 30
0.0
 11
46.49036456793441
 21
7.104766940381096
 31
0.0
  0
LINE
  5
430
330
18
100
AcDbEntity
  8
1
 62
     1
100
AcDbLine
 10
46.49036456793439
 20
4.762526685157131
 30
0.0
 11
46.49036456793441
 21
7.104766940381096
 31
0.0
  0
LINE
  5
431
330
18
100
AcDbEntity
  8
1
 62
     1
100
AcDbLine
 10
48.40859373399641
 20
3.546575932499928
 30
0.0
 11
46.49036456793439
 21
4.762526685157131
 31
0.0
  0
ARC
  5
432
330
18
100
AcDbEntity
  8
1
 62
     1
100
AcDbCircle
 10
41.49961974913405
 20
-7.115855194112667
 30
0.0
 40
15.05692727399187
100
AcDbArc
 50
78.22555150410306
 51
85.60326025770162
  0
LINE
  5
433
330
18
100
AcDbEntity
  8
1
 62
     1
100
AcDbLine
 10
42.65390623581033
 20
6.696775591279792
 30
0.0
 11
42.65390623581036
 21
7.896604039331895
 31
0.0
  0
LINE
  5
434
330
18
100
AcDbEntity
  8
1
 62
     1
100
AcDbLine
 10
44.57213540187233
 20
5.824065772198514
 30
0.0
 11
43.61302084067125
 21
6.285947294280202
 31
0.0
  0
LINE
  5
435
330
18
100
AcDbEntity
  8
1
 62
     1
100
AcDbLine
 10
43.61302084067125
 20
6.285947294280202
 30
0.0
 11
42.65390623581033
 21
6.696775591279792
 31
0.0
  0
LINE
  5
436
330
18
100
AcDbEntity
  8
1
 62
     1
100
AcDbLine
 10
40.73567706974833
 20
7.352361188072658
 30
0.0
 11
40.73567706974833
 21
7.937499997498012
 31
0.0
  0
LINE
  5
437
330
18
100
AcDbEntity
  8
1
 62
     1
100
AcDbLine
 10
38.81744790368632
 20
7.769567004012666
 30
0.0
 11
38.81744790368632
 21
7.937499997498012
 31
0.0
  0
LINE
  5
438
330
18
100
AcDbEntity
  8
1
 62
     1
100
AcDbLine
 10
36.89921873762428
 20
7.934866196349047
 30
0.0
 11
36.89921873762428
 21
7.937499997498012
 31
0.0
  0
LINE
  5
439
330
18
100
AcDbEntity
  8
1
 62
     1
100
AcDbLine
 10
36.62514516270788
 20
7.937499997498012
 30
0.0
 11
36.89921873762428
 21
7.937499997498012
 31
0.0
  0
LINE
  5
43A
330
18
100
AcDbEntity
  8
1
 62
     1
100
AcDbLine
 10
49.36770831702743
 20
-4.341750565480436
 30
0.0
 11
50.32682290009513
 21
-5.818490162593282
 31
0.0
  0
LINE
  5
43B
330
18
100
AcDbEntity
  8
1
 62
     1
100
AcDbLine
 10
49.36770831702743
 20
-6.677050944613782
 30
0.0
 11
49.36770831702743
 21
-4.341750565480436
 31
0.0
  0
LINE
  5
43C
330
18
100
AcDbEntity
  8
1
 62
     1
100
AcDbLine
 10
49.36770831702743
 20
-6.677050944613807
 30
0.0
 11
50.32682290009513
 21
-7.621998253782757
 31
0.0
  0
LINE
  5
43D
330
18
100
AcDbEntity
  8
1
 62
     1
100
AcDbLine
 10
50.32682290005843
 20
-7.621998253746912
 30
0.0
 11
50.32682290005843
 21
-5.818490162538255
 31
0.0
  0
LINE
  5
43E
330
18
100
AcDbEntity
  8
1
 62
     1
100
AcDbLine
 10
53.20416664915146
 20
3.781881764281103
 30
0.0
 11
52.73947686618321
 21
4.000613116141034
 31
0.0
  0
LINE
  5
43F
330
18
100
AcDbEntity
  8
1
 62
     1
100
AcDbLine
 10
52.73947686618321
 20
4.000613116141034
 30
0.0
 11
52.27812498277669
 21
4.247209983218072
 31
0.0
  0
LINE
  5
440
330
18
100
AcDbEntity
  8
1
 62
     1
100
AcDbLine
 10
48.40859373399641
 20
-7.101105925508598
 30
0.0
 11
48.40859373399641
 21
-4.755963658787123
 31
0.0
  0
LINE
  5
441
330
18
100
AcDbEntity
  8
1
 62
     1
100
AcDbLine
 10
40.73567706971489
 20
0.6244428357424266
 30
0.0
 11
40.9747103898304
 21
0.5786717035642615
 31
0.0
  0
LINE
  5
442
330
18
100
AcDbEntity
  8
1
 62
     1
100
AcDbLine
 10
40.9747103898304
 20
0.5786717035642615
 30
0.0
 11
41.21440351971164
 21
0.5435583923253354
 31
0.0
  0
LINE
  5
443
330
18
100
AcDbEntity
  8
1
 62
     1
100
AcDbLine
 10
41.21440351971164
 20
0.5435583923253354
 30
0.0
 11
41.45455187464946
 21
0.5195651941946327
 31
0.0
  0
LINE
  5
444
330
18
100
AcDbEntity
  8
1
 62
     1
100
AcDbLine
 10
41.45455187464946
 20
0.5195651941946327
 30
0.0
 11
41.69479165277937
 21
0.5072003126670328
 31
0.0
  0
LINE
  5
445
330
18
100
AcDbEntity
  8
1
 62
     1
100
AcDbLine
 10
40.73567706974837
 20
-2.99110199933135
 30
0.0
 11
40.73567706974837
 21
0.6244428357352329
 31
0.0
  0
ARC
  5
446
330
18
100
AcDbEntity
  8
1
 62
     1
100
AcDbCircle
 10
43.29627970168208
 20
3.557966322151001
 30
0.0
 40
7.031831058768616
100
AcDbArc
 50
248.6451320932791
 51
256.8352192116273
  0
LINE
  5
447
330
18
100
AcDbEntity
  8
1
 62
     1
100
AcDbLine
 10
41.69479165277933
 20
-3.288941268797421
 30
0.0
 11
41.69479165277933
 21
0.5072003126670328
 31
0.0
  0
ARC
  5
448
330
18
100
AcDbEntity
  8
1
 62
     1
100
AcDbCircle
 10
21.31526270593202
 20
-24.34879704144947
 30
0.0
 40
29.30604577488202
100
AcDbArc
 50
43.27034980327929
 51
45.94056305483477
  0
ARC
  5
449
330
18
100
AcDbEntity
  8
1
 62
     1
100
AcDbCircle
 10
44.14391254083079
 20
3.360599628902023
 30
0.0
 40
5.584790903532685
100
AcDbArc
 50
274.3975537820641
 51
284.383813136801
  0
LINE
  5
44A
330
18
100
AcDbEntity
  8
1
 62
     1
100
AcDbLine
 10
44.57213540187233
 20
-5.392973585266915
 30
0.0
 11
44.57213540187233
 21
-2.207761092288861
 31
0.0
  0
ARC
  5
44B
330
18
100
AcDbEntity
  8
1
 62
     1
100
AcDbCircle
 10
44.59196989371003
 20
1.165338155047149
 30
0.0
 40
6.558362415961608
100
AcDbArc
 50
269.8267192452284
 51
278.2339995246569
  0
LINE
  5
44C
330
18
100
AcDbEntity
  8
1
 62
     1
100
AcDbLine
 10
45.53124998490338
 20
-5.325527771737792
 30
0.0
 11
45.53124998490338
 21
-2.049067273855277
 31
0.0
  0
LINE
  5
44D
330
18
100
AcDbEntity
  8
1
 62
     1
100
AcDbLine
 10
46.49036456793439
 20
-6.34997998291705
 30
0.0
 11
46.49036456793441
 21
-3.539236207594646
 31
0.0
  0
LINE
  5
44E
330
18
100
AcDbEntity
  8
1
 62
     1
100
AcDbLine
 10
36.89921873762428
 20
-0.2044618700643447
 30
0.0
 11
36.89921873762428
 21
3.376317954182948
 31
0.0
  0
ARC
  5
44F
330
18
100
AcDbEntity
  8
1
 62
     1
100
AcDbCircle
 10
43.44774169283611
 20
8.79477863620999
 30
0.0
 40
11.1296267737889
100
AcDbArc
 50
233.9575519350316
 51
239.8530518180089
  0
LINE
  5
450
330
18
100
AcDbEntity
  8
1
 62
     1
100
AcDbLine
 10
37.85833332065533
 20
-0.8292728368420764
 30
0.0
 11
37.85833332065533
 21
2.998223887114528
 31
0.0
  0
ARC
  5
451
330
18
100
AcDbEntity
  8
1
 62
     1
100
AcDbCircle
 10
28.31494078455185
 20
-13.31658575907806
 30
0.0
 40
15.71656768408053
100
AcDbArc
 50
48.06893413784601
 51
52.61123424510437
  0
LINE
  5
452
330
18
100
AcDbEntity
  8
1
 62
     1
100
AcDbLine
 10
30.18541665640722
 20
4.079962354717324
 30
0.0
 11
30.18541665640722
 21
6.552391685684898
 31
0.0
  0
LINE
  5
453
330
18
100
AcDbEntity
  8
1
 62
     1
100
AcDbLine
 10
33.06276040550023
 20
2.608479725576645
 30
0.0
 11
33.06276040550023
 21
5.693874180089843
 31
0.0
  0
ARC
  5
454
330
18
100
AcDbEntity
  8
1
 62
     1
100
AcDbCircle
 10
46.9967660063873
 20
16.9764972057947
 30
0.0
 40
20.01487189452754
100
AcDbArc
 50
225.878562634131
 51
229.5888321002079
  0
LINE
  5
455
330
18
100
AcDbEntity
  8
1
 62
     1
100
AcDbLine
 10
34.02187498853125
 20
1.737071084431794
 30
0.0
 11
34.02187498853125
 21
5.103564107700226
 31
0.0
  0
LINE
  5
456
330
18
100
AcDbEntity
  8
1
 62
     1
100
AcDbLine
 10
29.22630207337623
 20
5.085872453218454
 30
0.0
 11
29.2263020733762
 21
7.278981651910343
 31
0.0
  0
ARC
  5
457
330
18
100
AcDbEntity
  8
1
 62
     1
100
AcDbCircle
 10
57.97555234734662
 20
31.53152200631369
 30
0.0
 40
39.06264045808568
100
AcDbArc
 50
222.6101044704604
 51
224.6488388873833
  0
LINE
  5
458
330
18
100
AcDbEntity
  8
1
 62
     1
100
AcDbLine
 10
25.38984374124523
 20
7.927738864320451
 30
0.0
 11
26.34895832428318
 21
7.158336413606305
 31
0.0
  0
LINE
  5
459
330
18
100
AcDbEntity
  8
1
 62
     1
100
AcDbLine
 10
25.38984374125217
 20
6.909030673952503
 30
0.0
 11
25.38984374125217
 21
7.927738864314846
 31
0.0
  0
LINE
  5
45A
330
18
100
AcDbEntity
  8
1
 62
     1
100
AcDbLine
 10
25.38984374124523
 20
6.909030673959878
 30
0.0
 11
26.34895832428318
 21
5.898016876579619
 31
0.0
  0
LINE
  5
45B
330
18
100
AcDbEntity
  8
1
 62
     1
100
AcDbLine
 10
26.34895832428318
 20
5.898016876579617
 30
0.0
 11
26.34895832428318
 21
7.158336413606232
 31
0.0
  0
LINE
  5
45C
330
18
100
AcDbEntity
  8
1
 62
     1
100
AcDbLine
 10
23.47161457519014
 20
7.937499997498012
 30
0.0
 11
22.51249999215914
 21
7.170208331073202
 31
0.0
  0
LINE
  5
45D
330
18
100
AcDbEntity
  8
1
 62
     1
100
AcDbLine
 10
22.51249999215914
 20
7.170208331073202
 30
0.0
 11
21.55338540912813
 21
7.937499997498012
 31
0.0
  0
ARC
  5
45E
330
18
100
AcDbEntity
  8
1
 62
     1
100
AcDbCircle
 10
36.63003709548814
 20
-6.475599901072686
 30
0.0
 40
14.4131378456029
100
AcDbArc
 50
90.01944669038449
 51
96.56975387595052
  0
LINE
  5
45F
330
18
100
AcDbEntity
  8
1
 62
     1
100
AcDbLine
 10
38.81744790368632
 20
7.937499997498012
 30
0.0
 11
40.73567706974833
 21
7.937499997498012
 31
0.0
  0
LINE
  5
460
330
18
100
AcDbEntity
  8
1
 62
     1
100
AcDbLine
 10
53.20416664915146
 20
4.809763240447191
 30
0.0
 11
53.20416664915146
 21
3.781881764281123
 31
0.0
  0
LINE
  5
461
330
18
100
AcDbEntity
  8
1
 62
     1
100
AcDbLine
 10
53.20416664915146
 20
3.781881764281123
 30
0.0
 11
53.20416664915146
 21
0.0906379508167288
 31
0.0
  0
LINE
  5
462
330
18
100
AcDbEntity
  8
1
 62
     1
100
AcDbLine
 10
49.36770831702743
 20
2.613212236697163
 30
0.0
 11
49.36770831702743
 21
5.70623251700646
 31
0.0
  0
ARC
  5
463
330
18
100
AcDbEntity
  8
1
 62
     1
100
AcDbCircle
 10
46.90824705490551
 20
-4.671577669389585
 30
0.0
 40
7.688798472692768
100
AcDbArc
 50
63.60178462244413
 51
71.34449737601129
  0
LINE
  5
464
330
18
100
AcDbEntity
  8
1
 62
     1
100
AcDbLine
 10
48.40859373399641
 20
3.546575932499928
 30
0.0
 11
48.40859373399641
 21
6.354897000469588
 31
0.0
  0
LINE
  5
465
330
18
100
AcDbEntity
  8
1
 62
     1
100
AcDbLine
 10
41.69479165277933
 20
7.170208331073202
 30
0.0
 11
40.73567706974833
 21
7.93749999749802
 31
0.0
  0
LINE
  5
466
330
18
100
AcDbEntity
  8
1
 62
     1
100
AcDbLine
 10
42.0738059841292
 20
7.473419796153085
 30
0.0
 11
41.69479165277933
 21
7.170208331073202
 31
0.0
  0
LINE
  5
467
330
18
100
AcDbEntity
  8
1
 62
     1
100
AcDbLine
 10
41.69479165277933
 20
6.371401167827428
 30
0.0
 11
41.69479165277933
 21
7.170208331073202
 31
0.0
  0
ARC
  5
468
330
18
100
AcDbEntity
  8
1
 62
     1
100
AcDbCircle
 10
45.05453538267995
 20
-1.949541543888208
 30
0.0
 40
8.973588488389305
100
AcDbArc
 50
105.5171860775881
 51
111.9873587664871
  0
LINE
  5
469
330
18
100
AcDbEntity
  8
1
 62
     1
100
AcDbLine
 10
44.57213540183565
 20
7.624283387316486
 30
0.0
 11
45.53124998490338
 21
6.871187002127572
 31
0.0
  0
LINE
  5
46A
330
18
100
AcDbEntity
  8
1
 62
     1
100
AcDbLine
 10
44.57213540187233
 20
5.824065772198514
 30
0.0
 11
44.57213540187233
 21
7.624283387286732
 31
0.0
  0
LINE
  5
46B
330
18
100
AcDbEntity
  8
1
 62
     1
100
AcDbLine
 10
44.57213540183565
 20
5.824065772238658
 30
0.0
 11
45.53124998490335
 21
4.801108357810837
 31
0.0
  0
LINE
  5
46C
330
18
100
AcDbEntity
  8
1
 62
     1
100
AcDbLine
 10
45.53124998490338
 20
4.801108357810837
 30
0.0
 11
45.53124998490338
 21
6.871187002127576
 31
0.0
  0
LINE
  5
46D
330
18
100
AcDbEntity
  8
1
 62
     1
100
AcDbLine
 10
37.85833332065533
 20
7.170208331073202
 30
0.0
 11
36.89921873762428
 21
7.937499997498012
 31
0.0
  0
LINE
  5
46E
330
18
100
AcDbEntity
  8
1
 62
     1
100
AcDbLine
 10
38.81744790368632
 20
7.937499997498012
 30
0.0
 11
37.85833332065533
 21
7.170208331073202
 31
0.0
  0
LINE
  5
46F
330
18
100
AcDbEntity
  8
1
 62
     1
100
AcDbLine
 10
30.86101585089972
 20
6.606357232318329
 30
0.0
 11
31.14453123946587
 21
6.907339723786217
 31
0.0
  0
LINE
  5
470
330
18
100
AcDbEntity
  8
1
 62
     1
100
AcDbLine
 10
53.20416664915146
 20
4.809763240447191
 30
0.0
 11
51.48114041636784
 21
4.737160707542231
 31
0.0
  0
LINE
  5
471
330
18
100
AcDbEntity
  8
1
 62
     1
100
AcDbLine
 10
53.20416664915146
 20
4.809763240447191
 30
0.0
 11
53.20416664915146
 21
7.288515089592769
 31
0.0
  0
ARC
  5
472
330
18
100
AcDbEntity
  8
1
 62
     1
100
AcDbCircle
 10
62.12811692389336
 20
20.98977093547805
 30
0.0
 40
16.35121127941705
100
AcDbArc
 50
232.95786823442
 51
236.9228528793965
  0
LINE
  5
473
330
18
100
AcDbEntity
  8
1
 62
     1
100
AcDbLine
 10
49.36770831702743
 20
6.677050944613807
 30
0.0
 11
50.32682290009518
 21
7.621998253782766
 31
0.0
  0
ARC
  5
474
330
18
100
AcDbEntity
  8
1
 62
     1
100
AcDbCircle
 10
54.66791274357664
 20
-11.63534335704508
 30
0.0
 40
19.75437314706786
100
AcDbArc
 50
108.473019402034
 51
111.4156397864507
  0
LINE
  5
475
330
18
100
AcDbEntity
  8
1
100
AcDbLine
 10
19.6351562430661
 20
-7.934776994868279
 30
0.0
 11
19.86717179062608
 21
-7.937499997419776
 31
0.0
  0
LINE
  5
477
330
18
100
AcDbEntity
  8
1
100
AcDbLine
 10
17.48541666041037
 20
-7.731611598630746
 30
0.0
 11
19.6351562430661
 21
-7.934776994868279
 31
0.0
  0
ARC
  5
478
330
18
100
AcDbEntity
  8
1
 62
     1
100
AcDbCircle
 10
47.03019262065684
 20
1.290191657370317
 30
0.0
 40
7.92450866368303
100
AcDbArc
 50
123.5216896312957
 51
128.7151606545368
  0
ARC
  5
479
330
18
100
AcDbEntity
  8
1
 62
     1
100
AcDbCircle
 10
46.98447362255126
 20
2.992813471163279
 30
0.0
 40
4.141666783087439
100
AcDbArc
 50
96.85204016896273
 51
110.5409362748053
  0
LINE
  5
47A
330
18
100
AcDbEntity
  8
1
 62
     1
100
AcDbLine
 10
48.40859373395971
 20
6.354897000496428
 30
0.0
 11
48.88732027562507
 21
6.017642266081931
 31
0.0
  0
LINE
  5
47B
330
18
100
AcDbEntity
  8
1
 62
     1
100
AcDbLine
 10
48.88732027562507
 20
6.017642266081931
 30
0.0
 11
49.36770831702743
 21
5.706232517006462
 31
0.0
  0
LINE
  5
47C
330
18
100
AcDbEntity
  8
1
 62
     1
100
AcDbLine
 10
49.36770831702743
 20
5.706232517006462
 30
0.0
 11
49.60608995979486
 21
5.651627136432463
 31
0.0
  0
LINE
  5
47D
330
18
100
AcDbEntity
  8
1
 62
     1
100
AcDbLine
 10
49.60608995979486
 20
5.651627136432463
 30
0.0
 11
49.84557097080989
 21
5.582036700856391
 31
0.0
  0
LINE
  5
47E
330
18
100
AcDbEntity
  8
1
 62
     1
100
AcDbLine
 10
49.84557097080989
 20
5.582036700856391
 30
0.0
 11
50.08590748055437
 21
5.497722468841566
 31
0.0
  0
LINE
  5
47F
330
18
100
AcDbEntity
  8
1
 62
     1
100
AcDbLine
 10
50.08590748055437
 20
5.497722468841566
 30
0.0
 11
50.32682290009513
 21
5.398988649603961
 31
0.0
  0
LINE
  5
480
330
18
100
AcDbEntity
  8
1
 62
     1
100
AcDbLine
 10
53.20416664915144
 20
0.059812880767729
 30
0.0
 11
48.59558159713376
 21
2.07326198006397
 31
0.0
  0
LINE
  5
481
330
18
100
AcDbEntity
  8
1
 62
     1
100
AcDbLine
 10
48.59558159713376
 20
2.07326198006397
 30
0.0
 11
46.2912890711249
 21
2.957587763808191
 31
0.0
  0
LINE
  5
482
330
18
100
AcDbEntity
  8
1
 62
     1
100
AcDbLine
 10
46.2912890711249
 20
2.957587763808191
 30
0.0
 11
43.98699654511601
 21
3.703705573024263
 31
0.0
  0
LINE
  5
483
330
18
100
AcDbEntity
  8
1
 62
     1
100
AcDbLine
 10
43.98699654511601
 20
3.703705573024263
 30
0.0
 11
42.8348502821116
 21
4.01374159585775
 31
0.0
  0
LINE
  5
484
330
18
100
AcDbEntity
  8
1
 62
     1
100
AcDbLine
 10
42.8348502821116
 20
4.01374159585775
 30
0.0
 11
41.68270401910715
 21
4.276749371177642
 31
0.0
  0
LINE
  5
485
330
18
100
AcDbEntity
  8
1
 62
     1
100
AcDbLine
 10
41.68270401910715
 20
4.276749371177642
 30
0.0
 11
40.53055775610274
 21
4.489647289810716
 31
0.0
  0
LINE
  5
486
330
18
100
AcDbEntity
  8
1
 62
     1
100
AcDbLine
 10
40.53055775610274
 20
4.489647289810716
 30
0.0
 11
39.37841149309835
 21
4.649940870267504
 31
0.0
  0
LINE
  5
487
330
18
100
AcDbEntity
  8
1
 62
     1
100
AcDbLine
 10
39.37841149309835
 20
4.649940870267504
 30
0.0
 11
38.22626523009386
 21
4.755751985838754
 31
0.0
  0
LINE
  5
488
330
18
100
AcDbEntity
  8
1
 62
     1
100
AcDbLine
 10
38.22626523009386
 20
4.755751985838754
 30
0.0
 11
37.07411896708946
 21
4.80584087019682
 31
0.0
  0
LINE
  5
489
330
18
100
AcDbEntity
  8
1
 62
     1
100
AcDbLine
 10
37.07411896708946
 20
4.80584087019682
 30
0.0
 11
35.92197270408501
 21
4.799620643405155
 31
0.0
  0
LINE
  5
48A
330
18
100
AcDbEntity
  8
1
 62
     1
100
AcDbLine
 10
35.92197270408501
 20
4.799620643405155
 30
0.0
 11
34.76982644108061
 21
4.737164188212066
 31
0.0
  0
LINE
  5
48B
330
18
100
AcDbEntity
  8
1
 62
     1
100
AcDbLine
 10
53.20416664915146
 20
0.0598128807677335
 30
0.0
 11
53.20416664915146
 21
0.0906379508166868
 31
0.0
  0
ARC
  5
48C
330
18
100
AcDbEntity
  8
1
 62
     1
100
AcDbCircle
 10
61.89612878298543
 20
12.58722583428631
 30
0.0
 40
15.22221344961134
100
AcDbArc
 50
230.8144506406119
 51
235.1795783141203
  0
LINE
  5
48D
330
18
100
AcDbEntity
  8
1
 62
     1
100
AcDbLine
 10
52.27812498277669
 20
0.7883135732905247
 30
0.0
 11
50.3268229000584
 21
2.215637341750674
 31
0.0
  0
ARC
  5
48E
330
18
100
AcDbEntity
  8
1
 62
     1
100
AcDbCircle
 10
66.31689232762271
 20
20.98440444348932
 30
0.0
 40
24.99567006730061
100
AcDbArc
 50
224.2374169219891
 51
227.3054989456189
  0
ARC
  5
48F
330
18
100
AcDbEntity
  8
1
 62
     1
100
AcDbCircle
 10
45.75670447375046
 20
-1.541361585569111
 30
0.0
 40
6.346469161068637
100
AcDbArc
 50
83.36165796658567
 51
92.03582423554351
  0
LINE
  5
490
330
18
100
AcDbEntity
  8
1
 62
     1
100
AcDbLine
 10
40.73567706971489
 20
7.352361188106838
 30
0.0
 11
41.69479165277937
 21
6.371401167827507
 31
0.0
  0
LINE
  5
491
330
18
100
AcDbEntity
  8
1
 62
     1
100
AcDbLine
 10
40.73567706974833
 20
7.352361188072658
 30
0.0
 11
39.7765625342341
 21
7.591793161737522
 31
0.0
  0
LINE
  5
492
330
18
100
AcDbEntity
  8
1
 62
     1
100
AcDbLine
 10
39.7765625342341
 20
7.591793161737522
 30
0.0
 11
38.81744790368632
 21
7.769567004012666
 31
0.0
  0
ARC
  5
493
330
18
100
AcDbEntity
  8
1
 62
     1
100
AcDbCircle
 10
49.4497592581758
 20
-9.007987398951911
 30
0.0
 40
19.8630137493009
100
AcDbArc
 50
122.3633491681652
 51
125.7018461094213
  0
LINE
  5
494
330
18
100
AcDbEntity
  8
1
 62
     1
100
AcDbLine
 10
36.89921873759668
 20
7.934866196371697
 30
0.0
 11
37.85833332065533
 21
7.122091973084
 31
0.0
  0
LINE
  5
495
330
18
100
AcDbEntity
  8
1
 62
     1
100
AcDbLine
 10
36.89921873762428
 20
7.934866196349047
 30
0.0
 11
36.62514516270788
 21
7.937499997498012
 31
0.0
  0
LINE
  5
496
330
18
100
AcDbEntity
  8
1
 62
     1
100
AcDbLine
 10
34.02187498853125
 20
6.95661351223586
 30
0.0
 11
34.98098957158988
 21
7.842899486803367
 31
0.0
  0
ARC
  5
497
330
18
100
AcDbEntity
  8
1
 62
     1
100
AcDbCircle
 10
26.70640887251825
 20
-4.907994049483582
 30
0.0
 40
13.93841513861395
100
AcDbArc
 50
58.34289424013839
 51
62.86862030794364
  0
LINE
  5
498
330
18
100
AcDbEntity
  8
1
 62
     1
100
AcDbLine
 10
31.14453123943828
 20
6.907339723756837
 30
0.0
 11
32.10364600043965
 21
7.231360600991789
 31
0.0
  0
LINE
  5
499
330
18
100
AcDbEntity
  8
1
 62
     1
100
AcDbLine
 10
32.10364600043965
 20
7.231360600991789
 30
0.0
 11
33.06276040550025
 21
7.496648566628732
 31
0.0
  0
LINE
  5
49A
330
18
100
AcDbEntity
  8
1
 62
     1
100
AcDbLine
 10
25.38984374125217
 20
7.927738864314842
 30
0.0
 11
24.86217963865166
 21
7.937499997498012
 31
0.0
  0
LINE
  5
49B
330
18
100
AcDbEntity
  8
1
 62
     1
100
AcDbLine
 10
26.34895832428318
 20
7.158336413606305
 30
0.0
 11
26.58733928100935
 21
7.322249125634455
 31
0.0
  0
LINE
  5
49C
330
18
100
AcDbEntity
  8
1
 62
     1
100
AcDbLine
 10
26.58733928100935
 20
7.322249125634455
 30
0.0
 11
26.82681983692204
 21
7.471934445237902
 31
0.0
  0
LINE
  5
49D
330
18
100
AcDbEntity
  8
1
 62
     1
100
AcDbLine
 10
26.82681983692204
 20
7.471934445237902
 30
0.0
 11
27.06715660434058
 21
7.60740620027501
 31
0.0
  0
LINE
  5
49E
330
18
100
AcDbEntity
  8
1
 62
     1
100
AcDbLine
 10
27.06715660434058
 20
7.60740620027501
 30
0.0
 11
27.30807290733901
 21
7.72865056409692
 31
0.0
  0
ARC
  5
49F
330
18
100
AcDbEntity
  8
1
 62
     1
100
AcDbCircle
 10
45.17748190987222
 20
27.3329762443154
 30
0.0
 40
25.62423740110521
100
AcDbArc
 50
231.5008534920495
 51
234.191594229184
  0
ARC
  5
4A0
330
18
100
AcDbEntity
  8
1
 62
     1
100
AcDbCircle
 10
30.82497078738522
 20
2.807915936468404
 30
0.0
 40
3.798722891895263
100
AcDbArc
 50
85.17457243471847
 51
99.69255397554913
  0
LINE
  5
4A1
330
18
100
AcDbEntity
  8
1
 62
     1
100
AcDbLine
 10
33.06276040547264
 20
5.693874180108591
 30
0.0
 11
33.54148679523726
 21
5.383560610064699
 31
0.0
  0
LINE
  5
4A2
330
18
100
AcDbEntity
  8
1
 62
     1
100
AcDbLine
 10
33.54148679523726
 20
5.383560610064699
 30
0.0
 11
34.02187498853125
 21
5.103564107700226
 31
0.0
  0
LINE
  5
4A3
330
18
100
AcDbEntity
  8
1
 62
     1
100
AcDbLine
 10
34.02187498853125
 20
5.103564107700226
 30
0.0
 11
34.20791890707708
 21
5.025098782128885
 31
0.0
  0
LINE
  5
4A4
330
18
100
AcDbEntity
  8
1
 62
     1
100
AcDbLine
 10
34.20791890707708
 20
5.025098782128885
 30
0.0
 11
34.39468629958206
 21
4.937772461625033
 31
0.0
  0
LINE
  5
4A5
330
18
100
AcDbEntity
  8
1
 62
     1
100
AcDbLine
 10
34.39468629958206
 20
4.937772461625033
 30
0.0
 11
34.58201509205145
 21
4.84174761205362
 31
0.0
  0
LINE
  5
4A6
330
18
100
AcDbEntity
  8
1
 62
     1
100
AcDbLine
 10
34.58201509205145
 20
4.84174761205362
 30
0.0
 11
34.76982614124681
 21
4.737163670123758
 31
0.0
  0
LINE
  5
4A7
330
18
100
AcDbEntity
  8
1
 62
     1
100
AcDbLine
 10
36.89921873759668
 20
3.376317954196117
 30
0.0
 11
37.37794525846496
 21
3.167276018539189
 31
0.0
  0
LINE
  5
4A8
330
18
100
AcDbEntity
  8
1
 62
     1
100
AcDbLine
 10
37.37794525846496
 20
3.167276018539189
 30
0.0
 11
37.61809357589564
 21
3.077470397194665
 31
0.0
  0
LINE
  5
4A9
330
18
100
AcDbEntity
  8
1
 62
     1
100
AcDbLine
 10
37.61809357589564
 20
3.077470397194665
 30
0.0
 11
37.85833332065533
 21
2.998223887114528
 31
0.0
  0
LINE
  5
4AA
330
18
100
AcDbEntity
  8
1
 62
     1
100
AcDbLine
 10
37.85833332065533
 20
2.998223887114528
 30
0.0
 11
38.33619551525054
 21
2.538366719238895
 31
0.0
  0
LINE
  5
4AB
330
18
100
AcDbEntity
  8
1
 62
     1
100
AcDbLine
 10
38.33619551525054
 20
2.538366719238895
 30
0.0
 11
38.81744790371961
 21
2.033343707896964
 31
0.0
  0
LINE
  5
4AC
330
18
100
AcDbEntity
  8
1
 62
     1
100
AcDbLine
 10
41.69479165277933
 20
0.5072003126670274
 30
0.0
 11
42.65390623584378
 21
-0.8047054469582802
 31
0.0
  0
LINE
  5
4AD
330
18
100
AcDbEntity
  8
1
 62
     1
100
AcDbLine
 10
45.53124998490338
 20
-2.049067273855273
 30
0.0
 11
46.4903645679711
 21
-3.539236207651788
 31
0.0
  0
LINE
  5
4AE
330
18
100
AcDbEntity
  8
1
 62
     1
100
AcDbLine
 10
48.40859373399641
 20
-4.755963658787123
 30
0.0
 11
46.49036456793441
 21
-3.539236207594646
 31
0.0
  0
ARC
  5
4AF
330
18
100
AcDbEntity
  8
1
 62
     1
100
AcDbCircle
 10
45.61023657770245
 20
3.040324973243718
 30
0.0
 40
8.28329938416998
100
AcDbArc
 50
289.744814789568
 51
296.976064924712
  0
LINE
  5
4B0
330
18
100
AcDbEntity
  8
1
 62
     1
100
AcDbLine
 10
52.27812498277669
 20
-6.705603147274207
 30
0.0
 11
51.30247243988825
 21
-6.288473399632422
 31
0.0
  0
LINE
  5
4B1
330
18
100
AcDbEntity
  8
1
 62
     1
100
AcDbLine
 10
51.30247243988825
 20
-6.288473399632422
 30
0.0
 11
50.3268229000584
 21
-5.818490162538247
 31
0.0
  0
ARC
  5
4B2
330
18
100
AcDbEntity
  8
1
 62
     1
100
AcDbCircle
 10
45.45254620096858
 20
7.757501357026683
 30
0.0
 40
15.99285846237875
100
AcDbArc
 50
295.264049462131
 51
298.9923183782148
  0
LINE
  5
4B3
330
18
100
AcDbEntity
  8
1
 62
     1
100
AcDbLine
 10
53.20416664915146
 20
0.0598128807677335
 30
0.0
 11
53.20416664915146
 21
-6.231214790901296
 31
0.0
  0
ARC
  5
4B4
330
18
100
AcDbEntity
  8
1
 62
     1
100
AcDbCircle
 10
44.61494876771175
 20
2.769579564158815
 30
0.0
 40
10.57464014771033
100
AcDbArc
 50
291.0234900774341
 51
296.7077416004121
  0
LINE
  5
4B5
330
18
100
AcDbEntity
  8
1
 62
     1
100
AcDbLine
 10
48.40859373399641
 20
-7.101105925508598
 30
0.0
 11
47.44947919444664
 21
-6.752966568770772
 31
0.0
  0
LINE
  5
4B6
330
18
100
AcDbEntity
  8
1
 62
     1
100
AcDbLine
 10
47.44947919444664
 20
-6.752966568770772
 30
0.0
 11
46.49036456793439
 21
-6.34997998291705
 31
0.0
  0
LINE
  5
4B7
330
18
100
AcDbEntity
  8
1
 62
     1
100
AcDbLine
 10
45.53124998490338
 20
-5.325527771737792
 30
0.0
 11
46.4903645679711
 21
-6.349979982956964
 31
0.0
  0
ARC
  5
4B8
330
18
100
AcDbEntity
  8
1
 62
     1
100
AcDbCircle
 10
30.23678695883619
 20
-6.454559439191258
 30
0.0
 40
9.023879774431632
100
AcDbArc
 50
58.28283990153077
 51
65.19986548296897
  0
ARC
  5
4B9
330
18
100
AcDbEntity
  8
1
 62
     1
100
AcDbCircle
 10
29.55029378256996
 20
-2.313497914735568
 30
0.0
 40
6.424939201381665
100
AcDbArc
 50
75.6330968635908
 51
84.32688089738197
  0
ARC
  5
4BA
330
18
100
AcDbEntity
  8
1
 62
     1
100
AcDbCircle
 10
28.33625537957659
 20
-1.289522402558274
 30
0.0
 40
7.457184502159567
100
AcDbArc
 50
97.92525052047665
 51
105.4556954914018
  0
LINE
  5
4BB
330
18
100
AcDbEntity
  8
1
 62
     1
100
AcDbLine
 10
25.38984374125217
 20
6.909030673952503
 30
0.0
 11
24.43072903716493
 21
7.232775335510138
 31
0.0
  0
LINE
  5
4BC
330
18
100
AcDbEntity
  8
1
 62
     1
100
AcDbLine
 10
24.43072903716493
 20
7.232775335510138
 30
0.0
 11
23.47161457519014
 21
7.497776171018177
 31
0.0
  0
ARC
  5
4BD
330
18
100
AcDbEntity
  8
1
 62
     1
100
AcDbCircle
 10
30.04099245217579
 20
-5.276709872241465
 30
0.0
 40
14.36487771870477
100
AcDbArc
 50
117.2148424098599
 51
121.6069298138723
  0
ARC
  5
4BE
330
18
100
AcDbEntity
  8
1
 62
     1
100
AcDbCircle
 10
19.90896187448788
 20
-6.475025061351947
 30
0.0
 40
14.41256295233286
100
AcDbArc
 50
83.44848621594724
 51
89.98063978575073
  0
LINE
  5
4C1
330
18
100
AcDbEntity
  8
1
100
AcDbLine
 10
17.48541666041039
 20
7.731611598630746
 30
0.0
 11
19.63515624306612
 21
7.934777009420487
 31
0.0
  0
LINE
  5
4C2
330
18
100
AcDbEntity
  8
1
100
AcDbLine
 10
17.71692707699713
 20
4.939180383749561
 30
0.0
 11
18.05851335496672
 21
4.737165671891426
 31
0.0
  0
LINE
  5
4C3
330
18
100
AcDbEntity
  8
1
100
AcDbLine
 10
18.67604166003509
 20
4.416933633271818
 30
0.0
 11
18.9144231219491
 21
4.269058759469824
 31
0.0
  0
LINE
  5
4C4
330
18
100
AcDbEntity
  8
1
100
AcDbLine
 10
18.9144231219491
 20
4.269058759469824
 30
0.0
 11
19.15390409889232
 21
4.107507956535178
 31
0.0
  0
LINE
  5
4C5
330
18
100
AcDbEntity
  8
1
100
AcDbLine
 10
19.15390409889232
 20
4.107507956535178
 30
0.0
 11
19.48541666040989
 21
3.857674771045143
 31
0.0
  0
LINE
  5
4C6
330
18
100
AcDbEntity
  8
1
 62
     1
100
AcDbLine
 10
21.55338540912115
 20
2.429062254904588
 30
0.0
 11
21.79241870407053
 21
2.341183820955515
 31
0.0
  0
LINE
  5
4C7
330
18
100
AcDbEntity
  8
1
 62
     1
100
AcDbLine
 10
21.79241870407053
 20
2.341183820955515
 30
0.0
 11
22.0321118331309
 21
2.263350428036988
 31
0.0
  0
LINE
  5
4C8
330
18
100
AcDbEntity
  8
1
 62
     1
100
AcDbLine
 10
22.0321118331309
 20
2.263350428036988
 30
0.0
 11
22.27226020599231
 21
2.196061939299533
 31
0.0
  0
LINE
  5
4C9
330
18
100
AcDbEntity
  8
1
 62
     1
100
AcDbLine
 10
22.27226020599231
 20
2.196061939299533
 30
0.0
 11
22.51249999215914
 21
2.13988142867482
 31
0.0
  0
LINE
  5
4CA
330
18
100
AcDbEntity
  8
1
 62
     1
100
AcDbLine
 10
22.51249999215914
 20
2.139881428674816
 30
0.0
 11
23.4716145751971
 21
1.034538167821174
 31
0.0
  0
LINE
  5
4CB
330
18
100
AcDbEntity
  8
1
 62
     1
100
AcDbLine
 10
26.34895832428318
 20
-0.4124406631633133
 30
0.0
 11
27.30807290733901
 21
-1.80883019343454
 31
0.0
  0
LINE
  5
4CC
330
18
100
AcDbEntity
  8
1
 62
     1
100
AcDbLine
 10
27.30807290731418
 20
-1.808830193397614
 30
0.0
 11
29.22630207337623
 21
-3.165490850000081
 31
0.0
  0
ARC
  5
4CD
330
18
100
AcDbEntity
  8
1
 62
     1
100
AcDbCircle
 10
28.12370971896476
 20
2.940981362972403
 30
0.0
 40
6.205215992954887
100
AcDbArc
 50
280.2351196253386
 51
289.4056542389856
  0
LINE
  5
4CE
330
18
100
AcDbEntity
  8
1
 62
     1
100
AcDbLine
 10
31.14453123943823
 20
-4.419518146196696
 30
0.0
 11
33.06276040550025
 21
-5.530253432853596
 31
0.0
  0
ARC
  5
4CF
330
18
100
AcDbEntity
  8
1
 62
     1
100
AcDbCircle
 10
75.49258176775137
 20
21.83298677497775
 30
0.0
 40
49.41440627803107
100
AcDbArc
 50
212.9397230036339
 51
214.9317584268656
  0
LINE
  5
4D0
330
18
100
AcDbEntity
  8
1
 62
     1
100
AcDbLine
 10
34.98098957156227
 20
-6.461687440348303
 30
0.0
 11
35.94010451089474
 21
-6.850471288905464
 31
0.0
  0
LINE
  5
4D1
330
18
100
AcDbEntity
  8
1
 62
     1
100
AcDbLine
 10
35.94010451089474
 20
-6.850471288905464
 30
0.0
 11
36.89921873762433
 21
-7.183619093642348
 31
0.0
  0
ARC
  5
4D2
330
18
100
AcDbEntity
  8
1
 62
     1
100
AcDbCircle
 10
41.62436773972689
 20
6.949769911615736
 30
0.0
 40
14.88935407621205
100
AcDbArc
 50
259.1336780651532
 51
266.5781602617638
  0
ARC
  5
4D3
330
18
100
AcDbEntity
  8
1
 62
     1
100
AcDbCircle
 10
41.51837667854334
 20
6.98197339939711
 30
0.0
 40
14.92187924306044
100
AcDbArc
 50
274.3643399768089
 51
281.8088426851953
  0
ARC
  5
4D4
330
18
100
AcDbEntity
  8
1
 62
     1
100
AcDbCircle
 10
40.31527887657877
 20
11.43364639939264
 30
0.0
 40
19.53982548540623
100
AcDbArc
 50
288.4227495266877
 51
291.4316594931524
  0
LINE
  5
4D5
330
18
100
AcDbEntity
  8
1
 62
     1
100
AcDbLine
 10
19.86717179062608
 20
1.088455686521577
 30
0.0
 11
19.86717179062608
 21
1.79613148132297
 31
0.0
  0
ARC
  5
4D6
330
18
100
AcDbEntity
  8
1
 62
     1
100
AcDbCircle
 10
36.6300411696484
 20
6.475645526076188
 30
0.0
 40
14.41318360880519
100
AcDbArc
 50
263.4302507857049
 51
269.980537175349
  0
ARC
  5
4D7
330
18
100
AcDbEntity
  8
1
 62
     1
100
AcDbCircle
 10
26.70640887251695
 20
4.907994049485972
 30
0.0
 40
13.93841513861668
100
AcDbArc
 50
297.1313796920566
 51
301.6571057598609
  0
LINE
  5
4D8
330
18
100
AcDbEntity
  8
1
 62
     1
100
AcDbLine
 10
31.14453123943823
 20
-6.907339723756821
 30
0.0
 11
32.10364600043965
 21
-7.231360600991786
 31
0.0
  0
LINE
  5
4D9
330
18
100
AcDbEntity
  8
1
 62
     1
100
AcDbLine
 10
32.10364600043965
 20
-7.231360600991786
 30
0.0
 11
33.06276040550025
 21
-7.496648566628732
 31
0.0
  0
ARC
  5
4DA
330
18
100
AcDbEntity
  8
1
 62
     1
100
AcDbCircle
 10
28.22715497036314
 20
1.166124822080405
 30
0.0
 40
7.328665707668572
100
AcDbArc
 50
277.8358069233184
 51
285.4976728080238
  0
LINE
  5
4DB
330
18
100
AcDbEntity
  8
1
 62
     1
100
AcDbLine
 10
27.30807290731421
 20
-5.083236017153332
 30
0.0
 11
28.26718760406361
 21
-5.611445549195597
 31
0.0
  0
LINE
  5
4DC
330
18
100
AcDbEntity
  8
1
 62
     1
100
AcDbLine
 10
28.26718760406361
 20
-5.611445549195597
 30
0.0
 11
29.22630207337623
 21
-6.094079717223491
 31
0.0
  0
ARC
  5
4DD
330
18
100
AcDbEntity
  8
1
 62
     1
100
AcDbCircle
 10
26.39243271243528
 20
6.628334978199821
 30
0.0
 40
9.218855176170619
100
AcDbArc
 50
238.3381220729353
 51
245.1099370361057
  0
ARC
  5
4DE
330
18
100
AcDbEntity
  8
1
100
AcDbCircle
 10
13.2347110305421
 20
-8.569351081559661
 30
0.0
 40
10.86282705510578
100
AcDbArc
 50
53.90013710966865
 51
54.87083558236304
  0
LINE
  5
4E0
330
18
100
AcDbEntity
  8
1
100
AcDbLine
 10
19.63500385788649
 20
-6.998534007314912
 30
0.0
 11
19.86601411900105
 21
-7.072893565407576
 31
0.0
  0
LINE
  5
4E1
330
18
100
AcDbEntity
  8
1
 62
     1
100
AcDbLine
 10
20.59427099149369
 20
-7.307311114460277
 30
0.0
 11
21.55338540912814
 21
-7.55668993489157
 31
0.0
  0
LINE
  5
4E2
330
18
100
AcDbEntity
  8
1
 62
     1
100
AcDbLine
 10
22.51249999215914
 20
-6.843449056009999
 30
0.0
 11
22.99036250875293
 21
-7.379546818304294
 31
0.0
  0
LINE
  5
4E3
330
18
100
AcDbEntity
  8
1
 62
     1
100
AcDbLine
 10
22.99036250875293
 20
-7.379546818304294
 30
0.0
 11
23.4716145751971
 21
-7.869792690388384
 31
0.0
  0
ARC
  5
4E4
330
18
100
AcDbEntity
  8
1
 62
     1
100
AcDbCircle
 10
24.86515977830538
 20
6.432089011052227
 30
0.0
 40
14.36960903819572
100
AcDbArc
 50
264.4347879657249
 51
269.9684700732581
  0
ARC
  5
4E5
330
18
100
AcDbEntity
  8
1
 62
     1
100
AcDbCircle
 10
24.86217944760913
 20
6.321438242787093
 30
0.0
 40
14.25893824025171
100
AcDbArc
 50
269.9802010684067
 51
270.0000007677271
  0
LINE
  5
4E6
330
18
100
AcDbEntity
  8
1
 62
     1
100
AcDbLine
 10
26.34895832428318
 20
-7.158336413606302
 30
0.0
 11
26.58733928100933
 21
-7.322249125634454
 31
0.0
  0
LINE
  5
4E7
330
18
100
AcDbEntity
  8
1
 62
     1
100
AcDbLine
 10
26.58733928100933
 20
-7.322249125634454
 30
0.0
 11
26.82681983692204
 21
-7.471934445237899
 31
0.0
  0
LINE
  5
4E8
330
18
100
AcDbEntity
  8
1
 62
     1
100
AcDbLine
 10
26.82681983692204
 20
-7.471934445237899
 30
0.0
 11
27.06715660434058
 21
-7.607406200275007
 31
0.0
  0
LINE
  5
4E9
330
18
100
AcDbEntity
  8
1
 62
     1
100
AcDbLine
 10
27.06715660434058
 20
-7.607406200275007
 30
0.0
 11
27.30807290733901
 21
-7.728650564096919
 31
0.0
  0
LINE
  5
4EA
330
18
100
AcDbEntity
  8
1
 62
     1
100
AcDbLine
 10
27.30807290731418
 20
-7.728650564085172
 30
0.0
 11
28.26718717540386
 21
-7.534411502846737
 31
0.0
  0
LINE
  5
4EB
330
18
100
AcDbEntity
  8
1
 62
     1
100
AcDbLine
 10
28.26718717540386
 20
-7.534411502846737
 30
0.0
 11
29.22630207337623
 21
-7.278981651910291
 31
0.0
  0
ARC
  5
4EC
330
18
100
AcDbEntity
  8
1
 62
     1
100
AcDbCircle
 10
30.82218296830697
 20
-2.833955275050917
 30
0.0
 40
3.7725695400251
100
AcDbArc
 50
260.2825994065112
 51
270.5897785335774
  0
LINE
  5
4ED
330
18
100
AcDbEntity
  8
1
 62
     1
100
AcDbLine
 10
19.86717179062608
 20
-6.104621259787098
 30
0.0
 11
19.86717179062608
 21
-7.937044071321651
 31
0.0
  0
LINE
  5
4EE
330
18
100
AcDbEntity
  8
1
100
AcDbLine
 10
17.48541666041039
 20
-6.104621259787098
 30
0.0
 11
19.63500385788649
 21
-6.998534007314912
 31
0.0
  0
LINE
  5
4EF
330
18
100
AcDbEntity
  8
1
 62
     1
100
AcDbLine
 10
19.86717179062608
 20
-6.104621259787098
 30
0.0
 11
19.86717179062608
 21
1.088455686521577
 31
0.0
  0
LINE
  5
4F0
330
18
100
AcDbEntity
  8
1
 62
     1
100
AcDbLine
 10
19.86717179062608
 20
5.073214512006794
 30
0.0
 11
19.86717179062608
 21
1.796131481322968
 31
0.0
  0
LINE
  5
4F1
330
18
100
AcDbEntity
  8
1
 62
     1
100
AcDbLine
 10
19.86717179062608
 20
5.073214512006794
 30
0.0
 11
19.86717179062608
 21
7.937044073823336
 31
0.0
  0
LINE
  5
4F2
330
18
100
AcDbEntity
  8
1
 62
     1
100
AcDbLine
 10
21.55338540912814
 20
-7.937499997470637
 30
0.0
 11
21.55338540912814
 21
-7.937499997470644
 31
0.0
  0
LINE
  5
4F3
330
18
100
AcDbEntity
  8
1
 62
     1
100
AcDbLine
 10
21.55338540912814
 20
-7.937499997470644
 30
0.0
 11
21.55338540912814
 21
-7.937499997470644
 31
0.0
  0
LINE
  5
4F4
330
18
100
AcDbEntity
  8
1
 62
     1
100
AcDbLine
 10
21.55338540912814
 20
-7.937499997470644
 30
0.0
 11
21.55338540912813
 21
-7.937499997470644
 31
0.0
  0
LINE
  5
4F5
330
18
100
AcDbEntity
  8
1
 62
     1
100
AcDbLine
 10
21.55338540912813
 20
-7.937499997470644
 30
0.0
 11
21.55338540912814
 21
-7.937499997470644
 31
0.0
  0
LINE
  5
4F6
330
18
100
AcDbEntity
  8
1
 62
     1
100
AcDbLine
 10
21.55338540912814
 20
-7.937499997470644
 30
0.0
 11
21.55338540912814
 21
-7.937499997468672
 31
0.0
  0
LINE
  5
4F7
330
18
100
AcDbEntity
  8
1
 62
     1
100
AcDbLine
 10
21.55338540912814
 20
-7.937499997468672
 30
0.0
 11
21.55338540912814
 21
-7.937499996902668
 31
0.0
  0
LINE
  5
4F8
330
18
100
AcDbEntity
  8
1
 62
     1
100
AcDbLine
 10
21.55338540912814
 20
-7.937499996902668
 30
0.0
 11
21.55338540912814
 21
-7.937499956160213
 31
0.0
  0
LINE
  5
4F9
330
18
100
AcDbEntity
  8
1
 62
     1
100
AcDbLine
 10
21.55338540912814
 20
-7.937499956160213
 30
0.0
 11
21.55338540912814
 21
-7.937499697726162
 31
0.0
  0
LINE
  5
4FA
330
18
100
AcDbEntity
  8
1
 62
     1
100
AcDbLine
 10
21.55338540912814
 20
-7.937499697726162
 30
0.0
 11
21.55338540912814
 21
-7.937395402899472
 31
0.0
  0
LINE
  5
4FB
330
18
100
AcDbEntity
  8
1
 62
     1
100
AcDbLine
 10
21.55338540912814
 20
-7.937395402899472
 30
0.0
 11
21.55338540912813
 21
-7.910291275563192
 31
0.0
  0
LINE
  5
4FC
330
18
100
AcDbEntity
  8
1
 62
     1
100
AcDbLine
 10
21.55338540912813
 20
-7.910291275563192
 30
0.0
 11
21.55338540912814
 21
-7.55668993489157
 31
0.0
  0
LINE
  5
4FD
330
18
100
AcDbEntity
  8
1
 62
     1
100
AcDbLine
 10
19.86717179062608
 20
-7.937044071321651
 30
0.0
 11
21.55338540912814
 21
-7.937499997498012
 31
0.0
  0
LINE
  5
4FE
330
18
100
AcDbEntity
  8
1
 62
     1
100
AcDbLine
 10
23.47161457519014
 20
-7.937499997470644
 30
0.0
 11
23.47161457519014
 21
-7.93749999747065
 31
0.0
  0
LINE
  5
4FF
330
18
100
AcDbEntity
  8
1
 62
     1
100
AcDbLine
 10
23.47161457519014
 20
-7.93749999747065
 30
0.0
 11
23.47161457519014
 21
-7.93749999747065
 31
0.0
  0
LINE
  5
500
330
18
100
AcDbEntity
  8
1
 62
     1
100
AcDbLine
 10
23.47161457519014
 20
-7.93749999747065
 30
0.0
 11
23.47161457519014
 21
-7.937499997470644
 31
0.0
  0
LINE
  5
501
330
18
100
AcDbEntity
  8
1
 62
     1
100
AcDbLine
 10
23.47161457519014
 20
-7.937499997470644
 30
0.0
 11
23.47161457519014
 21
-7.937499997470644
 31
0.0
  0
LINE
  5
502
330
18
100
AcDbEntity
  8
1
 62
     1
100
AcDbLine
 10
23.47161457519014
 20
-7.937499997470644
 30
0.0
 11
23.47161457519016
 21
-7.937499997468678
 31
0.0
  0
LINE
  5
503
330
18
100
AcDbEntity
  8
1
 62
     1
100
AcDbLine
 10
23.47161457519016
 20
-7.937499997468678
 30
0.0
 11
23.47161457519014
 21
-7.937499996902668
 31
0.0
  0
LINE
  5
504
330
18
100
AcDbEntity
  8
1
 62
     1
100
AcDbLine
 10
23.47161457519014
 20
-7.937499996902668
 30
0.0
 11
23.47161457519014
 21
-7.937499956160213
 31
0.0
  0
LINE
  5
505
330
18
100
AcDbEntity
  8
1
 62
     1
100
AcDbLine
 10
23.47161457519014
 20
-7.937499956160213
 30
0.0
 11
23.47161457519014
 21
-7.937499697726162
 31
0.0
  0
LINE
  5
506
330
18
100
AcDbEntity
  8
1
 62
     1
100
AcDbLine
 10
23.47161457519014
 20
-7.937499697726162
 30
0.0
 11
23.47161457519014
 21
-7.869792690381655
 31
0.0
  0
ARC
  5
507
330
18
100
AcDbEntity
  8
1
 62
     1
100
AcDbCircle
 10
24.8620992795611
 20
6.332823313317829
 30
0.0
 40
14.27032339853886
100
AcDbArc
 50
270.000322644251
 51
272.1193931526971
  0
LINE
  5
508
330
18
100
AcDbEntity
  8
1
 62
     1
100
AcDbLine
 10
23.47161457519014
 20
-7.937499997498012
 30
0.0
 11
24.86217963866983
 21
-7.937499997498012
 31
0.0
  0
LINE
  5
509
330
18
100
AcDbEntity
  8
1
 62
     1
100
AcDbLine
 10
22.51249999215914
 20
-7.170208328879516
 30
0.0
 11
22.51249999215914
 21
-7.170207997062767
 31
0.0
  0
LINE
  5
50A
330
18
100
AcDbEntity
  8
1
 62
     1
100
AcDbLine
 10
22.51249999215914
 20
-7.170207997062767
 30
0.0
 11
22.51249999215914
 21
-7.170125813792761
 31
0.0
  0
LINE
  5
50B
330
18
100
AcDbEntity
  8
1
 62
     1
100
AcDbLine
 10
22.51249999215914
 20
-7.170125813792761
 30
0.0
 11
22.51249999215914
 21
-7.148524787940244
 31
0.0
  0
LINE
  5
50C
330
18
100
AcDbEntity
  8
1
 62
     1
100
AcDbLine
 10
22.51249999215914
 20
-7.148524787940244
 30
0.0
 11
22.51249999215914
 21
-6.843449056009999
 31
0.0
  0
LINE
  5
50D
330
18
100
AcDbEntity
  8
1
 62
     1
100
AcDbLine
 10
22.51249999215914
 20
-7.1702083310732
 30
0.0
 11
21.55338540912115
 21
-7.937499997503588
 31
0.0
  0
LINE
  5
50E
330
18
100
AcDbEntity
  8
1
 62
     1
100
AcDbLine
 10
23.4716145751971
 20
-7.937499997503567
 30
0.0
 11
22.51249999215914
 21
-7.1702083310732
 31
0.0
  0
LINE
  5
50F
330
18
100
AcDbEntity
  8
1
 62
     1
100
AcDbLine
 10
36.89921873762428
 20
-7.937499997470637
 30
0.0
 11
36.89921873762428
 21
-7.937499997470644
 31
0.0
  0
LINE
  5
510
330
18
100
AcDbEntity
  8
1
 62
     1
100
AcDbLine
 10
36.89921873762428
 20
-7.937499997470644
 30
0.0
 11
36.89921873762428
 21
-7.937499997470644
 31
0.0
  0
LINE
  5
511
330
18
100
AcDbEntity
  8
1
 62
     1
100
AcDbLine
 10
36.89921873762428
 20
-7.937499997470644
 30
0.0
 11
36.89921873762428
 21
-7.937499997470644
 31
0.0
  0
LINE
  5
512
330
18
100
AcDbEntity
  8
1
 62
     1
100
AcDbLine
 10
36.89921873762428
 20
-7.937499997470644
 30
0.0
 11
36.89921873762428
 21
-7.937499997470644
 31
0.0
  0
LINE
  5
513
330
18
100
AcDbEntity
  8
1
 62
     1
100
AcDbLine
 10
36.89921873762428
 20
-7.937499997470644
 30
0.0
 11
36.89921873762433
 21
-7.937499997468672
 31
0.0
  0
LINE
  5
514
330
18
100
AcDbEntity
  8
1
 62
     1
100
AcDbLine
 10
36.89921873762433
 20
-7.937499997468672
 30
0.0
 11
36.89921873762433
 21
-7.937499996902668
 31
0.0
  0
LINE
  5
515
330
18
100
AcDbEntity
  8
1
 62
     1
100
AcDbLine
 10
36.89921873762433
 20
-7.937499996902668
 30
0.0
 11
36.89921873762428
 21
-7.937499956160213
 31
0.0
  0
LINE
  5
516
330
18
100
AcDbEntity
  8
1
 62
     1
100
AcDbLine
 10
36.89921873762428
 20
-7.937499956160213
 30
0.0
 11
36.89921873762428
 21
-7.937499697726162
 31
0.0
  0
LINE
  5
517
330
18
100
AcDbEntity
  8
1
 62
     1
100
AcDbLine
 10
36.89921873762428
 20
-7.937499697726162
 30
0.0
 11
36.89921873762428
 21
-7.937445439736587
 31
0.0
  0
LINE
  5
518
330
18
100
AcDbEntity
  8
1
 62
     1
100
AcDbLine
 10
36.89921873762428
 20
-7.937445439736587
 30
0.0
 11
36.89921873762428
 21
-7.923872455039432
 31
0.0
  0
LINE
  5
519
330
18
100
AcDbEntity
  8
1
 62
     1
100
AcDbLine
 10
36.89921873762428
 20
-7.923872455039432
 30
0.0
 11
36.89921873762433
 21
-7.183619093642348
 31
0.0
  0
LINE
  5
51A
330
18
100
AcDbEntity
  8
1
 62
     1
100
AcDbLine
 10
36.62514516269699
 20
-7.937499997498012
 30
0.0
 11
36.89921873762428
 21
-7.937499997498012
 31
0.0
  0
LINE
  5
51B
330
18
100
AcDbEntity
  8
1
 62
     1
100
AcDbLine
 10
38.81744790368632
 20
-7.937499997470644
 30
0.0
 11
38.81744790368632
 21
-7.937499997470644
 31
0.0
  0
LINE
  5
51C
330
18
100
AcDbEntity
  8
1
 62
     1
100
AcDbLine
 10
38.81744790368632
 20
-7.937499997470644
 30
0.0
 11
38.81744790368632
 21
-7.937499997470644
 31
0.0
  0
LINE
  5
51D
330
18
100
AcDbEntity
  8
1
 62
     1
100
AcDbLine
 10
38.81744790368632
 20
-7.937499997470644
 30
0.0
 11
38.81744790368632
 21
-7.937499997470644
 31
0.0
  0
LINE
  5
51E
330
18
100
AcDbEntity
  8
1
 62
     1
100
AcDbLine
 10
38.81744790368632
 20
-7.937499997470644
 30
0.0
 11
38.81744790368634
 21
-7.93749999747065
 31
0.0
  0
LINE
  5
51F
330
18
100
AcDbEntity
  8
1
 62
     1
100
AcDbLine
 10
38.81744790368634
 20
-7.93749999747065
 30
0.0
 11
38.81744790368634
 21
-7.937499997468672
 31
0.0
  0
LINE
  5
520
330
18
100
AcDbEntity
  8
1
 62
     1
100
AcDbLine
 10
38.81744790368634
 20
-7.937499997468672
 30
0.0
 11
38.81744790368632
 21
-7.937499996902668
 31
0.0
  0
LINE
  5
521
330
18
100
AcDbEntity
  8
1
 62
     1
100
AcDbLine
 10
38.81744790368632
 20
-7.937499996902668
 30
0.0
 11
38.81744790368632
 21
-7.937499956160213
 31
0.0
  0
LINE
  5
522
330
18
100
AcDbEntity
  8
1
 62
     1
100
AcDbLine
 10
38.81744790368632
 20
-7.937499956160213
 30
0.0
 11
38.81744790368632
 21
-7.937499697726162
 31
0.0
  0
LINE
  5
523
330
18
100
AcDbEntity
  8
1
 62
     1
100
AcDbLine
 10
38.81744790368632
 20
-7.937499697726162
 30
0.0
 11
38.81744790368632
 21
-7.937425890583932
 31
0.0
  0
LINE
  5
524
330
18
100
AcDbEntity
  8
1
 62
     1
100
AcDbLine
 10
38.81744790368632
 20
-7.937425890583932
 30
0.0
 11
38.81744790368632
 21
-7.918598279192313
 31
0.0
  0
LINE
  5
525
330
18
100
AcDbEntity
  8
1
 62
     1
100
AcDbLine
 10
38.81744790368632
 20
-7.918598279192313
 30
0.0
 11
38.81744790368632
 21
-7.672640977896
 31
0.0
  0
LINE
  5
526
330
18
100
AcDbEntity
  8
1
 62
     1
100
AcDbLine
 10
40.73567706974833
 20
-7.937499997470644
 30
0.0
 11
40.73567706974833
 21
-7.93749999747065
 31
0.0
  0
LINE
  5
527
330
18
100
AcDbEntity
  8
1
 62
     1
100
AcDbLine
 10
40.73567706974833
 20
-7.93749999747065
 30
0.0
 11
40.73567706974833
 21
-7.93749999747065
 31
0.0
  0
LINE
  5
528
330
18
100
AcDbEntity
  8
1
 62
     1
100
AcDbLine
 10
40.73567706974833
 20
-7.93749999747065
 30
0.0
 11
40.73567706974833
 21
-7.93749999747065
 31
0.0
  0
LINE
  5
529
330
18
100
AcDbEntity
  8
1
 62
     1
100
AcDbLine
 10
40.73567706974833
 20
-7.93749999747065
 30
0.0
 11
40.73567706974833
 21
-7.93749999747065
 31
0.0
  0
LINE
  5
52A
330
18
100
AcDbEntity
  8
1
 62
     1
100
AcDbLine
 10
40.73567706974833
 20
-7.93749999747065
 30
0.0
 11
40.73567706974833
 21
-7.937499997468678
 31
0.0
  0
LINE
  5
52B
330
18
100
AcDbEntity
  8
1
 62
     1
100
AcDbLine
 10
40.73567706974833
 20
-7.937499997468678
 30
0.0
 11
40.73567706974833
 21
-7.937499996902668
 31
0.0
  0
LINE
  5
52C
330
18
100
AcDbEntity
  8
1
 62
     1
100
AcDbLine
 10
40.73567706974833
 20
-7.937499996902668
 30
0.0
 11
40.73567706974833
 21
-7.937499956160213
 31
0.0
  0
LINE
  5
52D
330
18
100
AcDbEntity
  8
1
 62
     1
100
AcDbLine
 10
40.73567706974833
 20
-7.937499956160213
 30
0.0
 11
40.73567706974833
 21
-7.937499697726173
 31
0.0
  0
LINE
  5
52E
330
18
100
AcDbEntity
  8
1
 62
     1
100
AcDbLine
 10
40.73567706974833
 20
-7.937499697726173
 30
0.0
 11
40.73567706974833
 21
-7.93739339910205
 31
0.0
  0
LINE
  5
52F
330
18
100
AcDbEntity
  8
1
 62
     1
100
AcDbLine
 10
40.73567706974833
 20
-7.93739339910205
 30
0.0
 11
40.73567706974834
 21
-7.912899427844378
 31
0.0
  0
LINE
  5
530
330
18
100
AcDbEntity
  8
1
 62
     1
100
AcDbLine
 10
38.81744790368632
 20
-7.937499997498012
 30
0.0
 11
40.73567706974833
 21
-7.937499997498012
 31
0.0
  0
LINE
  5
531
330
18
100
AcDbEntity
  8
1
 62
     1
100
AcDbLine
 10
41.69479165277937
 20
-7.170208326413916
 30
0.0
 11
41.69479165277937
 21
-7.170207120188488
 31
0.0
  0
LINE
  5
532
330
18
100
AcDbEntity
  8
1
 62
     1
100
AcDbLine
 10
41.69479165277937
 20
-7.170207120188488
 30
0.0
 11
41.69479165277937
 21
-7.169896940834326
 31
0.0
  0
LINE
  5
533
330
18
100
AcDbEntity
  8
1
 62
     1
100
AcDbLine
 10
41.69479165277937
 20
-7.169896940834326
 30
0.0
 11
41.69479165277933
 21
-7.152246874501887
 31
0.0
  0
LINE
  5
534
330
18
100
AcDbEntity
  8
1
 62
     1
100
AcDbLine
 10
41.69479165277937
 20
-7.1702083310732
 30
0.0
 11
40.73567706971489
 21
-7.937499997524771
 31
0.0
  0
ARC
  5
535
330
18
100
AcDbEntity
  8
1
 62
     1
100
AcDbCircle
 10
47.03021485622675
 20
-1.290161520128567
 30
0.0
 40
7.924546093004515
100
AcDbArc
 50
231.284850187591
 51
236.4782966752929
  0
LINE
  5
536
330
18
100
AcDbEntity
  8
1
 62
     1
100
AcDbLine
 10
42.07380598404724
 20
-7.473419796087498
 30
0.0
 11
41.69479165277937
 21
-7.1702083310732
 31
0.0
  0
LINE
  5
537
330
18
100
AcDbEntity
  8
1
 62
     1
100
AcDbLine
 10
37.85833332065533
 20
-7.1702083310732
 30
0.0
 11
37.85833332065533
 21
-7.170066684746543
 31
0.0
  0
LINE
  5
538
330
18
100
AcDbEntity
  8
1
 62
     1
100
AcDbLine
 10
37.85833332065533
 20
-7.170066684746543
 30
0.0
 11
37.85833332065533
 21
-7.127638764009127
 31
0.0
  0
LINE
  5
539
330
18
100
AcDbEntity
  8
1
 62
     1
100
AcDbLine
 10
37.85833332065533
 20
-7.127638764009127
 30
0.0
 11
37.85833332065533
 21
-6.513258864326477
 31
0.0
  0
LINE
  5
53A
330
18
100
AcDbEntity
  8
1
 62
     1
100
AcDbLine
 10
37.85833332065533
 20
-7.1702083310732
 30
0.0
 11
36.89921873759668
 21
-7.937499997520117
 31
0.0
  0
LINE
  5
53B
330
18
100
AcDbEntity
  8
1
 62
     1
100
AcDbLine
 10
38.81744790371961
 20
-7.937499997524652
 30
0.0
 11
37.85833332065533
 21
-7.1702083310732
 31
0.0
  0
ARC
  5
53C
330
18
100
AcDbEntity
  8
1
 62
     1
100
AcDbCircle
 10
33.74517896470901
 20
-24.85434437829753
 30
0.0
 40
34.49957208961742
100
AcDbArc
 50
59.0632181263656
 51
61.27315533698782
  0
ARC
  5
53D
330
18
100
AcDbEntity
  8
1
 62
     1
100
AcDbCircle
 10
31.30527300499481
 20
-1.246497768298309
 30
0.0
 40
6.914285762262193
100
AcDbArc
 50
57.88560117169652
 51
59.92906428413495
  0
LINE
  5
53E
330
18
100
AcDbEntity
  8
1
 62
     1
100
AcDbLine
 10
36.62514516270704
 20
-0.0000000000014599
 30
0.0
 11
34.98098957156227
 21
1.2218158005906
 31
0.0
  0
LINE
  5
53F
330
18
100
AcDbEntity
  8
1
 62
     1
100
AcDbLine
 10
36.625145162708
 20
-0.0000000000000526
 30
0.0
 11
31.9834872122932
 21
2.032693439497399
 31
0.0
  0
LINE
  5
540
330
18
100
AcDbEntity
  8
1
 62
     1
100
AcDbLine
 10
31.9834872122932
 20
2.032693439497399
 30
0.0
 11
29.66265823708583
 21
2.928017467637623
 31
0.0
  0
LINE
  5
541
330
18
100
AcDbEntity
  8
1
 62
     1
100
AcDbLine
 10
29.66265823708583
 20
2.928017467637623
 30
0.0
 11
27.34182926187842
 21
3.684552355113956
 31
0.0
  0
LINE
  5
542
330
18
100
AcDbEntity
  8
1
 62
     1
100
AcDbLine
 10
27.34182926187842
 20
3.684552355113956
 30
0.0
 11
26.18141477427475
 21
3.999261620033975
 31
0.0
  0
LINE
  5
543
330
18
100
AcDbEntity
  8
1
 62
     1
100
AcDbLine
 10
26.18141477427475
 20
3.999261620033975
 30
0.0
 11
25.02100028667106
 21
4.266437990988446
 31
0.0
  0
LINE
  5
544
330
18
100
AcDbEntity
  8
1
 62
     1
100
AcDbLine
 10
25.02100028667106
 20
4.266437990988446
 30
0.0
 11
23.86058579906737
 21
4.482905960749755
 31
0.0
  0
LINE
  5
545
330
18
100
AcDbEntity
  8
1
 62
     1
100
AcDbLine
 10
23.86058579906737
 20
4.482905960749755
 30
0.0
 11
22.70017131146367
 21
4.646092719689705
 31
0.0
  0
LINE
  5
546
330
18
100
AcDbEntity
  8
1
 62
     1
100
AcDbLine
 10
22.70017131146367
 20
4.646092719689705
 30
0.0
 11
21.53975682385996
 21
4.754058722858231
 31
0.0
  0
LINE
  5
547
330
18
100
AcDbEntity
  8
1
 62
     1
100
AcDbLine
 10
21.53975682385996
 20
4.754058722858231
 30
0.0
 11
20.37934233625627
 21
4.805520784201537
 31
0.0
  0
LINE
  5
548
330
18
100
AcDbEntity
  8
1
 62
     1
100
AcDbLine
 10
20.37934233625627
 20
4.805520784201537
 30
0.0
 11
19.86717179062608
 21
4.803025431469031
 31
0.0
  0
LINE
  5
549
330
18
100
AcDbEntity
  8
1
100
AcDbLine
 10
19.21892784865257
 20
4.799867113784161
 30
0.0
 11
18.48517179062609
 21
4.760219539392431
 31
0.0
  0
ARC
  5
54A
330
18
100
AcDbEntity
  8
1
100
AcDbCircle
 10
22.59759400178496
 20
12.73150420936569
 30
0.0
 40
9.193061546175961
100
AcDbArc
 50
240.4126575173777
 51
243.4268647633167
  0
LINE
  5
54B
330
18
100
AcDbEntity
  8
1
 62
     1
100
AcDbLine
 10
19.9138318594326
 20
-0.0000000000000756
 30
0.0
 11
21.55338540912813
 21
-1.218423336893031
 31
0.0
  0
LINE
  5
54C
330
18
100
AcDbEntity
  8
1
 62
     1
100
AcDbLine
 10
19.91383185943271
 20
-0.0000000000000006
 30
0.0
 11
19.86717179062608
 21
0.0209138112982077
 31
0.0
  0
DIMENSION
  5
599
330
18
100
AcDbEntity
  8
2
100
AcDbDimension
  2
*D0
 10
89.84061245021765
 20
-7.938352529069054
 30
0.0
 11
89.84061245021765
 21
-21.87978110049761
 31
0.0
 70
   160
  1
%%c<>
 71
     5
 42
15.87670505813818
  3
SANDVIK_DIM
100
AcDbAlignedDimension
 13
52.27811246272756
 23
7.938352529069135
 33
0.0
 14
52.27811283926404
 24
-7.938352529069043
 34
0.0
 50
90.00000000000017
100
AcDbRotatedDimension
1001
ACAD
1000
DSTYLE
1002
{
1070
   279
1070
     0
1070
   140
1040
3.0
1070
    40
1040
1.0
1002
}
  0
DIMENSION
  5
5A7
330
18
100
AcDbEntity
  8
2
100
AcDbDimension
  2
*D1
 10
53.20416664915146
 20
73.07314465933888
 30
0.0
 11
26.60208332457574
 21
76.87314465933887
 31
0.0
 70
    32
  1
<>
 71
     5
 42
53.20416664915146
  3
SANDVIK_DIM
100
AcDbAlignedDimension
 13
0.0
 23
0.0
 33
0.0
 14
53.20416664915146
 24
-0.0000000000000045
 34
0.0
100
AcDbRotatedDimension
1001
ACAD
1000
DSTYLE
1002
{
1070
    40
1040
1.0
1070
   140
1040
3.0
1070
   279
1070
     0
1002
}
  0
DIMENSION
  5
5B4
330
18
100
AcDbEntity
  8
2
100
AcDbDimension
  2
*D2
 10
53.20416664915146
 20
51.02004252978949
 30
0.0
 11
38.50716921988879
 21
51.02004252978949
 31
0.0
 70
   160
 71
     5
 42
33.3369948585254
  3
SANDVIK_DIM
100
AcDbAlignedDimension
 13
19.86717179062608
 23
9.335956287205137
 33
0.0
 14
53.20416664915146
 24
7.288494723046087
 34
0.0
100
AcDbRotatedDimension
1001
ACAD
1000
DSTYLE
1002
{
1070
   279
1070
     0
1070
   140
1040
3.0
1070
    40
1040
1.0
1002
}
  0
DIMENSION
  5
5C1
330
18
100
AcDbEntity
  8
SK2
100
AcDbDimension
  2
*D3
 10
-89.41599867829422
 20
-7.938352529069033
 30
0.0
 11
-89.41599867829422
 21
-21.87978110049762
 31
0.0
 70
   160
  1
%%c<>
 71
     5
 42
15.87670505813817
  3
SANDVIK_DIM
100
AcDbAlignedDimension
 13
-47.60349869084468
 23
7.938352529069132
 33
0.0
 14
-47.60349869084468
 24
-7.938352529069043
 34
0.0
 50
90.00000000029242
100
AcDbRotatedDimension
1001
ACAD
1000
DSTYLE
1002
{
1070
   279
1070
     0
1070
   140
1040
3.0
1070
    40
1040
1.0
1002
}
  0
DIMENSION
  5
5CF
330
18
100
AcDbEntity
  8
SK2
100
AcDbDimension
  2
*D4
 10
53.20416664915146
 20
95.24999997
 30
0.0
 11
2.402666035825739
 21
99.04999997
 31
0.0
 70
    32
  1
<>
 71
     5
 42
101.6030012266514
  3
SANDVIK_DIM
100
AcDbAlignedDimension
 13
-48.3988345775
 23
0.0000000000000009
 33
0.0
 14
53.20416664915146
 24
-0.000000000000002
 34
0.0
100
AcDbRotatedDimension
1001
ACAD
1000
DSTYLE
1002
{
1070
   279
1070
     0
1070
   140
1040
3.0
1070
    40
1040
1.0
1002
}
  0
DIMENSION
  5
5DC
330
18
100
AcDbEntity
  8
2
100
AcDbDimension
  2
*D5
 10
53.20416664915146
 20
25.63464403980684
 30
0.0
 11
75.42988093486575
 21
29.43464403980684
 31
0.0
 70
    32
  1
0.508x35°
 71
     5
 42
0.9260541864238971
  3
SANDVIK_DIM
100
AcDbAlignedDimension
 13
52.27811246272756
 23
7.938352529069135
 33
0.0
 14
53.20416664915146
 24
7.288515089592769
 34
0.0
100
AcDbRotatedDimension
1001
ACAD
1000
DSTYLE
1002
{
1070
   279
1070
     0
1070
   140
1040
3.0
1070
    40
1040
1.0
1002
}
  0
LINE
  5
779
330
18
100
AcDbEntity
  8
1
100
AcDbLine
 10
19.48542608893157
 20
4.801165523303728
 30
0.0
 11
19.21892784865257
 21
4.799867113784161
 31
0.0
  0
LINE
  5
77A
330
18
100
AcDbEntity
  8
1
100
AcDbLine
 10
19.48541666040989
 20
3.857674771045143
 30
0.0
 11
19.63515624307305
 21
3.744828618973452
 31
0.0
  0
ARC
  5
77B
330
18
100
AcDbEntity
  8
1
100
AcDbCircle
 10
13.2347110305421
 20
-8.569351081559661
 30
0.0
 40
10.86282705510578
100
AcDbArc
 50
54.87083558236304
 51
59.9394576857288
  0
LINE
  5
77C
330
18
100
AcDbEntity
  8
1
100
AcDbLine
 10
19.48541666040989
 20
0.1920227479042314
 30
0.0
 11
18.48541666041013
 21
0.6402392172129018
 31
0.0
  0
LINE
  5
A5B
330
18
100
AcDbEntity
  8
SK1
100
AcDbLine
 10
0.0024910520223571
 20
7.938352529069135
 30
0.0
 11
-47.60349869084468
 21
7.938352529069134
 31
0.0
  0
LINE
  5
A61
330
18
100
AcDbEntity
  8
SK1
100
AcDbLine
 10
0.0
 20
-7.938352529069043
 30
0.0
 11
-47.60349869084468
 21
-7.938352529069043
 31
0.0
  0
LINE
  5
B01
330
18
100
AcDbEntity
  8
1
100
AcDbLine
 10
18.48541666041013
 20
0.6402392172129018
 30
0.0
 11
17.48541666041037
 21
1.088455686521569
 31
0.0
  0
ARC
  5
B02
330
18
100
AcDbEntity
  8
1
100
AcDbCircle
 10
28.49067834943033
 20
13.64261035558468
 30
0.0
 40
16.13803227807703
100
AcDbArc
 50
231.6841979063148
 51
232.5423048335924
  0
ARC
  5
B03
330
18
100
AcDbEntity
  8
1
100
AcDbCircle
 10
22.59759400178496
 20
12.73150420936569
 30
0.0
 40
9.193061546175961
100
AcDbArc
 50
243.4268647633167
 51
244.7491754302675
  0
LINE
  5
B04
330
18
100
AcDbEntity
  8
1
100
AcDbLine
 10
18.48517179062609
 20
4.760219539392431
 30
0.0
 11
18.05851336104889
 21
4.737165594363315
 31
0.0
  0
LINE
  5
B79
330
18
100
AcDbEntity
  8
SK1
100
AcDbLine
 10
-47.60349869084468
 20
7.938352529069134
 30
0.0
 11
-48.3988345775
 21
7.143016642413822
 31
0.0
  0
LINE
  5
B7A
330
18
100
AcDbEntity
  8
SK1
100
AcDbLine
 10
-48.3988345775
 20
7.143016642413822
 30
0.0
 11
-48.3988345775
 21
7.135900183966546
 31
0.0
  0
LINE
  5
B7B
330
18
100
AcDbEntity
  8
SK1
100
AcDbLine
 10
-48.3988345775
 20
7.135900183966546
 30
0.0
 11
-48.3988345775
 21
6.500751490068282
 31
0.0
  0
LINE
  5
B7C
330
18
100
AcDbEntity
  8
SK1
100
AcDbLine
 10
-48.3988345775
 20
6.500751490068282
 30
0.0
 11
-48.3988345775
 21
-7.173029317381782
 31
0.0
  0
LINE
  5
B7D
330
18
100
AcDbEntity
  8
SK1
100
AcDbLine
 10
-47.60349869084468
 20
7.938352529069134
 30
0.0
 11
-47.60349869084468
 21
-7.938352529069043
 31
0.0
  0
LINE
  5
B7E
330
18
100
AcDbEntity
  8
SK1
100
AcDbLine
 10
-47.60349869084468
 20
-7.938352529069043
 30
0.0
 11
-48.3988345775
 21
-7.173029317381782
 31
0.0
  0
LINE
  5
BCE
330
18
100
AcDbEntity
  8
1
100
AcDbLine
 10
-11.05715122339234
 20
-7.938352529069043
 30
0.0
 11
-11.05715122339234
 21
-7.938352529069043
 31
0.0
  0
LINE
  5
C58
330
18
100
AcDbEntity
  8
1
 62
     1
100
AcDbLine
 10
19.86601411900105
 20
-7.072893565407576
 30
0.0
 11
20.59427099149369
 21
-7.307311114460277
 31
0.0
  0
LINE
  5
C59
330
18
100
AcDbEntity
  8
1
 62
     1
100
AcDbLine
 10
19.8671717906261
 20
0.0348087869625521
 30
0.0
 11
19.9138318594326
 21
-0.0000000000000756
 31
0.0
  0
LINE
  5
C5A
330
18
100
AcDbEntity
  8
1
100
AcDbLine
 10
19.86717179062608
 20
0.0209138112982077
 30
0.0
 11
19.48541666040989
 21
0.1920227479042314
 31
0.0
  0
LINE
  5
C5B
330
18
100
AcDbEntity
  8
1
 62
     1
100
AcDbLine
 10
19.86717179062608
 20
3.585682746930246
 30
0.0
 11
21.55338540912813
 21
2.429062254901951
 31
0.0
  0
LINE
  5
C5C
330
18
100
AcDbEntity
  8
1
100
AcDbLine
 10
19.86717179062608
 20
4.803025431469031
 30
0.0
 11
19.48542608893157
 21
4.801165523303728
 31
0.0
  0
LINE
  5
C5D
330
18
100
AcDbEntity
  8
1
 62
     1
100
AcDbLine
 10
19.86717179062608
 20
7.937044073823335
 30
0.0
 11
19.91383185943271
 21
7.937499997498012
 31
0.0
  0
ENDSEC
  0
SECTION
  2
OBJECTS
  0
DICTIONARY
  5
C
330
0
100
AcDbDictionary
281
     1
  3
ACAD_CIP_PREVIOUS_PRODUCT_INFO
350
62C
  3
ACAD_COLOR
350
387
  3
ACAD_DETAILVIEWSTYLE
350
626
  3
ACAD_GROUP
350
D
  3
ACAD_LAYOUT
350
301
  3
ACAD_MATERIAL
350
386
  3
ACAD_MLEADERSTYLE
350
5EA
  3
ACAD_MLINESTYLE
350
E
  3
ACAD_PLOTSETTINGS
350
302
  3
ACAD_PLOTSTYLENAME
350
2FF
  3
ACAD_SCALELIST
350
3A0
  3
ACAD_SECTIONVIEWSTYLE
350
624
  3
ACAD_TABLESTYLE
350
388
  3
ACAD_VISUALSTYLE
350
609
  3
ACDB_RECOMPOSE_DATA
350
F73
  3
AcDbVariableDictionary
350
357
  3
AcDsDecomposeData
350
F79
  0
DICTIONARY
  5
802
330
2
100
AcDbDictionary
280
     1
281
     1
  3
ACAD_LAYERSTATES
360
803
  0
DICTIONARY
  5
62F
330
F
100
AcDbDictionary
280
     1
281
     1
  3
ADSK_XREC_LAYER_RECONCILED
360
630
  0
DICTIONARY
  5
631
330
23
100
AcDbDictionary
280
     1
281
     1
  3
ADSK_XREC_LAYER_RECONCILED
360
632
  0
DICTIONARY
  5
633
330
24
100
AcDbDictionary
280
     1
281
     1
  3
ADSK_XREC_LAYER_RECONCILED
360
634
  0
DICTIONARY
  5
635
330
25
100
AcDbDictionary
280
     1
281
     1
  3
ADSK_XREC_LAYER_RECONCILED
360
636
  0
DICTIONARY
  5
637
330
26
100
AcDbDictionary
280
     1
281
     1
  3
ADSK_XREC_LAYER_RECONCILED
360
638
  0
DICTIONARY
  5
639
330
27
100
AcDbDictionary
280
     1
281
     1
  3
ADSK_XREC_LAYER_RECONCILED
360
63A
  0
DICTIONARY
  5
63B
330
28
100
AcDbDictionary
280
     1
281
     1
  3
ADSK_XREC_LAYER_RECONCILED
360
63C
  0
DICTIONARY
  5
63D
330
29
100
AcDbDictionary
280
     1
281
     1
  3
ADSK_XREC_LAYER_RECONCILED
360
63E
  0
DICTIONARY
  5
63F
330
2A
100
AcDbDictionary
280
     1
281
     1
  3
ADSK_XREC_LAYER_RECONCILED
360
640
  0
DICTIONARY
  5
641
330
2B
100
AcDbDictionary
280
     1
281
     1
  3
ADSK_XREC_LAYER_RECONCILED
360
642
  0
DICTIONARY
  5
643
330
2C
100
AcDbDictionary
280
     1
281
     1
  3
ADSK_XREC_LAYER_RECONCILED
360
644
  0
DICTIONARY
  5
645
330
2D
100
AcDbDictionary
280
     1
281
     1
  3
ADSK_XREC_LAYER_RECONCILED
360
646
  0
DICTIONARY
  5
647
330
2E
100
AcDbDictionary
280
     1
281
     1
  3
ADSK_XREC_LAYER_RECONCILED
360
648
  0
DICTIONARY
  5
649
330
375
100
AcDbDictionary
280
     1
281
     1
  3
ADSK_XREC_LAYER_RECONCILED
360
64A
  0
DICTIONARY
  5
64B
330
376
100
AcDbDictionary
280
     1
281
     1
  3
ADSK_XREC_LAYER_RECONCILED
360
64C
  0
DICTIONARY
  5
777
330
18
100
AcDbDictionary
280
     1
281
     1
  3
ACAD_SORTENTS
360
778
  0
DICTIONARY
  5
D78
330
CE9
100
AcDbDictionary
280
     1
281
     1
  3
ACAD_SORTENTS
360
D79
  0
XRECORD
  5
62C
102
{ACAD_REACTORS
330
C
102
}
330
C
100
AcDbXrecord
280
     1
300
AMECH_PP
300
2014
300
86132PDSS_2014_0F
  0
DICTIONARY
  5
387
102
{ACAD_REACTORS
330
C
102
}
330
C
100
AcDbDictionary
281
     1
  0
DICTIONARY
  5
626
102
{ACAD_REACTORS
330
C
102
}
330
C
100
AcDbDictionary
281
     1
  3
Metric50
350
627
  0
DICTIONARY
  5
D
102
{ACAD_REACTORS
330
C
102
}
330
C
100
AcDbDictionary
281
     1
  0
DICTIONARY
  5
301
102
{ACAD_REACTORS
330
C
102
}
330
C
100
AcDbDictionary
281
     1
  3
Layout1
350
33B
  3
Model
350
303
  0
DICTIONARY
  5
386
102
{ACAD_REACTORS
330
C
102
}
330
C
100
AcDbDictionary
281
     1
  3
ByBlock
350
5F9
  3
ByLayer
350
5F1
  3
Global
350
601
  0
DICTIONARY
  5
5EA
102
{ACAD_REACTORS
330
C
102
}
330
C
100
AcDbDictionary
281
     1
  3
Standard
350
623
  0
DICTIONARY
  5
E
102
{ACAD_REACTORS
330
C
102
}
330
C
100
AcDbDictionary
281
     1
  3
STANDARD
350
1B
  0
DICTIONARY
  5
302
102
{ACAD_REACTORS
330
C
102
}
330
C
100
AcDbDictionary
281
     1
  0
ACDBDICTIONARYWDFLT
  5
2FF
102
{ACAD_REACTORS
330
C
102
}
330
C
100
AcDbDictionary
281
     1
  3
Normal
350
300
100
AcDbDictionaryWithDefault
340
300
  0
DICTIONARY
  5
3A0
102
{ACAD_REACTORS
330
C
102
}
330
C
100
AcDbDictionary
281
     1
  3
A0
350
3A1
  3
A1
350
3A2
  3
A2
350
3A3
  3
A3
350
3A4
  3
A4
350
3A5
  3
A5
350
3A6
  3
A6
350
3A7
  3
A7
350
3A8
  3
A8
350
3A9
  3
A9
350
3AA
  3
B0
350
3AB
  3
B1
350
3AC
  3
B2
350
3AD
  3
B3
350
3AE
  3
B4
350
3AF
  3
B5
350
3B0
  3
B6
350
3B1
  3
B7
350
3B2
  3
B8
350
3B3
  3
B9
350
3B4
  3
C0
350
3B5
  3
C1
350
3B6
  3
C2
350
3B7
  3
C3
350
3B8
  3
C4
350
3B9
  3
C5
350
3BA
  3
C6
350
3BB
  3
C7
350
3BC
  3
C8
350
3BD
  3
C9
350
3BE
  3
D0
350
3BF
  3
D1
350
3C0
  3
D2
350
3C1
  0
DICTIONARY
  5
624
102
{ACAD_REACTORS
330
C
102
}
330
C
100
AcDbDictionary
281
     1
  3
Metric50
350
625
  0
DICTIONARY
  5
388
102
{ACAD_REACTORS
330
C
102
}
330
C
100
AcDbDictionary
281
     1
  3
Standard
350
622
  0
DICTIONARY
  5
609
102
{ACAD_REACTORS
330
C
102
}
330
C
100
AcDbDictionary
281
     1
  3
2dWireframe
350
60F
  3
Basic
350
60E
  3
Brighten
350
615
  3
ColorChange
350
619
  3
Conceptual
350
612
  3
Dim
350
614
  3
EdgeColorOff
350
621
  3
Facepattern
350
618
  3
Flat
350
60A
  3
FlatWithEdges
350
60B
  3
Gouraud
350
60C
  3
GouraudWithEdges
350
60D
  3
Hidden
350
611
  3
JitterOff
350
61F
  3
Linepattern
350
617
  3
OverhangOff
350
620
  3
Realistic
350
613
  3
Shaded
350
61E
  3
Shaded with edges
350
61D
  3
Shades of Gray
350
61A
  3
Sketchy
350
61B
  3
Thicken
350
616
  3
Wireframe
350
610
  3
X-Ray
350
61C
  0
XRECORD
  5
F73
102
{ACAD_REACTORS
330
C
102
}
330
C
100
AcDbXrecord
280
     1
 90
        1
330
622
  0
DICTIONARY
  5
357
102
{ACAD_REACTORS
330
C
102
}
330
C
100
AcDbDictionary
281
     1
  3
CANNOSCALE
350
5EB
  3
CMLEADERSTYLE
350
64D
  3
CTABLESTYLE
350
38D
  3
CVIEWDETAILSTYLE
350
64E
  3
CVIEWSECTIONSTYLE
350
64F
  3
DIMASSOC
350
359
  3
HIDETEXT
350
358
  3
INDEXCTL
350
651
  3
PROJECTNAME
350
38E
  3
SORTENTS
350
650
  3
XCLIPFRAME
350
F71
  0
DICTIONARY
  5
F79
102
{ACAD_REACTORS
330
C
102
}
330
C
100
AcDbDictionary
281
     1
  3
AcDsRecords
350
F7B
  3
AcDsSchemas
350
F7A
1001
ACAD
1070
     2
  0
DICTIONARY
  5
803
102
{ACAD_REACTORS
330
802
102
}
330
802
100
AcDbDictionary
281
     1
  0
XRECORD
  5
630
102
{ACAD_REACTORS
330
62F
102
}
330
62F
100
AcDbXrecord
280
     1
290
     1
  0
XRECORD
  5
632
102
{ACAD_REACTORS
330
631
102
}
330
631
100
AcDbXrecord
280
     1
290
     1
  0
XRECORD
  5
634
102
{ACAD_REACTORS
330
633
102
}
330
633
100
AcDbXrecord
280
     1
290
     1
  0
XRECORD
  5
636
102
{ACAD_REACTORS
330
635
102
}
330
635
100
AcDbXrecord
280
     1
290
     1
  0
XRECORD
  5
638
102
{ACAD_REACTORS
330
637
102
}
330
637
100
AcDbXrecord
280
     1
290
     1
  0
XRECORD
  5
63A
102
{ACAD_REACTORS
330
639
102
}
330
639
100
AcDbXrecord
280
     1
290
     1
  0
XRECORD
  5
63C
102
{ACAD_REACTORS
330
63B
102
}
330
63B
100
AcDbXrecord
280
     1
290
     1
  0
XRECORD
  5
63E
102
{ACAD_REACTORS
330
63D
102
}
330
63D
100
AcDbXrecord
280
     1
290
     1
  0
XRECORD
  5
640
102
{ACAD_REACTORS
330
63F
102
}
330
63F
100
AcDbXrecord
280
     1
290
     1
  0
XRECORD
  5
642
102
{ACAD_REACTORS
330
641
102
}
330
641
100
AcDbXrecord
280
     1
290
     1
  0
XRECORD
  5
644
102
{ACAD_REACTORS
330
643
102
}
330
643
100
AcDbXrecord
280
     1
290
     1
  0
XRECORD
  5
646
102
{ACAD_REACTORS
330
645
102
}
330
645
100
AcDbXrecord
280
     1
290
     1
  0
XRECORD
  5
648
102
{ACAD_REACTORS
330
647
102
}
330
647
100
AcDbXrecord
280
     1
290
     1
  0
XRECORD
  5
64A
102
{ACAD_REACTORS
330
649
102
}
330
649
100
AcDbXrecord
280
     1
290
     1
  0
XRECORD
  5
64C
102
{ACAD_REACTORS
330
64B
102
}
330
64B
100
AcDbXrecord
280
     1
290
     1
  0
SORTENTSTABLE
  5
778
102
{ACAD_REACTORS
330
777
102
}
330
777
100
AcDbSortentsTable
330
18
331
3FE
  5
402
331
3FA
  5
3FE
331
474
  5
47A
331
3F6
  5
3FA
331
435
  5
43B
331
470
  5
476
331
4EE
  5
4FB
331
4AF
  5
4B6
331
4AB
  5
4B2
331
3F2
  5
3F6
331
431
  5
437
331
4EA
  5
4F7
331
46C
  5
472
331
468
  5
46E
331
4E6
  5
4F3
331
525
  5
532
331
4E2
  5
4EF
331
5B4
  5
B79
331
521
  5
52E
331
42D
  5
433
331
4A7
  5
4AE
331
3EE
  5
3F0
331
429
  5
42F
331
464
  5
46A
331
4A3
  5
4AA
331
3EA
  5
3EC
331
425
  5
429
331
51D
  5
52A
331
460
  5
466
331
4DE
  5
4E8
331
49F
  5
4A6
331
49B
  5
4A2
331
3E2
  5
3E2
331
421
  5
425
331
4DA
  5
4E4
331
519
  5
526
331
5DC
  5
B7C
331
77C
  5
A60
331
45C
  5
462
331
458
  5
45E
331
4D6
  5
4E0
331
515
  5
522
331
4D2
  5
4DC
331
511
  5
51E
331
54C
  5
A5E
331
548
  5
77A
331
497
  5
49E
331
3DE
  5
3DE
331
41D
  5
421
331
419
  5
41D
331
454
  5
45A
331
493
  5
49A
331
3DA
  5
3DA
331
3D6
  5
3D6
331
415
  5
419
331
50D
  5
51A
331
450
  5
456
331
4CE
  5
4D8
331
48F
  5
496
331
48B
  5
492
331
3D2
  5
3D2
331
411
  5
415
331
4CA
  5
4D4
331
509
  5
516
331
544
  5
552
331
C5B
  5
3F2
331
44C
  5
452
331
448
  5
44E
331
4C6
  5
4D0
331
505
  5
512
331
540
  5
54D
331
4C2
  5
4CB
331
501
  5
50E
331
53C
  5
549
331
538
  5
545
331
487
  5
48E
331
3CE
  5
3CE
331
40D
  5
411
331
409
  5
40D
331
444
  5
44A
331
483
  5
48A
331
3CA
  5
3CA
331
3C6
  5
3C6
331
405
  5
409
331
4FD
  5
50A
331
440
  5
446
331
4BE
  5
4C5
331
47F
  5
486
331
47B
  5
482
331
3C2
  5
3C2
331
401
  5
405
331
4F9
  5
506
331
43C
  5
442
331
534
  5
541
331
B7B
  5
C59
331
4BA
  5
4C1
331
4B6
  5
4BD
331
4F5
  5
502
331
530
  5
53D
331
438
  5
43E
331
B03
  5
A5C
331
4B2
  5
4B9
331
4F1
  5
4FE
331
52C
  5
539
331
528
  5
535
331
477
  5
47E
331
3FD
  5
401
331
3F9
  5
3FD
331
473
  5
479
331
4AE
  5
4B5
331
3F5
  5
3F9
331
434
  5
43A
331
46F
  5
475
331
4ED
  5
4FA
331
4AA
  5
4B1
331
3F1
  5
3F4
331
430
  5
436
331
4E9
  5
4F6
331
46B
  5
471
331
4E5
  5
4F2
331
524
  5
531
331
A5B
  5
B7D
331
4E1
  5
4EE
331
520
  5
52D
331
42C
  5
432
331
467
  5
46D
331
4A6
  5
4AD
331
3ED
  5
3EF
331
428
  5
42D
331
463
  5
469
331
4A2
  5
4A9
331
424
  5
428
331
51C
  5
529
331
45F
  5
465
331
4DD
  5
4E7
331
49E
  5
4A5
331
49A
  5
4A1
331
3E1
  5
3E1
331
420
  5
424
331
4D9
  5
4E3
331
518
  5
525
331
77B
  5
4E9
331
45B
  5
461
331
4D5
  5
4DF
331
5A7
  5
B04
331
514
  5
521
331
54B
  5
A5D
331
4D1
  5
4DB
331
510
  5
51D
331
41C
  5
420
331
457
  5
45D
331
496
  5
49D
331
3DD
  5
3DD
331
418
  5
41C
331
453
  5
459
331
492
  5
499
331
3D9
  5
3D9
331
3D5
  5
3D5
331
414
  5
418
331
50C
  5
519
331
44F
  5
455
331
5CF
  5
B7B
331
547
  5
779
331
4CD
  5
4D7
331
48E
  5
495
331
48A
  5
491
331
3D1
  5
3D1
331
410
  5
414
331
4C9
  5
4D3
331
508
  5
515
331
543
  5
551
331
C5A
  5
A5F
331
44B
  5
451
331
BCE
  5
C5D
331
4C5
  5
4CE
331
504
  5
511
331
53F
  5
54C
331
4C1
  5
4CA
331
500
  5
50D
331
53B
  5
548
331
5C1
  5
B7A
331
599
  5
A62
331
447
  5
44D
331
486
  5
48D
331
3CD
  5
3CD
331
40C
  5
410
331
408
  5
40C
331
443
  5
449
331
482
  5
489
331
3C9
  5
3C9
331
3C5
  5
3C5
331
404
  5
408
331
4FC
  5
509
331
43F
  5
445
331
537
  5
544
331
B7E
  5
C5C
331
4BD
  5
4C4
331
47E
  5
485
331
47A
  5
481
331
400
  5
404
331
4B9
  5
4C0
331
4F8
  5
505
331
533
  5
540
331
B7A
  5
C58
331
43B
  5
441
331
4B5
  5
4BC
331
4F4
  5
501
331
52F
  5
53C
331
B02
  5
42B
331
4B1
  5
4B8
331
4F0
  5
4FD
331
52B
  5
538
331
3FC
  5
400
331
3F8
  5
3FC
331
437
  5
43D
331
472
  5
478
331
4AD
  5
4B4
331
3F4
  5
3F8
331
433
  5
439
331
4EC
  5
4F9
331
46E
  5
474
331
46A
  5
470
331
4A9
  5
4B0
331
4E8
  5
4F5
331
527
  5
534
331
4E4
  5
4F1
331
523
  5
530
331
4E0
  5
4EC
331
42F
  5
435
331
42B
  5
431
331
466
  5
46C
331
4A5
  5
4AC
331
3EC
  5
3EE
331
51F
  5
52C
331
462
  5
468
331
4A1
  5
4A8
331
49D
  5
4A4
331
3E4
  5
3E4
331
423
  5
427
331
51B
  5
528
331
45E
  5
464
331
4DC
  5
4E6
331
499
  5
4A0
331
3E0
  5
3E0
331
4D8
  5
4E2
331
517
  5
524
331
77A
  5
4CF
331
45A
  5
460
331
4D4
  5
4DE
331
513
  5
520
331
54A
  5
A5B
331
4D0
  5
4DA
331
41F
  5
423
331
41B
  5
41F
331
456
  5
45C
331
495
  5
49C
331
3DC
  5
3DC
331
3D8
  5
3D8
331
417
  5
41B
331
452
  5
458
331
491
  5
498
331
50F
  5
51C
331
3D4
  5
3D4
331
413
  5
417
331
50B
  5
518
331
44E
  5
454
331
546
  5
597
331
C5D
  5
42E
331
4CC
  5
4D6
331
48D
  5
494
331
489
  5
490
331
3D0
  5
3D0
331
4C8
  5
4D2
331
507
  5
514
331
542
  5
550
331
C59
  5
3F5
331
44A
  5
450
331
4C4
  5
4CD
331
503
  5
510
331
53E
  5
54B
331
53A
  5
547
331
40F
  5
413
331
40B
  5
40F
331
446
  5
44C
331
485
  5
48C
331
3CC
  5
3CC
331
407
  5
40B
331
442
  5
448
331
481
  5
488
331
4FF
  5
50C
331
3C8
  5
3C8
331
403
  5
407
331
4FB
  5
508
331
43E
  5
444
331
536
  5
543
331
B7D
  5
C5B
331
4BC
  5
4C3
331
47D
  5
484
331
479
  5
480
331
4B8
  5
4BF
331
4F7
  5
504
331
532
  5
53F
331
B79
  5
BCE
331
43A
  5
440
331
4B4
  5
4BB
331
4F3
  5
500
331
52E
  5
53B
331
B01
  5
A61
331
4B0
  5
4B7
331
52A
  5
537
331
3FF
  5
403
331
475
  5
47B
331
3FB
  5
3FF
331
3F7
  5
3FB
331
436
  5
43C
331
471
  5
477
331
4EF
  5
4FC
331
4AC
  5
4B3
331
3F3
  5
3F7
331
432
  5
438
331
4EB
  5
4F8
331
46D
  5
473
331
469
  5
46F
331
4A8
  5
4AF
331
4E7
  5
4F4
331
526
  5
533
331
A61
  5
B7E
331
4E3
  5
4F0
331
522
  5
52F
331
3EF
  5
3F1
331
42E
  5
434
331
42A
  5
430
331
465
  5
46B
331
4A4
  5
4AB
331
3EB
  5
3ED
331
426
  5
42A
331
51E
  5
52B
331
461
  5
467
331
4A0
  5
4A7
331
49C
  5
4A3
331
3E3
  5
3E3
331
422
  5
426
331
4DB
  5
4E5
331
51A
  5
527
331
45D
  5
463
331
459
  5
45F
331
498
  5
49F
331
4D7
  5
4E1
331
516
  5
523
331
779
  5
77C
331
4D3
  5
4DD
331
512
  5
51F
331
549
  5
77D
331
3DF
  5
3DF
331
41E
  5
422
331
41A
  5
41E
331
455
  5
45B
331
494
  5
49B
331
3DB
  5
3DB
331
3D7
  5
3D7
331
416
  5
41A
331
50E
  5
51B
331
451
  5
457
331
4CF
  5
4D9
331
490
  5
497
331
48C
  5
493
331
3D3
  5
3D3
331
412
  5
416
331
50A
  5
517
331
44D
  5
453
331
545
  5
553
331
C5C
  5
77B
331
4CB
  5
4D5
331
488
  5
48F
331
4C7
  5
4D1
331
506
  5
513
331
541
  5
54F
331
C58
  5
4ED
331
449
  5
44F
331
4C3
  5
4CC
331
502
  5
50F
331
53D
  5
54A
331
539
  5
546
331
3CF
  5
3CF
331
40E
  5
412
331
40A
  5
40E
331
445
  5
44B
331
484
  5
48B
331
3CB
  5
3CB
331
3C7
  5
3C7
331
406
  5
40A
331
441
  5
447
331
480
  5
487
331
4FE
  5
50B
331
3C3
  5
3C3
331
402
  5
406
331
4FA
  5
507
331
43D
  5
443
331
535
  5
542
331
B7C
  5
C5A
331
4BB
  5
4C2
331
47C
  5
483
331
478
  5
47F
331
4B7
  5
4BE
331
4F6
  5
503
331
531
  5
53E
331
439
  5
43F
331
B04
  5
77E
331
4B3
  5
4BA
331
4F2
  5
4FF
331
52D
  5
53A
331
529
  5
536
  0
SORTENTSTABLE
  5
D79
102
{ACAD_REACTORS
330
D78
102
}
330
D78
100
AcDbSortentsTable
330
CE9
  0
ACDBDETAILVIEWSTYLE
  5
627
102
{ACAD_XDICTIONARY
360
FAF
102
}
102
{ACAD_REACTORS
330
626
102
}
330
626
100
AcDbModelDocViewStyle
 70
     0
  3
Metric50
290
     0
100
AcDbDetailViewStyle
 70
     0
 71
     0
 90
        3
 71
     1
340
10
 62
   256
 40
5.0
340
0
 62
   256
 40
5.0
300

 40
0.0
280
     1
 71
     2
340
14
 90
       25
 62
   256
 71
     3
340
10
 62
   256
 40
5.0
 90
        0
 40
15.0
 90
        1
300
%<\AcVar ViewDetailId>% (%<\AcVar ViewScale \f "%sn">%)
 71
     4
340
14
 90
       25
 62
   256
340
14
 90
       25
 62
   256
280
     0
  0
LAYOUT
  5
33B
102
{ACAD_REACTORS
330
301
102
}
330
301
100
AcDbPlotSettings
  1

  2
Lexmark Optra PS2
  4

  6

 40
0.0
 41
0.0
 42
0.0
 43
0.0
 44
0.0
 45
0.0
 46
0.0
 47
0.0
 48
0.0
 49
0.0
140
0.0
141
0.0
142
1.0
143
1.0
 70
   688
 72
     0
 73
     0
 74
     5
  7
monochrome.ctb
 75
    16
147
1.0
 76
     0
 77
     2
 78
   300
148
0.0
149
0.0
100
AcDbLayout
  1
Layout1
 70
     1
 71
     1
 10
0.0
 20
0.0
 11
12.0
 21
9.0
 12
0.0
 22
0.0
 32
0.0
 14
0.0
 24
0.0
 34
0.0
 15
0.0
 25
0.0
 35
0.0
146
0.0
 13
0.0
 23
0.0
 33
0.0
 16
1.0
 26
0.0
 36
0.0
 17
0.0
 27
1.0
 37
0.0
 76
     0
330
338
  0
LAYOUT
  5
303
102
{ACAD_REACTORS
330
301
102
}
330
301
100
AcDbPlotSettings
  1

  2
Lexmark Optra Rx
  4
A4
  6

 40
6.805083274841307
 41
5.535083293914794
 42
6.974411010742187
 43
7.14373779296875
 44
209.9733276367186
 45
296.9259948730469
 46
0.0
 47
0.0
 48
0.0
 49
0.0
140
0.0
141
0.0
142
1.0
143
2.976565420630883
 70
 11952
 72
     1
 73
     1
 74
     0
  7
monochrome.ctb
 75
     0
147
0.335957675604539
 76
     0
 77
     2
 78
   300
148
204.1199660668592
149
172.3933209647495
100
AcDbLayout
  1
Model
 70
     1
 71
     0
 10
0.0
 20
0.0
 11
12.0
 21
9.0
 12
0.0
 22
0.0
 32
0.0
 14
0.0
 24
0.0
 34
0.0
 15
0.0
 25
0.0
 35
0.0
146
0.0
 13
0.0
 23
0.0
 33
0.0
 16
1.0
 26
0.0
 36
0.0
 17
0.0
 27
1.0
 37
0.0
 76
     0
330
18
331
39A
  0
MATERIAL
  5
5F9
102
{ACAD_XDICTIONARY
360
5FA
102
}
102
{ACAD_REACTORS
330
386
102
}
330
386
100
AcDbMaterial
  1
ByBlock
 72
     0
 43
0.0008202099737533
 43
0.0
 43
0.0
 43
0.0
 43
0.0
 43
0.0008202099737533
 43
0.0
 43
0.0
 43
0.0
 43
0.0
 43
1.0
 43
0.0
 43
0.0
 43
0.0
 43
0.0
 43
1.0
 77
     0
 47
0.0008202099737533
 47
0.0
 47
0.0
 47
0.0
 47
0.0
 47
0.0008202099737533
 47
0.0
 47
0.0
 47
0.0
 47
0.0
 47
1.0
 47
0.0
 47
0.0
 47
0.0
 47
0.0
 47
1.0
171
     0
 49
0.0008202099737533
 49
0.0
 49
0.0
 49
0.0
 49
0.0
 49
0.0008202099737533
 49
0.0
 49
0.0
 49
0.0
 49
0.0
 49
1.0
 49
0.0
 49
0.0
 49
0.0
 49
0.0
 49
1.0
175
     0
142
0.0008202099737533
142
0.0
142
0.0
142
0.0
142
0.0
142
0.0008202099737533
142
0.0
142
0.0
142
0.0
142
0.0
142
1.0
142
0.0
142
0.0
142
0.0
142
0.0
142
1.0
179
     0
144
0.0008202099737533
144
0.0
144
0.0
144
0.0
144
0.0
144
0.0008202099737533
144
0.0
144
0.0
144
0.0
144
0.0
144
1.0
144
0.0
144
0.0
144
0.0
144
0.0
144
1.0
147
0.0008202099737533
147
0.0
147
0.0
147
0.0
147
0.0
147
0.0008202099737533
147
0.0
147
0.0
147
0.0
147
0.0
147
1.0
147
0.0
147
0.0
147
0.0
147
0.0
147
1.0
  0
MATERIAL
  5
5F1
102
{ACAD_XDICTIONARY
360
5F2
102
}
102
{ACAD_REACTORS
330
386
102
}
330
386
100
AcDbMaterial
  1
ByLayer
 72
     0
 43
0.0008202099737533
 43
0.0
 43
0.0
 43
0.0
 43
0.0
 43
0.0008202099737533
 43
0.0
 43
0.0
 43
0.0
 43
0.0
 43
1.0
 43
0.0
 43
0.0
 43
0.0
 43
0.0
 43
1.0
 77
     0
 47
0.0008202099737533
 47
0.0
 47
0.0
 47
0.0
 47
0.0
 47
0.0008202099737533
 47
0.0
 47
0.0
 47
0.0
 47
0.0
 47
1.0
 47
0.0
 47
0.0
 47
0.0
 47
0.0
 47
1.0
171
     0
 49
0.0008202099737533
 49
0.0
 49
0.0
 49
0.0
 49
0.0
 49
0.0008202099737533
 49
0.0
 49
0.0
 49
0.0
 49
0.0
 49
1.0
 49
0.0
 49
0.0
 49
0.0
 49
0.0
 49
1.0
175
     0
142
0.0008202099737533
142
0.0
142
0.0
142
0.0
142
0.0
142
0.0008202099737533
142
0.0
142
0.0
142
0.0
142
0.0
142
1.0
142
0.0
142
0.0
142
0.0
142
0.0
142
1.0
179
     0
144
0.0008202099737533
144
0.0
144
0.0
144
0.0
144
0.0
144
0.0008202099737533
144
0.0
144
0.0
144
0.0
144
0.0
144
1.0
144
0.0
144
0.0
144
0.0
144
0.0
144
1.0
147
0.0008202099737533
147
0.0
147
0.0
147
0.0
147
0.0
147
0.0008202099737533
147
0.0
147
0.0
147
0.0
147
0.0
147
1.0
147
0.0
147
0.0
147
0.0
147
0.0
147
1.0
  0
MATERIAL
  5
601
102
{ACAD_XDICTIONARY
360
602
102
}
102
{ACAD_REACTORS
330
386
102
}
330
386
100
AcDbMaterial
  1
Global
 72
     0
 43
0.0008202099737533
 43
0.0
 43
0.0
 43
0.0
 43
0.0
 43
0.0008202099737533
 43
0.0
 43
0.0
 43
0.0
 43
0.0
 43
1.0
 43
0.0
 43
0.0
 43
0.0
 43
0.0
 43
1.0
 77
     0
 47
0.0008202099737533
 47
0.0
 47
0.0
 47
0.0
 47
0.0
 47
0.0008202099737533
 47
0.0
 47
0.0
 47
0.0
 47
0.0
 47
1.0
 47
0.0
 47
0.0
 47
0.0
 47
0.0
 47
1.0
171
     0
 49
0.0008202099737533
 49
0.0
 49
0.0
 49
0.0
 49
0.0
 49
0.0008202099737533
 49
0.0
 49
0.0
 49
0.0
 49
0.0
 49
1.0
 49
0.0
 49
0.0
 49
0.0
 49
0.0
 49
1.0
175
     0
142
0.0008202099737533
142
0.0
142
0.0
142
0.0
142
0.0
142
0.0008202099737533
142
0.0
142
0.0
142
0.0
142
0.0
142
1.0
142
0.0
142
0.0
142
0.0
142
0.0
142
1.0
179
     0
144
0.0008202099737533
144
0.0
144
0.0
144
0.0
144
0.0
144
0.0008202099737533
144
0.0
144
0.0
144
0.0
144
0.0
144
1.0
144
0.0
144
0.0
144
0.0
144
0.0
144
1.0
147
0.0008202099737533
147
0.0
147
0.0
147
0.0
147
0.0
147
0.0008202099737533
147
0.0
147
0.0
147
0.0
147
0.0
147
1.0
147
0.0
147
0.0
147
0.0
147
0.0
147
1.0
  0
MLEADERSTYLE
  5
623
102
{ACAD_REACTORS
330
5EA
102
}
330
5EA
100
AcDbMLeaderStyle
170
     2
171
     1
172
     0
 90
        2
 40
0.0
 41
0.0
173
     1
 91
-1056964608
340
12
 92
       -2
290
     1
 42
2.0
291
     1
 43
0.36
  3
Standard
 44
4.0
300

342
10
174
     1
178
     6
175
     1
176
     0
 93
-1056964608
 45
4.0
292
     0
297
     0
 46
4.0
 94
-1056964608
 47
1.0
 49
1.0
140
1.0
293
     1
141
0.0
294
     1
177
     0
142
1.0
295
     0
296
     0
143
0.125
1001
ACAD_MLEADERVER
1070
     2
  0
MLINESTYLE
  5
1B
102
{ACAD_REACTORS
330
E
102
}
330
E
100
AcDbMlineStyle
  2
STANDARD
 70
     0
  3

 62
     0
 51
90.0
 52
90.0
 71
     2
 49
0.5
 62
   256
  6
BYLAYER
 49
-0.5
 62
   256
  6
BYLAYER
  0
ACDBPLACEHOLDER
  5
300
102
{ACAD_REACTORS
330
2FF
102
}
330
2FF
  0
SCALE
  5
3A1
102
{ACAD_REACTORS
330
3A0
102
}
330
3A0
100
AcDbScale
 70
     0
300
1:1
140
1.0
141
1.0
290
     1
  0
SCALE
  5
3A2
102
{ACAD_REACTORS
330
3A0
102
}
330
3A0
100
AcDbScale
 70
     0
300
1:2
140
1.0
141
2.0
290
     0
  0
SCALE
  5
3A3
102
{ACAD_REACTORS
330
3A0
102
}
330
3A0
100
AcDbScale
 70
     0
300
1:4
140
1.0
141
4.0
290
     0
  0
SCALE
  5
3A4
102
{ACAD_REACTORS
330
3A0
102
}
330
3A0
100
AcDbScale
 70
     0
300
1:5
140
1.0
141
5.0
290
     0
  0
SCALE
  5
3A5
102
{ACAD_REACTORS
330
3A0
102
}
330
3A0
100
AcDbScale
 70
     0
300
1:8
140
1.0
141
8.0
290
     0
  0
SCALE
  5
3A6
102
{ACAD_REACTORS
330
3A0
102
}
330
3A0
100
AcDbScale
 70
     0
300
1:10
140
1.0
141
10.0
290
     0
  0
SCALE
  5
3A7
102
{ACAD_REACTORS
330
3A0
102
}
330
3A0
100
AcDbScale
 70
     0
300
1:16
140
1.0
141
16.0
290
     0
  0
SCALE
  5
3A8
102
{ACAD_REACTORS
330
3A0
102
}
330
3A0
100
AcDbScale
 70
     0
300
1:20
140
1.0
141
20.0
290
     0
  0
SCALE
  5
3A9
102
{ACAD_REACTORS
330
3A0
102
}
330
3A0
100
AcDbScale
 70
     0
300
1:30
140
1.0
141
30.0
290
     0
  0
SCALE
  5
3AA
102
{ACAD_REACTORS
330
3A0
102
}
330
3A0
100
AcDbScale
 70
     0
300
1:40
140
1.0
141
40.0
290
     0
  0
SCALE
  5
3AB
102
{ACAD_REACTORS
330
3A0
102
}
330
3A0
100
AcDbScale
 70
     0
300
1:50
140
1.0
141
50.0
290
     0
  0
SCALE
  5
3AC
102
{ACAD_REACTORS
330
3A0
102
}
330
3A0
100
AcDbScale
 70
     0
300
1:100
140
1.0
141
100.0
290
     0
  0
SCALE
  5
3AD
102
{ACAD_REACTORS
330
3A0
102
}
330
3A0
100
AcDbScale
 70
     0
300
2:1
140
2.0
141
1.0
290
     0
  0
SCALE
  5
3AE
102
{ACAD_REACTORS
330
3A0
102
}
330
3A0
100
AcDbScale
 70
     0
300
4:1
140
4.0
141
1.0
290
     0
  0
SCALE
  5
3AF
102
{ACAD_REACTORS
330
3A0
102
}
330
3A0
100
AcDbScale
 70
     0
300
8:1
140
8.0
141
1.0
290
     0
  0
SCALE
  5
3B0
102
{ACAD_REACTORS
330
3A0
102
}
330
3A0
100
AcDbScale
 70
     0
300
10:1
140
10.0
141
1.0
290
     0
  0
SCALE
  5
3B1
102
{ACAD_REACTORS
330
3A0
102
}
330
3A0
100
AcDbScale
 70
     0
300
100:1
140
100.0
141
1.0
290
     0
  0
SCALE
  5
3B2
102
{ACAD_REACTORS
330
3A0
102
}
330
3A0
100
AcDbScale
 70
     0
300
1/128" = 1'-0"
140
0.0078125
141
12.0
290
     0
  0
SCALE
  5
3B3
102
{ACAD_REACTORS
330
3A0
102
}
330
3A0
100
AcDbScale
 70
     0
300
1/64" = 1'-0"
140
0.015625
141
12.0
290
     0
  0
SCALE
  5
3B4
102
{ACAD_REACTORS
330
3A0
102
}
330
3A0
100
AcDbScale
 70
     0
300
1/32" = 1'-0"
140
0.03125
141
12.0
290
     0
  0
SCALE
  5
3B5
102
{ACAD_REACTORS
330
3A0
102
}
330
3A0
100
AcDbScale
 70
     0
300
1/16" = 1'-0"
140
0.0625
141
12.0
290
     0
  0
SCALE
  5
3B6
102
{ACAD_REACTORS
330
3A0
102
}
330
3A0
100
AcDbScale
 70
     0
300
3/32" = 1'-0"
140
0.09375
141
12.0
290
     0
  0
SCALE
  5
3B7
102
{ACAD_REACTORS
330
3A0
102
}
330
3A0
100
AcDbScale
 70
     0
300
1/8" = 1'-0"
140
0.125
141
12.0
290
     0
  0
SCALE
  5
3B8
102
{ACAD_REACTORS
330
3A0
102
}
330
3A0
100
AcDbScale
 70
     0
300
3/16" = 1'-0"
140
0.1875
141
12.0
290
     0
  0
SCALE
  5
3B9
102
{ACAD_REACTORS
330
3A0
102
}
330
3A0
100
AcDbScale
 70
     0
300
1/4" = 1'-0"
140
0.25
141
12.0
290
     0
  0
SCALE
  5
3BA
102
{ACAD_REACTORS
330
3A0
102
}
330
3A0
100
AcDbScale
 70
     0
300
3/8" = 1'-0"
140
0.375
141
12.0
290
     0
  0
SCALE
  5
3BB
102
{ACAD_REACTORS
330
3A0
102
}
330
3A0
100
AcDbScale
 70
     0
300
1/2" = 1'-0"
140
0.5
141
12.0
290
     0
  0
SCALE
  5
3BC
102
{ACAD_REACTORS
330
3A0
102
}
330
3A0
100
AcDbScale
 70
     0
300
3/4" = 1'-0"
140
0.75
141
12.0
290
     0
  0
SCALE
  5
3BD
102
{ACAD_REACTORS
330
3A0
102
}
330
3A0
100
AcDbScale
 70
     0
300
1" = 1'-0"
140
1.0
141
12.0
290
     0
  0
SCALE
  5
3BE
102
{ACAD_REACTORS
330
3A0
102
}
330
3A0
100
AcDbScale
 70
     0
300
1-1/2" = 1'-0"
140
1.5
141
12.0
290
     0
  0
SCALE
  5
3BF
102
{ACAD_REACTORS
330
3A0
102
}
330
3A0
100
AcDbScale
 70
     0
300
3" = 1'-0"
140
3.0
141
12.0
290
     0
  0
SCALE
  5
3C0
102
{ACAD_REACTORS
330
3A0
102
}
330
3A0
100
AcDbScale
 70
     0
300
6" = 1'-0"
140
6.0
141
12.0
290
     0
  0
SCALE
  5
3C1
102
{ACAD_REACTORS
330
3A0
102
}
330
3A0
100
AcDbScale
 70
     0
300
1'-0" = 1'-0"
140
12.0
141
12.0
290
     0
  0
ACDBSECTIONVIEWSTYLE
  5
625
102
{ACAD_XDICTIONARY
360
FAD
102
}
102
{ACAD_REACTORS
330
624
102
}
330
624
100
AcDbModelDocViewStyle
 70
     0
  3
Metric50
290
     0
100
AcDbSectionViewStyle
 70
     0
 71
     0
 90
      102
 71
     1
340
10
 62
   256
 40
5.0
340
0
340
0
 62
   256
 40
5.0
300
I, O, Q, S, X, Z
 40
10.0
 90
        0
 40
2.5
 90
        0
 71
     2
340
14
 90
       25
 62
   256
340
14
 90
       50
 62
   256
 40
5.0
 40
2.5
 40
5.0
 71
     3
340
10
 62
   256
 40
5.0
 90
        0
 40
15.0
 90
        1
300
%<\AcVar ViewSectionStartId>%-%<\AcVar ViewSectionEndId>% (%<\AcVar ViewScale \f "%sn">%)
 71
     4
 62
   256
 62
   257
300
ANSI31
 40
1.0
 90
        0
290
     0
290
     0
 90
        6
 40
0.0
 40
1.570796326794896
 40
0.2617993877991494
 40
1.308996938995747
 40
-0.2617993877991494
 40
1.832595714594044
  0
TABLESTYLE
  5
622
102
{ACAD_XDICTIONARY
360
654
102
}
102
{ACAD_REACTORS
330
388
102
}
330
388
100
AcDbTableStyle
  3
Standard
 70
     0
 71
     0
 40
1.5
 41
1.5
280
     0
281
     0
  7
STANDARD
140
4.5
170
     2
 62
     0
 63
     7
283
     0
274
    -2
284
     1
 64
     0
275
    -2
285
     1
 65
     0
276
    -2
286
     1
 66
     0
277
    -2
287
     1
 67
     0
278
    -2
288
     1
 68
     0
279
    -2
289
     1
 69
     0
  7
STANDARD
140
6.0
170
     5
 62
     0
 63
     7
283
     0
274
    -2
284
     1
 64
     0
275
    -2
285
     1
 65
     0
276
    -2
286
     1
 66
     0
277
    -2
287
     1
 67
     0
278
    -2
288
     1
 68
     0
279
    -2
289
     1
 69
     0
  7
STANDARD
140
4.5
170
     5
 62
     0
 63
     7
283
     0
274
    -2
284
     1
 64
     0
275
    -2
285
     1
 65
     0
276
    -2
286
     1
 66
     0
277
    -2
287
     1
 67
     0
278
    -2
288
     1
 68
     0
279
    -2
289
     1
 69
     0
  0
VISUALSTYLE
  5
60F
102
{ACAD_XDICTIONARY
360
F86
102
}
102
{ACAD_REACTORS
330
609
102
}
330
609
100
AcDbVisualStyle
  2

 70
     4
 71
     0
 72
     2
 73
     0
 90
        0
 40
-0.6
 41
-30.0
 62
     5
 63
     7
 74
     1
 91
        4
 64
     7
 65
   257
 75
     1
175
     1
 42
1.0
 92
        0
 66
   257
 43
1.0
 76
     1
 77
     6
 78
     2
 67
     7
 79
     5
170
     0
171
     0
290
     0
174
     0
 93
        1
 44
0.0
173
     0
291
     0
 45
0.0
1001
ACAD
1000
AcDbSavedByObjectVersion
1070
     0
  0
VISUALSTYLE
  5
60E
102
{ACAD_XDICTIONARY
360
F84
102
}
102
{ACAD_REACTORS
330
609
102
}
330
609
100
AcDbVisualStyle
  2

 70
     7
 71
     1
 72
     0
 73
     1
 90
        0
 40
-0.6
 41
-30.0
 62
     5
 63
     7
 74
     0
 91
        4
 64
     7
 65
   257
 75
     1
175
     1
 42
1.0
 92
        8
 66
     7
 43
1.0
 76
     1
 77
     6
 78
     2
 67
     7
 79
     5
170
     0
171
     0
290
     0
174
     0
 93
        1
 44
0.0
173
     0
291
     1
 45
0.0
1001
ACAD
1000
AcDbSavedByObjectVersion
1070
     0
  0
VISUALSTYLE
  5
615
102
{ACAD_XDICTIONARY
360
F92
102
}
102
{ACAD_REACTORS
330
609
102
}
330
609
100
AcDbVisualStyle
  2

 70
    12
 71
     2
 72
     2
 73
     0
 90
        0
 40
-0.6
 41
-30.0
 62
     5
 63
     7
 74
     1
 91
        4
 64
     7
 65
   257
 75
     1
175
     1
 42
1.0
 92
        8
 66
     7
 43
1.0
 76
     1
 77
     6
 78
     2
 67
     7
 79
     5
170
     0
171
     0
290
     0
174
     0
 93
        1
 44
50.0
173
     0
291
     1
 45
0.0
1001
ACAD
1000
AcDbSavedByObjectVersion
1070
     0
  0
VISUALSTYLE
  5
619
102
{ACAD_XDICTIONARY
360
F9A
102
}
102
{ACAD_REACTORS
330
609
102
}
330
609
100
AcDbVisualStyle
  2

 70
    16
 71
     2
 72
     2
 73
     3
 90
        0
 40
-0.6
 41
-30.0
 62
     5
 63
     8
 74
     1
 91
        4
 64
     7
 65
   257
 75
     1
175
     1
 42
1.0
 92
        8
 66
     8
 43
1.0
 76
     1
 77
     6
 78
     2
 67
     7
 79
     5
170
     0
171
     0
290
     0
174
     0
 93
        1
 44
0.0
173
     0
291
     1
 45
0.0
1001
ACAD
1000
AcDbSavedByObjectVersion
1070
     0
  0
VISUALSTYLE
  5
612
102
{ACAD_XDICTIONARY
360
F8C
102
}
102
{ACAD_REACTORS
330
609
102
}
330
609
100
AcDbVisualStyle
  2

 70
     9
 71
     3
 72
     2
 73
     0
 90
        0
 40
-0.6
 41
-30.0
 62
     5
 63
     7
 74
     2
 91
        2
 64
     7
 65
   257
 75
     1
175
     1
 42
179.0
 92
        8
 66
     7
 43
1.0
 76
     1
 77
     6
 78
     2
 67
     7
 79
     3
170
     0
171
     0
290
     0
174
     0
 93
        1
 44
0.0
173
     0
291
     0
 45
0.0
1001
ACAD
1000
AcDbSavedByObjectVersion
1070
     0
  0
VISUALSTYLE
  5
614
102
{ACAD_XDICTIONARY
360
F90
102
}
102
{ACAD_REACTORS
330
609
102
}
330
609
100
AcDbVisualStyle
  2

 70
    11
 71
     2
 72
     2
 73
     0
 90
        0
 40
-0.6
 41
-30.0
 62
     5
 63
     7
 74
     1
 91
        4
 64
     7
 65
   257
 75
     1
175
     1
 42
1.0
 92
        8
 66
     7
 43
1.0
 76
     1
 77
     6
 78
     2
 67
     7
 79
     5
170
     0
171
     0
290
     0
174
     0
 93
        1
 44
-50.0
173
     0
291
     1
 45
0.0
1001
ACAD
1000
AcDbSavedByObjectVersion
1070
     0
  0
VISUALSTYLE
  5
621
102
{ACAD_XDICTIONARY
360
FAA
102
}
102
{ACAD_REACTORS
330
609
102
}
330
609
100
AcDbVisualStyle
  2

 70
    22
 71
     2
 72
     2
 73
     0
 90
        0
 40
-0.6
 41
-30.0
 62
     5
 63
     7
 74
     1
 91
        4
 64
     7
 65
   257
 75
     1
175
     1
 42
1.0
 92
        8
 66
     7
 43
1.0
 76
     1
 77
     6
 78
     2
 67
     7
 79
     5
170
     0
171
     0
290
     0
174
     0
 93
        1
 44
0.0
173
     0
291
     1
 45
0.0
1001
ACAD
1000
AcDbSavedByObjectVersion
1070
     0
  0
VISUALSTYLE
  5
618
102
{ACAD_XDICTIONARY
360
F98
102
}
102
{ACAD_REACTORS
330
609
102
}
330
609
100
AcDbVisualStyle
  2

 70
    15
 71
     2
 72
     2
 73
     0
 90
        0
 40
-0.6
 41
-30.0
 62
     5
 63
     7
 74
     1
 91
        4
 64
     7
 65
   257
 75
     1
175
     1
 42
1.0
 92
        8
 66
     7
 43
1.0
 76
     1
 77
     6
 78
     2
 67
     7
 79
     5
170
     0
171
     0
290
     0
174
     0
 93
        1
 44
0.0
173
     0
291
     1
 45
0.0
1001
ACAD
1000
AcDbSavedByObjectVersion
1070
     0
  0
VISUALSTYLE
  5
60A
102
{ACAD_XDICTIONARY
360
F7C
102
}
102
{ACAD_REACTORS
330
609
102
}
330
609
100
AcDbVisualStyle
  2

 70
     0
 71
     2
 72
     1
 73
     1
 90
        2
 40
-0.6
 41
30.0
 62
     5
 63
     7
 74
     0
 91
        0
 64
     7
 65
   257
 75
     1
175
     1
 42
1.0
 92
        8
 66
     7
 43
1.0
 76
     1
 77
     6
 78
     2
 67
     7
 79
     5
170
     0
171
     0
290
     0
174
     0
 93
       13
 44
0.0
173
     0
291
     1
 45
0.0
1001
ACAD
1000
AcDbSavedByObjectVersion
1070
     0
  0
VISUALSTYLE
  5
60B
102
{ACAD_XDICTIONARY
360
F7E
102
}
102
{ACAD_REACTORS
330
609
102
}
330
609
100
AcDbVisualStyle
  2

 70
     1
 71
     2
 72
     1
 73
     1
 90
        2
 40
-0.6
 41
30.0
 62
     5
 63
     7
 74
     1
 91
        0
 64
     7
 65
   257
 75
     1
175
     1
 42
1.0
 92
        0
 66
   257
 43
1.0
 76
     1
 77
     6
 78
     2
 67
     7
 79
     5
170
     0
171
     0
290
     0
174
     0
 93
       13
 44
0.0
173
     0
291
     1
 45
0.0
1001
ACAD
1000
AcDbSavedByObjectVersion
1070
     0
  0
VISUALSTYLE
  5
60C
102
{ACAD_XDICTIONARY
360
F80
102
}
102
{ACAD_REACTORS
330
609
102
}
330
609
100
AcDbVisualStyle
  2

 70
     2
 71
     2
 72
     2
 73
     1
 90
        2
 40
-0.6
 41
30.0
 62
     5
 63
     7
 74
     0
 91
        0
 64
     7
 65
   257
 75
     1
175
     1
 42
1.0
 92
        0
 66
     7
 43
1.0
 76
     1
 77
     6
 78
     2
 67
     7
 79
     5
170
     0
171
     0
290
     0
174
     0
 93
       13
 44
0.0
173
     0
291
     1
 45
0.0
1001
ACAD
1000
AcDbSavedByObjectVersion
1070
     0
  0
VISUALSTYLE
  5
60D
102
{ACAD_XDICTIONARY
360
F82
102
}
102
{ACAD_REACTORS
330
609
102
}
330
609
100
AcDbVisualStyle
  2

 70
     3
 71
     2
 72
     2
 73
     1
 90
        2
 40
-0.6
 41
30.0
 62
     5
 63
     7
 74
     1
 91
        0
 64
     7
 65
   257
 75
     1
175
     1
 42
1.0
 92
        0
 66
   257
 43
1.0
 76
     1
 77
     6
 78
     2
 67
     7
 79
     5
170
     0
171
     0
290
     0
174
     0
 93
       13
 44
0.0
173
     0
291
     1
 45
0.0
1001
ACAD
1000
AcDbSavedByObjectVersion
1070
     0
  0
VISUALSTYLE
  5
611
102
{ACAD_XDICTIONARY
360
F8A
102
}
102
{ACAD_REACTORS
330
609
102
}
330
609
100
AcDbVisualStyle
  2

 70
     6
 71
     1
 72
     2
 73
     2
 90
        0
 40
-0.6
 41
-30.0
 62
     5
 63
     7
 74
     2
 91
        2
 64
     7
 65
   257
 75
     2
175
     1
 42
40.0
 92
        0
 66
   257
 43
1.0
 76
     1
 77
     6
 78
     2
 67
     7
 79
     3
170
     0
171
     0
290
     0
174
     0
 93
        1
 44
0.0
173
     0
291
     0
 45
0.0
1001
ACAD
1000
AcDbSavedByObjectVersion
1070
     0
  0
VISUALSTYLE
  5
61F
102
{ACAD_XDICTIONARY
360
FA6
102
}
102
{ACAD_REACTORS
330
609
102
}
330
609
100
AcDbVisualStyle
  2

 70
    20
 71
     2
 72
     2
 73
     0
 90
        0
 40
-0.6
 41
-30.0
 62
     5
 63
     7
 74
     1
 91
        4
 64
     7
 65
   257
 75
     1
175
     1
 42
1.0
 92
       10
 66
     7
 43
1.0
 76
     1
 77
     6
 78
     2
 67
     7
 79
     5
170
     0
171
     0
290
     0
174
     0
 93
        1
 44
0.0
173
     0
291
     1
 45
0.0
1001
ACAD
1000
AcDbSavedByObjectVersion
1070
     0
  0
VISUALSTYLE
  5
617
102
{ACAD_XDICTIONARY
360
F96
102
}
102
{ACAD_REACTORS
330
609
102
}
330
609
100
AcDbVisualStyle
  2

 70
    14
 71
     2
 72
     2
 73
     0
 90
        0
 40
-0.6
 41
-30.0
 62
     5
 63
     7
 74
     1
 91
        4
 64
     7
 65
   257
 75
     7
175
     7
 42
1.0
 92
        8
 66
     7
 43
1.0
 76
     1
 77
     6
 78
     2
 67
     7
 79
     5
170
     0
171
     0
290
     0
174
     0
 93
        1
 44
0.0
173
     0
291
     1
 45
0.0
1001
ACAD
1000
AcDbSavedByObjectVersion
1070
     0
  0
VISUALSTYLE
  5
620
102
{ACAD_XDICTIONARY
360
FA8
102
}
102
{ACAD_REACTORS
330
609
102
}
330
609
100
AcDbVisualStyle
  2

 70
    21
 71
     2
 72
     2
 73
     0
 90
        0
 40
-0.6
 41
-30.0
 62
     5
 63
     7
 74
     1
 91
        4
 64
     7
 65
   257
 75
     1
175
     1
 42
1.0
 92
        9
 66
     7
 43
1.0
 76
     1
 77
     6
 78
     2
 67
     7
 79
     5
170
     0
171
     0
290
     0
174
     0
 93
        1
 44
0.0
173
     0
291
     1
 45
0.0
1001
ACAD
1000
AcDbSavedByObjectVersion
1070
     0
  0
VISUALSTYLE
  5
613
102
{ACAD_XDICTIONARY
360
F8E
102
}
102
{ACAD_REACTORS
330
609
102
}
330
609
100
AcDbVisualStyle
  2

 70
     8
 71
     2
 72
     3
 73
     0
 90
        2
 40
-0.6
 41
30.0
 62
     5
 63
     7
 74
     0
 91
        0
 64
     7
 65
   257
 75
     1
175
     1
 42
1.0
 92
        8
 66
   257
 43
1.0
 76
     1
 77
     6
 78
     2
 67
     7
 79
     3
170
     0
171
     0
290
     0
174
     0
 93
       13
 44
0.0
173
     0
291
     0
 45
0.0
1001
ACAD
1000
AcDbSavedByObjectVersion
1070
     0
  0
VISUALSTYLE
  5
61E
102
{ACAD_XDICTIONARY
360
FA4
102
}
102
{ACAD_REACTORS
330
609
102
}
330
609
100
AcDbVisualStyle
  2

 70
    27
 71
     2
 72
     2
 73
     1
 90
        2
 40
-0.6
 41
30.0
 62
     5
 63
     7
 74
     0
 91
        4
 64
     7
 65
   257
 75
     1
175
     1
 42
1.0
 92
        8
 66
   257
 43
1.0
 76
     1
 77
     6
 78
     2
 67
     8
 79
     3
170
     0
171
     0
290
     0
174
     0
 93
        5
 44
0.0
173
     0
291
     0
 45
0.0
1001
ACAD
1000
AcDbSavedByObjectVersion
1070
     0
  0
VISUALSTYLE
  5
61D
102
{ACAD_XDICTIONARY
360
FA2
102
}
102
{ACAD_REACTORS
330
609
102
}
330
609
100
AcDbVisualStyle
  2

 70
    26
 71
     2
 72
     2
 73
     1
 90
        2
 40
-0.6
 41
30.0
 62
     5
 63
     7
 74
     1
 91
       10
 64
     7
 65
   257
 75
     2
175
     1
 42
1.0
 92
        8
 66
   257
 43
1.0
 76
     1
 77
     6
 78
     2
 67
     7
 79
     3
170
     0
171
     0
290
     0
174
     0
 93
        5
 44
0.0
173
     0
291
     0
 45
0.0
1001
ACAD
1000
AcDbSavedByObjectVersion
1070
     0
  0
VISUALSTYLE
  5
61A
102
{ACAD_XDICTIONARY
360
F9C
102
}
102
{ACAD_REACTORS
330
609
102
}
330
609
100
AcDbVisualStyle
  2

 70
    23
 71
     2
 72
     2
 73
     3
 90
        0
 40
-0.6
 41
-30.0
 62
     5
 63
     7
 74
     2
 91
        2
 64
     7
 65
     7
 75
     1
175
     1
 42
40.0
 92
        8
 66
     7
 43
1.0
 76
     1
 77
     6
 78
     2
 67
     7
 79
     3
170
     0
171
     0
290
     0
174
     0
 93
        1
 44
0.0
173
     0
291
     0
 45
0.0
1001
ACAD
1000
AcDbSavedByObjectVersion
1070
     0
  0
VISUALSTYLE
  5
61B
102
{ACAD_XDICTIONARY
360
F9E
102
}
102
{ACAD_REACTORS
330
609
102
}
330
609
100
AcDbVisualStyle
  2

 70
    24
 71
     1
 72
     2
 73
     2
 90
        0
 40
-0.6
 41
-30.0
 62
     5
 63
     7
 74
     2
 91
        2
 64
     7
 65
     7
 75
     1
175
     1
 42
40.0
 92
       11
 66
     7
 43
1.0
 76
     1
 77
     6
 78
     2
 67
     7
 79
     6
170
     0
171
     0
290
     0
174
     0
 93
        1
 44
0.0
173
     0
291
     0
 45
0.0
1001
ACAD
1000
AcDbSavedByObjectVersion
1070
     0
  0
VISUALSTYLE
  5
616
102
{ACAD_XDICTIONARY
360
F94
102
}
102
{ACAD_REACTORS
330
609
102
}
330
609
100
AcDbVisualStyle
  2

 70
    13
 71
     2
 72
     2
 73
     0
 90
        0
 40
-0.6
 41
-30.0
 62
     5
 63
     7
 74
     1
 91
        4
 64
     7
 65
   257
 75
     1
175
     1
 42
1.0
 92
       12
 66
     7
 43
1.0
 76
     1
 77
     6
 78
     2
 67
     7
 79
     5
170
     0
171
     0
290
     0
174
     0
 93
        1
 44
0.0
173
     0
291
     1
 45
0.0
1001
ACAD
1000
AcDbSavedByObjectVersion
1070
     0
  0
VISUALSTYLE
  5
610
102
{ACAD_XDICTIONARY
360
F88
102
}
102
{ACAD_REACTORS
330
609
102
}
330
609
100
AcDbVisualStyle
  2

 70
     5
 71
     0
 72
     2
 73
     0
 90
        0
 40
-0.6
 41
-30.0
 62
     5
 63
     7
 74
     1
 91
        4
 64
     7
 65
   257
 75
     1
175
     1
 42
1.0
 92
        0
 66
   257
 43
1.0
 76
     1
 77
     6
 78
     2
 67
     7
 79
     3
170
     0
171
     0
290
     0
174
     0
 93
        1
 44
0.0
173
     0
291
     0
 45
0.0
1001
ACAD
1000
AcDbSavedByObjectVersion
1070
     0
  0
VISUALSTYLE
  5
61C
102
{ACAD_XDICTIONARY
360
FA0
102
}
102
{ACAD_REACTORS
330
609
102
}
330
609
100
AcDbVisualStyle
  2

 70
    25
 71
     2
 72
     2
 73
     1
 90
        1
 40
0.5
 41
-30.0
 62
     5
 63
     7
 74
     1
 91
        0
 64
     7
 65
   257
 75
     1
175
     1
 42
1.0
 92
        8
 66
     7
 43
1.0
 76
     1
 77
     6
 78
     2
 67
     7
 79
     3
170
     0
171
     0
290
     0
174
     0
 93
       13
 44
0.0
173
     0
291
     0
 45
0.0
1001
ACAD
1000
AcDbSavedByObjectVersion
1070
     0
  0
DICTIONARYVAR
  5
5EB
102
{ACAD_REACTORS
330
357
102
}
330
357
100
DictionaryVariables
280
     0
  1
1:1
  0
DICTIONARYVAR
  5
64D
102
{ACAD_REACTORS
330
357
102
}
330
357
100
DictionaryVariables
280
     0
  1
STANDARD
  0
DICTIONARYVAR
  5
38D
102
{ACAD_REACTORS
330
357
102
}
330
357
100
DictionaryVariables
280
     0
  1
STANDARD
  0
DICTIONARYVAR
  5
64E
102
{ACAD_REACTORS
330
357
102
}
330
357
100
DictionaryVariables
280
     0
  1
Metric50
  0
DICTIONARYVAR
  5
64F
102
{ACAD_REACTORS
330
357
102
}
330
357
100
DictionaryVariables
280
     0
  1
Metric50
  0
DICTIONARYVAR
  5
359
102
{ACAD_REACTORS
330
357
102
}
330
357
100
DictionaryVariables
280
     0
  1
2
  0
DICTIONARYVAR
  5
358
102
{ACAD_REACTORS
330
357
102
}
330
357
100
DictionaryVariables
280
     0
  1
1
  0
DICTIONARYVAR
  5
651
102
{ACAD_REACTORS
330
357
102
}
330
357
100
DictionaryVariables
280
     0
  1
0
  0
DICTIONARYVAR
  5
38E
102
{ACAD_REACTORS
330
357
102
}
330
357
100
DictionaryVariables
280
     0
  1

  0
DICTIONARYVAR
  5
650
102
{ACAD_REACTORS
330
357
102
}
330
357
100
DictionaryVariables
280
     0
  1
127
  0
DICTIONARYVAR
  5
F71
102
{ACAD_REACTORS
330
357
102
}
330
357
100
DictionaryVariables
280
     0
  1
2
  0
DICTIONARY
  5
F7B
102
{ACAD_REACTORS
330
F79
102
}
330
F79
100
AcDbDictionary
281
     1
  0
DICTIONARY
  5
F7A
102
{ACAD_REACTORS
330
F79
102
}
330
F79
100
AcDbDictionary
281
     1
  3
8796084954176
350
F74
  3
8796084954192
350
F75
  3
8796084954208
350
F76
  3
8796084954224
350
F77
  3
8796084954240
350
F78
  0
DICTIONARY
  5
FAF
330
627
100
AcDbDictionary
280
     1
281
     1
  3
ACAD_XREC_ROUNDTRIP
360
FB0
  0
DICTIONARY
  5
5FA
330
5F9
100
AcDbDictionary
280
     1
281
     1
  3
ACAD_XREC_ROUNDTRIP
360
65E
  3
BUMPTILE
360
5FC
  3
DIFFUSETILE
360
5FB
  3
OPACITYTILE
360
5FF
  3
REFLECTIONTILE
360
5FE
  3
REFRACTIONTILE
360
600
  3
SPECULARTILE
360
5FD
  0
DICTIONARY
  5
5F2
330
5F1
100
AcDbDictionary
280
     1
281
     1
  3
ACAD_XREC_ROUNDTRIP
360
65D
  3
BUMPTILE
360
5F4
  3
DIFFUSETILE
360
5F3
  3
OPACITYTILE
360
5F7
  3
REFLECTIONTILE
360
5F6
  3
REFRACTIONTILE
360
5F8
  3
SPECULARTILE
360
5F5
  0
DICTIONARY
  5
602
330
601
100
AcDbDictionary
280
     1
281
     1
  3
ACAD_XREC_ROUNDTRIP
360
65F
  3
BUMPTILE
360
604
  3
DIFFUSETILE
360
603
  3
OPACITYTILE
360
607
  3
REFLECTIONTILE
360
606
  3
REFRACTIONTILE
360
608
  3
SPECULARTILE
360
605
  0
DICTIONARY
  5
FAD
330
625
100
AcDbDictionary
280
     1
281
     1
  3
ACAD_XREC_ROUNDTRIP
360
FAE
  0
DICTIONARY
  5
654
330
622
100
AcDbDictionary
280
     1
281
     1
  3
ACAD_ROUNDTRIP_2008_TABLESTYLE_CELLSTYLEMAP
360
F72
  3
ACAD_XREC_ROUNDTRIP
360
FAC
  0
DICTIONARY
  5
F86
330
60F
100
AcDbDictionary
280
     1
281
     1
  3
ACAD_XREC_ROUNDTRIP
360
F87
  0
DICTIONARY
  5
F84
330
60E
100
AcDbDictionary
280
     1
281
     1
  3
ACAD_XREC_ROUNDTRIP
360
F85
  0
DICTIONARY
  5
F92
330
615
100
AcDbDictionary
280
     1
281
     1
  3
ACAD_XREC_ROUNDTRIP
360
F93
  0
DICTIONARY
  5
F9A
330
619
100
AcDbDictionary
280
     1
281
     1
  3
ACAD_XREC_ROUNDTRIP
360
F9B
  0
DICTIONARY
  5
F8C
330
612
100
AcDbDictionary
280
     1
281
     1
  3
ACAD_XREC_ROUNDTRIP
360
F8D
  0
DICTIONARY
  5
F90
330
614
100
AcDbDictionary
280
     1
281
     1
  3
ACAD_XREC_ROUNDTRIP
360
F91
  0
DICTIONARY
  5
FAA
330
621
100
AcDbDictionary
280
     1
281
     1
  3
ACAD_XREC_ROUNDTRIP
360
FAB
  0
DICTIONARY
  5
F98
330
618
100
AcDbDictionary
280
     1
281
     1
  3
ACAD_XREC_ROUNDTRIP
360
F99
  0
DICTIONARY
  5
F7C
330
60A
100
AcDbDictionary
280
     1
281
     1
  3
ACAD_XREC_ROUNDTRIP
360
F7D
  0
DICTIONARY
  5
F7E
330
60B
100
AcDbDictionary
280
     1
281
     1
  3
ACAD_XREC_ROUNDTRIP
360
F7F
  0
DICTIONARY
  5
F80
330
60C
100
AcDbDictionary
280
     1
281
     1
  3
ACAD_XREC_ROUNDTRIP
360
F81
  0
DICTIONARY
  5
F82
330
60D
100
AcDbDictionary
280
     1
281
     1
  3
ACAD_XREC_ROUNDTRIP
360
F83
  0
DICTIONARY
  5
F8A
330
611
100
AcDbDictionary
280
     1
281
     1
  3
ACAD_XREC_ROUNDTRIP
360
F8B
  0
DICTIONARY
  5
FA6
330
61F
100
AcDbDictionary
280
     1
281
     1
  3
ACAD_XREC_ROUNDTRIP
360
FA7
  0
DICTIONARY
  5
F96
330
617
100
AcDbDictionary
280
     1
281
     1
  3
ACAD_XREC_ROUNDTRIP
360
F97
  0
DICTIONARY
  5
FA8
330
620
100
AcDbDictionary
280
     1
281
     1
  3
ACAD_XREC_ROUNDTRIP
360
FA9
  0
DICTIONARY
  5
F8E
330
613
100
AcDbDictionary
280
     1
281
     1
  3
ACAD_XREC_ROUNDTRIP
360
F8F
  0
DICTIONARY
  5
FA4
330
61E
100
AcDbDictionary
280
     1
281
     1
  3
ACAD_XREC_ROUNDTRIP
360
FA5
  0
DICTIONARY
  5
FA2
330
61D
100
AcDbDictionary
280
     1
281
     1
  3
ACAD_XREC_ROUNDTRIP
360
FA3
  0
DICTIONARY
  5
F9C
330
61A
100
AcDbDictionary
280
     1
281
     1
  3
ACAD_XREC_ROUNDTRIP
360
F9D
  0
DICTIONARY
  5
F9E
330
61B
100
AcDbDictionary
280
     1
281
     1
  3
ACAD_XREC_ROUNDTRIP
360
F9F
  0
DICTIONARY
  5
F94
330
616
100
AcDbDictionary
280
     1
281
     1
  3
ACAD_XREC_ROUNDTRIP
360
F95
  0
DICTIONARY
  5
F88
330
610
100
AcDbDictionary
280
     1
281
     1
  3
ACAD_XREC_ROUNDTRIP
360
F89
  0
DICTIONARY
  5
FA0
330
61C
100
AcDbDictionary
280
     1
281
     1
  3
ACAD_XREC_ROUNDTRIP
360
FA1
  0
XRECORD
  5
F74
102
{ACAD_REACTORS
330
F7A
102
}
330
F7A
100
AcDbXrecord
280
     1
  1
AcDb_Thumbnail_Schema
102
{ATTRRECORD
341
F75
  2
AcDbDs::TreatedAsObjectData
280
     1
291
     1
102
ATTRRECORD}
102
{ATTRRECORD
341
F76
  2
AcDbDs::Legacy
280
     1
291
     1
102
ATTRRECORD}
  2
AcDbDs::ID
280
    10
 91
        8
102
{ATTRRECORD
341
F77
  2
AcDs:Indexable
280
     1
291
     1
102
ATTRRECORD}
102
{ATTRRECORD
341
F78
  2
AcDbDs::HandleAttribute
280
     7
282
     1
102
ATTRRECORD}
  2
Thumbnail_Data
280
    15
 91
        0
  0
XRECORD
  5
F75
102
{ACAD_REACTORS
330
F7A
102
}
330
F7A
100
AcDbXrecord
280
     1
  1
AcDbDs::TreatedAsObjectDataSchema
  2
AcDbDs::TreatedAsObjectData
280
     1
 91
        0
  0
XRECORD
  5
F76
102
{ACAD_REACTORS
330
F7A
102
}
330
F7A
100
AcDbXrecord
280
     1
  1
AcDbDs::LegacySchema
  2
AcDbDs::Legacy
280
     1
 91
        0
  0
XRECORD
  5
F77
102
{ACAD_REACTORS
330
F7A
102
}
330
F7A
100
AcDbXrecord
280
     1
  1
AcDbDs::IndexedPropertySchema
  2
AcDs:Indexable
280
     1
 91
        0
  0
XRECORD
  5
F78
102
{ACAD_REACTORS
330
F7A
102
}
330
F7A
100
AcDbXrecord
280
     1
  1
AcDbDs::HandleAttributeSchema
  2
AcDbDs::HandleAttribute
280
     7
 91
        1
284
     1
  0
XRECORD
  5
FB0
102
{ACAD_REACTORS
330
FAF
102
}
330
FAF
100
AcDbXrecord
280
     1
102
DISPLAYNAME
  1
Metric50
102
FLAGS
 90
        0
  0
XRECORD
  5
65E
102
{ACAD_REACTORS
330
5FA
102
}
330
5FA
100
AcDbXrecord
280
     1
102
MATERIAL
148
0.0
149
0.0
149
0.0
 93
        0
 94
      127
282
     0
 72
     0
 77
     0
171
     0
175
     0
179
     0
273
     0
  0
XRECORD
  5
5FC
102
{ACAD_REACTORS
330
5FA
102
}
330
5FA
100
AcDbXrecord
280
     1
270
     1
271
     1
  0
XRECORD
  5
5FB
102
{ACAD_REACTORS
330
5FA
102
}
330
5FA
100
AcDbXrecord
280
     1
270
     1
271
     1
  0
XRECORD
  5
5FF
102
{ACAD_REACTORS
330
5FA
102
}
330
5FA
100
AcDbXrecord
280
     1
270
     1
271
     1
  0
XRECORD
  5
5FE
102
{ACAD_REACTORS
330
5FA
102
}
330
5FA
100
AcDbXrecord
280
     1
270
     1
271
     1
  0
XRECORD
  5
600
102
{ACAD_REACTORS
330
5FA
102
}
330
5FA
100
AcDbXrecord
280
     1
270
     1
271
     1
  0
XRECORD
  5
5FD
102
{ACAD_REACTORS
330
5FA
102
}
330
5FA
100
AcDbXrecord
280
     1
270
     1
271
     1
  0
XRECORD
  5
65D
102
{ACAD_REACTORS
330
5F2
102
}
330
5F2
100
AcDbXrecord
280
     1
102
MATERIAL
148
0.0
149
0.0
149
0.0
 93
        0
 94
      127
282
     0
 72
     0
 77
     0
171
     0
175
     0
179
     0
273
     0
  0
XRECORD
  5
5F4
102
{ACAD_REACTORS
330
5F2
102
}
330
5F2
100
AcDbXrecord
280
     1
270
     1
271
     1
  0
XRECORD
  5
5F3
102
{ACAD_REACTORS
330
5F2
102
}
330
5F2
100
AcDbXrecord
280
     1
270
     1
271
     1
  0
XRECORD
  5
5F7
102
{ACAD_REACTORS
330
5F2
102
}
330
5F2
100
AcDbXrecord
280
     1
270
     1
271
     1
  0
XRECORD
  5
5F6
102
{ACAD_REACTORS
330
5F2
102
}
330
5F2
100
AcDbXrecord
280
     1
270
     1
271
     1
  0
XRECORD
  5
5F8
102
{ACAD_REACTORS
330
5F2
102
}
330
5F2
100
AcDbXrecord
280
     1
270
     1
271
     1
  0
XRECORD
  5
5F5
102
{ACAD_REACTORS
330
5F2
102
}
330
5F2
100
AcDbXrecord
280
     1
270
     1
271
     1
  0
XRECORD
  5
65F
102
{ACAD_REACTORS
330
602
102
}
330
602
100
AcDbXrecord
280
     1
102
MATERIAL
148
0.0
149
0.0
149
0.0
 93
        0
 94
      127
282
     0
 72
     0
 77
     0
171
     0
175
     0
179
     0
273
     0
  0
XRECORD
  5
604
102
{ACAD_REACTORS
330
602
102
}
330
602
100
AcDbXrecord
280
     1
270
     1
271
     1
  0
XRECORD
  5
603
102
{ACAD_REACTORS
330
602
102
}
330
602
100
AcDbXrecord
280
     1
270
     1
271
     1
  0
XRECORD
  5
607
102
{ACAD_REACTORS
330
602
102
}
330
602
100
AcDbXrecord
280
     1
270
     1
271
     1
  0
XRECORD
  5
606
102
{ACAD_REACTORS
330
602
102
}
330
602
100
AcDbXrecord
280
     1
270
     1
271
     1
  0
XRECORD
  5
608
102
{ACAD_REACTORS
330
602
102
}
330
602
100
AcDbXrecord
280
     1
270
     1
271
     1
  0
XRECORD
  5
605
102
{ACAD_REACTORS
330
602
102
}
330
602
100
AcDbXrecord
280
     1
270
     1
271
     1
  0
XRECORD
  5
FAE
102
{ACAD_REACTORS
330
FAD
102
}
330
FAD
100
AcDbXrecord
280
     1
102
DISPLAYNAME
  1
Metric50
102
FLAGS
 90
        0
  0
CELLSTYLEMAP
  5
F72
102
{ACAD_REACTORS
330
654
102
}
330
654
100
AcDbCellStyleMap
 90
        3
300
CELLSTYLE
  1
TABLEFORMAT_BEGIN
 90
        5
170
     1
 91
        0
 92
    32768
 62
   257
 93
        1
300
CONTENTFORMAT
  1
CONTENTFORMAT_BEGIN
 90
        0
 91
        0
 92
      512
 93
        0
300

 40
0.0
140
1.0
 94
        5
 62
     0
340
10
144
6.0
309
CONTENTFORMAT_END
171
     1
301
MARGIN
  1
CELLMARGIN_BEGIN
 40
1.5
 40
1.5
 40
1.5
 40
1.5
 40
0.18
 40
0.18
309
CELLMARGIN_END
 94
        6
 95
        1
302
GRIDFORMAT
  1
GRIDFORMAT_BEGIN
 90
        0
 91
        1
 62
     0
 92
       -2
340
0
 93
        0
 40
1.125
309
GRIDFORMAT_END
 95
        2
302
GRIDFORMAT
  1
GRIDFORMAT_BEGIN
 90
        0
 91
        1
 62
     0
 92
       -2
340
0
 93
        0
 40
1.125
309
GRIDFORMAT_END
 95
        4
302
GRIDFORMAT
  1
GRIDFORMAT_BEGIN
 90
        0
 91
        1
 62
     0
 92
       -2
340
0
 93
        0
 40
1.125
309
GRIDFORMAT_END
 95
        8
302
GRIDFORMAT
  1
GRIDFORMAT_BEGIN
 90
        0
 91
        1
 62
     0
 92
       -2
340
0
 93
        0
 40
1.125
309
GRIDFORMAT_END
 95
       16
302
GRIDFORMAT
  1
GRIDFORMAT_BEGIN
 90
        0
 91
        1
 62
     0
 92
       -2
340
0
 93
        0
 40
1.125
309
GRIDFORMAT_END
 95
       32
302
GRIDFORMAT
  1
GRIDFORMAT_BEGIN
 90
        0
 91
        1
 62
     0
 92
       -2
340
0
 93
        0
 40
1.125
309
GRIDFORMAT_END
309
TABLEFORMAT_END
  1
CELLSTYLE_BEGIN
 90
        1
 91
        1
300
_TITLE
309
CELLSTYLE_END
300
CELLSTYLE
  1
TABLEFORMAT_BEGIN
 90
        5
170
     1
 91
        0
 92
        0
 62
   257
 93
        1
300
CONTENTFORMAT
  1
CONTENTFORMAT_BEGIN
 90
        0
 91
        0
 92
      512
 93
        0
300

 40
0.0
140
1.0
 94
        5
 62
     0
340
10
144
4.5
309
CONTENTFORMAT_END
171
     1
301
MARGIN
  1
CELLMARGIN_BEGIN
 40
1.5
 40
1.5
 40
1.5
 40
1.5
 40
0.18
 40
0.18
309
CELLMARGIN_END
 94
        6
 95
        1
302
GRIDFORMAT
  1
GRIDFORMAT_BEGIN
 90
        0
 91
        1
 62
     0
 92
       -2
340
0
 93
        0
 40
1.125
309
GRIDFORMAT_END
 95
        2
302
GRIDFORMAT
  1
GRIDFORMAT_BEGIN
 90
        0
 91
        1
 62
     0
 92
       -2
340
0
 93
        0
 40
1.125
309
GRIDFORMAT_END
 95
        4
302
GRIDFORMAT
  1
GRIDFORMAT_BEGIN
 90
        0
 91
        1
 62
     0
 92
       -2
340
0
 93
        0
 40
1.125
309
GRIDFORMAT_END
 95
        8
302
GRIDFORMAT
  1
GRIDFORMAT_BEGIN
 90
        0
 91
        1
 62
     0
 92
       -2
340
0
 93
        0
 40
1.125
309
GRIDFORMAT_END
 95
       16
302
GRIDFORMAT
  1
GRIDFORMAT_BEGIN
 90
        0
 91
        1
 62
     0
 92
       -2
340
0
 93
        0
 40
1.125
309
GRIDFORMAT_END
 95
       32
302
GRIDFORMAT
  1
GRIDFORMAT_BEGIN
 90
        0
 91
        1
 62
     0
 92
       -2
340
0
 93
        0
 40
1.125
309
GRIDFORMAT_END
309
TABLEFORMAT_END
  1
CELLSTYLE_BEGIN
 90
        2
 91
        1
300
_HEADER
309
CELLSTYLE_END
300
CELLSTYLE
  1
TABLEFORMAT_BEGIN
 90
        5
170
     1
 91
        0
 92
        0
 62
   257
 93
        1
300
CONTENTFORMAT
  1
CONTENTFORMAT_BEGIN
 90
        0
 91
        0
 92
      512
 93
        0
300

 40
0.0
140
1.0
 94
        2
 62
     0
340
10
144
4.5
309
CONTENTFORMAT_END
171
     1
301
MARGIN
  1
CELLMARGIN_BEGIN
 40
1.5
 40
1.5
 40
1.5
 40
1.5
 40
0.18
 40
0.18
309
CELLMARGIN_END
 94
        6
 95
        1
302
GRIDFORMAT
  1
GRIDFORMAT_BEGIN
 90
        0
 91
        1
 62
     0
 92
       -2
340
0
 93
        0
 40
1.125
309
GRIDFORMAT_END
 95
        2
302
GRIDFORMAT
  1
GRIDFORMAT_BEGIN
 90
        0
 91
        1
 62
     0
 92
       -2
340
0
 93
        0
 40
1.125
309
GRIDFORMAT_END
 95
        4
302
GRIDFORMAT
  1
GRIDFORMAT_BEGIN
 90
        0
 91
        1
 62
     0
 92
       -2
340
0
 93
        0
 40
1.125
309
GRIDFORMAT_END
 95
        8
302
GRIDFORMAT
  1
GRIDFORMAT_BEGIN
 90
        0
 91
        1
 62
     0
 92
       -2
340
0
 93
        0
 40
1.125
309
GRIDFORMAT_END
 95
       16
302
GRIDFORMAT
  1
GRIDFORMAT_BEGIN
 90
        0
 91
        1
 62
     0
 92
       -2
340
0
 93
        0
 40
1.125
309
GRIDFORMAT_END
 95
       32
302
GRIDFORMAT
  1
GRIDFORMAT_BEGIN
 90
        0
 91
        1
 62
     0
 92
       -2
340
0
 93
        0
 40
1.125
309
GRIDFORMAT_END
309
TABLEFORMAT_END
  1
CELLSTYLE_BEGIN
 90
        3
 91
        2
300
_DATA
309
CELLSTYLE_END
  0
XRECORD
  5
FAC
102
{ACAD_REACTORS
330
654
102
}
330
654
100
AcDbXrecord
280
     1
102
ACAD_ROUNDTRIP_PRE2007_TABLESTYLE
 90
      512
 91
        0
  1

 92
      512
 93
        0
  2

 94
      512
 95
        0
  3

  0
XRECORD
  5
F87
102
{ACAD_REACTORS
330
F86
102
}
330
F86
100
AcDbXrecord
280
     1
102
RTVSPost2010Prop28
280
     1
102
RTVSPost2010PropOp28
 70
     1
102
RTVSPost2010Prop29
280
     1
102
RTVSPost2010PropOp29
 70
     1
102
RTVSPost2010Prop30
280
     0
102
RTVSPost2010PropOp30
 70
     1
102
RTVSPost2010Prop31
280
     0
102
RTVSPost2010PropOp31
 70
     1
102
RTVSPost2010Prop32
280
     0
102
RTVSPost2010PropOp32
 70
     1
102
RTVSPost2010Prop33
280
     0
102
RTVSPost2010PropOp33
 70
     1
102
RTVSPost2010Prop34
280
     0
102
RTVSPost2010PropOp34
 70
     1
102
RTVSPost2010Prop35
280
     0
102
RTVSPost2010PropOp35
 70
     1
102
RTVSPost2010Prop36
280
     0
102
RTVSPost2010PropOp36
 70
     1
102
RTVSPost2010Prop37
 90
       50
102
RTVSPost2010PropOp37
 70
     1
102
RTVSPost2010Prop38
140
0.0
102
RTVSPost2010PropOp38
 70
     1
102
RTVSPost2010Prop39
140
1.0
102
RTVSPost2010PropOp39
 70
     1
102
RTVSPost2010Prop40
 90
        0
102
RTVSPost2010PropOp40
 70
     1
102
RTVSPost2010Prop41ColorIndex
 90
       18
102
RTVSPost2010Prop41ColorRGB
 90
        0
102
RTVSPost2010PropOp41
 70
     1
102
RTVSPost2010Prop42
 90
       50
102
RTVSPost2010PropOp42
 70
     1
102
RTVSPost2010Prop43
 90
        3
102
RTVSPost2010PropOp43
 70
     1
102
RTVSPost2010Prop44ColorIndex
 90
        5
102
RTVSPost2010Prop44ColorRGB
 90
      255
102
RTVSPost2010PropOp44
 70
     1
102
RTVSPost2010Prop45
280
     0
102
RTVSPost2010PropOp45
 70
     1
102
RTVSPost2010Prop46
 90
       50
102
RTVSPost2010PropOp46
 70
     1
102
RTVSPost2010Prop47
 90
       50
102
RTVSPost2010PropOp47
 70
     1
102
RTVSPost2010Prop48
 90
       50
102
RTVSPost2010PropOp48
 70
     1
102
RTVSPost2010Prop49
280
     0
102
RTVSPost2010PropOp49
 70
     1
102
RTVSPost2010Prop50
 90
       50
102
RTVSPost2010PropOp50
 70
     1
102
RTVSPost2010Prop51ColorIndex
 90
      256
102
RTVSPost2010Prop51ColorRGB
 90
-16777216
102
RTVSPost2010PropOp51
 70
     0
102
RTVSPost2010Prop52
140
1.0
102
RTVSPost2010PropOp52
 70
     0
102
RTVSPost2010Prop53
 90
        2
102
RTVSPost2010PropOp53
 70
     1
102
RTVSPost2010Prop54
  1
strokes_ogs.tif
102
RTVSPost2010PropOp54
 70
     1
102
RTVSPost2010Prop55
280
     0
102
RTVSPost2010PropOp55
 70
     1
102
RTVSPost2010Prop56
140
1.0
102
RTVSPost2010PropOp56
 70
     1
102
RTVSPost2010Prop57
140
1.0
102
RTVSPost2010PropOp57
 70
     1
102
RTVSPropertyOp0
 70
     1
102
RTVSPropertyOp1
 70
     1
102
RTVSPropertyOp2
 70
     1
102
RTVSPropertyOp3
 70
     1
102
RTVSPropertyOp4
 70
     1
102
RTVSPropertyOp5
 70
     1
102
RTVSPropertyOp6
 70
     1
102
RTVSPropertyOp7
 70
     1
102
RTVSPropertyOp8
 70
     1
102
RTVSPropertyOp9
 70
     1
102
RTVSPropertyOp10
 70
     1
102
RTVSPropertyOp11
 70
     1
102
RTVSPropertyOp12
 70
     1
102
RTVSPropertyOp13
 70
     1
102
RTVSPropertyOp14
 70
     1
102
RTVSPropertyOp15
 70
     1
102
RTVSPropertyOp16
 70
     1
102
RTVSPropertyOp17
 70
     1
102
RTVSPropertyOp18
 70
     1
102
RTVSPropertyOp19
 70
     1
102
RTVSPropertyOp20
 70
     1
102
RTVSPropertyOp21
 70
     1
102
RTVSPropertyOp22
 70
     1
102
RTVSPropertyOp23
 70
     1
102
RTVSPropertyOp24
 70
     1
102
RTVSPropertyOp25
 70
     1
102
RTVSPropertyOp26
 70
     1
102
RTVSPropertyOp27
 70
     1
102
RTVSPropertyOp28
 70
     1
102
RTVSPropertyOp29
 70
     1
102
RTVSPropertyOp30
 70
     1
102
RTVSPropertyOp31
 70
     1
102
RTVSPropertyOp32
 70
     1
102
RTVSPropertyOp33
 70
     1
102
RTVSPropertyOp34
 70
     1
102
RTVSPropertyOp35
 70
     1
102
RTVSPropertyOp36
 70
     1
102
RTVSPropertyOp37
 70
     1
102
RTVSPropertyOp38
 70
     1
102
RTVSPropertyOp39
 70
     1
102
RTVSPropertyOp40
 70
     1
102
RTVSPropertyOp41
 70
     1
102
RTVSPropertyOp42
 70
     1
102
RTVSPropertyOp43
 70
     1
102
RTVSPropertyOp44
 70
     1
102
RTVSPropertyOp45
 70
     1
102
RTVSPropertyOp46
 70
     1
102
RTVSPropertyOp47
 70
     1
102
RTVSPropertyOp48
 70
     1
102
RTVSPropertyOp49
 70
     1
102
RTVSPropertyOp50
 70
     1
102
RTVSPropertyOp51
 70
     0
102
RTVSPropertyOp52
 70
     0
102
RTVSPropertyOp53
 70
     1
102
RTVSPropertyOp54
 70
     1
102
RTVSPropertyOp55
 70
     1
102
RTVSPropertyOp56
 70
     1
102
RTVSPropertyOp57
 70
     1
102
RTVSPropertyOp58
 70
     1
102
RTVSPropertyOp59
 70
     1
102
RTVSPropertyOp60
 70
     1
102
RTVSPropertyOp61
 70
     1
102
RTVSPropertyOp62
 70
     1
  0
XRECORD
  5
F85
102
{ACAD_REACTORS
330
F84
102
}
330
F84
100
AcDbXrecord
280
     1
102
RTVSPost2010Prop28
280
     0
102
RTVSPost2010PropOp28
 70
     1
102
RTVSPost2010Prop29
280
     1
102
RTVSPost2010PropOp29
 70
     1
102
RTVSPost2010Prop30
280
     1
102
RTVSPost2010PropOp30
 70
     1
102
RTVSPost2010Prop31
280
     0
102
RTVSPost2010PropOp31
 70
     1
102
RTVSPost2010Prop32
280
     0
102
RTVSPost2010PropOp32
 70
     1
102
RTVSPost2010Prop33
280
     0
102
RTVSPost2010PropOp33
 70
     1
102
RTVSPost2010Prop34
280
     0
102
RTVSPost2010PropOp34
 70
     1
102
RTVSPost2010Prop35
280
     0
102
RTVSPost2010PropOp35
 70
     1
102
RTVSPost2010Prop36
280
     0
102
RTVSPost2010PropOp36
 70
     1
102
RTVSPost2010Prop37
 90
       50
102
RTVSPost2010PropOp37
 70
     1
102
RTVSPost2010Prop38
140
0.0
102
RTVSPost2010PropOp38
 70
     1
102
RTVSPost2010Prop39
140
1.0
102
RTVSPost2010PropOp39
 70
     1
102
RTVSPost2010Prop40
 90
        0
102
RTVSPost2010PropOp40
 70
     1
102
RTVSPost2010Prop41ColorIndex
 90
       18
102
RTVSPost2010Prop41ColorRGB
 90
        0
102
RTVSPost2010PropOp41
 70
     1
102
RTVSPost2010Prop42
 90
       50
102
RTVSPost2010PropOp42
 70
     1
102
RTVSPost2010Prop43
 90
        3
102
RTVSPost2010PropOp43
 70
     1
102
RTVSPost2010Prop44ColorIndex
 90
        5
102
RTVSPost2010Prop44ColorRGB
 90
      255
102
RTVSPost2010PropOp44
 70
     1
102
RTVSPost2010Prop45
280
     0
102
RTVSPost2010PropOp45
 70
     1
102
RTVSPost2010Prop46
 90
       50
102
RTVSPost2010PropOp46
 70
     1
102
RTVSPost2010Prop47
 90
       50
102
RTVSPost2010PropOp47
 70
     1
102
RTVSPost2010Prop48
 90
       50
102
RTVSPost2010PropOp48
 70
     1
102
RTVSPost2010Prop49
280
     0
102
RTVSPost2010PropOp49
 70
     1
102
RTVSPost2010Prop50
 90
       50
102
RTVSPost2010PropOp50
 70
     1
102
RTVSPost2010Prop51ColorIndex
 90
      256
102
RTVSPost2010Prop51ColorRGB
 90
-16777216
102
RTVSPost2010PropOp51
 70
     0
102
RTVSPost2010Prop52
140
1.0
102
RTVSPost2010PropOp52
 70
     0
102
RTVSPost2010Prop53
 90
        2
102
RTVSPost2010PropOp53
 70
     1
102
RTVSPost2010Prop54
  1
strokes_ogs.tif
102
RTVSPost2010PropOp54
 70
     1
102
RTVSPost2010Prop55
280
     0
102
RTVSPost2010PropOp55
 70
     1
102
RTVSPost2010Prop56
140
1.0
102
RTVSPost2010PropOp56
 70
     1
102
RTVSPost2010Prop57
140
1.0
102
RTVSPost2010PropOp57
 70
     1
102
RTVSPropertyOp0
 70
     1
102
RTVSPropertyOp1
 70
     1
102
RTVSPropertyOp2
 70
     1
102
RTVSPropertyOp3
 70
     1
102
RTVSPropertyOp4
 70
     1
102
RTVSPropertyOp5
 70
     1
102
RTVSPropertyOp6
 70
     1
102
RTVSPropertyOp7
 70
     1
102
RTVSPropertyOp8
 70
     1
102
RTVSPropertyOp9
 70
     1
102
RTVSPropertyOp10
 70
     1
102
RTVSPropertyOp11
 70
     1
102
RTVSPropertyOp12
 70
     1
102
RTVSPropertyOp13
 70
     1
102
RTVSPropertyOp14
 70
     1
102
RTVSPropertyOp15
 70
     1
102
RTVSPropertyOp16
 70
     1
102
RTVSPropertyOp17
 70
     1
102
RTVSPropertyOp18
 70
     1
102
RTVSPropertyOp19
 70
     1
102
RTVSPropertyOp20
 70
     1
102
RTVSPropertyOp21
 70
     1
102
RTVSPropertyOp22
 70
     1
102
RTVSPropertyOp23
 70
     1
102
RTVSPropertyOp24
 70
     1
102
RTVSPropertyOp25
 70
     1
102
RTVSPropertyOp26
 70
     1
102
RTVSPropertyOp27
 70
     1
102
RTVSPropertyOp28
 70
     1
102
RTVSPropertyOp29
 70
     1
102
RTVSPropertyOp30
 70
     1
102
RTVSPropertyOp31
 70
     1
102
RTVSPropertyOp32
 70
     1
102
RTVSPropertyOp33
 70
     1
102
RTVSPropertyOp34
 70
     1
102
RTVSPropertyOp35
 70
     1
102
RTVSPropertyOp36
 70
     1
102
RTVSPropertyOp37
 70
     1
102
RTVSPropertyOp38
 70
     1
102
RTVSPropertyOp39
 70
     1
102
RTVSPropertyOp40
 70
     1
102
RTVSPropertyOp41
 70
     1
102
RTVSPropertyOp42
 70
     1
102
RTVSPropertyOp43
 70
     1
102
RTVSPropertyOp44
 70
     1
102
RTVSPropertyOp45
 70
     1
102
RTVSPropertyOp46
 70
     1
102
RTVSPropertyOp47
 70
     1
102
RTVSPropertyOp48
 70
     1
102
RTVSPropertyOp49
 70
     1
102
RTVSPropertyOp50
 70
     1
102
RTVSPropertyOp51
 70
     0
102
RTVSPropertyOp52
 70
     0
102
RTVSPropertyOp53
 70
     1
102
RTVSPropertyOp54
 70
     1
102
RTVSPropertyOp55
 70
     1
102
RTVSPropertyOp56
 70
     1
102
RTVSPropertyOp57
 70
     1
102
RTVSPropertyOp58
 70
     1
102
RTVSPropertyOp59
 70
     1
102
RTVSPropertyOp60
 70
     1
102
RTVSPropertyOp61
 70
     1
102
RTVSPropertyOp62
 70
     1
  0
XRECORD
  5
F93
102
{ACAD_REACTORS
330
F92
102
}
330
F92
100
AcDbXrecord
280
     1
102
RTVSPost2010Prop28
280
     0
102
RTVSPost2010PropOp28
 70
     1
102
RTVSPost2010Prop29
280
     1
102
RTVSPost2010PropOp29
 70
     1
102
RTVSPost2010Prop30
280
     1
102
RTVSPost2010PropOp30
 70
     1
102
RTVSPost2010Prop31
280
     0
102
RTVSPost2010PropOp31
 70
     1
102
RTVSPost2010Prop32
280
     0
102
RTVSPost2010PropOp32
 70
     1
102
RTVSPost2010Prop33
280
     0
102
RTVSPost2010PropOp33
 70
     1
102
RTVSPost2010Prop34
280
     0
102
RTVSPost2010PropOp34
 70
     1
102
RTVSPost2010Prop35
280
     0
102
RTVSPost2010PropOp35
 70
     1
102
RTVSPost2010Prop36
280
     0
102
RTVSPost2010PropOp36
 70
     1
102
RTVSPost2010Prop37
 90
       50
102
RTVSPost2010PropOp37
 70
     1
102
RTVSPost2010Prop38
140
0.0
102
RTVSPost2010PropOp38
 70
     1
102
RTVSPost2010Prop39
140
1.0
102
RTVSPost2010PropOp39
 70
     1
102
RTVSPost2010Prop40
 90
        0
102
RTVSPost2010PropOp40
 70
     1
102
RTVSPost2010Prop41ColorIndex
 90
       18
102
RTVSPost2010Prop41ColorRGB
 90
        0
102
RTVSPost2010PropOp41
 70
     1
102
RTVSPost2010Prop42
 90
       50
102
RTVSPost2010PropOp42
 70
     1
102
RTVSPost2010Prop43
 90
        3
102
RTVSPost2010PropOp43
 70
     1
102
RTVSPost2010Prop44ColorIndex
 90
        5
102
RTVSPost2010Prop44ColorRGB
 90
      255
102
RTVSPost2010PropOp44
 70
     1
102
RTVSPost2010Prop45
280
     0
102
RTVSPost2010PropOp45
 70
     1
102
RTVSPost2010Prop46
 90
       50
102
RTVSPost2010PropOp46
 70
     1
102
RTVSPost2010Prop47
 90
       50
102
RTVSPost2010PropOp47
 70
     1
102
RTVSPost2010Prop48
 90
       50
102
RTVSPost2010PropOp48
 70
     1
102
RTVSPost2010Prop49
280
     0
102
RTVSPost2010PropOp49
 70
     1
102
RTVSPost2010Prop50
 90
       50
102
RTVSPost2010PropOp50
 70
     1
102
RTVSPost2010Prop51ColorIndex
 90
      256
102
RTVSPost2010Prop51ColorRGB
 90
-16777216
102
RTVSPost2010PropOp51
 70
     0
102
RTVSPost2010Prop52
140
1.0
102
RTVSPost2010PropOp52
 70
     0
102
RTVSPost2010Prop53
 90
        2
102
RTVSPost2010PropOp53
 70
     1
102
RTVSPost2010Prop54
  1
strokes_ogs.tif
102
RTVSPost2010PropOp54
 70
     1
102
RTVSPost2010Prop55
280
     0
102
RTVSPost2010PropOp55
 70
     1
102
RTVSPost2010Prop56
140
1.0
102
RTVSPost2010PropOp56
 70
     1
102
RTVSPost2010Prop57
140
1.0
102
RTVSPost2010PropOp57
 70
     1
102
RTVSPropertyOp0
 70
     1
102
RTVSPropertyOp1
 70
     1
102
RTVSPropertyOp2
 70
     1
102
RTVSPropertyOp3
 70
     1
102
RTVSPropertyOp4
 70
     1
102
RTVSPropertyOp5
 70
     1
102
RTVSPropertyOp6
 70
     1
102
RTVSPropertyOp7
 70
     1
102
RTVSPropertyOp8
 70
     1
102
RTVSPropertyOp9
 70
     1
102
RTVSPropertyOp10
 70
     1
102
RTVSPropertyOp11
 70
     1
102
RTVSPropertyOp12
 70
     1
102
RTVSPropertyOp13
 70
     1
102
RTVSPropertyOp14
 70
     1
102
RTVSPropertyOp15
 70
     1
102
RTVSPropertyOp16
 70
     1
102
RTVSPropertyOp17
 70
     1
102
RTVSPropertyOp18
 70
     1
102
RTVSPropertyOp19
 70
     1
102
RTVSPropertyOp20
 70
     1
102
RTVSPropertyOp21
 70
     1
102
RTVSPropertyOp22
 70
     1
102
RTVSPropertyOp23
 70
     1
102
RTVSPropertyOp24
 70
     1
102
RTVSPropertyOp25
 70
     1
102
RTVSPropertyOp26
 70
     1
102
RTVSPropertyOp27
 70
     1
102
RTVSPropertyOp28
 70
     1
102
RTVSPropertyOp29
 70
     1
102
RTVSPropertyOp30
 70
     1
102
RTVSPropertyOp31
 70
     1
102
RTVSPropertyOp32
 70
     1
102
RTVSPropertyOp33
 70
     1
102
RTVSPropertyOp34
 70
     1
102
RTVSPropertyOp35
 70
     1
102
RTVSPropertyOp36
 70
     1
102
RTVSPropertyOp37
 70
     1
102
RTVSPropertyOp38
 70
     1
102
RTVSPropertyOp39
 70
     1
102
RTVSPropertyOp40
 70
     1
102
RTVSPropertyOp41
 70
     1
102
RTVSPropertyOp42
 70
     1
102
RTVSPropertyOp43
 70
     1
102
RTVSPropertyOp44
 70
     1
102
RTVSPropertyOp45
 70
     1
102
RTVSPropertyOp46
 70
     1
102
RTVSPropertyOp47
 70
     1
102
RTVSPropertyOp48
 70
     1
102
RTVSPropertyOp49
 70
     1
102
RTVSPropertyOp50
 70
     1
102
RTVSPropertyOp51
 70
     0
102
RTVSPropertyOp52
 70
     0
102
RTVSPropertyOp53
 70
     1
102
RTVSPropertyOp54
 70
     1
102
RTVSPropertyOp55
 70
     1
102
RTVSPropertyOp56
 70
     1
102
RTVSPropertyOp57
 70
     1
102
RTVSPropertyOp58
 70
     1
102
RTVSPropertyOp59
 70
     1
102
RTVSPropertyOp60
 70
     1
102
RTVSPropertyOp61
 70
     1
102
RTVSPropertyOp62
 70
     1
  0
XRECORD
  5
F9B
102
{ACAD_REACTORS
330
F9A
102
}
330
F9A
100
AcDbXrecord
280
     1
102
RTVSPost2010Prop28
280
     0
102
RTVSPost2010PropOp28
 70
     1
102
RTVSPost2010Prop29
280
     1
102
RTVSPost2010PropOp29
 70
     1
102
RTVSPost2010Prop30
280
     1
102
RTVSPost2010PropOp30
 70
     1
102
RTVSPost2010Prop31
280
     0
102
RTVSPost2010PropOp31
 70
     1
102
RTVSPost2010Prop32
280
     0
102
RTVSPost2010PropOp32
 70
     1
102
RTVSPost2010Prop33
280
     0
102
RTVSPost2010PropOp33
 70
     1
102
RTVSPost2010Prop34
280
     0
102
RTVSPost2010PropOp34
 70
     1
102
RTVSPost2010Prop35
280
     0
102
RTVSPost2010PropOp35
 70
     1
102
RTVSPost2010Prop36
280
     0
102
RTVSPost2010PropOp36
 70
     1
102
RTVSPost2010Prop37
 90
       50
102
RTVSPost2010PropOp37
 70
     1
102
RTVSPost2010Prop38
140
0.0
102
RTVSPost2010PropOp38
 70
     1
102
RTVSPost2010Prop39
140
1.0
102
RTVSPost2010PropOp39
 70
     1
102
RTVSPost2010Prop40
 90
        0
102
RTVSPost2010PropOp40
 70
     1
102
RTVSPost2010Prop41ColorIndex
 90
       18
102
RTVSPost2010Prop41ColorRGB
 90
        0
102
RTVSPost2010PropOp41
 70
     1
102
RTVSPost2010Prop42
 90
       50
102
RTVSPost2010PropOp42
 70
     1
102
RTVSPost2010Prop43
 90
        3
102
RTVSPost2010PropOp43
 70
     1
102
RTVSPost2010Prop44ColorIndex
 90
        5
102
RTVSPost2010Prop44ColorRGB
 90
      255
102
RTVSPost2010PropOp44
 70
     1
102
RTVSPost2010Prop45
280
     0
102
RTVSPost2010PropOp45
 70
     1
102
RTVSPost2010Prop46
 90
       50
102
RTVSPost2010PropOp46
 70
     1
102
RTVSPost2010Prop47
 90
       50
102
RTVSPost2010PropOp47
 70
     1
102
RTVSPost2010Prop48
 90
       50
102
RTVSPost2010PropOp48
 70
     1
102
RTVSPost2010Prop49
280
     0
102
RTVSPost2010PropOp49
 70
     1
102
RTVSPost2010Prop50
 90
       50
102
RTVSPost2010PropOp50
 70
     1
102
RTVSPost2010Prop51ColorIndex
 90
      256
102
RTVSPost2010Prop51ColorRGB
 90
-16777216
102
RTVSPost2010PropOp51
 70
     0
102
RTVSPost2010Prop52
140
1.0
102
RTVSPost2010PropOp52
 70
     0
102
RTVSPost2010Prop53
 90
        2
102
RTVSPost2010PropOp53
 70
     1
102
RTVSPost2010Prop54
  1
strokes_ogs.tif
102
RTVSPost2010PropOp54
 70
     1
102
RTVSPost2010Prop55
280
     0
102
RTVSPost2010PropOp55
 70
     1
102
RTVSPost2010Prop56
140
1.0
102
RTVSPost2010PropOp56
 70
     1
102
RTVSPost2010Prop57
140
1.0
102
RTVSPost2010PropOp57
 70
     1
102
RTVSPropertyOp0
 70
     1
102
RTVSPropertyOp1
 70
     1
102
RTVSPropertyOp2
 70
     1
102
RTVSPropertyOp3
 70
     1
102
RTVSPropertyOp4
 70
     1
102
RTVSPropertyOp5
 70
     1
102
RTVSPropertyOp6
 70
     1
102
RTVSPropertyOp7
 70
     1
102
RTVSPropertyOp8
 70
     1
102
RTVSPropertyOp9
 70
     1
102
RTVSPropertyOp10
 70
     1
102
RTVSPropertyOp11
 70
     1
102
RTVSPropertyOp12
 70
     1
102
RTVSPropertyOp13
 70
     1
102
RTVSPropertyOp14
 70
     1
102
RTVSPropertyOp15
 70
     1
102
RTVSPropertyOp16
 70
     1
102
RTVSPropertyOp17
 70
     1
102
RTVSPropertyOp18
 70
     1
102
RTVSPropertyOp19
 70
     1
102
RTVSPropertyOp20
 70
     1
102
RTVSPropertyOp21
 70
     1
102
RTVSPropertyOp22
 70
     1
102
RTVSPropertyOp23
 70
     1
102
RTVSPropertyOp24
 70
     1
102
RTVSPropertyOp25
 70
     1
102
RTVSPropertyOp26
 70
     1
102
RTVSPropertyOp27
 70
     1
102
RTVSPropertyOp28
 70
     1
102
RTVSPropertyOp29
 70
     1
102
RTVSPropertyOp30
 70
     1
102
RTVSPropertyOp31
 70
     1
102
RTVSPropertyOp32
 70
     1
102
RTVSPropertyOp33
 70
     1
102
RTVSPropertyOp34
 70
     1
102
RTVSPropertyOp35
 70
     1
102
RTVSPropertyOp36
 70
     1
102
RTVSPropertyOp37
 70
     1
102
RTVSPropertyOp38
 70
     1
102
RTVSPropertyOp39
 70
     1
102
RTVSPropertyOp40
 70
     1
102
RTVSPropertyOp41
 70
     1
102
RTVSPropertyOp42
 70
     1
102
RTVSPropertyOp43
 70
     1
102
RTVSPropertyOp44
 70
     1
102
RTVSPropertyOp45
 70
     1
102
RTVSPropertyOp46
 70
     1
102
RTVSPropertyOp47
 70
     1
102
RTVSPropertyOp48
 70
     1
102
RTVSPropertyOp49
 70
     1
102
RTVSPropertyOp50
 70
     1
102
RTVSPropertyOp51
 70
     0
102
RTVSPropertyOp52
 70
     0
102
RTVSPropertyOp53
 70
     1
102
RTVSPropertyOp54
 70
     1
102
RTVSPropertyOp55
 70
     1
102
RTVSPropertyOp56
 70
     1
102
RTVSPropertyOp57
 70
     1
102
RTVSPropertyOp58
 70
     1
102
RTVSPropertyOp59
 70
     1
102
RTVSPropertyOp60
 70
     1
102
RTVSPropertyOp61
 70
     1
102
RTVSPropertyOp62
 70
     1
  0
XRECORD
  5
F8D
102
{ACAD_REACTORS
330
F8C
102
}
330
F8C
100
AcDbXrecord
280
     1
102
RTVSPost2010Prop28
280
     0
102
RTVSPost2010PropOp28
 70
     1
102
RTVSPost2010Prop29
280
     1
102
RTVSPost2010PropOp29
 70
     1
102
RTVSPost2010Prop30
280
     1
102
RTVSPost2010PropOp30
 70
     1
102
RTVSPost2010Prop31
280
     0
102
RTVSPost2010PropOp31
 70
     1
102
RTVSPost2010Prop32
280
     0
102
RTVSPost2010PropOp32
 70
     1
102
RTVSPost2010Prop33
280
     0
102
RTVSPost2010PropOp33
 70
     1
102
RTVSPost2010Prop34
280
     0
102
RTVSPost2010PropOp34
 70
     1
102
RTVSPost2010Prop35
280
     0
102
RTVSPost2010PropOp35
 70
     1
102
RTVSPost2010Prop36
280
     0
102
RTVSPost2010PropOp36
 70
     1
102
RTVSPost2010Prop37
 90
       50
102
RTVSPost2010PropOp37
 70
     1
102
RTVSPost2010Prop38
140
0.0
102
RTVSPost2010PropOp38
 70
     1
102
RTVSPost2010Prop39
140
1.0
102
RTVSPost2010PropOp39
 70
     1
102
RTVSPost2010Prop40
 90
        0
102
RTVSPost2010PropOp40
 70
     1
102
RTVSPost2010Prop41ColorIndex
 90
       18
102
RTVSPost2010Prop41ColorRGB
 90
        0
102
RTVSPost2010PropOp41
 70
     1
102
RTVSPost2010Prop42
 90
       50
102
RTVSPost2010PropOp42
 70
     1
102
RTVSPost2010Prop43
 90
        3
102
RTVSPost2010PropOp43
 70
     1
102
RTVSPost2010Prop44ColorIndex
 90
        5
102
RTVSPost2010Prop44ColorRGB
 90
      255
102
RTVSPost2010PropOp44
 70
     1
102
RTVSPost2010Prop45
280
     0
102
RTVSPost2010PropOp45
 70
     1
102
RTVSPost2010Prop46
 90
       50
102
RTVSPost2010PropOp46
 70
     1
102
RTVSPost2010Prop47
 90
       50
102
RTVSPost2010PropOp47
 70
     1
102
RTVSPost2010Prop48
 90
       50
102
RTVSPost2010PropOp48
 70
     1
102
RTVSPost2010Prop49
280
     0
102
RTVSPost2010PropOp49
 70
     1
102
RTVSPost2010Prop50
 90
       50
102
RTVSPost2010PropOp50
 70
     1
102
RTVSPost2010Prop51ColorIndex
 90
      256
102
RTVSPost2010Prop51ColorRGB
 90
-16777216
102
RTVSPost2010PropOp51
 70
     0
102
RTVSPost2010Prop52
140
1.0
102
RTVSPost2010PropOp52
 70
     0
102
RTVSPost2010Prop53
 90
        2
102
RTVSPost2010PropOp53
 70
     1
102
RTVSPost2010Prop54
  1
strokes_ogs.tif
102
RTVSPost2010PropOp54
 70
     1
102
RTVSPost2010Prop55
280
     0
102
RTVSPost2010PropOp55
 70
     1
102
RTVSPost2010Prop56
140
1.0
102
RTVSPost2010PropOp56
 70
     1
102
RTVSPost2010Prop57
140
1.0
102
RTVSPost2010PropOp57
 70
     1
102
RTVSPropertyOp0
 70
     1
102
RTVSPropertyOp1
 70
     1
102
RTVSPropertyOp2
 70
     1
102
RTVSPropertyOp3
 70
     1
102
RTVSPropertyOp4
 70
     1
102
RTVSPropertyOp5
 70
     1
102
RTVSPropertyOp6
 70
     1
102
RTVSPropertyOp7
 70
     1
102
RTVSPropertyOp8
 70
     1
102
RTVSPropertyOp9
 70
     1
102
RTVSPropertyOp10
 70
     1
102
RTVSPropertyOp11
 70
     1
102
RTVSPropertyOp12
 70
     1
102
RTVSPropertyOp13
 70
     1
102
RTVSPropertyOp14
 70
     1
102
RTVSPropertyOp15
 70
     1
102
RTVSPropertyOp16
 70
     1
102
RTVSPropertyOp17
 70
     1
102
RTVSPropertyOp18
 70
     1
102
RTVSPropertyOp19
 70
     1
102
RTVSPropertyOp20
 70
     1
102
RTVSPropertyOp21
 70
     1
102
RTVSPropertyOp22
 70
     1
102
RTVSPropertyOp23
 70
     1
102
RTVSPropertyOp24
 70
     1
102
RTVSPropertyOp25
 70
     1
102
RTVSPropertyOp26
 70
     1
102
RTVSPropertyOp27
 70
     1
102
RTVSPropertyOp28
 70
     1
102
RTVSPropertyOp29
 70
     1
102
RTVSPropertyOp30
 70
     1
102
RTVSPropertyOp31
 70
     1
102
RTVSPropertyOp32
 70
     1
102
RTVSPropertyOp33
 70
     1
102
RTVSPropertyOp34
 70
     1
102
RTVSPropertyOp35
 70
     1
102
RTVSPropertyOp36
 70
     1
102
RTVSPropertyOp37
 70
     1
102
RTVSPropertyOp38
 70
     1
102
RTVSPropertyOp39
 70
     1
102
RTVSPropertyOp40
 70
     1
102
RTVSPropertyOp41
 70
     1
102
RTVSPropertyOp42
 70
     1
102
RTVSPropertyOp43
 70
     1
102
RTVSPropertyOp44
 70
     1
102
RTVSPropertyOp45
 70
     1
102
RTVSPropertyOp46
 70
     1
102
RTVSPropertyOp47
 70
     1
102
RTVSPropertyOp48
 70
     1
102
RTVSPropertyOp49
 70
     1
102
RTVSPropertyOp50
 70
     1
102
RTVSPropertyOp51
 70
     0
102
RTVSPropertyOp52
 70
     0
102
RTVSPropertyOp53
 70
     1
102
RTVSPropertyOp54
 70
     1
102
RTVSPropertyOp55
 70
     1
102
RTVSPropertyOp56
 70
     1
102
RTVSPropertyOp57
 70
     1
102
RTVSPropertyOp58
 70
     1
102
RTVSPropertyOp59
 70
     1
102
RTVSPropertyOp60
 70
     1
102
RTVSPropertyOp61
 70
     1
102
RTVSPropertyOp62
 70
     1
  0
XRECORD
  5
F91
102
{ACAD_REACTORS
330
F90
102
}
330
F90
100
AcDbXrecord
280
     1
102
RTVSPost2010Prop28
280
     0
102
RTVSPost2010PropOp28
 70
     1
102
RTVSPost2010Prop29
280
     1
102
RTVSPost2010PropOp29
 70
     1
102
RTVSPost2010Prop30
280
     1
102
RTVSPost2010PropOp30
 70
     1
102
RTVSPost2010Prop31
280
     0
102
RTVSPost2010PropOp31
 70
     1
102
RTVSPost2010Prop32
280
     0
102
RTVSPost2010PropOp32
 70
     1
102
RTVSPost2010Prop33
280
     0
102
RTVSPost2010PropOp33
 70
     1
102
RTVSPost2010Prop34
280
     0
102
RTVSPost2010PropOp34
 70
     1
102
RTVSPost2010Prop35
280
     0
102
RTVSPost2010PropOp35
 70
     1
102
RTVSPost2010Prop36
280
     0
102
RTVSPost2010PropOp36
 70
     1
102
RTVSPost2010Prop37
 90
       50
102
RTVSPost2010PropOp37
 70
     1
102
RTVSPost2010Prop38
140
0.0
102
RTVSPost2010PropOp38
 70
     1
102
RTVSPost2010Prop39
140
1.0
102
RTVSPost2010PropOp39
 70
     1
102
RTVSPost2010Prop40
 90
        0
102
RTVSPost2010PropOp40
 70
     1
102
RTVSPost2010Prop41ColorIndex
 90
       18
102
RTVSPost2010Prop41ColorRGB
 90
        0
102
RTVSPost2010PropOp41
 70
     1
102
RTVSPost2010Prop42
 90
       50
102
RTVSPost2010PropOp42
 70
     1
102
RTVSPost2010Prop43
 90
        3
102
RTVSPost2010PropOp43
 70
     1
102
RTVSPost2010Prop44ColorIndex
 90
        5
102
RTVSPost2010Prop44ColorRGB
 90
      255
102
RTVSPost2010PropOp44
 70
     1
102
RTVSPost2010Prop45
280
     0
102
RTVSPost2010PropOp45
 70
     1
102
RTVSPost2010Prop46
 90
       50
102
RTVSPost2010PropOp46
 70
     1
102
RTVSPost2010Prop47
 90
       50
102
RTVSPost2010PropOp47
 70
     1
102
RTVSPost2010Prop48
 90
       50
102
RTVSPost2010PropOp48
 70
     1
102
RTVSPost2010Prop49
280
     0
102
RTVSPost2010PropOp49
 70
     1
102
RTVSPost2010Prop50
 90
       50
102
RTVSPost2010PropOp50
 70
     1
102
RTVSPost2010Prop51ColorIndex
 90
      256
102
RTVSPost2010Prop51ColorRGB
 90
-16777216
102
RTVSPost2010PropOp51
 70
     0
102
RTVSPost2010Prop52
140
1.0
102
RTVSPost2010PropOp52
 70
     0
102
RTVSPost2010Prop53
 90
        2
102
RTVSPost2010PropOp53
 70
     1
102
RTVSPost2010Prop54
  1
strokes_ogs.tif
102
RTVSPost2010PropOp54
 70
     1
102
RTVSPost2010Prop55
280
     0
102
RTVSPost2010PropOp55
 70
     1
102
RTVSPost2010Prop56
140
1.0
102
RTVSPost2010PropOp56
 70
     1
102
RTVSPost2010Prop57
140
1.0
102
RTVSPost2010PropOp57
 70
     1
102
RTVSPropertyOp0
 70
     1
102
RTVSPropertyOp1
 70
     1
102
RTVSPropertyOp2
 70
     1
102
RTVSPropertyOp3
 70
     1
102
RTVSPropertyOp4
 70
     1
102
RTVSPropertyOp5
 70
     1
102
RTVSPropertyOp6
 70
     1
102
RTVSPropertyOp7
 70
     1
102
RTVSPropertyOp8
 70
     1
102
RTVSPropertyOp9
 70
     1
102
RTVSPropertyOp10
 70
     1
102
RTVSPropertyOp11
 70
     1
102
RTVSPropertyOp12
 70
     1
102
RTVSPropertyOp13
 70
     1
102
RTVSPropertyOp14
 70
     1
102
RTVSPropertyOp15
 70
     1
102
RTVSPropertyOp16
 70
     1
102
RTVSPropertyOp17
 70
     1
102
RTVSPropertyOp18
 70
     1
102
RTVSPropertyOp19
 70
     1
102
RTVSPropertyOp20
 70
     1
102
RTVSPropertyOp21
 70
     1
102
RTVSPropertyOp22
 70
     1
102
RTVSPropertyOp23
 70
     1
102
RTVSPropertyOp24
 70
     1
102
RTVSPropertyOp25
 70
     1
102
RTVSPropertyOp26
 70
     1
102
RTVSPropertyOp27
 70
     1
102
RTVSPropertyOp28
 70
     1
102
RTVSPropertyOp29
 70
     1
102
RTVSPropertyOp30
 70
     1
102
RTVSPropertyOp31
 70
     1
102
RTVSPropertyOp32
 70
     1
102
RTVSPropertyOp33
 70
     1
102
RTVSPropertyOp34
 70
     1
102
RTVSPropertyOp35
 70
     1
102
RTVSPropertyOp36
 70
     1
102
RTVSPropertyOp37
 70
     1
102
RTVSPropertyOp38
 70
     1
102
RTVSPropertyOp39
 70
     1
102
RTVSPropertyOp40
 70
     1
102
RTVSPropertyOp41
 70
     1
102
RTVSPropertyOp42
 70
     1
102
RTVSPropertyOp43
 70
     1
102
RTVSPropertyOp44
 70
     1
102
RTVSPropertyOp45
 70
     1
102
RTVSPropertyOp46
 70
     1
102
RTVSPropertyOp47
 70
     1
102
RTVSPropertyOp48
 70
     1
102
RTVSPropertyOp49
 70
     1
102
RTVSPropertyOp50
 70
     1
102
RTVSPropertyOp51
 70
     0
102
RTVSPropertyOp52
 70
     0
102
RTVSPropertyOp53
 70
     1
102
RTVSPropertyOp54
 70
     1
102
RTVSPropertyOp55
 70
     1
102
RTVSPropertyOp56
 70
     1
102
RTVSPropertyOp57
 70
     1
102
RTVSPropertyOp58
 70
     1
102
RTVSPropertyOp59
 70
     1
102
RTVSPropertyOp60
 70
     1
102
RTVSPropertyOp61
 70
     1
102
RTVSPropertyOp62
 70
     1
  0
XRECORD
  5
FAB
102
{ACAD_REACTORS
330
FAA
102
}
330
FAA
100
AcDbXrecord
280
     1
102
RTVSPost2010Prop28
280
     0
102
RTVSPost2010PropOp28
 70
     1
102
RTVSPost2010Prop29
280
     1
102
RTVSPost2010PropOp29
 70
     1
102
RTVSPost2010Prop30
280
     1
102
RTVSPost2010PropOp30
 70
     1
102
RTVSPost2010Prop31
280
     0
102
RTVSPost2010PropOp31
 70
     1
102
RTVSPost2010Prop32
280
     0
102
RTVSPost2010PropOp32
 70
     1
102
RTVSPost2010Prop33
280
     0
102
RTVSPost2010PropOp33
 70
     1
102
RTVSPost2010Prop34
280
     0
102
RTVSPost2010PropOp34
 70
     1
102
RTVSPost2010Prop35
280
     0
102
RTVSPost2010PropOp35
 70
     1
102
RTVSPost2010Prop36
280
     0
102
RTVSPost2010PropOp36
 70
     1
102
RTVSPost2010Prop37
 90
       50
102
RTVSPost2010PropOp37
 70
     0
102
RTVSPost2010Prop38
140
0.0
102
RTVSPost2010PropOp38
 70
     0
102
RTVSPost2010Prop39
140
1.0
102
RTVSPost2010PropOp39
 70
     0
102
RTVSPost2010Prop40
 90
        0
102
RTVSPost2010PropOp40
 70
     0
102
RTVSPost2010Prop41ColorIndex
 90
       18
102
RTVSPost2010Prop41ColorRGB
 90
        0
102
RTVSPost2010PropOp41
 70
     0
102
RTVSPost2010Prop42
 90
       50
102
RTVSPost2010PropOp42
 70
     0
102
RTVSPost2010Prop43
 90
        3
102
RTVSPost2010PropOp43
 70
     0
102
RTVSPost2010Prop44ColorIndex
 90
        5
102
RTVSPost2010Prop44ColorRGB
 90
      255
102
RTVSPost2010PropOp44
 70
     0
102
RTVSPost2010Prop45
280
     0
102
RTVSPost2010PropOp45
 70
     1
102
RTVSPost2010Prop46
 90
       50
102
RTVSPost2010PropOp46
 70
     0
102
RTVSPost2010Prop47
 90
       50
102
RTVSPost2010PropOp47
 70
     0
102
RTVSPost2010Prop48
 90
       50
102
RTVSPost2010PropOp48
 70
     0
102
RTVSPost2010Prop49
280
     0
102
RTVSPost2010PropOp49
 70
     1
102
RTVSPost2010Prop50
 90
       50
102
RTVSPost2010PropOp50
 70
     0
102
RTVSPost2010Prop51ColorIndex
 90
      256
102
RTVSPost2010Prop51ColorRGB
 90
-16777216
102
RTVSPost2010PropOp51
 70
     0
102
RTVSPost2010Prop52
140
1.0
102
RTVSPost2010PropOp52
 70
     0
102
RTVSPost2010Prop53
 90
        2
102
RTVSPost2010PropOp53
 70
     0
102
RTVSPost2010Prop54
  1
strokes_ogs.tif
102
RTVSPost2010PropOp54
 70
     0
102
RTVSPost2010Prop55
280
     0
102
RTVSPost2010PropOp55
 70
     1
102
RTVSPost2010Prop56
140
1.0
102
RTVSPost2010PropOp56
 70
     0
102
RTVSPost2010Prop57
140
1.0
102
RTVSPost2010PropOp57
 70
     0
102
RTVSPropertyOp0
 70
     0
102
RTVSPropertyOp1
 70
     0
102
RTVSPropertyOp2
 70
     0
102
RTVSPropertyOp3
 70
     0
102
RTVSPropertyOp4
 70
     0
102
RTVSPropertyOp5
 70
     0
102
RTVSPropertyOp6
 70
     0
102
RTVSPropertyOp7
 70
     0
102
RTVSPropertyOp8
 70
     0
102
RTVSPropertyOp9
 70
     0
102
RTVSPropertyOp10
 70
     0
102
RTVSPropertyOp11
 70
     0
102
RTVSPropertyOp12
 70
     0
102
RTVSPropertyOp13
 70
     0
102
RTVSPropertyOp14
 70
     2
102
RTVSPropertyOp15
 70
     0
102
RTVSPropertyOp16
 70
     0
102
RTVSPropertyOp17
 70
     0
102
RTVSPropertyOp18
 70
     0
102
RTVSPropertyOp19
 70
     0
102
RTVSPropertyOp20
 70
     0
102
RTVSPropertyOp21
 70
     0
102
RTVSPropertyOp22
 70
     0
102
RTVSPropertyOp23
 70
     0
102
RTVSPropertyOp24
 70
     0
102
RTVSPropertyOp25
 70
     0
102
RTVSPropertyOp26
 70
     0
102
RTVSPropertyOp27
 70
     0
102
RTVSPropertyOp28
 70
     1
102
RTVSPropertyOp29
 70
     1
102
RTVSPropertyOp30
 70
     1
102
RTVSPropertyOp31
 70
     1
102
RTVSPropertyOp32
 70
     1
102
RTVSPropertyOp33
 70
     1
102
RTVSPropertyOp34
 70
     1
102
RTVSPropertyOp35
 70
     1
102
RTVSPropertyOp36
 70
     1
102
RTVSPropertyOp37
 70
     0
102
RTVSPropertyOp38
 70
     0
102
RTVSPropertyOp39
 70
     0
102
RTVSPropertyOp40
 70
     0
102
RTVSPropertyOp41
 70
     0
102
RTVSPropertyOp42
 70
     0
102
RTVSPropertyOp43
 70
     0
102
RTVSPropertyOp44
 70
     0
102
RTVSPropertyOp45
 70
     1
102
RTVSPropertyOp46
 70
     0
102
RTVSPropertyOp47
 70
     0
102
RTVSPropertyOp48
 70
     0
102
RTVSPropertyOp49
 70
     1
102
RTVSPropertyOp50
 70
     0
102
RTVSPropertyOp51
 70
     0
102
RTVSPropertyOp52
 70
     0
102
RTVSPropertyOp53
 70
     0
102
RTVSPropertyOp54
 70
     0
102
RTVSPropertyOp55
 70
     1
102
RTVSPropertyOp56
 70
     0
102
RTVSPropertyOp57
 70
     0
102
RTVSPropertyOp58
 70
     0
102
RTVSPropertyOp59
 70
     0
102
RTVSPropertyOp60
 70
     0
102
RTVSPropertyOp61
 70
     0
102
RTVSPropertyOp62
 70
     0
  0
XRECORD
  5
F99
102
{ACAD_REACTORS
330
F98
102
}
330
F98
100
AcDbXrecord
280
     1
102
RTVSPost2010Prop28
280
     0
102
RTVSPost2010PropOp28
 70
     1
102
RTVSPost2010Prop29
280
     1
102
RTVSPost2010PropOp29
 70
     1
102
RTVSPost2010Prop30
280
     1
102
RTVSPost2010PropOp30
 70
     1
102
RTVSPost2010Prop31
280
     0
102
RTVSPost2010PropOp31
 70
     1
102
RTVSPost2010Prop32
280
     0
102
RTVSPost2010PropOp32
 70
     1
102
RTVSPost2010Prop33
280
     0
102
RTVSPost2010PropOp33
 70
     1
102
RTVSPost2010Prop34
280
     0
102
RTVSPost2010PropOp34
 70
     1
102
RTVSPost2010Prop35
280
     0
102
RTVSPost2010PropOp35
 70
     1
102
RTVSPost2010Prop36
280
     0
102
RTVSPost2010PropOp36
 70
     1
102
RTVSPost2010Prop37
 90
       50
102
RTVSPost2010PropOp37
 70
     1
102
RTVSPost2010Prop38
140
0.0
102
RTVSPost2010PropOp38
 70
     1
102
RTVSPost2010Prop39
140
1.0
102
RTVSPost2010PropOp39
 70
     1
102
RTVSPost2010Prop40
 90
        0
102
RTVSPost2010PropOp40
 70
     1
102
RTVSPost2010Prop41ColorIndex
 90
       18
102
RTVSPost2010Prop41ColorRGB
 90
        0
102
RTVSPost2010PropOp41
 70
     1
102
RTVSPost2010Prop42
 90
       50
102
RTVSPost2010PropOp42
 70
     1
102
RTVSPost2010Prop43
 90
        3
102
RTVSPost2010PropOp43
 70
     1
102
RTVSPost2010Prop44ColorIndex
 90
        5
102
RTVSPost2010Prop44ColorRGB
 90
      255
102
RTVSPost2010PropOp44
 70
     1
102
RTVSPost2010Prop45
280
     0
102
RTVSPost2010PropOp45
 70
     1
102
RTVSPost2010Prop46
 90
       50
102
RTVSPost2010PropOp46
 70
     1
102
RTVSPost2010Prop47
 90
       50
102
RTVSPost2010PropOp47
 70
     1
102
RTVSPost2010Prop48
 90
       50
102
RTVSPost2010PropOp48
 70
     1
102
RTVSPost2010Prop49
280
     0
102
RTVSPost2010PropOp49
 70
     1
102
RTVSPost2010Prop50
 90
       50
102
RTVSPost2010PropOp50
 70
     1
102
RTVSPost2010Prop51ColorIndex
 90
      256
102
RTVSPost2010Prop51ColorRGB
 90
-16777216
102
RTVSPost2010PropOp51
 70
     0
102
RTVSPost2010Prop52
140
1.0
102
RTVSPost2010PropOp52
 70
     0
102
RTVSPost2010Prop53
 90
        2
102
RTVSPost2010PropOp53
 70
     1
102
RTVSPost2010Prop54
  1
strokes_ogs.tif
102
RTVSPost2010PropOp54
 70
     1
102
RTVSPost2010Prop55
280
     0
102
RTVSPost2010PropOp55
 70
     1
102
RTVSPost2010Prop56
140
1.0
102
RTVSPost2010PropOp56
 70
     1
102
RTVSPost2010Prop57
140
1.0
102
RTVSPost2010PropOp57
 70
     1
102
RTVSPropertyOp0
 70
     1
102
RTVSPropertyOp1
 70
     1
102
RTVSPropertyOp2
 70
     1
102
RTVSPropertyOp3
 70
     1
102
RTVSPropertyOp4
 70
     1
102
RTVSPropertyOp5
 70
     1
102
RTVSPropertyOp6
 70
     1
102
RTVSPropertyOp7
 70
     1
102
RTVSPropertyOp8
 70
     1
102
RTVSPropertyOp9
 70
     1
102
RTVSPropertyOp10
 70
     1
102
RTVSPropertyOp11
 70
     1
102
RTVSPropertyOp12
 70
     1
102
RTVSPropertyOp13
 70
     1
102
RTVSPropertyOp14
 70
     1
102
RTVSPropertyOp15
 70
     1
102
RTVSPropertyOp16
 70
     1
102
RTVSPropertyOp17
 70
     1
102
RTVSPropertyOp18
 70
     1
102
RTVSPropertyOp19
 70
     1
102
RTVSPropertyOp20
 70
     1
102
RTVSPropertyOp21
 70
     1
102
RTVSPropertyOp22
 70
     1
102
RTVSPropertyOp23
 70
     1
102
RTVSPropertyOp24
 70
     1
102
RTVSPropertyOp25
 70
     1
102
RTVSPropertyOp26
 70
     1
102
RTVSPropertyOp27
 70
     1
102
RTVSPropertyOp28
 70
     1
102
RTVSPropertyOp29
 70
     1
102
RTVSPropertyOp30
 70
     1
102
RTVSPropertyOp31
 70
     1
102
RTVSPropertyOp32
 70
     1
102
RTVSPropertyOp33
 70
     1
102
RTVSPropertyOp34
 70
     1
102
RTVSPropertyOp35
 70
     1
102
RTVSPropertyOp36
 70
     1
102
RTVSPropertyOp37
 70
     1
102
RTVSPropertyOp38
 70
     1
102
RTVSPropertyOp39
 70
     1
102
RTVSPropertyOp40
 70
     1
102
RTVSPropertyOp41
 70
     1
102
RTVSPropertyOp42
 70
     1
102
RTVSPropertyOp43
 70
     1
102
RTVSPropertyOp44
 70
     1
102
RTVSPropertyOp45
 70
     1
102
RTVSPropertyOp46
 70
     1
102
RTVSPropertyOp47
 70
     1
102
RTVSPropertyOp48
 70
     1
102
RTVSPropertyOp49
 70
     1
102
RTVSPropertyOp50
 70
     1
102
RTVSPropertyOp51
 70
     0
102
RTVSPropertyOp52
 70
     0
102
RTVSPropertyOp53
 70
     1
102
RTVSPropertyOp54
 70
     1
102
RTVSPropertyOp55
 70
     1
102
RTVSPropertyOp56
 70
     1
102
RTVSPropertyOp57
 70
     1
102
RTVSPropertyOp58
 70
     1
102
RTVSPropertyOp59
 70
     1
102
RTVSPropertyOp60
 70
     1
102
RTVSPropertyOp61
 70
     1
102
RTVSPropertyOp62
 70
     1
  0
XRECORD
  5
F7D
102
{ACAD_REACTORS
330
F7C
102
}
330
F7C
100
AcDbXrecord
280
     1
102
RTVSPost2010Prop28
280
     0
102
RTVSPost2010PropOp28
 70
     1
102
RTVSPost2010Prop29
280
     1
102
RTVSPost2010PropOp29
 70
     1
102
RTVSPost2010Prop30
280
     1
102
RTVSPost2010PropOp30
 70
     1
102
RTVSPost2010Prop31
280
     0
102
RTVSPost2010PropOp31
 70
     1
102
RTVSPost2010Prop32
280
     0
102
RTVSPost2010PropOp32
 70
     1
102
RTVSPost2010Prop33
280
     0
102
RTVSPost2010PropOp33
 70
     1
102
RTVSPost2010Prop34
280
     0
102
RTVSPost2010PropOp34
 70
     1
102
RTVSPost2010Prop35
280
     0
102
RTVSPost2010PropOp35
 70
     1
102
RTVSPost2010Prop36
280
     0
102
RTVSPost2010PropOp36
 70
     1
102
RTVSPost2010Prop37
 90
       50
102
RTVSPost2010PropOp37
 70
     1
102
RTVSPost2010Prop38
140
0.0
102
RTVSPost2010PropOp38
 70
     1
102
RTVSPost2010Prop39
140
1.0
102
RTVSPost2010PropOp39
 70
     1
102
RTVSPost2010Prop40
 90
        0
102
RTVSPost2010PropOp40
 70
     1
102
RTVSPost2010Prop41ColorIndex
 90
       18
102
RTVSPost2010Prop41ColorRGB
 90
        0
102
RTVSPost2010PropOp41
 70
     1
102
RTVSPost2010Prop42
 90
       50
102
RTVSPost2010PropOp42
 70
     1
102
RTVSPost2010Prop43
 90
        3
102
RTVSPost2010PropOp43
 70
     1
102
RTVSPost2010Prop44ColorIndex
 90
        5
102
RTVSPost2010Prop44ColorRGB
 90
      255
102
RTVSPost2010PropOp44
 70
     1
102
RTVSPost2010Prop45
280
     0
102
RTVSPost2010PropOp45
 70
     1
102
RTVSPost2010Prop46
 90
       50
102
RTVSPost2010PropOp46
 70
     1
102
RTVSPost2010Prop47
 90
       50
102
RTVSPost2010PropOp47
 70
     1
102
RTVSPost2010Prop48
 90
       50
102
RTVSPost2010PropOp48
 70
     1
102
RTVSPost2010Prop49
280
     0
102
RTVSPost2010PropOp49
 70
     1
102
RTVSPost2010Prop50
 90
       50
102
RTVSPost2010PropOp50
 70
     1
102
RTVSPost2010Prop51ColorIndex
 90
      256
102
RTVSPost2010Prop51ColorRGB
 90
-16777216
102
RTVSPost2010PropOp51
 70
     0
102
RTVSPost2010Prop52
140
1.0
102
RTVSPost2010PropOp52
 70
     0
102
RTVSPost2010Prop53
 90
        2
102
RTVSPost2010PropOp53
 70
     1
102
RTVSPost2010Prop54
  1
strokes_ogs.tif
102
RTVSPost2010PropOp54
 70
     1
102
RTVSPost2010Prop55
280
     0
102
RTVSPost2010PropOp55
 70
     1
102
RTVSPost2010Prop56
140
1.0
102
RTVSPost2010PropOp56
 70
     1
102
RTVSPost2010Prop57
140
1.0
102
RTVSPost2010PropOp57
 70
     1
102
RTVSPropertyOp0
 70
     1
102
RTVSPropertyOp1
 70
     1
102
RTVSPropertyOp2
 70
     1
102
RTVSPropertyOp3
 70
     1
102
RTVSPropertyOp4
 70
     1
102
RTVSPropertyOp5
 70
     1
102
RTVSPropertyOp6
 70
     1
102
RTVSPropertyOp7
 70
     1
102
RTVSPropertyOp8
 70
     1
102
RTVSPropertyOp9
 70
     1
102
RTVSPropertyOp10
 70
     1
102
RTVSPropertyOp11
 70
     1
102
RTVSPropertyOp12
 70
     1
102
RTVSPropertyOp13
 70
     1
102
RTVSPropertyOp14
 70
     1
102
RTVSPropertyOp15
 70
     1
102
RTVSPropertyOp16
 70
     1
102
RTVSPropertyOp17
 70
     1
102
RTVSPropertyOp18
 70
     1
102
RTVSPropertyOp19
 70
     1
102
RTVSPropertyOp20
 70
     1
102
RTVSPropertyOp21
 70
     1
102
RTVSPropertyOp22
 70
     1
102
RTVSPropertyOp23
 70
     1
102
RTVSPropertyOp24
 70
     1
102
RTVSPropertyOp25
 70
     1
102
RTVSPropertyOp26
 70
     1
102
RTVSPropertyOp27
 70
     1
102
RTVSPropertyOp28
 70
     1
102
RTVSPropertyOp29
 70
     1
102
RTVSPropertyOp30
 70
     1
102
RTVSPropertyOp31
 70
     1
102
RTVSPropertyOp32
 70
     1
102
RTVSPropertyOp33
 70
     1
102
RTVSPropertyOp34
 70
     1
102
RTVSPropertyOp35
 70
     1
102
RTVSPropertyOp36
 70
     1
102
RTVSPropertyOp37
 70
     1
102
RTVSPropertyOp38
 70
     1
102
RTVSPropertyOp39
 70
     1
102
RTVSPropertyOp40
 70
     1
102
RTVSPropertyOp41
 70
     1
102
RTVSPropertyOp42
 70
     1
102
RTVSPropertyOp43
 70
     1
102
RTVSPropertyOp44
 70
     1
102
RTVSPropertyOp45
 70
     1
102
RTVSPropertyOp46
 70
     1
102
RTVSPropertyOp47
 70
     1
102
RTVSPropertyOp48
 70
     1
102
RTVSPropertyOp49
 70
     1
102
RTVSPropertyOp50
 70
     1
102
RTVSPropertyOp51
 70
     0
102
RTVSPropertyOp52
 70
     0
102
RTVSPropertyOp53
 70
     1
102
RTVSPropertyOp54
 70
     1
102
RTVSPropertyOp55
 70
     1
102
RTVSPropertyOp56
 70
     1
102
RTVSPropertyOp57
 70
     1
102
RTVSPropertyOp58
 70
     1
102
RTVSPropertyOp59
 70
     1
102
RTVSPropertyOp60
 70
     1
102
RTVSPropertyOp61
 70
     1
102
RTVSPropertyOp62
 70
     1
  0
XRECORD
  5
F7F
102
{ACAD_REACTORS
330
F7E
102
}
330
F7E
100
AcDbXrecord
280
     1
102
RTVSPost2010Prop28
280
     0
102
RTVSPost2010PropOp28
 70
     1
102
RTVSPost2010Prop29
280
     1
102
RTVSPost2010PropOp29
 70
     1
102
RTVSPost2010Prop30
280
     1
102
RTVSPost2010PropOp30
 70
     1
102
RTVSPost2010Prop31
280
     0
102
RTVSPost2010PropOp31
 70
     1
102
RTVSPost2010Prop32
280
     0
102
RTVSPost2010PropOp32
 70
     1
102
RTVSPost2010Prop33
280
     0
102
RTVSPost2010PropOp33
 70
     1
102
RTVSPost2010Prop34
280
     0
102
RTVSPost2010PropOp34
 70
     1
102
RTVSPost2010Prop35
280
     0
102
RTVSPost2010PropOp35
 70
     1
102
RTVSPost2010Prop36
280
     0
102
RTVSPost2010PropOp36
 70
     1
102
RTVSPost2010Prop37
 90
       50
102
RTVSPost2010PropOp37
 70
     1
102
RTVSPost2010Prop38
140
0.0
102
RTVSPost2010PropOp38
 70
     1
102
RTVSPost2010Prop39
140
1.0
102
RTVSPost2010PropOp39
 70
     1
102
RTVSPost2010Prop40
 90
        0
102
RTVSPost2010PropOp40
 70
     1
102
RTVSPost2010Prop41ColorIndex
 90
       18
102
RTVSPost2010Prop41ColorRGB
 90
        0
102
RTVSPost2010PropOp41
 70
     1
102
RTVSPost2010Prop42
 90
       50
102
RTVSPost2010PropOp42
 70
     1
102
RTVSPost2010Prop43
 90
        3
102
RTVSPost2010PropOp43
 70
     1
102
RTVSPost2010Prop44ColorIndex
 90
        5
102
RTVSPost2010Prop44ColorRGB
 90
      255
102
RTVSPost2010PropOp44
 70
     1
102
RTVSPost2010Prop45
280
     0
102
RTVSPost2010PropOp45
 70
     1
102
RTVSPost2010Prop46
 90
       50
102
RTVSPost2010PropOp46
 70
     1
102
RTVSPost2010Prop47
 90
       50
102
RTVSPost2010PropOp47
 70
     1
102
RTVSPost2010Prop48
 90
       50
102
RTVSPost2010PropOp48
 70
     1
102
RTVSPost2010Prop49
280
     0
102
RTVSPost2010PropOp49
 70
     1
102
RTVSPost2010Prop50
 90
       50
102
RTVSPost2010PropOp50
 70
     1
102
RTVSPost2010Prop51ColorIndex
 90
      256
102
RTVSPost2010Prop51ColorRGB
 90
-16777216
102
RTVSPost2010PropOp51
 70
     0
102
RTVSPost2010Prop52
140
1.0
102
RTVSPost2010PropOp52
 70
     0
102
RTVSPost2010Prop53
 90
        2
102
RTVSPost2010PropOp53
 70
     1
102
RTVSPost2010Prop54
  1
strokes_ogs.tif
102
RTVSPost2010PropOp54
 70
     1
102
RTVSPost2010Prop55
280
     0
102
RTVSPost2010PropOp55
 70
     1
102
RTVSPost2010Prop56
140
1.0
102
RTVSPost2010PropOp56
 70
     1
102
RTVSPost2010Prop57
140
1.0
102
RTVSPost2010PropOp57
 70
     1
102
RTVSPropertyOp0
 70
     1
102
RTVSPropertyOp1
 70
     1
102
RTVSPropertyOp2
 70
     1
102
RTVSPropertyOp3
 70
     1
102
RTVSPropertyOp4
 70
     1
102
RTVSPropertyOp5
 70
     1
102
RTVSPropertyOp6
 70
     1
102
RTVSPropertyOp7
 70
     1
102
RTVSPropertyOp8
 70
     1
102
RTVSPropertyOp9
 70
     1
102
RTVSPropertyOp10
 70
     1
102
RTVSPropertyOp11
 70
     1
102
RTVSPropertyOp12
 70
     1
102
RTVSPropertyOp13
 70
     1
102
RTVSPropertyOp14
 70
     1
102
RTVSPropertyOp15
 70
     1
102
RTVSPropertyOp16
 70
     1
102
RTVSPropertyOp17
 70
     1
102
RTVSPropertyOp18
 70
     1
102
RTVSPropertyOp19
 70
     1
102
RTVSPropertyOp20
 70
     1
102
RTVSPropertyOp21
 70
     1
102
RTVSPropertyOp22
 70
     1
102
RTVSPropertyOp23
 70
     1
102
RTVSPropertyOp24
 70
     1
102
RTVSPropertyOp25
 70
     1
102
RTVSPropertyOp26
 70
     1
102
RTVSPropertyOp27
 70
     1
102
RTVSPropertyOp28
 70
     1
102
RTVSPropertyOp29
 70
     1
102
RTVSPropertyOp30
 70
     1
102
RTVSPropertyOp31
 70
     1
102
RTVSPropertyOp32
 70
     1
102
RTVSPropertyOp33
 70
     1
102
RTVSPropertyOp34
 70
     1
102
RTVSPropertyOp35
 70
     1
102
RTVSPropertyOp36
 70
     1
102
RTVSPropertyOp37
 70
     1
102
RTVSPropertyOp38
 70
     1
102
RTVSPropertyOp39
 70
     1
102
RTVSPropertyOp40
 70
     1
102
RTVSPropertyOp41
 70
     1
102
RTVSPropertyOp42
 70
     1
102
RTVSPropertyOp43
 70
     1
102
RTVSPropertyOp44
 70
     1
102
RTVSPropertyOp45
 70
     1
102
RTVSPropertyOp46
 70
     1
102
RTVSPropertyOp47
 70
     1
102
RTVSPropertyOp48
 70
     1
102
RTVSPropertyOp49
 70
     1
102
RTVSPropertyOp50
 70
     1
102
RTVSPropertyOp51
 70
     0
102
RTVSPropertyOp52
 70
     0
102
RTVSPropertyOp53
 70
     1
102
RTVSPropertyOp54
 70
     1
102
RTVSPropertyOp55
 70
     1
102
RTVSPropertyOp56
 70
     1
102
RTVSPropertyOp57
 70
     1
102
RTVSPropertyOp58
 70
     1
102
RTVSPropertyOp59
 70
     1
102
RTVSPropertyOp60
 70
     1
102
RTVSPropertyOp61
 70
     1
102
RTVSPropertyOp62
 70
     1
  0
XRECORD
  5
F81
102
{ACAD_REACTORS
330
F80
102
}
330
F80
100
AcDbXrecord
280
     1
102
RTVSPost2010Prop28
280
     0
102
RTVSPost2010PropOp28
 70
     1
102
RTVSPost2010Prop29
280
     1
102
RTVSPost2010PropOp29
 70
     1
102
RTVSPost2010Prop30
280
     1
102
RTVSPost2010PropOp30
 70
     1
102
RTVSPost2010Prop31
280
     0
102
RTVSPost2010PropOp31
 70
     1
102
RTVSPost2010Prop32
280
     0
102
RTVSPost2010PropOp32
 70
     1
102
RTVSPost2010Prop33
280
     0
102
RTVSPost2010PropOp33
 70
     1
102
RTVSPost2010Prop34
280
     0
102
RTVSPost2010PropOp34
 70
     1
102
RTVSPost2010Prop35
280
     0
102
RTVSPost2010PropOp35
 70
     1
102
RTVSPost2010Prop36
280
     0
102
RTVSPost2010PropOp36
 70
     1
102
RTVSPost2010Prop37
 90
       50
102
RTVSPost2010PropOp37
 70
     1
102
RTVSPost2010Prop38
140
0.0
102
RTVSPost2010PropOp38
 70
     1
102
RTVSPost2010Prop39
140
1.0
102
RTVSPost2010PropOp39
 70
     1
102
RTVSPost2010Prop40
 90
        0
102
RTVSPost2010PropOp40
 70
     1
102
RTVSPost2010Prop41ColorIndex
 90
       18
102
RTVSPost2010Prop41ColorRGB
 90
        0
102
RTVSPost2010PropOp41
 70
     1
102
RTVSPost2010Prop42
 90
       50
102
RTVSPost2010PropOp42
 70
     1
102
RTVSPost2010Prop43
 90
        3
102
RTVSPost2010PropOp43
 70
     1
102
RTVSPost2010Prop44ColorIndex
 90
        5
102
RTVSPost2010Prop44ColorRGB
 90
      255
102
RTVSPost2010PropOp44
 70
     1
102
RTVSPost2010Prop45
280
     0
102
RTVSPost2010PropOp45
 70
     1
102
RTVSPost2010Prop46
 90
       50
102
RTVSPost2010PropOp46
 70
     1
102
RTVSPost2010Prop47
 90
       50
102
RTVSPost2010PropOp47
 70
     1
102
RTVSPost2010Prop48
 90
       50
102
RTVSPost2010PropOp48
 70
     1
102
RTVSPost2010Prop49
280
     0
102
RTVSPost2010PropOp49
 70
     1
102
RTVSPost2010Prop50
 90
       50
102
RTVSPost2010PropOp50
 70
     1
102
RTVSPost2010Prop51ColorIndex
 90
      256
102
RTVSPost2010Prop51ColorRGB
 90
-16777216
102
RTVSPost2010PropOp51
 70
     0
102
RTVSPost2010Prop52
140
1.0
102
RTVSPost2010PropOp52
 70
     0
102
RTVSPost2010Prop53
 90
        2
102
RTVSPost2010PropOp53
 70
     1
102
RTVSPost2010Prop54
  1
strokes_ogs.tif
102
RTVSPost2010PropOp54
 70
     1
102
RTVSPost2010Prop55
280
     0
102
RTVSPost2010PropOp55
 70
     1
102
RTVSPost2010Prop56
140
1.0
102
RTVSPost2010PropOp56
 70
     1
102
RTVSPost2010Prop57
140
1.0
102
RTVSPost2010PropOp57
 70
     1
102
RTVSPropertyOp0
 70
     1
102
RTVSPropertyOp1
 70
     1
102
RTVSPropertyOp2
 70
     1
102
RTVSPropertyOp3
 70
     1
102
RTVSPropertyOp4
 70
     1
102
RTVSPropertyOp5
 70
     1
102
RTVSPropertyOp6
 70
     1
102
RTVSPropertyOp7
 70
     1
102
RTVSPropertyOp8
 70
     1
102
RTVSPropertyOp9
 70
     1
102
RTVSPropertyOp10
 70
     1
102
RTVSPropertyOp11
 70
     1
102
RTVSPropertyOp12
 70
     1
102
RTVSPropertyOp13
 70
     1
102
RTVSPropertyOp14
 70
     1
102
RTVSPropertyOp15
 70
     1
102
RTVSPropertyOp16
 70
     1
102
RTVSPropertyOp17
 70
     1
102
RTVSPropertyOp18
 70
     1
102
RTVSPropertyOp19
 70
     1
102
RTVSPropertyOp20
 70
     1
102
RTVSPropertyOp21
 70
     1
102
RTVSPropertyOp22
 70
     1
102
RTVSPropertyOp23
 70
     1
102
RTVSPropertyOp24
 70
     1
102
RTVSPropertyOp25
 70
     1
102
RTVSPropertyOp26
 70
     1
102
RTVSPropertyOp27
 70
     1
102
RTVSPropertyOp28
 70
     1
102
RTVSPropertyOp29
 70
     1
102
RTVSPropertyOp30
 70
     1
102
RTVSPropertyOp31
 70
     1
102
RTVSPropertyOp32
 70
     1
102
RTVSPropertyOp33
 70
     1
102
RTVSPropertyOp34
 70
     1
102
RTVSPropertyOp35
 70
     1
102
RTVSPropertyOp36
 70
     1
102
RTVSPropertyOp37
 70
     1
102
RTVSPropertyOp38
 70
     1
102
RTVSPropertyOp39
 70
     1
102
RTVSPropertyOp40
 70
     1
102
RTVSPropertyOp41
 70
     1
102
RTVSPropertyOp42
 70
     1
102
RTVSPropertyOp43
 70
     1
102
RTVSPropertyOp44
 70
     1
102
RTVSPropertyOp45
 70
     1
102
RTVSPropertyOp46
 70
     1
102
RTVSPropertyOp47
 70
     1
102
RTVSPropertyOp48
 70
     1
102
RTVSPropertyOp49
 70
     1
102
RTVSPropertyOp50
 70
     1
102
RTVSPropertyOp51
 70
     0
102
RTVSPropertyOp52
 70
     0
102
RTVSPropertyOp53
 70
     1
102
RTVSPropertyOp54
 70
     1
102
RTVSPropertyOp55
 70
     1
102
RTVSPropertyOp56
 70
     1
102
RTVSPropertyOp57
 70
     1
102
RTVSPropertyOp58
 70
     1
102
RTVSPropertyOp59
 70
     1
102
RTVSPropertyOp60
 70
     1
102
RTVSPropertyOp61
 70
     1
102
RTVSPropertyOp62
 70
     1
  0
XRECORD
  5
F83
102
{ACAD_REACTORS
330
F82
102
}
330
F82
100
AcDbXrecord
280
     1
102
RTVSPost2010Prop28
280
     0
102
RTVSPost2010PropOp28
 70
     1
102
RTVSPost2010Prop29
280
     1
102
RTVSPost2010PropOp29
 70
     1
102
RTVSPost2010Prop30
280
     1
102
RTVSPost2010PropOp30
 70
     1
102
RTVSPost2010Prop31
280
     0
102
RTVSPost2010PropOp31
 70
     1
102
RTVSPost2010Prop32
280
     0
102
RTVSPost2010PropOp32
 70
     1
102
RTVSPost2010Prop33
280
     0
102
RTVSPost2010PropOp33
 70
     1
102
RTVSPost2010Prop34
280
     0
102
RTVSPost2010PropOp34
 70
     1
102
RTVSPost2010Prop35
280
     0
102
RTVSPost2010PropOp35
 70
     1
102
RTVSPost2010Prop36
280
     0
102
RTVSPost2010PropOp36
 70
     1
102
RTVSPost2010Prop37
 90
       50
102
RTVSPost2010PropOp37
 70
     1
102
RTVSPost2010Prop38
140
0.0
102
RTVSPost2010PropOp38
 70
     1
102
RTVSPost2010Prop39
140
1.0
102
RTVSPost2010PropOp39
 70
     1
102
RTVSPost2010Prop40
 90
        0
102
RTVSPost2010PropOp40
 70
     1
102
RTVSPost2010Prop41ColorIndex
 90
       18
102
RTVSPost2010Prop41ColorRGB
 90
        0
102
RTVSPost2010PropOp41
 70
     1
102
RTVSPost2010Prop42
 90
       50
102
RTVSPost2010PropOp42
 70
     1
102
RTVSPost2010Prop43
 90
        3
102
RTVSPost2010PropOp43
 70
     1
102
RTVSPost2010Prop44ColorIndex
 90
        5
102
RTVSPost2010Prop44ColorRGB
 90
      255
102
RTVSPost2010PropOp44
 70
     1
102
RTVSPost2010Prop45
280
     0
102
RTVSPost2010PropOp45
 70
     1
102
RTVSPost2010Prop46
 90
       50
102
RTVSPost2010PropOp46
 70
     1
102
RTVSPost2010Prop47
 90
       50
102
RTVSPost2010PropOp47
 70
     1
102
RTVSPost2010Prop48
 90
       50
102
RTVSPost2010PropOp48
 70
     1
102
RTVSPost2010Prop49
280
     0
102
RTVSPost2010PropOp49
 70
     1
102
RTVSPost2010Prop50
 90
       50
102
RTVSPost2010PropOp50
 70
     1
102
RTVSPost2010Prop51ColorIndex
 90
      256
102
RTVSPost2010Prop51ColorRGB
 90
-16777216
102
RTVSPost2010PropOp51
 70
     0
102
RTVSPost2010Prop52
140
1.0
102
RTVSPost2010PropOp52
 70
     0
102
RTVSPost2010Prop53
 90
        2
102
RTVSPost2010PropOp53
 70
     1
102
RTVSPost2010Prop54
  1
strokes_ogs.tif
102
RTVSPost2010PropOp54
 70
     1
102
RTVSPost2010Prop55
280
     0
102
RTVSPost2010PropOp55
 70
     1
102
RTVSPost2010Prop56
140
1.0
102
RTVSPost2010PropOp56
 70
     1
102
RTVSPost2010Prop57
140
1.0
102
RTVSPost2010PropOp57
 70
     1
102
RTVSPropertyOp0
 70
     1
102
RTVSPropertyOp1
 70
     1
102
RTVSPropertyOp2
 70
     1
102
RTVSPropertyOp3
 70
     1
102
RTVSPropertyOp4
 70
     1
102
RTVSPropertyOp5
 70
     1
102
RTVSPropertyOp6
 70
     1
102
RTVSPropertyOp7
 70
     1
102
RTVSPropertyOp8
 70
     1
102
RTVSPropertyOp9
 70
     1
102
RTVSPropertyOp10
 70
     1
102
RTVSPropertyOp11
 70
     1
102
RTVSPropertyOp12
 70
     1
102
RTVSPropertyOp13
 70
     1
102
RTVSPropertyOp14
 70
     1
102
RTVSPropertyOp15
 70
     1
102
RTVSPropertyOp16
 70
     1
102
RTVSPropertyOp17
 70
     1
102
RTVSPropertyOp18
 70
     1
102
RTVSPropertyOp19
 70
     1
102
RTVSPropertyOp20
 70
     1
102
RTVSPropertyOp21
 70
     1
102
RTVSPropertyOp22
 70
     1
102
RTVSPropertyOp23
 70
     1
102
RTVSPropertyOp24
 70
     1
102
RTVSPropertyOp25
 70
     1
102
RTVSPropertyOp26
 70
     1
102
RTVSPropertyOp27
 70
     1
102
RTVSPropertyOp28
 70
     1
102
RTVSPropertyOp29
 70
     1
102
RTVSPropertyOp30
 70
     1
102
RTVSPropertyOp31
 70
     1
102
RTVSPropertyOp32
 70
     1
102
RTVSPropertyOp33
 70
     1
102
RTVSPropertyOp34
 70
     1
102
RTVSPropertyOp35
 70
     1
102
RTVSPropertyOp36
 70
     1
102
RTVSPropertyOp37
 70
     1
102
RTVSPropertyOp38
 70
     1
102
RTVSPropertyOp39
 70
     1
102
RTVSPropertyOp40
 70
     1
102
RTVSPropertyOp41
 70
     1
102
RTVSPropertyOp42
 70
     1
102
RTVSPropertyOp43
 70
     1
102
RTVSPropertyOp44
 70
     1
102
RTVSPropertyOp45
 70
     1
102
RTVSPropertyOp46
 70
     1
102
RTVSPropertyOp47
 70
     1
102
RTVSPropertyOp48
 70
     1
102
RTVSPropertyOp49
 70
     1
102
RTVSPropertyOp50
 70
     1
102
RTVSPropertyOp51
 70
     0
102
RTVSPropertyOp52
 70
     0
102
RTVSPropertyOp53
 70
     1
102
RTVSPropertyOp54
 70
     1
102
RTVSPropertyOp55
 70
     1
102
RTVSPropertyOp56
 70
     1
102
RTVSPropertyOp57
 70
     1
102
RTVSPropertyOp58
 70
     1
102
RTVSPropertyOp59
 70
     1
102
RTVSPropertyOp60
 70
     1
102
RTVSPropertyOp61
 70
     1
102
RTVSPropertyOp62
 70
     1
  0
XRECORD
  5
F8B
102
{ACAD_REACTORS
330
F8A
102
}
330
F8A
100
AcDbXrecord
280
     1
102
RTVSPost2010Prop28
280
     0
102
RTVSPost2010PropOp28
 70
     1
102
RTVSPost2010Prop29
280
     1
102
RTVSPost2010PropOp29
 70
     1
102
RTVSPost2010Prop30
280
     1
102
RTVSPost2010PropOp30
 70
     1
102
RTVSPost2010Prop31
280
     0
102
RTVSPost2010PropOp31
 70
     1
102
RTVSPost2010Prop32
280
     0
102
RTVSPost2010PropOp32
 70
     1
102
RTVSPost2010Prop33
280
     0
102
RTVSPost2010PropOp33
 70
     1
102
RTVSPost2010Prop34
280
     0
102
RTVSPost2010PropOp34
 70
     1
102
RTVSPost2010Prop35
280
     0
102
RTVSPost2010PropOp35
 70
     1
102
RTVSPost2010Prop36
280
     0
102
RTVSPost2010PropOp36
 70
     1
102
RTVSPost2010Prop37
 90
       50
102
RTVSPost2010PropOp37
 70
     1
102
RTVSPost2010Prop38
140
0.0
102
RTVSPost2010PropOp38
 70
     1
102
RTVSPost2010Prop39
140
1.0
102
RTVSPost2010PropOp39
 70
     1
102
RTVSPost2010Prop40
 90
        0
102
RTVSPost2010PropOp40
 70
     1
102
RTVSPost2010Prop41ColorIndex
 90
       18
102
RTVSPost2010Prop41ColorRGB
 90
        0
102
RTVSPost2010PropOp41
 70
     1
102
RTVSPost2010Prop42
 90
       50
102
RTVSPost2010PropOp42
 70
     1
102
RTVSPost2010Prop43
 90
        3
102
RTVSPost2010PropOp43
 70
     1
102
RTVSPost2010Prop44ColorIndex
 90
        5
102
RTVSPost2010Prop44ColorRGB
 90
      255
102
RTVSPost2010PropOp44
 70
     1
102
RTVSPost2010Prop45
280
     0
102
RTVSPost2010PropOp45
 70
     1
102
RTVSPost2010Prop46
 90
       50
102
RTVSPost2010PropOp46
 70
     1
102
RTVSPost2010Prop47
 90
       50
102
RTVSPost2010PropOp47
 70
     1
102
RTVSPost2010Prop48
 90
       50
102
RTVSPost2010PropOp48
 70
     1
102
RTVSPost2010Prop49
280
     0
102
RTVSPost2010PropOp49
 70
     1
102
RTVSPost2010Prop50
 90
       50
102
RTVSPost2010PropOp50
 70
     1
102
RTVSPost2010Prop51ColorIndex
 90
      256
102
RTVSPost2010Prop51ColorRGB
 90
-16777216
102
RTVSPost2010PropOp51
 70
     0
102
RTVSPost2010Prop52
140
1.0
102
RTVSPost2010PropOp52
 70
     0
102
RTVSPost2010Prop53
 90
        2
102
RTVSPost2010PropOp53
 70
     1
102
RTVSPost2010Prop54
  1
strokes_ogs.tif
102
RTVSPost2010PropOp54
 70
     1
102
RTVSPost2010Prop55
280
     0
102
RTVSPost2010PropOp55
 70
     1
102
RTVSPost2010Prop56
140
1.0
102
RTVSPost2010PropOp56
 70
     1
102
RTVSPost2010Prop57
140
1.0
102
RTVSPost2010PropOp57
 70
     1
102
RTVSPropertyOp0
 70
     1
102
RTVSPropertyOp1
 70
     1
102
RTVSPropertyOp2
 70
     1
102
RTVSPropertyOp3
 70
     1
102
RTVSPropertyOp4
 70
     1
102
RTVSPropertyOp5
 70
     1
102
RTVSPropertyOp6
 70
     1
102
RTVSPropertyOp7
 70
     1
102
RTVSPropertyOp8
 70
     1
102
RTVSPropertyOp9
 70
     1
102
RTVSPropertyOp10
 70
     1
102
RTVSPropertyOp11
 70
     1
102
RTVSPropertyOp12
 70
     1
102
RTVSPropertyOp13
 70
     1
102
RTVSPropertyOp14
 70
     1
102
RTVSPropertyOp15
 70
     1
102
RTVSPropertyOp16
 70
     1
102
RTVSPropertyOp17
 70
     1
102
RTVSPropertyOp18
 70
     1
102
RTVSPropertyOp19
 70
     1
102
RTVSPropertyOp20
 70
     1
102
RTVSPropertyOp21
 70
     1
102
RTVSPropertyOp22
 70
     1
102
RTVSPropertyOp23
 70
     1
102
RTVSPropertyOp24
 70
     1
102
RTVSPropertyOp25
 70
     1
102
RTVSPropertyOp26
 70
     1
102
RTVSPropertyOp27
 70
     1
102
RTVSPropertyOp28
 70
     1
102
RTVSPropertyOp29
 70
     1
102
RTVSPropertyOp30
 70
     1
102
RTVSPropertyOp31
 70
     1
102
RTVSPropertyOp32
 70
     1
102
RTVSPropertyOp33
 70
     1
102
RTVSPropertyOp34
 70
     1
102
RTVSPropertyOp35
 70
     1
102
RTVSPropertyOp36
 70
     1
102
RTVSPropertyOp37
 70
     1
102
RTVSPropertyOp38
 70
     1
102
RTVSPropertyOp39
 70
     1
102
RTVSPropertyOp40
 70
     1
102
RTVSPropertyOp41
 70
     1
102
RTVSPropertyOp42
 70
     1
102
RTVSPropertyOp43
 70
     1
102
RTVSPropertyOp44
 70
     1
102
RTVSPropertyOp45
 70
     1
102
RTVSPropertyOp46
 70
     1
102
RTVSPropertyOp47
 70
     1
102
RTVSPropertyOp48
 70
     1
102
RTVSPropertyOp49
 70
     1
102
RTVSPropertyOp50
 70
     1
102
RTVSPropertyOp51
 70
     0
102
RTVSPropertyOp52
 70
     0
102
RTVSPropertyOp53
 70
     1
102
RTVSPropertyOp54
 70
     1
102
RTVSPropertyOp55
 70
     1
102
RTVSPropertyOp56
 70
     1
102
RTVSPropertyOp57
 70
     1
102
RTVSPropertyOp58
 70
     1
102
RTVSPropertyOp59
 70
     1
102
RTVSPropertyOp60
 70
     1
102
RTVSPropertyOp61
 70
     1
102
RTVSPropertyOp62
 70
     1
  0
XRECORD
  5
FA7
102
{ACAD_REACTORS
330
FA6
102
}
330
FA6
100
AcDbXrecord
280
     1
102
RTVSPost2010Prop28
280
     0
102
RTVSPost2010PropOp28
 70
     1
102
RTVSPost2010Prop29
280
     1
102
RTVSPost2010PropOp29
 70
     1
102
RTVSPost2010Prop30
280
     1
102
RTVSPost2010PropOp30
 70
     1
102
RTVSPost2010Prop31
280
     0
102
RTVSPost2010PropOp31
 70
     1
102
RTVSPost2010Prop32
280
     0
102
RTVSPost2010PropOp32
 70
     1
102
RTVSPost2010Prop33
280
     0
102
RTVSPost2010PropOp33
 70
     1
102
RTVSPost2010Prop34
280
     0
102
RTVSPost2010PropOp34
 70
     1
102
RTVSPost2010Prop35
280
     0
102
RTVSPost2010PropOp35
 70
     1
102
RTVSPost2010Prop36
280
     0
102
RTVSPost2010PropOp36
 70
     1
102
RTVSPost2010Prop37
 90
       50
102
RTVSPost2010PropOp37
 70
     0
102
RTVSPost2010Prop38
140
0.0
102
RTVSPost2010PropOp38
 70
     0
102
RTVSPost2010Prop39
140
1.0
102
RTVSPost2010PropOp39
 70
     0
102
RTVSPost2010Prop40
 90
        0
102
RTVSPost2010PropOp40
 70
     0
102
RTVSPost2010Prop41ColorIndex
 90
       18
102
RTVSPost2010Prop41ColorRGB
 90
        0
102
RTVSPost2010PropOp41
 70
     0
102
RTVSPost2010Prop42
 90
       50
102
RTVSPost2010PropOp42
 70
     0
102
RTVSPost2010Prop43
 90
        3
102
RTVSPost2010PropOp43
 70
     0
102
RTVSPost2010Prop44ColorIndex
 90
        5
102
RTVSPost2010Prop44ColorRGB
 90
      255
102
RTVSPost2010PropOp44
 70
     0
102
RTVSPost2010Prop45
280
     0
102
RTVSPost2010PropOp45
 70
     1
102
RTVSPost2010Prop46
 90
       50
102
RTVSPost2010PropOp46
 70
     0
102
RTVSPost2010Prop47
 90
       50
102
RTVSPost2010PropOp47
 70
     0
102
RTVSPost2010Prop48
 90
       50
102
RTVSPost2010PropOp48
 70
     0
102
RTVSPost2010Prop49
280
     0
102
RTVSPost2010PropOp49
 70
     1
102
RTVSPost2010Prop50
 90
       50
102
RTVSPost2010PropOp50
 70
     0
102
RTVSPost2010Prop51ColorIndex
 90
      256
102
RTVSPost2010Prop51ColorRGB
 90
-16777216
102
RTVSPost2010PropOp51
 70
     0
102
RTVSPost2010Prop52
140
1.0
102
RTVSPost2010PropOp52
 70
     0
102
RTVSPost2010Prop53
 90
        2
102
RTVSPost2010PropOp53
 70
     0
102
RTVSPost2010Prop54
  1
strokes_ogs.tif
102
RTVSPost2010PropOp54
 70
     0
102
RTVSPost2010Prop55
280
     0
102
RTVSPost2010PropOp55
 70
     1
102
RTVSPost2010Prop56
140
1.0
102
RTVSPost2010PropOp56
 70
     0
102
RTVSPost2010Prop57
140
1.0
102
RTVSPost2010PropOp57
 70
     0
102
RTVSPropertyOp0
 70
     0
102
RTVSPropertyOp1
 70
     0
102
RTVSPropertyOp2
 70
     0
102
RTVSPropertyOp3
 70
     0
102
RTVSPropertyOp4
 70
     0
102
RTVSPropertyOp5
 70
     0
102
RTVSPropertyOp6
 70
     0
102
RTVSPropertyOp7
 70
     0
102
RTVSPropertyOp8
 70
     0
102
RTVSPropertyOp9
 70
     0
102
RTVSPropertyOp10
 70
     0
102
RTVSPropertyOp11
 70
     0
102
RTVSPropertyOp12
 70
     0
102
RTVSPropertyOp13
 70
     0
102
RTVSPropertyOp14
 70
     2
102
RTVSPropertyOp15
 70
     0
102
RTVSPropertyOp16
 70
     0
102
RTVSPropertyOp17
 70
     0
102
RTVSPropertyOp18
 70
     0
102
RTVSPropertyOp19
 70
     0
102
RTVSPropertyOp20
 70
     0
102
RTVSPropertyOp21
 70
     0
102
RTVSPropertyOp22
 70
     0
102
RTVSPropertyOp23
 70
     0
102
RTVSPropertyOp24
 70
     0
102
RTVSPropertyOp25
 70
     0
102
RTVSPropertyOp26
 70
     0
102
RTVSPropertyOp27
 70
     0
102
RTVSPropertyOp28
 70
     1
102
RTVSPropertyOp29
 70
     1
102
RTVSPropertyOp30
 70
     1
102
RTVSPropertyOp31
 70
     1
102
RTVSPropertyOp32
 70
     1
102
RTVSPropertyOp33
 70
     1
102
RTVSPropertyOp34
 70
     1
102
RTVSPropertyOp35
 70
     1
102
RTVSPropertyOp36
 70
     1
102
RTVSPropertyOp37
 70
     0
102
RTVSPropertyOp38
 70
     0
102
RTVSPropertyOp39
 70
     0
102
RTVSPropertyOp40
 70
     0
102
RTVSPropertyOp41
 70
     0
102
RTVSPropertyOp42
 70
     0
102
RTVSPropertyOp43
 70
     0
102
RTVSPropertyOp44
 70
     0
102
RTVSPropertyOp45
 70
     1
102
RTVSPropertyOp46
 70
     0
102
RTVSPropertyOp47
 70
     0
102
RTVSPropertyOp48
 70
     0
102
RTVSPropertyOp49
 70
     1
102
RTVSPropertyOp50
 70
     0
102
RTVSPropertyOp51
 70
     0
102
RTVSPropertyOp52
 70
     0
102
RTVSPropertyOp53
 70
     0
102
RTVSPropertyOp54
 70
     0
102
RTVSPropertyOp55
 70
     1
102
RTVSPropertyOp56
 70
     0
102
RTVSPropertyOp57
 70
     0
102
RTVSPropertyOp58
 70
     0
102
RTVSPropertyOp59
 70
     0
102
RTVSPropertyOp60
 70
     0
102
RTVSPropertyOp61
 70
     0
102
RTVSPropertyOp62
 70
     0
  0
XRECORD
  5
F97
102
{ACAD_REACTORS
330
F96
102
}
330
F96
100
AcDbXrecord
280
     1
102
RTVSPost2010Prop28
280
     0
102
RTVSPost2010PropOp28
 70
     1
102
RTVSPost2010Prop29
280
     1
102
RTVSPost2010PropOp29
 70
     1
102
RTVSPost2010Prop30
280
     1
102
RTVSPost2010PropOp30
 70
     1
102
RTVSPost2010Prop31
280
     0
102
RTVSPost2010PropOp31
 70
     1
102
RTVSPost2010Prop32
280
     0
102
RTVSPost2010PropOp32
 70
     1
102
RTVSPost2010Prop33
280
     0
102
RTVSPost2010PropOp33
 70
     1
102
RTVSPost2010Prop34
280
     0
102
RTVSPost2010PropOp34
 70
     1
102
RTVSPost2010Prop35
280
     0
102
RTVSPost2010PropOp35
 70
     1
102
RTVSPost2010Prop36
280
     0
102
RTVSPost2010PropOp36
 70
     1
102
RTVSPost2010Prop37
 90
       50
102
RTVSPost2010PropOp37
 70
     1
102
RTVSPost2010Prop38
140
0.0
102
RTVSPost2010PropOp38
 70
     1
102
RTVSPost2010Prop39
140
1.0
102
RTVSPost2010PropOp39
 70
     1
102
RTVSPost2010Prop40
 90
        0
102
RTVSPost2010PropOp40
 70
     1
102
RTVSPost2010Prop41ColorIndex
 90
       18
102
RTVSPost2010Prop41ColorRGB
 90
        0
102
RTVSPost2010PropOp41
 70
     1
102
RTVSPost2010Prop42
 90
       50
102
RTVSPost2010PropOp42
 70
     1
102
RTVSPost2010Prop43
 90
        3
102
RTVSPost2010PropOp43
 70
     1
102
RTVSPost2010Prop44ColorIndex
 90
        5
102
RTVSPost2010Prop44ColorRGB
 90
      255
102
RTVSPost2010PropOp44
 70
     1
102
RTVSPost2010Prop45
280
     0
102
RTVSPost2010PropOp45
 70
     1
102
RTVSPost2010Prop46
 90
       50
102
RTVSPost2010PropOp46
 70
     1
102
RTVSPost2010Prop47
 90
       50
102
RTVSPost2010PropOp47
 70
     1
102
RTVSPost2010Prop48
 90
       50
102
RTVSPost2010PropOp48
 70
     1
102
RTVSPost2010Prop49
280
     0
102
RTVSPost2010PropOp49
 70
     1
102
RTVSPost2010Prop50
 90
       50
102
RTVSPost2010PropOp50
 70
     1
102
RTVSPost2010Prop51ColorIndex
 90
      256
102
RTVSPost2010Prop51ColorRGB
 90
-16777216
102
RTVSPost2010PropOp51
 70
     0
102
RTVSPost2010Prop52
140
1.0
102
RTVSPost2010PropOp52
 70
     0
102
RTVSPost2010Prop53
 90
        2
102
RTVSPost2010PropOp53
 70
     1
102
RTVSPost2010Prop54
  1
strokes_ogs.tif
102
RTVSPost2010PropOp54
 70
     1
102
RTVSPost2010Prop55
280
     0
102
RTVSPost2010PropOp55
 70
     1
102
RTVSPost2010Prop56
140
1.0
102
RTVSPost2010PropOp56
 70
     1
102
RTVSPost2010Prop57
140
1.0
102
RTVSPost2010PropOp57
 70
     1
102
RTVSPropertyOp0
 70
     1
102
RTVSPropertyOp1
 70
     1
102
RTVSPropertyOp2
 70
     1
102
RTVSPropertyOp3
 70
     1
102
RTVSPropertyOp4
 70
     1
102
RTVSPropertyOp5
 70
     1
102
RTVSPropertyOp6
 70
     1
102
RTVSPropertyOp7
 70
     1
102
RTVSPropertyOp8
 70
     1
102
RTVSPropertyOp9
 70
     1
102
RTVSPropertyOp10
 70
     1
102
RTVSPropertyOp11
 70
     1
102
RTVSPropertyOp12
 70
     1
102
RTVSPropertyOp13
 70
     1
102
RTVSPropertyOp14
 70
     1
102
RTVSPropertyOp15
 70
     1
102
RTVSPropertyOp16
 70
     1
102
RTVSPropertyOp17
 70
     1
102
RTVSPropertyOp18
 70
     1
102
RTVSPropertyOp19
 70
     1
102
RTVSPropertyOp20
 70
     1
102
RTVSPropertyOp21
 70
     1
102
RTVSPropertyOp22
 70
     1
102
RTVSPropertyOp23
 70
     1
102
RTVSPropertyOp24
 70
     1
102
RTVSPropertyOp25
 70
     1
102
RTVSPropertyOp26
 70
     1
102
RTVSPropertyOp27
 70
     1
102
RTVSPropertyOp28
 70
     1
102
RTVSPropertyOp29
 70
     1
102
RTVSPropertyOp30
 70
     1
102
RTVSPropertyOp31
 70
     1
102
RTVSPropertyOp32
 70
     1
102
RTVSPropertyOp33
 70
     1
102
RTVSPropertyOp34
 70
     1
102
RTVSPropertyOp35
 70
     1
102
RTVSPropertyOp36
 70
     1
102
RTVSPropertyOp37
 70
     1
102
RTVSPropertyOp38
 70
     1
102
RTVSPropertyOp39
 70
     1
102
RTVSPropertyOp40
 70
     1
102
RTVSPropertyOp41
 70
     1
102
RTVSPropertyOp42
 70
     1
102
RTVSPropertyOp43
 70
     1
102
RTVSPropertyOp44
 70
     1
102
RTVSPropertyOp45
 70
     1
102
RTVSPropertyOp46
 70
     1
102
RTVSPropertyOp47
 70
     1
102
RTVSPropertyOp48
 70
     1
102
RTVSPropertyOp49
 70
     1
102
RTVSPropertyOp50
 70
     1
102
RTVSPropertyOp51
 70
     0
102
RTVSPropertyOp52
 70
     0
102
RTVSPropertyOp53
 70
     1
102
RTVSPropertyOp54
 70
     1
102
RTVSPropertyOp55
 70
     1
102
RTVSPropertyOp56
 70
     1
102
RTVSPropertyOp57
 70
     1
102
RTVSPropertyOp58
 70
     1
102
RTVSPropertyOp59
 70
     1
102
RTVSPropertyOp60
 70
     1
102
RTVSPropertyOp61
 70
     1
102
RTVSPropertyOp62
 70
     1
  0
XRECORD
  5
FA9
102
{ACAD_REACTORS
330
FA8
102
}
330
FA8
100
AcDbXrecord
280
     1
102
RTVSPost2010Prop28
280
     0
102
RTVSPost2010PropOp28
 70
     1
102
RTVSPost2010Prop29
280
     1
102
RTVSPost2010PropOp29
 70
     1
102
RTVSPost2010Prop30
280
     1
102
RTVSPost2010PropOp30
 70
     1
102
RTVSPost2010Prop31
280
     0
102
RTVSPost2010PropOp31
 70
     1
102
RTVSPost2010Prop32
280
     0
102
RTVSPost2010PropOp32
 70
     1
102
RTVSPost2010Prop33
280
     0
102
RTVSPost2010PropOp33
 70
     1
102
RTVSPost2010Prop34
280
     0
102
RTVSPost2010PropOp34
 70
     1
102
RTVSPost2010Prop35
280
     0
102
RTVSPost2010PropOp35
 70
     1
102
RTVSPost2010Prop36
280
     0
102
RTVSPost2010PropOp36
 70
     1
102
RTVSPost2010Prop37
 90
       50
102
RTVSPost2010PropOp37
 70
     0
102
RTVSPost2010Prop38
140
0.0
102
RTVSPost2010PropOp38
 70
     0
102
RTVSPost2010Prop39
140
1.0
102
RTVSPost2010PropOp39
 70
     0
102
RTVSPost2010Prop40
 90
        0
102
RTVSPost2010PropOp40
 70
     0
102
RTVSPost2010Prop41ColorIndex
 90
       18
102
RTVSPost2010Prop41ColorRGB
 90
        0
102
RTVSPost2010PropOp41
 70
     0
102
RTVSPost2010Prop42
 90
       50
102
RTVSPost2010PropOp42
 70
     0
102
RTVSPost2010Prop43
 90
        3
102
RTVSPost2010PropOp43
 70
     0
102
RTVSPost2010Prop44ColorIndex
 90
        5
102
RTVSPost2010Prop44ColorRGB
 90
      255
102
RTVSPost2010PropOp44
 70
     0
102
RTVSPost2010Prop45
280
     0
102
RTVSPost2010PropOp45
 70
     1
102
RTVSPost2010Prop46
 90
       50
102
RTVSPost2010PropOp46
 70
     0
102
RTVSPost2010Prop47
 90
       50
102
RTVSPost2010PropOp47
 70
     0
102
RTVSPost2010Prop48
 90
       50
102
RTVSPost2010PropOp48
 70
     0
102
RTVSPost2010Prop49
280
     0
102
RTVSPost2010PropOp49
 70
     1
102
RTVSPost2010Prop50
 90
       50
102
RTVSPost2010PropOp50
 70
     0
102
RTVSPost2010Prop51ColorIndex
 90
      256
102
RTVSPost2010Prop51ColorRGB
 90
-16777216
102
RTVSPost2010PropOp51
 70
     0
102
RTVSPost2010Prop52
140
1.0
102
RTVSPost2010PropOp52
 70
     0
102
RTVSPost2010Prop53
 90
        2
102
RTVSPost2010PropOp53
 70
     0
102
RTVSPost2010Prop54
  1
strokes_ogs.tif
102
RTVSPost2010PropOp54
 70
     0
102
RTVSPost2010Prop55
280
     0
102
RTVSPost2010PropOp55
 70
     1
102
RTVSPost2010Prop56
140
1.0
102
RTVSPost2010PropOp56
 70
     0
102
RTVSPost2010Prop57
140
1.0
102
RTVSPost2010PropOp57
 70
     0
102
RTVSPropertyOp0
 70
     0
102
RTVSPropertyOp1
 70
     0
102
RTVSPropertyOp2
 70
     0
102
RTVSPropertyOp3
 70
     0
102
RTVSPropertyOp4
 70
     0
102
RTVSPropertyOp5
 70
     0
102
RTVSPropertyOp6
 70
     0
102
RTVSPropertyOp7
 70
     0
102
RTVSPropertyOp8
 70
     0
102
RTVSPropertyOp9
 70
     0
102
RTVSPropertyOp10
 70
     0
102
RTVSPropertyOp11
 70
     0
102
RTVSPropertyOp12
 70
     0
102
RTVSPropertyOp13
 70
     0
102
RTVSPropertyOp14
 70
     2
102
RTVSPropertyOp15
 70
     0
102
RTVSPropertyOp16
 70
     0
102
RTVSPropertyOp17
 70
     0
102
RTVSPropertyOp18
 70
     0
102
RTVSPropertyOp19
 70
     0
102
RTVSPropertyOp20
 70
     0
102
RTVSPropertyOp21
 70
     0
102
RTVSPropertyOp22
 70
     0
102
RTVSPropertyOp23
 70
     0
102
RTVSPropertyOp24
 70
     0
102
RTVSPropertyOp25
 70
     0
102
RTVSPropertyOp26
 70
     0
102
RTVSPropertyOp27
 70
     0
102
RTVSPropertyOp28
 70
     1
102
RTVSPropertyOp29
 70
     1
102
RTVSPropertyOp30
 70
     1
102
RTVSPropertyOp31
 70
     1
102
RTVSPropertyOp32
 70
     1
102
RTVSPropertyOp33
 70
     1
102
RTVSPropertyOp34
 70
     1
102
RTVSPropertyOp35
 70
     1
102
RTVSPropertyOp36
 70
     1
102
RTVSPropertyOp37
 70
     0
102
RTVSPropertyOp38
 70
     0
102
RTVSPropertyOp39
 70
     0
102
RTVSPropertyOp40
 70
     0
102
RTVSPropertyOp41
 70
     0
102
RTVSPropertyOp42
 70
     0
102
RTVSPropertyOp43
 70
     0
102
RTVSPropertyOp44
 70
     0
102
RTVSPropertyOp45
 70
     1
102
RTVSPropertyOp46
 70
     0
102
RTVSPropertyOp47
 70
     0
102
RTVSPropertyOp48
 70
     0
102
RTVSPropertyOp49
 70
     1
102
RTVSPropertyOp50
 70
     0
102
RTVSPropertyOp51
 70
     0
102
RTVSPropertyOp52
 70
     0
102
RTVSPropertyOp53
 70
     0
102
RTVSPropertyOp54
 70
     0
102
RTVSPropertyOp55
 70
     1
102
RTVSPropertyOp56
 70
     0
102
RTVSPropertyOp57
 70
     0
102
RTVSPropertyOp58
 70
     0
102
RTVSPropertyOp59
 70
     0
102
RTVSPropertyOp60
 70
     0
102
RTVSPropertyOp61
 70
     0
102
RTVSPropertyOp62
 70
     0
  0
XRECORD
  5
F8F
102
{ACAD_REACTORS
330
F8E
102
}
330
F8E
100
AcDbXrecord
280
     1
102
RTVSPost2010Prop28
280
     0
102
RTVSPost2010PropOp28
 70
     1
102
RTVSPost2010Prop29
280
     1
102
RTVSPost2010PropOp29
 70
     1
102
RTVSPost2010Prop30
280
     1
102
RTVSPost2010PropOp30
 70
     1
102
RTVSPost2010Prop31
280
     0
102
RTVSPost2010PropOp31
 70
     1
102
RTVSPost2010Prop32
280
     0
102
RTVSPost2010PropOp32
 70
     1
102
RTVSPost2010Prop33
280
     0
102
RTVSPost2010PropOp33
 70
     1
102
RTVSPost2010Prop34
280
     0
102
RTVSPost2010PropOp34
 70
     1
102
RTVSPost2010Prop35
280
     0
102
RTVSPost2010PropOp35
 70
     1
102
RTVSPost2010Prop36
280
     0
102
RTVSPost2010PropOp36
 70
     1
102
RTVSPost2010Prop37
 90
       50
102
RTVSPost2010PropOp37
 70
     1
102
RTVSPost2010Prop38
140
0.0
102
RTVSPost2010PropOp38
 70
     1
102
RTVSPost2010Prop39
140
1.0
102
RTVSPost2010PropOp39
 70
     1
102
RTVSPost2010Prop40
 90
        0
102
RTVSPost2010PropOp40
 70
     1
102
RTVSPost2010Prop41ColorIndex
 90
       18
102
RTVSPost2010Prop41ColorRGB
 90
        0
102
RTVSPost2010PropOp41
 70
     1
102
RTVSPost2010Prop42
 90
       50
102
RTVSPost2010PropOp42
 70
     1
102
RTVSPost2010Prop43
 90
        3
102
RTVSPost2010PropOp43
 70
     1
102
RTVSPost2010Prop44ColorIndex
 90
        5
102
RTVSPost2010Prop44ColorRGB
 90
      255
102
RTVSPost2010PropOp44
 70
     1
102
RTVSPost2010Prop45
280
     0
102
RTVSPost2010PropOp45
 70
     1
102
RTVSPost2010Prop46
 90
       50
102
RTVSPost2010PropOp46
 70
     1
102
RTVSPost2010Prop47
 90
       50
102
RTVSPost2010PropOp47
 70
     1
102
RTVSPost2010Prop48
 90
       50
102
RTVSPost2010PropOp48
 70
     1
102
RTVSPost2010Prop49
280
     0
102
RTVSPost2010PropOp49
 70
     1
102
RTVSPost2010Prop50
 90
       50
102
RTVSPost2010PropOp50
 70
     1
102
RTVSPost2010Prop51ColorIndex
 90
      256
102
RTVSPost2010Prop51ColorRGB
 90
-16777216
102
RTVSPost2010PropOp51
 70
     0
102
RTVSPost2010Prop52
140
1.0
102
RTVSPost2010PropOp52
 70
     0
102
RTVSPost2010Prop53
 90
        2
102
RTVSPost2010PropOp53
 70
     1
102
RTVSPost2010Prop54
  1
strokes_ogs.tif
102
RTVSPost2010PropOp54
 70
     1
102
RTVSPost2010Prop55
280
     0
102
RTVSPost2010PropOp55
 70
     1
102
RTVSPost2010Prop56
140
1.0
102
RTVSPost2010PropOp56
 70
     1
102
RTVSPost2010Prop57
140
1.0
102
RTVSPost2010PropOp57
 70
     1
102
RTVSPropertyOp0
 70
     1
102
RTVSPropertyOp1
 70
     1
102
RTVSPropertyOp2
 70
     1
102
RTVSPropertyOp3
 70
     1
102
RTVSPropertyOp4
 70
     1
102
RTVSPropertyOp5
 70
     1
102
RTVSPropertyOp6
 70
     1
102
RTVSPropertyOp7
 70
     1
102
RTVSPropertyOp8
 70
     1
102
RTVSPropertyOp9
 70
     1
102
RTVSPropertyOp10
 70
     1
102
RTVSPropertyOp11
 70
     1
102
RTVSPropertyOp12
 70
     1
102
RTVSPropertyOp13
 70
     1
102
RTVSPropertyOp14
 70
     1
102
RTVSPropertyOp15
 70
     1
102
RTVSPropertyOp16
 70
     1
102
RTVSPropertyOp17
 70
     1
102
RTVSPropertyOp18
 70
     1
102
RTVSPropertyOp19
 70
     1
102
RTVSPropertyOp20
 70
     1
102
RTVSPropertyOp21
 70
     1
102
RTVSPropertyOp22
 70
     1
102
RTVSPropertyOp23
 70
     1
102
RTVSPropertyOp24
 70
     1
102
RTVSPropertyOp25
 70
     1
102
RTVSPropertyOp26
 70
     1
102
RTVSPropertyOp27
 70
     1
102
RTVSPropertyOp28
 70
     1
102
RTVSPropertyOp29
 70
     1
102
RTVSPropertyOp30
 70
     1
102
RTVSPropertyOp31
 70
     1
102
RTVSPropertyOp32
 70
     1
102
RTVSPropertyOp33
 70
     1
102
RTVSPropertyOp34
 70
     1
102
RTVSPropertyOp35
 70
     1
102
RTVSPropertyOp36
 70
     1
102
RTVSPropertyOp37
 70
     1
102
RTVSPropertyOp38
 70
     1
102
RTVSPropertyOp39
 70
     1
102
RTVSPropertyOp40
 70
     1
102
RTVSPropertyOp41
 70
     1
102
RTVSPropertyOp42
 70
     1
102
RTVSPropertyOp43
 70
     1
102
RTVSPropertyOp44
 70
     1
102
RTVSPropertyOp45
 70
     1
102
RTVSPropertyOp46
 70
     1
102
RTVSPropertyOp47
 70
     1
102
RTVSPropertyOp48
 70
     1
102
RTVSPropertyOp49
 70
     1
102
RTVSPropertyOp50
 70
     1
102
RTVSPropertyOp51
 70
     0
102
RTVSPropertyOp52
 70
     0
102
RTVSPropertyOp53
 70
     1
102
RTVSPropertyOp54
 70
     1
102
RTVSPropertyOp55
 70
     1
102
RTVSPropertyOp56
 70
     1
102
RTVSPropertyOp57
 70
     1
102
RTVSPropertyOp58
 70
     1
102
RTVSPropertyOp59
 70
     1
102
RTVSPropertyOp60
 70
     1
102
RTVSPropertyOp61
 70
     1
102
RTVSPropertyOp62
 70
     1
  0
XRECORD
  5
FA5
102
{ACAD_REACTORS
330
FA4
102
}
330
FA4
100
AcDbXrecord
280
     1
102
RTVSPost2010Prop28
280
     0
102
RTVSPost2010PropOp28
 70
     1
102
RTVSPost2010Prop29
280
     1
102
RTVSPost2010PropOp29
 70
     1
102
RTVSPost2010Prop30
280
     1
102
RTVSPost2010PropOp30
 70
     1
102
RTVSPost2010Prop31
280
     0
102
RTVSPost2010PropOp31
 70
     1
102
RTVSPost2010Prop32
280
     0
102
RTVSPost2010PropOp32
 70
     1
102
RTVSPost2010Prop33
280
     0
102
RTVSPost2010PropOp33
 70
     1
102
RTVSPost2010Prop34
280
     0
102
RTVSPost2010PropOp34
 70
     1
102
RTVSPost2010Prop35
280
     0
102
RTVSPost2010PropOp35
 70
     1
102
RTVSPost2010Prop36
280
     0
102
RTVSPost2010PropOp36
 70
     1
102
RTVSPost2010Prop37
 90
       50
102
RTVSPost2010PropOp37
 70
     1
102
RTVSPost2010Prop38
140
0.0
102
RTVSPost2010PropOp38
 70
     1
102
RTVSPost2010Prop39
140
1.0
102
RTVSPost2010PropOp39
 70
     1
102
RTVSPost2010Prop40
 90
        0
102
RTVSPost2010PropOp40
 70
     1
102
RTVSPost2010Prop41ColorIndex
 90
       18
102
RTVSPost2010Prop41ColorRGB
 90
        0
102
RTVSPost2010PropOp41
 70
     1
102
RTVSPost2010Prop42
 90
       50
102
RTVSPost2010PropOp42
 70
     1
102
RTVSPost2010Prop43
 90
        3
102
RTVSPost2010PropOp43
 70
     1
102
RTVSPost2010Prop44ColorIndex
 90
        5
102
RTVSPost2010Prop44ColorRGB
 90
      255
102
RTVSPost2010PropOp44
 70
     1
102
RTVSPost2010Prop45
280
     0
102
RTVSPost2010PropOp45
 70
     1
102
RTVSPost2010Prop46
 90
       50
102
RTVSPost2010PropOp46
 70
     1
102
RTVSPost2010Prop47
 90
       50
102
RTVSPost2010PropOp47
 70
     1
102
RTVSPost2010Prop48
 90
       50
102
RTVSPost2010PropOp48
 70
     1
102
RTVSPost2010Prop49
280
     0
102
RTVSPost2010PropOp49
 70
     1
102
RTVSPost2010Prop50
 90
       50
102
RTVSPost2010PropOp50
 70
     1
102
RTVSPost2010Prop51ColorIndex
 90
      256
102
RTVSPost2010Prop51ColorRGB
 90
-16777216
102
RTVSPost2010PropOp51
 70
     0
102
RTVSPost2010Prop52
140
1.0
102
RTVSPost2010PropOp52
 70
     0
102
RTVSPost2010Prop53
 90
        2
102
RTVSPost2010PropOp53
 70
     1
102
RTVSPost2010Prop54
  1
strokes_ogs.tif
102
RTVSPost2010PropOp54
 70
     1
102
RTVSPost2010Prop55
280
     0
102
RTVSPost2010PropOp55
 70
     1
102
RTVSPost2010Prop56
140
1.0
102
RTVSPost2010PropOp56
 70
     1
102
RTVSPost2010Prop57
140
1.0
102
RTVSPost2010PropOp57
 70
     1
102
RTVSPropertyOp0
 70
     1
102
RTVSPropertyOp1
 70
     1
102
RTVSPropertyOp2
 70
     1
102
RTVSPropertyOp3
 70
     1
102
RTVSPropertyOp4
 70
     1
102
RTVSPropertyOp5
 70
     1
102
RTVSPropertyOp6
 70
     1
102
RTVSPropertyOp7
 70
     1
102
RTVSPropertyOp8
 70
     1
102
RTVSPropertyOp9
 70
     1
102
RTVSPropertyOp10
 70
     1
102
RTVSPropertyOp11
 70
     1
102
RTVSPropertyOp12
 70
     1
102
RTVSPropertyOp13
 70
     1
102
RTVSPropertyOp14
 70
     1
102
RTVSPropertyOp15
 70
     1
102
RTVSPropertyOp16
 70
     1
102
RTVSPropertyOp17
 70
     1
102
RTVSPropertyOp18
 70
     1
102
RTVSPropertyOp19
 70
     1
102
RTVSPropertyOp20
 70
     1
102
RTVSPropertyOp21
 70
     1
102
RTVSPropertyOp22
 70
     1
102
RTVSPropertyOp23
 70
     1
102
RTVSPropertyOp24
 70
     1
102
RTVSPropertyOp25
 70
     1
102
RTVSPropertyOp26
 70
     1
102
RTVSPropertyOp27
 70
     1
102
RTVSPropertyOp28
 70
     1
102
RTVSPropertyOp29
 70
     1
102
RTVSPropertyOp30
 70
     1
102
RTVSPropertyOp31
 70
     1
102
RTVSPropertyOp32
 70
     1
102
RTVSPropertyOp33
 70
     1
102
RTVSPropertyOp34
 70
     1
102
RTVSPropertyOp35
 70
     1
102
RTVSPropertyOp36
 70
     1
102
RTVSPropertyOp37
 70
     1
102
RTVSPropertyOp38
 70
     1
102
RTVSPropertyOp39
 70
     1
102
RTVSPropertyOp40
 70
     1
102
RTVSPropertyOp41
 70
     1
102
RTVSPropertyOp42
 70
     1
102
RTVSPropertyOp43
 70
     1
102
RTVSPropertyOp44
 70
     1
102
RTVSPropertyOp45
 70
     1
102
RTVSPropertyOp46
 70
     1
102
RTVSPropertyOp47
 70
     1
102
RTVSPropertyOp48
 70
     1
102
RTVSPropertyOp49
 70
     1
102
RTVSPropertyOp50
 70
     1
102
RTVSPropertyOp51
 70
     0
102
RTVSPropertyOp52
 70
     0
102
RTVSPropertyOp53
 70
     1
102
RTVSPropertyOp54
 70
     1
102
RTVSPropertyOp55
 70
     1
102
RTVSPropertyOp56
 70
     1
102
RTVSPropertyOp57
 70
     1
102
RTVSPropertyOp58
 70
     1
102
RTVSPropertyOp59
 70
     1
102
RTVSPropertyOp60
 70
     1
102
RTVSPropertyOp61
 70
     1
102
RTVSPropertyOp62
 70
     1
  0
XRECORD
  5
FA3
102
{ACAD_REACTORS
330
FA2
102
}
330
FA2
100
AcDbXrecord
280
     1
102
RTVSPost2010Prop28
280
     0
102
RTVSPost2010PropOp28
 70
     1
102
RTVSPost2010Prop29
280
     1
102
RTVSPost2010PropOp29
 70
     1
102
RTVSPost2010Prop30
280
     1
102
RTVSPost2010PropOp30
 70
     1
102
RTVSPost2010Prop31
280
     0
102
RTVSPost2010PropOp31
 70
     1
102
RTVSPost2010Prop32
280
     0
102
RTVSPost2010PropOp32
 70
     1
102
RTVSPost2010Prop33
280
     0
102
RTVSPost2010PropOp33
 70
     1
102
RTVSPost2010Prop34
280
     0
102
RTVSPost2010PropOp34
 70
     1
102
RTVSPost2010Prop35
280
     0
102
RTVSPost2010PropOp35
 70
     1
102
RTVSPost2010Prop36
280
     0
102
RTVSPost2010PropOp36
 70
     1
102
RTVSPost2010Prop37
 90
       50
102
RTVSPost2010PropOp37
 70
     1
102
RTVSPost2010Prop38
140
0.0
102
RTVSPost2010PropOp38
 70
     1
102
RTVSPost2010Prop39
140
1.0
102
RTVSPost2010PropOp39
 70
     1
102
RTVSPost2010Prop40
 90
        0
102
RTVSPost2010PropOp40
 70
     1
102
RTVSPost2010Prop41ColorIndex
 90
       18
102
RTVSPost2010Prop41ColorRGB
 90
        0
102
RTVSPost2010PropOp41
 70
     1
102
RTVSPost2010Prop42
 90
       50
102
RTVSPost2010PropOp42
 70
     1
102
RTVSPost2010Prop43
 90
        3
102
RTVSPost2010PropOp43
 70
     1
102
RTVSPost2010Prop44ColorIndex
 90
        5
102
RTVSPost2010Prop44ColorRGB
 90
      255
102
RTVSPost2010PropOp44
 70
     1
102
RTVSPost2010Prop45
280
     0
102
RTVSPost2010PropOp45
 70
     1
102
RTVSPost2010Prop46
 90
       50
102
RTVSPost2010PropOp46
 70
     1
102
RTVSPost2010Prop47
 90
       50
102
RTVSPost2010PropOp47
 70
     1
102
RTVSPost2010Prop48
 90
       50
102
RTVSPost2010PropOp48
 70
     1
102
RTVSPost2010Prop49
280
     0
102
RTVSPost2010PropOp49
 70
     1
102
RTVSPost2010Prop50
 90
       50
102
RTVSPost2010PropOp50
 70
     1
102
RTVSPost2010Prop51ColorIndex
 90
      256
102
RTVSPost2010Prop51ColorRGB
 90
-16777216
102
RTVSPost2010PropOp51
 70
     0
102
RTVSPost2010Prop52
140
1.0
102
RTVSPost2010PropOp52
 70
     0
102
RTVSPost2010Prop53
 90
        2
102
RTVSPost2010PropOp53
 70
     1
102
RTVSPost2010Prop54
  1
strokes_ogs.tif
102
RTVSPost2010PropOp54
 70
     1
102
RTVSPost2010Prop55
280
     0
102
RTVSPost2010PropOp55
 70
     1
102
RTVSPost2010Prop56
140
1.0
102
RTVSPost2010PropOp56
 70
     1
102
RTVSPost2010Prop57
140
1.0
102
RTVSPost2010PropOp57
 70
     1
102
RTVSPropertyOp0
 70
     1
102
RTVSPropertyOp1
 70
     1
102
RTVSPropertyOp2
 70
     1
102
RTVSPropertyOp3
 70
     1
102
RTVSPropertyOp4
 70
     1
102
RTVSPropertyOp5
 70
     1
102
RTVSPropertyOp6
 70
     1
102
RTVSPropertyOp7
 70
     1
102
RTVSPropertyOp8
 70
     1
102
RTVSPropertyOp9
 70
     1
102
RTVSPropertyOp10
 70
     1
102
RTVSPropertyOp11
 70
     1
102
RTVSPropertyOp12
 70
     1
102
RTVSPropertyOp13
 70
     1
102
RTVSPropertyOp14
 70
     1
102
RTVSPropertyOp15
 70
     1
102
RTVSPropertyOp16
 70
     1
102
RTVSPropertyOp17
 70
     1
102
RTVSPropertyOp18
 70
     1
102
RTVSPropertyOp19
 70
     1
102
RTVSPropertyOp20
 70
     1
102
RTVSPropertyOp21
 70
     1
102
RTVSPropertyOp22
 70
     1
102
RTVSPropertyOp23
 70
     1
102
RTVSPropertyOp24
 70
     1
102
RTVSPropertyOp25
 70
     1
102
RTVSPropertyOp26
 70
     1
102
RTVSPropertyOp27
 70
     1
102
RTVSPropertyOp28
 70
     1
102
RTVSPropertyOp29
 70
     1
102
RTVSPropertyOp30
 70
     1
102
RTVSPropertyOp31
 70
     1
102
RTVSPropertyOp32
 70
     1
102
RTVSPropertyOp33
 70
     1
102
RTVSPropertyOp34
 70
     1
102
RTVSPropertyOp35
 70
     1
102
RTVSPropertyOp36
 70
     1
102
RTVSPropertyOp37
 70
     1
102
RTVSPropertyOp38
 70
     1
102
RTVSPropertyOp39
 70
     1
102
RTVSPropertyOp40
 70
     1
102
RTVSPropertyOp41
 70
     1
102
RTVSPropertyOp42
 70
     1
102
RTVSPropertyOp43
 70
     1
102
RTVSPropertyOp44
 70
     1
102
RTVSPropertyOp45
 70
     1
102
RTVSPropertyOp46
 70
     1
102
RTVSPropertyOp47
 70
     1
102
RTVSPropertyOp48
 70
     1
102
RTVSPropertyOp49
 70
     1
102
RTVSPropertyOp50
 70
     1
102
RTVSPropertyOp51
 70
     0
102
RTVSPropertyOp52
 70
     0
102
RTVSPropertyOp53
 70
     1
102
RTVSPropertyOp54
 70
     1
102
RTVSPropertyOp55
 70
     1
102
RTVSPropertyOp56
 70
     1
102
RTVSPropertyOp57
 70
     1
102
RTVSPropertyOp58
 70
     1
102
RTVSPropertyOp59
 70
     1
102
RTVSPropertyOp60
 70
     1
102
RTVSPropertyOp61
 70
     1
102
RTVSPropertyOp62
 70
     1
  0
XRECORD
  5
F9D
102
{ACAD_REACTORS
330
F9C
102
}
330
F9C
100
AcDbXrecord
280
     1
102
RTVSPost2010Prop28
280
     0
102
RTVSPost2010PropOp28
 70
     1
102
RTVSPost2010Prop29
280
     1
102
RTVSPost2010PropOp29
 70
     1
102
RTVSPost2010Prop30
280
     1
102
RTVSPost2010PropOp30
 70
     1
102
RTVSPost2010Prop31
280
     0
102
RTVSPost2010PropOp31
 70
     1
102
RTVSPost2010Prop32
280
     0
102
RTVSPost2010PropOp32
 70
     1
102
RTVSPost2010Prop33
280
     0
102
RTVSPost2010PropOp33
 70
     1
102
RTVSPost2010Prop34
280
     0
102
RTVSPost2010PropOp34
 70
     1
102
RTVSPost2010Prop35
280
     0
102
RTVSPost2010PropOp35
 70
     1
102
RTVSPost2010Prop36
280
     0
102
RTVSPost2010PropOp36
 70
     1
102
RTVSPost2010Prop37
 90
       50
102
RTVSPost2010PropOp37
 70
     1
102
RTVSPost2010Prop38
140
0.0
102
RTVSPost2010PropOp38
 70
     1
102
RTVSPost2010Prop39
140
1.0
102
RTVSPost2010PropOp39
 70
     1
102
RTVSPost2010Prop40
 90
        0
102
RTVSPost2010PropOp40
 70
     1
102
RTVSPost2010Prop41ColorIndex
 90
       18
102
RTVSPost2010Prop41ColorRGB
 90
        0
102
RTVSPost2010PropOp41
 70
     1
102
RTVSPost2010Prop42
 90
       50
102
RTVSPost2010PropOp42
 70
     1
102
RTVSPost2010Prop43
 90
        3
102
RTVSPost2010PropOp43
 70
     1
102
RTVSPost2010Prop44ColorIndex
 90
        5
102
RTVSPost2010Prop44ColorRGB
 90
      255
102
RTVSPost2010PropOp44
 70
     1
102
RTVSPost2010Prop45
280
     0
102
RTVSPost2010PropOp45
 70
     1
102
RTVSPost2010Prop46
 90
       50
102
RTVSPost2010PropOp46
 70
     1
102
RTVSPost2010Prop47
 90
       50
102
RTVSPost2010PropOp47
 70
     1
102
RTVSPost2010Prop48
 90
       50
102
RTVSPost2010PropOp48
 70
     1
102
RTVSPost2010Prop49
280
     0
102
RTVSPost2010PropOp49
 70
     1
102
RTVSPost2010Prop50
 90
       50
102
RTVSPost2010PropOp50
 70
     1
102
RTVSPost2010Prop51ColorIndex
 90
      256
102
RTVSPost2010Prop51ColorRGB
 90
-16777216
102
RTVSPost2010PropOp51
 70
     0
102
RTVSPost2010Prop52
140
1.0
102
RTVSPost2010PropOp52
 70
     0
102
RTVSPost2010Prop53
 90
        2
102
RTVSPost2010PropOp53
 70
     1
102
RTVSPost2010Prop54
  1
strokes_ogs.tif
102
RTVSPost2010PropOp54
 70
     1
102
RTVSPost2010Prop55
280
     0
102
RTVSPost2010PropOp55
 70
     1
102
RTVSPost2010Prop56
140
1.0
102
RTVSPost2010PropOp56
 70
     1
102
RTVSPost2010Prop57
140
1.0
102
RTVSPost2010PropOp57
 70
     1
102
RTVSPropertyOp0
 70
     1
102
RTVSPropertyOp1
 70
     1
102
RTVSPropertyOp2
 70
     1
102
RTVSPropertyOp3
 70
     1
102
RTVSPropertyOp4
 70
     1
102
RTVSPropertyOp5
 70
     1
102
RTVSPropertyOp6
 70
     1
102
RTVSPropertyOp7
 70
     1
102
RTVSPropertyOp8
 70
     1
102
RTVSPropertyOp9
 70
     1
102
RTVSPropertyOp10
 70
     1
102
RTVSPropertyOp11
 70
     1
102
RTVSPropertyOp12
 70
     1
102
RTVSPropertyOp13
 70
     1
102
RTVSPropertyOp14
 70
     1
102
RTVSPropertyOp15
 70
     1
102
RTVSPropertyOp16
 70
     1
102
RTVSPropertyOp17
 70
     1
102
RTVSPropertyOp18
 70
     1
102
RTVSPropertyOp19
 70
     1
102
RTVSPropertyOp20
 70
     1
102
RTVSPropertyOp21
 70
     1
102
RTVSPropertyOp22
 70
     1
102
RTVSPropertyOp23
 70
     1
102
RTVSPropertyOp24
 70
     1
102
RTVSPropertyOp25
 70
     1
102
RTVSPropertyOp26
 70
     1
102
RTVSPropertyOp27
 70
     1
102
RTVSPropertyOp28
 70
     1
102
RTVSPropertyOp29
 70
     1
102
RTVSPropertyOp30
 70
     1
102
RTVSPropertyOp31
 70
     1
102
RTVSPropertyOp32
 70
     1
102
RTVSPropertyOp33
 70
     1
102
RTVSPropertyOp34
 70
     1
102
RTVSPropertyOp35
 70
     1
102
RTVSPropertyOp36
 70
     1
102
RTVSPropertyOp37
 70
     1
102
RTVSPropertyOp38
 70
     1
102
RTVSPropertyOp39
 70
     1
102
RTVSPropertyOp40
 70
     1
102
RTVSPropertyOp41
 70
     1
102
RTVSPropertyOp42
 70
     1
102
RTVSPropertyOp43
 70
     1
102
RTVSPropertyOp44
 70
     1
102
RTVSPropertyOp45
 70
     1
102
RTVSPropertyOp46
 70
     1
102
RTVSPropertyOp47
 70
     1
102
RTVSPropertyOp48
 70
     1
102
RTVSPropertyOp49
 70
     1
102
RTVSPropertyOp50
 70
     1
102
RTVSPropertyOp51
 70
     0
102
RTVSPropertyOp52
 70
     0
102
RTVSPropertyOp53
 70
     1
102
RTVSPropertyOp54
 70
     1
102
RTVSPropertyOp55
 70
     1
102
RTVSPropertyOp56
 70
     1
102
RTVSPropertyOp57
 70
     1
102
RTVSPropertyOp58
 70
     1
102
RTVSPropertyOp59
 70
     1
102
RTVSPropertyOp60
 70
     1
102
RTVSPropertyOp61
 70
     1
102
RTVSPropertyOp62
 70
     1
  0
XRECORD
  5
F9F
102
{ACAD_REACTORS
330
F9E
102
}
330
F9E
100
AcDbXrecord
280
     1
102
RTVSPost2010Prop28
280
     0
102
RTVSPost2010PropOp28
 70
     1
102
RTVSPost2010Prop29
280
     1
102
RTVSPost2010PropOp29
 70
     1
102
RTVSPost2010Prop30
280
     1
102
RTVSPost2010PropOp30
 70
     1
102
RTVSPost2010Prop31
280
     0
102
RTVSPost2010PropOp31
 70
     1
102
RTVSPost2010Prop32
280
     0
102
RTVSPost2010PropOp32
 70
     1
102
RTVSPost2010Prop33
280
     0
102
RTVSPost2010PropOp33
 70
     1
102
RTVSPost2010Prop34
280
     0
102
RTVSPost2010PropOp34
 70
     1
102
RTVSPost2010Prop35
280
     0
102
RTVSPost2010PropOp35
 70
     1
102
RTVSPost2010Prop36
280
     0
102
RTVSPost2010PropOp36
 70
     1
102
RTVSPost2010Prop37
 90
       50
102
RTVSPost2010PropOp37
 70
     1
102
RTVSPost2010Prop38
140
0.0
102
RTVSPost2010PropOp38
 70
     1
102
RTVSPost2010Prop39
140
1.0
102
RTVSPost2010PropOp39
 70
     1
102
RTVSPost2010Prop40
 90
        0
102
RTVSPost2010PropOp40
 70
     1
102
RTVSPost2010Prop41ColorIndex
 90
       18
102
RTVSPost2010Prop41ColorRGB
 90
        0
102
RTVSPost2010PropOp41
 70
     1
102
RTVSPost2010Prop42
 90
       50
102
RTVSPost2010PropOp42
 70
     1
102
RTVSPost2010Prop43
 90
        3
102
RTVSPost2010PropOp43
 70
     1
102
RTVSPost2010Prop44ColorIndex
 90
        5
102
RTVSPost2010Prop44ColorRGB
 90
      255
102
RTVSPost2010PropOp44
 70
     1
102
RTVSPost2010Prop45
280
     0
102
RTVSPost2010PropOp45
 70
     1
102
RTVSPost2010Prop46
 90
       50
102
RTVSPost2010PropOp46
 70
     1
102
RTVSPost2010Prop47
 90
       50
102
RTVSPost2010PropOp47
 70
     1
102
RTVSPost2010Prop48
 90
       50
102
RTVSPost2010PropOp48
 70
     1
102
RTVSPost2010Prop49
280
     0
102
RTVSPost2010PropOp49
 70
     1
102
RTVSPost2010Prop50
 90
       50
102
RTVSPost2010PropOp50
 70
     1
102
RTVSPost2010Prop51ColorIndex
 90
      256
102
RTVSPost2010Prop51ColorRGB
 90
-16777216
102
RTVSPost2010PropOp51
 70
     0
102
RTVSPost2010Prop52
140
1.0
102
RTVSPost2010PropOp52
 70
     0
102
RTVSPost2010Prop53
 90
        2
102
RTVSPost2010PropOp53
 70
     1
102
RTVSPost2010Prop54
  1
strokes_ogs.tif
102
RTVSPost2010PropOp54
 70
     1
102
RTVSPost2010Prop55
280
     0
102
RTVSPost2010PropOp55
 70
     1
102
RTVSPost2010Prop56
140
1.0
102
RTVSPost2010PropOp56
 70
     1
102
RTVSPost2010Prop57
140
1.0
102
RTVSPost2010PropOp57
 70
     1
102
RTVSPropertyOp0
 70
     1
102
RTVSPropertyOp1
 70
     1
102
RTVSPropertyOp2
 70
     1
102
RTVSPropertyOp3
 70
     1
102
RTVSPropertyOp4
 70
     1
102
RTVSPropertyOp5
 70
     1
102
RTVSPropertyOp6
 70
     1
102
RTVSPropertyOp7
 70
     1
102
RTVSPropertyOp8
 70
     1
102
RTVSPropertyOp9
 70
     1
102
RTVSPropertyOp10
 70
     1
102
RTVSPropertyOp11
 70
     1
102
RTVSPropertyOp12
 70
     1
102
RTVSPropertyOp13
 70
     1
102
RTVSPropertyOp14
 70
     1
102
RTVSPropertyOp15
 70
     1
102
RTVSPropertyOp16
 70
     1
102
RTVSPropertyOp17
 70
     1
102
RTVSPropertyOp18
 70
     1
102
RTVSPropertyOp19
 70
     1
102
RTVSPropertyOp20
 70
     1
102
RTVSPropertyOp21
 70
     1
102
RTVSPropertyOp22
 70
     1
102
RTVSPropertyOp23
 70
     1
102
RTVSPropertyOp24
 70
     1
102
RTVSPropertyOp25
 70
     1
102
RTVSPropertyOp26
 70
     1
102
RTVSPropertyOp27
 70
     1
102
RTVSPropertyOp28
 70
     1
102
RTVSPropertyOp29
 70
     1
102
RTVSPropertyOp30
 70
     1
102
RTVSPropertyOp31
 70
     1
102
RTVSPropertyOp32
 70
     1
102
RTVSPropertyOp33
 70
     1
102
RTVSPropertyOp34
 70
     1
102
RTVSPropertyOp35
 70
     1
102
RTVSPropertyOp36
 70
     1
102
RTVSPropertyOp37
 70
     1
102
RTVSPropertyOp38
 70
     1
102
RTVSPropertyOp39
 70
     1
102
RTVSPropertyOp40
 70
     1
102
RTVSPropertyOp41
 70
     1
102
RTVSPropertyOp42
 70
     1
102
RTVSPropertyOp43
 70
     1
102
RTVSPropertyOp44
 70
     1
102
RTVSPropertyOp45
 70
     1
102
RTVSPropertyOp46
 70
     1
102
RTVSPropertyOp47
 70
     1
102
RTVSPropertyOp48
 70
     1
102
RTVSPropertyOp49
 70
     1
102
RTVSPropertyOp50
 70
     1
102
RTVSPropertyOp51
 70
     0
102
RTVSPropertyOp52
 70
     0
102
RTVSPropertyOp53
 70
     1
102
RTVSPropertyOp54
 70
     1
102
RTVSPropertyOp55
 70
     1
102
RTVSPropertyOp56
 70
     1
102
RTVSPropertyOp57
 70
     1
102
RTVSPropertyOp58
 70
     1
102
RTVSPropertyOp59
 70
     1
102
RTVSPropertyOp60
 70
     1
102
RTVSPropertyOp61
 70
     1
102
RTVSPropertyOp62
 70
     1
  0
XRECORD
  5
F95
102
{ACAD_REACTORS
330
F94
102
}
330
F94
100
AcDbXrecord
280
     1
102
RTVSPost2010Prop28
280
     0
102
RTVSPost2010PropOp28
 70
     1
102
RTVSPost2010Prop29
280
     1
102
RTVSPost2010PropOp29
 70
     1
102
RTVSPost2010Prop30
280
     1
102
RTVSPost2010PropOp30
 70
     1
102
RTVSPost2010Prop31
280
     0
102
RTVSPost2010PropOp31
 70
     1
102
RTVSPost2010Prop32
280
     0
102
RTVSPost2010PropOp32
 70
     1
102
RTVSPost2010Prop33
280
     0
102
RTVSPost2010PropOp33
 70
     1
102
RTVSPost2010Prop34
280
     0
102
RTVSPost2010PropOp34
 70
     1
102
RTVSPost2010Prop35
280
     0
102
RTVSPost2010PropOp35
 70
     1
102
RTVSPost2010Prop36
280
     0
102
RTVSPost2010PropOp36
 70
     1
102
RTVSPost2010Prop37
 90
       50
102
RTVSPost2010PropOp37
 70
     1
102
RTVSPost2010Prop38
140
0.0
102
RTVSPost2010PropOp38
 70
     1
102
RTVSPost2010Prop39
140
1.0
102
RTVSPost2010PropOp39
 70
     1
102
RTVSPost2010Prop40
 90
        0
102
RTVSPost2010PropOp40
 70
     1
102
RTVSPost2010Prop41ColorIndex
 90
       18
102
RTVSPost2010Prop41ColorRGB
 90
        0
102
RTVSPost2010PropOp41
 70
     1
102
RTVSPost2010Prop42
 90
       50
102
RTVSPost2010PropOp42
 70
     1
102
RTVSPost2010Prop43
 90
        3
102
RTVSPost2010PropOp43
 70
     1
102
RTVSPost2010Prop44ColorIndex
 90
        5
102
RTVSPost2010Prop44ColorRGB
 90
      255
102
RTVSPost2010PropOp44
 70
     1
102
RTVSPost2010Prop45
280
     0
102
RTVSPost2010PropOp45
 70
     1
102
RTVSPost2010Prop46
 90
       50
102
RTVSPost2010PropOp46
 70
     1
102
RTVSPost2010Prop47
 90
       50
102
RTVSPost2010PropOp47
 70
     1
102
RTVSPost2010Prop48
 90
       50
102
RTVSPost2010PropOp48
 70
     1
102
RTVSPost2010Prop49
280
     0
102
RTVSPost2010PropOp49
 70
     1
102
RTVSPost2010Prop50
 90
       50
102
RTVSPost2010PropOp50
 70
     1
102
RTVSPost2010Prop51ColorIndex
 90
      256
102
RTVSPost2010Prop51ColorRGB
 90
-16777216
102
RTVSPost2010PropOp51
 70
     0
102
RTVSPost2010Prop52
140
1.0
102
RTVSPost2010PropOp52
 70
     0
102
RTVSPost2010Prop53
 90
        2
102
RTVSPost2010PropOp53
 70
     1
102
RTVSPost2010Prop54
  1
strokes_ogs.tif
102
RTVSPost2010PropOp54
 70
     1
102
RTVSPost2010Prop55
280
     0
102
RTVSPost2010PropOp55
 70
     1
102
RTVSPost2010Prop56
140
1.0
102
RTVSPost2010PropOp56
 70
     1
102
RTVSPost2010Prop57
140
1.0
102
RTVSPost2010PropOp57
 70
     1
102
RTVSPropertyOp0
 70
     1
102
RTVSPropertyOp1
 70
     1
102
RTVSPropertyOp2
 70
     1
102
RTVSPropertyOp3
 70
     1
102
RTVSPropertyOp4
 70
     1
102
RTVSPropertyOp5
 70
     1
102
RTVSPropertyOp6
 70
     1
102
RTVSPropertyOp7
 70
     1
102
RTVSPropertyOp8
 70
     1
102
RTVSPropertyOp9
 70
     1
102
RTVSPropertyOp10
 70
     1
102
RTVSPropertyOp11
 70
     1
102
RTVSPropertyOp12
 70
     1
102
RTVSPropertyOp13
 70
     1
102
RTVSPropertyOp14
 70
     1
102
RTVSPropertyOp15
 70
     1
102
RTVSPropertyOp16
 70
     1
102
RTVSPropertyOp17
 70
     1
102
RTVSPropertyOp18
 70
     1
102
RTVSPropertyOp19
 70
     1
102
RTVSPropertyOp20
 70
     1
102
RTVSPropertyOp21
 70
     1
102
RTVSPropertyOp22
 70
     1
102
RTVSPropertyOp23
 70
     1
102
RTVSPropertyOp24
 70
     1
102
RTVSPropertyOp25
 70
     1
102
RTVSPropertyOp26
 70
     1
102
RTVSPropertyOp27
 70
     1
102
RTVSPropertyOp28
 70
     1
102
RTVSPropertyOp29
 70
     1
102
RTVSPropertyOp30
 70
     1
102
RTVSPropertyOp31
 70
     1
102
RTVSPropertyOp32
 70
     1
102
RTVSPropertyOp33
 70
     1
102
RTVSPropertyOp34
 70
     1
102
RTVSPropertyOp35
 70
     1
102
RTVSPropertyOp36
 70
     1
102
RTVSPropertyOp37
 70
     1
102
RTVSPropertyOp38
 70
     1
102
RTVSPropertyOp39
 70
     1
102
RTVSPropertyOp40
 70
     1
102
RTVSPropertyOp41
 70
     1
102
RTVSPropertyOp42
 70
     1
102
RTVSPropertyOp43
 70
     1
102
RTVSPropertyOp44
 70
     1
102
RTVSPropertyOp45
 70
     1
102
RTVSPropertyOp46
 70
     1
102
RTVSPropertyOp47
 70
     1
102
RTVSPropertyOp48
 70
     1
102
RTVSPropertyOp49
 70
     1
102
RTVSPropertyOp50
 70
     1
102
RTVSPropertyOp51
 70
     0
102
RTVSPropertyOp52
 70
     0
102
RTVSPropertyOp53
 70
     1
102
RTVSPropertyOp54
 70
     1
102
RTVSPropertyOp55
 70
     1
102
RTVSPropertyOp56
 70
     1
102
RTVSPropertyOp57
 70
     1
102
RTVSPropertyOp58
 70
     1
102
RTVSPropertyOp59
 70
     1
102
RTVSPropertyOp60
 70
     1
102
RTVSPropertyOp61
 70
     1
102
RTVSPropertyOp62
 70
     1
  0
XRECORD
  5
F89
102
{ACAD_REACTORS
330
F88
102
}
330
F88
100
AcDbXrecord
280
     1
102
RTVSPost2010Prop28
280
     0
102
RTVSPost2010PropOp28
 70
     1
102
RTVSPost2010Prop29
280
     1
102
RTVSPost2010PropOp29
 70
     1
102
RTVSPost2010Prop30
280
     1
102
RTVSPost2010PropOp30
 70
     1
102
RTVSPost2010Prop31
280
     0
102
RTVSPost2010PropOp31
 70
     1
102
RTVSPost2010Prop32
280
     0
102
RTVSPost2010PropOp32
 70
     1
102
RTVSPost2010Prop33
280
     0
102
RTVSPost2010PropOp33
 70
     1
102
RTVSPost2010Prop34
280
     0
102
RTVSPost2010PropOp34
 70
     1
102
RTVSPost2010Prop35
280
     0
102
RTVSPost2010PropOp35
 70
     1
102
RTVSPost2010Prop36
280
     0
102
RTVSPost2010PropOp36
 70
     1
102
RTVSPost2010Prop37
 90
       50
102
RTVSPost2010PropOp37
 70
     1
102
RTVSPost2010Prop38
140
0.0
102
RTVSPost2010PropOp38
 70
     1
102
RTVSPost2010Prop39
140
1.0
102
RTVSPost2010PropOp39
 70
     1
102
RTVSPost2010Prop40
 90
        0
102
RTVSPost2010PropOp40
 70
     1
102
RTVSPost2010Prop41ColorIndex
 90
       18
102
RTVSPost2010Prop41ColorRGB
 90
        0
102
RTVSPost2010PropOp41
 70
     1
102
RTVSPost2010Prop42
 90
       50
102
RTVSPost2010PropOp42
 70
     1
102
RTVSPost2010Prop43
 90
        3
102
RTVSPost2010PropOp43
 70
     1
102
RTVSPost2010Prop44ColorIndex
 90
        5
102
RTVSPost2010Prop44ColorRGB
 90
      255
102
RTVSPost2010PropOp44
 70
     1
102
RTVSPost2010Prop45
280
     0
102
RTVSPost2010PropOp45
 70
     1
102
RTVSPost2010Prop46
 90
       50
102
RTVSPost2010PropOp46
 70
     1
102
RTVSPost2010Prop47
 90
       50
102
RTVSPost2010PropOp47
 70
     1
102
RTVSPost2010Prop48
 90
       50
102
RTVSPost2010PropOp48
 70
     1
102
RTVSPost2010Prop49
280
     0
102
RTVSPost2010PropOp49
 70
     1
102
RTVSPost2010Prop50
 90
       50
102
RTVSPost2010PropOp50
 70
     1
102
RTVSPost2010Prop51ColorIndex
 90
      256
102
RTVSPost2010Prop51ColorRGB
 90
-16777216
102
RTVSPost2010PropOp51
 70
     0
102
RTVSPost2010Prop52
140
1.0
102
RTVSPost2010PropOp52
 70
     0
102
RTVSPost2010Prop53
 90
        2
102
RTVSPost2010PropOp53
 70
     1
102
RTVSPost2010Prop54
  1
strokes_ogs.tif
102
RTVSPost2010PropOp54
 70
     1
102
RTVSPost2010Prop55
280
     0
102
RTVSPost2010PropOp55
 70
     1
102
RTVSPost2010Prop56
140
1.0
102
RTVSPost2010PropOp56
 70
     1
102
RTVSPost2010Prop57
140
1.0
102
RTVSPost2010PropOp57
 70
     1
102
RTVSPropertyOp0
 70
     1
102
RTVSPropertyOp1
 70
     1
102
RTVSPropertyOp2
 70
     1
102
RTVSPropertyOp3
 70
     1
102
RTVSPropertyOp4
 70
     1
102
RTVSPropertyOp5
 70
     1
102
RTVSPropertyOp6
 70
     1
102
RTVSPropertyOp7
 70
     1
102
RTVSPropertyOp8
 70
     1
102
RTVSPropertyOp9
 70
     1
102
RTVSPropertyOp10
 70
     1
102
RTVSPropertyOp11
 70
     1
102
RTVSPropertyOp12
 70
     1
102
RTVSPropertyOp13
 70
     1
102
RTVSPropertyOp14
 70
     1
102
RTVSPropertyOp15
 70
     1
102
RTVSPropertyOp16
 70
     1
102
RTVSPropertyOp17
 70
     1
102
RTVSPropertyOp18
 70
     1
102
RTVSPropertyOp19
 70
     1
102
RTVSPropertyOp20
 70
     1
102
RTVSPropertyOp21
 70
     1
102
RTVSPropertyOp22
 70
     1
102
RTVSPropertyOp23
 70
     1
102
RTVSPropertyOp24
 70
     1
102
RTVSPropertyOp25
 70
     1
102
RTVSPropertyOp26
 70
     1
102
RTVSPropertyOp27
 70
     1
102
RTVSPropertyOp28
 70
     1
102
RTVSPropertyOp29
 70
     1
102
RTVSPropertyOp30
 70
     1
102
RTVSPropertyOp31
 70
     1
102
RTVSPropertyOp32
 70
     1
102
RTVSPropertyOp33
 70
     1
102
RTVSPropertyOp34
 70
     1
102
RTVSPropertyOp35
 70
     1
102
RTVSPropertyOp36
 70
     1
102
RTVSPropertyOp37
 70
     1
102
RTVSPropertyOp38
 70
     1
102
RTVSPropertyOp39
 70
     1
102
RTVSPropertyOp40
 70
     1
102
RTVSPropertyOp41
 70
     1
102
RTVSPropertyOp42
 70
     1
102
RTVSPropertyOp43
 70
     1
102
RTVSPropertyOp44
 70
     1
102
RTVSPropertyOp45
 70
     1
102
RTVSPropertyOp46
 70
     1
102
RTVSPropertyOp47
 70
     1
102
RTVSPropertyOp48
 70
     1
102
RTVSPropertyOp49
 70
     1
102
RTVSPropertyOp50
 70
     1
102
RTVSPropertyOp51
 70
     0
102
RTVSPropertyOp52
 70
     0
102
RTVSPropertyOp53
 70
     1
102
RTVSPropertyOp54
 70
     1
102
RTVSPropertyOp55
 70
     1
102
RTVSPropertyOp56
 70
     1
102
RTVSPropertyOp57
 70
     1
102
RTVSPropertyOp58
 70
     1
102
RTVSPropertyOp59
 70
     1
102
RTVSPropertyOp60
 70
     1
102
RTVSPropertyOp61
 70
     1
102
RTVSPropertyOp62
 70
     1
  0
XRECORD
  5
FA1
102
{ACAD_REACTORS
330
FA0
102
}
330
FA0
100
AcDbXrecord
280
     1
102
RTVSPost2010Prop28
280
     0
102
RTVSPost2010PropOp28
 70
     1
102
RTVSPost2010Prop29
280
     1
102
RTVSPost2010PropOp29
 70
     1
102
RTVSPost2010Prop30
280
     1
102
RTVSPost2010PropOp30
 70
     1
102
RTVSPost2010Prop31
280
     0
102
RTVSPost2010PropOp31
 70
     1
102
RTVSPost2010Prop32
280
     0
102
RTVSPost2010PropOp32
 70
     1
102
RTVSPost2010Prop33
280
     0
102
RTVSPost2010PropOp33
 70
     1
102
RTVSPost2010Prop34
280
     0
102
RTVSPost2010PropOp34
 70
     1
102
RTVSPost2010Prop35
280
     0
102
RTVSPost2010PropOp35
 70
     1
102
RTVSPost2010Prop36
280
     0
102
RTVSPost2010PropOp36
 70
     1
102
RTVSPost2010Prop37
 90
       50
102
RTVSPost2010PropOp37
 70
     1
102
RTVSPost2010Prop38
140
0.0
102
RTVSPost2010PropOp38
 70
     1
102
RTVSPost2010Prop39
140
1.0
102
RTVSPost2010PropOp39
 70
     1
102
RTVSPost2010Prop40
 90
        0
102
RTVSPost2010PropOp40
 70
     1
102
RTVSPost2010Prop41ColorIndex
 90
       18
102
RTVSPost2010Prop41ColorRGB
 90
        0
102
RTVSPost2010PropOp41
 70
     1
102
RTVSPost2010Prop42
 90
       50
102
RTVSPost2010PropOp42
 70
     1
102
RTVSPost2010Prop43
 90
        3
102
RTVSPost2010PropOp43
 70
     1
102
RTVSPost2010Prop44ColorIndex
 90
        5
102
RTVSPost2010Prop44ColorRGB
 90
      255
102
RTVSPost2010PropOp44
 70
     1
102
RTVSPost2010Prop45
280
     0
102
RTVSPost2010PropOp45
 70
     1
102
RTVSPost2010Prop46
 90
       50
102
RTVSPost2010PropOp46
 70
     1
102
RTVSPost2010Prop47
 90
       50
102
RTVSPost2010PropOp47
 70
     1
102
RTVSPost2010Prop48
 90
       50
102
RTVSPost2010PropOp48
 70
     1
102
RTVSPost2010Prop49
280
     0
102
RTVSPost2010PropOp49
 70
     1
102
RTVSPost2010Prop50
 90
       50
102
RTVSPost2010PropOp50
 70
     1
102
RTVSPost2010Prop51ColorIndex
 90
      256
102
RTVSPost2010Prop51ColorRGB
 90
-16777216
102
RTVSPost2010PropOp51
 70
     0
102
RTVSPost2010Prop52
140
1.0
102
RTVSPost2010PropOp52
 70
     0
102
RTVSPost2010Prop53
 90
        2
102
RTVSPost2010PropOp53
 70
     1
102
RTVSPost2010Prop54
  1
strokes_ogs.tif
102
RTVSPost2010PropOp54
 70
     1
102
RTVSPost2010Prop55
280
     0
102
RTVSPost2010PropOp55
 70
     1
102
RTVSPost2010Prop56
140
1.0
102
RTVSPost2010PropOp56
 70
     1
102
RTVSPost2010Prop57
140
1.0
102
RTVSPost2010PropOp57
 70
     1
102
RTVSPropertyOp0
 70
     1
102
RTVSPropertyOp1
 70
     1
102
RTVSPropertyOp2
 70
     1
102
RTVSPropertyOp3
 70
     1
102
RTVSPropertyOp4
 70
     1
102
RTVSPropertyOp5
 70
     1
102
RTVSPropertyOp6
 70
     1
102
RTVSPropertyOp7
 70
     1
102
RTVSPropertyOp8
 70
     1
102
RTVSPropertyOp9
 70
     1
102
RTVSPropertyOp10
 70
     1
102
RTVSPropertyOp11
 70
     1
102
RTVSPropertyOp12
 70
     1
102
RTVSPropertyOp13
 70
     1
102
RTVSPropertyOp14
 70
     1
102
RTVSPropertyOp15
 70
     1
102
RTVSPropertyOp16
 70
     1
102
RTVSPropertyOp17
 70
     1
102
RTVSPropertyOp18
 70
     1
102
RTVSPropertyOp19
 70
     1
102
RTVSPropertyOp20
 70
     1
102
RTVSPropertyOp21
 70
     1
102
RTVSPropertyOp22
 70
     1
102
RTVSPropertyOp23
 70
     1
102
RTVSPropertyOp24
 70
     1
102
RTVSPropertyOp25
 70
     1
102
RTVSPropertyOp26
 70
     1
102
RTVSPropertyOp27
 70
     1
102
RTVSPropertyOp28
 70
     1
102
RTVSPropertyOp29
 70
     1
102
RTVSPropertyOp30
 70
     1
102
RTVSPropertyOp31
 70
     1
102
RTVSPropertyOp32
 70
     1
102
RTVSPropertyOp33
 70
     1
102
RTVSPropertyOp34
 70
     1
102
RTVSPropertyOp35
 70
     1
102
RTVSPropertyOp36
 70
     1
102
RTVSPropertyOp37
 70
     1
102
RTVSPropertyOp38
 70
     1
102
RTVSPropertyOp39
 70
     1
102
RTVSPropertyOp40
 70
     1
102
RTVSPropertyOp41
 70
     1
102
RTVSPropertyOp42
 70
     1
102
RTVSPropertyOp43
 70
     1
102
RTVSPropertyOp44
 70
     1
102
RTVSPropertyOp45
 70
     1
102
RTVSPropertyOp46
 70
     1
102
RTVSPropertyOp47
 70
     1
102
RTVSPropertyOp48
 70
     1
102
RTVSPropertyOp49
 70
     1
102
RTVSPropertyOp50
 70
     1
102
RTVSPropertyOp51
 70
     0
102
RTVSPropertyOp52
 70
     0
102
RTVSPropertyOp53
 70
     1
102
RTVSPropertyOp54
 70
     1
102
RTVSPropertyOp55
 70
     1
102
RTVSPropertyOp56
 70
     1
102
RTVSPropertyOp57
 70
     1
102
RTVSPropertyOp58
 70
     1
102
RTVSPropertyOp59
 70
     1
102
RTVSPropertyOp60
 70
     1
102
RTVSPropertyOp61
 70
     1
102
RTVSPropertyOp62
 70
     1
  0
ENDSEC
  0
EOF
