  0
SECTION
  2
HEADER
  9
$ACADVER
  1
AC1018
  9
$ACADMAINTVER
 70
   104
  9
$DWGCODEPAGE
  3
ANSI_1252
  9
$LASTSAVEDBY
  1
titadi
  9
$INSBASE
 10
0.0
 20
0.0
 30
0.0
  9
$EXTMIN
 10
-96.53301832980128
 20
-12.70645023173006
 30
-0.000000000000013
  9
$EXTMAX
 10
135.4956371440735
 20
95.32501301649608
 30
0.0000000000000023
  9
$LIMMIN
 10
-170.0
 20
-170.0
  9
$LIMMAX
 10
519.0
 20
260.0
  9
$ORTHOMODE
 70
     1
  9
$REGENMODE
 70
     1
  9
$FILLMODE
 70
     1
  9
$QTEXTMODE
 70
     0
  9
$MIRRTEXT
 70
     0
  9
$LTSCALE
 40
1.0
  9
$ATTMODE
 70
     1
  9
$TEXTSIZE
 40
3.5
  9
$TRACEWID
 40
1.0
  9
$TEXTSTYLE
  7
SIMPLEX
  9
$CLAYER
  8
1
  9
$CELTYPE
  6
BYLAYER
  9
$CECOLOR
 62
   256
  9
$CELTSCALE
 40
1.0
  9
$DISPSILH
 70
     0
  9
$DIMSCALE
 40
1.0
  9
$DIMASZ
 40
2.5
  9
$DIMEXO
 40
0.0
  9
$DIMDLI
 40
3.75
  9
$DIMRND
 40
0.0
  9
$DIMDLE
 40
0.0
  9
$DIMEXE
 40
1.25
  9
$DIMTP
 40
0.0
  9
$DIMTM
 40
0.0
  9
$DIMTXT
 40
3.5
  9
$DIMCEN
 40
0.0
  9
$DIMTSZ
 40
0.0
  9
$DIMTOL
 70
     0
  9
$DIMLIM
 70
     0
  9
$DIMTIH
 70
     0
  9
$DIMTOH
 70
     0
  9
$DIMSE1
 70
     0
  9
$DIMSE2
 70
     0
  9
$DIMTAD
 70
     1
  9
$DIMZIN
 70
     8
  9
$DIMBLK
  1

  9
$DIMASO
 70
     1
  9
$DIMSHO
 70
     1
  9
$DIMPOST
  1

  9
$DIMAPOST
  1

  9
$DIMALT
 70
     0
  9
$DIMALTD
 70
     3
  9
$DIMALTF
 40
0.039370078
  9
$DIMLFAC
 40
1.0
  9
$DIMTOFL
 70
     0
  9
$DIMTVP
 40
0.0
  9
$DIMTIX
 70
     0
  9
$DIMSOXD
 70
     0
  9
$DIMSAH
 70
     0
  9
$DIMBLK1
  1

  9
$DIMBLK2
  1

  9
$DIMSTYLE
  2
STANDARD
  9
$DIMCLRD
 70
     0
  9
$DIMCLRE
 70
     0
  9
$DIMCLRT
 70
     0
  9
$DIMTFAC
 40
1.0
  9
$DIMGAP
 40
0.625
  9
$DIMJUST
 70
     0
  9
$DIMSD1
 70
     0
  9
$DIMSD2
 70
     0
  9
$DIMTOLJ
 70
     0
  9
$DIMTZIN
 70
     8
  9
$DIMALTZ
 70
     0
  9
$DIMALTTZ
 70
     0
  9
$DIMUPT
 70
     0
  9
$DIMDEC
 70
     2
  9
$DIMTDEC
 70
     2
  9
$DIMALTU
 70
     2
  9
$DIMALTTD
 70
     3
  9
$DIMTXSTY
  7
SIMPLEX
  9
$DIMAUNIT
 70
     0
  9
$DIMADEC
 70
     2
  9
$DIMALTRND
 40
0.0
  9
$DIMAZIN
 70
     2
  9
$DIMDSEP
 70
    46
  9
$DIMATFIT
 70
     3
  9
$DIMFRAC
 70
     0
  9
$DIMLDRBLK
  1

  9
$DIMLUNIT
 70
     2
  9
$DIMLWD
 70
    -2
  9
$DIMLWE
 70
    -2
  9
$DIMTMOVE
 70
     0
  9
$LUNITS
 70
     2
  9
$LUPREC
 70
     4
  9
$SKETCHINC
 40
1.0
  9
$FILLETRAD
 40
0.0
  9
$AUNITS
 70
     0
  9
$AUPREC
 70
     0
  9
$MENU
  1
c:\tdm21\cad\caduti13\tdm13
  9
$ELEVATION
 40
0.0
  9
$PELEVATION
 40
0.0
  9
$THICKNESS
 40
0.0
  9
$LIMCHECK
 70
     0
  9
$CHAMFERA
 40
0.0
  9
$CHAMFERB
 40
0.0
  9
$CHAMFERC
 40
0.0
  9
$CHAMFERD
 40
0.0
  9
$SKPOLY
 70
     0
  9
$TDCREATE
 40
2454957.551975972
  9
$TDUCREATE
 40
2454957.510309306
  9
$TDUPDATE
 40
2457340.482735660
  9
$TDUUPDATE
 40
2457340.441068993
  9
$TDINDWG
 40
0.1164580903
  9
$TDUSRTIMER
 40
0.1164409491
  9
$USRTIMER
 70
     1
  9
$ANGBASE
 50
0.0
  9
$ANGDIR
 70
     0
  9
$PDMODE
 70
     1
  9
$PDSIZE
 40
0.0
  9
$PLINEWID
 40
0.0
  9
$SPLFRAME
 70
     0
  9
$SPLINETYPE
 70
     6
  9
$SPLINESEGS
 70
     8
  9
$HANDSEED
  5
1852
  9
$SURFTAB1
 70
     6
  9
$SURFTAB2
 70
     6
  9
$SURFTYPE
 70
     6
  9
$SURFU
 70
     6
  9
$SURFV
 70
     6
  9
$UCSBASE
  2

  9
$UCSNAME
  2

  9
$UCSORG
 10
0.0
 20
0.0
 30
0.0
  9
$UCSXDIR
 10
1.0
 20
0.0
 30
0.0
  9
$UCSYDIR
 10
0.0
 20
1.0
 30
0.0
  9
$UCSORTHOREF
  2

  9
$UCSORTHOVIEW
 70
     0
  9
$UCSORGTOP
 10
0.0
 20
0.0
 30
0.0
  9
$UCSORGBOTTOM
 10
0.0
 20
0.0
 30
0.0
  9
$UCSORGLEFT
 10
0.0
 20
0.0
 30
0.0
  9
$UCSORGRIGHT
 10
0.0
 20
0.0
 30
0.0
  9
$UCSORGFRONT
 10
0.0
 20
0.0
 30
0.0
  9
$UCSORGBACK
 10
0.0
 20
0.0
 30
0.0
  9
$PUCSBASE
  2

  9
$PUCSNAME
  2

  9
$PUCSORG
 10
0.0
 20
0.0
 30
0.0
  9
$PUCSXDIR
 10
1.0
 20
0.0
 30
0.0
  9
$PUCSYDIR
 10
0.0
 20
1.0
 30
0.0
  9
$PUCSORTHOREF
  2

  9
$PUCSORTHOVIEW
 70
     0
  9
$PUCSORGTOP
 10
0.0
 20
0.0
 30
0.0
  9
$PUCSORGBOTTOM
 10
0.0
 20
0.0
 30
0.0
  9
$PUCSORGLEFT
 10
0.0
 20
0.0
 30
0.0
  9
$PUCSORGRIGHT
 10
0.0
 20
0.0
 30
0.0
  9
$PUCSORGFRONT
 10
0.0
 20
0.0
 30
0.0
  9
$PUCSORGBACK
 10
0.0
 20
0.0
 30
0.0
  9
$USERI1
 70
     0
  9
$USERI2
 70
     0
  9
$USERI3
 70
     0
  9
$USERI4
 70
     0
  9
$USERI5
 70
     0
  9
$USERR1
 40
0.0
  9
$USERR2
 40
0.0
  9
$USERR3
 40
0.0
  9
$USERR4
 40
0.0
  9
$USERR5
 40
0.0
  9
$WORLDVIEW
 70
     1
  9
$SHADEDGE
 70
     3
  9
$SHADEDIF
 70
    70
  9
$TILEMODE
 70
     1
  9
$MAXACTVP
 70
    64
  9
$PINSBASE
 10
0.0
 20
0.0
 30
0.0
  9
$PLIMCHECK
 70
     0
  9
$PEXTMIN
 10
0.0
 20
0.0
 30
0.0
  9
$PEXTMAX
 10
0.0
 20
0.0
 30
0.0
  9
$PLIMMIN
 10
0.0
 20
0.0
  9
$PLIMMAX
 10
12.0
 20
9.0
  9
$UNITMODE
 70
     0
  9
$VISRETAIN
 70
     0
  9
$PLINEGEN
 70
     0
  9
$PSLTSCALE
 70
     1
  9
$TREEDEPTH
 70
  3020
  9
$CMLSTYLE
  2
STANDARD
  9
$CMLJUST
 70
     0
  9
$CMLSCALE
 40
20.0
  9
$PROXYGRAPHICS
 70
     1
  9
$MEASUREMENT
 70
     1
  9
$CELWEIGHT
370
    -1
  9
$ENDCAPS
280
     0
  9
$JOINSTYLE
280
     0
  9
$LWDISPLAY
290
     0
  9
$INSUNITS
 70
     4
  9
$HYPERLINKBASE
  1

  9
$STYLESHEET
  1
MONOCHROME.CTB
  9
$XEDIT
290
     1
  9
$CEPSNTYPE
380
     0
  9
$PSTYLEMODE
290
     1
  9
$FINGERPRINTGUID
  2
{46B44192-1510-48B1-B61B-CBE2ADA013A7}
  9
$VERSIONGUID
  2
{8DA051A9-9170-415B-9423-1B0CF0554CCA}
  9
$EXTNAMES
290
     1
  9
$PSVPSCALE
 40
0.0
  9
$OLESTARTUP
290
     0
  9
$SORTENTS
280
   127
  9
$INDEXCTL
280
     0
  9
$HIDETEXT
280
     1
  9
$XCLIPFRAME
290
     0
  9
$HALOGAP
280
     0
  9
$OBSCOLOR
 70
   257
  9
$OBSLTYPE
280
     0
  9
$INTERSECTIONDISPLAY
280
     0
  9
$INTERSECTIONCOLOR
 70
   257
  9
$DIMASSOC
280
     2
  9
$PROJECTNAME
  1

  0
ENDSEC
  0
SECTION
  2
CLASSES
  0
CLASS
  1
ACDBDICTIONARYWDFLT
  2
AcDbDictionaryWithDefault
  3
ObjectDBX Classes
 90
        0
 91
        1
280
     0
281
     0
  0
CLASS
  1
DICTIONARYVAR
  2
AcDbDictionaryVar
  3
ObjectDBX Classes
 90
        0
 91
       12
280
     0
281
     0
  0
CLASS
  1
TABLESTYLE
  2
AcDbTableStyle
  3
ObjectDBX Classes
 90
     4095
 91
        1
280
     0
281
     0
  0
CLASS
  1
SCALE
  2
AcDbScale
  3
ObjectDBX Classes
 90
     1153
 91
       33
280
     0
281
     0
  0
CLASS
  1
MATERIAL
  2
AcDbMaterial
  3
ObjectDBX Classes
 90
     1153
 91
        3
280
     0
281
     0
  0
CLASS
  1
VISUALSTYLE
  2
AcDbVisualStyle
  3
ObjectDBX Classes
 90
     4095
 91
       24
280
     0
281
     0
  0
CLASS
  1
MLEADERSTYLE
  2
AcDbMLeaderStyle
  3
ACDB_MLEADERSTYLE_CLASS
 90
     4095
 91
        1
280
     0
281
     0
  0
CLASS
  1
ACDBSECTIONVIEWSTYLE
  2
AcDbSectionViewStyle
  3
ObjectDBX Classes
 90
     1025
 91
        1
280
     0
281
     0
  0
CLASS
  1
ACDBDETAILVIEWSTYLE
  2
AcDbDetailViewStyle
  3
ObjectDBX Classes
 90
     1025
 91
        1
280
     0
281
     0
  0
CLASS
  1
EXACXREFPANELOBJECT
  2
ExAcXREFPanelObject
  3
EXAC_ESW
 90
     1025
 91
        0
280
     0
281
     0
  0
CLASS
  1
NPOCOLLECTION
  2
AcDbImpNonPersistentObjectsCollection
  3
ObjectDBX Classes
 90
     1153
 91
        0
280
     0
281
     0
  0
CLASS
  1
CELLSTYLEMAP
  2
AcDbCellStyleMap
  3
ObjectDBX Classes
 90
     1152
 91
        2
280
     0
281
     0
  0
CLASS
  1
DIMASSOC
  2
AcDbDimAssoc
  3
"AcDbDimAssoc|Product Desc:     AcDim ARX App For Dimension|Company:          Autodesk, Inc.|WEB Address:      www.autodesk.com"
 90
        0
 91
        0
280
     0
281
     0
  0
CLASS
  1
SORTENTSTABLE
  2
AcDbSortentsTable
  3
ObjectDBX Classes
 90
        0
 91
        2
280
     0
281
     0
  0
ENDSEC
  0
SECTION
  2
TABLES
  0
TABLE
  2
VPORT
  5
8
330
0
100
AcDbSymbolTable
 70
     1
  0
VPORT
  5
39A
330
8
100
AcDbSymbolTableRecord
100
AcDbViewportTableRecord
  2
*Active
 70
     0
 10
0.0
 20
0.0
 11
1.0
 21
1.0
 12
19.48130940713607
 22
41.30928139238302
 13
0.0
 23
0.0
 14
5.0
 24
5.0
 15
5.0
 25
5.0
 16
0.0
 26
0.0
 36
1.0
 17
0.0
 27
0.0
 37
0.0
 40
108.9050330319045
 41
2.58434547908232
 42
50.0
 43
0.0
 44
0.0
 50
0.0
 51
0.0
 71
     0
 72
  2000
 73
     1
 74
     1
 75
     0
 76
     0
 77
     0
 78
     0
281
     0
 65
     1
110
0.0
120
0.0
130
0.0
111
1.0
121
0.0
131
0.0
112
0.0
122
1.0
132
0.0
 79
     0
146
0.0
1001
ACAD_NAV_VCDISPLAY
1070
     3
  0
ENDTAB
  0
TABLE
  2
LTYPE
  5
5
330
0
100
AcDbSymbolTable
 70
     3
  0
LTYPE
  5
12
330
5
100
AcDbSymbolTableRecord
100
AcDbLinetypeTableRecord
  2
BYBLOCK
 70
     0
  3

 72
    65
 73
     0
 40
0.0
  0
LTYPE
  5
13
330
5
100
AcDbSymbolTableRecord
100
AcDbLinetypeTableRecord
  2
BYLAYER
 70
     0
  3

 72
    65
 73
     0
 40
0.0
  0
LTYPE
  5
14
330
5
100
AcDbSymbolTableRecord
100
AcDbLinetypeTableRecord
  2
CONTINUOUS
 70
     0
  3
Solid line
 72
    65
 73
     0
 40
0.0
  0
LTYPE
  5
20
330
5
100
AcDbSymbolTableRecord
100
AcDbLinetypeTableRecord
  2
HIDDEN
 70
     0
  3
Hidden __ __ __ __ __ __ __ __ __ __ __ __ __ _
 72
    65
 73
     2
 40
9.524999999999996
 49
6.349999999999997
 74
     0
 49
-3.174999999999998
 74
     0
  0
LTYPE
  5
351
330
5
100
AcDbSymbolTableRecord
100
AcDbLinetypeTableRecord
  2
CENTER
 70
     0
  3
Dash dot __ . __ . __ . __ . __ . __ . __ . __
 72
    65
 73
     4
 40
25.4
 49
12.7
 74
     0
 49
-6.349999999999997
 74
     0
 49
0.0
 74
     0
 49
-6.349999999999997
 74
     0
  0
ENDTAB
  0
TABLE
  2
LAYER
  5
2
102
{ACAD_XDICTIONARY
360
6C0
102
}
330
0
100
AcDbSymbolTable
 70
    16
  0
LAYER
  5
F
102
{ACAD_XDICTIONARY
360
508
102
}
330
2
100
AcDbSymbolTableRecord
100
AcDbLayerTableRecord
  2
0
 70
     0
 62
     7
  6
CONTINUOUS
370
    -3
390
300
  0
LAYER
  5
23
102
{ACAD_XDICTIONARY
360
50A
102
}
330
2
100
AcDbSymbolTableRecord
100
AcDbLayerTableRecord
  2
1
 70
     0
 62
     4
  6
CONTINUOUS
370
    -3
390
300
  0
LAYER
  5
24
102
{ACAD_XDICTIONARY
360
50C
102
}
330
2
100
AcDbSymbolTableRecord
100
AcDbLayerTableRecord
  2
SK1
 70
     0
 62
     4
  6
CONTINUOUS
370
    -3
390
300
  0
LAYER
  5
25
102
{ACAD_XDICTIONARY
360
50E
102
}
330
2
100
AcDbSymbolTableRecord
100
AcDbLayerTableRecord
  2
2
 70
     0
 62
     7
  6
CONTINUOUS
370
    -3
390
300
  0
LAYER
  5
26
102
{ACAD_XDICTIONARY
360
510
102
}
330
2
100
AcDbSymbolTableRecord
100
AcDbLayerTableRecord
  2
2L
 70
     0
 62
     7
  6
CONTINUOUS
370
    -3
390
300
  0
LAYER
  5
27
102
{ACAD_XDICTIONARY
360
512
102
}
330
2
100
AcDbSymbolTableRecord
100
AcDbLayerTableRecord
  2
SK2
 70
     0
 62
     7
  6
CONTINUOUS
370
    -3
390
300
  0
LAYER
  5
28
102
{ACAD_XDICTIONARY
360
514
102
}
330
2
100
AcDbSymbolTableRecord
100
AcDbLayerTableRecord
  2
3
 70
     0
 62
     1
  6
HIDDEN
370
    -3
390
300
  0
LAYER
  5
29
102
{ACAD_XDICTIONARY
360
516
102
}
330
2
100
AcDbSymbolTableRecord
100
AcDbLayerTableRecord
  2
SK3
 70
     0
 62
     1
  6
HIDDEN
370
    -3
390
300
  0
LAYER
  5
2A
102
{ACAD_XDICTIONARY
360
518
102
}
330
2
100
AcDbSymbolTableRecord
100
AcDbLayerTableRecord
  2
4
 70
     0
 62
     2
  6
CENTER
370
    -3
390
300
  0
LAYER
  5
2B
102
{ACAD_XDICTIONARY
360
51A
102
}
330
2
100
AcDbSymbolTableRecord
100
AcDbLayerTableRecord
  2
SK4
 70
     0
 62
     2
  6
CENTER
370
    -3
390
300
  0
LAYER
  5
2C
102
{ACAD_XDICTIONARY
360
51C
102
}
330
2
100
AcDbSymbolTableRecord
100
AcDbLayerTableRecord
  2
5
 70
     0
 62
    -7
  6
CONTINUOUS
370
    -3
390
300
  0
LAYER
  5
2D
102
{ACAD_XDICTIONARY
360
51E
102
}
330
2
100
AcDbSymbolTableRecord
100
AcDbLayerTableRecord
  2
6
 70
     0
 62
     5
  6
CONTINUOUS
370
    -3
390
300
  0
LAYER
  5
2E
102
{ACAD_XDICTIONARY
360
520
102
}
330
2
100
AcDbSymbolTableRecord
100
AcDbLayerTableRecord
  2
SK6
 70
     0
 62
     5
  6
CONTINUOUS
370
    -3
390
300
  0
LAYER
  5
2F
330
2
100
AcDbSymbolTableRecord
100
AcDbLayerTableRecord
  2
DEFPOINTS
 70
     0
 62
     7
  6
CONTINUOUS
290
     0
370
    -3
390
300
  0
LAYER
  5
375
102
{ACAD_XDICTIONARY
360
522
102
}
330
2
100
AcDbSymbolTableRecord
100
AcDbLayerTableRecord
  2
CUT
 70
     0
 62
     1
  6
CONTINUOUS
370
    -3
390
300
  0
LAYER
  5
376
102
{ACAD_XDICTIONARY
360
524
102
}
330
2
100
AcDbSymbolTableRecord
100
AcDbLayerTableRecord
  2
NOCUT
 70
     0
 62
     7
  6
CONTINUOUS
370
    -3
390
300
  0
ENDTAB
  0
TABLE
  2
STYLE
  5
3
330
0
100
AcDbSymbolTable
 70
     5
  0
STYLE
  5
10
330
3
100
AcDbSymbolTableRecord
100
AcDbTextStyleTableRecord
  2
STANDARD
 70
     0
 40
0.0
 41
1.0
 50
0.0
 71
     0
 42
5.0
  3
txt
  4

  0
STYLE
  5
1D
330
3
100
AcDbSymbolTableRecord
100
AcDbTextStyleTableRecord
  2
TXT
 70
     0
 40
8.0
 41
1.0
 50
0.0
 71
     0
 42
8.0
  3
txt
  4

  0
STYLE
  5
1E
330
3
100
AcDbSymbolTableRecord
100
AcDbTextStyleTableRecord
  2
SIMPLEX
 70
     0
 40
0.0
 41
1.0
 50
0.0
 71
     0
 42
3.5
  3
simplex
  4

  0
STYLE
  5
34C
330
3
100
AcDbSymbolTableRecord
100
AcDbTextStyleTableRecord
  2

 70
     1
 40
0.0
 41
1.0
 50
0.0
 71
     0
 42
2.5
  3
ltypeshp.shx
  4

  0
STYLE
  5
1619
330
3
100
AcDbSymbolTableRecord
100
AcDbTextStyleTableRecord
  2
SANDVIK_STYLE
 70
     0
 40
3.0
 41
1.0
 50
0.0
 71
     0
 42
3.0
  3
simplex.shx
  4

  0
ENDTAB
  0
TABLE
  2
VIEW
  5
6
330
0
100
AcDbSymbolTable
 70
     1
  0
ENDTAB
  0
TABLE
  2
UCS
  5
7
330
0
100
AcDbSymbolTable
 70
     0
  0
ENDTAB
  0
TABLE
  2
APPID
  5
9
330
0
100
AcDbSymbolTable
 70
     5
  0
APPID
  5
11
330
9
100
AcDbSymbolTableRecord
100
AcDbRegAppTableRecord
  2
ACAD
 70
     0
  0
APPID
  5
52C
330
9
100
AcDbSymbolTableRecord
100
AcDbRegAppTableRecord
  2
ACAD_NAV_VCDISPLAY
 70
     0
  0
APPID
  5
56A
330
9
100
AcDbSymbolTableRecord
100
AcDbRegAppTableRecord
  2
ACAD_MLEADERVER
 70
     0
  0
APPID
  5
5CC
330
9
100
AcDbSymbolTableRecord
100
AcDbRegAppTableRecord
  2
ACAD_EXEMPT_FROM_CAD_STANDARDS
 70
     0
  0
APPID
  5
689
330
9
100
AcDbSymbolTableRecord
100
AcDbRegAppTableRecord
  2
AcadAnnoMonitorAlertIconDisabled
 70
     0
  0
ENDTAB
  0
TABLE
  2
DIMSTYLE
  5
A
330
0
100
AcDbSymbolTable
 70
     2
100
AcDbDimStyleTable
 71
     2
340
161A
340
3F
  0
DIMSTYLE
105
3F
330
A
100
AcDbSymbolTableRecord
100
AcDbDimStyleTableRecord
  2
STANDARD
 70
     0
 41
2.5
 42
0.0
 43
3.75
 44
1.25
 73
     0
 74
     0
 77
     1
 78
     8
 79
     2
140
3.5
141
0.0
143
0.039370078
147
0.625
171
     3
179
     2
271
     2
272
     2
274
     3
283
     0
284
     8
340
1E
  0
DIMSTYLE
105
161A
102
{ACAD_REACTORS
330
162A
330
1627
330
162C
330
162B
330
1629
330
1628
330
4A9
330
48E
330
481
330
E40
330
473
330
49B
102
}
330
A
100
AcDbSymbolTableRecord
100
AcDbDimStyleTableRecord
  2
SANDVIK_DIM
 70
     0
  4
 
 40
0.0
 41
4.57
 42
0.0
 44
5.0
 73
     0
 74
     0
 77
     1
 78
     8
140
4.5
147
2.299999999999998
176
   256
177
   256
178
   256
271
     2
272
     2
279
     2
340
1619
  0
ENDTAB
  0
TABLE
  2
BLOCK_RECORD
  5
1
330
0
100
AcDbSymbolTable
 70
    30
  0
BLOCK_RECORD
  5
18
102
{ACAD_XDICTIONARY
360
8A7
102
}
330
1
100
AcDbSymbolTableRecord
100
AcDbBlockTableRecord
  2
*MODEL_SPACE
340
303
  0
BLOCK_RECORD
  5
338
330
1
100
AcDbSymbolTableRecord
100
AcDbBlockTableRecord
  2
*Paper_Space
340
33B
  0
BLOCK_RECORD
  5
474
330
1
100
AcDbSymbolTableRecord
100
AcDbBlockTableRecord
  2
*D0
340
0
  0
BLOCK_RECORD
  5
482
330
1
100
AcDbSymbolTableRecord
100
AcDbBlockTableRecord
  2
*D1
340
0
  0
BLOCK_RECORD
  5
48F
330
1
100
AcDbSymbolTableRecord
100
AcDbBlockTableRecord
  2
*D2
340
0
  0
BLOCK_RECORD
  5
49C
330
1
100
AcDbSymbolTableRecord
100
AcDbBlockTableRecord
  2
*D3
340
0
  0
BLOCK_RECORD
  5
4AA
330
1
100
AcDbSymbolTableRecord
100
AcDbBlockTableRecord
  2
*D4
340
0
  0
BLOCK_RECORD
  5
4B7
330
1
100
AcDbSymbolTableRecord
100
AcDbBlockTableRecord
  2
*D5
340
0
  0
BLOCK_RECORD
  5
571
330
1
100
AcDbSymbolTableRecord
100
AcDbBlockTableRecord
  2
*D6
340
0
  0
BLOCK_RECORD
  5
5AE
330
1
100
AcDbSymbolTableRecord
100
AcDbBlockTableRecord
  2
*D7
340
0
  0
BLOCK_RECORD
  5
71A
330
1
100
AcDbSymbolTableRecord
100
AcDbBlockTableRecord
  2
*D8
340
0
  0
BLOCK_RECORD
  5
88F
330
1
100
AcDbSymbolTableRecord
100
AcDbBlockTableRecord
  2
*D9
340
0
  0
BLOCK_RECORD
  5
947
330
1
100
AcDbSymbolTableRecord
100
AcDbBlockTableRecord
  2
*D10
340
0
  0
BLOCK_RECORD
  5
B71
330
1
100
AcDbSymbolTableRecord
100
AcDbBlockTableRecord
  2
*D11
340
0
  0
BLOCK_RECORD
  5
C8A
330
1
100
AcDbSymbolTableRecord
100
AcDbBlockTableRecord
  2
A$C24B97C28
340
0
1001
ACAD
1000
DesignCenter Data
1002
{
1070
     1
1070
     4
1002
}
  0
BLOCK_RECORD
  5
E27
330
1
100
AcDbSymbolTableRecord
100
AcDbBlockTableRecord
  2
*D13
340
0
  0
BLOCK_RECORD
  5
E46
330
1
100
AcDbSymbolTableRecord
100
AcDbBlockTableRecord
  2
*D14
340
0
  0
BLOCK_RECORD
  5
F29
330
1
100
AcDbSymbolTableRecord
100
AcDbBlockTableRecord
  2
*D15
340
0
  0
BLOCK_RECORD
  5
1002
330
1
100
AcDbSymbolTableRecord
100
AcDbBlockTableRecord
  2
*D16
340
0
  0
BLOCK_RECORD
  5
10CB
330
1
100
AcDbSymbolTableRecord
100
AcDbBlockTableRecord
  2
*D17
340
0
  0
BLOCK_RECORD
  5
11E9
330
1
100
AcDbSymbolTableRecord
100
AcDbBlockTableRecord
  2
*D18
340
0
  0
BLOCK_RECORD
  5
12D5
330
1
100
AcDbSymbolTableRecord
100
AcDbBlockTableRecord
  2
*D19
340
0
  0
BLOCK_RECORD
  5
134E
330
1
100
AcDbSymbolTableRecord
100
AcDbBlockTableRecord
  2
*D20
340
0
  0
BLOCK_RECORD
  5
13F3
330
1
100
AcDbSymbolTableRecord
100
AcDbBlockTableRecord
  2
*D21
340
0
  0
BLOCK_RECORD
  5
148F
330
1
100
AcDbSymbolTableRecord
100
AcDbBlockTableRecord
  2
*D22
340
0
  0
BLOCK_RECORD
  5
15CC
330
1
100
AcDbSymbolTableRecord
100
AcDbBlockTableRecord
  2
*D23
340
0
  0
BLOCK_RECORD
  5
15D9
330
1
100
AcDbSymbolTableRecord
100
AcDbBlockTableRecord
  2
*D24
340
0
  0
BLOCK_RECORD
  5
15E6
330
1
100
AcDbSymbolTableRecord
100
AcDbBlockTableRecord
  2
*D25
340
0
  0
BLOCK_RECORD
  5
15F3
330
1
100
AcDbSymbolTableRecord
100
AcDbBlockTableRecord
  2
*D26
340
0
  0
BLOCK_RECORD
  5
1600
330
1
100
AcDbSymbolTableRecord
100
AcDbBlockTableRecord
  2
*D27
340
0
  0
BLOCK_RECORD
  5
160C
330
1
100
AcDbSymbolTableRecord
100
AcDbBlockTableRecord
  2
*D28
340
0
  0
BLOCK_RECORD
  5
161B
102
{ACAD_XDICTIONARY
360
16AA
102
}
330
1
100
AcDbSymbolTableRecord
100
AcDbBlockTableRecord
  2
A$C6C7C31C0
340
0
1001
ACAD
1000
DesignCenter Data
1002
{
1070
     1
1070
     4
1002
}
  0
ENDTAB
  0
ENDSEC
  0
SECTION
  2
BLOCKS
  0
BLOCK
  5
32
330
18
100
AcDbEntity
  8
0
100
AcDbBlockBegin
  2
*MODEL_SPACE
 70
     0
 10
0.0
 20
0.0
 30
0.0
  3
*MODEL_SPACE
  1

  0
ENDBLK
  5
33
330
18
100
AcDbEntity
  8
0
100
AcDbBlockEnd
  0
BLOCK
  5
339
330
338
100
AcDbEntity
 67
     1
  8
0
100
AcDbBlockBegin
  2
*Paper_Space
 70
     0
 10
0.0
 20
0.0
 30
0.0
  3
*Paper_Space
  1

  0
ENDBLK
  5
33A
330
338
100
AcDbEntity
 67
     1
  8
0
100
AcDbBlockEnd
  0
BLOCK
  5
47F
330
474
100
AcDbEntity
  8
0
100
AcDbBlockBegin
  2
*D0
 70
     1
 10
0.0
 20
0.0
 30
0.0
  3
*D0
  1

  0
LINE
  5
17B3
330
474
100
AcDbEntity
  8
2
440
 16777216
370
    -2
100
AcDbLine
 10
93.73079123440438
 20
12.69840162198524
 30
0.0
 11
135.451091606002
 21
12.69840162198523
 31
0.0
  0
LINE
  5
17B4
330
474
100
AcDbEntity
  8
2
440
 16777216
370
    -2
100
AcDbLine
 10
94.40215872768598
 20
-12.70044952468043
 30
0.0
 11
135.451091606002
 21
-12.70044952468044
 31
0.0
  0
LINE
  5
17B5
330
474
100
AcDbEntity
  8
2
440
 16777216
370
    -2
100
AcDbLine
 10
130.451091606002
 20
8.128401621985231
 30
0.0
 11
130.451091606002
 21
-8.130449524680436
 31
0.0
  0
SOLID
  5
17B6
330
474
100
AcDbEntity
  8
2
440
 16777216
100
AcDbTrace
 10
129.6894249393353
 20
8.128401621985231
 30
0.0
 11
131.2127582726686
 21
8.128401621985231
 31
0.0
 12
130.451091606002
 22
12.69840162198523
 32
0.0
 13
130.451091606002
 23
12.69840162198523
 33
0.0
  0
SOLID
  5
17B7
330
474
100
AcDbEntity
  8
2
440
 16777216
100
AcDbTrace
 10
129.6894249393353
 20
-8.130449524680436
 30
0.0
 11
131.2127582726686
 21
-8.130449524680436
 31
0.0
 12
130.451091606002
 22
-12.70044952468043
 32
0.0
 13
130.451091606002
 23
-12.70044952468043
 33
0.0
  0
MTEXT
  5
17B8
330
474
100
AcDbEntity
  8
2
440
 16777216
100
AcDbMText
 10
126.651091606002
 20
-0.0010239513475816
 30
0.0
 40
3.0
 41
0.0
 71
     5
 72
     1
  1
\A1;%%c25.4
  7
SANDVIK_STYLE
 11
0.0000000000000001
 21
1.0
 31
0.0
 73
     1
 44
1.0
  0
POINT
  5
17B9
330
474
100
AcDbEntity
  8
DEFPOINTS
 62
     0
440
 16777216
100
AcDbPoint
 10
93.73079123440438
 20
12.69840162198524
 30
0.0
  0
POINT
  5
17BA
330
474
100
AcDbEntity
  8
DEFPOINTS
 62
     0
440
 16777216
100
AcDbPoint
 10
94.40215872768598
 20
-12.70044952468043
 30
0.0
  0
POINT
  5
17BB
330
474
100
AcDbEntity
  8
DEFPOINTS
 62
     0
440
 16777216
100
AcDbPoint
 10
130.451091606002
 20
-12.70044952468043
 30
0.0
  0
ENDBLK
  5
480
330
474
100
AcDbEntity
  8
0
100
AcDbBlockEnd
  0
BLOCK
  5
48C
330
482
100
AcDbEntity
  8
0
100
AcDbBlockBegin
  2
*D1
 70
     1
 10
0.0
 20
0.0
 30
0.0
  3
*D1
  1

  0
LINE
  5
17C5
330
482
100
AcDbEntity
  8
2
440
 16777216
370
    -2
100
AcDbLine
 10
0.0
 20
0.0
 30
0.0
 11
0.0000000000000046
 21
74.79672856999366
 31
0.0
  0
LINE
  5
17C6
330
482
100
AcDbEntity
  8
2
440
 16777216
370
    -2
100
AcDbLine
 10
94.40215872768598
 20
12.02224958226492
 30
0.0
 11
94.40215872768598
 21
74.79672856999366
 31
0.0
  0
LINE
  5
17C7
330
482
100
AcDbEntity
  8
2
440
 16777216
370
    -2
100
AcDbLine
 10
4.570000000000003
 20
69.79672856999366
 30
0.0
 11
89.83215872768601
 21
69.79672856999366
 31
0.0
  0
SOLID
  5
17C8
330
482
100
AcDbEntity
  8
2
440
 16777216
100
AcDbTrace
 10
4.570000000000003
 20
70.55839523666033
 30
0.0
 11
4.570000000000003
 21
69.03506190332699
 31
0.0
 12
0.0000000000000043
 22
69.79672856999366
 32
0.0
 13
0.0000000000000043
 23
69.79672856999366
 33
0.0
  0
SOLID
  5
17C9
330
482
100
AcDbEntity
  8
2
440
 16777216
100
AcDbTrace
 10
89.83215872768601
 20
70.55839523666033
 30
0.0
 11
89.83215872768601
 21
69.03506190332699
 31
0.0
 12
94.40215872768598
 22
69.79672856999366
 32
0.0
 13
94.40215872768598
 23
69.79672856999366
 33
0.0
  0
MTEXT
  5
17CA
330
482
100
AcDbEntity
  8
2
440
 16777216
100
AcDbMText
 10
47.201079363843
 20
73.59672856999366
 30
0.0
 40
3.0
 41
0.0
 71
     5
 72
     1
  1
\A1;94.4
  7
SANDVIK_STYLE
 73
     1
 44
1.0
  0
POINT
  5
17CB
330
482
100
AcDbEntity
  8
DEFPOINTS
 62
     0
440
 16777216
100
AcDbPoint
 10
0.0
 20
0.0
 30
0.0
  0
POINT
  5
17CC
330
482
100
AcDbEntity
  8
DEFPOINTS
 62
     0
440
 16777216
100
AcDbPoint
 10
94.40215872768598
 20
12.02224958226492
 30
0.0
  0
POINT
  5
17CD
330
482
100
AcDbEntity
  8
DEFPOINTS
 62
     0
440
 16777216
100
AcDbPoint
 10
94.40215872768598
 20
69.79672856999366
 30
0.0
  0
ENDBLK
  5
48D
330
482
100
AcDbEntity
  8
0
100
AcDbBlockEnd
  0
BLOCK
  5
499
330
48F
100
AcDbEntity
  8
0
100
AcDbBlockBegin
  2
*D2
 70
     1
 10
0.0
 20
0.0
 30
0.0
  3
*D2
  1

  0
LINE
  5
1797
330
48F
100
AcDbEntity
  8
2
440
 16777216
370
    -2
100
AcDbLine
 10
30.90211419490314
 20
12.78975191769723
 30
0.0
 11
30.90211419490314
 21
52.37499999999999
 31
0.0
  0
LINE
  5
1798
330
48F
100
AcDbEntity
  8
2
440
 16777216
370
    -2
100
AcDbLine
 10
94.40215872768598
 20
0.0000000000000021
 30
0.0
 11
94.40215872768598
 21
52.37499999999999
 31
0.0
  0
LINE
  5
1799
330
48F
100
AcDbEntity
  8
2
440
 16777216
370
    -2
100
AcDbLine
 10
35.47211419490314
 20
47.37499999999999
 30
0.0
 11
89.83215872768601
 21
47.37499999999999
 31
0.0
  0
SOLID
  5
179A
330
48F
100
AcDbEntity
  8
2
440
 16777216
100
AcDbTrace
 10
35.47211419490314
 20
48.13666666666666
 30
0.0
 11
35.47211419490314
 21
46.61333333333333
 31
0.0
 12
30.90211419490314
 22
47.37499999999999
 32
0.0
 13
30.90211419490314
 23
47.37499999999999
 33
0.0
  0
SOLID
  5
179B
330
48F
100
AcDbEntity
  8
2
440
 16777216
100
AcDbTrace
 10
89.83215872768601
 20
48.13666666666666
 30
0.0
 11
89.83215872768601
 21
46.61333333333333
 31
0.0
 12
94.40215872768598
 22
47.37499999999999
 32
0.0
 13
94.40215872768598
 23
47.37499999999999
 33
0.0
  0
MTEXT
  5
179C
330
48F
100
AcDbEntity
  8
2
440
 16777216
100
AcDbMText
 10
62.65213646129456
 20
51.17499999999999
 30
0.0
 40
3.0
 41
0.0
 71
     5
 72
     1
  1
\A1;63.5
  7
SANDVIK_STYLE
 73
     1
 44
1.0
  0
POINT
  5
179D
330
48F
100
AcDbEntity
  8
DEFPOINTS
 62
     0
440
 16777216
100
AcDbPoint
 10
30.90211419490314
 20
12.78975191769723
 30
0.0
  0
POINT
  5
179E
330
48F
100
AcDbEntity
  8
DEFPOINTS
 62
     0
440
 16777216
100
AcDbPoint
 10
94.40215872768598
 20
0.0000000000000021
 30
0.0
  0
POINT
  5
179F
330
48F
100
AcDbEntity
  8
DEFPOINTS
 62
     0
440
 16777216
100
AcDbPoint
 10
94.40215872768598
 20
47.37499999999999
 30
0.0
  0
ENDBLK
  5
49A
330
48F
100
AcDbEntity
  8
0
100
AcDbBlockEnd
  0
BLOCK
  5
4A7
330
49C
100
AcDbEntity
  8
0
100
AcDbBlockBegin
  2
*D3
 70
     1
 10
0.0
 20
0.0
 30
0.0
  3
*D3
  1

  0
LINE
  5
17BC
330
49C
100
AcDbEntity
  8
SK2
440
 16777216
370
    -2
100
AcDbLine
 10
-56.72797812332719
 20
12.6986314898673
 30
0.0
 11
-96.21473670413443
 21
12.69863148986731
 31
0.0
  0
LINE
  5
17BD
330
49C
100
AcDbEntity
  8
SK2
440
 16777216
370
    -2
100
AcDbLine
 10
-56.72814277205396
 20
-12.69863148559763
 30
0.0
 11
-96.21473670413443
 21
-12.69863148559762
 31
0.0
  0
LINE
  5
17BE
330
49C
100
AcDbEntity
  8
SK2
440
 16777216
370
    -2
100
AcDbLine
 10
-91.21473670413442
 20
8.128631489867307
 30
0.0
 11
-91.21473670413442
 21
-8.128631485597622
 31
0.0
  0
SOLID
  5
17BF
330
49C
100
AcDbEntity
  8
SK2
440
 16777216
100
AcDbTrace
 10
-91.97640337080107
 20
8.128631489867307
 30
0.0
 11
-90.45307003746776
 21
8.128631489867307
 31
0.0
 12
-91.21473670413442
 22
12.69863148986731
 32
0.0
 13
-91.21473670413442
 23
12.69863148986731
 33
0.0
  0
SOLID
  5
17C0
330
49C
100
AcDbEntity
  8
SK2
440
 16777216
100
AcDbTrace
 10
-91.97640337080107
 20
-8.128631485597622
 30
0.0
 11
-90.45307003746776
 21
-8.128631485597622
 31
0.0
 12
-91.21473670413442
 22
-12.69863148559762
 32
0.0
 13
-91.21473670413442
 23
-12.69863148559762
 33
0.0
  0
MTEXT
  5
17C1
330
49C
100
AcDbEntity
  8
SK2
440
 16777216
100
AcDbMText
 10
-95.01473670413442
 20
0.0000000021348299
 30
0.0
 40
3.0
 41
0.0
 71
     5
 72
     1
  1
\A1;%%c25.4
  7
SANDVIK_STYLE
 11
0.0000000000000001
 21
1.0
 31
0.0
 73
     1
 44
1.0
  0
POINT
  5
17C2
330
49C
100
AcDbEntity
  8
DEFPOINTS
 62
     0
440
 16777216
100
AcDbPoint
 10
-56.72797812332719
 20
12.6986314898673
 30
0.0
  0
POINT
  5
17C3
330
49C
100
AcDbEntity
  8
DEFPOINTS
 62
     0
440
 16777216
100
AcDbPoint
 10
-56.72814277205396
 20
-12.69863148559763
 30
0.0
  0
POINT
  5
17C4
330
49C
100
AcDbEntity
  8
DEFPOINTS
 62
     0
440
 16777216
100
AcDbPoint
 10
-91.21473670413442
 20
-12.69863148559762
 30
0.0
  0
ENDBLK
  5
4A8
330
49C
100
AcDbEntity
  8
0
100
AcDbBlockEnd
  0
BLOCK
  5
4B4
330
4AA
100
AcDbEntity
  8
0
100
AcDbBlockBegin
  2
*D4
 70
     1
 10
0.0
 20
0.0
 30
0.0
  3
*D4
  1

  0
LINE
  5
178E
330
4AA
100
AcDbEntity
  8
SK2
440
 16777216
370
    -2
100
AcDbLine
 10
-57.997841272314
 20
0.0000000000000018
 30
0.0
 11
-57.997841272314
 21
95.0
 31
0.0
  0
LINE
  5
178F
330
4AA
100
AcDbEntity
  8
SK2
440
 16777216
370
    -2
100
AcDbLine
 10
94.40215872768598
 20
0.0000000000000008
 30
0.0
 11
94.40215872768598
 21
95.0
 31
0.0
  0
LINE
  5
1790
330
4AA
100
AcDbEntity
  8
SK2
440
 16777216
370
    -2
100
AcDbLine
 10
-53.427841272314
 20
90.0
 30
0.0
 11
89.83215872768601
 21
90.0
 31
0.0
  0
SOLID
  5
1791
330
4AA
100
AcDbEntity
  8
SK2
440
 16777216
100
AcDbTrace
 10
-53.427841272314
 20
90.76166666666669
 30
0.0
 11
-53.427841272314
 21
89.23833333333332
 31
0.0
 12
-57.997841272314
 22
90.0
 32
0.0
 13
-57.997841272314
 23
90.0
 33
0.0
  0
SOLID
  5
1792
330
4AA
100
AcDbEntity
  8
SK2
440
 16777216
100
AcDbTrace
 10
89.83215872768601
 20
90.76166666666669
 30
0.0
 11
89.83215872768601
 21
89.23833333333332
 31
0.0
 12
94.40215872768598
 22
90.0
 32
0.0
 13
94.40215872768598
 23
90.0
 33
0.0
  0
MTEXT
  5
1793
330
4AA
100
AcDbEntity
  8
SK2
440
 16777216
100
AcDbMText
 10
18.202158727686
 20
93.8
 30
0.0
 40
3.0
 41
0.0
 71
     5
 72
     1
  1
\A1;152.4
  7
SANDVIK_STYLE
 73
     1
 44
1.0
  0
POINT
  5
1794
330
4AA
100
AcDbEntity
  8
DEFPOINTS
 62
     0
440
 16777216
100
AcDbPoint
 10
-57.997841272314
 20
0.0000000000000018
 30
0.0
  0
POINT
  5
1795
330
4AA
100
AcDbEntity
  8
DEFPOINTS
 62
     0
440
 16777216
100
AcDbPoint
 10
94.40215872768598
 20
0.0000000000000008
 30
0.0
  0
POINT
  5
1796
330
4AA
100
AcDbEntity
  8
DEFPOINTS
 62
     0
440
 16777216
100
AcDbPoint
 10
94.40215872768598
 20
90.0
 30
0.0
  0
ENDBLK
  5
4B5
330
4AA
100
AcDbEntity
  8
0
100
AcDbBlockEnd
  0
BLOCK
  5
4C1
330
4B7
100
AcDbEntity
  8
0
100
AcDbBlockBegin
  2
*D5
 70
     1
 10
0.0
 20
0.0
 30
0.0
  3
*D5
  1

  0
LINE
  5
4B8
330
4B7
100
AcDbEntity
  8
2
 62
     0
440
 16777216
370
    -2
100
AcDbLine
 10
13.0
 20
1.5
 30
0.0
 11
13.0
 21
61.25
 31
0.0
  0
LINE
  5
4B9
330
4B7
100
AcDbEntity
  8
2
 62
     0
440
 16777216
370
    -2
100
AcDbLine
 10
1.0
 20
1.5
 30
0.0
 11
1.0
 21
61.25
 31
0.0
  0
LINE
  5
4BA
330
4B7
100
AcDbEntity
  8
2
 62
     0
440
 16777216
370
    -2
100
AcDbLine
 10
10.5
 20
60.0
 30
0.0
 11
3.5
 21
60.0
 31
0.0
  0
SOLID
  5
4BB
330
4B7
100
AcDbEntity
  8
2
 62
     0
440
 16777216
100
AcDbTrace
 10
10.5
 20
59.58333333333334
 30
0.0
 11
10.5
 21
60.41666666666666
 31
0.0
 12
13.0
 22
60.0
 32
0.0
 13
13.0
 23
60.0
 33
0.0
  0
SOLID
  5
4BC
330
4B7
100
AcDbEntity
  8
2
 62
     0
440
 16777216
100
AcDbTrace
 10
3.5
 20
60.41666666666666
 30
0.0
 11
3.5
 21
59.58333333333334
 31
0.0
 12
1.0
 22
60.0
 32
0.0
 13
1.0
 23
60.0
 33
0.0
  0
MTEXT
  5
4BD
330
4B7
100
AcDbEntity
  8
2
 62
     0
440
 16777216
100
AcDbMText
 10
7.0
 20
62.39074999999999
 30
0.0
 40
3.5
 41
0.0
 71
     5
 72
     1
  1
12
  7
SIMPLEX
 73
     1
 44
1.0
  0
POINT
  5
4BE
330
4B7
100
AcDbEntity
  8
DEFPOINTS
 62
     0
440
 16777216
100
AcDbPoint
 10
13.0
 20
1.5
 30
0.0
  0
POINT
  5
4BF
330
4B7
100
AcDbEntity
  8
DEFPOINTS
 62
     0
440
 16777216
100
AcDbPoint
 10
1.0
 20
1.5
 30
0.0
  0
POINT
  5
4C0
330
4B7
100
AcDbEntity
  8
DEFPOINTS
 62
     0
440
 16777216
100
AcDbPoint
 10
1.0
 20
60.0
 30
0.0
  0
ENDBLK
  5
4C2
330
4B7
100
AcDbEntity
  8
0
100
AcDbBlockEnd
  0
BLOCK
  5
572
330
571
100
AcDbEntity
  8
0
100
AcDbBlockBegin
  2
*D6
 70
     1
 10
0.0
 20
0.0
 30
0.0
  3
*D6
  1

  0
LINE
  5
588
330
571
100
AcDbEntity
  8
1
 62
     0
440
 16777216
370
    -2
100
AcDbLine
 10
0.0
 20
0.0
 30
0.0
 11
0.0000000000000008
 21
13.23674789612357
 31
0.0
  0
LINE
  5
589
330
571
100
AcDbEntity
  8
1
 62
     0
440
 16777216
370
    -2
100
AcDbLine
 10
-26.45833250000001
 20
-0.0640984466024206
 30
0.0
 11
-26.45833250000001
 21
13.23674789612357
 31
0.0
  0
LINE
  5
58A
330
571
100
AcDbEntity
  8
1
 62
     0
440
 16777216
370
    -2
100
AcDbLine
 10
-2.499999999999999
 20
11.98674789612357
 30
0.0
 11
-23.9583325
 21
11.98674789612357
 31
0.0
  0
SOLID
  5
58B
330
571
100
AcDbEntity
  8
1
 62
     0
440
 16777216
100
AcDbTrace
 10
-2.499999999999999
 20
12.40341456279024
 30
0.0
 11
-2.499999999999999
 21
11.57008122945691
 31
0.0
 12
0.0000000000000007
 22
11.98674789612357
 32
0.0
 13
0.0000000000000007
 23
11.98674789612357
 33
0.0
  0
SOLID
  5
58C
330
571
100
AcDbEntity
  8
1
 62
     0
440
 16777216
100
AcDbTrace
 10
-23.9583325
 20
12.40341456279024
 30
0.0
 11
-23.9583325
 21
11.57008122945691
 31
0.0
 12
-26.45833250000001
 22
11.98674789612357
 32
0.0
 13
-26.45833250000001
 23
11.98674789612357
 33
0.0
  0
MTEXT
  5
58D
330
571
100
AcDbEntity
  8
1
 62
     0
440
 16777216
100
AcDbMText
 10
-13.22916625
 20
14.36174789612357
 30
0.0
 40
3.5
 41
0.0
 71
     5
 72
     1
  1
26.46
  7
SIMPLEX
 73
     1
 44
1.0
  0
POINT
  5
58E
330
571
100
AcDbEntity
  8
DEFPOINTS
 62
     0
440
 16777216
100
AcDbPoint
 10
0.0
 20
0.0
 30
0.0
  0
POINT
  5
58F
330
571
100
AcDbEntity
  8
DEFPOINTS
 62
     0
440
 16777216
100
AcDbPoint
 10
-26.45833250000001
 20
-0.0640984466024206
 30
0.0
  0
POINT
  5
590
330
571
100
AcDbEntity
  8
DEFPOINTS
 62
     0
440
 16777216
100
AcDbPoint
 10
-26.45833250000001
 20
11.98674789612357
 30
0.0
  0
ENDBLK
  5
573
330
571
100
AcDbEntity
  8
0
100
AcDbBlockEnd
  0
BLOCK
  5
5AF
330
5AE
100
AcDbEntity
  8
0
100
AcDbBlockBegin
  2
*D7
 70
     1
 10
0.0
 20
0.0
 30
0.0
  3
*D7
  1

  0
LINE
  5
5C3
330
5AE
100
AcDbEntity
  8
1
 62
     0
440
 16777216
370
    -2
100
AcDbLine
 10
-25.9983325
 20
0.0
 30
0.0
 11
-25.9983325
 21
9.103088273141736
 31
0.0
  0
LINE
  5
5C4
330
5AE
100
AcDbEntity
  8
1
 62
     0
440
 16777216
370
    -2
100
AcDbLine
 10
0.0
 20
-0.0000000000000016
 30
0.0
 11
0.0000000000000006
 21
9.103088273141736
 31
0.0
  0
LINE
  5
5C5
330
5AE
100
AcDbEntity
  8
1
 62
     0
440
 16777216
370
    -2
100
AcDbLine
 10
-23.4983325
 20
7.853088273141735
 30
0.0
 11
-2.499999999999999
 21
7.853088273141735
 31
0.0
  0
SOLID
  5
5C6
330
5AE
100
AcDbEntity
  8
1
 62
     0
440
 16777216
100
AcDbTrace
 10
-23.4983325
 20
8.269754939808402
 30
0.0
 11
-23.4983325
 21
7.436421606475065
 31
0.0
 12
-25.9983325
 22
7.853088273141735
 32
0.0
 13
-25.9983325
 23
7.853088273141735
 33
0.0
  0
SOLID
  5
5C7
330
5AE
100
AcDbEntity
  8
1
 62
     0
440
 16777216
100
AcDbTrace
 10
-2.499999999999999
 20
8.269754939808402
 30
0.0
 11
-2.499999999999999
 21
7.436421606475065
 31
0.0
 12
0.0000000000000005
 22
7.853088273141735
 32
0.0
 13
0.0000000000000005
 23
7.853088273141735
 33
0.0
  0
MTEXT
  5
5C8
330
5AE
100
AcDbEntity
  8
1
 62
     0
440
 16777216
100
AcDbMText
 10
-12.99916625
 20
10.22808827314173
 30
0.0
 40
3.5
 41
0.0
 71
     5
 72
     1
  1
26
  7
SIMPLEX
 73
     1
 44
1.0
  0
POINT
  5
5C9
330
5AE
100
AcDbEntity
  8
DEFPOINTS
 62
     0
440
 16777216
100
AcDbPoint
 10
-25.9983325
 20
0.0
 30
0.0
  0
POINT
  5
5CA
330
5AE
100
AcDbEntity
  8
DEFPOINTS
 62
     0
440
 16777216
100
AcDbPoint
 10
0.0
 20
-0.0000000000000016
 30
0.0
  0
POINT
  5
5CB
330
5AE
100
AcDbEntity
  8
DEFPOINTS
 62
     0
440
 16777216
100
AcDbPoint
 10
0.0000000000000005
 20
7.853088273141735
 30
0.0
  0
ENDBLK
  5
5B0
330
5AE
100
AcDbEntity
  8
0
100
AcDbBlockEnd
  0
BLOCK
  5
71B
330
71A
100
AcDbEntity
  8
0
100
AcDbBlockBegin
  2
*D8
 70
     1
 10
0.0
 20
0.0
 30
0.0
  3
*D8
  1

  0
LINE
  5
71D
330
71A
100
AcDbEntity
  8
1
 62
     0
440
 16777216
370
    -2
100
AcDbLine
 10
0.0
 20
0.0
 30
0.0
 11
0.0000000000000014
 21
22.85010043352816
 31
0.0
  0
LINE
  5
71E
330
71A
100
AcDbEntity
  8
1
 62
     0
440
 16777216
370
    -2
100
AcDbLine
 10
-25.9983325
 20
8.211224764421896
 30
0.0
 11
-25.9983325
 21
22.85010043352816
 31
0.0
  0
LINE
  5
71F
330
71A
100
AcDbEntity
  8
1
 62
     0
440
 16777216
370
    -2
100
AcDbLine
 10
-2.499999999999996
 20
21.60010043352816
 30
0.0
 11
-23.4983325
 21
21.60010043352816
 31
0.0
  0
SOLID
  5
720
330
71A
100
AcDbEntity
  8
1
 62
     0
440
 16777216
100
AcDbTrace
 10
-2.499999999999996
 20
22.01676710019482
 30
0.0
 11
-2.499999999999996
 21
21.18343376686149
 31
0.0
 12
0.0000000000000013
 22
21.60010043352816
 32
0.0
 13
0.0000000000000013
 23
21.60010043352816
 33
0.0
  0
SOLID
  5
721
330
71A
100
AcDbEntity
  8
1
 62
     0
440
 16777216
100
AcDbTrace
 10
-23.4983325
 20
22.01676710019482
 30
0.0
 11
-23.4983325
 21
21.18343376686149
 31
0.0
 12
-25.9983325
 22
21.60010043352816
 32
0.0
 13
-25.9983325
 23
21.60010043352816
 33
0.0
  0
MTEXT
  5
722
330
71A
100
AcDbEntity
  8
1
 62
     0
440
 16777216
100
AcDbMText
 10
-12.99916625
 20
23.97510043352816
 30
0.0
 40
3.5
 41
0.0
 71
     5
 72
     1
  1
26
  7
SIMPLEX
 73
     1
 44
1.0
  0
POINT
  5
723
330
71A
100
AcDbEntity
  8
DEFPOINTS
 62
     0
440
 16777216
100
AcDbPoint
 10
0.0
 20
0.0
 30
0.0
  0
POINT
  5
724
330
71A
100
AcDbEntity
  8
DEFPOINTS
 62
     0
440
 16777216
100
AcDbPoint
 10
-25.9983325
 20
8.211224764421896
 30
0.0
  0
POINT
  5
725
330
71A
100
AcDbEntity
  8
DEFPOINTS
 62
     0
440
 16777216
100
AcDbPoint
 10
-25.9983325
 20
21.60010043352816
 30
0.0
  0
ENDBLK
  5
71C
330
71A
100
AcDbEntity
  8
0
100
AcDbBlockEnd
  0
BLOCK
  5
890
330
88F
100
AcDbEntity
  8
0
100
AcDbBlockBegin
  2
*D9
 70
     1
 10
0.0
 20
0.0
 30
0.0
  3
*D9
  1

  0
LINE
  5
89C
330
88F
100
AcDbEntity
  8
1
 62
     0
440
 16777216
370
    -2
100
AcDbLine
 10
9.207917380683802
 20
-7.337488050901
 30
0.0
 11
9.207917380683802
 21
-4.200047299437584
 31
0.0
  0
LINE
  5
89D
330
88F
100
AcDbEntity
  8
1
 62
     0
440
 16777216
370
    -2
100
AcDbLine
 10
24.4495173806838
 20
-7.329987750256128
 30
0.0
 11
24.4495173806838
 21
-4.200047299437584
 31
0.0
  0
LINE
  5
89E
330
88F
100
AcDbEntity
  8
1
 62
     0
440
 16777216
370
    -2
100
AcDbLine
 10
11.7079173806838
 20
-5.450047299437582
 30
0.0
 11
21.9495173806838
 21
-5.450047299437582
 31
0.0
  0
SOLID
  5
89F
330
88F
100
AcDbEntity
  8
1
 62
     0
440
 16777216
100
AcDbTrace
 10
11.7079173806838
 20
-5.033380632770915
 30
0.0
 11
11.7079173806838
 21
-5.866713966104252
 31
0.0
 12
9.207917380683802
 22
-5.450047299437582
 32
0.0
 13
9.207917380683802
 23
-5.450047299437582
 33
0.0
  0
SOLID
  5
8A0
330
88F
100
AcDbEntity
  8
1
 62
     0
440
 16777216
100
AcDbTrace
 10
21.9495173806838
 20
-5.033380632770915
 30
0.0
 11
21.9495173806838
 21
-5.866713966104252
 31
0.0
 12
24.4495173806838
 22
-5.450047299437582
 32
0.0
 13
24.4495173806838
 23
-5.450047299437582
 33
0.0
  0
MTEXT
  5
8A1
330
88F
100
AcDbEntity
  8
1
 62
     0
440
 16777216
100
AcDbMText
 10
16.8287173806838
 20
-3.075047299437585
 30
0.0
 40
3.5
 41
0.0
 71
     5
 72
     1
  1
15.24
  7
SIMPLEX
 73
     1
 44
1.0
  0
POINT
  5
8A2
330
88F
100
AcDbEntity
  8
DEFPOINTS
 62
     0
440
 16777216
100
AcDbPoint
 10
9.207917380683802
 20
-7.337488050901
 30
0.0
  0
POINT
  5
8A3
330
88F
100
AcDbEntity
  8
DEFPOINTS
 62
     0
440
 16777216
100
AcDbPoint
 10
24.4495173806838
 20
-7.329987750256128
 30
0.0
  0
POINT
  5
8A4
330
88F
100
AcDbEntity
  8
DEFPOINTS
 62
     0
440
 16777216
100
AcDbPoint
 10
24.4495173806838
 20
-5.450047299437582
 30
0.0
  0
ENDBLK
  5
891
330
88F
100
AcDbEntity
  8
0
100
AcDbBlockEnd
  0
BLOCK
  5
948
330
947
100
AcDbEntity
  8
0
100
AcDbBlockBegin
  2
*D10
 70
     1
 10
0.0
 20
0.0
 30
0.0
  3
*D10
  1

  0
LINE
  5
96E
330
947
100
AcDbEntity
  8
1
 62
     0
440
 16777216
370
    -2
100
AcDbLine
 10
0.0000000000000007
 20
9.663638797708472
 30
0.0
 11
0.0000000000000016
 21
25.45288583891192
 31
0.0
  0
LINE
  5
96F
330
947
100
AcDbEntity
  8
1
 62
     0
440
 16777216
370
    -2
100
AcDbLine
 10
-36.00333775578239
 20
-0.0000000000000004
 30
0.0
 11
-36.00333775578239
 21
25.45288583891192
 31
0.0
  0
LINE
  5
970
330
947
100
AcDbEntity
  8
1
 62
     0
440
 16777216
370
    -2
100
AcDbLine
 10
-2.499999999999996
 20
24.20288583891192
 30
0.0
 11
-33.50333775578239
 21
24.20288583891192
 31
0.0
  0
SOLID
  5
971
330
947
100
AcDbEntity
  8
1
 62
     0
440
 16777216
100
AcDbTrace
 10
-2.499999999999996
 20
24.61955250557859
 30
0.0
 11
-2.499999999999996
 21
23.78621917224526
 31
0.0
 12
0.0000000000000016
 22
24.20288583891192
 32
0.0
 13
0.0000000000000016
 23
24.20288583891192
 33
0.0
  0
SOLID
  5
972
330
947
100
AcDbEntity
  8
1
 62
     0
440
 16777216
100
AcDbTrace
 10
-33.50333775578239
 20
24.61955250557859
 30
0.0
 11
-33.50333775578239
 21
23.78621917224526
 31
0.0
 12
-36.00333775578239
 22
24.20288583891192
 32
0.0
 13
-36.00333775578239
 23
24.20288583891192
 33
0.0
  0
MTEXT
  5
973
330
947
100
AcDbEntity
  8
1
 62
     0
440
 16777216
100
AcDbMText
 10
-18.00166887789119
 20
26.57788583891193
 30
0.0
 40
3.5
 41
0.0
 71
     5
 72
     1
  1
36
  7
SIMPLEX
 73
     1
 44
1.0
  0
POINT
  5
974
330
947
100
AcDbEntity
  8
DEFPOINTS
 62
     0
440
 16777216
100
AcDbPoint
 10
0.0000000000000007
 20
9.663638797708472
 30
0.0
  0
POINT
  5
975
330
947
100
AcDbEntity
  8
DEFPOINTS
 62
     0
440
 16777216
100
AcDbPoint
 10
-36.00333775578239
 20
-0.0000000000000004
 30
0.0
  0
POINT
  5
976
330
947
100
AcDbEntity
  8
DEFPOINTS
 62
     0
440
 16777216
100
AcDbPoint
 10
-36.00333775578239
 20
24.20288583891192
 30
0.0
  0
ENDBLK
  5
949
330
947
100
AcDbEntity
  8
0
100
AcDbBlockEnd
  0
BLOCK
  5
B72
330
B71
100
AcDbEntity
  8
0
100
AcDbBlockBegin
  2
*D11
 70
     1
 10
0.0
 20
0.0
 30
0.0
  3
*D11
  1

  0
LINE
  5
B88
330
B71
100
AcDbEntity
  8
1
 62
     0
440
 16777216
370
    -2
100
AcDbLine
 10
0.0
 20
-0.0000000000000026
 30
0.0
 11
0.0000000000000013
 21
21.58087224259391
 31
0.0
  0
LINE
  5
B89
330
B71
100
AcDbEntity
  8
1
 62
     0
440
 16777216
370
    -2
100
AcDbLine
 10
-39.69500663367359
 20
-0.1922751535078173
 30
0.0
 11
-39.69500663367359
 21
21.58087224259391
 31
0.0
  0
LINE
  5
B8A
330
B71
100
AcDbEntity
  8
1
 62
     0
440
 16777216
370
    -2
100
AcDbLine
 10
-2.499999999999996
 20
20.33087224259391
 30
0.0
 11
-37.19500663367359
 21
20.33087224259391
 31
0.0
  0
SOLID
  5
B8B
330
B71
100
AcDbEntity
  8
1
 62
     0
440
 16777216
100
AcDbTrace
 10
-2.499999999999996
 20
20.74753890926057
 30
0.0
 11
-2.499999999999996
 21
19.91420557592723
 31
0.0
 12
0.0000000000000012
 22
20.33087224259391
 32
0.0
 13
0.0000000000000012
 23
20.33087224259391
 33
0.0
  0
SOLID
  5
B8C
330
B71
100
AcDbEntity
  8
1
 62
     0
440
 16777216
100
AcDbTrace
 10
-37.19500663367359
 20
20.74753890926057
 30
0.0
 11
-37.19500663367359
 21
19.91420557592723
 31
0.0
 12
-39.69500663367359
 22
20.33087224259391
 32
0.0
 13
-39.69500663367359
 23
20.33087224259391
 33
0.0
  0
MTEXT
  5
B8D
330
B71
100
AcDbEntity
  8
1
 62
     0
440
 16777216
100
AcDbMText
 10
-19.84750331683679
 20
22.7058722425939
 30
0.0
 40
3.5
 41
0.0
 71
     5
 72
     1
  1
39.7
  7
SIMPLEX
 73
     1
 44
1.0
  0
POINT
  5
B8E
330
B71
100
AcDbEntity
  8
DEFPOINTS
 62
     0
440
 16777216
100
AcDbPoint
 10
0.0
 20
-0.0000000000000026
 30
0.0
  0
POINT
  5
B8F
330
B71
100
AcDbEntity
  8
DEFPOINTS
 62
     0
440
 16777216
100
AcDbPoint
 10
-39.69500663367359
 20
-0.1922751535078173
 30
0.0
  0
POINT
  5
B90
330
B71
100
AcDbEntity
  8
DEFPOINTS
 62
     0
440
 16777216
100
AcDbPoint
 10
-39.69500663367359
 20
20.33087224259391
 30
0.0
  0
ENDBLK
  5
B73
330
B71
100
AcDbEntity
  8
0
100
AcDbBlockEnd
  0
BLOCK
  5
D16
330
C8A
100
AcDbEntity
  8
0
100
AcDbBlockBegin
  2
A$C24B97C28
 70
     0
 10
0.0
 20
0.0
 30
0.0
  3
A$C24B97C28
  1

  0
LINE
  5
C8B
330
C8A
100
AcDbEntity
  8
1
100
AcDbLine
 10
-30.48
 20
-2.501208442606099
 30
0.0
 11
-31.4325
 21
-2.318276602488074
 31
0.0
  0
LINE
  5
C8C
330
C8A
100
AcDbEntity
  8
1
100
AcDbLine
 10
-31.4325
 20
-8.972644836337385
 30
0.0
 11
-31.4325
 21
-9.524354477803022
 31
0.0
  0
ARC
  5
C8D
330
C8A
100
AcDbEntity
  8
1
100
AcDbCircle
 10
-26.73607830316341
 20
9.320418160381183
 30
0.0
 40
18.88629906833272
100
AcDbArc
 50
255.601288722939
 51
258.5662256681008
  0
LINE
  5
C8E
330
C8A
100
AcDbEntity
  8
1
100
AcDbLine
 10
-30.48
 20
-7.487125502493008
 30
0.0
 11
-30.48
 21
-9.19103992081238
 31
0.0
  0
LINE
  5
C8F
330
C8A
100
AcDbEntity
  8
1
100
AcDbLine
 10
-31.4325
 20
-7.042881323403435
 30
0.0
 11
-30.48
 21
-7.487125502493008
 31
0.0
  0
LINE
  5
C90
330
C8A
100
AcDbEntity
  8
1
100
AcDbLine
 10
-31.4325
 20
-0.7295477528608636
 30
0.0
 11
-31.4325
 21
-7.042881323403435
 31
0.0
  0
ARC
  5
C91
330
C8A
100
AcDbEntity
  8
1
100
AcDbCircle
 10
-37.6762488391185
 20
-22.0809131357888
 30
0.0
 40
22.24557372947808
100
AcDbArc
 50
71.125842226045
 51
73.6995731590834
  0
ARC
  5
C92
330
C8A
100
AcDbEntity
  8
1
100
AcDbCircle
 10
-31.22354357456981
 20
-15.8476460398081
 30
0.0
 40
15.8482930477133
100
AcDbArc
 50
87.31090585027541
 51
89.99824196100574
  0
LINE
  5
C93
330
C8A
100
AcDbEntity
  8
1
100
AcDbLine
 10
-30.48
 20
-0.0168044330582973
 30
0.0
 11
-30.48
 21
-1.031414824357155
 31
0.0
  0
LINE
  5
C94
330
C8A
100
AcDbEntity
  8
1
100
AcDbLine
 10
-30.48
 20
-2.501208442606099
 30
0.0
 11
-30.48
 21
-1.031414824357155
 31
0.0
  0
LINE
  5
C95
330
C8A
100
AcDbEntity
  8
1
100
AcDbLine
 10
-30.48000000000001
 20
-7.487125502493008
 30
0.0
 11
-30.48
 21
-2.501208442606099
 31
0.0
  0
LINE
  5
C96
330
C8A
100
AcDbEntity
  8
1
 62
     1
100
AcDbLine
 10
-30.48
 20
-0.0168044330582973
 30
0.0
 11
-30.48
 21
-1.031414824357155
 31
0.0
  0
LINE
  5
C97
330
C8A
100
AcDbEntity
  8
1
 62
     1
100
AcDbLine
 10
-30.48
 20
-1.031414824357155
 30
0.0
 11
-29.5038120271702
 21
-1.38734379303284
 31
0.0
  0
LINE
  5
C98
330
C8A
100
AcDbEntity
  8
1
 62
     1
100
AcDbLine
 10
-29.5038120271702
 20
-1.38734379303284
 30
0.0
 11
-28.52761926141725
 21
-1.785933228026273
 31
0.0
  0
LINE
  5
C99
330
C8A
100
AcDbEntity
  8
1
 62
     1
100
AcDbLine
 10
-28.52761926141725
 20
-1.785933228026273
 30
0.0
 11
-26.57523731187789
 21
-2.690456562265516
 31
0.0
  0
LINE
  5
C9A
330
C8A
100
AcDbEntity
  8
1
 62
     1
100
AcDbLine
 10
-26.57523731187789
 20
-2.690456562265516
 30
0.0
 11
-22.67052791071172
 21
-4.76185447780313
 31
0.0
  0
LINE
  5
C9B
330
C8A
100
AcDbEntity
  8
1
 62
     1
100
AcDbLine
 10
-0.0000000000000284
 20
-4.388949517477541
 30
0.0
 11
-0.0952500000000214
 21
-4.390347041552336
 31
0.0
  0
LINE
  5
C9C
330
C8A
100
AcDbEntity
  8
1
 62
     1
100
AcDbLine
 10
-0.095249999999993
 20
-4.390347041552344
 30
0.0
 11
-0.095249999999993
 21
-7.074876365880767
 31
0.0
  0
LINE
  5
C9D
330
C8A
100
AcDbEntity
  8
1
 62
     1
100
AcDbLine
 10
0.0
 20
-7.073260909524312
 30
0.0
 11
-0.0952500000000072
 21
-7.074876365880767
 31
0.0
  0
LINE
  5
C9E
330
C8A
100
AcDbEntity
  8
1
 62
     1
100
AcDbLine
 10
0.0
 20
-4.388949517477541
 30
0.0
 11
0.0
 21
-7.073260909524312
 31
0.0
  0
LINE
  5
C9F
330
C8A
100
AcDbEntity
  8
1
 62
     1
100
AcDbLine
 10
0.0
 20
-8.977341996259474
 30
0.0
 11
0.0
 21
-7.073260909524305
 31
0.0
  0
LINE
  5
CA0
330
C8A
100
AcDbEntity
  8
1
 62
     1
100
AcDbLine
 10
-30.48
 20
-7.487125502493008
 30
0.0
 11
-30.48
 21
-9.19103992081238
 31
0.0
  0
LINE
  5
CA1
330
C8A
100
AcDbEntity
  8
1
 62
     1
100
AcDbLine
 10
-30.48
 20
-9.19103992081238
 30
0.0
 11
-29.66353951559855
 21
-9.335892327527382
 31
0.0
  0
LINE
  5
CA2
330
C8A
100
AcDbEntity
  8
1
 62
     1
100
AcDbLine
 10
-29.66353951559855
 20
-9.335892327527382
 30
0.0
 11
-28.84707883049779
 21
-9.440283616697279
 31
0.0
  0
LINE
  5
CA3
330
C8A
100
AcDbEntity
  8
1
 62
     1
100
AcDbLine
 10
-28.84707883049779
 20
-9.440283616697279
 30
0.0
 11
-28.03061822589614
 21
-9.503290109900207
 31
0.0
  0
LINE
  5
CA4
330
C8A
100
AcDbEntity
  8
1
 62
     1
100
AcDbLine
 10
-28.03061822589614
 20
-9.503290109900207
 30
0.0
 11
-27.21415849383112
 21
-9.524354477794446
 31
0.0
  0
LINE
  5
CA5
330
C8A
100
AcDbEntity
  8
1
 62
     1
100
AcDbLine
 10
-30.48
 20
-7.487125502493008
 30
0.0
 11
-29.43697251613587
 21
-7.935780073551107
 31
0.0
  0
LINE
  5
CA6
330
C8A
100
AcDbEntity
  8
1
 62
     1
100
AcDbLine
 10
-29.43697251613587
 20
-7.935780073551107
 30
0.0
 11
-28.39393991495521
 21
-8.338639675579896
 31
0.0
  0
LINE
  5
CA7
330
C8A
100
AcDbEntity
  8
1
 62
     1
100
AcDbLine
 10
-28.39393991495521
 20
-8.338639675579896
 30
0.0
 11
-27.35091506375602
 21
-8.689883913854039
 31
0.0
  0
LINE
  5
CA8
330
C8A
100
AcDbEntity
  8
1
 62
     1
100
AcDbLine
 10
-27.35091506375602
 20
-8.689883913854039
 30
0.0
 11
-26.30790281129034
 21
-8.984443837349232
 31
0.0
  0
LINE
  5
CA9
330
C8A
100
AcDbEntity
  8
1
 62
     1
100
AcDbLine
 10
-26.30790281129034
 20
-8.984443837349232
 30
0.0
 11
-25.26487515847132
 21
-9.218076486352707
 31
0.0
  0
LINE
  5
CAA
330
C8A
100
AcDbEntity
  8
1
 62
     1
100
AcDbLine
 10
-25.26487515847132
 20
-9.218076486352707
 30
0.0
 11
-24.22184212559207
 21
-9.387408622127793
 31
0.0
  0
LINE
  5
CAB
330
C8A
100
AcDbEntity
  8
1
 62
     1
100
AcDbLine
 10
-24.22184212559207
 20
-9.387408622127793
 30
0.0
 11
-23.17881844664709
 21
-9.489994754570844
 31
0.0
  0
LINE
  5
CAC
330
C8A
100
AcDbEntity
  8
1
 62
     1
100
AcDbLine
 10
-23.17881844664709
 20
-9.489994754570844
 30
0.0
 11
-22.13581136680773
 21
-9.524354477712492
 31
0.0
  0
LINE
  5
CAD
330
C8A
100
AcDbEntity
  8
1
 62
     1
100
AcDbLine
 10
-18.12689727694717
 20
0.0006455221969794
 30
0.0
 11
-13.04855070701882
 21
0.0006455221969794
 31
0.0
  0
LINE
  5
CAE
330
C8A
100
AcDbEntity
  8
1
 62
     1
100
AcDbLine
 10
0.0
 20
-1.875819844103619
 30
0.0
 11
0.0
 21
-0.094674770148206
 31
0.0
  0
LINE
  5
CAF
330
C8A
100
AcDbEntity
  8
1
 62
     1
100
AcDbLine
 10
0.0
 20
-0.094674770148206
 30
0.0
 11
-0.095249999999993
 21
0.0
 31
0.0
  0
LINE
  5
CB0
330
C8A
100
AcDbEntity
  8
1
 62
     1
100
AcDbLine
 10
-0.095249999999993
 20
-4.390347041552344
 30
0.0
 11
-4.285553615828426
 21
-2.228182640717967
 31
0.0
  0
LINE
  5
CB1
330
C8A
100
AcDbEntity
  8
1
 62
     1
100
AcDbLine
 10
0.0
 20
-1.875819844103619
 30
0.0
 11
0.0
 21
-4.388949517477541
 31
0.0
  0
LINE
  5
CB2
330
C8A
100
AcDbEntity
  8
1
 62
     1
100
AcDbLine
 10
0.0000000000000284
 20
-1.875819844103619
 30
0.0
 11
-1.071388402834519
 21
-1.899745195755764
 31
0.0
  0
LINE
  5
CB3
330
C8A
100
AcDbEntity
  8
1
 62
     1
100
AcDbLine
 10
-1.071388402834519
 20
-1.899745195755764
 30
0.0
 11
-2.142776805669063
 21
-1.967234855852364
 31
0.0
  0
LINE
  5
CB4
330
C8A
100
AcDbEntity
  8
1
 62
     1
100
AcDbLine
 10
-2.142776805669063
 20
-1.967234855852364
 30
0.0
 11
-3.214165208503615
 21
-2.077274289982165
 31
0.0
  0
LINE
  5
CB5
330
C8A
100
AcDbEntity
  8
1
 62
     1
100
AcDbLine
 10
-3.214165208503615
 20
-2.077274289982165
 30
0.0
 11
-4.28555361133815
 21
-2.228182631055428
 31
0.0
  0
LINE
  5
CB6
330
C8A
100
AcDbEntity
  8
1
 62
     1
100
AcDbLine
 10
-0.095249999999993
 20
-9.059486277305259
 30
0.0
 11
-1.061767467209492
 21
-9.260959967516988
 31
0.0
  0
LINE
  5
CB7
330
C8A
100
AcDbEntity
  8
1
 62
     1
100
AcDbLine
 10
-1.061767467209492
 20
-9.260959967516988
 30
0.0
 11
-2.028286460688683
 21
-9.406683797845452
 31
0.0
  0
LINE
  5
CB8
330
C8A
100
AcDbEntity
  8
1
 62
     1
100
AcDbLine
 10
-2.028286460688683
 20
-9.406683797845452
 30
0.0
 11
-2.994811278781731
 21
-9.49484553068344
 31
0.0
  0
LINE
  5
CB9
330
C8A
100
AcDbEntity
  8
1
 62
     1
100
AcDbLine
 10
-2.994811278781731
 20
-9.49484553068344
 30
0.0
 11
-3.961290486831343
 21
-9.524354477798127
 31
0.0
  0
LINE
  5
CBA
330
C8A
100
AcDbEntity
  8
1
 62
     1
100
AcDbLine
 10
0.0
 20
-8.977341996259474
 30
0.0
 11
-0.095249999999993
 21
-9.059486277305259
 31
0.0
  0
LINE
  5
CBB
330
C8A
100
AcDbEntity
  8
1
 62
     1
100
AcDbLine
 10
-0.095249999999993
 20
-7.074876365880752
 30
0.0
 11
-4.496005540996037
 21
-4.761854477803423
 31
0.0
  0
LINE
  5
CBC
330
C8A
100
AcDbEntity
  8
1
 62
     1
100
AcDbLine
 10
-24.67498665062006
 20
-1.292118846224294
 30
0.0
 11
-23.85647493356287
 21
-1.000290271196178
 31
0.0
  0
LINE
  5
CBD
330
C8A
100
AcDbEntity
  8
1
 62
     1
100
AcDbLine
 10
-23.85647493356287
 20
-1.000290271196178
 30
0.0
 11
-23.03796316900086
 21
-0.7419033029902879
 31
0.0
  0
LINE
  5
CBE
330
C8A
100
AcDbEntity
  8
1
 62
     1
100
AcDbLine
 10
-23.03796316900086
 20
-0.7419033029902879
 30
0.0
 11
-22.21945135150307
 21
-0.5192551137878212
 31
0.0
  0
LINE
  5
CBF
330
C8A
100
AcDbEntity
  8
1
 62
     1
100
AcDbLine
 10
-22.21945135150307
 20
-0.5192551137878212
 30
0.0
 11
-21.4009394726659
 21
-0.3343251447427669
 31
0.0
  0
LINE
  5
CC0
330
C8A
100
AcDbEntity
  8
1
 62
     1
100
AcDbLine
 10
-21.4009394726659
 20
-0.3343251447427669
 30
0.0
 11
-20.58242752928154
 21
-0.1887575000856429
 31
0.0
  0
LINE
  5
CC1
330
C8A
100
AcDbEntity
  8
1
 62
     1
100
AcDbLine
 10
-20.58242752928154
 20
-0.1887575000856429
 30
0.0
 11
-19.76391552423097
 21
-0.0838463331125361
 31
0.0
  0
LINE
  5
CC2
330
C8A
100
AcDbEntity
  8
1
 62
     1
100
AcDbLine
 10
-19.76391552423097
 20
-0.0838463331125361
 30
0.0
 11
-18.94540352276225
 21
-0.0205243478542201
 31
0.0
  0
LINE
  5
CC3
330
C8A
100
AcDbEntity
  8
1
 62
     1
100
AcDbLine
 10
-18.94540352276225
 20
-0.0205243478542201
 30
0.0
 11
-18.12689727694717
 21
0.0006455221969794
 31
0.0
  0
LINE
  5
CC4
330
C8A
100
AcDbEntity
  8
1
 62
     1
100
AcDbLine
 10
-30.48000000000001
 20
-7.487125502493008
 30
0.0
 11
-30.48
 21
-2.501208442606099
 31
0.0
  0
LINE
  5
CC5
330
C8A
100
AcDbEntity
  8
1
 62
     1
100
AcDbLine
 10
-30.48
 20
-2.501208442606099
 30
0.0
 11
-30.48
 21
-1.031414824357155
 31
0.0
  0
LINE
  5
CC6
330
C8A
100
AcDbEntity
  8
1
 62
     1
100
AcDbLine
 10
-3.961290486831343
 20
-9.524354477798127
 30
0.0
 11
-4.5393760821723
 21
-9.513789251550656
 31
0.0
  0
LINE
  5
CC7
330
C8A
100
AcDbEntity
  8
1
 62
     1
100
AcDbLine
 10
-4.5393760821723
 20
-9.513789251550656
 30
0.0
 11
-5.117453920472768
 21
-9.48214562849062
 31
0.0
  0
LINE
  5
CC8
330
C8A
100
AcDbEntity
  8
1
 62
     1
100
AcDbLine
 10
-5.117453920472768
 20
-9.48214562849062
 30
0.0
 11
-5.695548094772062
 21
-9.429561155927231
 31
0.0
  0
LINE
  5
CC9
330
C8A
100
AcDbEntity
  8
1
 62
     1
100
AcDbLine
 10
-5.695548094772062
 20
-9.429561155927231
 30
0.0
 11
-6.273641394777584
 21
-9.356266848440377
 31
0.0
  0
LINE
  5
CCA
330
C8A
100
AcDbEntity
  8
1
 62
     1
100
AcDbLine
 10
-6.273641394777584
 20
-9.356266848440377
 30
0.0
 11
-7.429806529460741
 21
-9.148954428833832
 31
0.0
  0
LINE
  5
CCB
330
C8A
100
AcDbEntity
  8
1
 62
     1
100
AcDbLine
 10
-7.429806529460741
 20
-9.148954428833832
 30
0.0
 11
-8.585984975477387
 21
-8.863874477000997
 31
0.0
  0
LINE
  5
CCC
330
C8A
100
AcDbEntity
  8
1
 62
     1
100
AcDbLine
 10
-8.585984975477387
 20
-8.863874477000997
 30
0.0
 11
-9.742168647936543
 21
-8.50608482036405
 31
0.0
  0
LINE
  5
CCD
330
C8A
100
AcDbEntity
  8
1
 62
     1
100
AcDbLine
 10
-9.742168647936543
 20
-8.50608482036405
 30
0.0
 11
-10.89833016447982
 21
-8.0819333244537
 31
0.0
  0
LINE
  5
CCE
330
C8A
100
AcDbEntity
  8
1
 62
     1
100
AcDbLine
 10
-10.89833016447982
 20
-8.0819333244537
 30
0.0
 11
-12.05451676996986
 21
-7.598922585275556
 31
0.0
  0
LINE
  5
CCF
330
C8A
100
AcDbEntity
  8
1
 62
     1
100
AcDbLine
 10
-12.05451676996986
 20
-7.598922585275556
 30
0.0
 11
-14.36685906708816
 21
-6.491503017185904
 31
0.0
  0
LINE
  5
CD0
330
C8A
100
AcDbEntity
  8
1
 62
     1
100
AcDbLine
 10
-14.36685906708816
 20
-6.491503017185904
 30
0.0
 11
-22.46007623779025
 21
-2.228182958544083
 31
0.0
  0
LINE
  5
CD1
330
C8A
100
AcDbEntity
  8
1
 62
     1
100
AcDbLine
 10
-9.03963608047308
 20
-9.524354477803022
 30
0.0
 11
-3.961290486831323
 21
-9.524354477803022
 31
0.0
  0
LINE
  5
CD2
330
C8A
100
AcDbEntity
  8
1
 62
     1
100
AcDbLine
 10
-22.13581136680773
 20
-9.524354477712485
 30
0.0
 11
-21.31730021004028
 21
-9.503184241333222
 31
0.0
  0
LINE
  5
CD3
330
C8A
100
AcDbEntity
  8
1
 62
     1
100
AcDbLine
 10
-21.31730021004028
 20
-9.503184241333222
 30
0.0
 11
-20.49878882522314
 21
-9.439861933509147
 31
0.0
  0
LINE
  5
CD4
330
C8A
100
AcDbEntity
  8
1
 62
     1
100
AcDbLine
 10
-20.49878882522314
 20
-9.439861933509147
 30
0.0
 11
-19.68027764250865
 21
-9.334950480957232
 31
0.0
  0
LINE
  5
CD5
330
C8A
100
AcDbEntity
  8
1
 62
     1
100
AcDbLine
 10
-19.68027764250865
 20
-9.334950480957232
 30
0.0
 11
-18.86176659474787
 21
-9.189382643903499
 31
0.0
  0
LINE
  5
CD6
330
C8A
100
AcDbEntity
  8
1
 62
     1
100
AcDbLine
 10
-18.86176659474787
 20
-9.189382643903499
 30
0.0
 11
-18.04325564066128
 21
-9.004452640740382
 31
0.0
  0
LINE
  5
CD7
330
C8A
100
AcDbEntity
  8
1
 62
     1
100
AcDbLine
 10
-18.04325564066128
 20
-9.004452640740382
 30
0.0
 11
-17.22474476313855
 21
-8.781804621849339
 31
0.0
  0
LINE
  5
CD8
330
C8A
100
AcDbEntity
  8
1
 62
     1
100
AcDbLine
 10
-17.22474476313855
 20
-8.781804621849339
 30
0.0
 11
-16.40623396522593
 21
-8.523418037872247
 31
0.0
  0
LINE
  5
CD9
330
C8A
100
AcDbEntity
  8
1
 62
     1
100
AcDbLine
 10
-16.40623396522593
 20
-8.523418037872247
 30
0.0
 11
-15.58772326674538
 21
-8.231590032160722
 31
0.0
  0
LINE
  5
CDA
330
C8A
100
AcDbEntity
  8
1
 62
     1
100
AcDbLine
 10
-27.21415849383112
 20
-9.524354477803022
 30
0.0
 11
-22.13581136680775
 21
-9.524354477803022
 31
0.0
  0
LINE
  5
CDB
330
C8A
100
AcDbEntity
  8
1
 62
     1
100
AcDbLine
 10
-6.500462872004909
 20
-1.292119215101209
 30
0.0
 11
-5.699811375945983
 21
-1.006310611902466
 31
0.0
  0
LINE
  5
CDC
330
C8A
100
AcDbEntity
  8
1
 62
     1
100
AcDbLine
 10
-5.699811375945983
 20
-1.006310611902466
 30
0.0
 11
-4.899159789886629
 21
-0.7524499022816507
 31
0.0
  0
LINE
  5
CDD
330
C8A
100
AcDbEntity
  8
1
 62
     1
100
AcDbLine
 10
-4.899159789886629
 20
-0.7524499022816507
 30
0.0
 11
-4.098508095371826
 21
-0.5326966193032199
 31
0.0
  0
LINE
  5
CDE
330
C8A
100
AcDbEntity
  8
1
 62
     1
100
AcDbLine
 10
-4.098508095371826
 20
-0.5326966193032199
 30
0.0
 11
-3.297856167446731
 21
-0.3489202518531939
 31
0.0
  0
LINE
  5
CDF
330
C8A
100
AcDbEntity
  8
1
 62
     1
100
AcDbLine
 10
-3.297856167446731
 20
-0.3489202518531939
 30
0.0
 11
-2.497204146699961
 21
-0.2026840666647018
 31
0.0
  0
LINE
  5
CE0
330
C8A
100
AcDbEntity
  8
1
 62
     1
100
AcDbLine
 10
-2.497204146699961
 20
-0.2026840666647018
 30
0.0
 11
-1.696551725251609
 21
-0.0952322671552608
 31
0.0
  0
LINE
  5
CE1
330
C8A
100
AcDbEntity
  8
1
 62
     1
100
AcDbLine
 10
-1.696551725251609
 20
-0.0952322671552608
 30
0.0
 11
-0.895899057688247
 21
-0.0274788748802131
 31
0.0
  0
LINE
  5
CE2
330
C8A
100
AcDbEntity
  8
1
 62
     1
100
AcDbLine
 10
-0.895899057688247
 20
-0.0274788748802131
 30
0.0
 11
-0.0952500000000214
 21
0.0
 31
0.0
  0
LINE
  5
CE3
330
C8A
100
AcDbEntity
  8
1
 62
     1
100
AcDbLine
 10
-4.285553615828426
 20
-2.228182640717967
 30
0.0
 11
-5.38092811302689
 21
-1.740661994749034
 31
0.0
  0
LINE
  5
CE4
330
C8A
100
AcDbEntity
  8
1
 62
     1
100
AcDbLine
 10
-5.38092811302689
 20
-1.740661994749034
 30
0.0
 11
-6.476316727942452
 21
-1.301210126113645
 31
0.0
  0
LINE
  5
CE5
330
C8A
100
AcDbEntity
  8
1
 62
     1
100
AcDbLine
 10
-6.476316727942452
 20
-1.301210126113645
 30
0.0
 11
-7.571691790382907
 21
-0.9168307132056805
 31
0.0
  0
LINE
  5
CE6
330
C8A
100
AcDbEntity
  8
1
 62
     1
100
AcDbLine
 10
-7.571691790382907
 20
-0.9168307132056805
 30
0.0
 11
-8.667061173583036
 21
-0.5936388855632302
 31
0.0
  0
LINE
  5
CE7
330
C8A
100
AcDbEntity
  8
1
 62
     1
100
AcDbLine
 10
-8.667061173583036
 20
-0.5936388855632302
 30
0.0
 11
-9.762449035031067
 21
-0.3367690371670235
 31
0.0
  0
LINE
  5
CE8
330
C8A
100
AcDbEntity
  8
1
 62
     1
100
AcDbLine
 10
-9.762449035031067
 20
-0.3367690371670235
 30
0.0
 11
-10.85782810773386
 21
-0.1503150815216294
 31
0.0
  0
LINE
  5
CE9
330
C8A
100
AcDbEntity
  8
1
 62
     1
100
AcDbLine
 10
-10.85782810773386
 20
-0.1503150815216294
 30
0.0
 11
-11.95319415390776
 21
-0.0372457563003543
 31
0.0
  0
LINE
  5
CEA
330
C8A
100
AcDbEntity
  8
1
 62
     1
100
AcDbLine
 10
-11.95319415390776
 20
-0.0372457563003543
 30
0.0
 11
-13.04855070701882
 21
0.0006455221969794
 31
0.0
  0
LINE
  5
CEB
330
C8A
100
AcDbEntity
  8
1
 62
     1
100
AcDbLine
 10
-22.67052791071172
 20
-4.76185447780313
 30
0.0
 11
-19.26280268101901
 21
-6.584385405637177
 31
0.0
  0
LINE
  5
CEC
330
C8A
100
AcDbEntity
  8
1
 62
     1
100
AcDbLine
 10
-19.26280268101901
 20
-6.584385405637177
 30
0.0
 11
-17.55893939033864
 21
-7.407759454117922
 31
0.0
  0
LINE
  5
CED
330
C8A
100
AcDbEntity
  8
1
 62
     1
100
AcDbLine
 10
-17.55893939033864
 20
-7.407759454117922
 30
0.0
 11
-15.85507562397881
 21
-8.129452716692327
 31
0.0
  0
LINE
  5
CEE
330
C8A
100
AcDbEntity
  8
1
 62
     1
100
AcDbLine
 10
-15.85507562397881
 20
-8.129452716692327
 30
0.0
 11
-15.00314356367689
 21
-8.443319036844322
 31
0.0
  0
LINE
  5
CEF
330
C8A
100
AcDbEntity
  8
1
 62
     1
100
AcDbLine
 10
-15.00314356367689
 20
-8.443319036844322
 30
0.0
 11
-14.15121139387044
 21
-8.721730741960675
 31
0.0
  0
LINE
  5
CF0
330
C8A
100
AcDbEntity
  8
1
 62
     1
100
AcDbLine
 10
-14.15121139387044
 20
-8.721730741960675
 30
0.0
 11
-13.29927912478751
 21
-8.962006560379164
 31
0.0
  0
LINE
  5
CF1
330
C8A
100
AcDbEntity
  8
1
 62
     1
100
AcDbLine
 10
-13.29927912478751
 20
-8.962006560379164
 30
0.0
 11
-12.44734676825145
 21
-9.161832489461296
 31
0.0
  0
LINE
  5
CF2
330
C8A
100
AcDbEntity
  8
1
 62
     1
100
AcDbLine
 10
-12.44734676825145
 20
-9.161832489461296
 30
0.0
 11
-11.59541433607109
 21
-9.319284079638793
 31
0.0
  0
LINE
  5
CF3
330
C8A
100
AcDbEntity
  8
1
 62
     1
100
AcDbLine
 10
-11.59541433607109
 20
-9.319284079638793
 30
0.0
 11
-10.74348183813736
 21
-9.432844968402852
 31
0.0
  0
LINE
  5
CF4
330
C8A
100
AcDbEntity
  8
1
 62
     1
100
AcDbLine
 10
-10.74348183813736
 20
-9.432844968402852
 30
0.0
 11
-9.891549283339911
 21
-9.501421486450825
 31
0.0
  0
LINE
  5
CF5
330
C8A
100
AcDbEntity
  8
1
 62
     1
100
AcDbLine
 10
-9.891549283339911
 20
-9.501421486450825
 30
0.0
 11
-9.039636080473066
 21
-9.524354477797725
 31
0.0
  0
LINE
  5
CF6
330
C8A
100
AcDbEntity
  8
1
 62
     1
100
AcDbLine
 10
-22.67052791071168
 20
-4.761854477803018
 30
0.0
 11
-26.57526395535583
 21
-3.506579467172151
 31
0.0
  0
LINE
  5
CF7
330
C8A
100
AcDbEntity
  8
1
 62
     1
100
AcDbLine
 10
-26.57526395535583
 20
-3.506579467172151
 30
0.0
 11
-28.52763197767791
 21
-2.958442519608111
 31
0.0
  0
LINE
  5
CF8
330
C8A
100
AcDbEntity
  8
1
 62
     1
100
AcDbLine
 10
-28.52763197767791
 20
-2.958442519608111
 30
0.0
 11
-30.48
 21
-2.501208442606099
 31
0.0
  0
LINE
  5
CF9
330
C8A
100
AcDbEntity
  8
1
 62
     1
100
AcDbLine
 10
-22.46007623779025
 20
-2.228182958544083
 30
0.0
 11
-24.46505035018648
 21
-1.37204882171911
 31
0.0
  0
LINE
  5
CFA
330
C8A
100
AcDbEntity
  8
1
 62
     1
100
AcDbLine
 10
-24.46505035018648
 20
-1.37204882171911
 30
0.0
 11
-25.46754898032148
 21
-1.009041946025075
 31
0.0
  0
LINE
  5
CFB
330
C8A
100
AcDbEntity
  8
1
 62
     1
100
AcDbLine
 10
-25.46754898032148
 20
-1.009041946025075
 30
0.0
 11
-26.47004990595856
 21
-0.696064206121406
 31
0.0
  0
LINE
  5
CFC
330
C8A
100
AcDbEntity
  8
1
 62
     1
100
AcDbLine
 10
-26.47004990595856
 20
-0.696064206121406
 30
0.0
 11
-27.47254552441344
 21
-0.4372900716736261
 31
0.0
  0
LINE
  5
CFD
330
C8A
100
AcDbEntity
  8
1
 62
     1
100
AcDbLine
 10
-27.47254552441344
 20
-0.4372900716736261
 30
0.0
 11
-28.4750295076287
 21
-0.2361705762790649
 31
0.0
  0
LINE
  5
CFE
330
C8A
100
AcDbEntity
  8
1
 62
     1
100
AcDbLine
 10
-28.4750295076287
 20
-0.2361705762790649
 30
0.0
 11
-29.47751453402334
 21
-0.095383166459019
 31
0.0
  0
LINE
  5
CFF
330
C8A
100
AcDbEntity
  8
1
 62
     1
100
AcDbLine
 10
-29.47751453402334
 20
-0.095383166459019
 30
0.0
 11
-30.48
 21
-0.0168044330582973
 31
0.0
  0
LINE
  5
D00
330
C8A
100
AcDbEntity
  8
1
 62
     1
100
AcDbLine
 10
-4.496005540996037
 20
-4.761854477803423
 30
0.0
 11
-7.903729589471915
 21
-2.939324067401408
 31
0.0
  0
LINE
  5
D01
330
C8A
100
AcDbEntity
  8
1
 62
     1
100
AcDbLine
 10
-7.903729589471915
 20
-2.939324067401408
 30
0.0
 11
-9.607591652402952
 21
-2.115950533633121
 31
0.0
  0
LINE
  5
D02
330
C8A
100
AcDbEntity
  8
1
 62
     1
100
AcDbLine
 10
-9.607591652402952
 20
-2.115950533633121
 30
0.0
 11
-11.31145427609179
 21
-1.394257500441518
 31
0.0
  0
LINE
  5
D03
330
C8A
100
AcDbEntity
  8
1
 62
     1
100
AcDbLine
 10
-11.31145427609179
 20
-1.394257500441518
 30
0.0
 11
-12.16338578594466
 21
-1.080391169988337
 31
0.0
  0
LINE
  5
D04
330
C8A
100
AcDbEntity
  8
1
 62
     1
100
AcDbLine
 10
-12.16338578594466
 20
-1.080391169988337
 30
0.0
 11
-13.0153174215053
 21
-0.8019793798709143
 31
0.0
  0
LINE
  5
D05
330
C8A
100
AcDbEntity
  8
1
 62
     1
100
AcDbLine
 10
-13.0153174215053
 20
-0.8019793798709143
 30
0.0
 11
-13.86724918076781
 21
-0.5617034162668057
 31
0.0
  0
LINE
  5
D06
330
C8A
100
AcDbEntity
  8
1
 62
     1
100
AcDbLine
 10
-13.86724918076781
 20
-0.5617034162668057
 30
0.0
 11
-14.71918106565677
 21
-0.3618772978994791
 31
0.0
  0
LINE
  5
D07
330
C8A
100
AcDbEntity
  8
1
 62
     1
100
AcDbLine
 10
-14.71918106565677
 20
-0.3618772978994791
 30
0.0
 11
-15.57111307429544
 21
-0.2044254817594187
 31
0.0
  0
LINE
  5
D08
330
C8A
100
AcDbEntity
  8
1
 62
     1
100
AcDbLine
 10
-15.57111307429544
 20
-0.2044254817594187
 30
0.0
 11
-16.423045199984
 21
-0.0908643306037682
 31
0.0
  0
LINE
  5
D09
330
C8A
100
AcDbEntity
  8
1
 62
     1
100
AcDbLine
 10
-16.423045199984
 20
-0.0908643306037682
 30
0.0
 11
-17.27497743186915
 21
-0.0222875123547262
 31
0.0
  0
LINE
  5
D0A
330
C8A
100
AcDbEntity
  8
1
 62
     1
100
AcDbLine
 10
-17.27497743186915
 20
-0.0222875123547262
 30
0.0
 11
-18.12689727694717
 21
0.0006455221969794
 31
0.0
  0
LINE
  5
D0B
330
C8A
100
AcDbEntity
  8
1
 62
     1
100
AcDbLine
 10
-4.496005540995808
 20
-4.761854477803018
 30
0.0
 11
-8.987023178012904
 21
-3.333997625798232
 31
0.0
  0
LINE
  5
D0C
330
C8A
100
AcDbEntity
  8
1
 62
     1
100
AcDbLine
 10
-8.987023178012904
 20
-3.333997625798232
 30
0.0
 11
-11.23253199652145
 21
-2.739735441568598
 31
0.0
  0
LINE
  5
D0D
330
C8A
100
AcDbEntity
  8
1
 62
     1
100
AcDbLine
 10
-11.23253199652145
 20
-2.739735441568598
 30
0.0
 11
-13.47804081503
 21
-2.280122597872412
 31
0.0
  0
LINE
  5
D0E
330
C8A
100
AcDbEntity
  8
1
 62
     1
100
AcDbLine
 10
-13.47804081503
 20
-2.280122597872412
 30
0.0
 11
-14.60079522428426
 21
-2.110783490071085
 31
0.0
  0
LINE
  5
D0F
330
C8A
100
AcDbEntity
  8
1
 62
     1
100
AcDbLine
 10
-14.60079522428426
 20
-2.110783490071085
 30
0.0
 11
-15.72354963353855
 21
-1.985762156252945
 31
0.0
  0
LINE
  5
D10
330
C8A
100
AcDbEntity
  8
1
 62
     1
100
AcDbLine
 10
-15.72354963353855
 20
-1.985762156252945
 30
0.0
 11
-16.84630404279283
 21
-1.907149181407485
 31
0.0
  0
LINE
  5
D11
330
C8A
100
AcDbEntity
  8
1
 62
     1
100
AcDbLine
 10
-16.84630404279283
 20
-1.907149181407485
 30
0.0
 11
-17.96905845204711
 21
-1.876257844187271
 31
0.0
  0
LINE
  5
D12
330
C8A
100
AcDbEntity
  8
1
 62
     1
100
AcDbLine
 10
-17.96905845204711
 20
-1.876257844187271
 30
0.0
 11
-19.09181286130136
 21
-1.893604019729689
 31
0.0
  0
LINE
  5
D13
330
C8A
100
AcDbEntity
  8
1
 62
     1
100
AcDbLine
 10
-19.09181286130136
 20
-1.893604019729689
 30
0.0
 11
-20.21456727055563
 21
-1.958897972749884
 31
0.0
  0
LINE
  5
D14
330
C8A
100
AcDbEntity
  8
1
 62
     1
100
AcDbLine
 10
-20.21456727055563
 20
-1.958897972749884
 30
0.0
 11
-21.33732167980991
 21
-2.071049106057085
 31
0.0
  0
LINE
  5
D15
330
C8A
100
AcDbEntity
  8
1
 62
     1
100
AcDbLine
 10
-21.33732167980991
 20
-2.071049106057085
 30
0.0
 11
-22.4600760890642
 21
-2.228182638508624
 31
0.0
  0
ENDBLK
  5
D17
330
C8A
100
AcDbEntity
  8
0
100
AcDbBlockEnd
  0
BLOCK
  5
E28
330
E27
100
AcDbEntity
  8
0
100
AcDbBlockBegin
  2
*D13
 70
     1
 10
0.0
 20
0.0
 30
0.0
  3
*D13
  1

  0
LINE
  5
E29
330
E27
100
AcDbEntity
  8
2
 62
     0
440
 16777216
370
    -2
100
AcDbLine
 10
23.547052084
 20
4.766997194009433
 30
0.0
 11
23.547052084
 21
17.902364248344
 31
0.0
  0
LINE
  5
E2A
330
E27
100
AcDbEntity
  8
2
 62
     0
440
 16777216
370
    -2
100
AcDbLine
 10
23.80108
 20
4.508300107579954
 30
0.0
 11
23.80108
 21
17.902364248344
 31
0.0
  0
LINE
  5
E2B
330
E27
100
AcDbEntity
  8
2
 62
     0
440
 16777216
370
    -2
100
AcDbLine
 10
21.047052084
 20
16.652364248344
 30
0.0
 11
18.547052084
 21
16.652364248344
 31
0.0
  0
LINE
  5
E2C
330
E27
100
AcDbEntity
  8
2
 62
     0
440
 16777216
370
    -2
100
AcDbLine
 10
26.30108
 20
16.652364248344
 30
0.0
 11
55.21774666666665
 21
16.652364248344
 31
0.0
  0
SOLID
  5
E2D
330
E27
100
AcDbEntity
  8
2
 62
     0
440
 16777216
100
AcDbTrace
 10
21.047052084
 20
17.06903091501066
 30
0.0
 11
21.047052084
 21
16.23569758167733
 31
0.0
 12
23.547052084
 22
16.652364248344
 32
0.0
 13
23.547052084
 23
16.652364248344
 33
0.0
  0
SOLID
  5
E2E
330
E27
100
AcDbEntity
  8
2
 62
     0
440
 16777216
100
AcDbTrace
 10
26.30108
 20
17.06903091501066
 30
0.0
 11
26.30108
 21
16.23569758167733
 31
0.0
 12
23.80108
 22
16.652364248344
 32
0.0
 13
23.80108
 23
16.652364248344
 33
0.0
  0
MTEXT
  5
E2F
330
E27
100
AcDbEntity
  8
2
 62
     0
440
 16777216
100
AcDbMText
 10
42.00941333333331
 20
19.027364248344
 30
0.0
 40
3.5
 41
0.0
 71
     5
 72
     1
  1
0.203x45°
  7
SIMPLEX
 73
     1
 44
1.0
  0
POINT
  5
E30
330
E27
100
AcDbEntity
  8
DEFPOINTS
 62
     0
440
 16777216
100
AcDbPoint
 10
23.547052084
 20
4.766997194009433
 30
0.0
  0
POINT
  5
E31
330
E27
100
AcDbEntity
  8
DEFPOINTS
 62
     0
440
 16777216
100
AcDbPoint
 10
23.80108
 20
4.508300107579954
 30
0.0
  0
POINT
  5
E32
330
E27
100
AcDbEntity
  8
DEFPOINTS
 62
     0
440
 16777216
100
AcDbPoint
 10
23.80108
 20
16.652364248344
 30
0.0
  0
ENDBLK
  5
E33
330
E27
100
AcDbEntity
  8
0
100
AcDbBlockEnd
  0
BLOCK
  5
E47
330
E46
100
AcDbEntity
  8
0
100
AcDbBlockBegin
  2
*D14
 70
     1
 10
0.0
 20
0.0
 30
0.0
  3
*D14
  1

  0
LINE
  5
17A9
330
E46
100
AcDbEntity
  8
2
440
 16777216
370
    -2
100
AcDbLine
 10
94.40215872768598
 20
12.02224958226492
 30
0.0
 11
94.40215872768598
 21
27.11677788004974
 31
0.0
  0
LINE
  5
17AA
330
E46
100
AcDbEntity
  8
2
440
 16777216
370
    -2
100
AcDbLine
 10
93.73079123440438
 20
12.69840162198524
 30
0.0
 11
93.73079123440438
 21
27.11677788004974
 31
0.0
  0
LINE
  5
17AB
330
E46
100
AcDbEntity
  8
2
440
 16777216
370
    -2
100
AcDbLine
 10
89.16079123440438
 20
22.11677788004974
 30
0.0
 11
84.59079123440437
 21
22.11677788004974
 31
0.0
  0
LINE
  5
17AC
330
E46
100
AcDbEntity
  8
2
440
 16777216
370
    -2
100
AcDbLine
 10
98.97215872768596
 20
22.11677788004974
 30
0.0
 11
129.7135872991145
 21
22.11677788004974
 31
0.0
  0
SOLID
  5
17AD
330
E46
100
AcDbEntity
  8
2
440
 16777216
100
AcDbTrace
 10
89.16079123440438
 20
22.8784445467164
 30
0.0
 11
89.16079123440438
 21
21.35511121338307
 31
0.0
 12
93.73079123440438
 22
22.11677788004974
 32
0.0
 13
93.73079123440438
 23
22.11677788004974
 33
0.0
  0
SOLID
  5
17AE
330
E46
100
AcDbEntity
  8
2
440
 16777216
100
AcDbTrace
 10
98.97215872768596
 20
22.8784445467164
 30
0.0
 11
98.97215872768596
 21
21.35511121338307
 31
0.0
 12
94.40215872768598
 22
22.11677788004974
 32
0.0
 13
94.40215872768598
 23
22.11677788004974
 33
0.0
  0
MTEXT
  5
17AF
330
E46
100
AcDbEntity
  8
2
440
 16777216
100
AcDbMText
 10
116.6278730134002
 20
25.91677788004974
 30
0.0
 40
3.0
 41
0.0
 71
     5
 72
     1
  1
\A1;0.254x45°
  7
SANDVIK_STYLE
 73
     1
 44
1.0
  0
POINT
  5
17B0
330
E46
100
AcDbEntity
  8
DEFPOINTS
 62
     0
440
 16777216
100
AcDbPoint
 10
94.40215872768598
 20
12.02224958226492
 30
0.0
  0
POINT
  5
17B1
330
E46
100
AcDbEntity
  8
DEFPOINTS
 62
     0
440
 16777216
100
AcDbPoint
 10
93.73079123440438
 20
12.69840162198524
 30
0.0
  0
POINT
  5
17B2
330
E46
100
AcDbEntity
  8
DEFPOINTS
 62
     0
440
 16777216
100
AcDbPoint
 10
93.73079123440438
 20
22.11677788004974
 30
0.0
  0
ENDBLK
  5
E48
330
E46
100
AcDbEntity
  8
0
100
AcDbBlockEnd
  0
BLOCK
  5
F2A
330
F29
100
AcDbEntity
  8
0
100
AcDbBlockBegin
  2
*D15
 70
     1
 10
0.0
 20
0.0
 30
0.0
  3
*D15
  1

  0
LINE
  5
F40
330
F29
100
AcDbEntity
  8
1
 62
     0
440
 16777216
370
    -2
100
AcDbLine
 10
0.0
 20
-0.0000000000000026
 30
0.0
 11
0.0000000000000015
 21
24.26200131811794
 31
0.0
  0
LINE
  5
F41
330
F29
100
AcDbEntity
  8
1
 62
     0
440
 16777216
370
    -2
100
AcDbLine
 10
-39.69500663367359
 20
-0.0000000000000004
 30
0.0
 11
-39.69500663367359
 21
24.26200131811794
 31
0.0
  0
LINE
  5
F42
330
F29
100
AcDbEntity
  8
1
 62
     0
440
 16777216
370
    -2
100
AcDbLine
 10
-2.499999999999996
 20
23.01200131811794
 30
0.0
 11
-37.19500663367359
 21
23.01200131811794
 31
0.0
  0
SOLID
  5
F43
330
F29
100
AcDbEntity
  8
1
 62
     0
440
 16777216
100
AcDbTrace
 10
-2.499999999999996
 20
23.42866798478461
 30
0.0
 11
-2.499999999999996
 21
22.59533465145127
 31
0.0
 12
0.0000000000000014
 22
23.01200131811794
 32
0.0
 13
0.0000000000000014
 23
23.01200131811794
 33
0.0
  0
SOLID
  5
F44
330
F29
100
AcDbEntity
  8
1
 62
     0
440
 16777216
100
AcDbTrace
 10
-37.19500663367359
 20
23.42866798478461
 30
0.0
 11
-37.19500663367359
 21
22.59533465145127
 31
0.0
 12
-39.69500663367359
 22
23.01200131811794
 32
0.0
 13
-39.69500663367359
 23
23.01200131811794
 33
0.0
  0
MTEXT
  5
F45
330
F29
100
AcDbEntity
  8
1
 62
     0
440
 16777216
100
AcDbMText
 10
-19.84750331683679
 20
25.38700131811794
 30
0.0
 40
3.5
 41
0.0
 71
     5
 72
     1
  1
39.7
  7
SIMPLEX
 73
     1
 44
1.0
  0
POINT
  5
F46
330
F29
100
AcDbEntity
  8
DEFPOINTS
 62
     0
440
 16777216
100
AcDbPoint
 10
0.0
 20
-0.0000000000000026
 30
0.0
  0
POINT
  5
F47
330
F29
100
AcDbEntity
  8
DEFPOINTS
 62
     0
440
 16777216
100
AcDbPoint
 10
-39.69500663367359
 20
-0.0000000000000004
 30
0.0
  0
POINT
  5
F48
330
F29
100
AcDbEntity
  8
DEFPOINTS
 62
     0
440
 16777216
100
AcDbPoint
 10
-39.69500663367359
 20
23.01200131811794
 30
0.0
  0
ENDBLK
  5
F2B
330
F29
100
AcDbEntity
  8
0
100
AcDbBlockEnd
  0
BLOCK
  5
1003
330
1002
100
AcDbEntity
  8
0
100
AcDbBlockBegin
  2
*D16
 70
     1
 10
0.0
 20
0.0
 30
0.0
  3
*D16
  1

  0
LINE
  5
1022
330
1002
100
AcDbEntity
  8
1
 62
     0
440
 16777216
370
    -2
100
AcDbLine
 10
-44.99500663367359
 20
-0.0000000000000004
 30
0.0
 11
-44.99500663367359
 21
27.77716072624901
 31
0.0
  0
LINE
  5
1023
330
1002
100
AcDbEntity
  8
1
 62
     0
440
 16777216
370
    -2
100
AcDbLine
 10
0.0
 20
0.0000000000000009
 30
0.0
 11
0.0000000000000017
 21
27.77716072624901
 31
0.0
  0
LINE
  5
1024
330
1002
100
AcDbEntity
  8
1
 62
     0
440
 16777216
370
    -2
100
AcDbLine
 10
-42.49500663367359
 20
26.52716072624901
 30
0.0
 11
-2.499999999999996
 21
26.52716072624901
 31
0.0
  0
SOLID
  5
1025
330
1002
100
AcDbEntity
  8
1
 62
     0
440
 16777216
100
AcDbTrace
 10
-42.49500663367359
 20
26.94382739291568
 30
0.0
 11
-42.49500663367359
 21
26.11049405958234
 31
0.0
 12
-44.99500663367359
 22
26.52716072624901
 32
0.0
 13
-44.99500663367359
 23
26.52716072624901
 33
0.0
  0
SOLID
  5
1026
330
1002
100
AcDbEntity
  8
1
 62
     0
440
 16777216
100
AcDbTrace
 10
-2.499999999999996
 20
26.94382739291568
 30
0.0
 11
-2.499999999999996
 21
26.11049405958234
 31
0.0
 12
0.0000000000000016
 22
26.52716072624901
 32
0.0
 13
0.0000000000000016
 23
26.52716072624901
 33
0.0
  0
MTEXT
  5
1027
330
1002
100
AcDbEntity
  8
1
 62
     0
440
 16777216
100
AcDbMText
 10
-22.4975033168368
 20
28.90216072624901
 30
0.0
 40
3.5
 41
0.0
 71
     5
 72
     1
  1
45
  7
SIMPLEX
 73
     1
 44
1.0
  0
POINT
  5
1028
330
1002
100
AcDbEntity
  8
DEFPOINTS
 62
     0
440
 16777216
100
AcDbPoint
 10
-44.99500663367359
 20
-0.0000000000000004
 30
0.0
  0
POINT
  5
1029
330
1002
100
AcDbEntity
  8
DEFPOINTS
 62
     0
440
 16777216
100
AcDbPoint
 10
0.0
 20
0.0000000000000009
 30
0.0
  0
POINT
  5
102A
330
1002
100
AcDbEntity
  8
DEFPOINTS
 62
     0
440
 16777216
100
AcDbPoint
 10
0.0000000000000016
 20
26.52716072624901
 30
0.0
  0
ENDBLK
  5
1004
330
1002
100
AcDbEntity
  8
0
100
AcDbBlockEnd
  0
BLOCK
  5
10CC
330
10CB
100
AcDbEntity
  8
0
100
AcDbBlockBegin
  2
*D17
 70
     1
 10
0.0
 20
0.0
 30
0.0
  3
*D17
  1

  0
LINE
  5
1111
330
10CB
100
AcDbEntity
  8
1
 62
     0
440
 16777216
370
    -2
100
AcDbLine
 10
0.0
 20
0.0000000000000009
 30
0.0
 11
0.0000000000000012
 21
19.29599425855474
 31
0.0
  0
LINE
  5
1112
330
10CB
100
AcDbEntity
  8
1
 62
     0
440
 16777216
370
    -2
100
AcDbLine
 10
-45.29500663367358
 20
0.0000000000000044
 30
0.0
 11
-45.29500663367358
 21
19.29599425855474
 31
0.0
  0
LINE
  5
1113
330
10CB
100
AcDbEntity
  8
1
 62
     0
440
 16777216
370
    -2
100
AcDbLine
 10
-2.499999999999999
 20
18.04599425855474
 30
0.0
 11
-42.79500663367358
 21
18.04599425855474
 31
0.0
  0
SOLID
  5
1114
330
10CB
100
AcDbEntity
  8
1
 62
     0
440
 16777216
100
AcDbTrace
 10
-2.499999999999999
 20
18.46266092522141
 30
0.0
 11
-2.499999999999999
 21
17.62932759188807
 31
0.0
 12
0.0000000000000011
 22
18.04599425855474
 32
0.0
 13
0.0000000000000011
 23
18.04599425855474
 33
0.0
  0
SOLID
  5
1115
330
10CB
100
AcDbEntity
  8
1
 62
     0
440
 16777216
100
AcDbTrace
 10
-42.79500663367358
 20
18.46266092522141
 30
0.0
 11
-42.79500663367358
 21
17.62932759188807
 31
0.0
 12
-45.29500663367358
 22
18.04599425855474
 32
0.0
 13
-45.29500663367358
 23
18.04599425855474
 33
0.0
  0
MTEXT
  5
1116
330
10CB
100
AcDbEntity
  8
1
 62
     0
440
 16777216
100
AcDbMText
 10
-22.64750331683679
 20
20.42099425855474
 30
0.0
 40
3.5
 41
0.0
 71
     5
 72
     1
  1
45.3
  7
SIMPLEX
 73
     1
 44
1.0
  0
POINT
  5
1117
330
10CB
100
AcDbEntity
  8
DEFPOINTS
 62
     0
440
 16777216
100
AcDbPoint
 10
0.0
 20
0.0000000000000009
 30
0.0
  0
POINT
  5
1118
330
10CB
100
AcDbEntity
  8
DEFPOINTS
 62
     0
440
 16777216
100
AcDbPoint
 10
-45.29500663367358
 20
0.0000000000000044
 30
0.0
  0
POINT
  5
1119
330
10CB
100
AcDbEntity
  8
DEFPOINTS
 62
     0
440
 16777216
100
AcDbPoint
 10
-45.29500663367358
 20
18.04599425855474
 30
0.0
  0
ENDBLK
  5
10CD
330
10CB
100
AcDbEntity
  8
0
100
AcDbBlockEnd
  0
BLOCK
  5
11EA
330
11E9
100
AcDbEntity
  8
0
100
AcDbBlockBegin
  2
*D18
 70
     1
 10
0.0
 20
0.0
 30
0.0
  3
*D18
  1

  0
LINE
  5
1200
330
11E9
100
AcDbEntity
  8
1
 62
     0
440
 16777216
370
    -2
100
AcDbLine
 10
-48.39875829209198
 20
0.0
 30
0.0
 11
-48.39875829209198
 21
25.16562681307016
 31
0.0
  0
LINE
  5
1201
330
11E9
100
AcDbEntity
  8
1
 62
     0
440
 16777216
370
    -2
100
AcDbLine
 10
0.0
 20
0.0000000000000009
 30
0.0
 11
0.0000000000000015
 21
25.16562681307016
 31
0.0
  0
LINE
  5
1202
330
11E9
100
AcDbEntity
  8
1
 62
     0
440
 16777216
370
    -2
100
AcDbLine
 10
-45.89875829209198
 20
23.91562681307016
 30
0.0
 11
-2.499999999999996
 21
23.91562681307016
 31
0.0
  0
SOLID
  5
1203
330
11E9
100
AcDbEntity
  8
1
 62
     0
440
 16777216
100
AcDbTrace
 10
-45.89875829209198
 20
24.33229347973683
 30
0.0
 11
-45.89875829209198
 21
23.49896014640349
 31
0.0
 12
-48.39875829209198
 22
23.91562681307016
 32
0.0
 13
-48.39875829209198
 23
23.91562681307016
 33
0.0
  0
SOLID
  5
1204
330
11E9
100
AcDbEntity
  8
1
 62
     0
440
 16777216
100
AcDbTrace
 10
-2.499999999999996
 20
24.33229347973683
 30
0.0
 11
-2.499999999999996
 21
23.49896014640349
 31
0.0
 12
0.0000000000000015
 22
23.91562681307016
 32
0.0
 13
0.0000000000000015
 23
23.91562681307016
 33
0.0
  0
MTEXT
  5
1205
330
11E9
100
AcDbEntity
  8
1
 62
     0
440
 16777216
100
AcDbMText
 10
-24.19937914604599
 20
26.29062681307016
 30
0.0
 40
3.5
 41
0.0
 71
     5
 72
     1
  1
48.4
  7
SIMPLEX
 73
     1
 44
1.0
  0
POINT
  5
1206
330
11E9
100
AcDbEntity
  8
DEFPOINTS
 62
     0
440
 16777216
100
AcDbPoint
 10
-48.39875829209198
 20
0.0
 30
0.0
  0
POINT
  5
1207
330
11E9
100
AcDbEntity
  8
DEFPOINTS
 62
     0
440
 16777216
100
AcDbPoint
 10
0.0
 20
0.0000000000000009
 30
0.0
  0
POINT
  5
1208
330
11E9
100
AcDbEntity
  8
DEFPOINTS
 62
     0
440
 16777216
100
AcDbPoint
 10
0.0000000000000015
 20
23.91562681307016
 30
0.0
  0
ENDBLK
  5
11EB
330
11E9
100
AcDbEntity
  8
0
100
AcDbBlockEnd
  0
BLOCK
  5
12D6
330
12D5
100
AcDbEntity
  8
0
100
AcDbBlockBegin
  2
*D19
 70
     1
 10
0.0
 20
0.0
 30
0.0
  3
*D19
  1

  0
LINE
  5
12E2
330
12D5
100
AcDbEntity
  8
1
 62
     0
440
 16777216
370
    -2
100
AcDbLine
 10
0.0
 20
0.0000000000000009
 30
0.0
 11
0.0000000000000021
 21
34.02621823881259
 31
0.0
  0
LINE
  5
12E3
330
12D5
100
AcDbEntity
  8
1
 62
     0
440
 16777216
370
    -2
100
AcDbLine
 10
-48.39875829209198
 20
0.0
 30
0.0
 11
-48.39875829209198
 21
34.02621823881259
 31
0.0
  0
LINE
  5
12E4
330
12D5
100
AcDbEntity
  8
1
 62
     0
440
 16777216
370
    -2
100
AcDbLine
 10
-2.499999999999996
 20
32.77621823881259
 30
0.0
 11
-45.89875829209198
 21
32.77621823881259
 31
0.0
  0
SOLID
  5
12E5
330
12D5
100
AcDbEntity
  8
1
 62
     0
440
 16777216
100
AcDbTrace
 10
-2.499999999999996
 20
33.19288490547926
 30
0.0
 11
-2.499999999999996
 21
32.35955157214593
 31
0.0
 12
0.000000000000002
 22
32.77621823881259
 32
0.0
 13
0.000000000000002
 23
32.77621823881259
 33
0.0
  0
SOLID
  5
12E6
330
12D5
100
AcDbEntity
  8
1
 62
     0
440
 16777216
100
AcDbTrace
 10
-45.89875829209198
 20
33.19288490547926
 30
0.0
 11
-45.89875829209198
 21
32.35955157214593
 31
0.0
 12
-48.39875829209198
 22
32.77621823881259
 32
0.0
 13
-48.39875829209198
 23
32.77621823881259
 33
0.0
  0
MTEXT
  5
12E7
330
12D5
100
AcDbEntity
  8
1
 62
     0
440
 16777216
100
AcDbMText
 10
-24.19937914604599
 20
35.15121823881259
 30
0.0
 40
3.5
 41
0.0
 71
     5
 72
     1
  1
48.4
  7
SIMPLEX
 73
     1
 44
1.0
  0
POINT
  5
12E8
330
12D5
100
AcDbEntity
  8
DEFPOINTS
 62
     0
440
 16777216
100
AcDbPoint
 10
0.0
 20
0.0000000000000009
 30
0.0
  0
POINT
  5
12E9
330
12D5
100
AcDbEntity
  8
DEFPOINTS
 62
     0
440
 16777216
100
AcDbPoint
 10
-48.39875829209198
 20
0.0
 30
0.0
  0
POINT
  5
12EA
330
12D5
100
AcDbEntity
  8
DEFPOINTS
 62
     0
440
 16777216
100
AcDbPoint
 10
-48.39875829209198
 20
32.77621823881259
 30
0.0
  0
ENDBLK
  5
12D7
330
12D5
100
AcDbEntity
  8
0
100
AcDbBlockEnd
  0
BLOCK
  5
134F
330
134E
100
AcDbEntity
  8
0
100
AcDbBlockBegin
  2
*D20
 70
     1
 10
0.0
 20
0.0
 30
0.0
  3
*D20
  1

  0
LINE
  5
1378
330
134E
100
AcDbEntity
  8
1
 62
     0
440
 16777216
370
    -2
100
AcDbLine
 10
0.0
 20
0.0000000000000016
 30
0.0
 11
0.0000000000000014
 21
22.06004452282281
 31
0.0
  0
LINE
  5
1379
330
134E
100
AcDbEntity
  8
1
 62
     0
440
 16777216
370
    -2
100
AcDbLine
 10
-51.59850995051037
 20
0.0000000000000018
 30
0.0
 11
-51.59850995051037
 21
22.06004452282281
 31
0.0
  0
LINE
  5
137A
330
134E
100
AcDbEntity
  8
1
 62
     0
440
 16777216
370
    -2
100
AcDbLine
 10
-2.499999999999996
 20
20.81004452282281
 30
0.0
 11
-49.09850995051037
 21
20.81004452282281
 31
0.0
  0
SOLID
  5
137B
330
134E
100
AcDbEntity
  8
1
 62
     0
440
 16777216
100
AcDbTrace
 10
-2.499999999999996
 20
21.22671118948948
 30
0.0
 11
-2.499999999999996
 21
20.39337785615614
 31
0.0
 12
0.0000000000000013
 22
20.81004452282281
 32
0.0
 13
0.0000000000000013
 23
20.81004452282281
 33
0.0
  0
SOLID
  5
137C
330
134E
100
AcDbEntity
  8
1
 62
     0
440
 16777216
100
AcDbTrace
 10
-49.09850995051037
 20
21.22671118948948
 30
0.0
 11
-49.09850995051037
 21
20.39337785615614
 31
0.0
 12
-51.59850995051037
 22
20.81004452282281
 32
0.0
 13
-51.59850995051037
 23
20.81004452282281
 33
0.0
  0
MTEXT
  5
137D
330
134E
100
AcDbEntity
  8
1
 62
     0
440
 16777216
100
AcDbMText
 10
-25.7992549752552
 20
23.18504452282281
 30
0.0
 40
3.5
 41
0.0
 71
     5
 72
     1
  1
51.6
  7
SIMPLEX
 73
     1
 44
1.0
  0
POINT
  5
137E
330
134E
100
AcDbEntity
  8
DEFPOINTS
 62
     0
440
 16777216
100
AcDbPoint
 10
0.0
 20
0.0000000000000016
 30
0.0
  0
POINT
  5
137F
330
134E
100
AcDbEntity
  8
DEFPOINTS
 62
     0
440
 16777216
100
AcDbPoint
 10
-51.59850995051037
 20
0.0000000000000018
 30
0.0
  0
POINT
  5
1380
330
134E
100
AcDbEntity
  8
DEFPOINTS
 62
     0
440
 16777216
100
AcDbPoint
 10
-51.59850995051037
 20
20.81004452282281
 30
0.0
  0
ENDBLK
  5
1350
330
134E
100
AcDbEntity
  8
0
100
AcDbBlockEnd
  0
BLOCK
  5
13F4
330
13F3
100
AcDbEntity
  8
0
100
AcDbBlockBegin
  2
*D21
 70
     1
 10
0.0
 20
0.0
 30
0.0
  3
*D21
  1

  0
LINE
  5
1400
330
13F3
100
AcDbEntity
  8
1
 62
     0
440
 16777216
370
    -2
100
AcDbLine
 10
0.0
 20
-0.0000000000000026
 30
0.0
 11
0.0000000000000016
 21
25.54330060260719
 31
0.0
  0
LINE
  5
1401
330
13F3
100
AcDbEntity
  8
1
 62
     0
440
 16777216
370
    -2
100
AcDbLine
 10
-51.59850995051037
 20
-0.0000000000000026
 30
0.0
 11
-51.59850995051037
 21
25.54330060260719
 31
0.0
  0
LINE
  5
1402
330
13F3
100
AcDbEntity
  8
1
 62
     0
440
 16777216
370
    -2
100
AcDbLine
 10
-2.499999999999996
 20
24.29330060260719
 30
0.0
 11
-49.09850995051037
 21
24.29330060260719
 31
0.0
  0
SOLID
  5
1403
330
13F3
100
AcDbEntity
  8
1
 62
     0
440
 16777216
100
AcDbTrace
 10
-2.499999999999996
 20
24.70996726927386
 30
0.0
 11
-2.499999999999996
 21
23.87663393594052
 31
0.0
 12
0.0000000000000015
 22
24.29330060260719
 32
0.0
 13
0.0000000000000015
 23
24.29330060260719
 33
0.0
  0
SOLID
  5
1404
330
13F3
100
AcDbEntity
  8
1
 62
     0
440
 16777216
100
AcDbTrace
 10
-49.09850995051037
 20
24.70996726927386
 30
0.0
 11
-49.09850995051037
 21
23.87663393594052
 31
0.0
 12
-51.59850995051037
 22
24.29330060260719
 32
0.0
 13
-51.59850995051037
 23
24.29330060260719
 33
0.0
  0
MTEXT
  5
1405
330
13F3
100
AcDbEntity
  8
1
 62
     0
440
 16777216
100
AcDbMText
 10
-25.7992549752552
 20
26.6683006026072
 30
0.0
 40
3.5
 41
0.0
 71
     5
 72
     1
  1
51.6
  7
SIMPLEX
 73
     1
 44
1.0
  0
POINT
  5
1406
330
13F3
100
AcDbEntity
  8
DEFPOINTS
 62
     0
440
 16777216
100
AcDbPoint
 10
0.0
 20
-0.0000000000000026
 30
0.0
  0
POINT
  5
1407
330
13F3
100
AcDbEntity
  8
DEFPOINTS
 62
     0
440
 16777216
100
AcDbPoint
 10
-51.59850995051037
 20
-0.0000000000000026
 30
0.0
  0
POINT
  5
1408
330
13F3
100
AcDbEntity
  8
DEFPOINTS
 62
     0
440
 16777216
100
AcDbPoint
 10
-51.59850995051037
 20
24.29330060260719
 30
0.0
  0
ENDBLK
  5
13F5
330
13F3
100
AcDbEntity
  8
0
100
AcDbBlockEnd
  0
BLOCK
  5
1490
330
148F
100
AcDbEntity
  8
0
100
AcDbBlockBegin
  2
*D22
 70
     1
 10
0.0
 20
0.0
 30
0.0
  3
*D22
  1

  0
LINE
  5
14AF
330
148F
100
AcDbEntity
  8
1
 62
     0
440
 16777216
370
    -2
100
AcDbLine
 10
0.0
 20
-0.0000000000000026
 30
0.0
 11
0.0000000000000019
 21
31.0769188931086
 31
0.0
  0
LINE
  5
14B0
330
148F
100
AcDbEntity
  8
1
 62
     0
440
 16777216
370
    -2
100
AcDbLine
 10
-57.997841272314
 20
-0.0000000000000026
 30
0.0
 11
-57.997841272314
 21
31.0769188931086
 31
0.0
  0
LINE
  5
14B1
330
148F
100
AcDbEntity
  8
1
 62
     0
440
 16777216
370
    -2
100
AcDbLine
 10
-2.499999999999996
 20
29.8269188931086
 30
0.0
 11
-55.497841272314
 21
29.8269188931086
 31
0.0
  0
SOLID
  5
14B2
330
148F
100
AcDbEntity
  8
1
 62
     0
440
 16777216
100
AcDbTrace
 10
-2.499999999999996
 20
30.24358555977527
 30
0.0
 11
-2.499999999999996
 21
29.41025222644194
 31
0.0
 12
0.0000000000000018
 22
29.8269188931086
 32
0.0
 13
0.0000000000000018
 23
29.8269188931086
 33
0.0
  0
SOLID
  5
14B3
330
148F
100
AcDbEntity
  8
1
 62
     0
440
 16777216
100
AcDbTrace
 10
-55.497841272314
 20
30.24358555977527
 30
0.0
 11
-55.497841272314
 21
29.41025222644194
 31
0.0
 12
-57.997841272314
 22
29.8269188931086
 32
0.0
 13
-57.997841272314
 23
29.8269188931086
 33
0.0
  0
MTEXT
  5
14B4
330
148F
100
AcDbEntity
  8
1
 62
     0
440
 16777216
100
AcDbMText
 10
-28.998920636157
 20
32.20191889310861
 30
0.0
 40
3.5
 41
0.0
 71
     5
 72
     1
  1
58
  7
SIMPLEX
 73
     1
 44
1.0
  0
POINT
  5
14B5
330
148F
100
AcDbEntity
  8
DEFPOINTS
 62
     0
440
 16777216
100
AcDbPoint
 10
0.0
 20
-0.0000000000000026
 30
0.0
  0
POINT
  5
14B6
330
148F
100
AcDbEntity
  8
DEFPOINTS
 62
     0
440
 16777216
100
AcDbPoint
 10
-57.997841272314
 20
-0.0000000000000026
 30
0.0
  0
POINT
  5
14B7
330
148F
100
AcDbEntity
  8
DEFPOINTS
 62
     0
440
 16777216
100
AcDbPoint
 10
-57.997841272314
 20
29.8269188931086
 30
0.0
  0
ENDBLK
  5
1491
330
148F
100
AcDbEntity
  8
0
100
AcDbBlockEnd
  0
BLOCK
  5
15CD
330
15CC
100
AcDbEntity
  8
0
100
AcDbBlockBegin
  2
*D23
 70
     1
 10
0.0
 20
0.0
 30
0.0
  3
*D23
  1

  0
LINE
  5
15CE
330
15CC
100
AcDbEntity
  8
2
440
 16777216
370
    -2
100
AcDbLine
 10
12.1
 20
1.586999999999999
 30
0.0
 11
31.26000000000001
 21
1.586999999999993
 31
0.0
  0
LINE
  5
15CF
330
15CC
100
AcDbEntity
  8
2
440
 16777216
370
    -2
100
AcDbLine
 10
12.01833993666911
 20
-1.586999999999995
 30
0.0
 11
31.26
 21
-1.587000000000003
 31
0.0
  0
LINE
  5
15D0
330
15CC
100
AcDbEntity
  8
2
440
 16777216
370
    -2
100
AcDbLine
 10
26.26
 20
6.156999999999992
 30
0.0
 11
26.26000000000001
 21
10.72699999999999
 31
0.0
  0
LINE
  5
15D1
330
15CC
100
AcDbEntity
  8
2
440
 16777216
370
    -2
100
AcDbLine
 10
26.26
 20
-6.157000000000002
 30
0.0
 11
26.25999999999999
 21
-26.61271428571428
 31
0.0
  0
SOLID
  5
15D2
330
15CC
100
AcDbEntity
  8
2
440
 16777216
100
AcDbTrace
 10
25.49833333333334
 20
6.156999999999995
 30
0.0
 11
27.02166666666667
 21
6.156999999999992
 31
0.0
 12
26.26
 22
1.586999999999995
 32
0.0
 13
26.26
 23
1.586999999999995
 33
0.0
  0
SOLID
  5
15D3
330
15CC
100
AcDbEntity
  8
2
440
 16777216
100
AcDbTrace
 10
25.49833333333334
 20
-6.157
 30
0.0
 11
27.02166666666667
 21
-6.157000000000002
 31
0.0
 12
26.26
 22
-1.586999999999999
 32
0.0
 13
26.26
 23
-1.586999999999999
 33
0.0
  0
MTEXT
  5
15D4
330
15CC
100
AcDbEntity
  8
2
440
 16777216
100
AcDbMText
 10
22.46
 20
-18.66985714285713
 30
0.0
 40
3.0
 41
0.0
 71
     5
 72
     1
  1
\A1;%%c3.18
  7
SANDVIK_STYLE
 11
0.0000000000000001
 21
1.0
 31
0.0
 73
     1
 44
1.0
  0
POINT
  5
15D5
330
15CC
100
AcDbEntity
  8
DEFPOINTS
 62
     0
440
 16777216
100
AcDbPoint
 10
12.1
 20
1.586999999999999
 30
0.0
  0
POINT
  5
15D6
330
15CC
100
AcDbEntity
  8
DEFPOINTS
 62
     0
440
 16777216
100
AcDbPoint
 10
12.01833993666911
 20
-1.586999999999995
 30
0.0
  0
POINT
  5
15D7
330
15CC
100
AcDbEntity
  8
DEFPOINTS
 62
     0
440
 16777216
100
AcDbPoint
 10
26.26
 20
-1.586999999999999
 30
0.0
  0
ENDBLK
  5
15D8
330
15CC
100
AcDbEntity
  8
0
100
AcDbBlockEnd
  0
BLOCK
  5
15DA
330
15D9
100
AcDbEntity
  8
0
100
AcDbBlockBegin
  2
*D24
 70
     1
 10
0.0
 20
0.0
 30
0.0
  3
*D24
  1

  0
LINE
  5
15DB
330
15D9
100
AcDbEntity
  8
2
440
 16777216
370
    -2
100
AcDbLine
 10
0.0
 20
0.0
 30
0.0
 11
0.0000000000000045
 21
73.01002865527427
 31
0.0
  0
LINE
  5
15DC
330
15D9
100
AcDbEntity
  8
2
440
 16777216
370
    -2
100
AcDbLine
 10
12.1
 20
0.0
 30
0.0
 11
12.1
 21
73.01002865527427
 31
0.0
  0
LINE
  5
15DD
330
15D9
100
AcDbEntity
  8
2
440
 16777216
370
    -2
100
AcDbLine
 10
-4.569999999999994
 20
68.01002865527426
 30
0.0
 11
-9.139999999999997
 21
68.01002865527426
 31
0.0
  0
LINE
  5
15DE
330
15D9
100
AcDbEntity
  8
2
440
 16777216
370
    -2
100
AcDbLine
 10
16.67
 20
68.01002865527426
 30
0.0
 11
33.12571428571428
 21
68.01002865527426
 31
0.0
  0
SOLID
  5
15DF
330
15D9
100
AcDbEntity
  8
2
440
 16777216
100
AcDbTrace
 10
-4.569999999999994
 20
68.77169532194092
 30
0.0
 11
-4.569999999999994
 21
67.24836198860758
 31
0.0
 12
0.0000000000000042
 22
68.01002865527426
 32
0.0
 13
0.0000000000000042
 23
68.01002865527426
 33
0.0
  0
SOLID
  5
15E0
330
15D9
100
AcDbEntity
  8
2
440
 16777216
100
AcDbTrace
 10
16.67
 20
68.77169532194092
 30
0.0
 11
16.67
 21
67.24836198860758
 31
0.0
 12
12.1
 22
68.01002865527426
 32
0.0
 13
12.1
 23
68.01002865527426
 33
0.0
  0
MTEXT
  5
15E1
330
15D9
100
AcDbEntity
  8
2
440
 16777216
100
AcDbMText
 10
27.18285714285715
 20
71.81002865527425
 30
0.0
 40
3.0
 41
0.0
 71
     5
 72
     1
  1
\A1;12.1
  7
SANDVIK_STYLE
 73
     1
 44
1.0
  0
POINT
  5
15E2
330
15D9
100
AcDbEntity
  8
DEFPOINTS
 62
     0
440
 16777216
100
AcDbPoint
 10
0.0
 20
0.0
 30
0.0
  0
POINT
  5
15E3
330
15D9
100
AcDbEntity
  8
DEFPOINTS
 62
     0
440
 16777216
100
AcDbPoint
 10
12.1
 20
0.0
 30
0.0
  0
POINT
  5
15E4
330
15D9
100
AcDbEntity
  8
DEFPOINTS
 62
     0
440
 16777216
100
AcDbPoint
 10
12.1
 20
68.01002865527426
 30
0.0
  0
ENDBLK
  5
15E5
330
15D9
100
AcDbEntity
  8
0
100
AcDbBlockEnd
  0
BLOCK
  5
15E7
330
15E6
100
AcDbEntity
  8
0
100
AcDbBlockBegin
  2
*D25
 70
     1
 10
0.0
 20
0.0
 30
0.0
  3
*D25
  1

  0
LINE
  5
15E8
330
15E6
100
AcDbEntity
  8
2
440
 16777216
370
    -2
100
AcDbLine
 10
12.1
 20
1.652364248344006
 30
0.0
 11
12.1
 21
50.15236424834402
 31
0.0
  0
LINE
  5
15E9
330
15E6
100
AcDbEntity
  8
2
440
 16777216
370
    -2
100
AcDbLine
 10
4.165
 20
1.690790506212522
 30
0.0
 11
4.165
 21
50.15236424834402
 31
0.0
  0
LINE
  5
15EA
330
15E6
100
AcDbEntity
  8
2
440
 16777216
370
    -2
100
AcDbLine
 10
-0.4049999999999976
 20
45.15236424834401
 30
0.0
 11
-4.974999999999996
 21
45.15236424834401
 31
0.0
  0
LINE
  5
15EB
330
15E6
100
AcDbEntity
  8
2
440
 16777216
370
    -2
100
AcDbLine
 10
16.67
 20
45.15236424834401
 30
0.0
 11
35.12571428571428
 21
45.15236424834401
 31
0.0
  0
SOLID
  5
15EC
330
15E6
100
AcDbEntity
  8
2
440
 16777216
100
AcDbTrace
 10
-0.4049999999999976
 20
45.91403091501068
 30
0.0
 11
-0.4049999999999976
 21
44.39069758167734
 31
0.0
 12
4.165
 22
45.15236424834401
 32
0.0
 13
4.165
 23
45.15236424834401
 33
0.0
  0
SOLID
  5
15ED
330
15E6
100
AcDbEntity
  8
2
440
 16777216
100
AcDbTrace
 10
16.67
 20
45.91403091501068
 30
0.0
 11
16.67
 21
44.39069758167734
 31
0.0
 12
12.1
 22
45.15236424834401
 32
0.0
 13
12.1
 23
45.15236424834401
 33
0.0
  0
MTEXT
  5
15EE
330
15E6
100
AcDbEntity
  8
2
440
 16777216
100
AcDbMText
 10
28.18285714285714
 20
48.95236424834401
 30
0.0
 40
3.0
 41
0.0
 71
     5
 72
     1
  1
\A1;7.94
  7
SANDVIK_STYLE
 73
     1
 44
1.0
  0
POINT
  5
15EF
330
15E6
100
AcDbEntity
  8
DEFPOINTS
 62
     0
440
 16777216
100
AcDbPoint
 10
12.1
 20
1.652364248344006
 30
0.0
  0
POINT
  5
15F0
330
15E6
100
AcDbEntity
  8
DEFPOINTS
 62
     0
440
 16777216
100
AcDbPoint
 10
4.165
 20
1.690790506212522
 30
0.0
  0
POINT
  5
15F1
330
15E6
100
AcDbEntity
  8
DEFPOINTS
 62
     0
440
 16777216
100
AcDbPoint
 10
4.165
 20
45.15236424834401
 30
0.0
  0
ENDBLK
  5
15F2
330
15E6
100
AcDbEntity
  8
0
100
AcDbBlockEnd
  0
BLOCK
  5
15F4
330
15F3
100
AcDbEntity
  8
0
100
AcDbBlockBegin
  2
*D26
 70
     1
 10
0.0
 20
0.0
 30
0.0
  3
*D26
  1

  0
LINE
  5
15F5
330
15F3
100
AcDbEntity
  8
SK2
440
 16777216
370
    -2
100
AcDbLine
 10
-25.841
 20
1.587497999999999
 30
0.0
 11
-55.99999999998468
 21
1.587498000000007
 31
0.0
  0
LINE
  5
15F6
330
15F3
100
AcDbEntity
  8
SK2
440
 16777216
370
    -2
100
AcDbLine
 10
-25.841
 20
-1.592502000000002
 30
0.0
 11
-55.99999999998468
 21
-1.592501999999993
 31
0.0
  0
LINE
  5
15F7
330
15F3
100
AcDbEntity
  8
SK2
440
 16777216
370
    -2
100
AcDbLine
 10
-50.99999999998468
 20
6.157498000000004
 30
0.0
 11
-50.99999999998468
 21
10.727498
 31
0.0
  0
LINE
  5
15F8
330
15F3
100
AcDbEntity
  8
SK2
440
 16777216
370
    -2
100
AcDbLine
 10
-50.99999999998468
 20
-6.162501999999995
 30
0.0
 11
-50.99999999998468
 21
-26.61821628571428
 31
0.0
  0
SOLID
  5
15F9
330
15F3
100
AcDbEntity
  8
SK2
440
 16777216
100
AcDbTrace
 10
-51.76166666665135
 20
6.157498000000004
 30
0.0
 11
-50.23833333331801
 21
6.157498000000004
 31
0.0
 12
-50.99999999998468
 22
1.587498000000006
 32
0.0
 13
-50.99999999998468
 23
1.587498000000006
 33
0.0
  0
SOLID
  5
15FA
330
15F3
100
AcDbEntity
  8
SK2
440
 16777216
100
AcDbTrace
 10
-51.76166666665135
 20
-6.162501999999995
 30
0.0
 11
-50.23833333331801
 21
-6.162501999999995
 31
0.0
 12
-50.99999999998468
 22
-1.592501999999995
 32
0.0
 13
-50.99999999998468
 23
-1.592501999999995
 33
0.0
  0
MTEXT
  5
15FB
330
15F3
100
AcDbEntity
  8
SK2
440
 16777216
100
AcDbMText
 10
-54.79999999998469
 20
-18.67535914285714
 30
0.0
 40
3.0
 41
0.0
 71
     5
 72
     1
  1
\A1;%%c3.18
  7
SANDVIK_STYLE
 11
0.0000000000000001
 21
1.0
 31
0.0
 73
     1
 44
1.0
  0
POINT
  5
15FC
330
15F3
100
AcDbEntity
  8
DEFPOINTS
 62
     0
440
 16777216
100
AcDbPoint
 10
-25.841
 20
1.587497999999999
 30
0.0
  0
POINT
  5
15FD
330
15F3
100
AcDbEntity
  8
DEFPOINTS
 62
     0
440
 16777216
100
AcDbPoint
 10
-25.841
 20
-1.592502000000002
 30
0.0
  0
POINT
  5
15FE
330
15F3
100
AcDbEntity
  8
DEFPOINTS
 62
     0
440
 16777216
100
AcDbPoint
 10
-50.99999999998468
 20
-1.592501999999995
 30
0.0
  0
ENDBLK
  5
15FF
330
15F3
100
AcDbEntity
  8
0
100
AcDbBlockEnd
  0
BLOCK
  5
1601
330
1600
100
AcDbEntity
  8
0
100
AcDbBlockBegin
  2
*D27
 70
     1
 10
0.0
 20
0.0
 30
0.0
  3
*D27
  1

  0
LINE
  5
1602
330
1600
100
AcDbEntity
  8
SK2
440
 16777216
370
    -2
100
AcDbLine
 10
-26.0
 20
0.0
 30
0.0
 11
-26.0
 21
95.0
 31
0.0
  0
LINE
  5
1603
330
1600
100
AcDbEntity
  8
SK2
440
 16777216
370
    -2
100
AcDbLine
 10
12.1
 20
0.0
 30
0.0
 11
12.1
 21
95.0
 31
0.0
  0
LINE
  5
1604
330
1600
100
AcDbEntity
  8
SK2
440
 16777216
370
    -2
100
AcDbLine
 10
-21.42999999999999
 20
90.0
 30
0.0
 11
7.530000000000002
 21
90.0
 31
0.0
  0
SOLID
  5
1605
330
1600
100
AcDbEntity
  8
SK2
440
 16777216
100
AcDbTrace
 10
-21.42999999999999
 20
90.76166666666669
 30
0.0
 11
-21.42999999999999
 21
89.23833333333332
 31
0.0
 12
-26.0
 22
90.0
 32
0.0
 13
-26.0
 23
90.0
 33
0.0
  0
SOLID
  5
1606
330
1600
100
AcDbEntity
  8
SK2
440
 16777216
100
AcDbTrace
 10
7.530000000000002
 20
90.76166666666669
 30
0.0
 11
7.530000000000002
 21
89.23833333333332
 31
0.0
 12
12.1
 22
90.0
 32
0.0
 13
12.1
 23
90.0
 33
0.0
  0
MTEXT
  5
1607
330
1600
100
AcDbEntity
  8
SK2
440
 16777216
100
AcDbMText
 10
-6.949999999999991
 20
93.8
 30
0.0
 40
3.0
 41
0.0
 71
     5
 72
     1
  1
\A1;38.1
  7
SANDVIK_STYLE
 73
     1
 44
1.0
  0
POINT
  5
1608
330
1600
100
AcDbEntity
  8
DEFPOINTS
 62
     0
440
 16777216
100
AcDbPoint
 10
-26.0
 20
0.0
 30
0.0
  0
POINT
  5
1609
330
1600
100
AcDbEntity
  8
DEFPOINTS
 62
     0
440
 16777216
100
AcDbPoint
 10
12.1
 20
0.0
 30
0.0
  0
POINT
  5
160A
330
1600
100
AcDbEntity
  8
DEFPOINTS
 62
     0
440
 16777216
100
AcDbPoint
 10
12.1
 20
90.0
 30
0.0
  0
ENDBLK
  5
160B
330
1600
100
AcDbEntity
  8
0
100
AcDbBlockEnd
  0
BLOCK
  5
160D
330
160C
100
AcDbEntity
  8
0
100
AcDbBlockBegin
  2
*D28
 70
     1
 10
0.0
 20
0.0
 30
0.0
  3
*D28
  1

  0
LINE
  5
160E
330
160C
100
AcDbEntity
  8
2
440
 16777216
370
    -2
100
AcDbLine
 10
12.0152
 20
1.65694821576909
 30
0.0
 11
12.0152
 21
24.98817130491938
 31
0.0
  0
LINE
  5
160F
330
160C
100
AcDbEntity
  8
2
440
 16777216
370
    -2
100
AcDbLine
 10
12.1
 20
0.0
 30
0.0
 11
12.1
 21
24.98817130491938
 31
0.0
  0
LINE
  5
1610
330
160C
100
AcDbEntity
  8
2
440
 16777216
370
    -2
100
AcDbLine
 10
7.445200000000001
 20
19.98817130491937
 30
0.0
 11
2.875200000000001
 21
19.98817130491937
 31
0.0
  0
LINE
  5
1611
330
160C
100
AcDbEntity
  8
2
440
 16777216
370
    -2
100
AcDbLine
 10
16.67
 20
19.98817130491937
 30
0.0
 11
46.83999999999999
 21
19.98817130491937
 31
0.0
  0
SOLID
  5
1612
330
160C
100
AcDbEntity
  8
2
440
 16777216
100
AcDbTrace
 10
7.445200000000001
 20
20.74983797158604
 30
0.0
 11
7.445200000000001
 21
19.22650463825271
 31
0.0
 12
12.0152
 22
19.98817130491937
 32
0.0
 13
12.0152
 23
19.98817130491937
 33
0.0
  0
SOLID
  5
1613
330
160C
100
AcDbEntity
  8
2
440
 16777216
100
AcDbTrace
 10
16.67
 20
20.74983797158604
 30
0.0
 11
16.67
 21
19.22650463825271
 31
0.0
 12
12.1
 22
19.98817130491937
 32
0.0
 13
12.1
 23
19.98817130491937
 33
0.0
  0
MTEXT
  5
1614
330
160C
100
AcDbEntity
  8
2
440
 16777216
100
AcDbMText
 10
34.03999999999999
 20
23.78817130491937
 30
0.0
 40
3.0
 41
0.0
 71
     5
 72
     1
  1
\A1;0.081x45°
  7
SANDVIK_STYLE
 73
     1
 44
1.0
  0
POINT
  5
1615
330
160C
100
AcDbEntity
  8
DEFPOINTS
 62
     0
440
 16777216
100
AcDbPoint
 10
12.0152
 20
1.65694821576909
 30
0.0
  0
POINT
  5
1616
330
160C
100
AcDbEntity
  8
DEFPOINTS
 62
     0
440
 16777216
100
AcDbPoint
 10
12.1
 20
0.0
 30
0.0
  0
POINT
  5
1617
330
160C
100
AcDbEntity
  8
DEFPOINTS
 62
     0
440
 16777216
100
AcDbPoint
 10
12.1
 20
19.98817130491937
 30
0.0
  0
ENDBLK
  5
1618
330
160C
100
AcDbEntity
  8
0
100
AcDbBlockEnd
  0
BLOCK
  5
16AC
330
161B
100
AcDbEntity
  8
0
100
AcDbBlockBegin
  2
A$C6C7C31C0
 70
     0
 10
0.0
 20
0.0
 30
0.0
  3
A$C6C7C31C0
  1

  0
LINE
  5
161C
330
161B
100
AcDbEntity
  8
SK4
100
AcDbLine
 10
15.40313462659208
 20
-60.43802737875506
 30
0.0
 11
55.40313462659207
 21
-60.43802737875506
 31
0.0
  0
LINE
  5
161D
330
161B
100
AcDbEntity
  8
4
100
AcDbLine
 10
53.40313462659207
 20
-60.43802737875506
 30
0.0
 11
69.40313462659208
 21
-60.43802737875506
 31
0.0
  0
LINE
  5
161E
330
161B
100
AcDbEntity
  8
SK4
100
AcDbLine
 10
53.40313462659207
 20
-60.43802737875506
 30
0.0
 11
69.40313462659208
 21
-60.43802737875506
 31
0.0
  0
LINE
  5
161F
330
161B
100
AcDbEntity
  8
SK1
100
AcDbLine
 10
53.40313462659207
 20
-58.85052937875506
 30
0.0
 11
27.56213462659208
 21
-58.85052937875506
 31
0.0
  0
LINE
  5
1620
330
161B
100
AcDbEntity
  8
SK1
100
AcDbLine
 10
27.56213462659208
 20
-58.85052937875506
 30
0.0
 11
27.40313462659208
 21
-59.00952937875508
 31
0.0
  0
LINE
  5
1621
330
161B
100
AcDbEntity
  8
SK1
100
AcDbLine
 10
27.40313462659208
 20
-59.00952937875508
 30
0.0
 11
27.40313462659208
 21
-59.01095206935925
 31
0.0
  0
LINE
  5
1622
330
161B
100
AcDbEntity
  8
SK1
100
AcDbLine
 10
27.40313462659208
 20
-59.01095206935925
 30
0.0
 11
27.40313462659208
 21
-59.13792816087514
 31
0.0
  0
LINE
  5
1623
330
161B
100
AcDbEntity
  8
SK1
100
AcDbLine
 10
27.40313462659208
 20
-59.13792816087514
 30
0.0
 11
27.40313462659208
 21
-61.87152937875506
 31
0.0
  0
LINE
  5
1624
330
161B
100
AcDbEntity
  8
SK1
100
AcDbLine
 10
27.56213462659208
 20
-58.85052937875506
 30
0.0
 11
27.56213462659208
 21
-62.03052937565956
 31
0.0
  0
LINE
  5
1625
330
161B
100
AcDbEntity
  8
SK1
100
AcDbLine
 10
53.40313462659207
 20
-62.03052937875506
 30
0.0
 11
27.56213462659208
 21
-62.03052937875506
 31
0.0
  0
LINE
  5
1626
330
161B
100
AcDbEntity
  8
SK1
100
AcDbLine
 10
27.56213462659207
 20
-62.03052937875506
 30
0.0
 11
27.40313462659208
 21
-61.87152937875506
 31
0.0
  0
DIMENSION
  5
1627
330
161B
100
AcDbEntity
  8
2
100
AcDbDimension
  2
*D23
 10
79.66313462659207
 20
-62.02502737875508
 30
0.0
 11
75.8631346265921
 21
-79.10788452161219
 31
0.0
 12
53.40313462659207
 22
-60.43802737875506
 32
0.0
  1
%%c3.18
 71
     5
 42
3.173999999999995
  3
SANDVIK_DIM
100
AcDbAlignedDimension
 13
65.50313462659207
 23
-58.85102737875507
 33
0.0
 14
65.42147456326119
 24
-62.02502737875506
 34
0.0
 50
90.0
100
AcDbRotatedDimension
1001
ACAD
1000
DSTYLE
1002
{
1070
   279
1070
     0
1070
   140
1040
3.0
1070
    40
1040
1.0
1002
}
  0
DIMENSION
  5
1628
330
161B
100
AcDbEntity
  8
2
100
AcDbDimension
  2
*D24
 10
65.50313462659207
 20
7.572001276519187
 30
0.0
 11
80.58599176944921
 21
7.572001276519187
 31
0.0
 12
53.40313462659207
 22
-60.43802737875506
 32
0.0
 70
   128
  1
<>
 71
     5
 42
12.1
  3
SANDVIK_DIM
100
AcDbAlignedDimension
 13
53.40313462659207
 23
-60.43802737875506
 33
0.0
 14
65.50313462659207
 24
-60.43802737875506
 34
0.0
100
AcDbRotatedDimension
1001
ACAD
1000
DSTYLE
1002
{
1070
    40
1040
1.0
1070
   140
1040
3.0
1070
   279
1070
     0
1002
}
  0
DIMENSION
  5
1629
330
161B
100
AcDbEntity
  8
2
100
AcDbDimension
  2
*D25
 10
57.56813462659208
 20
-15.28566313041105
 30
0.0
 11
81.58599176944923
 21
-15.28566313041105
 31
0.0
 12
53.40313462659207
 22
-60.43802737875506
 32
0.0
 70
   128
  1
<>
 71
     5
 42
7.934999999999997
  3
SANDVIK_DIM
100
AcDbAlignedDimension
 13
65.50313462659207
 23
-58.78566313041106
 33
0.0
 14
57.56813462659208
 24
-58.74723687254254
 34
0.0
100
AcDbRotatedDimension
1001
ACAD
1000
DSTYLE
1002
{
1070
   279
1070
     0
1070
   140
1040
3.0
1070
    40
1040
1.0
1002
}
  0
DIMENSION
  5
162A
330
161B
100
AcDbEntity
  8
SK2
100
AcDbDimension
  2
*D26
 10
2.403134626607395
 20
-62.03052937875506
 30
0.0
 11
-1.396865373392607
 21
-79.11338652161219
 31
0.0
 12
53.40313462659207
 22
-60.43802737875506
 32
0.0
  1
%%c<>
 71
     5
 42
3.180000000000001
  3
SANDVIK_DIM
100
AcDbAlignedDimension
 13
27.56213462659208
 23
-58.85052937875506
 33
0.0
 14
27.56213462659208
 24
-62.03052937875508
 34
0.0
 50
90.00000000029229
100
AcDbRotatedDimension
1001
ACAD
1000
DSTYLE
1002
{
1070
   279
1070
     0
1070
   140
1040
3.0
1070
    40
1040
1.0
1002
}
  0
DIMENSION
  5
162B
330
161B
100
AcDbEntity
  8
SK2
100
AcDbDimension
  2
*D27
 10
65.50313462659207
 20
29.56197262124494
 30
0.0
 11
46.45313462659209
 21
33.36197262124493
 31
0.0
 12
53.40313462659207
 22
-60.43802737875506
 32
0.0
  1
<>
 71
     5
 42
38.1
  3
SANDVIK_DIM
100
AcDbAlignedDimension
 13
27.40313462659208
 23
-60.43802737875506
 33
0.0
 14
65.50313462659207
 24
-60.43802737875506
 34
0.0
100
AcDbRotatedDimension
1001
ACAD
1000
DSTYLE
1002
{
1070
   279
1070
     0
1070
   140
1040
3.0
1070
    40
1040
1.0
1002
}
  0
DIMENSION
  5
162C
330
161B
100
AcDbEntity
  8
2
100
AcDbDimension
  2
*D28
 10
65.50313462659207
 20
-40.44985607383567
 30
0.0
 11
87.44313462659206
 21
-36.64985607383569
 31
0.0
 12
53.40313462659207
 22
-60.43802737875506
 32
0.0
  1
0.081x45°
 71
     5
 42
0.0847999999999996
  3
SANDVIK_DIM
100
AcDbAlignedDimension
 13
65.41833462659207
 23
-58.78107916298597
 33
0.0
 14
65.50313462659207
 24
-60.43802737875506
 34
0.0
100
AcDbRotatedDimension
1001
ACAD
1000
DSTYLE
1002
{
1070
    40
1040
1.0
1070
   140
1040
3.0
1070
   279
1070
     0
1002
}
  0
LINE
  5
162D
330
161B
100
AcDbEntity
  8
1
100
AcDbLine
 10
54.28833462659207
 20
-58.85052937875506
 30
0.0
 11
53.40313462659207
 21
-58.85052937875506
 31
0.0
  0
LINE
  5
162E
330
161B
100
AcDbEntity
  8
1
100
AcDbLine
 10
54.28833462659207
 20
-58.85102737875507
 30
0.0
 11
56.51196798799206
 21
-58.85102737875507
 31
0.0
  0
LINE
  5
162F
330
161B
100
AcDbEntity
  8
1
100
AcDbLine
 10
54.28833462659207
 20
-62.03001156185557
 30
0.0
 11
53.40313462659207
 21
-62.03052937875506
 31
0.0
  0
LINE
  5
1630
330
161B
100
AcDbEntity
  8
1
100
AcDbLine
 10
54.28833462659207
 20
-62.03250365340585
 30
0.0
 11
57.57047312250449
 21
-62.03001156185557
 31
0.0
  0
LINE
  5
1631
330
161B
100
AcDbEntity
  8
1
100
AcDbLine
 10
56.51196798799206
 20
-59.84565017800449
 30
0.0
 11
57.57030131799208
 21
-60.38808639931636
 31
0.0
  0
LINE
  5
1632
330
161B
100
AcDbEntity
  8
1
100
AcDbLine
 10
57.57030131799208
 20
-60.40796015208889
 30
0.0
 11
56.51196798799206
 21
-60.07924379313021
 31
0.0
  0
ARC
  5
1633
330
161B
100
AcDbEntity
  8
1
100
AcDbCircle
 10
59.85051403224968
 20
-67.24201838796588
 30
0.0
 40
8.465354433384712
100
AcDbArc
 50
105.6262328438791
 51
109.8963727964559
  0
LINE
  5
1634
330
161B
100
AcDbEntity
  8
1
100
AcDbLine
 10
56.51196798799206
 20
-61.87185736911754
 30
0.0
 11
56.77657223003017
 21
-61.92614600382803
 31
0.0
  0
LINE
  5
1635
330
161B
100
AcDbEntity
  8
1
100
AcDbLine
 10
56.77657223003017
 20
-61.92614600382803
 30
0.0
 11
57.04115387145082
 21
-61.96898934902092
 31
0.0
  0
LINE
  5
1636
330
161B
100
AcDbEntity
  8
1
100
AcDbLine
 10
57.04115387145082
 20
-61.96898934902092
 30
0.0
 11
57.30572792158017
 21
-62.00005485953639
 31
0.0
  0
LINE
  5
1637
330
161B
100
AcDbEntity
  8
1
100
AcDbLine
 10
57.30572792158017
 20
-62.00005485953639
 30
0.0
 11
57.57030131799208
 21
-62.01910827308346
 31
0.0
  0
LINE
  5
1638
330
161B
100
AcDbEntity
  8
1
100
AcDbLine
 10
56.51196798799206
 20
-59.84565017800449
 30
0.0
 11
56.51196798799206
 21
-61.87185736911754
 31
0.0
  0
LINE
  5
1639
330
161B
100
AcDbEntity
  8
1
100
AcDbLine
 10
57.57030131799208
 20
-59.52001761547314
 30
0.0
 11
57.57030131799208
 21
-60.38808639931636
 31
0.0
  0
LINE
  5
163A
330
161B
100
AcDbEntity
  8
1
100
AcDbLine
 10
56.51196798799206
 20
-59.13085389991683
 30
0.0
 11
57.04115399052023
 21
-59.3080829469306
 31
0.0
  0
LINE
  5
163B
330
161B
100
AcDbEntity
  8
1
100
AcDbLine
 10
57.04115399052023
 20
-59.3080829469306
 30
0.0
 11
57.57030131799208
 21
-59.52001761547314
 31
0.0
  0
LINE
  5
163C
330
161B
100
AcDbEntity
  8
1
100
AcDbLine
 10
56.51196798799206
 20
-58.85102737875507
 30
0.0
 11
56.51196798799206
 21
-58.8510884378499
 31
0.0
  0
LINE
  5
163D
330
161B
100
AcDbEntity
  8
1
100
AcDbLine
 10
56.51196798799206
 20
-58.8510884378499
 30
0.0
 11
56.51196798799206
 21
-58.86947084332707
 31
0.0
  0
LINE
  5
163E
330
161B
100
AcDbEntity
  8
1
100
AcDbLine
 10
56.51196798799206
 20
-58.86947084332707
 30
0.0
 11
56.51196798799206
 21
-59.13085389991683
 31
0.0
  0
LINE
  5
163F
330
161B
100
AcDbEntity
  8
1
100
AcDbLine
 10
57.57030131799208
 20
-59.52001761547314
 30
0.0
 11
57.57030131799208
 21
-59.08962670304582
 31
0.0
  0
LINE
  5
1640
330
161B
100
AcDbEntity
  8
1
100
AcDbLine
 10
57.57030131799208
 20
-60.40796015208889
 30
0.0
 11
57.57030131799208
 21
-60.38808639931636
 31
0.0
  0
LINE
  5
1641
330
161B
100
AcDbEntity
  8
1
100
AcDbLine
 10
57.57030131799208
 20
-62.01910827308346
 30
0.0
 11
57.57030131799208
 21
-60.40796015208889
 31
0.0
  0
LINE
  5
1642
330
161B
100
AcDbEntity
  8
1
100
AcDbLine
 10
57.57030131799208
 20
-62.01910827308346
 30
0.0
 11
57.57030131799208
 21
-62.0260273669561
 31
0.0
  0
LINE
  5
1643
330
161B
100
AcDbEntity
  8
1
 62
     1
100
AcDbLine
 10
57.57030131799208
 20
-60.38808639931636
 30
0.0
 11
57.66613173077395
 21
-60.43852737375423
 31
0.0
  0
LINE
  5
1644
330
161B
100
AcDbEntity
  8
1
 62
     1
100
AcDbLine
 10
57.57030131799208
 20
-59.52001761547311
 30
0.0
 11
57.73926404176425
 21
-59.5939700372104
 31
0.0
  0
LINE
  5
1645
330
161B
100
AcDbEntity
  8
1
 62
     1
100
AcDbLine
 10
65.50780129299207
 20
-60.26611608908806
 30
0.0
 11
65.42313462659206
 21
-60.26859828788143
 31
0.0
  0
LINE
  5
1646
330
161B
100
AcDbEntity
  8
1
 62
     1
100
AcDbLine
 10
65.42313462659207
 20
-60.26859828788143
 30
0.0
 11
65.42313462659206
 21
-61.16874650887321
 31
0.0
  0
LINE
  5
1647
330
161B
100
AcDbEntity
  8
1
 62
     1
100
AcDbLine
 10
65.50780129299207
 20
-61.16699040090503
 30
0.0
 11
65.42313462659206
 21
-61.16874650887321
 31
0.0
  0
LINE
  5
1648
330
161B
100
AcDbEntity
  8
1
 62
     1
100
AcDbLine
 10
65.5078012929921
 20
-60.26611608908806
 30
0.0
 11
65.5078012929921
 21
-61.16699040090503
 31
0.0
  0
LINE
  5
1649
330
161B
100
AcDbEntity
  8
1
 62
     1
100
AcDbLine
 10
65.5078012929921
 20
-58.93592543552919
 30
0.0
 11
65.42313462659207
 21
-58.85267942856374
 31
0.0
  0
LINE
  5
164A
330
161B
100
AcDbEntity
  8
1
 62
     1
100
AcDbLine
 10
65.5078012929921
 20
-59.47664786389683
 30
0.0
 11
65.5078012929921
 21
-58.93592543552919
 31
0.0
  0
LINE
  5
164B
330
161B
100
AcDbEntity
  8
1
 62
     1
100
AcDbLine
 10
65.42313462659207
 20
-60.26859828788143
 30
0.0
 11
64.05493268381929
 21
-59.59397092253553
 31
0.0
  0
LINE
  5
164C
330
161B
100
AcDbEntity
  8
1
 62
     1
100
AcDbLine
 10
65.5078012929921
 20
-59.47664786389683
 30
0.0
 11
65.5078012929921
 21
-60.26611608908806
 31
0.0
  0
LINE
  5
164D
330
161B
100
AcDbEntity
  8
1
 62
     1
100
AcDbLine
 10
65.50780129299221
 20
-59.47664786389683
 30
0.0
 11
65.14458423106948
 21
-59.48564916087296
 31
0.0
  0
LINE
  5
164E
330
161B
100
AcDbEntity
  8
1
 62
     1
100
AcDbLine
 10
65.14458423106948
 20
-59.48564916087296
 30
0.0
 11
64.78136716914676
 21
-59.50845322717079
 31
0.0
  0
LINE
  5
164F
330
161B
100
AcDbEntity
  8
1
 62
     1
100
AcDbLine
 10
64.78136716914676
 20
-59.50845322717079
 30
0.0
 11
64.41815010722402
 21
-59.54473613530037
 31
0.0
  0
LINE
  5
1650
330
161B
100
AcDbEntity
  8
1
 62
     1
100
AcDbLine
 10
64.41815010722402
 20
-59.54473613530037
 30
0.0
 11
64.05493304530128
 21
-59.59397011159047
 31
0.0
  0
LINE
  5
1651
330
161B
100
AcDbEntity
  8
1
 62
     1
100
AcDbLine
 10
65.5078012929921
 20
-61.81763160911619
 30
0.0
 11
65.42313462659207
 21
-61.89040824731507
 31
0.0
  0
LINE
  5
1652
330
161B
100
AcDbEntity
  8
1
 62
     1
100
AcDbLine
 10
65.5078012929921
 20
-61.16699040090503
 30
0.0
 11
65.5078012929921
 21
-61.8176316091162
 31
0.0
  0
LINE
  5
1653
330
161B
100
AcDbEntity
  8
1
 62
     1
100
AcDbLine
 10
57.57030131799208
 20
-62.01910827308346
 30
0.0
 11
57.57030131799208
 21
-60.40796015208889
 31
0.0
  0
ARC
  5
1654
330
161B
100
AcDbEntity
  8
1
 62
     1
100
AcDbCircle
 10
57.85216362777164
 20
-56.28220495465583
 30
0.0
 40
5.743823142313337
100
AcDbArc
 50
267.1872377459691
 51
269.9967994595055
  0
LINE
  5
1655
330
161B
100
AcDbEntity
  8
1
 62
     1
100
AcDbLine
 10
57.85184277802668
 20
-62.02602736769852
 30
0.0
 11
57.85194637446882
 21
-62.02602736863472
 31
0.0
  0
LINE
  5
1656
330
161B
100
AcDbEntity
  8
1
 62
     1
100
AcDbLine
 10
57.57030131799208
 20
-60.40796015208889
 30
0.0
 11
57.57030131799208
 21
-60.38808639931636
 31
0.0
  0
LINE
  5
1657
330
161B
100
AcDbEntity
  8
1
 62
     1
100
AcDbLine
 10
57.57030131799208
 20
-59.08962670304582
 30
0.0
 11
57.98899314496403
 21
-58.98676252076122
 31
0.0
  0
LINE
  5
1658
330
161B
100
AcDbEntity
  8
1
 62
     1
100
AcDbLine
 10
57.98899314496403
 20
-58.98676252076122
 30
0.0
 11
58.40767802715792
 21
-58.9118419902576
 31
0.0
  0
LINE
  5
1659
330
161B
100
AcDbEntity
  8
1
 62
     1
100
AcDbLine
 10
58.40767802715792
 20
-58.9118419902576
 30
0.0
 11
58.61702197672664
 21
-58.88533174495137
 31
0.0
  0
LINE
  5
165A
330
161B
100
AcDbEntity
  8
1
 62
     1
100
AcDbLine
 10
58.61702197672664
 20
-58.88533174495137
 30
0.0
 11
58.82636946297864
 21
-58.86630411583428
 31
0.0
  0
LINE
  5
165B
330
161B
100
AcDbEntity
  8
1
 62
     1
100
AcDbLine
 10
58.82636946297864
 20
-58.86630411583428
 30
0.0
 11
59.03571299270833
 21
-58.85485137618768
 31
0.0
  0
LINE
  5
165C
330
161B
100
AcDbEntity
  8
1
 62
     1
100
AcDbLine
 10
59.03571299270833
 20
-58.85485137618768
 30
0.0
 11
59.24504903967086
 21
-58.85102737875507
 31
0.0
  0
LINE
  5
165D
330
161B
100
AcDbEntity
  8
1
 62
     1
100
AcDbLine
 10
59.24504903967086
 20
-58.85102737875507
 30
0.0
 11
61.00978085729032
 21
-58.85102737875507
 31
0.0
  0
LINE
  5
165E
330
161B
100
AcDbEntity
  8
1
 62
     1
100
AcDbLine
 10
65.42313462659207
 20
-61.16874650887321
 30
0.0
 11
63.9818007461149
 21
-60.43852737376544
 31
0.0
  0
LINE
  5
165F
330
161B
100
AcDbEntity
  8
1
 62
     1
100
AcDbLine
 10
57.57030131799208
 20
-59.52001761547314
 30
0.0
 11
57.57030131799208
 21
-59.08962670304582
 31
0.0
  0
LINE
  5
1660
330
161B
100
AcDbEntity
  8
1
 62
     1
100
AcDbLine
 10
57.57030131799208
 20
-62.01910827308346
 30
0.0
 11
57.57047312250449
 21
-62.03001156185557
 31
0.0
  0
LINE
  5
1661
330
161B
100
AcDbEntity
  8
1
 62
     1
100
AcDbLine
 10
57.57030131799208
 20
-59.52001761547314
 30
0.0
 11
57.57030131799208
 21
-60.38808639931636
 31
0.0
  0
LINE
  5
1662
330
161B
100
AcDbEntity
  8
1
 62
     1
100
AcDbLine
 10
64.16761490366309
 20
-62.02602736865206
 30
0.0
 11
64.48149981236048
 21
-62.01743368026853
 31
0.0
  0
LINE
  5
1663
330
161B
100
AcDbEntity
  8
1
 62
     1
100
AcDbLine
 10
64.48149981236048
 20
-62.01743368026853
 30
0.0
 11
64.79537319528076
 21
-61.9917503126333
 31
0.0
  0
LINE
  5
1664
330
161B
100
AcDbEntity
  8
1
 62
     1
100
AcDbLine
 10
64.79537319528076
 20
-61.9917503126333
 30
0.0
 11
65.10924715093465
 21
-61.94925597092559
 31
0.0
  0
LINE
  5
1665
330
161B
100
AcDbEntity
  8
1
 62
     1
100
AcDbLine
 10
65.10924715093465
 20
-61.94925597092559
 30
0.0
 11
65.42313462659207
 21
-61.89040824731507
 31
0.0
  0
LINE
  5
1666
330
161B
100
AcDbEntity
  8
1
 62
     1
100
AcDbLine
 10
62.40288352980694
 20
-62.02602736875507
 30
0.0
 11
64.16761490366309
 21
-62.02602736875507
 31
0.0
  0
LINE
  5
1667
330
161B
100
AcDbEntity
  8
1
 62
     1
100
AcDbLine
 10
63.28524934490751
 20
-59.28194884595747
 30
0.0
 11
63.81971065303342
 21
-59.10834348555265
 31
0.0
  0
LINE
  5
1668
330
161B
100
AcDbEntity
  8
1
 62
     1
100
AcDbLine
 10
63.81971065303342
 20
-59.10834348555265
 30
0.0
 11
64.08696073451007
 21
-59.03687373295563
 31
0.0
  0
LINE
  5
1669
330
161B
100
AcDbEntity
  8
1
 62
     1
100
AcDbLine
 10
64.08696073451007
 20
-59.03687373295563
 30
0.0
 11
64.35418926721232
 21
-58.97641156053254
 31
0.0
  0
LINE
  5
166A
330
161B
100
AcDbEntity
  8
1
 62
     1
100
AcDbLine
 10
64.35418926721232
 20
-58.97641156053254
 30
0.0
 11
64.62142215984531
 21
-58.92742051258693
 31
0.0
  0
LINE
  5
166B
330
161B
100
AcDbEntity
  8
1
 62
     1
100
AcDbLine
 10
64.62142215984531
 20
-58.92742051258693
 30
0.0
 11
64.88867065483347
 21
-58.89028975311042
 31
0.0
  0
LINE
  5
166C
330
161B
100
AcDbEntity
  8
1
 62
     1
100
AcDbLine
 10
64.88867065483347
 20
-58.89028975311042
 30
0.0
 11
65.15589561976414
 21
-58.86531313084393
 31
0.0
  0
LINE
  5
166D
330
161B
100
AcDbEntity
  8
1
 62
     1
100
AcDbLine
 10
65.15589561976414
 20
-58.86531313084393
 30
0.0
 11
65.42313462659207
 21
-58.85267942856374
 31
0.0
  0
LINE
  5
166E
330
161B
100
AcDbEntity
  8
1
 62
     1
100
AcDbLine
 10
64.05493268381929
 20
-59.59397092253553
 30
0.0
 11
63.67428664705538
 21
-59.43146255414543
 31
0.0
  0
LINE
  5
166F
330
161B
100
AcDbEntity
  8
1
 62
     1
100
AcDbLine
 10
63.67428664705538
 20
-59.43146255414543
 30
0.0
 11
63.29363894815625
 21
-59.28497860817731
 31
0.0
  0
LINE
  5
1670
330
161B
100
AcDbEntity
  8
1
 62
     1
100
AcDbLine
 10
63.29363894815625
 20
-59.28497860817731
 30
0.0
 11
62.91298888410873
 21
-59.15685059304138
 31
0.0
  0
LINE
  5
1671
330
161B
100
AcDbEntity
  8
1
 62
     1
100
AcDbLine
 10
62.91298888410873
 20
-59.15685059304138
 30
0.0
 11
62.53233704920933
 21
-59.04911773258696
 31
0.0
  0
LINE
  5
1672
330
161B
100
AcDbEntity
  8
1
 62
     1
100
AcDbLine
 10
62.53233704920933
 20
-59.04911773258696
 30
0.0
 11
62.1516873666565
 21
-58.96349546709172
 31
0.0
  0
LINE
  5
1673
330
161B
100
AcDbEntity
  8
1
 62
     1
100
AcDbLine
 10
62.1516873666565
 20
-58.96349546709172
 30
0.0
 11
61.77104006304162
 21
-58.90134581109054
 31
0.0
  0
LINE
  5
1674
330
161B
100
AcDbEntity
  8
1
 62
     1
100
AcDbLine
 10
61.77104006304162
 20
-58.90134581109054
 30
0.0
 11
61.39039430223874
 21
-58.86365734896415
 31
0.0
  0
LINE
  5
1675
330
161B
100
AcDbEntity
  8
1
 62
     1
100
AcDbLine
 10
61.39039430223874
 20
-58.86365734896415
 30
0.0
 11
61.00978085729032
 21
-58.85102737875507
 31
0.0
  0
LINE
  5
1676
330
161B
100
AcDbEntity
  8
1
 62
     1
100
AcDbLine
 10
57.73926404176425
 20
-59.5939700372104
 30
0.0
 11
60.95337224377928
 21
-61.20642140657462
 31
0.0
  0
LINE
  5
1677
330
161B
100
AcDbEntity
  8
1
 62
     1
100
AcDbLine
 10
60.95337224377928
 20
-61.20642140657462
 30
0.0
 11
61.35515486572715
 21
-61.38419315062169
 31
0.0
  0
LINE
  5
1678
330
161B
100
AcDbEntity
  8
1
 62
     1
100
AcDbLine
 10
61.35515486572715
 20
-61.38419315062169
 30
0.0
 11
61.7569376161339
 21
-61.54520126043642
 31
0.0
  0
LINE
  5
1679
330
161B
100
AcDbEntity
  8
1
 62
     1
100
AcDbLine
 10
61.7569376161339
 20
-61.54520126043642
 30
0.0
 11
62.15872051805606
 21
-61.6865918504196
 31
0.0
  0
LINE
  5
167A
330
161B
100
AcDbEntity
  8
1
 62
     1
100
AcDbLine
 10
62.15872051805606
 20
-61.6865918504196
 30
0.0
 11
62.56050295925771
 21
-61.80585937358711
 31
0.0
  0
LINE
  5
167B
330
161B
100
AcDbEntity
  8
1
 62
     1
100
AcDbLine
 10
62.56050295925771
 20
-61.80585937358711
 30
0.0
 11
62.96228538999397
 21
-61.90088908582993
 31
0.0
  0
LINE
  5
167C
330
161B
100
AcDbEntity
  8
1
 62
     1
100
AcDbLine
 10
62.96228538999397
 20
-61.90088908582993
 30
0.0
 11
63.36406812504353
 21
-61.9699963516113
 31
0.0
  0
LINE
  5
167D
330
161B
100
AcDbEntity
  8
1
 62
     1
100
AcDbLine
 10
63.36406812504353
 20
-61.9699963516113
 30
0.0
 11
63.76585082355309
 21
-62.0119564831159
 31
0.0
  0
LINE
  5
167E
330
161B
100
AcDbEntity
  8
1
 62
     1
100
AcDbLine
 10
63.76585082355309
 20
-62.0119564831159
 30
0.0
 11
64.16761490366309
 21
-62.02602736865206
 31
0.0
  0
LINE
  5
167F
330
161B
100
AcDbEntity
  8
1
 62
     1
100
AcDbLine
 10
57.66613173077395
 20
-60.43852737375423
 30
0.0
 11
58.85032516032218
 21
-61.04603945188575
 31
0.0
  0
LINE
  5
1680
330
161B
100
AcDbEntity
  8
1
 62
     1
100
AcDbLine
 10
58.85032516032218
 20
-61.04603945188575
 30
0.0
 11
59.44241025577422
 21
-61.32049331123814
 31
0.0
  0
LINE
  5
1681
330
161B
100
AcDbEntity
  8
1
 62
     1
100
AcDbLine
 10
59.44241025577422
 20
-61.32049331123814
 30
0.0
 11
60.03451651492547
 21
-61.56106122324452
 31
0.0
  0
LINE
  5
1682
330
161B
100
AcDbEntity
  8
1
 62
     1
100
AcDbLine
 10
60.03451651492547
 20
-61.56106122324452
 30
0.0
 11
60.33055651947995
 21
-61.66568100737276
 31
0.0
  0
LINE
  5
1683
330
161B
100
AcDbEntity
  8
1
 62
     1
100
AcDbLine
 10
60.33055651947995
 20
-61.66568100737276
 30
0.0
 11
60.62661173792719
 21
-61.75848835129034
 31
0.0
  0
LINE
  5
1684
330
161B
100
AcDbEntity
  8
1
 62
     1
100
AcDbLine
 10
60.62661173792719
 20
-61.75848835129034
 30
0.0
 11
60.92266623655825
 21
-61.83858051145561
 31
0.0
  0
LINE
  5
1685
330
161B
100
AcDbEntity
  8
1
 62
     1
100
AcDbLine
 10
60.92266623655825
 20
-61.83858051145561
 30
0.0
 11
61.21870609791972
 21
-61.90518636153538
 31
0.0
  0
LINE
  5
1686
330
161B
100
AcDbEntity
  8
1
 62
     1
100
AcDbLine
 10
61.21870609791972
 20
-61.90518636153538
 30
0.0
 11
61.51475121896284
 21
-61.95767101202847
 31
0.0
  0
LINE
  5
1687
330
161B
100
AcDbEntity
  8
1
 62
     1
100
AcDbLine
 10
61.51475121896284
 20
-61.95767101202847
 30
0.0
 11
61.81081211419385
 21
-61.99552579741617
 31
0.0
  0
LINE
  5
1688
330
161B
100
AcDbEntity
  8
1
 62
     1
100
AcDbLine
 10
61.81081211419385
 20
-61.99552579741617
 30
0.0
 11
62.10685663028025
 21
-62.01838214120087
 31
0.0
  0
LINE
  5
1689
330
161B
100
AcDbEntity
  8
1
 62
     1
100
AcDbLine
 10
62.10685663028025
 20
-62.01838214120087
 30
0.0
 11
62.40288352980692
 21
-62.02602736875061
 31
0.0
  0
LINE
  5
168A
330
161B
100
AcDbEntity
  8
1
 62
     1
100
AcDbLine
 10
57.66613173077356
 20
-60.43852737375506
 30
0.0
 11
57.57030131799208
 21
-60.40796015208889
 31
0.0
  0
LINE
  5
168B
330
161B
100
AcDbEntity
  8
1
 62
     1
100
AcDbLine
 10
57.85194637446883
 20
-62.02602736863472
 30
0.0
 11
58.13638116361943
 21
-62.01896871022055
 31
0.0
  0
LINE
  5
168C
330
161B
100
AcDbEntity
  8
1
 62
     1
100
AcDbLine
 10
58.13638116361943
 20
-62.01896871022055
 30
0.0
 11
58.42080539287739
 21
-61.99786245951884
 31
0.0
  0
LINE
  5
168D
330
161B
100
AcDbEntity
  8
1
 62
     1
100
AcDbLine
 10
58.42080539287739
 20
-61.99786245951884
 30
0.0
 11
58.70524583618891
 21
-61.96289303707621
 31
0.0
  0
LINE
  5
168E
330
161B
100
AcDbEntity
  8
1
 62
     1
100
AcDbLine
 10
58.70524583618891
 20
-61.96289303707621
 30
0.0
 11
58.98968557755854
 21
-61.91436796351824
 31
0.0
  0
LINE
  5
168F
330
161B
100
AcDbEntity
  8
1
 62
     1
100
AcDbLine
 10
58.98968557755854
 20
-61.91436796351824
 30
0.0
 11
59.2741096047056
 21
-61.85272655847839
 31
0.0
  0
LINE
  5
1690
330
161B
100
AcDbEntity
  8
1
 62
     1
100
AcDbLine
 10
59.2741096047056
 20
-61.85272655847839
 30
0.0
 11
59.55854524801574
 21
-61.77851164134857
 31
0.0
  0
LINE
  5
1691
330
161B
100
AcDbEntity
  8
1
 62
     1
100
AcDbLine
 10
59.55854524801574
 20
-61.77851164134857
 30
0.0
 11
59.84298881458943
 21
-61.69237853409223
 31
0.0
  0
LINE
  5
1692
330
161B
100
AcDbEntity
  8
1
 62
     1
100
AcDbLine
 10
59.84298881458943
 20
-61.69237853409223
 30
0.0
 11
60.1274137230769
 21
-61.5951050738755
 31
0.0
  0
LINE
  5
1693
330
161B
100
AcDbEntity
  8
1
 62
     1
100
AcDbLine
 10
57.57047312250449
 20
-62.03001156185557
 30
0.0
 11
57.85194637446882
 21
-62.02602736875507
 31
0.0
  0
LINE
  5
1694
330
161B
100
AcDbEntity
  8
1
 62
     1
100
AcDbLine
 10
63.9818007461149
 20
-60.43852737376544
 30
0.0
 11
62.79760250461468
 21
-59.8310127277019
 31
0.0
  0
LINE
  5
1695
330
161B
100
AcDbEntity
  8
1
 62
     1
100
AcDbLine
 10
62.79760250461468
 20
-59.8310127277019
 30
0.0
 11
62.20551882989746
 21
-59.55656021520084
 31
0.0
  0
LINE
  5
1696
330
161B
100
AcDbEntity
  8
1
 62
     1
100
AcDbLine
 10
62.20551882989746
 20
-59.55656021520084
 30
0.0
 11
61.6134101574131
 21
-59.31599113799839
 31
0.0
  0
LINE
  5
1697
330
161B
100
AcDbEntity
  8
1
 62
     1
100
AcDbLine
 10
61.6134101574131
 20
-59.31599113799839
 30
0.0
 11
61.31737096778996
 21
-59.21137233515255
 31
0.0
  0
LINE
  5
1698
330
161B
100
AcDbEntity
  8
1
 62
     1
100
AcDbLine
 10
61.31737096778996
 20
-59.21137233515255
 30
0.0
 11
61.02132147865862
 21
-59.11856672245271
 31
0.0
  0
LINE
  5
1699
330
161B
100
AcDbEntity
  8
1
 62
     1
100
AcDbLine
 10
61.02132147865862
 20
-59.11856672245271
 30
0.0
 11
60.72526234485392
 21
-59.03847289083556
 31
0.0
  0
LINE
  5
169A
330
161B
100
AcDbEntity
  8
1
 62
     1
100
AcDbLine
 10
60.72526234485392
 20
-59.03847289083556
 30
0.0
 11
60.429220922544
 21
-58.97186735600104
 31
0.0
  0
LINE
  5
169B
330
161B
100
AcDbEntity
  8
1
 62
     1
100
AcDbLine
 10
60.429220922544
 20
-58.97186735600104
 30
0.0
 11
60.13317912003909
 21
-58.91938381621596
 31
0.0
  0
LINE
  5
169C
330
161B
100
AcDbEntity
  8
1
 62
     1
100
AcDbLine
 10
60.13317912003909
 20
-58.91938381621596
 30
0.0
 11
59.83711965952229
 21
-58.88152851336577
 31
0.0
  0
LINE
  5
169D
330
161B
100
AcDbEntity
  8
1
 62
     1
100
AcDbLine
 10
59.83711965952229
 20
-58.88152851336577
 30
0.0
 11
59.54107111314325
 21
-58.85867213201396
 31
0.0
  0
LINE
  5
169E
330
161B
100
AcDbEntity
  8
1
 62
     1
100
AcDbLine
 10
59.54107111314325
 20
-58.85867213201396
 30
0.0
 11
59.24504903967086
 21
-58.85102737875507
 31
0.0
  0
LINE
  5
169F
330
161B
100
AcDbEntity
  8
1
 62
     1
100
AcDbLine
 10
63.98180074612032
 20
-60.43852737375506
 30
0.0
 11
62.42116657041428
 21
-59.96257511215976
 31
0.0
  0
LINE
  5
16A0
330
161B
100
AcDbEntity
  8
1
 62
     1
100
AcDbLine
 10
62.42116657041428
 20
-59.96257511215976
 30
0.0
 11
61.64084948256128
 21
-59.7644876593153
 31
0.0
  0
LINE
  5
16A1
330
161B
100
AcDbEntity
  8
1
 62
     1
100
AcDbLine
 10
61.64084948256128
 20
-59.7644876593153
 30
0.0
 11
60.86053239470825
 21
-59.61128344234524
 31
0.0
  0
LINE
  5
16A2
330
161B
100
AcDbEntity
  8
1
 62
     1
100
AcDbLine
 10
60.86053239470825
 20
-59.61128344234524
 30
0.0
 11
60.47037385078176
 21
-59.55483711160232
 31
0.0
  0
LINE
  5
16A3
330
161B
100
AcDbEntity
  8
1
 62
     1
100
AcDbLine
 10
60.47037385078176
 20
-59.55483711160232
 30
0.0
 11
60.08021530685525
 21
-59.51316326918469
 31
0.0
  0
LINE
  5
16A4
330
161B
100
AcDbEntity
  8
1
 62
     1
100
AcDbLine
 10
60.08021530685525
 20
-59.51316326918469
 30
0.0
 11
59.69005676292874
 21
-59.4869588664646
 31
0.0
  0
LINE
  5
16A5
330
161B
100
AcDbEntity
  8
1
 62
     1
100
AcDbLine
 10
59.69005676292874
 20
-59.4869588664646
 30
0.0
 11
59.29989821900223
 21
-59.4766618010701
 31
0.0
  0
LINE
  5
16A6
330
161B
100
AcDbEntity
  8
1
 62
     1
100
AcDbLine
 10
59.29989821900223
 20
-59.4766618010701
 30
0.0
 11
58.90973967507571
 21
-59.48244395199506
 31
0.0
  0
LINE
  5
16A7
330
161B
100
AcDbEntity
  8
1
 62
     1
100
AcDbLine
 10
58.90973967507571
 20
-59.48244395199506
 30
0.0
 11
58.51958113114921
 21
-59.50420863445518
 31
0.0
  0
LINE
  5
16A8
330
161B
100
AcDbEntity
  8
1
 62
     1
100
AcDbLine
 10
58.51958113114921
 20
-59.50420863445518
 30
0.0
 11
58.12942258722269
 21
-59.54159222156991
 31
0.0
  0
LINE
  5
16A9
330
161B
100
AcDbEntity
  8
1
 62
     1
100
AcDbLine
 10
58.12942258722269
 20
-59.54159222156991
 30
0.0
 11
57.73926404329618
 21
-59.5939700337737
 31
0.0
  0
ENDBLK
  5
16AD
330
161B
100
AcDbEntity
  8
0
100
AcDbBlockEnd
  0
ENDSEC
  0
SECTION
  2
ENTITIES
  0
LINE
  5
3C2
330
18
100
AcDbEntity
  8
SK4
100
AcDbLine
 10
-77.48091773861394
 20
0.0000000000000014
 30
0.0
 11
0.0
 21
-0.0000000000000026
 31
0.0
  0
LINE
  5
3C3
330
18
100
AcDbEntity
  8
4
100
AcDbLine
 10
0.0
 20
0.0000000000000099
 30
0.0
 11
112.9510412462241
 21
0.0000000000000029
 31
0.0
  0
LINE
  5
3DB
330
18
100
AcDbEntity
  8
1
100
AcDbLine
 10
11.14090158370913
 20
12.69840162198524
 30
0.0
 11
0.0000000000000009
 21
12.69840162198524
 31
0.0
  0
LINE
  5
3DC
330
18
100
AcDbEntity
  8
1
100
AcDbLine
 10
25.18597586658279
 20
-12.7015324700143
 30
0.0
 11
-0.0000000000000019
 21
-12.7000819799406
 31
0.0
  0
LINE
  5
469
330
18
100
AcDbEntity
  8
SK1
100
AcDbLine
 10
-56.72797812332719
 20
12.6986314898673
 30
0.0
 11
-57.997841272314
 21
11.42876834088057
 31
0.0
  0
LINE
  5
46A
330
18
100
AcDbEntity
  8
SK1
100
AcDbLine
 10
-57.997841272314
 20
11.42876834088057
 30
0.0
 11
-57.997841272314
 21
11.41740593603361
 31
0.0
  0
LINE
  5
46B
330
18
100
AcDbEntity
  8
SK1
100
AcDbLine
 10
-57.997841272314
 20
11.41740593603361
 30
0.0
 11
-57.997841272314
 21
10.40330367554049
 31
0.0
  0
LINE
  5
46C
330
18
100
AcDbEntity
  8
SK1
100
AcDbLine
 10
-57.997841272314
 20
10.40330367554049
 30
0.0
 11
-57.997841272314
 21
-11.42876834088056
 31
0.0
  0
LINE
  5
46D
330
18
100
AcDbEntity
  8
SK1
100
AcDbLine
 10
0.0000000000000008
 20
12.69863148986729
 30
0.0
 11
-56.72797812332719
 21
12.6986314898673
 31
0.0
  0
LINE
  5
46E
330
18
100
AcDbEntity
  8
SK1
100
AcDbLine
 10
-56.72797812332719
 20
12.6986314898673
 30
0.0
 11
-56.72797812332719
 21
12.6860065955929
 31
0.0
  0
LINE
  5
46F
330
18
100
AcDbEntity
  8
SK1
100
AcDbLine
 10
-56.72797812332719
 20
12.6860065955929
 30
0.0
 11
-56.72797812332719
 21
11.55922630615609
 31
0.0
  0
LINE
  5
470
330
18
100
AcDbEntity
  8
SK1
100
AcDbLine
 10
-56.72797812332719
 20
11.55922630615609
 30
0.0
 11
-56.72797812332719
 21
-12.69863148986729
 31
0.0
  0
LINE
  5
471
330
18
100
AcDbEntity
  8
SK1
100
AcDbLine
 10
-56.72797812332719
 20
-12.69863148986729
 30
0.0
 11
-57.99784127231403
 21
-11.42876834088056
 31
0.0
  0
LINE
  5
472
330
18
100
AcDbEntity
  8
SK1
100
AcDbLine
 10
-0.0000000000000023
 20
-12.7000819799406
 30
0.0
 11
-56.72797812332719
 21
-12.69863148986729
 31
0.0
  0
DIMENSION
  5
473
330
18
100
AcDbEntity
  8
2
100
AcDbDimension
  2
*D0
 10
130.451091606002
 20
-12.70044952468043
 30
0.0
 11
126.651091606002
 21
-0.0010239513475816
 31
0.0
 70
    32
  1
%%c<>
 71
     5
 42
25.39885114666568
  3
SANDVIK_DIM
100
AcDbAlignedDimension
 13
93.73079123440438
 23
12.69840162198524
 33
0.0
 14
94.40215872768598
 24
-12.70044952468043
 34
0.0
 50
90.00000000000019
100
AcDbRotatedDimension
1001
ACAD
1000
DSTYLE
1002
{
1070
   279
1070
     0
1070
   140
1040
3.0
1070
    40
1040
1.0
1002
}
  0
DIMENSION
  5
481
330
18
100
AcDbEntity
  8
2
100
AcDbDimension
  2
*D1
 10
94.40215872768598
 20
69.79672856999366
 30
0.0
 11
47.201079363843
 21
73.59672856999366
 31
0.0
 70
    32
  1
<>
 71
     5
 42
94.40215872768598
  3
SANDVIK_DIM
100
AcDbAlignedDimension
 13
0.0
 23
0.0
 33
0.0
 14
94.40215872768598
 24
12.02224958226492
 34
0.0
100
AcDbRotatedDimension
1001
ACAD
1000
DSTYLE
1002
{
1070
    40
1040
1.0
1070
   140
1040
3.0
1070
   279
1070
     0
1002
}
  0
DIMENSION
  5
48E
330
18
100
AcDbEntity
  8
2
100
AcDbDimension
  2
*D2
 10
94.40215872768598
 20
47.37499999999999
 30
0.0
 11
62.65213646129456
 21
47.37499999999999
 31
0.0
 70
   160
  1
<>
 71
     5
 42
63.50004453278284
  3
SANDVIK_DIM
100
AcDbAlignedDimension
 13
30.90211419490314
 23
12.78975191769723
 33
0.0
 14
94.40215872768598
 24
0.0000000000000021
 34
0.0
100
AcDbRotatedDimension
1001
ACAD
1000
DSTYLE
1002
{
1070
   279
1070
     0
1070
   140
1040
3.0
1070
    40
1040
1.0
1002
}
  0
DIMENSION
  5
49B
330
18
100
AcDbEntity
  8
SK2
100
AcDbDimension
  2
*D3
 10
-91.21473670413442
 20
-12.69863148559762
 30
0.0
 11
-95.01473670413442
 21
0.0000000021348299
 31
0.0
 70
    32
  1
%%c<>
 71
     5
 42
25.39726297546494
  3
SANDVIK_DIM
100
AcDbAlignedDimension
 13
-56.72797812332719
 23
12.6986314898673
 33
0.0
 14
-56.72814277205396
 24
-12.69863148559763
 34
0.0
 50
90.00000000029242
100
AcDbRotatedDimension
1001
ACAD
1000
DSTYLE
1002
{
1070
   279
1070
     0
1070
   140
1040
3.0
1070
    40
1040
1.0
1002
}
  0
DIMENSION
  5
4A9
330
18
100
AcDbEntity
  8
SK2
100
AcDbDimension
  2
*D4
 10
94.40215872768598
 20
90.0
 30
0.0
 11
18.202158727686
 21
93.8
 31
0.0
 70
    32
  1
<>
 71
     5
 42
152.4
  3
SANDVIK_DIM
100
AcDbAlignedDimension
 13
-57.997841272314
 23
0.0000000000000018
 33
0.0
 14
94.40215872768598
 24
0.0000000000000008
 34
0.0
100
AcDbRotatedDimension
1001
ACAD
1000
DSTYLE
1002
{
1070
   279
1070
     0
1070
   140
1040
3.0
1070
    40
1040
1.0
1002
}
  0
LINE
  5
D40
330
18
100
AcDbEntity
  8
1
100
AcDbLine
 10
25.18597586658279
 20
-11.47188883774612
 30
0.0
 11
25.18590504995506
 21
-12.7015324700139
 31
0.0
  0
LINE
  5
D42
330
18
100
AcDbEntity
  8
1
100
AcDbLine
 10
30.90215872768601
 20
-8.333992621183808
 30
0.0
 11
30.90215872768601
 21
-12.7015324700139
 31
0.0
  0
LINE
  5
D44
330
18
100
AcDbEntity
  8
1
100
AcDbLine
 10
25.15240523814588
 20
12.6798894028816
 30
0.0
 11
25.16690473532021
 21
2.821201413019321
 31
0.0
  0
LINE
  5
D47
330
18
100
AcDbEntity
  8
1
100
AcDbLine
 10
30.90211419490314
 20
10.06619218630393
 30
0.0
 11
30.90215872768601
 21
8.88118851197758
 31
0.0
  0
LINE
  5
D48
330
18
100
AcDbEntity
  8
1
100
AcDbLine
 10
30.90215872768601
 20
4.961749641797814
 30
0.0
 11
30.90215872768601
 21
8.88118851197758
 31
0.0
  0
LINE
  5
D49
330
18
100
AcDbEntity
  8
1
100
AcDbLine
 10
30.90215872768597
 20
-8.333992621183808
 30
0.0
 11
30.90215872768601
 21
4.961749641797814
 31
0.0
  0
LINE
  5
D4A
330
18
100
AcDbEntity
  8
1
 62
     1
100
AcDbLine
 10
30.90211419490314
 20
10.06619218630393
 30
0.0
 11
30.90215872768601
 21
8.88118851197758
 31
0.0
  0
LINE
  5
D4E
330
18
100
AcDbEntity
  8
1
 62
     1
100
AcDbLine
 10
25.16420343851465
 20
4.657902510373558
 30
0.0
 11
33.94758388295493
 21
-0.0015673950062665
 31
0.0
  0
LINE
  5
D52
330
18
100
AcDbEntity
  8
1
 62
     1
100
AcDbLine
 10
94.40215872768598
 20
0.9928430978928904
 30
0.0
 11
94.40215872768598
 21
-6.165300929286101
 31
0.0
  0
LINE
  5
D53
330
18
100
AcDbEntity
  8
1
 62
     1
100
AcDbLine
 10
94.40215872768598
 20
-11.02891634719345
 30
0.0
 11
94.40215872768598
 21
-6.16530092928608
 31
0.0
  0
LINE
  5
D54
330
18
100
AcDbEntity
  8
1
 62
     1
100
AcDbLine
 10
30.90215872768601
 20
-8.333992621183808
 30
0.0
 11
30.90215872768601
 21
-12.7015324700139
 31
0.0
  0
LINE
  5
D5D
330
18
100
AcDbEntity
  8
1
 62
     1
100
AcDbLine
 10
25.18597586658279
 20
-11.47188883774612
 30
0.0
 11
27.02934358080483
 21
-11.88479340551782
 31
0.0
  0
LINE
  5
D5E
330
18
100
AcDbEntity
  8
1
 62
     1
100
AcDbLine
 10
27.02934358080483
 20
-11.88479340551782
 30
0.0
 11
29.81075735290899
 21
-12.33634452581601
 31
0.0
  0
LINE
  5
D5F
330
18
100
AcDbEntity
  8
1
 62
     1
100
AcDbLine
 10
29.81075735290899
 20
-12.33634452581601
 30
0.0
 11
32.59214618125702
 21
-12.60990679336601
 31
0.0
  0
LINE
  5
D60
330
18
100
AcDbEntity
  8
1
 62
     1
100
AcDbLine
 10
32.59214618125702
 20
-12.60990679336601
 30
0.0
 11
35.37349074544512
 21
-12.70153246977249
 31
0.0
  0
LINE
  5
D61
330
18
100
AcDbEntity
  8
1
 62
     1
100
AcDbLine
 10
46.06389891970994
 20
12.69839768000197
 30
0.0
 11
59.6061191983192
 21
12.69839768000197
 31
0.0
  0
LINE
  5
D62
330
18
100
AcDbEntity
  8
1
 62
     1
100
AcDbLine
 10
94.40215872768598
 20
7.694503797276598
 30
0.0
 11
94.40215872768598
 21
12.02224958226492
 31
0.0
  0
LINE
  5
D64
330
18
100
AcDbEntity
  8
1
 62
     1
100
AcDbLine
 10
93.72489836236182
 20
1.362015263157368
 30
0.0
 11
82.97404717952955
 21
6.754872256964922
 31
0.0
  0
LINE
  5
D65
330
18
100
AcDbEntity
  8
1
 62
     1
100
AcDbLine
 10
94.40215872768598
 20
7.694503797276598
 30
0.0
 11
94.40215872768598
 21
0.9928430978928904
 31
0.0
  0
LINE
  5
D66
330
18
100
AcDbEntity
  8
1
 62
     1
100
AcDbLine
 10
94.40215872768606
 20
7.694503797276598
 30
0.0
 11
91.5451308436404
 21
7.63070303499008
 31
0.0
  0
LINE
  5
D67
330
18
100
AcDbEntity
  8
1
 62
     1
100
AcDbLine
 10
91.5451308436404
 20
7.63070303499008
 30
0.0
 11
88.6881029595948
 21
7.450731102989879
 31
0.0
  0
LINE
  5
D68
330
18
100
AcDbEntity
  8
1
 62
     1
100
AcDbLine
 10
88.6881029595948
 20
7.450731102989879
 30
0.0
 11
85.83107507554915
 21
7.157293418932737
 31
0.0
  0
LINE
  5
D69
330
18
100
AcDbEntity
  8
1
 62
     1
100
AcDbLine
 10
85.83107507554915
 20
7.157293418932737
 30
0.0
 11
82.97404719150359
 21
6.754872282731628
 31
0.0
  0
LINE
  5
D6A
330
18
100
AcDbEntity
  8
1
 62
     1
100
AcDbLine
 10
93.81850610551348
 20
-11.53060464465173
 30
0.0
 11
91.57078660142031
 21
-11.99914904081045
 31
0.0
  0
LINE
  5
D6B
330
18
100
AcDbEntity
  8
1
 62
     1
100
AcDbLine
 10
91.57078660142031
 20
-11.99914904081045
 30
0.0
 11
88.99340970661347
 21
-12.38774485304518
 31
0.0
  0
LINE
  5
D6C
330
18
100
AcDbEntity
  8
1
 62
     1
100
AcDbLine
 10
88.99340970661347
 20
-12.38774485304518
 30
0.0
 11
86.41601727954578
 21
-12.62284216076059
 31
0.0
  0
LINE
  5
D6D
330
18
100
AcDbEntity
  8
1
 62
     1
100
AcDbLine
 10
86.41601727954578
 20
-12.62284216076059
 30
0.0
 11
83.83874647892602
 21
-12.70153247000086
 31
0.0
  0
LINE
  5
D6F
330
18
100
AcDbEntity
  8
1
 62
     1
100
AcDbLine
 10
93.72489836236177
 20
-5.838394755522857
 30
0.0
 11
82.41284358906298
 21
-0.0015673950070436
 31
0.0
  0
LINE
  5
D70
330
18
100
AcDbEntity
  8
1
 62
     1
100
AcDbLine
 10
28.60237527589342
 20
9.251035511148456
 30
0.0
 11
30.78506718562805
 21
10.02924290448103
 31
0.0
  0
LINE
  5
D71
330
18
100
AcDbEntity
  8
1
 62
     1
100
AcDbLine
 10
30.78506718562805
 20
10.02924290448103
 30
0.0
 11
32.96775922204184
 21
10.71827292485941
 31
0.0
  0
LINE
  5
D72
330
18
100
AcDbEntity
  8
1
 62
     1
100
AcDbLine
 10
32.96775922204184
 20
10.71827292485941
 30
0.0
 11
35.15045139961731
 21
11.31199979664629
 31
0.0
  0
LINE
  5
D73
330
18
100
AcDbEntity
  8
1
 62
     1
100
AcDbLine
 10
35.15045139961731
 20
11.31199979664629
 30
0.0
 11
37.33314374076401
 21
11.80514502461364
 31
0.0
  0
LINE
  5
D74
330
18
100
AcDbEntity
  8
1
 62
     1
100
AcDbLine
 10
37.33314374076401
 20
11.80514502461364
 30
0.0
 11
39.5158362540361
 21
12.19332434287015
 31
0.0
  0
LINE
  5
D75
330
18
100
AcDbEntity
  8
1
 62
     1
100
AcDbLine
 10
39.5158362540361
 20
12.19332434287015
 30
0.0
 11
41.6985289317509
 21
12.47308668545006
 31
0.0
  0
LINE
  5
D76
330
18
100
AcDbEntity
  8
1
 62
     1
100
AcDbLine
 10
41.6985289317509
 20
12.47308668545006
 30
0.0
 11
43.88122159991421
 21
12.64194484844445
 31
0.0
  0
LINE
  5
D77
330
18
100
AcDbEntity
  8
1
 62
     1
100
AcDbLine
 10
43.88122159991421
 20
12.64194484844445
 30
0.0
 11
46.06389891970994
 21
12.69839768000197
 31
0.0
  0
LINE
  5
D78
330
18
100
AcDbEntity
  8
1
 62
     1
100
AcDbLine
 10
30.90215872768597
 20
-8.333992621183808
 30
0.0
 11
30.90215872768601
 21
4.961749641797814
 31
0.0
  0
LINE
  5
D79
330
18
100
AcDbEntity
  8
1
 62
     1
100
AcDbLine
 10
30.90215872768601
 20
4.961749641797814
 30
0.0
 11
30.90215872768601
 21
8.88118851197758
 31
0.0
  0
LINE
  5
D7A
330
18
100
AcDbEntity
  8
1
 62
     1
100
AcDbLine
 10
83.83874647892602
 20
-12.70153247000086
 30
0.0
 11
82.29718913064353
 21
-12.67335861081923
 31
0.0
  0
LINE
  5
D7B
330
18
100
AcDbEntity
  8
1
 62
     1
100
AcDbLine
 10
82.29718913064353
 20
-12.67335861081923
 30
0.0
 11
80.75565246774546
 21
-12.58897584804566
 31
0.0
  0
LINE
  5
D7C
330
18
100
AcDbEntity
  8
1
 62
     1
100
AcDbLine
 10
80.75565246774546
 20
-12.58897584804566
 30
0.0
 11
79.21407224230366
 21
-12.448750973496
 31
0.0
  0
LINE
  5
D7D
330
18
100
AcDbEntity
  8
1
 62
     1
100
AcDbLine
 10
79.21407224230366
 20
-12.448750973496
 30
0.0
 11
77.6724943483055
 21
-12.25330002435585
 31
0.0
  0
LINE
  5
D7E
330
18
100
AcDbEntity
  8
1
 62
     1
100
AcDbLine
 10
77.6724943483055
 20
-12.25330002435585
 30
0.0
 11
74.58939580102617
 21
-11.7004684256958
 31
0.0
  0
LINE
  5
D7F
330
18
100
AcDbEntity
  8
1
 62
     1
100
AcDbLine
 10
74.58939580102617
 20
-11.7004684256958
 30
0.0
 11
71.50626175695513
 21
-10.94025731139408
 31
0.0
  0
LINE
  5
D80
330
18
100
AcDbEntity
  8
1
 62
     1
100
AcDbLine
 10
71.50626175695513
 20
-10.94025731139408
 30
0.0
 11
68.42311377574233
 21
-9.986154184152439
 31
0.0
  0
LINE
  5
D81
330
18
100
AcDbEntity
  8
1
 62
     1
100
AcDbLine
 10
68.42311377574233
 20
-9.986154184152439
 30
0.0
 11
65.34002487680949
 21
-8.855086638835095
 31
0.0
  0
LINE
  5
D82
330
18
100
AcDbEntity
  8
1
 62
     1
100
AcDbLine
 10
65.34002487680949
 20
-8.855086638835095
 30
0.0
 11
62.25686907420253
 21
-7.567061543104672
 31
0.0
  0
LINE
  5
D83
330
18
100
AcDbEntity
  8
1
 62
     1
100
AcDbLine
 10
62.25686907420253
 20
-7.567061543104672
 30
0.0
 11
56.09063990572671
 21
-4.613950815940585
 31
0.0
  0
LINE
  5
D84
330
18
100
AcDbEntity
  8
1
 62
     1
100
AcDbLine
 10
56.09063990572671
 20
-4.613950815940585
 30
0.0
 11
34.5087868007669
 21
6.754871409430942
 31
0.0
  0
LINE
  5
D85
330
18
100
AcDbEntity
  8
1
 62
     1
100
AcDbLine
 10
70.2965288037406
 20
-12.7015324700139
 30
0.0
 11
83.83874647892605
 21
-12.7015324700139
 31
0.0
  0
LINE
  5
D86
330
18
100
AcDbEntity
  8
1
 62
     1
100
AcDbLine
 10
35.37349074544512
 20
-12.70153246977247
 30
0.0
 11
37.55618116107786
 21
-12.64507866134281
 31
0.0
  0
LINE
  5
D87
330
18
100
AcDbEntity
  8
1
 62
     1
100
AcDbLine
 10
37.55618116107786
 20
-12.64507866134281
 30
0.0
 11
39.73887218484147
 21
-12.47621963817543
 31
0.0
  0
LINE
  5
D88
330
18
100
AcDbEntity
  8
1
 62
     1
100
AcDbLine
 10
39.73887218484147
 20
-12.47621963817543
 30
0.0
 11
41.92156266966611
 21
-12.19645653405412
 31
0.0
  0
LINE
  5
D89
330
18
100
AcDbEntity
  8
1
 62
     1
100
AcDbLine
 10
41.92156266966611
 20
-12.19645653405412
 30
0.0
 11
44.10425279461523
 21
-11.8082767027414
 31
0.0
  0
LINE
  5
D8A
330
18
100
AcDbEntity
  8
1
 62
     1
100
AcDbLine
 10
44.10425279461523
 20
-11.8082767027414
 30
0.0
 11
46.28694266976713
 21
-11.3151313837928
 31
0.0
  0
LINE
  5
D8B
330
18
100
AcDbEntity
  8
1
 62
     1
100
AcDbLine
 10
46.28694266976713
 20
-11.3151313837928
 30
0.0
 11
48.46963234074935
 21
-10.72140496616845
 31
0.0
  0
LINE
  5
D8C
330
18
100
AcDbEntity
  8
1
 62
     1
100
AcDbLine
 10
48.46963234074935
 20
-10.72140496616845
 30
0.0
 11
50.65232179943853
 21
-10.03237597039739
 31
0.0
  0
LINE
  5
D8D
330
18
100
AcDbEntity
  8
1
 62
     1
100
AcDbLine
 10
50.65232179943853
 20
-10.03237597039739
 30
0.0
 11
52.83501099297623
 21
-9.254170095238222
 31
0.0
  0
LINE
  5
D8E
330
18
100
AcDbEntity
  8
1
 62
     1
100
AcDbLine
 10
25.18591027844515
 20
-12.7015324700139
 30
0.0
 11
35.37349074544506
 21
-12.7015324700139
 31
0.0
  0
LINE
  5
D8F
330
18
100
AcDbEntity
  8
1
 62
     1
100
AcDbLine
 10
77.06763873905645
 20
9.251034527479387
 30
0.0
 11
79.20270352377058
 21
10.01318870674675
 31
0.0
  0
LINE
  5
D90
330
18
100
AcDbEntity
  8
1
 62
     1
100
AcDbLine
 10
79.20270352377058
 20
10.01318870674675
 30
0.0
 11
81.33776854848525
 21
10.69014873742415
 31
0.0
  0
LINE
  5
D91
330
18
100
AcDbEntity
  8
1
 62
     1
100
AcDbLine
 10
81.33776854848525
 20
10.69014873742415
 30
0.0
 11
83.47283386241363
 21
11.27615588050958
 31
0.0
  0
LINE
  5
D92
330
18
100
AcDbEntity
  8
1
 62
     1
100
AcDbLine
 10
83.47283386241363
 20
11.27615588050958
 30
0.0
 11
85.60789979876776
 21
11.7662248460166
 31
0.0
  0
LINE
  5
D93
330
18
100
AcDbEntity
  8
1
 62
     1
100
AcDbLine
 10
85.60789979876776
 20
11.7662248460166
 30
0.0
 11
87.74296598264564
 21
12.1561869341208
 31
0.0
  0
LINE
  5
D94
330
18
100
AcDbEntity
  8
1
 62
     1
100
AcDbLine
 10
87.74296598264564
 20
12.1561869341208
 30
0.0
 11
89.87803323505817
 21
12.44272427816629
 31
0.0
  0
LINE
  5
D95
330
18
100
AcDbEntity
  8
1
 62
     1
100
AcDbLine
 10
89.87803323505817
 20
12.44272427816629
 30
0.0
 11
92.01310114377555
 21
12.62339949404166
 31
0.0
  0
LINE
  5
D96
330
18
100
AcDbEntity
  8
1
 62
     1
100
AcDbLine
 10
92.01310114377555
 20
12.62339949404166
 30
0.0
 11
93.73079123440438
 21
12.69840162198524
 31
0.0
  0
LINE
  5
D97
330
18
100
AcDbEntity
  8
1
 62
     1
100
AcDbLine
 10
82.97404717952955
 20
6.754872256964922
 30
0.0
 11
80.05305655307813
 21
8.054923737731483
 31
0.0
  0
LINE
  5
D98
330
18
100
AcDbEntity
  8
1
 62
     1
100
AcDbLine
 10
80.05305655307813
 20
8.054923737731483
 30
0.0
 11
77.13202827948463
 21
9.226792164779547
 31
0.0
  0
LINE
  5
D99
330
18
100
AcDbEntity
  8
1
 62
     1
100
AcDbLine
 10
77.13202827948463
 20
9.226792164779547
 30
0.0
 11
74.2110361457254
 21
10.25180111375241
 31
0.0
  0
LINE
  5
D9A
330
18
100
AcDbEntity
  8
1
 62
     1
100
AcDbLine
 10
74.2110361457254
 20
10.25180111375241
 30
0.0
 11
71.29005915656534
 21
11.11364361739274
 31
0.0
  0
LINE
  5
D9B
330
18
100
AcDbEntity
  8
1
 62
     1
100
AcDbLine
 10
71.29005915656534
 20
11.11364361739274
 30
0.0
 11
68.36903289221311
 21
11.79862799607083
 31
0.0
  0
LINE
  5
D9C
330
18
100
AcDbEntity
  8
1
 62
     1
100
AcDbLine
 10
68.36903289221311
 20
11.79862799607083
 30
0.0
 11
65.44803006445036
 21
12.29583717712986
 31
0.0
  0
LINE
  5
D9D
330
18
100
AcDbEntity
  8
1
 62
     1
100
AcDbLine
 10
65.44803006445036
 20
12.29583717712986
 30
0.0
 11
62.52706197400246
 21
12.59735454854506
 31
0.0
  0
LINE
  5
D9E
330
18
100
AcDbEntity
  8
1
 62
     1
100
AcDbLine
 10
62.52706197400246
 20
12.59735454854506
 30
0.0
 11
59.6061191983192
 21
12.69839768000197
 31
0.0
  0
LINE
  5
D9F
330
18
100
AcDbEntity
  8
1
 62
     1
100
AcDbLine
 10
33.94758388295493
 20
-0.0015673950062665
 30
0.0
 11
43.03482617215609
 21
-4.861636504006618
 31
0.0
  0
LINE
  5
DA0
330
18
100
AcDbEntity
  8
1
 62
     1
100
AcDbLine
 10
43.03482617215609
 20
-4.861636504006618
 30
0.0
 11
47.5784491189758
 21
-7.057294595213619
 31
0.0
  0
LINE
  5
DA1
330
18
100
AcDbEntity
  8
1
 62
     1
100
AcDbLine
 10
47.5784491189758
 20
-7.057294595213619
 30
0.0
 11
52.12207333427059
 21
-8.981804669662642
 31
0.0
  0
LINE
  5
DA2
330
18
100
AcDbEntity
  8
1
 62
     1
100
AcDbLine
 10
52.12207333427059
 20
-8.981804669662642
 30
0.0
 11
54.39388591424204
 21
-9.81877922171547
 31
0.0
  0
LINE
  5
DA3
330
18
100
AcDbEntity
  8
1
 62
     1
100
AcDbLine
 10
54.39388591424204
 20
-9.81877922171547
 30
0.0
 11
56.66569878622475
 21
-10.56120839367371
 31
0.0
  0
LINE
  5
DA4
330
18
100
AcDbEntity
  8
1
 62
     1
100
AcDbLine
 10
56.66569878622475
 20
-10.56120839367371
 30
0.0
 11
58.93751192294401
 21
-11.20194214743408
 31
0.0
  0
LINE
  5
DA5
330
18
100
AcDbEntity
  8
1
 62
     1
100
AcDbLine
 10
58.93751192294401
 20
-11.20194214743408
 30
0.0
 11
61.20932529287095
 21
-11.73480982626327
 31
0.0
  0
LINE
  5
DA6
330
18
100
AcDbEntity
  8
1
 62
     1
100
AcDbLine
 10
61.20932529287095
 20
-11.73480982626327
 30
0.0
 11
63.4811388645155
 21
-12.15467957875853
 31
0.0
  0
LINE
  5
DA7
330
18
100
AcDbEntity
  8
1
 62
     1
100
AcDbLine
 10
63.4811388645155
 20
-12.15467957875853
 30
0.0
 11
65.75295261150188
 21
-12.45750778268304
 31
0.0
  0
LINE
  5
DA8
330
18
100
AcDbEntity
  8
1
 62
     1
100
AcDbLine
 10
65.75295261150188
 20
-12.45750778268304
 30
0.0
 11
68.02476651012447
 21
-12.64037799458327
 31
0.0
  0
LINE
  5
DA9
330
18
100
AcDbEntity
  8
1
 62
     1
100
AcDbLine
 10
68.02476651012447
 20
-12.64037799458327
 30
0.0
 11
70.29652880374064
 21
-12.70153246999979
 31
0.0
  0
LINE
  5
DAA
330
18
100
AcDbEntity
  8
1
 62
     1
100
AcDbLine
 10
33.94758388295505
 20
-0.0015673950059633
 30
0.0
 11
25.16690473532021
 21
2.82120141301932
 31
0.0
  0
LINE
  5
DAD
330
18
100
AcDbEntity
  8
1
 62
     1
100
AcDbLine
 10
34.5087868007669
 20
6.754871409430942
 30
0.0
 11
29.16220387085046
 21
9.037889495981962
 31
0.0
  0
LINE
  5
DAE
330
18
100
AcDbEntity
  8
1
 62
     1
100
AcDbLine
 10
29.16220387085046
 20
9.037889495981962
 30
0.0
 11
26.48888154214541
 21
10.00590516911624
 31
0.0
  0
LINE
  5
DAF
330
18
100
AcDbEntity
  8
1
 62
     1
100
AcDbLine
 10
26.48888154214541
 20
10.00590516911624
 30
0.0
 11
25.15572582525869
 21
10.42211232917019
 31
0.0
  0
LINE
  5
DB4
330
18
100
AcDbEntity
  8
1
 62
     1
100
AcDbLine
 10
82.41284358906298
 20
-0.0015673950070436
 30
0.0
 11
73.32560444976467
 21
4.858500334178358
 31
0.0
  0
LINE
  5
DB5
330
18
100
AcDbEntity
  8
1
 62
     1
100
AcDbLine
 10
73.32560444976467
 20
4.858500334178358
 30
0.0
 11
68.78198477693421
 21
7.054157052822581
 31
0.0
  0
LINE
  5
DB6
330
18
100
AcDbEntity
  8
1
 62
     1
100
AcDbLine
 10
68.78198477693421
 20
7.054157052822581
 30
0.0
 11
64.23836360875369
 21
8.978666515585814
 31
0.0
  0
LINE
  5
DB7
330
18
100
AcDbEntity
  8
1
 62
     1
100
AcDbLine
 10
64.23836360875369
 20
8.978666515585814
 30
0.0
 11
61.96655249664235
 21
9.815641095108398
 31
0.0
  0
LINE
  5
DB8
330
18
100
AcDbEntity
  8
1
 62
     1
100
AcDbLine
 10
61.96655249664235
 20
9.815641095108398
 30
0.0
 11
59.69474104931122
 21
10.55807049373553
 31
0.0
  0
LINE
  5
DB9
330
18
100
AcDbEntity
  8
1
 62
     1
100
AcDbLine
 10
59.69474104931122
 20
10.55807049373553
 30
0.0
 11
57.42292927210936
 21
11.19880463465649
 31
0.0
  0
LINE
  5
DBA
330
18
100
AcDbEntity
  8
1
 62
     1
100
AcDbLine
 10
57.42292927210936
 20
11.19880463465649
 30
0.0
 11
55.1511171599045
 21
11.73167281824482
 31
0.0
  0
LINE
  5
DBB
330
18
100
AcDbEntity
  8
1
 62
     1
100
AcDbLine
 10
55.1511171599045
 20
11.73167281824482
 30
0.0
 11
52.87930471770138
 21
12.15154317330526
 31
0.0
  0
LINE
  5
DBC
330
18
100
AcDbEntity
  8
1
 62
     1
100
AcDbLine
 10
52.87930471770138
 20
12.15154317330526
 30
0.0
 11
50.60749196336605
 21
12.45437207693874
 31
0.0
  0
LINE
  5
DBD
330
18
100
AcDbEntity
  8
1
 62
     1
100
AcDbLine
 10
50.60749196336605
 20
12.45437207693874
 30
0.0
 11
48.33567892584056
 21
12.63724308937297
 31
0.0
  0
LINE
  5
DBE
330
18
100
AcDbEntity
  8
1
 62
     1
100
AcDbLine
 10
48.33567892584056
 20
12.63724308937297
 30
0.0
 11
46.06389891970994
 21
12.69839768000197
 31
0.0
  0
LINE
  5
DBF
330
18
100
AcDbEntity
  8
1
 62
     1
100
AcDbLine
 10
82.4128435890636
 20
-0.0015673950059633
 30
0.0
 11
70.43682949113986
 21
3.806040406058931
 31
0.0
  0
LINE
  5
DC0
330
18
100
AcDbEntity
  8
1
 62
     1
100
AcDbLine
 10
70.43682949113986
 20
3.806040406058931
 30
0.0
 11
64.44882244217801
 21
5.390735206082931
 31
0.0
  0
LINE
  5
DC1
330
18
100
AcDbEntity
  8
1
 62
     1
100
AcDbLine
 10
64.44882244217801
 20
5.390735206082931
 30
0.0
 11
58.46081539321613
 21
6.616366085446002
 31
0.0
  0
LINE
  5
DC2
330
18
100
AcDbEntity
  8
1
 62
     1
100
AcDbLine
 10
58.46081539321613
 20
6.616366085446002
 30
0.0
 11
55.46681186873522
 21
7.067935797763036
 31
0.0
  0
LINE
  5
DC3
330
18
100
AcDbEntity
  8
1
 62
     1
100
AcDbLine
 10
55.46681186873522
 20
7.067935797763036
 30
0.0
 11
52.47280834425422
 21
7.401325104455168
 31
0.0
  0
LINE
  5
DC4
330
18
100
AcDbEntity
  8
1
 62
     1
100
AcDbLine
 10
52.47280834425422
 20
7.401325104455168
 30
0.0
 11
49.47880481977328
 21
7.610959127548042
 31
0.0
  0
LINE
  5
DC5
330
18
100
AcDbEntity
  8
1
 62
     1
100
AcDbLine
 10
49.47880481977328
 20
7.610959127548042
 30
0.0
 11
46.48480129529235
 21
7.693335800265521
 31
0.0
  0
LINE
  5
DC6
330
18
100
AcDbEntity
  8
1
 62
     1
100
AcDbLine
 10
46.48480129529235
 20
7.693335800265521
 30
0.0
 11
43.49079777081146
 21
7.647079459357672
 31
0.0
  0
LINE
  5
DC7
330
18
100
AcDbEntity
  8
1
 62
     1
100
AcDbLine
 10
43.49079777081146
 20
7.647079459357672
 30
0.0
 11
40.49679424633054
 21
7.472962730126031
 31
0.0
  0
LINE
  5
DC8
330
18
100
AcDbEntity
  8
1
 62
     1
100
AcDbLine
 10
40.49679424633054
 20
7.472962730126031
 30
0.0
 11
37.50279072184959
 21
7.173893863748284
 31
0.0
  0
LINE
  5
DC9
330
18
100
AcDbEntity
  8
1
 62
     1
100
AcDbLine
 10
37.50279072184959
 20
7.173893863748284
 30
0.0
 11
34.50878719736864
 21
6.754872262856482
 31
0.0
  0
ARC
  5
DDE
330
18
100
AcDbEntity
  8
1
100
AcDbCircle
 10
31.56605567803739
 20
10169.54839888051
 30
0.0
 40
10156.87053445747
100
AcDbArc
 50
269.8847798728648
 51
269.9638200443087
  0
DIMENSION
  5
E40
330
18
100
AcDbEntity
  8
2
100
AcDbDimension
  2
*D14
 10
93.73079123440438
 20
22.11677788004974
 30
0.0
 11
116.6278730134002
 21
22.11677788004974
 31
0.0
 70
   160
  1
0.254x45°
 71
     5
 42
0.6713674932816076
  3
SANDVIK_DIM
100
AcDbAlignedDimension
 13
94.40215872768598
 23
12.02224958226492
 33
0.0
 14
93.73079123440438
 24
12.69840162198524
 34
0.0
100
AcDbRotatedDimension
1001
ACAD
1000
DSTYLE
1002
{
1070
   279
1070
     0
1070
   140
1040
3.0
1070
    40
1040
1.0
1002
}
  0
LINE
  5
E41
330
18
100
AcDbEntity
  8
1
 62
     1
100
AcDbLine
 10
94.40215872768588
 20
1.381870714341175
 30
0.0
 11
93.72489836236177
 21
1.362015263157364
 31
0.0
  0
LINE
  5
E42
330
18
100
AcDbEntity
  8
1
 62
     1
100
AcDbLine
 10
93.72489836236182
 20
1.362015263157364
 30
0.0
 11
93.72489836236177
 21
-5.838394755522857
 31
0.0
  0
LINE
  5
E43
330
18
100
AcDbEntity
  8
1
 62
     1
100
AcDbLine
 10
94.40215872768588
 20
-5.824347405194053
 30
0.0
 11
93.72489836236177
 21
-5.838394755522857
 31
0.0
  0
LINE
  5
E44
330
18
100
AcDbEntity
  8
1
 62
     1
100
AcDbLine
 10
94.40215872768598
 20
12.02224958226492
 30
0.0
 11
93.73079123440438
 21
12.69840162198524
 31
0.0
  0
LINE
  5
E45
330
18
100
AcDbEntity
  8
1
 62
     1
100
AcDbLine
 10
94.40215872768598
 20
-11.02891634719345
 30
0.0
 11
93.81850610551348
 21
-11.53060464465173
 31
0.0
  0
ENDSEC
  0
SECTION
  2
OBJECTS
  0
DICTIONARY
  5
C
330
0
100
AcDbDictionary
281
     1
  3
ACAD_CIP_PREVIOUS_PRODUCT_INFO
350
505
  3
ACAD_COLOR
350
387
  3
ACAD_DETAILVIEWSTYLE
350
4FF
  3
ACAD_GROUP
350
D
  3
ACAD_LAYOUT
350
301
  3
ACAD_MATERIAL
350
386
  3
ACAD_MLEADERSTYLE
350
4C3
  3
ACAD_MLINESTYLE
350
E
  3
ACAD_PLOTSETTINGS
350
302
  3
ACAD_PLOTSTYLENAME
350
2FF
  3
ACAD_SCALELIST
350
3A0
  3
ACAD_SECTIONVIEWSTYLE
350
4FD
  3
ACAD_TABLESTYLE
350
388
  3
ACAD_VISUALSTYLE
350
4E2
  3
ACDB_RECOMPOSE_DATA
350
1814
  3
AcDbVariableDictionary
350
357
  3
AcDsDecomposeData
350
181A
  0
DICTIONARY
  5
6C0
330
2
100
AcDbDictionary
280
     1
281
     1
  3
ACAD_LAYERSTATES
360
6C1
  0
DICTIONARY
  5
508
330
F
100
AcDbDictionary
280
     1
281
     1
  3
ADSK_XREC_LAYER_RECONCILED
360
509
  0
DICTIONARY
  5
50A
330
23
100
AcDbDictionary
280
     1
281
     1
  3
ADSK_XREC_LAYER_RECONCILED
360
50B
  0
DICTIONARY
  5
50C
330
24
100
AcDbDictionary
280
     1
281
     1
  3
ADSK_XREC_LAYER_RECONCILED
360
50D
  0
DICTIONARY
  5
50E
330
25
100
AcDbDictionary
280
     1
281
     1
  3
ADSK_XREC_LAYER_RECONCILED
360
50F
  0
DICTIONARY
  5
510
330
26
100
AcDbDictionary
280
     1
281
     1
  3
ADSK_XREC_LAYER_RECONCILED
360
511
  0
DICTIONARY
  5
512
330
27
100
AcDbDictionary
280
     1
281
     1
  3
ADSK_XREC_LAYER_RECONCILED
360
513
  0
DICTIONARY
  5
514
330
28
100
AcDbDictionary
280
     1
281
     1
  3
ADSK_XREC_LAYER_RECONCILED
360
515
  0
DICTIONARY
  5
516
330
29
100
AcDbDictionary
280
     1
281
     1
  3
ADSK_XREC_LAYER_RECONCILED
360
517
  0
DICTIONARY
  5
518
330
2A
100
AcDbDictionary
280
     1
281
     1
  3
ADSK_XREC_LAYER_RECONCILED
360
519
  0
DICTIONARY
  5
51A
330
2B
100
AcDbDictionary
280
     1
281
     1
  3
ADSK_XREC_LAYER_RECONCILED
360
51B
  0
DICTIONARY
  5
51C
330
2C
100
AcDbDictionary
280
     1
281
     1
  3
ADSK_XREC_LAYER_RECONCILED
360
51D
  0
DICTIONARY
  5
51E
330
2D
100
AcDbDictionary
280
     1
281
     1
  3
ADSK_XREC_LAYER_RECONCILED
360
51F
  0
DICTIONARY
  5
520
330
2E
100
AcDbDictionary
280
     1
281
     1
  3
ADSK_XREC_LAYER_RECONCILED
360
521
  0
DICTIONARY
  5
522
330
375
100
AcDbDictionary
280
     1
281
     1
  3
ADSK_XREC_LAYER_RECONCILED
360
523
  0
DICTIONARY
  5
524
330
376
100
AcDbDictionary
280
     1
281
     1
  3
ADSK_XREC_LAYER_RECONCILED
360
525
  0
DICTIONARY
  5
8A7
330
18
100
AcDbDictionary
280
     1
281
     1
  3
ACAD_SORTENTS
360
8A8
  0
DICTIONARY
  5
16AA
330
161B
100
AcDbDictionary
280
     1
281
     1
  3
ACAD_SORTENTS
360
16AB
  0
XRECORD
  5
505
102
{ACAD_REACTORS
330
C
102
}
330
C
100
AcDbXrecord
280
     1
300
AMECH_PP
300
2014
300
86132PDSS_2014_0F
  0
DICTIONARY
  5
387
102
{ACAD_REACTORS
330
C
102
}
330
C
100
AcDbDictionary
281
     1
  0
DICTIONARY
  5
4FF
102
{ACAD_REACTORS
330
C
102
}
330
C
100
AcDbDictionary
281
     1
  3
Metric50
350
500
  0
DICTIONARY
  5
D
102
{ACAD_REACTORS
330
C
102
}
330
C
100
AcDbDictionary
281
     1
  0
DICTIONARY
  5
301
102
{ACAD_REACTORS
330
C
102
}
330
C
100
AcDbDictionary
281
     1
  3
Layout1
350
33B
  3
Model
350
303
  0
DICTIONARY
  5
386
102
{ACAD_REACTORS
330
C
102
}
330
C
100
AcDbDictionary
281
     1
  3
ByBlock
350
4D2
  3
ByLayer
350
4CA
  3
Global
350
4DA
  0
DICTIONARY
  5
4C3
102
{ACAD_REACTORS
330
C
102
}
330
C
100
AcDbDictionary
281
     1
  3
Standard
350
4FC
  0
DICTIONARY
  5
E
102
{ACAD_REACTORS
330
C
102
}
330
C
100
AcDbDictionary
281
     1
  3
STANDARD
350
1B
  0
DICTIONARY
  5
302
102
{ACAD_REACTORS
330
C
102
}
330
C
100
AcDbDictionary
281
     1
  0
ACDBDICTIONARYWDFLT
  5
2FF
102
{ACAD_REACTORS
330
C
102
}
330
C
100
AcDbDictionary
281
     1
  3
Normal
350
300
100
AcDbDictionaryWithDefault
340
300
  0
DICTIONARY
  5
3A0
102
{ACAD_REACTORS
330
C
102
}
330
C
100
AcDbDictionary
281
     1
  3
A0
350
3A1
  3
A1
350
3A2
  3
A2
350
3A3
  3
A3
350
3A4
  3
A4
350
3A5
  3
A5
350
3A6
  3
A6
350
3A7
  3
A7
350
3A8
  3
A8
350
3A9
  3
A9
350
3AA
  3
B0
350
3AB
  3
B1
350
3AC
  3
B2
350
3AD
  3
B3
350
3AE
  3
B4
350
3AF
  3
B5
350
3B0
  3
B6
350
3B1
  3
B7
350
3B2
  3
B8
350
3B3
  3
B9
350
3B4
  3
C0
350
3B5
  3
C1
350
3B6
  3
C2
350
3B7
  3
C3
350
3B8
  3
C4
350
3B9
  3
C5
350
3BA
  3
C6
350
3BB
  3
C7
350
3BC
  3
C8
350
3BD
  3
C9
350
3BE
  3
D0
350
3BF
  3
D1
350
3C0
  3
D2
350
3C1
  0
DICTIONARY
  5
4FD
102
{ACAD_REACTORS
330
C
102
}
330
C
100
AcDbDictionary
281
     1
  3
Metric50
350
4FE
  0
DICTIONARY
  5
388
102
{ACAD_REACTORS
330
C
102
}
330
C
100
AcDbDictionary
281
     1
  3
Standard
350
4FB
  0
DICTIONARY
  5
4E2
102
{ACAD_REACTORS
330
C
102
}
330
C
100
AcDbDictionary
281
     1
  3
2dWireframe
350
4E8
  3
Basic
350
4E7
  3
Brighten
350
4EE
  3
ColorChange
350
4F2
  3
Conceptual
350
4EB
  3
Dim
350
4ED
  3
EdgeColorOff
350
4FA
  3
Facepattern
350
4F1
  3
Flat
350
4E3
  3
FlatWithEdges
350
4E4
  3
Gouraud
350
4E5
  3
GouraudWithEdges
350
4E6
  3
Hidden
350
4EA
  3
JitterOff
350
4F8
  3
Linepattern
350
4F0
  3
OverhangOff
350
4F9
  3
Realistic
350
4EC
  3
Shaded
350
4F7
  3
Shaded with edges
350
4F6
  3
Shades of Gray
350
4F3
  3
Sketchy
350
4F4
  3
Thicken
350
4EF
  3
Wireframe
350
4E9
  3
X-Ray
350
4F5
  0
XRECORD
  5
1814
102
{ACAD_REACTORS
330
C
102
}
330
C
100
AcDbXrecord
280
     1
 90
        1
330
4FB
  0
DICTIONARY
  5
357
102
{ACAD_REACTORS
330
C
102
}
330
C
100
AcDbDictionary
281
     1
  3
CANNOSCALE
350
4C4
  3
CMLEADERSTYLE
350
526
  3
CTABLESTYLE
350
38D
  3
CVIEWDETAILSTYLE
350
527
  3
CVIEWSECTIONSTYLE
350
528
  3
DIMASSOC
350
359
  3
HIDETEXT
350
358
  3
INDEXCTL
350
52A
  3
PROJECTNAME
350
38E
  3
SORTENTS
350
529
  3
XCLIPFRAME
350
1812
  0
DICTIONARY
  5
181A
102
{ACAD_REACTORS
330
C
102
}
330
C
100
AcDbDictionary
281
     1
  3
AcDsRecords
350
181C
  3
AcDsSchemas
350
181B
1001
ACAD
1070
     2
  0
DICTIONARY
  5
6C1
102
{ACAD_REACTORS
330
6C0
102
}
330
6C0
100
AcDbDictionary
281
     1
  0
XRECORD
  5
509
102
{ACAD_REACTORS
330
508
102
}
330
508
100
AcDbXrecord
280
     1
290
     1
  0
XRECORD
  5
50B
102
{ACAD_REACTORS
330
50A
102
}
330
50A
100
AcDbXrecord
280
     1
290
     1
  0
XRECORD
  5
50D
102
{ACAD_REACTORS
330
50C
102
}
330
50C
100
AcDbXrecord
280
     1
290
     1
  0
XRECORD
  5
50F
102
{ACAD_REACTORS
330
50E
102
}
330
50E
100
AcDbXrecord
280
     1
290
     1
  0
XRECORD
  5
511
102
{ACAD_REACTORS
330
510
102
}
330
510
100
AcDbXrecord
280
     1
290
     1
  0
XRECORD
  5
513
102
{ACAD_REACTORS
330
512
102
}
330
512
100
AcDbXrecord
280
     1
290
     1
  0
XRECORD
  5
515
102
{ACAD_REACTORS
330
514
102
}
330
514
100
AcDbXrecord
280
     1
290
     1
  0
XRECORD
  5
517
102
{ACAD_REACTORS
330
516
102
}
330
516
100
AcDbXrecord
280
     1
290
     1
  0
XRECORD
  5
519
102
{ACAD_REACTORS
330
518
102
}
330
518
100
AcDbXrecord
280
     1
290
     1
  0
XRECORD
  5
51B
102
{ACAD_REACTORS
330
51A
102
}
330
51A
100
AcDbXrecord
280
     1
290
     1
  0
XRECORD
  5
51D
102
{ACAD_REACTORS
330
51C
102
}
330
51C
100
AcDbXrecord
280
     1
290
     1
  0
XRECORD
  5
51F
102
{ACAD_REACTORS
330
51E
102
}
330
51E
100
AcDbXrecord
280
     1
290
     1
  0
XRECORD
  5
521
102
{ACAD_REACTORS
330
520
102
}
330
520
100
AcDbXrecord
280
     1
290
     1
  0
XRECORD
  5
523
102
{ACAD_REACTORS
330
522
102
}
330
522
100
AcDbXrecord
280
     1
290
     1
  0
XRECORD
  5
525
102
{ACAD_REACTORS
330
524
102
}
330
524
100
AcDbXrecord
280
     1
290
     1
  0
SORTENTSTABLE
  5
8A8
102
{ACAD_REACTORS
330
8A7
102
}
330
8A7
100
AcDbSortentsTable
330
18
331
D66
  5
D75
331
D62
  5
D71
331
D5E
  5
D6D
331
D9D
  5
DAB
331
D99
  5
DA7
331
D95
  5
DA3
331
D91
  5
D9F
331
D52
  5
D5A
331
D4E
  5
D59
331
D8D
  5
D9B
331
DC8
  5
1301
331
D4A
  5
D4F
331
D89
  5
D97
331
DC4
  5
FFF
331
DC0
  5
E45
331
470
  5
473
331
E44
  5
1444
331
E40
  5
1303
331
D85
  5
D93
331
D81
  5
D8F
331
DBC
  5
E41
331
D42
  5
D44
331
46E
  5
471
331
D7D
  5
D8B
331
DB8
  5
DE0
331
46A
  5
46C
331
D79
  5
D87
331
DB4
  5
DC8
331
D75
  5
D83
331
D71
  5
D7F
331
D6D
  5
D7C
331
DA8
  5
DB6
331
3C2
  5
3DB
331
D69
  5
D78
331
DA4
  5
DB2
331
DA0
  5
DAE
331
D65
  5
D74
331
D61
  5
D70
331
D5D
  5
D6C
331
D9C
  5
DAA
331
D98
  5
DA6
331
49B
  5
801
331
D94
  5
DA2
331
D90
  5
D9E
331
D8C
  5
D9A
331
DC7
  5
1300
331
D49
  5
D4E
331
D88
  5
D96
331
DC3
  5
FFE
331
473
  5
49B
331
E43
  5
1443
331
DBF
  5
E44
331
D84
  5
D92
331
D80
  5
D8E
331
DBB
  5
E40
331
46D
  5
470
331
D7C
  5
D8A
331
DB7
  5
DDF
331
469
  5
46B
331
D78
  5
D86
331
DAF
  5
DC0
331
D74
  5
D82
331
D70
  5
D7E
331
D6C
  5
D7B
331
DA7
  5
DB5
331
D68
  5
D77
331
DA3
  5
DB1
331
D64
  5
D72
331
D60
  5
D6F
331
D9F
  5
DAD
331
D9B
  5
DA9
331
DDE
  5
D4B
331
D97
  5
DA5
331
D93
  5
DA1
331
D54
  5
D5C
331
D8F
  5
D9D
331
D8B
  5
D99
331
DC6
  5
12FF
331
D48
  5
D4D
331
DC2
  5
FFD
331
472
  5
48E
331
E42
  5
1442
331
D87
  5
D95
331
D83
  5
D91
331
DBE
  5
E43
331
D44
  5
D47
331
D7F
  5
D8D
331
DBA
  5
DE2
331
D40
  5
D41
331
46C
  5
46E
331
D7B
  5
D89
331
DB6
  5
DDE
331
48E
  5
800
331
D77
  5
D85
331
DAE
  5
DBF
331
3DC
  5
46A
331
D73
  5
D81
331
D6F
  5
D7D
331
DAA
  5
DB8
331
D6B
  5
D7A
331
DA6
  5
DB4
331
DA2
  5
DB0
331
D67
  5
D76
331
D5F
  5
D6E
331
D9E
  5
DAC
331
D9A
  5
DA8
331
D96
  5
DA4
331
D92
  5
DA0
331
D53
  5
D5B
331
D8E
  5
D9C
331
DC9
  5
1302
331
D8A
  5
D98
331
DC5
  5
1000
331
DC1
  5
FFC
331
471
  5
481
331
E45
  5
1445
331
E41
  5
1441
331
D47
  5
D4C
331
D86
  5
D94
331
D82
  5
D90
331
DBD
  5
E42
331
46F
  5
472
331
D7E
  5
D8C
331
DB9
  5
DE1
331
46B
  5
46D
331
D7A
  5
D88
331
DB5
  5
DC9
331
481
  5
4A9
331
D76
  5
D84
331
D72
  5
D80
331
DAD
  5
DBE
331
3DB
  5
469
331
DA9
  5
DB7
331
3C3
  5
3DC
331
D6A
  5
D79
331
DA5
  5
DB3
331
DA1
  5
DAF
331
4A9
  5
A85
  0
SORTENTSTABLE
  5
16AB
102
{ACAD_REACTORS
330
16AA
102
}
330
16AA
100
AcDbSortentsTable
330
161B
  0
ACDBDETAILVIEWSTYLE
  5
500
102
{ACAD_XDICTIONARY
360
1850
102
}
102
{ACAD_REACTORS
330
4FF
102
}
330
4FF
100
AcDbModelDocViewStyle
 70
     0
  3
Metric50
290
     0
100
AcDbDetailViewStyle
 70
     0
 71
     0
 90
        3
 71
     1
340
10
 62
   256
 40
5.0
340
0
 62
   256
 40
5.0
300

 40
0.0
280
     1
 71
     2
340
14
 90
       25
 62
   256
 71
     3
340
10
 62
   256
 40
5.0
 90
        0
 40
15.0
 90
        1
300
%<\AcVar ViewDetailId>% (%<\AcVar ViewScale \f "%sn">%)
 71
     4
340
14
 90
       25
 62
   256
340
14
 90
       25
 62
   256
280
     0
  0
LAYOUT
  5
33B
102
{ACAD_REACTORS
330
301
102
}
330
301
100
AcDbPlotSettings
  1

  2
Lexmark Optra PS2
  4

  6

 40
0.0
 41
0.0
 42
0.0
 43
0.0
 44
0.0
 45
0.0
 46
0.0
 47
0.0
 48
0.0
 49
0.0
140
0.0
141
0.0
142
1.0
143
1.0
 70
   688
 72
     0
 73
     0
 74
     5
  7
monochrome.ctb
 75
    16
147
1.0
 76
     0
 77
     2
 78
   300
148
0.0
149
0.0
100
AcDbLayout
  1
Layout1
 70
     1
 71
     1
 10
0.0
 20
0.0
 11
12.0
 21
9.0
 12
0.0
 22
0.0
 32
0.0
 14
0.0
 24
0.0
 34
0.0
 15
0.0
 25
0.0
 35
0.0
146
0.0
 13
0.0
 23
0.0
 33
0.0
 16
1.0
 26
0.0
 36
0.0
 17
0.0
 27
1.0
 37
0.0
 76
     0
330
338
  0
LAYOUT
  5
303
102
{ACAD_REACTORS
330
301
102
}
330
301
100
AcDbPlotSettings
  1

  2
Lexmark Optra Rx
  4
A4
  6

 40
6.805083274841307
 41
5.535083293914794
 42
6.974411010742187
 43
7.14373779296875
 44
209.9733276367186
 45
296.9259948730469
 46
0.0
 47
0.0
 48
0.0
 49
0.0
140
0.0
141
0.0
142
1.0
143
2.976565420630883
 70
 11952
 72
     1
 73
     1
 74
     0
  7
monochrome.ctb
 75
     0
147
0.335957675604539
 76
     0
 77
     2
 78
   300
148
204.1199660668592
149
172.3933209647495
100
AcDbLayout
  1
Model
 70
     1
 71
     0
 10
0.0
 20
0.0
 11
12.0
 21
9.0
 12
0.0
 22
0.0
 32
0.0
 14
0.0
 24
0.0
 34
0.0
 15
0.0
 25
0.0
 35
0.0
146
0.0
 13
0.0
 23
0.0
 33
0.0
 16
1.0
 26
0.0
 36
0.0
 17
0.0
 27
1.0
 37
0.0
 76
     0
330
18
331
39A
  0
MATERIAL
  5
4D2
102
{ACAD_XDICTIONARY
360
4D3
102
}
102
{ACAD_REACTORS
330
386
102
}
330
386
100
AcDbMaterial
  1
ByBlock
 72
     0
 43
0.0008202099737533
 43
0.0
 43
0.0
 43
0.0
 43
0.0
 43
0.0008202099737533
 43
0.0
 43
0.0
 43
0.0
 43
0.0
 43
1.0
 43
0.0
 43
0.0
 43
0.0
 43
0.0
 43
1.0
 77
     0
 47
0.0008202099737533
 47
0.0
 47
0.0
 47
0.0
 47
0.0
 47
0.0008202099737533
 47
0.0
 47
0.0
 47
0.0
 47
0.0
 47
1.0
 47
0.0
 47
0.0
 47
0.0
 47
0.0
 47
1.0
171
     0
 49
0.0008202099737533
 49
0.0
 49
0.0
 49
0.0
 49
0.0
 49
0.0008202099737533
 49
0.0
 49
0.0
 49
0.0
 49
0.0
 49
1.0
 49
0.0
 49
0.0
 49
0.0
 49
0.0
 49
1.0
175
     0
142
0.0008202099737533
142
0.0
142
0.0
142
0.0
142
0.0
142
0.0008202099737533
142
0.0
142
0.0
142
0.0
142
0.0
142
1.0
142
0.0
142
0.0
142
0.0
142
0.0
142
1.0
179
     0
144
0.0008202099737533
144
0.0
144
0.0
144
0.0
144
0.0
144
0.0008202099737533
144
0.0
144
0.0
144
0.0
144
0.0
144
1.0
144
0.0
144
0.0
144
0.0
144
0.0
144
1.0
147
0.0008202099737533
147
0.0
147
0.0
147
0.0
147
0.0
147
0.0008202099737533
147
0.0
147
0.0
147
0.0
147
0.0
147
1.0
147
0.0
147
0.0
147
0.0
147
0.0
147
1.0
  0
MATERIAL
  5
4CA
102
{ACAD_XDICTIONARY
360
4CB
102
}
102
{ACAD_REACTORS
330
386
102
}
330
386
100
AcDbMaterial
  1
ByLayer
 72
     0
 43
0.0008202099737533
 43
0.0
 43
0.0
 43
0.0
 43
0.0
 43
0.0008202099737533
 43
0.0
 43
0.0
 43
0.0
 43
0.0
 43
1.0
 43
0.0
 43
0.0
 43
0.0
 43
0.0
 43
1.0
 77
     0
 47
0.0008202099737533
 47
0.0
 47
0.0
 47
0.0
 47
0.0
 47
0.0008202099737533
 47
0.0
 47
0.0
 47
0.0
 47
0.0
 47
1.0
 47
0.0
 47
0.0
 47
0.0
 47
0.0
 47
1.0
171
     0
 49
0.0008202099737533
 49
0.0
 49
0.0
 49
0.0
 49
0.0
 49
0.0008202099737533
 49
0.0
 49
0.0
 49
0.0
 49
0.0
 49
1.0
 49
0.0
 49
0.0
 49
0.0
 49
0.0
 49
1.0
175
     0
142
0.0008202099737533
142
0.0
142
0.0
142
0.0
142
0.0
142
0.0008202099737533
142
0.0
142
0.0
142
0.0
142
0.0
142
1.0
142
0.0
142
0.0
142
0.0
142
0.0
142
1.0
179
     0
144
0.0008202099737533
144
0.0
144
0.0
144
0.0
144
0.0
144
0.0008202099737533
144
0.0
144
0.0
144
0.0
144
0.0
144
1.0
144
0.0
144
0.0
144
0.0
144
0.0
144
1.0
147
0.0008202099737533
147
0.0
147
0.0
147
0.0
147
0.0
147
0.0008202099737533
147
0.0
147
0.0
147
0.0
147
0.0
147
1.0
147
0.0
147
0.0
147
0.0
147
0.0
147
1.0
  0
MATERIAL
  5
4DA
102
{ACAD_XDICTIONARY
360
4DB
102
}
102
{ACAD_REACTORS
330
386
102
}
330
386
100
AcDbMaterial
  1
Global
 72
     0
 43
0.0008202099737533
 43
0.0
 43
0.0
 43
0.0
 43
0.0
 43
0.0008202099737533
 43
0.0
 43
0.0
 43
0.0
 43
0.0
 43
1.0
 43
0.0
 43
0.0
 43
0.0
 43
0.0
 43
1.0
 77
     0
 47
0.0008202099737533
 47
0.0
 47
0.0
 47
0.0
 47
0.0
 47
0.0008202099737533
 47
0.0
 47
0.0
 47
0.0
 47
0.0
 47
1.0
 47
0.0
 47
0.0
 47
0.0
 47
0.0
 47
1.0
171
     0
 49
0.0008202099737533
 49
0.0
 49
0.0
 49
0.0
 49
0.0
 49
0.0008202099737533
 49
0.0
 49
0.0
 49
0.0
 49
0.0
 49
1.0
 49
0.0
 49
0.0
 49
0.0
 49
0.0
 49
1.0
175
     0
142
0.0008202099737533
142
0.0
142
0.0
142
0.0
142
0.0
142
0.0008202099737533
142
0.0
142
0.0
142
0.0
142
0.0
142
1.0
142
0.0
142
0.0
142
0.0
142
0.0
142
1.0
179
     0
144
0.0008202099737533
144
0.0
144
0.0
144
0.0
144
0.0
144
0.0008202099737533
144
0.0
144
0.0
144
0.0
144
0.0
144
1.0
144
0.0
144
0.0
144
0.0
144
0.0
144
1.0
147
0.0008202099737533
147
0.0
147
0.0
147
0.0
147
0.0
147
0.0008202099737533
147
0.0
147
0.0
147
0.0
147
0.0
147
1.0
147
0.0
147
0.0
147
0.0
147
0.0
147
1.0
  0
MLEADERSTYLE
  5
4FC
102
{ACAD_REACTORS
330
4C3
102
}
330
4C3
100
AcDbMLeaderStyle
170
     2
171
     1
172
     0
 90
        2
 40
0.0
 41
0.0
173
     1
 91
-1056964608
340
12
 92
       -2
290
     1
 42
2.0
291
     1
 43
0.36
  3
Standard
 44
4.0
300

342
10
174
     1
178
     6
175
     1
176
     0
 93
-1056964608
 45
4.0
292
     0
297
     0
 46
4.0
 94
-1056964608
 47
1.0
 49
1.0
140
1.0
293
     1
141
0.0
294
     1
177
     0
142
1.0
295
     0
296
     0
143
0.125
1001
ACAD_MLEADERVER
1070
     2
  0
MLINESTYLE
  5
1B
102
{ACAD_REACTORS
330
E
102
}
330
E
100
AcDbMlineStyle
  2
STANDARD
 70
     0
  3

 62
     0
 51
90.0
 52
90.0
 71
     2
 49
0.5
 62
   256
  6
BYLAYER
 49
-0.5
 62
   256
  6
BYLAYER
  0
ACDBPLACEHOLDER
  5
300
102
{ACAD_REACTORS
330
2FF
102
}
330
2FF
  0
SCALE
  5
3A1
102
{ACAD_REACTORS
330
3A0
102
}
330
3A0
100
AcDbScale
 70
     0
300
1:1
140
1.0
141
1.0
290
     1
  0
SCALE
  5
3A2
102
{ACAD_REACTORS
330
3A0
102
}
330
3A0
100
AcDbScale
 70
     0
300
1:2
140
1.0
141
2.0
290
     0
  0
SCALE
  5
3A3
102
{ACAD_REACTORS
330
3A0
102
}
330
3A0
100
AcDbScale
 70
     0
300
1:4
140
1.0
141
4.0
290
     0
  0
SCALE
  5
3A4
102
{ACAD_REACTORS
330
3A0
102
}
330
3A0
100
AcDbScale
 70
     0
300
1:5
140
1.0
141
5.0
290
     0
  0
SCALE
  5
3A5
102
{ACAD_REACTORS
330
3A0
102
}
330
3A0
100
AcDbScale
 70
     0
300
1:8
140
1.0
141
8.0
290
     0
  0
SCALE
  5
3A6
102
{ACAD_REACTORS
330
3A0
102
}
330
3A0
100
AcDbScale
 70
     0
300
1:10
140
1.0
141
10.0
290
     0
  0
SCALE
  5
3A7
102
{ACAD_REACTORS
330
3A0
102
}
330
3A0
100
AcDbScale
 70
     0
300
1:16
140
1.0
141
16.0
290
     0
  0
SCALE
  5
3A8
102
{ACAD_REACTORS
330
3A0
102
}
330
3A0
100
AcDbScale
 70
     0
300
1:20
140
1.0
141
20.0
290
     0
  0
SCALE
  5
3A9
102
{ACAD_REACTORS
330
3A0
102
}
330
3A0
100
AcDbScale
 70
     0
300
1:30
140
1.0
141
30.0
290
     0
  0
SCALE
  5
3AA
102
{ACAD_REACTORS
330
3A0
102
}
330
3A0
100
AcDbScale
 70
     0
300
1:40
140
1.0
141
40.0
290
     0
  0
SCALE
  5
3AB
102
{ACAD_REACTORS
330
3A0
102
}
330
3A0
100
AcDbScale
 70
     0
300
1:50
140
1.0
141
50.0
290
     0
  0
SCALE
  5
3AC
102
{ACAD_REACTORS
330
3A0
102
}
330
3A0
100
AcDbScale
 70
     0
300
1:100
140
1.0
141
100.0
290
     0
  0
SCALE
  5
3AD
102
{ACAD_REACTORS
330
3A0
102
}
330
3A0
100
AcDbScale
 70
     0
300
2:1
140
2.0
141
1.0
290
     0
  0
SCALE
  5
3AE
102
{ACAD_REACTORS
330
3A0
102
}
330
3A0
100
AcDbScale
 70
     0
300
4:1
140
4.0
141
1.0
290
     0
  0
SCALE
  5
3AF
102
{ACAD_REACTORS
330
3A0
102
}
330
3A0
100
AcDbScale
 70
     0
300
8:1
140
8.0
141
1.0
290
     0
  0
SCALE
  5
3B0
102
{ACAD_REACTORS
330
3A0
102
}
330
3A0
100
AcDbScale
 70
     0
300
10:1
140
10.0
141
1.0
290
     0
  0
SCALE
  5
3B1
102
{ACAD_REACTORS
330
3A0
102
}
330
3A0
100
AcDbScale
 70
     0
300
100:1
140
100.0
141
1.0
290
     0
  0
SCALE
  5
3B2
102
{ACAD_REACTORS
330
3A0
102
}
330
3A0
100
AcDbScale
 70
     0
300
1/128" = 1'-0"
140
0.0078125
141
12.0
290
     0
  0
SCALE
  5
3B3
102
{ACAD_REACTORS
330
3A0
102
}
330
3A0
100
AcDbScale
 70
     0
300
1/64" = 1'-0"
140
0.015625
141
12.0
290
     0
  0
SCALE
  5
3B4
102
{ACAD_REACTORS
330
3A0
102
}
330
3A0
100
AcDbScale
 70
     0
300
1/32" = 1'-0"
140
0.03125
141
12.0
290
     0
  0
SCALE
  5
3B5
102
{ACAD_REACTORS
330
3A0
102
}
330
3A0
100
AcDbScale
 70
     0
300
1/16" = 1'-0"
140
0.0625
141
12.0
290
     0
  0
SCALE
  5
3B6
102
{ACAD_REACTORS
330
3A0
102
}
330
3A0
100
AcDbScale
 70
     0
300
3/32" = 1'-0"
140
0.09375
141
12.0
290
     0
  0
SCALE
  5
3B7
102
{ACAD_REACTORS
330
3A0
102
}
330
3A0
100
AcDbScale
 70
     0
300
1/8" = 1'-0"
140
0.125
141
12.0
290
     0
  0
SCALE
  5
3B8
102
{ACAD_REACTORS
330
3A0
102
}
330
3A0
100
AcDbScale
 70
     0
300
3/16" = 1'-0"
140
0.1875
141
12.0
290
     0
  0
SCALE
  5
3B9
102
{ACAD_REACTORS
330
3A0
102
}
330
3A0
100
AcDbScale
 70
     0
300
1/4" = 1'-0"
140
0.25
141
12.0
290
     0
  0
SCALE
  5
3BA
102
{ACAD_REACTORS
330
3A0
102
}
330
3A0
100
AcDbScale
 70
     0
300
3/8" = 1'-0"
140
0.375
141
12.0
290
     0
  0
SCALE
  5
3BB
102
{ACAD_REACTORS
330
3A0
102
}
330
3A0
100
AcDbScale
 70
     0
300
1/2" = 1'-0"
140
0.5
141
12.0
290
     0
  0
SCALE
  5
3BC
102
{ACAD_REACTORS
330
3A0
102
}
330
3A0
100
AcDbScale
 70
     0
300
3/4" = 1'-0"
140
0.75
141
12.0
290
     0
  0
SCALE
  5
3BD
102
{ACAD_REACTORS
330
3A0
102
}
330
3A0
100
AcDbScale
 70
     0
300
1" = 1'-0"
140
1.0
141
12.0
290
     0
  0
SCALE
  5
3BE
102
{ACAD_REACTORS
330
3A0
102
}
330
3A0
100
AcDbScale
 70
     0
300
1-1/2" = 1'-0"
140
1.5
141
12.0
290
     0
  0
SCALE
  5
3BF
102
{ACAD_REACTORS
330
3A0
102
}
330
3A0
100
AcDbScale
 70
     0
300
3" = 1'-0"
140
3.0
141
12.0
290
     0
  0
SCALE
  5
3C0
102
{ACAD_REACTORS
330
3A0
102
}
330
3A0
100
AcDbScale
 70
     0
300
6" = 1'-0"
140
6.0
141
12.0
290
     0
  0
SCALE
  5
3C1
102
{ACAD_REACTORS
330
3A0
102
}
330
3A0
100
AcDbScale
 70
     0
300
1'-0" = 1'-0"
140
12.0
141
12.0
290
     0
  0
ACDBSECTIONVIEWSTYLE
  5
4FE
102
{ACAD_XDICTIONARY
360
184E
102
}
102
{ACAD_REACTORS
330
4FD
102
}
330
4FD
100
AcDbModelDocViewStyle
 70
     0
  3
Metric50
290
     0
100
AcDbSectionViewStyle
 70
     0
 71
     0
 90
      102
 71
     1
340
10
 62
   256
 40
5.0
340
0
340
0
 62
   256
 40
5.0
300
I, O, Q, S, X, Z
 40
10.0
 90
        0
 40
2.5
 90
        0
 71
     2
340
14
 90
       25
 62
   256
340
14
 90
       50
 62
   256
 40
5.0
 40
2.5
 40
5.0
 71
     3
340
10
 62
   256
 40
5.0
 90
        0
 40
15.0
 90
        1
300
%<\AcVar ViewSectionStartId>%-%<\AcVar ViewSectionEndId>% (%<\AcVar ViewScale \f "%sn">%)
 71
     4
 62
   256
 62
   257
300
ANSI31
 40
1.0
 90
        0
290
     0
290
     0
 90
        6
 40
0.0
 40
1.570796326794896
 40
0.2617993877991494
 40
1.308996938995747
 40
-0.2617993877991494
 40
1.832595714594044
  0
TABLESTYLE
  5
4FB
102
{ACAD_XDICTIONARY
360
52D
102
}
102
{ACAD_REACTORS
330
388
102
}
330
388
100
AcDbTableStyle
  3
Standard
 70
     0
 71
     0
 40
1.5
 41
1.5
280
     0
281
     0
  7
STANDARD
140
4.5
170
     2
 62
     0
 63
     7
283
     0
274
    -2
284
     1
 64
     0
275
    -2
285
     1
 65
     0
276
    -2
286
     1
 66
     0
277
    -2
287
     1
 67
     0
278
    -2
288
     1
 68
     0
279
    -2
289
     1
 69
     0
  7
STANDARD
140
6.0
170
     5
 62
     0
 63
     7
283
     0
274
    -2
284
     1
 64
     0
275
    -2
285
     1
 65
     0
276
    -2
286
     1
 66
     0
277
    -2
287
     1
 67
     0
278
    -2
288
     1
 68
     0
279
    -2
289
     1
 69
     0
  7
STANDARD
140
4.5
170
     5
 62
     0
 63
     7
283
     0
274
    -2
284
     1
 64
     0
275
    -2
285
     1
 65
     0
276
    -2
286
     1
 66
     0
277
    -2
287
     1
 67
     0
278
    -2
288
     1
 68
     0
279
    -2
289
     1
 69
     0
  0
VISUALSTYLE
  5
4E8
102
{ACAD_XDICTIONARY
360
1827
102
}
102
{ACAD_REACTORS
330
4E2
102
}
330
4E2
100
AcDbVisualStyle
  2

 70
     4
 71
     0
 72
     2
 73
     0
 90
        0
 40
-0.6
 41
-30.0
 62
     5
 63
     7
 74
     1
 91
        4
 64
     7
 65
   257
 75
     1
175
     1
 42
1.0
 92
        0
 66
   257
 43
1.0
 76
     1
 77
     6
 78
     2
 67
     7
 79
     5
170
     0
171
     0
290
     0
174
     0
 93
        1
 44
0.0
173
     0
291
     0
 45
0.0
1001
ACAD
1000
AcDbSavedByObjectVersion
1070
     0
  0
VISUALSTYLE
  5
4E7
102
{ACAD_XDICTIONARY
360
1825
102
}
102
{ACAD_REACTORS
330
4E2
102
}
330
4E2
100
AcDbVisualStyle
  2

 70
     7
 71
     1
 72
     0
 73
     1
 90
        0
 40
-0.6
 41
-30.0
 62
     5
 63
     7
 74
     0
 91
        4
 64
     7
 65
   257
 75
     1
175
     1
 42
1.0
 92
        8
 66
     7
 43
1.0
 76
     1
 77
     6
 78
     2
 67
     7
 79
     5
170
     0
171
     0
290
     0
174
     0
 93
        1
 44
0.0
173
     0
291
     1
 45
0.0
1001
ACAD
1000
AcDbSavedByObjectVersion
1070
     0
  0
VISUALSTYLE
  5
4EE
102
{ACAD_XDICTIONARY
360
1833
102
}
102
{ACAD_REACTORS
330
4E2
102
}
330
4E2
100
AcDbVisualStyle
  2

 70
    12
 71
     2
 72
     2
 73
     0
 90
        0
 40
-0.6
 41
-30.0
 62
     5
 63
     7
 74
     1
 91
        4
 64
     7
 65
   257
 75
     1
175
     1
 42
1.0
 92
        8
 66
     7
 43
1.0
 76
     1
 77
     6
 78
     2
 67
     7
 79
     5
170
     0
171
     0
290
     0
174
     0
 93
        1
 44
50.0
173
     0
291
     1
 45
0.0
1001
ACAD
1000
AcDbSavedByObjectVersion
1070
     0
  0
VISUALSTYLE
  5
4F2
102
{ACAD_XDICTIONARY
360
183B
102
}
102
{ACAD_REACTORS
330
4E2
102
}
330
4E2
100
AcDbVisualStyle
  2

 70
    16
 71
     2
 72
     2
 73
     3
 90
        0
 40
-0.6
 41
-30.0
 62
     5
 63
     8
 74
     1
 91
        4
 64
     7
 65
   257
 75
     1
175
     1
 42
1.0
 92
        8
 66
     8
 43
1.0
 76
     1
 77
     6
 78
     2
 67
     7
 79
     5
170
     0
171
     0
290
     0
174
     0
 93
        1
 44
0.0
173
     0
291
     1
 45
0.0
1001
ACAD
1000
AcDbSavedByObjectVersion
1070
     0
  0
VISUALSTYLE
  5
4EB
102
{ACAD_XDICTIONARY
360
182D
102
}
102
{ACAD_REACTORS
330
4E2
102
}
330
4E2
100
AcDbVisualStyle
  2

 70
     9
 71
     3
 72
     2
 73
     0
 90
        0
 40
-0.6
 41
-30.0
 62
     5
 63
     7
 74
     2
 91
        2
 64
     7
 65
   257
 75
     1
175
     1
 42
179.0
 92
        8
 66
     7
 43
1.0
 76
     1
 77
     6
 78
     2
 67
     7
 79
     3
170
     0
171
     0
290
     0
174
     0
 93
        1
 44
0.0
173
     0
291
     0
 45
0.0
1001
ACAD
1000
AcDbSavedByObjectVersion
1070
     0
  0
VISUALSTYLE
  5
4ED
102
{ACAD_XDICTIONARY
360
1831
102
}
102
{ACAD_REACTORS
330
4E2
102
}
330
4E2
100
AcDbVisualStyle
  2

 70
    11
 71
     2
 72
     2
 73
     0
 90
        0
 40
-0.6
 41
-30.0
 62
     5
 63
     7
 74
     1
 91
        4
 64
     7
 65
   257
 75
     1
175
     1
 42
1.0
 92
        8
 66
     7
 43
1.0
 76
     1
 77
     6
 78
     2
 67
     7
 79
     5
170
     0
171
     0
290
     0
174
     0
 93
        1
 44
-50.0
173
     0
291
     1
 45
0.0
1001
ACAD
1000
AcDbSavedByObjectVersion
1070
     0
  0
VISUALSTYLE
  5
4FA
102
{ACAD_XDICTIONARY
360
184B
102
}
102
{ACAD_REACTORS
330
4E2
102
}
330
4E2
100
AcDbVisualStyle
  2

 70
    22
 71
     2
 72
     2
 73
     0
 90
        0
 40
-0.6
 41
-30.0
 62
     5
 63
     7
 74
     1
 91
        4
 64
     7
 65
   257
 75
     1
175
     1
 42
1.0
 92
        8
 66
     7
 43
1.0
 76
     1
 77
     6
 78
     2
 67
     7
 79
     5
170
     0
171
     0
290
     0
174
     0
 93
        1
 44
0.0
173
     0
291
     1
 45
0.0
1001
ACAD
1000
AcDbSavedByObjectVersion
1070
     0
  0
VISUALSTYLE
  5
4F1
102
{ACAD_XDICTIONARY
360
1839
102
}
102
{ACAD_REACTORS
330
4E2
102
}
330
4E2
100
AcDbVisualStyle
  2

 70
    15
 71
     2
 72
     2
 73
     0
 90
        0
 40
-0.6
 41
-30.0
 62
     5
 63
     7
 74
     1
 91
        4
 64
     7
 65
   257
 75
     1
175
     1
 42
1.0
 92
        8
 66
     7
 43
1.0
 76
     1
 77
     6
 78
     2
 67
     7
 79
     5
170
     0
171
     0
290
     0
174
     0
 93
        1
 44
0.0
173
     0
291
     1
 45
0.0
1001
ACAD
1000
AcDbSavedByObjectVersion
1070
     0
  0
VISUALSTYLE
  5
4E3
102
{ACAD_XDICTIONARY
360
181D
102
}
102
{ACAD_REACTORS
330
4E2
102
}
330
4E2
100
AcDbVisualStyle
  2

 70
     0
 71
     2
 72
     1
 73
     1
 90
        2
 40
-0.6
 41
30.0
 62
     5
 63
     7
 74
     0
 91
        0
 64
     7
 65
   257
 75
     1
175
     1
 42
1.0
 92
        8
 66
     7
 43
1.0
 76
     1
 77
     6
 78
     2
 67
     7
 79
     5
170
     0
171
     0
290
     0
174
     0
 93
       13
 44
0.0
173
     0
291
     1
 45
0.0
1001
ACAD
1000
AcDbSavedByObjectVersion
1070
     0
  0
VISUALSTYLE
  5
4E4
102
{ACAD_XDICTIONARY
360
181F
102
}
102
{ACAD_REACTORS
330
4E2
102
}
330
4E2
100
AcDbVisualStyle
  2

 70
     1
 71
     2
 72
     1
 73
     1
 90
        2
 40
-0.6
 41
30.0
 62
     5
 63
     7
 74
     1
 91
        0
 64
     7
 65
   257
 75
     1
175
     1
 42
1.0
 92
        0
 66
   257
 43
1.0
 76
     1
 77
     6
 78
     2
 67
     7
 79
     5
170
     0
171
     0
290
     0
174
     0
 93
       13
 44
0.0
173
     0
291
     1
 45
0.0
1001
ACAD
1000
AcDbSavedByObjectVersion
1070
     0
  0
VISUALSTYLE
  5
4E5
102
{ACAD_XDICTIONARY
360
1821
102
}
102
{ACAD_REACTORS
330
4E2
102
}
330
4E2
100
AcDbVisualStyle
  2

 70
     2
 71
     2
 72
     2
 73
     1
 90
        2
 40
-0.6
 41
30.0
 62
     5
 63
     7
 74
     0
 91
        0
 64
     7
 65
   257
 75
     1
175
     1
 42
1.0
 92
        0
 66
     7
 43
1.0
 76
     1
 77
     6
 78
     2
 67
     7
 79
     5
170
     0
171
     0
290
     0
174
     0
 93
       13
 44
0.0
173
     0
291
     1
 45
0.0
1001
ACAD
1000
AcDbSavedByObjectVersion
1070
     0
  0
VISUALSTYLE
  5
4E6
102
{ACAD_XDICTIONARY
360
1823
102
}
102
{ACAD_REACTORS
330
4E2
102
}
330
4E2
100
AcDbVisualStyle
  2

 70
     3
 71
     2
 72
     2
 73
     1
 90
        2
 40
-0.6
 41
30.0
 62
     5
 63
     7
 74
     1
 91
        0
 64
     7
 65
   257
 75
     1
175
     1
 42
1.0
 92
        0
 66
   257
 43
1.0
 76
     1
 77
     6
 78
     2
 67
     7
 79
     5
170
     0
171
     0
290
     0
174
     0
 93
       13
 44
0.0
173
     0
291
     1
 45
0.0
1001
ACAD
1000
AcDbSavedByObjectVersion
1070
     0
  0
VISUALSTYLE
  5
4EA
102
{ACAD_XDICTIONARY
360
182B
102
}
102
{ACAD_REACTORS
330
4E2
102
}
330
4E2
100
AcDbVisualStyle
  2

 70
     6
 71
     1
 72
     2
 73
     2
 90
        0
 40
-0.6
 41
-30.0
 62
     5
 63
     7
 74
     2
 91
        2
 64
     7
 65
   257
 75
     2
175
     1
 42
40.0
 92
        0
 66
   257
 43
1.0
 76
     1
 77
     6
 78
     2
 67
     7
 79
     3
170
     0
171
     0
290
     0
174
     0
 93
        1
 44
0.0
173
     0
291
     0
 45
0.0
1001
ACAD
1000
AcDbSavedByObjectVersion
1070
     0
  0
VISUALSTYLE
  5
4F8
102
{ACAD_XDICTIONARY
360
1847
102
}
102
{ACAD_REACTORS
330
4E2
102
}
330
4E2
100
AcDbVisualStyle
  2

 70
    20
 71
     2
 72
     2
 73
     0
 90
        0
 40
-0.6
 41
-30.0
 62
     5
 63
     7
 74
     1
 91
        4
 64
     7
 65
   257
 75
     1
175
     1
 42
1.0
 92
       10
 66
     7
 43
1.0
 76
     1
 77
     6
 78
     2
 67
     7
 79
     5
170
     0
171
     0
290
     0
174
     0
 93
        1
 44
0.0
173
     0
291
     1
 45
0.0
1001
ACAD
1000
AcDbSavedByObjectVersion
1070
     0
  0
VISUALSTYLE
  5
4F0
102
{ACAD_XDICTIONARY
360
1837
102
}
102
{ACAD_REACTORS
330
4E2
102
}
330
4E2
100
AcDbVisualStyle
  2

 70
    14
 71
     2
 72
     2
 73
     0
 90
        0
 40
-0.6
 41
-30.0
 62
     5
 63
     7
 74
     1
 91
        4
 64
     7
 65
   257
 75
     7
175
     7
 42
1.0
 92
        8
 66
     7
 43
1.0
 76
     1
 77
     6
 78
     2
 67
     7
 79
     5
170
     0
171
     0
290
     0
174
     0
 93
        1
 44
0.0
173
     0
291
     1
 45
0.0
1001
ACAD
1000
AcDbSavedByObjectVersion
1070
     0
  0
VISUALSTYLE
  5
4F9
102
{ACAD_XDICTIONARY
360
1849
102
}
102
{ACAD_REACTORS
330
4E2
102
}
330
4E2
100
AcDbVisualStyle
  2

 70
    21
 71
     2
 72
     2
 73
     0
 90
        0
 40
-0.6
 41
-30.0
 62
     5
 63
     7
 74
     1
 91
        4
 64
     7
 65
   257
 75
     1
175
     1
 42
1.0
 92
        9
 66
     7
 43
1.0
 76
     1
 77
     6
 78
     2
 67
     7
 79
     5
170
     0
171
     0
290
     0
174
     0
 93
        1
 44
0.0
173
     0
291
     1
 45
0.0
1001
ACAD
1000
AcDbSavedByObjectVersion
1070
     0
  0
VISUALSTYLE
  5
4EC
102
{ACAD_XDICTIONARY
360
182F
102
}
102
{ACAD_REACTORS
330
4E2
102
}
330
4E2
100
AcDbVisualStyle
  2

 70
     8
 71
     2
 72
     3
 73
     0
 90
        2
 40
-0.6
 41
30.0
 62
     5
 63
     7
 74
     0
 91
        0
 64
     7
 65
   257
 75
     1
175
     1
 42
1.0
 92
        8
 66
   257
 43
1.0
 76
     1
 77
     6
 78
     2
 67
     7
 79
     3
170
     0
171
     0
290
     0
174
     0
 93
       13
 44
0.0
173
     0
291
     0
 45
0.0
1001
ACAD
1000
AcDbSavedByObjectVersion
1070
     0
  0
VISUALSTYLE
  5
4F7
102
{ACAD_XDICTIONARY
360
1845
102
}
102
{ACAD_REACTORS
330
4E2
102
}
330
4E2
100
AcDbVisualStyle
  2

 70
    27
 71
     2
 72
     2
 73
     1
 90
        2
 40
-0.6
 41
30.0
 62
     5
 63
     7
 74
     0
 91
        4
 64
     7
 65
   257
 75
     1
175
     1
 42
1.0
 92
        8
 66
   257
 43
1.0
 76
     1
 77
     6
 78
     2
 67
     8
 79
     3
170
     0
171
     0
290
     0
174
     0
 93
        5
 44
0.0
173
     0
291
     0
 45
0.0
1001
ACAD
1000
AcDbSavedByObjectVersion
1070
     0
  0
VISUALSTYLE
  5
4F6
102
{ACAD_XDICTIONARY
360
1843
102
}
102
{ACAD_REACTORS
330
4E2
102
}
330
4E2
100
AcDbVisualStyle
  2

 70
    26
 71
     2
 72
     2
 73
     1
 90
        2
 40
-0.6
 41
30.0
 62
     5
 63
     7
 74
     1
 91
       10
 64
     7
 65
   257
 75
     2
175
     1
 42
1.0
 92
        8
 66
   257
 43
1.0
 76
     1
 77
     6
 78
     2
 67
     7
 79
     3
170
     0
171
     0
290
     0
174
     0
 93
        5
 44
0.0
173
     0
291
     0
 45
0.0
1001
ACAD
1000
AcDbSavedByObjectVersion
1070
     0
  0
VISUALSTYLE
  5
4F3
102
{ACAD_XDICTIONARY
360
183D
102
}
102
{ACAD_REACTORS
330
4E2
102
}
330
4E2
100
AcDbVisualStyle
  2

 70
    23
 71
     2
 72
     2
 73
     3
 90
        0
 40
-0.6
 41
-30.0
 62
     5
 63
     7
 74
     2
 91
        2
 64
     7
 65
     7
 75
     1
175
     1
 42
40.0
 92
        8
 66
     7
 43
1.0
 76
     1
 77
     6
 78
     2
 67
     7
 79
     3
170
     0
171
     0
290
     0
174
     0
 93
        1
 44
0.0
173
     0
291
     0
 45
0.0
1001
ACAD
1000
AcDbSavedByObjectVersion
1070
     0
  0
VISUALSTYLE
  5
4F4
102
{ACAD_XDICTIONARY
360
183F
102
}
102
{ACAD_REACTORS
330
4E2
102
}
330
4E2
100
AcDbVisualStyle
  2

 70
    24
 71
     1
 72
     2
 73
     2
 90
        0
 40
-0.6
 41
-30.0
 62
     5
 63
     7
 74
     2
 91
        2
 64
     7
 65
     7
 75
     1
175
     1
 42
40.0
 92
       11
 66
     7
 43
1.0
 76
     1
 77
     6
 78
     2
 67
     7
 79
     6
170
     0
171
     0
290
     0
174
     0
 93
        1
 44
0.0
173
     0
291
     0
 45
0.0
1001
ACAD
1000
AcDbSavedByObjectVersion
1070
     0
  0
VISUALSTYLE
  5
4EF
102
{ACAD_XDICTIONARY
360
1835
102
}
102
{ACAD_REACTORS
330
4E2
102
}
330
4E2
100
AcDbVisualStyle
  2

 70
    13
 71
     2
 72
     2
 73
     0
 90
        0
 40
-0.6
 41
-30.0
 62
     5
 63
     7
 74
     1
 91
        4
 64
     7
 65
   257
 75
     1
175
     1
 42
1.0
 92
       12
 66
     7
 43
1.0
 76
     1
 77
     6
 78
     2
 67
     7
 79
     5
170
     0
171
     0
290
     0
174
     0
 93
        1
 44
0.0
173
     0
291
     1
 45
0.0
1001
ACAD
1000
AcDbSavedByObjectVersion
1070
     0
  0
VISUALSTYLE
  5
4E9
102
{ACAD_XDICTIONARY
360
1829
102
}
102
{ACAD_REACTORS
330
4E2
102
}
330
4E2
100
AcDbVisualStyle
  2

 70
     5
 71
     0
 72
     2
 73
     0
 90
        0
 40
-0.6
 41
-30.0
 62
     5
 63
     7
 74
     1
 91
        4
 64
     7
 65
   257
 75
     1
175
     1
 42
1.0
 92
        0
 66
   257
 43
1.0
 76
     1
 77
     6
 78
     2
 67
     7
 79
     3
170
     0
171
     0
290
     0
174
     0
 93
        1
 44
0.0
173
     0
291
     0
 45
0.0
1001
ACAD
1000
AcDbSavedByObjectVersion
1070
     0
  0
VISUALSTYLE
  5
4F5
102
{ACAD_XDICTIONARY
360
1841
102
}
102
{ACAD_REACTORS
330
4E2
102
}
330
4E2
100
AcDbVisualStyle
  2

 70
    25
 71
     2
 72
     2
 73
     1
 90
        1
 40
0.5
 41
-30.0
 62
     5
 63
     7
 74
     1
 91
        0
 64
     7
 65
   257
 75
     1
175
     1
 42
1.0
 92
        8
 66
     7
 43
1.0
 76
     1
 77
     6
 78
     2
 67
     7
 79
     3
170
     0
171
     0
290
     0
174
     0
 93
       13
 44
0.0
173
     0
291
     0
 45
0.0
1001
ACAD
1000
AcDbSavedByObjectVersion
1070
     0
  0
DICTIONARYVAR
  5
4C4
102
{ACAD_REACTORS
330
357
102
}
330
357
100
DictionaryVariables
280
     0
  1
1:1
  0
DICTIONARYVAR
  5
526
102
{ACAD_REACTORS
330
357
102
}
330
357
100
DictionaryVariables
280
     0
  1
STANDARD
  0
DICTIONARYVAR
  5
38D
102
{ACAD_REACTORS
330
357
102
}
330
357
100
DictionaryVariables
280
     0
  1
STANDARD
  0
DICTIONARYVAR
  5
527
102
{ACAD_REACTORS
330
357
102
}
330
357
100
DictionaryVariables
280
     0
  1
Metric50
  0
DICTIONARYVAR
  5
528
102
{ACAD_REACTORS
330
357
102
}
330
357
100
DictionaryVariables
280
     0
  1
Metric50
  0
DICTIONARYVAR
  5
359
102
{ACAD_REACTORS
330
357
102
}
330
357
100
DictionaryVariables
280
     0
  1
2
  0
DICTIONARYVAR
  5
358
102
{ACAD_REACTORS
330
357
102
}
330
357
100
DictionaryVariables
280
     0
  1
1
  0
DICTIONARYVAR
  5
52A
102
{ACAD_REACTORS
330
357
102
}
330
357
100
DictionaryVariables
280
     0
  1
0
  0
DICTIONARYVAR
  5
38E
102
{ACAD_REACTORS
330
357
102
}
330
357
100
DictionaryVariables
280
     0
  1

  0
DICTIONARYVAR
  5
529
102
{ACAD_REACTORS
330
357
102
}
330
357
100
DictionaryVariables
280
     0
  1
127
  0
DICTIONARYVAR
  5
1812
102
{ACAD_REACTORS
330
357
102
}
330
357
100
DictionaryVariables
280
     0
  1
2
  0
DICTIONARY
  5
181C
102
{ACAD_REACTORS
330
181A
102
}
330
181A
100
AcDbDictionary
281
     1
  0
DICTIONARY
  5
181B
102
{ACAD_REACTORS
330
181A
102
}
330
181A
100
AcDbDictionary
281
     1
  3
8796082576720
350
1815
  3
8796082576736
350
1816
  3
8796082576752
350
1817
  3
8796082576768
350
1818
  3
8796082576784
350
1819
  0
DICTIONARY
  5
1850
330
500
100
AcDbDictionary
280
     1
281
     1
  3
ACAD_XREC_ROUNDTRIP
360
1851
  0
DICTIONARY
  5
4D3
330
4D2
100
AcDbDictionary
280
     1
281
     1
  3
ACAD_XREC_ROUNDTRIP
360
537
  3
BUMPTILE
360
4D5
  3
DIFFUSETILE
360
4D4
  3
OPACITYTILE
360
4D8
  3
REFLECTIONTILE
360
4D7
  3
REFRACTIONTILE
360
4D9
  3
SPECULARTILE
360
4D6
  0
DICTIONARY
  5
4CB
330
4CA
100
AcDbDictionary
280
     1
281
     1
  3
ACAD_XREC_ROUNDTRIP
360
536
  3
BUMPTILE
360
4CD
  3
DIFFUSETILE
360
4CC
  3
OPACITYTILE
360
4D0
  3
REFLECTIONTILE
360
4CF
  3
REFRACTIONTILE
360
4D1
  3
SPECULARTILE
360
4CE
  0
DICTIONARY
  5
4DB
330
4DA
100
AcDbDictionary
280
     1
281
     1
  3
ACAD_XREC_ROUNDTRIP
360
538
  3
BUMPTILE
360
4DD
  3
DIFFUSETILE
360
4DC
  3
OPACITYTILE
360
4E0
  3
REFLECTIONTILE
360
4DF
  3
REFRACTIONTILE
360
4E1
  3
SPECULARTILE
360
4DE
  0
DICTIONARY
  5
184E
330
4FE
100
AcDbDictionary
280
     1
281
     1
  3
ACAD_XREC_ROUNDTRIP
360
184F
  0
DICTIONARY
  5
52D
330
4FB
100
AcDbDictionary
280
     1
281
     1
  3
ACAD_ROUNDTRIP_2008_TABLESTYLE_CELLSTYLEMAP
360
1813
  3
ACAD_XREC_ROUNDTRIP
360
184D
  0
DICTIONARY
  5
1827
330
4E8
100
AcDbDictionary
280
     1
281
     1
  3
ACAD_XREC_ROUNDTRIP
360
1828
  0
DICTIONARY
  5
1825
330
4E7
100
AcDbDictionary
280
     1
281
     1
  3
ACAD_XREC_ROUNDTRIP
360
1826
  0
DICTIONARY
  5
1833
330
4EE
100
AcDbDictionary
280
     1
281
     1
  3
ACAD_XREC_ROUNDTRIP
360
1834
  0
DICTIONARY
  5
183B
330
4F2
100
AcDbDictionary
280
     1
281
     1
  3
ACAD_XREC_ROUNDTRIP
360
183C
  0
DICTIONARY
  5
182D
330
4EB
100
AcDbDictionary
280
     1
281
     1
  3
ACAD_XREC_ROUNDTRIP
360
182E
  0
DICTIONARY
  5
1831
330
4ED
100
AcDbDictionary
280
     1
281
     1
  3
ACAD_XREC_ROUNDTRIP
360
1832
  0
DICTIONARY
  5
184B
330
4FA
100
AcDbDictionary
280
     1
281
     1
  3
ACAD_XREC_ROUNDTRIP
360
184C
  0
DICTIONARY
  5
1839
330
4F1
100
AcDbDictionary
280
     1
281
     1
  3
ACAD_XREC_ROUNDTRIP
360
183A
  0
DICTIONARY
  5
181D
330
4E3
100
AcDbDictionary
280
     1
281
     1
  3
ACAD_XREC_ROUNDTRIP
360
181E
  0
DICTIONARY
  5
181F
330
4E4
100
AcDbDictionary
280
     1
281
     1
  3
ACAD_XREC_ROUNDTRIP
360
1820
  0
DICTIONARY
  5
1821
330
4E5
100
AcDbDictionary
280
     1
281
     1
  3
ACAD_XREC_ROUNDTRIP
360
1822
  0
DICTIONARY
  5
1823
330
4E6
100
AcDbDictionary
280
     1
281
     1
  3
ACAD_XREC_ROUNDTRIP
360
1824
  0
DICTIONARY
  5
182B
330
4EA
100
AcDbDictionary
280
     1
281
     1
  3
ACAD_XREC_ROUNDTRIP
360
182C
  0
DICTIONARY
  5
1847
330
4F8
100
AcDbDictionary
280
     1
281
     1
  3
ACAD_XREC_ROUNDTRIP
360
1848
  0
DICTIONARY
  5
1837
330
4F0
100
AcDbDictionary
280
     1
281
     1
  3
ACAD_XREC_ROUNDTRIP
360
1838
  0
DICTIONARY
  5
1849
330
4F9
100
AcDbDictionary
280
     1
281
     1
  3
ACAD_XREC_ROUNDTRIP
360
184A
  0
DICTIONARY
  5
182F
330
4EC
100
AcDbDictionary
280
     1
281
     1
  3
ACAD_XREC_ROUNDTRIP
360
1830
  0
DICTIONARY
  5
1845
330
4F7
100
AcDbDictionary
280
     1
281
     1
  3
ACAD_XREC_ROUNDTRIP
360
1846
  0
DICTIONARY
  5
1843
330
4F6
100
AcDbDictionary
280
     1
281
     1
  3
ACAD_XREC_ROUNDTRIP
360
1844
  0
DICTIONARY
  5
183D
330
4F3
100
AcDbDictionary
280
     1
281
     1
  3
ACAD_XREC_ROUNDTRIP
360
183E
  0
DICTIONARY
  5
183F
330
4F4
100
AcDbDictionary
280
     1
281
     1
  3
ACAD_XREC_ROUNDTRIP
360
1840
  0
DICTIONARY
  5
1835
330
4EF
100
AcDbDictionary
280
     1
281
     1
  3
ACAD_XREC_ROUNDTRIP
360
1836
  0
DICTIONARY
  5
1829
330
4E9
100
AcDbDictionary
280
     1
281
     1
  3
ACAD_XREC_ROUNDTRIP
360
182A
  0
DICTIONARY
  5
1841
330
4F5
100
AcDbDictionary
280
     1
281
     1
  3
ACAD_XREC_ROUNDTRIP
360
1842
  0
XRECORD
  5
1815
102
{ACAD_REACTORS
330
181B
102
}
330
181B
100
AcDbXrecord
280
     1
  1
AcDb_Thumbnail_Schema
102
{ATTRRECORD
341
1816
  2
AcDbDs::TreatedAsObjectData
280
     1
291
     1
102
ATTRRECORD}
102
{ATTRRECORD
341
1817
  2
AcDbDs::Legacy
280
     1
291
     1
102
ATTRRECORD}
  2
AcDbDs::ID
280
    10
 91
        8
102
{ATTRRECORD
341
1818
  2
AcDs:Indexable
280
     1
291
     1
102
ATTRRECORD}
102
{ATTRRECORD
341
1819
  2
AcDbDs::HandleAttribute
280
     7
282
     1
102
ATTRRECORD}
  2
Thumbnail_Data
280
    15
 91
        0
  0
XRECORD
  5
1816
102
{ACAD_REACTORS
330
181B
102
}
330
181B
100
AcDbXrecord
280
     1
  1
AcDbDs::TreatedAsObjectDataSchema
  2
AcDbDs::TreatedAsObjectData
280
     1
 91
        0
  0
XRECORD
  5
1817
102
{ACAD_REACTORS
330
181B
102
}
330
181B
100
AcDbXrecord
280
     1
  1
AcDbDs::LegacySchema
  2
AcDbDs::Legacy
280
     1
 91
        0
  0
XRECORD
  5
1818
102
{ACAD_REACTORS
330
181B
102
}
330
181B
100
AcDbXrecord
280
     1
  1
AcDbDs::IndexedPropertySchema
  2
AcDs:Indexable
280
     1
 91
        0
  0
XRECORD
  5
1819
102
{ACAD_REACTORS
330
181B
102
}
330
181B
100
AcDbXrecord
280
     1
  1
AcDbDs::HandleAttributeSchema
  2
AcDbDs::HandleAttribute
280
     7
 91
        1
284
     1
  0
XRECORD
  5
1851
102
{ACAD_REACTORS
330
1850
102
}
330
1850
100
AcDbXrecord
280
     1
102
DISPLAYNAME
  1
Metric50
102
FLAGS
 90
        0
  0
XRECORD
  5
537
102
{ACAD_REACTORS
330
4D3
102
}
330
4D3
100
AcDbXrecord
280
     1
102
MATERIAL
148
0.0
149
0.0
149
0.0
 93
        0
 94
      127
282
     0
 72
     0
 77
     0
171
     0
175
     0
179
     0
273
     0
  0
XRECORD
  5
4D5
102
{ACAD_REACTORS
330
4D3
102
}
330
4D3
100
AcDbXrecord
280
     1
270
     1
271
     1
  0
XRECORD
  5
4D4
102
{ACAD_REACTORS
330
4D3
102
}
330
4D3
100
AcDbXrecord
280
     1
270
     1
271
     1
  0
XRECORD
  5
4D8
102
{ACAD_REACTORS
330
4D3
102
}
330
4D3
100
AcDbXrecord
280
     1
270
     1
271
     1
  0
XRECORD
  5
4D7
102
{ACAD_REACTORS
330
4D3
102
}
330
4D3
100
AcDbXrecord
280
     1
270
     1
271
     1
  0
XRECORD
  5
4D9
102
{ACAD_REACTORS
330
4D3
102
}
330
4D3
100
AcDbXrecord
280
     1
270
     1
271
     1
  0
XRECORD
  5
4D6
102
{ACAD_REACTORS
330
4D3
102
}
330
4D3
100
AcDbXrecord
280
     1
270
     1
271
     1
  0
XRECORD
  5
536
102
{ACAD_REACTORS
330
4CB
102
}
330
4CB
100
AcDbXrecord
280
     1
102
MATERIAL
148
0.0
149
0.0
149
0.0
 93
        0
 94
      127
282
     0
 72
     0
 77
     0
171
     0
175
     0
179
     0
273
     0
  0
XRECORD
  5
4CD
102
{ACAD_REACTORS
330
4CB
102
}
330
4CB
100
AcDbXrecord
280
     1
270
     1
271
     1
  0
XRECORD
  5
4CC
102
{ACAD_REACTORS
330
4CB
102
}
330
4CB
100
AcDbXrecord
280
     1
270
     1
271
     1
  0
XRECORD
  5
4D0
102
{ACAD_REACTORS
330
4CB
102
}
330
4CB
100
AcDbXrecord
280
     1
270
     1
271
     1
  0
XRECORD
  5
4CF
102
{ACAD_REACTORS
330
4CB
102
}
330
4CB
100
AcDbXrecord
280
     1
270
     1
271
     1
  0
XRECORD
  5
4D1
102
{ACAD_REACTORS
330
4CB
102
}
330
4CB
100
AcDbXrecord
280
     1
270
     1
271
     1
  0
XRECORD
  5
4CE
102
{ACAD_REACTORS
330
4CB
102
}
330
4CB
100
AcDbXrecord
280
     1
270
     1
271
     1
  0
XRECORD
  5
538
102
{ACAD_REACTORS
330
4DB
102
}
330
4DB
100
AcDbXrecord
280
     1
102
MATERIAL
148
0.0
149
0.0
149
0.0
 93
        0
 94
      127
282
     0
 72
     0
 77
     0
171
     0
175
     0
179
     0
273
     0
  0
XRECORD
  5
4DD
102
{ACAD_REACTORS
330
4DB
102
}
330
4DB
100
AcDbXrecord
280
     1
270
     1
271
     1
  0
XRECORD
  5
4DC
102
{ACAD_REACTORS
330
4DB
102
}
330
4DB
100
AcDbXrecord
280
     1
270
     1
271
     1
  0
XRECORD
  5
4E0
102
{ACAD_REACTORS
330
4DB
102
}
330
4DB
100
AcDbXrecord
280
     1
270
     1
271
     1
  0
XRECORD
  5
4DF
102
{ACAD_REACTORS
330
4DB
102
}
330
4DB
100
AcDbXrecord
280
     1
270
     1
271
     1
  0
XRECORD
  5
4E1
102
{ACAD_REACTORS
330
4DB
102
}
330
4DB
100
AcDbXrecord
280
     1
270
     1
271
     1
  0
XRECORD
  5
4DE
102
{ACAD_REACTORS
330
4DB
102
}
330
4DB
100
AcDbXrecord
280
     1
270
     1
271
     1
  0
XRECORD
  5
184F
102
{ACAD_REACTORS
330
184E
102
}
330
184E
100
AcDbXrecord
280
     1
102
DISPLAYNAME
  1
Metric50
102
FLAGS
 90
        0
  0
CELLSTYLEMAP
  5
1813
102
{ACAD_REACTORS
330
52D
102
}
330
52D
100
AcDbCellStyleMap
 90
        3
300
CELLSTYLE
  1
TABLEFORMAT_BEGIN
 90
        5
170
     1
 91
        0
 92
    32768
 62
   257
 93
        1
300
CONTENTFORMAT
  1
CONTENTFORMAT_BEGIN
 90
        0
 91
        0
 92
      512
 93
        0
300

 40
0.0
140
1.0
 94
        5
 62
     0
340
10
144
6.0
309
CONTENTFORMAT_END
171
     1
301
MARGIN
  1
CELLMARGIN_BEGIN
 40
1.5
 40
1.5
 40
1.5
 40
1.5
 40
0.18
 40
0.18
309
CELLMARGIN_END
 94
        6
 95
        1
302
GRIDFORMAT
  1
GRIDFORMAT_BEGIN
 90
        0
 91
        1
 62
     0
 92
       -2
340
0
 93
        0
 40
1.125
309
GRIDFORMAT_END
 95
        2
302
GRIDFORMAT
  1
GRIDFORMAT_BEGIN
 90
        0
 91
        1
 62
     0
 92
       -2
340
0
 93
        0
 40
1.125
309
GRIDFORMAT_END
 95
        4
302
GRIDFORMAT
  1
GRIDFORMAT_BEGIN
 90
        0
 91
        1
 62
     0
 92
       -2
340
0
 93
        0
 40
1.125
309
GRIDFORMAT_END
 95
        8
302
GRIDFORMAT
  1
GRIDFORMAT_BEGIN
 90
        0
 91
        1
 62
     0
 92
       -2
340
0
 93
        0
 40
1.125
309
GRIDFORMAT_END
 95
       16
302
GRIDFORMAT
  1
GRIDFORMAT_BEGIN
 90
        0
 91
        1
 62
     0
 92
       -2
340
0
 93
        0
 40
1.125
309
GRIDFORMAT_END
 95
       32
302
GRIDFORMAT
  1
GRIDFORMAT_BEGIN
 90
        0
 91
        1
 62
     0
 92
       -2
340
0
 93
        0
 40
1.125
309
GRIDFORMAT_END
309
TABLEFORMAT_END
  1
CELLSTYLE_BEGIN
 90
        1
 91
        1
300
_TITLE
309
CELLSTYLE_END
300
CELLSTYLE
  1
TABLEFORMAT_BEGIN
 90
        5
170
     1
 91
        0
 92
        0
 62
   257
 93
        1
300
CONTENTFORMAT
  1
CONTENTFORMAT_BEGIN
 90
        0
 91
        0
 92
      512
 93
        0
300

 40
0.0
140
1.0
 94
        5
 62
     0
340
10
144
4.5
309
CONTENTFORMAT_END
171
     1
301
MARGIN
  1
CELLMARGIN_BEGIN
 40
1.5
 40
1.5
 40
1.5
 40
1.5
 40
0.18
 40
0.18
309
CELLMARGIN_END
 94
        6
 95
        1
302
GRIDFORMAT
  1
GRIDFORMAT_BEGIN
 90
        0
 91
        1
 62
     0
 92
       -2
340
0
 93
        0
 40
1.125
309
GRIDFORMAT_END
 95
        2
302
GRIDFORMAT
  1
GRIDFORMAT_BEGIN
 90
        0
 91
        1
 62
     0
 92
       -2
340
0
 93
        0
 40
1.125
309
GRIDFORMAT_END
 95
        4
302
GRIDFORMAT
  1
GRIDFORMAT_BEGIN
 90
        0
 91
        1
 62
     0
 92
       -2
340
0
 93
        0
 40
1.125
309
GRIDFORMAT_END
 95
        8
302
GRIDFORMAT
  1
GRIDFORMAT_BEGIN
 90
        0
 91
        1
 62
     0
 92
       -2
340
0
 93
        0
 40
1.125
309
GRIDFORMAT_END
 95
       16
302
GRIDFORMAT
  1
GRIDFORMAT_BEGIN
 90
        0
 91
        1
 62
     0
 92
       -2
340
0
 93
        0
 40
1.125
309
GRIDFORMAT_END
 95
       32
302
GRIDFORMAT
  1
GRIDFORMAT_BEGIN
 90
        0
 91
        1
 62
     0
 92
       -2
340
0
 93
        0
 40
1.125
309
GRIDFORMAT_END
309
TABLEFORMAT_END
  1
CELLSTYLE_BEGIN
 90
        2
 91
        1
300
_HEADER
309
CELLSTYLE_END
300
CELLSTYLE
  1
TABLEFORMAT_BEGIN
 90
        5
170
     1
 91
        0
 92
        0
 62
   257
 93
        1
300
CONTENTFORMAT
  1
CONTENTFORMAT_BEGIN
 90
        0
 91
        0
 92
      512
 93
        0
300

 40
0.0
140
1.0
 94
        2
 62
     0
340
10
144
4.5
309
CONTENTFORMAT_END
171
     1
301
MARGIN
  1
CELLMARGIN_BEGIN
 40
1.5
 40
1.5
 40
1.5
 40
1.5
 40
0.18
 40
0.18
309
CELLMARGIN_END
 94
        6
 95
        1
302
GRIDFORMAT
  1
GRIDFORMAT_BEGIN
 90
        0
 91
        1
 62
     0
 92
       -2
340
0
 93
        0
 40
1.125
309
GRIDFORMAT_END
 95
        2
302
GRIDFORMAT
  1
GRIDFORMAT_BEGIN
 90
        0
 91
        1
 62
     0
 92
       -2
340
0
 93
        0
 40
1.125
309
GRIDFORMAT_END
 95
        4
302
GRIDFORMAT
  1
GRIDFORMAT_BEGIN
 90
        0
 91
        1
 62
     0
 92
       -2
340
0
 93
        0
 40
1.125
309
GRIDFORMAT_END
 95
        8
302
GRIDFORMAT
  1
GRIDFORMAT_BEGIN
 90
        0
 91
        1
 62
     0
 92
       -2
340
0
 93
        0
 40
1.125
309
GRIDFORMAT_END
 95
       16
302
GRIDFORMAT
  1
GRIDFORMAT_BEGIN
 90
        0
 91
        1
 62
     0
 92
       -2
340
0
 93
        0
 40
1.125
309
GRIDFORMAT_END
 95
       32
302
GRIDFORMAT
  1
GRIDFORMAT_BEGIN
 90
        0
 91
        1
 62
     0
 92
       -2
340
0
 93
        0
 40
1.125
309
GRIDFORMAT_END
309
TABLEFORMAT_END
  1
CELLSTYLE_BEGIN
 90
        3
 91
        2
300
_DATA
309
CELLSTYLE_END
  0
XRECORD
  5
184D
102
{ACAD_REACTORS
330
52D
102
}
330
52D
100
AcDbXrecord
280
     1
102
ACAD_ROUNDTRIP_PRE2007_TABLESTYLE
 90
      512
 91
        0
  1

 92
      512
 93
        0
  2

 94
      512
 95
        0
  3

  0
XRECORD
  5
1828
102
{ACAD_REACTORS
330
1827
102
}
330
1827
100
AcDbXrecord
280
     1
102
RTVSPost2010Prop28
280
     1
102
RTVSPost2010PropOp28
 70
     1
102
RTVSPost2010Prop29
280
     1
102
RTVSPost2010PropOp29
 70
     1
102
RTVSPost2010Prop30
280
     0
102
RTVSPost2010PropOp30
 70
     1
102
RTVSPost2010Prop31
280
     0
102
RTVSPost2010PropOp31
 70
     1
102
RTVSPost2010Prop32
280
     0
102
RTVSPost2010PropOp32
 70
     1
102
RTVSPost2010Prop33
280
     0
102
RTVSPost2010PropOp33
 70
     1
102
RTVSPost2010Prop34
280
     0
102
RTVSPost2010PropOp34
 70
     1
102
RTVSPost2010Prop35
280
     0
102
RTVSPost2010PropOp35
 70
     1
102
RTVSPost2010Prop36
280
     0
102
RTVSPost2010PropOp36
 70
     1
102
RTVSPost2010Prop37
 90
       50
102
RTVSPost2010PropOp37
 70
     1
102
RTVSPost2010Prop38
140
0.0
102
RTVSPost2010PropOp38
 70
     1
102
RTVSPost2010Prop39
140
1.0
102
RTVSPost2010PropOp39
 70
     1
102
RTVSPost2010Prop40
 90
        0
102
RTVSPost2010PropOp40
 70
     1
102
RTVSPost2010Prop41ColorIndex
 90
       18
102
RTVSPost2010Prop41ColorRGB
 90
        0
102
RTVSPost2010PropOp41
 70
     1
102
RTVSPost2010Prop42
 90
       50
102
RTVSPost2010PropOp42
 70
     1
102
RTVSPost2010Prop43
 90
        3
102
RTVSPost2010PropOp43
 70
     1
102
RTVSPost2010Prop44ColorIndex
 90
        5
102
RTVSPost2010Prop44ColorRGB
 90
      255
102
RTVSPost2010PropOp44
 70
     1
102
RTVSPost2010Prop45
280
     0
102
RTVSPost2010PropOp45
 70
     1
102
RTVSPost2010Prop46
 90
       50
102
RTVSPost2010PropOp46
 70
     1
102
RTVSPost2010Prop47
 90
       50
102
RTVSPost2010PropOp47
 70
     1
102
RTVSPost2010Prop48
 90
       50
102
RTVSPost2010PropOp48
 70
     1
102
RTVSPost2010Prop49
280
     0
102
RTVSPost2010PropOp49
 70
     1
102
RTVSPost2010Prop50
 90
       50
102
RTVSPost2010PropOp50
 70
     1
102
RTVSPost2010Prop51ColorIndex
 90
      256
102
RTVSPost2010Prop51ColorRGB
 90
-16777216
102
RTVSPost2010PropOp51
 70
     0
102
RTVSPost2010Prop52
140
1.0
102
RTVSPost2010PropOp52
 70
     0
102
RTVSPost2010Prop53
 90
        2
102
RTVSPost2010PropOp53
 70
     1
102
RTVSPost2010Prop54
  1
strokes_ogs.tif
102
RTVSPost2010PropOp54
 70
     1
102
RTVSPost2010Prop55
280
     0
102
RTVSPost2010PropOp55
 70
     1
102
RTVSPost2010Prop56
140
1.0
102
RTVSPost2010PropOp56
 70
     1
102
RTVSPost2010Prop57
140
1.0
102
RTVSPost2010PropOp57
 70
     1
102
RTVSPropertyOp0
 70
     1
102
RTVSPropertyOp1
 70
     1
102
RTVSPropertyOp2
 70
     1
102
RTVSPropertyOp3
 70
     1
102
RTVSPropertyOp4
 70
     1
102
RTVSPropertyOp5
 70
     1
102
RTVSPropertyOp6
 70
     1
102
RTVSPropertyOp7
 70
     1
102
RTVSPropertyOp8
 70
     1
102
RTVSPropertyOp9
 70
     1
102
RTVSPropertyOp10
 70
     1
102
RTVSPropertyOp11
 70
     1
102
RTVSPropertyOp12
 70
     1
102
RTVSPropertyOp13
 70
     1
102
RTVSPropertyOp14
 70
     1
102
RTVSPropertyOp15
 70
     1
102
RTVSPropertyOp16
 70
     1
102
RTVSPropertyOp17
 70
     1
102
RTVSPropertyOp18
 70
     1
102
RTVSPropertyOp19
 70
     1
102
RTVSPropertyOp20
 70
     1
102
RTVSPropertyOp21
 70
     1
102
RTVSPropertyOp22
 70
     1
102
RTVSPropertyOp23
 70
     1
102
RTVSPropertyOp24
 70
     1
102
RTVSPropertyOp25
 70
     1
102
RTVSPropertyOp26
 70
     1
102
RTVSPropertyOp27
 70
     1
102
RTVSPropertyOp28
 70
     1
102
RTVSPropertyOp29
 70
     1
102
RTVSPropertyOp30
 70
     1
102
RTVSPropertyOp31
 70
     1
102
RTVSPropertyOp32
 70
     1
102
RTVSPropertyOp33
 70
     1
102
RTVSPropertyOp34
 70
     1
102
RTVSPropertyOp35
 70
     1
102
RTVSPropertyOp36
 70
     1
102
RTVSPropertyOp37
 70
     1
102
RTVSPropertyOp38
 70
     1
102
RTVSPropertyOp39
 70
     1
102
RTVSPropertyOp40
 70
     1
102
RTVSPropertyOp41
 70
     1
102
RTVSPropertyOp42
 70
     1
102
RTVSPropertyOp43
 70
     1
102
RTVSPropertyOp44
 70
     1
102
RTVSPropertyOp45
 70
     1
102
RTVSPropertyOp46
 70
     1
102
RTVSPropertyOp47
 70
     1
102
RTVSPropertyOp48
 70
     1
102
RTVSPropertyOp49
 70
     1
102
RTVSPropertyOp50
 70
     1
102
RTVSPropertyOp51
 70
     0
102
RTVSPropertyOp52
 70
     0
102
RTVSPropertyOp53
 70
     1
102
RTVSPropertyOp54
 70
     1
102
RTVSPropertyOp55
 70
     1
102
RTVSPropertyOp56
 70
     1
102
RTVSPropertyOp57
 70
     1
102
RTVSPropertyOp58
 70
     1
102
RTVSPropertyOp59
 70
     1
102
RTVSPropertyOp60
 70
     1
102
RTVSPropertyOp61
 70
     1
102
RTVSPropertyOp62
 70
     1
  0
XRECORD
  5
1826
102
{ACAD_REACTORS
330
1825
102
}
330
1825
100
AcDbXrecord
280
     1
102
RTVSPost2010Prop28
280
     0
102
RTVSPost2010PropOp28
 70
     1
102
RTVSPost2010Prop29
280
     1
102
RTVSPost2010PropOp29
 70
     1
102
RTVSPost2010Prop30
280
     1
102
RTVSPost2010PropOp30
 70
     1
102
RTVSPost2010Prop31
280
     0
102
RTVSPost2010PropOp31
 70
     1
102
RTVSPost2010Prop32
280
     0
102
RTVSPost2010PropOp32
 70
     1
102
RTVSPost2010Prop33
280
     0
102
RTVSPost2010PropOp33
 70
     1
102
RTVSPost2010Prop34
280
     0
102
RTVSPost2010PropOp34
 70
     1
102
RTVSPost2010Prop35
280
     0
102
RTVSPost2010PropOp35
 70
     1
102
RTVSPost2010Prop36
280
     0
102
RTVSPost2010PropOp36
 70
     1
102
RTVSPost2010Prop37
 90
       50
102
RTVSPost2010PropOp37
 70
     1
102
RTVSPost2010Prop38
140
0.0
102
RTVSPost2010PropOp38
 70
     1
102
RTVSPost2010Prop39
140
1.0
102
RTVSPost2010PropOp39
 70
     1
102
RTVSPost2010Prop40
 90
        0
102
RTVSPost2010PropOp40
 70
     1
102
RTVSPost2010Prop41ColorIndex
 90
       18
102
RTVSPost2010Prop41ColorRGB
 90
        0
102
RTVSPost2010PropOp41
 70
     1
102
RTVSPost2010Prop42
 90
       50
102
RTVSPost2010PropOp42
 70
     1
102
RTVSPost2010Prop43
 90
        3
102
RTVSPost2010PropOp43
 70
     1
102
RTVSPost2010Prop44ColorIndex
 90
        5
102
RTVSPost2010Prop44ColorRGB
 90
      255
102
RTVSPost2010PropOp44
 70
     1
102
RTVSPost2010Prop45
280
     0
102
RTVSPost2010PropOp45
 70
     1
102
RTVSPost2010Prop46
 90
       50
102
RTVSPost2010PropOp46
 70
     1
102
RTVSPost2010Prop47
 90
       50
102
RTVSPost2010PropOp47
 70
     1
102
RTVSPost2010Prop48
 90
       50
102
RTVSPost2010PropOp48
 70
     1
102
RTVSPost2010Prop49
280
     0
102
RTVSPost2010PropOp49
 70
     1
102
RTVSPost2010Prop50
 90
       50
102
RTVSPost2010PropOp50
 70
     1
102
RTVSPost2010Prop51ColorIndex
 90
      256
102
RTVSPost2010Prop51ColorRGB
 90
-16777216
102
RTVSPost2010PropOp51
 70
     0
102
RTVSPost2010Prop52
140
1.0
102
RTVSPost2010PropOp52
 70
     0
102
RTVSPost2010Prop53
 90
        2
102
RTVSPost2010PropOp53
 70
     1
102
RTVSPost2010Prop54
  1
strokes_ogs.tif
102
RTVSPost2010PropOp54
 70
     1
102
RTVSPost2010Prop55
280
     0
102
RTVSPost2010PropOp55
 70
     1
102
RTVSPost2010Prop56
140
1.0
102
RTVSPost2010PropOp56
 70
     1
102
RTVSPost2010Prop57
140
1.0
102
RTVSPost2010PropOp57
 70
     1
102
RTVSPropertyOp0
 70
     1
102
RTVSPropertyOp1
 70
     1
102
RTVSPropertyOp2
 70
     1
102
RTVSPropertyOp3
 70
     1
102
RTVSPropertyOp4
 70
     1
102
RTVSPropertyOp5
 70
     1
102
RTVSPropertyOp6
 70
     1
102
RTVSPropertyOp7
 70
     1
102
RTVSPropertyOp8
 70
     1
102
RTVSPropertyOp9
 70
     1
102
RTVSPropertyOp10
 70
     1
102
RTVSPropertyOp11
 70
     1
102
RTVSPropertyOp12
 70
     1
102
RTVSPropertyOp13
 70
     1
102
RTVSPropertyOp14
 70
     1
102
RTVSPropertyOp15
 70
     1
102
RTVSPropertyOp16
 70
     1
102
RTVSPropertyOp17
 70
     1
102
RTVSPropertyOp18
 70
     1
102
RTVSPropertyOp19
 70
     1
102
RTVSPropertyOp20
 70
     1
102
RTVSPropertyOp21
 70
     1
102
RTVSPropertyOp22
 70
     1
102
RTVSPropertyOp23
 70
     1
102
RTVSPropertyOp24
 70
     1
102
RTVSPropertyOp25
 70
     1
102
RTVSPropertyOp26
 70
     1
102
RTVSPropertyOp27
 70
     1
102
RTVSPropertyOp28
 70
     1
102
RTVSPropertyOp29
 70
     1
102
RTVSPropertyOp30
 70
     1
102
RTVSPropertyOp31
 70
     1
102
RTVSPropertyOp32
 70
     1
102
RTVSPropertyOp33
 70
     1
102
RTVSPropertyOp34
 70
     1
102
RTVSPropertyOp35
 70
     1
102
RTVSPropertyOp36
 70
     1
102
RTVSPropertyOp37
 70
     1
102
RTVSPropertyOp38
 70
     1
102
RTVSPropertyOp39
 70
     1
102
RTVSPropertyOp40
 70
     1
102
RTVSPropertyOp41
 70
     1
102
RTVSPropertyOp42
 70
     1
102
RTVSPropertyOp43
 70
     1
102
RTVSPropertyOp44
 70
     1
102
RTVSPropertyOp45
 70
     1
102
RTVSPropertyOp46
 70
     1
102
RTVSPropertyOp47
 70
     1
102
RTVSPropertyOp48
 70
     1
102
RTVSPropertyOp49
 70
     1
102
RTVSPropertyOp50
 70
     1
102
RTVSPropertyOp51
 70
     0
102
RTVSPropertyOp52
 70
     0
102
RTVSPropertyOp53
 70
     1
102
RTVSPropertyOp54
 70
     1
102
RTVSPropertyOp55
 70
     1
102
RTVSPropertyOp56
 70
     1
102
RTVSPropertyOp57
 70
     1
102
RTVSPropertyOp58
 70
     1
102
RTVSPropertyOp59
 70
     1
102
RTVSPropertyOp60
 70
     1
102
RTVSPropertyOp61
 70
     1
102
RTVSPropertyOp62
 70
     1
  0
XRECORD
  5
1834
102
{ACAD_REACTORS
330
1833
102
}
330
1833
100
AcDbXrecord
280
     1
102
RTVSPost2010Prop28
280
     0
102
RTVSPost2010PropOp28
 70
     1
102
RTVSPost2010Prop29
280
     1
102
RTVSPost2010PropOp29
 70
     1
102
RTVSPost2010Prop30
280
     1
102
RTVSPost2010PropOp30
 70
     1
102
RTVSPost2010Prop31
280
     0
102
RTVSPost2010PropOp31
 70
     1
102
RTVSPost2010Prop32
280
     0
102
RTVSPost2010PropOp32
 70
     1
102
RTVSPost2010Prop33
280
     0
102
RTVSPost2010PropOp33
 70
     1
102
RTVSPost2010Prop34
280
     0
102
RTVSPost2010PropOp34
 70
     1
102
RTVSPost2010Prop35
280
     0
102
RTVSPost2010PropOp35
 70
     1
102
RTVSPost2010Prop36
280
     0
102
RTVSPost2010PropOp36
 70
     1
102
RTVSPost2010Prop37
 90
       50
102
RTVSPost2010PropOp37
 70
     1
102
RTVSPost2010Prop38
140
0.0
102
RTVSPost2010PropOp38
 70
     1
102
RTVSPost2010Prop39
140
1.0
102
RTVSPost2010PropOp39
 70
     1
102
RTVSPost2010Prop40
 90
        0
102
RTVSPost2010PropOp40
 70
     1
102
RTVSPost2010Prop41ColorIndex
 90
       18
102
RTVSPost2010Prop41ColorRGB
 90
        0
102
RTVSPost2010PropOp41
 70
     1
102
RTVSPost2010Prop42
 90
       50
102
RTVSPost2010PropOp42
 70
     1
102
RTVSPost2010Prop43
 90
        3
102
RTVSPost2010PropOp43
 70
     1
102
RTVSPost2010Prop44ColorIndex
 90
        5
102
RTVSPost2010Prop44ColorRGB
 90
      255
102
RTVSPost2010PropOp44
 70
     1
102
RTVSPost2010Prop45
280
     0
102
RTVSPost2010PropOp45
 70
     1
102
RTVSPost2010Prop46
 90
       50
102
RTVSPost2010PropOp46
 70
     1
102
RTVSPost2010Prop47
 90
       50
102
RTVSPost2010PropOp47
 70
     1
102
RTVSPost2010Prop48
 90
       50
102
RTVSPost2010PropOp48
 70
     1
102
RTVSPost2010Prop49
280
     0
102
RTVSPost2010PropOp49
 70
     1
102
RTVSPost2010Prop50
 90
       50
102
RTVSPost2010PropOp50
 70
     1
102
RTVSPost2010Prop51ColorIndex
 90
      256
102
RTVSPost2010Prop51ColorRGB
 90
-16777216
102
RTVSPost2010PropOp51
 70
     0
102
RTVSPost2010Prop52
140
1.0
102
RTVSPost2010PropOp52
 70
     0
102
RTVSPost2010Prop53
 90
        2
102
RTVSPost2010PropOp53
 70
     1
102
RTVSPost2010Prop54
  1
strokes_ogs.tif
102
RTVSPost2010PropOp54
 70
     1
102
RTVSPost2010Prop55
280
     0
102
RTVSPost2010PropOp55
 70
     1
102
RTVSPost2010Prop56
140
1.0
102
RTVSPost2010PropOp56
 70
     1
102
RTVSPost2010Prop57
140
1.0
102
RTVSPost2010PropOp57
 70
     1
102
RTVSPropertyOp0
 70
     1
102
RTVSPropertyOp1
 70
     1
102
RTVSPropertyOp2
 70
     1
102
RTVSPropertyOp3
 70
     1
102
RTVSPropertyOp4
 70
     1
102
RTVSPropertyOp5
 70
     1
102
RTVSPropertyOp6
 70
     1
102
RTVSPropertyOp7
 70
     1
102
RTVSPropertyOp8
 70
     1
102
RTVSPropertyOp9
 70
     1
102
RTVSPropertyOp10
 70
     1
102
RTVSPropertyOp11
 70
     1
102
RTVSPropertyOp12
 70
     1
102
RTVSPropertyOp13
 70
     1
102
RTVSPropertyOp14
 70
     1
102
RTVSPropertyOp15
 70
     1
102
RTVSPropertyOp16
 70
     1
102
RTVSPropertyOp17
 70
     1
102
RTVSPropertyOp18
 70
     1
102
RTVSPropertyOp19
 70
     1
102
RTVSPropertyOp20
 70
     1
102
RTVSPropertyOp21
 70
     1
102
RTVSPropertyOp22
 70
     1
102
RTVSPropertyOp23
 70
     1
102
RTVSPropertyOp24
 70
     1
102
RTVSPropertyOp25
 70
     1
102
RTVSPropertyOp26
 70
     1
102
RTVSPropertyOp27
 70
     1
102
RTVSPropertyOp28
 70
     1
102
RTVSPropertyOp29
 70
     1
102
RTVSPropertyOp30
 70
     1
102
RTVSPropertyOp31
 70
     1
102
RTVSPropertyOp32
 70
     1
102
RTVSPropertyOp33
 70
     1
102
RTVSPropertyOp34
 70
     1
102
RTVSPropertyOp35
 70
     1
102
RTVSPropertyOp36
 70
     1
102
RTVSPropertyOp37
 70
     1
102
RTVSPropertyOp38
 70
     1
102
RTVSPropertyOp39
 70
     1
102
RTVSPropertyOp40
 70
     1
102
RTVSPropertyOp41
 70
     1
102
RTVSPropertyOp42
 70
     1
102
RTVSPropertyOp43
 70
     1
102
RTVSPropertyOp44
 70
     1
102
RTVSPropertyOp45
 70
     1
102
RTVSPropertyOp46
 70
     1
102
RTVSPropertyOp47
 70
     1
102
RTVSPropertyOp48
 70
     1
102
RTVSPropertyOp49
 70
     1
102
RTVSPropertyOp50
 70
     1
102
RTVSPropertyOp51
 70
     0
102
RTVSPropertyOp52
 70
     0
102
RTVSPropertyOp53
 70
     1
102
RTVSPropertyOp54
 70
     1
102
RTVSPropertyOp55
 70
     1
102
RTVSPropertyOp56
 70
     1
102
RTVSPropertyOp57
 70
     1
102
RTVSPropertyOp58
 70
     1
102
RTVSPropertyOp59
 70
     1
102
RTVSPropertyOp60
 70
     1
102
RTVSPropertyOp61
 70
     1
102
RTVSPropertyOp62
 70
     1
  0
XRECORD
  5
183C
102
{ACAD_REACTORS
330
183B
102
}
330
183B
100
AcDbXrecord
280
     1
102
RTVSPost2010Prop28
280
     0
102
RTVSPost2010PropOp28
 70
     1
102
RTVSPost2010Prop29
280
     1
102
RTVSPost2010PropOp29
 70
     1
102
RTVSPost2010Prop30
280
     1
102
RTVSPost2010PropOp30
 70
     1
102
RTVSPost2010Prop31
280
     0
102
RTVSPost2010PropOp31
 70
     1
102
RTVSPost2010Prop32
280
     0
102
RTVSPost2010PropOp32
 70
     1
102
RTVSPost2010Prop33
280
     0
102
RTVSPost2010PropOp33
 70
     1
102
RTVSPost2010Prop34
280
     0
102
RTVSPost2010PropOp34
 70
     1
102
RTVSPost2010Prop35
280
     0
102
RTVSPost2010PropOp35
 70
     1
102
RTVSPost2010Prop36
280
     0
102
RTVSPost2010PropOp36
 70
     1
102
RTVSPost2010Prop37
 90
       50
102
RTVSPost2010PropOp37
 70
     1
102
RTVSPost2010Prop38
140
0.0
102
RTVSPost2010PropOp38
 70
     1
102
RTVSPost2010Prop39
140
1.0
102
RTVSPost2010PropOp39
 70
     1
102
RTVSPost2010Prop40
 90
        0
102
RTVSPost2010PropOp40
 70
     1
102
RTVSPost2010Prop41ColorIndex
 90
       18
102
RTVSPost2010Prop41ColorRGB
 90
        0
102
RTVSPost2010PropOp41
 70
     1
102
RTVSPost2010Prop42
 90
       50
102
RTVSPost2010PropOp42
 70
     1
102
RTVSPost2010Prop43
 90
        3
102
RTVSPost2010PropOp43
 70
     1
102
RTVSPost2010Prop44ColorIndex
 90
        5
102
RTVSPost2010Prop44ColorRGB
 90
      255
102
RTVSPost2010PropOp44
 70
     1
102
RTVSPost2010Prop45
280
     0
102
RTVSPost2010PropOp45
 70
     1
102
RTVSPost2010Prop46
 90
       50
102
RTVSPost2010PropOp46
 70
     1
102
RTVSPost2010Prop47
 90
       50
102
RTVSPost2010PropOp47
 70
     1
102
RTVSPost2010Prop48
 90
       50
102
RTVSPost2010PropOp48
 70
     1
102
RTVSPost2010Prop49
280
     0
102
RTVSPost2010PropOp49
 70
     1
102
RTVSPost2010Prop50
 90
       50
102
RTVSPost2010PropOp50
 70
     1
102
RTVSPost2010Prop51ColorIndex
 90
      256
102
RTVSPost2010Prop51ColorRGB
 90
-16777216
102
RTVSPost2010PropOp51
 70
     0
102
RTVSPost2010Prop52
140
1.0
102
RTVSPost2010PropOp52
 70
     0
102
RTVSPost2010Prop53
 90
        2
102
RTVSPost2010PropOp53
 70
     1
102
RTVSPost2010Prop54
  1
strokes_ogs.tif
102
RTVSPost2010PropOp54
 70
     1
102
RTVSPost2010Prop55
280
     0
102
RTVSPost2010PropOp55
 70
     1
102
RTVSPost2010Prop56
140
1.0
102
RTVSPost2010PropOp56
 70
     1
102
RTVSPost2010Prop57
140
1.0
102
RTVSPost2010PropOp57
 70
     1
102
RTVSPropertyOp0
 70
     1
102
RTVSPropertyOp1
 70
     1
102
RTVSPropertyOp2
 70
     1
102
RTVSPropertyOp3
 70
     1
102
RTVSPropertyOp4
 70
     1
102
RTVSPropertyOp5
 70
     1
102
RTVSPropertyOp6
 70
     1
102
RTVSPropertyOp7
 70
     1
102
RTVSPropertyOp8
 70
     1
102
RTVSPropertyOp9
 70
     1
102
RTVSPropertyOp10
 70
     1
102
RTVSPropertyOp11
 70
     1
102
RTVSPropertyOp12
 70
     1
102
RTVSPropertyOp13
 70
     1
102
RTVSPropertyOp14
 70
     1
102
RTVSPropertyOp15
 70
     1
102
RTVSPropertyOp16
 70
     1
102
RTVSPropertyOp17
 70
     1
102
RTVSPropertyOp18
 70
     1
102
RTVSPropertyOp19
 70
     1
102
RTVSPropertyOp20
 70
     1
102
RTVSPropertyOp21
 70
     1
102
RTVSPropertyOp22
 70
     1
102
RTVSPropertyOp23
 70
     1
102
RTVSPropertyOp24
 70
     1
102
RTVSPropertyOp25
 70
     1
102
RTVSPropertyOp26
 70
     1
102
RTVSPropertyOp27
 70
     1
102
RTVSPropertyOp28
 70
     1
102
RTVSPropertyOp29
 70
     1
102
RTVSPropertyOp30
 70
     1
102
RTVSPropertyOp31
 70
     1
102
RTVSPropertyOp32
 70
     1
102
RTVSPropertyOp33
 70
     1
102
RTVSPropertyOp34
 70
     1
102
RTVSPropertyOp35
 70
     1
102
RTVSPropertyOp36
 70
     1
102
RTVSPropertyOp37
 70
     1
102
RTVSPropertyOp38
 70
     1
102
RTVSPropertyOp39
 70
     1
102
RTVSPropertyOp40
 70
     1
102
RTVSPropertyOp41
 70
     1
102
RTVSPropertyOp42
 70
     1
102
RTVSPropertyOp43
 70
     1
102
RTVSPropertyOp44
 70
     1
102
RTVSPropertyOp45
 70
     1
102
RTVSPropertyOp46
 70
     1
102
RTVSPropertyOp47
 70
     1
102
RTVSPropertyOp48
 70
     1
102
RTVSPropertyOp49
 70
     1
102
RTVSPropertyOp50
 70
     1
102
RTVSPropertyOp51
 70
     0
102
RTVSPropertyOp52
 70
     0
102
RTVSPropertyOp53
 70
     1
102
RTVSPropertyOp54
 70
     1
102
RTVSPropertyOp55
 70
     1
102
RTVSPropertyOp56
 70
     1
102
RTVSPropertyOp57
 70
     1
102
RTVSPropertyOp58
 70
     1
102
RTVSPropertyOp59
 70
     1
102
RTVSPropertyOp60
 70
     1
102
RTVSPropertyOp61
 70
     1
102
RTVSPropertyOp62
 70
     1
  0
XRECORD
  5
182E
102
{ACAD_REACTORS
330
182D
102
}
330
182D
100
AcDbXrecord
280
     1
102
RTVSPost2010Prop28
280
     0
102
RTVSPost2010PropOp28
 70
     1
102
RTVSPost2010Prop29
280
     1
102
RTVSPost2010PropOp29
 70
     1
102
RTVSPost2010Prop30
280
     1
102
RTVSPost2010PropOp30
 70
     1
102
RTVSPost2010Prop31
280
     0
102
RTVSPost2010PropOp31
 70
     1
102
RTVSPost2010Prop32
280
     0
102
RTVSPost2010PropOp32
 70
     1
102
RTVSPost2010Prop33
280
     0
102
RTVSPost2010PropOp33
 70
     1
102
RTVSPost2010Prop34
280
     0
102
RTVSPost2010PropOp34
 70
     1
102
RTVSPost2010Prop35
280
     0
102
RTVSPost2010PropOp35
 70
     1
102
RTVSPost2010Prop36
280
     0
102
RTVSPost2010PropOp36
 70
     1
102
RTVSPost2010Prop37
 90
       50
102
RTVSPost2010PropOp37
 70
     1
102
RTVSPost2010Prop38
140
0.0
102
RTVSPost2010PropOp38
 70
     1
102
RTVSPost2010Prop39
140
1.0
102
RTVSPost2010PropOp39
 70
     1
102
RTVSPost2010Prop40
 90
        0
102
RTVSPost2010PropOp40
 70
     1
102
RTVSPost2010Prop41ColorIndex
 90
       18
102
RTVSPost2010Prop41ColorRGB
 90
        0
102
RTVSPost2010PropOp41
 70
     1
102
RTVSPost2010Prop42
 90
       50
102
RTVSPost2010PropOp42
 70
     1
102
RTVSPost2010Prop43
 90
        3
102
RTVSPost2010PropOp43
 70
     1
102
RTVSPost2010Prop44ColorIndex
 90
        5
102
RTVSPost2010Prop44ColorRGB
 90
      255
102
RTVSPost2010PropOp44
 70
     1
102
RTVSPost2010Prop45
280
     0
102
RTVSPost2010PropOp45
 70
     1
102
RTVSPost2010Prop46
 90
       50
102
RTVSPost2010PropOp46
 70
     1
102
RTVSPost2010Prop47
 90
       50
102
RTVSPost2010PropOp47
 70
     1
102
RTVSPost2010Prop48
 90
       50
102
RTVSPost2010PropOp48
 70
     1
102
RTVSPost2010Prop49
280
     0
102
RTVSPost2010PropOp49
 70
     1
102
RTVSPost2010Prop50
 90
       50
102
RTVSPost2010PropOp50
 70
     1
102
RTVSPost2010Prop51ColorIndex
 90
      256
102
RTVSPost2010Prop51ColorRGB
 90
-16777216
102
RTVSPost2010PropOp51
 70
     0
102
RTVSPost2010Prop52
140
1.0
102
RTVSPost2010PropOp52
 70
     0
102
RTVSPost2010Prop53
 90
        2
102
RTVSPost2010PropOp53
 70
     1
102
RTVSPost2010Prop54
  1
strokes_ogs.tif
102
RTVSPost2010PropOp54
 70
     1
102
RTVSPost2010Prop55
280
     0
102
RTVSPost2010PropOp55
 70
     1
102
RTVSPost2010Prop56
140
1.0
102
RTVSPost2010PropOp56
 70
     1
102
RTVSPost2010Prop57
140
1.0
102
RTVSPost2010PropOp57
 70
     1
102
RTVSPropertyOp0
 70
     1
102
RTVSPropertyOp1
 70
     1
102
RTVSPropertyOp2
 70
     1
102
RTVSPropertyOp3
 70
     1
102
RTVSPropertyOp4
 70
     1
102
RTVSPropertyOp5
 70
     1
102
RTVSPropertyOp6
 70
     1
102
RTVSPropertyOp7
 70
     1
102
RTVSPropertyOp8
 70
     1
102
RTVSPropertyOp9
 70
     1
102
RTVSPropertyOp10
 70
     1
102
RTVSPropertyOp11
 70
     1
102
RTVSPropertyOp12
 70
     1
102
RTVSPropertyOp13
 70
     1
102
RTVSPropertyOp14
 70
     1
102
RTVSPropertyOp15
 70
     1
102
RTVSPropertyOp16
 70
     1
102
RTVSPropertyOp17
 70
     1
102
RTVSPropertyOp18
 70
     1
102
RTVSPropertyOp19
 70
     1
102
RTVSPropertyOp20
 70
     1
102
RTVSPropertyOp21
 70
     1
102
RTVSPropertyOp22
 70
     1
102
RTVSPropertyOp23
 70
     1
102
RTVSPropertyOp24
 70
     1
102
RTVSPropertyOp25
 70
     1
102
RTVSPropertyOp26
 70
     1
102
RTVSPropertyOp27
 70
     1
102
RTVSPropertyOp28
 70
     1
102
RTVSPropertyOp29
 70
     1
102
RTVSPropertyOp30
 70
     1
102
RTVSPropertyOp31
 70
     1
102
RTVSPropertyOp32
 70
     1
102
RTVSPropertyOp33
 70
     1
102
RTVSPropertyOp34
 70
     1
102
RTVSPropertyOp35
 70
     1
102
RTVSPropertyOp36
 70
     1
102
RTVSPropertyOp37
 70
     1
102
RTVSPropertyOp38
 70
     1
102
RTVSPropertyOp39
 70
     1
102
RTVSPropertyOp40
 70
     1
102
RTVSPropertyOp41
 70
     1
102
RTVSPropertyOp42
 70
     1
102
RTVSPropertyOp43
 70
     1
102
RTVSPropertyOp44
 70
     1
102
RTVSPropertyOp45
 70
     1
102
RTVSPropertyOp46
 70
     1
102
RTVSPropertyOp47
 70
     1
102
RTVSPropertyOp48
 70
     1
102
RTVSPropertyOp49
 70
     1
102
RTVSPropertyOp50
 70
     1
102
RTVSPropertyOp51
 70
     0
102
RTVSPropertyOp52
 70
     0
102
RTVSPropertyOp53
 70
     1
102
RTVSPropertyOp54
 70
     1
102
RTVSPropertyOp55
 70
     1
102
RTVSPropertyOp56
 70
     1
102
RTVSPropertyOp57
 70
     1
102
RTVSPropertyOp58
 70
     1
102
RTVSPropertyOp59
 70
     1
102
RTVSPropertyOp60
 70
     1
102
RTVSPropertyOp61
 70
     1
102
RTVSPropertyOp62
 70
     1
  0
XRECORD
  5
1832
102
{ACAD_REACTORS
330
1831
102
}
330
1831
100
AcDbXrecord
280
     1
102
RTVSPost2010Prop28
280
     0
102
RTVSPost2010PropOp28
 70
     1
102
RTVSPost2010Prop29
280
     1
102
RTVSPost2010PropOp29
 70
     1
102
RTVSPost2010Prop30
280
     1
102
RTVSPost2010PropOp30
 70
     1
102
RTVSPost2010Prop31
280
     0
102
RTVSPost2010PropOp31
 70
     1
102
RTVSPost2010Prop32
280
     0
102
RTVSPost2010PropOp32
 70
     1
102
RTVSPost2010Prop33
280
     0
102
RTVSPost2010PropOp33
 70
     1
102
RTVSPost2010Prop34
280
     0
102
RTVSPost2010PropOp34
 70
     1
102
RTVSPost2010Prop35
280
     0
102
RTVSPost2010PropOp35
 70
     1
102
RTVSPost2010Prop36
280
     0
102
RTVSPost2010PropOp36
 70
     1
102
RTVSPost2010Prop37
 90
       50
102
RTVSPost2010PropOp37
 70
     1
102
RTVSPost2010Prop38
140
0.0
102
RTVSPost2010PropOp38
 70
     1
102
RTVSPost2010Prop39
140
1.0
102
RTVSPost2010PropOp39
 70
     1
102
RTVSPost2010Prop40
 90
        0
102
RTVSPost2010PropOp40
 70
     1
102
RTVSPost2010Prop41ColorIndex
 90
       18
102
RTVSPost2010Prop41ColorRGB
 90
        0
102
RTVSPost2010PropOp41
 70
     1
102
RTVSPost2010Prop42
 90
       50
102
RTVSPost2010PropOp42
 70
     1
102
RTVSPost2010Prop43
 90
        3
102
RTVSPost2010PropOp43
 70
     1
102
RTVSPost2010Prop44ColorIndex
 90
        5
102
RTVSPost2010Prop44ColorRGB
 90
      255
102
RTVSPost2010PropOp44
 70
     1
102
RTVSPost2010Prop45
280
     0
102
RTVSPost2010PropOp45
 70
     1
102
RTVSPost2010Prop46
 90
       50
102
RTVSPost2010PropOp46
 70
     1
102
RTVSPost2010Prop47
 90
       50
102
RTVSPost2010PropOp47
 70
     1
102
RTVSPost2010Prop48
 90
       50
102
RTVSPost2010PropOp48
 70
     1
102
RTVSPost2010Prop49
280
     0
102
RTVSPost2010PropOp49
 70
     1
102
RTVSPost2010Prop50
 90
       50
102
RTVSPost2010PropOp50
 70
     1
102
RTVSPost2010Prop51ColorIndex
 90
      256
102
RTVSPost2010Prop51ColorRGB
 90
-16777216
102
RTVSPost2010PropOp51
 70
     0
102
RTVSPost2010Prop52
140
1.0
102
RTVSPost2010PropOp52
 70
     0
102
RTVSPost2010Prop53
 90
        2
102
RTVSPost2010PropOp53
 70
     1
102
RTVSPost2010Prop54
  1
strokes_ogs.tif
102
RTVSPost2010PropOp54
 70
     1
102
RTVSPost2010Prop55
280
     0
102
RTVSPost2010PropOp55
 70
     1
102
RTVSPost2010Prop56
140
1.0
102
RTVSPost2010PropOp56
 70
     1
102
RTVSPost2010Prop57
140
1.0
102
RTVSPost2010PropOp57
 70
     1
102
RTVSPropertyOp0
 70
     1
102
RTVSPropertyOp1
 70
     1
102
RTVSPropertyOp2
 70
     1
102
RTVSPropertyOp3
 70
     1
102
RTVSPropertyOp4
 70
     1
102
RTVSPropertyOp5
 70
     1
102
RTVSPropertyOp6
 70
     1
102
RTVSPropertyOp7
 70
     1
102
RTVSPropertyOp8
 70
     1
102
RTVSPropertyOp9
 70
     1
102
RTVSPropertyOp10
 70
     1
102
RTVSPropertyOp11
 70
     1
102
RTVSPropertyOp12
 70
     1
102
RTVSPropertyOp13
 70
     1
102
RTVSPropertyOp14
 70
     1
102
RTVSPropertyOp15
 70
     1
102
RTVSPropertyOp16
 70
     1
102
RTVSPropertyOp17
 70
     1
102
RTVSPropertyOp18
 70
     1
102
RTVSPropertyOp19
 70
     1
102
RTVSPropertyOp20
 70
     1
102
RTVSPropertyOp21
 70
     1
102
RTVSPropertyOp22
 70
     1
102
RTVSPropertyOp23
 70
     1
102
RTVSPropertyOp24
 70
     1
102
RTVSPropertyOp25
 70
     1
102
RTVSPropertyOp26
 70
     1
102
RTVSPropertyOp27
 70
     1
102
RTVSPropertyOp28
 70
     1
102
RTVSPropertyOp29
 70
     1
102
RTVSPropertyOp30
 70
     1
102
RTVSPropertyOp31
 70
     1
102
RTVSPropertyOp32
 70
     1
102
RTVSPropertyOp33
 70
     1
102
RTVSPropertyOp34
 70
     1
102
RTVSPropertyOp35
 70
     1
102
RTVSPropertyOp36
 70
     1
102
RTVSPropertyOp37
 70
     1
102
RTVSPropertyOp38
 70
     1
102
RTVSPropertyOp39
 70
     1
102
RTVSPropertyOp40
 70
     1
102
RTVSPropertyOp41
 70
     1
102
RTVSPropertyOp42
 70
     1
102
RTVSPropertyOp43
 70
     1
102
RTVSPropertyOp44
 70
     1
102
RTVSPropertyOp45
 70
     1
102
RTVSPropertyOp46
 70
     1
102
RTVSPropertyOp47
 70
     1
102
RTVSPropertyOp48
 70
     1
102
RTVSPropertyOp49
 70
     1
102
RTVSPropertyOp50
 70
     1
102
RTVSPropertyOp51
 70
     0
102
RTVSPropertyOp52
 70
     0
102
RTVSPropertyOp53
 70
     1
102
RTVSPropertyOp54
 70
     1
102
RTVSPropertyOp55
 70
     1
102
RTVSPropertyOp56
 70
     1
102
RTVSPropertyOp57
 70
     1
102
RTVSPropertyOp58
 70
     1
102
RTVSPropertyOp59
 70
     1
102
RTVSPropertyOp60
 70
     1
102
RTVSPropertyOp61
 70
     1
102
RTVSPropertyOp62
 70
     1
  0
XRECORD
  5
184C
102
{ACAD_REACTORS
330
184B
102
}
330
184B
100
AcDbXrecord
280
     1
102
RTVSPost2010Prop28
280
     0
102
RTVSPost2010PropOp28
 70
     1
102
RTVSPost2010Prop29
280
     1
102
RTVSPost2010PropOp29
 70
     1
102
RTVSPost2010Prop30
280
     1
102
RTVSPost2010PropOp30
 70
     1
102
RTVSPost2010Prop31
280
     0
102
RTVSPost2010PropOp31
 70
     1
102
RTVSPost2010Prop32
280
     0
102
RTVSPost2010PropOp32
 70
     1
102
RTVSPost2010Prop33
280
     0
102
RTVSPost2010PropOp33
 70
     1
102
RTVSPost2010Prop34
280
     0
102
RTVSPost2010PropOp34
 70
     1
102
RTVSPost2010Prop35
280
     0
102
RTVSPost2010PropOp35
 70
     1
102
RTVSPost2010Prop36
280
     0
102
RTVSPost2010PropOp36
 70
     1
102
RTVSPost2010Prop37
 90
       50
102
RTVSPost2010PropOp37
 70
     0
102
RTVSPost2010Prop38
140
0.0
102
RTVSPost2010PropOp38
 70
     0
102
RTVSPost2010Prop39
140
1.0
102
RTVSPost2010PropOp39
 70
     0
102
RTVSPost2010Prop40
 90
        0
102
RTVSPost2010PropOp40
 70
     0
102
RTVSPost2010Prop41ColorIndex
 90
       18
102
RTVSPost2010Prop41ColorRGB
 90
        0
102
RTVSPost2010PropOp41
 70
     0
102
RTVSPost2010Prop42
 90
       50
102
RTVSPost2010PropOp42
 70
     0
102
RTVSPost2010Prop43
 90
        3
102
RTVSPost2010PropOp43
 70
     0
102
RTVSPost2010Prop44ColorIndex
 90
        5
102
RTVSPost2010Prop44ColorRGB
 90
      255
102
RTVSPost2010PropOp44
 70
     0
102
RTVSPost2010Prop45
280
     0
102
RTVSPost2010PropOp45
 70
     1
102
RTVSPost2010Prop46
 90
       50
102
RTVSPost2010PropOp46
 70
     0
102
RTVSPost2010Prop47
 90
       50
102
RTVSPost2010PropOp47
 70
     0
102
RTVSPost2010Prop48
 90
       50
102
RTVSPost2010PropOp48
 70
     0
102
RTVSPost2010Prop49
280
     0
102
RTVSPost2010PropOp49
 70
     1
102
RTVSPost2010Prop50
 90
       50
102
RTVSPost2010PropOp50
 70
     0
102
RTVSPost2010Prop51ColorIndex
 90
      256
102
RTVSPost2010Prop51ColorRGB
 90
-16777216
102
RTVSPost2010PropOp51
 70
     0
102
RTVSPost2010Prop52
140
1.0
102
RTVSPost2010PropOp52
 70
     0
102
RTVSPost2010Prop53
 90
        2
102
RTVSPost2010PropOp53
 70
     0
102
RTVSPost2010Prop54
  1
strokes_ogs.tif
102
RTVSPost2010PropOp54
 70
     0
102
RTVSPost2010Prop55
280
     0
102
RTVSPost2010PropOp55
 70
     1
102
RTVSPost2010Prop56
140
1.0
102
RTVSPost2010PropOp56
 70
     0
102
RTVSPost2010Prop57
140
1.0
102
RTVSPost2010PropOp57
 70
     0
102
RTVSPropertyOp0
 70
     0
102
RTVSPropertyOp1
 70
     0
102
RTVSPropertyOp2
 70
     0
102
RTVSPropertyOp3
 70
     0
102
RTVSPropertyOp4
 70
     0
102
RTVSPropertyOp5
 70
     0
102
RTVSPropertyOp6
 70
     0
102
RTVSPropertyOp7
 70
     0
102
RTVSPropertyOp8
 70
     0
102
RTVSPropertyOp9
 70
     0
102
RTVSPropertyOp10
 70
     0
102
RTVSPropertyOp11
 70
     0
102
RTVSPropertyOp12
 70
     0
102
RTVSPropertyOp13
 70
     0
102
RTVSPropertyOp14
 70
     2
102
RTVSPropertyOp15
 70
     0
102
RTVSPropertyOp16
 70
     0
102
RTVSPropertyOp17
 70
     0
102
RTVSPropertyOp18
 70
     0
102
RTVSPropertyOp19
 70
     0
102
RTVSPropertyOp20
 70
     0
102
RTVSPropertyOp21
 70
     0
102
RTVSPropertyOp22
 70
     0
102
RTVSPropertyOp23
 70
     0
102
RTVSPropertyOp24
 70
     0
102
RTVSPropertyOp25
 70
     0
102
RTVSPropertyOp26
 70
     0
102
RTVSPropertyOp27
 70
     0
102
RTVSPropertyOp28
 70
     1
102
RTVSPropertyOp29
 70
     1
102
RTVSPropertyOp30
 70
     1
102
RTVSPropertyOp31
 70
     1
102
RTVSPropertyOp32
 70
     1
102
RTVSPropertyOp33
 70
     1
102
RTVSPropertyOp34
 70
     1
102
RTVSPropertyOp35
 70
     1
102
RTVSPropertyOp36
 70
     1
102
RTVSPropertyOp37
 70
     0
102
RTVSPropertyOp38
 70
     0
102
RTVSPropertyOp39
 70
     0
102
RTVSPropertyOp40
 70
     0
102
RTVSPropertyOp41
 70
     0
102
RTVSPropertyOp42
 70
     0
102
RTVSPropertyOp43
 70
     0
102
RTVSPropertyOp44
 70
     0
102
RTVSPropertyOp45
 70
     1
102
RTVSPropertyOp46
 70
     0
102
RTVSPropertyOp47
 70
     0
102
RTVSPropertyOp48
 70
     0
102
RTVSPropertyOp49
 70
     1
102
RTVSPropertyOp50
 70
     0
102
RTVSPropertyOp51
 70
     0
102
RTVSPropertyOp52
 70
     0
102
RTVSPropertyOp53
 70
     0
102
RTVSPropertyOp54
 70
     0
102
RTVSPropertyOp55
 70
     1
102
RTVSPropertyOp56
 70
     0
102
RTVSPropertyOp57
 70
     0
102
RTVSPropertyOp58
 70
     0
102
RTVSPropertyOp59
 70
     0
102
RTVSPropertyOp60
 70
     0
102
RTVSPropertyOp61
 70
     0
102
RTVSPropertyOp62
 70
     0
  0
XRECORD
  5
183A
102
{ACAD_REACTORS
330
1839
102
}
330
1839
100
AcDbXrecord
280
     1
102
RTVSPost2010Prop28
280
     0
102
RTVSPost2010PropOp28
 70
     1
102
RTVSPost2010Prop29
280
     1
102
RTVSPost2010PropOp29
 70
     1
102
RTVSPost2010Prop30
280
     1
102
RTVSPost2010PropOp30
 70
     1
102
RTVSPost2010Prop31
280
     0
102
RTVSPost2010PropOp31
 70
     1
102
RTVSPost2010Prop32
280
     0
102
RTVSPost2010PropOp32
 70
     1
102
RTVSPost2010Prop33
280
     0
102
RTVSPost2010PropOp33
 70
     1
102
RTVSPost2010Prop34
280
     0
102
RTVSPost2010PropOp34
 70
     1
102
RTVSPost2010Prop35
280
     0
102
RTVSPost2010PropOp35
 70
     1
102
RTVSPost2010Prop36
280
     0
102
RTVSPost2010PropOp36
 70
     1
102
RTVSPost2010Prop37
 90
       50
102
RTVSPost2010PropOp37
 70
     1
102
RTVSPost2010Prop38
140
0.0
102
RTVSPost2010PropOp38
 70
     1
102
RTVSPost2010Prop39
140
1.0
102
RTVSPost2010PropOp39
 70
     1
102
RTVSPost2010Prop40
 90
        0
102
RTVSPost2010PropOp40
 70
     1
102
RTVSPost2010Prop41ColorIndex
 90
       18
102
RTVSPost2010Prop41ColorRGB
 90
        0
102
RTVSPost2010PropOp41
 70
     1
102
RTVSPost2010Prop42
 90
       50
102
RTVSPost2010PropOp42
 70
     1
102
RTVSPost2010Prop43
 90
        3
102
RTVSPost2010PropOp43
 70
     1
102
RTVSPost2010Prop44ColorIndex
 90
        5
102
RTVSPost2010Prop44ColorRGB
 90
      255
102
RTVSPost2010PropOp44
 70
     1
102
RTVSPost2010Prop45
280
     0
102
RTVSPost2010PropOp45
 70
     1
102
RTVSPost2010Prop46
 90
       50
102
RTVSPost2010PropOp46
 70
     1
102
RTVSPost2010Prop47
 90
       50
102
RTVSPost2010PropOp47
 70
     1
102
RTVSPost2010Prop48
 90
       50
102
RTVSPost2010PropOp48
 70
     1
102
RTVSPost2010Prop49
280
     0
102
RTVSPost2010PropOp49
 70
     1
102
RTVSPost2010Prop50
 90
       50
102
RTVSPost2010PropOp50
 70
     1
102
RTVSPost2010Prop51ColorIndex
 90
      256
102
RTVSPost2010Prop51ColorRGB
 90
-16777216
102
RTVSPost2010PropOp51
 70
     0
102
RTVSPost2010Prop52
140
1.0
102
RTVSPost2010PropOp52
 70
     0
102
RTVSPost2010Prop53
 90
        2
102
RTVSPost2010PropOp53
 70
     1
102
RTVSPost2010Prop54
  1
strokes_ogs.tif
102
RTVSPost2010PropOp54
 70
     1
102
RTVSPost2010Prop55
280
     0
102
RTVSPost2010PropOp55
 70
     1
102
RTVSPost2010Prop56
140
1.0
102
RTVSPost2010PropOp56
 70
     1
102
RTVSPost2010Prop57
140
1.0
102
RTVSPost2010PropOp57
 70
     1
102
RTVSPropertyOp0
 70
     1
102
RTVSPropertyOp1
 70
     1
102
RTVSPropertyOp2
 70
     1
102
RTVSPropertyOp3
 70
     1
102
RTVSPropertyOp4
 70
     1
102
RTVSPropertyOp5
 70
     1
102
RTVSPropertyOp6
 70
     1
102
RTVSPropertyOp7
 70
     1
102
RTVSPropertyOp8
 70
     1
102
RTVSPropertyOp9
 70
     1
102
RTVSPropertyOp10
 70
     1
102
RTVSPropertyOp11
 70
     1
102
RTVSPropertyOp12
 70
     1
102
RTVSPropertyOp13
 70
     1
102
RTVSPropertyOp14
 70
     1
102
RTVSPropertyOp15
 70
     1
102
RTVSPropertyOp16
 70
     1
102
RTVSPropertyOp17
 70
     1
102
RTVSPropertyOp18
 70
     1
102
RTVSPropertyOp19
 70
     1
102
RTVSPropertyOp20
 70
     1
102
RTVSPropertyOp21
 70
     1
102
RTVSPropertyOp22
 70
     1
102
RTVSPropertyOp23
 70
     1
102
RTVSPropertyOp24
 70
     1
102
RTVSPropertyOp25
 70
     1
102
RTVSPropertyOp26
 70
     1
102
RTVSPropertyOp27
 70
     1
102
RTVSPropertyOp28
 70
     1
102
RTVSPropertyOp29
 70
     1
102
RTVSPropertyOp30
 70
     1
102
RTVSPropertyOp31
 70
     1
102
RTVSPropertyOp32
 70
     1
102
RTVSPropertyOp33
 70
     1
102
RTVSPropertyOp34
 70
     1
102
RTVSPropertyOp35
 70
     1
102
RTVSPropertyOp36
 70
     1
102
RTVSPropertyOp37
 70
     1
102
RTVSPropertyOp38
 70
     1
102
RTVSPropertyOp39
 70
     1
102
RTVSPropertyOp40
 70
     1
102
RTVSPropertyOp41
 70
     1
102
RTVSPropertyOp42
 70
     1
102
RTVSPropertyOp43
 70
     1
102
RTVSPropertyOp44
 70
     1
102
RTVSPropertyOp45
 70
     1
102
RTVSPropertyOp46
 70
     1
102
RTVSPropertyOp47
 70
     1
102
RTVSPropertyOp48
 70
     1
102
RTVSPropertyOp49
 70
     1
102
RTVSPropertyOp50
 70
     1
102
RTVSPropertyOp51
 70
     0
102
RTVSPropertyOp52
 70
     0
102
RTVSPropertyOp53
 70
     1
102
RTVSPropertyOp54
 70
     1
102
RTVSPropertyOp55
 70
     1
102
RTVSPropertyOp56
 70
     1
102
RTVSPropertyOp57
 70
     1
102
RTVSPropertyOp58
 70
     1
102
RTVSPropertyOp59
 70
     1
102
RTVSPropertyOp60
 70
     1
102
RTVSPropertyOp61
 70
     1
102
RTVSPropertyOp62
 70
     1
  0
XRECORD
  5
181E
102
{ACAD_REACTORS
330
181D
102
}
330
181D
100
AcDbXrecord
280
     1
102
RTVSPost2010Prop28
280
     0
102
RTVSPost2010PropOp28
 70
     1
102
RTVSPost2010Prop29
280
     1
102
RTVSPost2010PropOp29
 70
     1
102
RTVSPost2010Prop30
280
     1
102
RTVSPost2010PropOp30
 70
     1
102
RTVSPost2010Prop31
280
     0
102
RTVSPost2010PropOp31
 70
     1
102
RTVSPost2010Prop32
280
     0
102
RTVSPost2010PropOp32
 70
     1
102
RTVSPost2010Prop33
280
     0
102
RTVSPost2010PropOp33
 70
     1
102
RTVSPost2010Prop34
280
     0
102
RTVSPost2010PropOp34
 70
     1
102
RTVSPost2010Prop35
280
     0
102
RTVSPost2010PropOp35
 70
     1
102
RTVSPost2010Prop36
280
     0
102
RTVSPost2010PropOp36
 70
     1
102
RTVSPost2010Prop37
 90
       50
102
RTVSPost2010PropOp37
 70
     1
102
RTVSPost2010Prop38
140
0.0
102
RTVSPost2010PropOp38
 70
     1
102
RTVSPost2010Prop39
140
1.0
102
RTVSPost2010PropOp39
 70
     1
102
RTVSPost2010Prop40
 90
        0
102
RTVSPost2010PropOp40
 70
     1
102
RTVSPost2010Prop41ColorIndex
 90
       18
102
RTVSPost2010Prop41ColorRGB
 90
        0
102
RTVSPost2010PropOp41
 70
     1
102
RTVSPost2010Prop42
 90
       50
102
RTVSPost2010PropOp42
 70
     1
102
RTVSPost2010Prop43
 90
        3
102
RTVSPost2010PropOp43
 70
     1
102
RTVSPost2010Prop44ColorIndex
 90
        5
102
RTVSPost2010Prop44ColorRGB
 90
      255
102
RTVSPost2010PropOp44
 70
     1
102
RTVSPost2010Prop45
280
     0
102
RTVSPost2010PropOp45
 70
     1
102
RTVSPost2010Prop46
 90
       50
102
RTVSPost2010PropOp46
 70
     1
102
RTVSPost2010Prop47
 90
       50
102
RTVSPost2010PropOp47
 70
     1
102
RTVSPost2010Prop48
 90
       50
102
RTVSPost2010PropOp48
 70
     1
102
RTVSPost2010Prop49
280
     0
102
RTVSPost2010PropOp49
 70
     1
102
RTVSPost2010Prop50
 90
       50
102
RTVSPost2010PropOp50
 70
     1
102
RTVSPost2010Prop51ColorIndex
 90
      256
102
RTVSPost2010Prop51ColorRGB
 90
-16777216
102
RTVSPost2010PropOp51
 70
     0
102
RTVSPost2010Prop52
140
1.0
102
RTVSPost2010PropOp52
 70
     0
102
RTVSPost2010Prop53
 90
        2
102
RTVSPost2010PropOp53
 70
     1
102
RTVSPost2010Prop54
  1
strokes_ogs.tif
102
RTVSPost2010PropOp54
 70
     1
102
RTVSPost2010Prop55
280
     0
102
RTVSPost2010PropOp55
 70
     1
102
RTVSPost2010Prop56
140
1.0
102
RTVSPost2010PropOp56
 70
     1
102
RTVSPost2010Prop57
140
1.0
102
RTVSPost2010PropOp57
 70
     1
102
RTVSPropertyOp0
 70
     1
102
RTVSPropertyOp1
 70
     1
102
RTVSPropertyOp2
 70
     1
102
RTVSPropertyOp3
 70
     1
102
RTVSPropertyOp4
 70
     1
102
RTVSPropertyOp5
 70
     1
102
RTVSPropertyOp6
 70
     1
102
RTVSPropertyOp7
 70
     1
102
RTVSPropertyOp8
 70
     1
102
RTVSPropertyOp9
 70
     1
102
RTVSPropertyOp10
 70
     1
102
RTVSPropertyOp11
 70
     1
102
RTVSPropertyOp12
 70
     1
102
RTVSPropertyOp13
 70
     1
102
RTVSPropertyOp14
 70
     1
102
RTVSPropertyOp15
 70
     1
102
RTVSPropertyOp16
 70
     1
102
RTVSPropertyOp17
 70
     1
102
RTVSPropertyOp18
 70
     1
102
RTVSPropertyOp19
 70
     1
102
RTVSPropertyOp20
 70
     1
102
RTVSPropertyOp21
 70
     1
102
RTVSPropertyOp22
 70
     1
102
RTVSPropertyOp23
 70
     1
102
RTVSPropertyOp24
 70
     1
102
RTVSPropertyOp25
 70
     1
102
RTVSPropertyOp26
 70
     1
102
RTVSPropertyOp27
 70
     1
102
RTVSPropertyOp28
 70
     1
102
RTVSPropertyOp29
 70
     1
102
RTVSPropertyOp30
 70
     1
102
RTVSPropertyOp31
 70
     1
102
RTVSPropertyOp32
 70
     1
102
RTVSPropertyOp33
 70
     1
102
RTVSPropertyOp34
 70
     1
102
RTVSPropertyOp35
 70
     1
102
RTVSPropertyOp36
 70
     1
102
RTVSPropertyOp37
 70
     1
102
RTVSPropertyOp38
 70
     1
102
RTVSPropertyOp39
 70
     1
102
RTVSPropertyOp40
 70
     1
102
RTVSPropertyOp41
 70
     1
102
RTVSPropertyOp42
 70
     1
102
RTVSPropertyOp43
 70
     1
102
RTVSPropertyOp44
 70
     1
102
RTVSPropertyOp45
 70
     1
102
RTVSPropertyOp46
 70
     1
102
RTVSPropertyOp47
 70
     1
102
RTVSPropertyOp48
 70
     1
102
RTVSPropertyOp49
 70
     1
102
RTVSPropertyOp50
 70
     1
102
RTVSPropertyOp51
 70
     0
102
RTVSPropertyOp52
 70
     0
102
RTVSPropertyOp53
 70
     1
102
RTVSPropertyOp54
 70
     1
102
RTVSPropertyOp55
 70
     1
102
RTVSPropertyOp56
 70
     1
102
RTVSPropertyOp57
 70
     1
102
RTVSPropertyOp58
 70
     1
102
RTVSPropertyOp59
 70
     1
102
RTVSPropertyOp60
 70
     1
102
RTVSPropertyOp61
 70
     1
102
RTVSPropertyOp62
 70
     1
  0
XRECORD
  5
1820
102
{ACAD_REACTORS
330
181F
102
}
330
181F
100
AcDbXrecord
280
     1
102
RTVSPost2010Prop28
280
     0
102
RTVSPost2010PropOp28
 70
     1
102
RTVSPost2010Prop29
280
     1
102
RTVSPost2010PropOp29
 70
     1
102
RTVSPost2010Prop30
280
     1
102
RTVSPost2010PropOp30
 70
     1
102
RTVSPost2010Prop31
280
     0
102
RTVSPost2010PropOp31
 70
     1
102
RTVSPost2010Prop32
280
     0
102
RTVSPost2010PropOp32
 70
     1
102
RTVSPost2010Prop33
280
     0
102
RTVSPost2010PropOp33
 70
     1
102
RTVSPost2010Prop34
280
     0
102
RTVSPost2010PropOp34
 70
     1
102
RTVSPost2010Prop35
280
     0
102
RTVSPost2010PropOp35
 70
     1
102
RTVSPost2010Prop36
280
     0
102
RTVSPost2010PropOp36
 70
     1
102
RTVSPost2010Prop37
 90
       50
102
RTVSPost2010PropOp37
 70
     1
102
RTVSPost2010Prop38
140
0.0
102
RTVSPost2010PropOp38
 70
     1
102
RTVSPost2010Prop39
140
1.0
102
RTVSPost2010PropOp39
 70
     1
102
RTVSPost2010Prop40
 90
        0
102
RTVSPost2010PropOp40
 70
     1
102
RTVSPost2010Prop41ColorIndex
 90
       18
102
RTVSPost2010Prop41ColorRGB
 90
        0
102
RTVSPost2010PropOp41
 70
     1
102
RTVSPost2010Prop42
 90
       50
102
RTVSPost2010PropOp42
 70
     1
102
RTVSPost2010Prop43
 90
        3
102
RTVSPost2010PropOp43
 70
     1
102
RTVSPost2010Prop44ColorIndex
 90
        5
102
RTVSPost2010Prop44ColorRGB
 90
      255
102
RTVSPost2010PropOp44
 70
     1
102
RTVSPost2010Prop45
280
     0
102
RTVSPost2010PropOp45
 70
     1
102
RTVSPost2010Prop46
 90
       50
102
RTVSPost2010PropOp46
 70
     1
102
RTVSPost2010Prop47
 90
       50
102
RTVSPost2010PropOp47
 70
     1
102
RTVSPost2010Prop48
 90
       50
102
RTVSPost2010PropOp48
 70
     1
102
RTVSPost2010Prop49
280
     0
102
RTVSPost2010PropOp49
 70
     1
102
RTVSPost2010Prop50
 90
       50
102
RTVSPost2010PropOp50
 70
     1
102
RTVSPost2010Prop51ColorIndex
 90
      256
102
RTVSPost2010Prop51ColorRGB
 90
-16777216
102
RTVSPost2010PropOp51
 70
     0
102
RTVSPost2010Prop52
140
1.0
102
RTVSPost2010PropOp52
 70
     0
102
RTVSPost2010Prop53
 90
        2
102
RTVSPost2010PropOp53
 70
     1
102
RTVSPost2010Prop54
  1
strokes_ogs.tif
102
RTVSPost2010PropOp54
 70
     1
102
RTVSPost2010Prop55
280
     0
102
RTVSPost2010PropOp55
 70
     1
102
RTVSPost2010Prop56
140
1.0
102
RTVSPost2010PropOp56
 70
     1
102
RTVSPost2010Prop57
140
1.0
102
RTVSPost2010PropOp57
 70
     1
102
RTVSPropertyOp0
 70
     1
102
RTVSPropertyOp1
 70
     1
102
RTVSPropertyOp2
 70
     1
102
RTVSPropertyOp3
 70
     1
102
RTVSPropertyOp4
 70
     1
102
RTVSPropertyOp5
 70
     1
102
RTVSPropertyOp6
 70
     1
102
RTVSPropertyOp7
 70
     1
102
RTVSPropertyOp8
 70
     1
102
RTVSPropertyOp9
 70
     1
102
RTVSPropertyOp10
 70
     1
102
RTVSPropertyOp11
 70
     1
102
RTVSPropertyOp12
 70
     1
102
RTVSPropertyOp13
 70
     1
102
RTVSPropertyOp14
 70
     1
102
RTVSPropertyOp15
 70
     1
102
RTVSPropertyOp16
 70
     1
102
RTVSPropertyOp17
 70
     1
102
RTVSPropertyOp18
 70
     1
102
RTVSPropertyOp19
 70
     1
102
RTVSPropertyOp20
 70
     1
102
RTVSPropertyOp21
 70
     1
102
RTVSPropertyOp22
 70
     1
102
RTVSPropertyOp23
 70
     1
102
RTVSPropertyOp24
 70
     1
102
RTVSPropertyOp25
 70
     1
102
RTVSPropertyOp26
 70
     1
102
RTVSPropertyOp27
 70
     1
102
RTVSPropertyOp28
 70
     1
102
RTVSPropertyOp29
 70
     1
102
RTVSPropertyOp30
 70
     1
102
RTVSPropertyOp31
 70
     1
102
RTVSPropertyOp32
 70
     1
102
RTVSPropertyOp33
 70
     1
102
RTVSPropertyOp34
 70
     1
102
RTVSPropertyOp35
 70
     1
102
RTVSPropertyOp36
 70
     1
102
RTVSPropertyOp37
 70
     1
102
RTVSPropertyOp38
 70
     1
102
RTVSPropertyOp39
 70
     1
102
RTVSPropertyOp40
 70
     1
102
RTVSPropertyOp41
 70
     1
102
RTVSPropertyOp42
 70
     1
102
RTVSPropertyOp43
 70
     1
102
RTVSPropertyOp44
 70
     1
102
RTVSPropertyOp45
 70
     1
102
RTVSPropertyOp46
 70
     1
102
RTVSPropertyOp47
 70
     1
102
RTVSPropertyOp48
 70
     1
102
RTVSPropertyOp49
 70
     1
102
RTVSPropertyOp50
 70
     1
102
RTVSPropertyOp51
 70
     0
102
RTVSPropertyOp52
 70
     0
102
RTVSPropertyOp53
 70
     1
102
RTVSPropertyOp54
 70
     1
102
RTVSPropertyOp55
 70
     1
102
RTVSPropertyOp56
 70
     1
102
RTVSPropertyOp57
 70
     1
102
RTVSPropertyOp58
 70
     1
102
RTVSPropertyOp59
 70
     1
102
RTVSPropertyOp60
 70
     1
102
RTVSPropertyOp61
 70
     1
102
RTVSPropertyOp62
 70
     1
  0
XRECORD
  5
1822
102
{ACAD_REACTORS
330
1821
102
}
330
1821
100
AcDbXrecord
280
     1
102
RTVSPost2010Prop28
280
     0
102
RTVSPost2010PropOp28
 70
     1
102
RTVSPost2010Prop29
280
     1
102
RTVSPost2010PropOp29
 70
     1
102
RTVSPost2010Prop30
280
     1
102
RTVSPost2010PropOp30
 70
     1
102
RTVSPost2010Prop31
280
     0
102
RTVSPost2010PropOp31
 70
     1
102
RTVSPost2010Prop32
280
     0
102
RTVSPost2010PropOp32
 70
     1
102
RTVSPost2010Prop33
280
     0
102
RTVSPost2010PropOp33
 70
     1
102
RTVSPost2010Prop34
280
     0
102
RTVSPost2010PropOp34
 70
     1
102
RTVSPost2010Prop35
280
     0
102
RTVSPost2010PropOp35
 70
     1
102
RTVSPost2010Prop36
280
     0
102
RTVSPost2010PropOp36
 70
     1
102
RTVSPost2010Prop37
 90
       50
102
RTVSPost2010PropOp37
 70
     1
102
RTVSPost2010Prop38
140
0.0
102
RTVSPost2010PropOp38
 70
     1
102
RTVSPost2010Prop39
140
1.0
102
RTVSPost2010PropOp39
 70
     1
102
RTVSPost2010Prop40
 90
        0
102
RTVSPost2010PropOp40
 70
     1
102
RTVSPost2010Prop41ColorIndex
 90
       18
102
RTVSPost2010Prop41ColorRGB
 90
        0
102
RTVSPost2010PropOp41
 70
     1
102
RTVSPost2010Prop42
 90
       50
102
RTVSPost2010PropOp42
 70
     1
102
RTVSPost2010Prop43
 90
        3
102
RTVSPost2010PropOp43
 70
     1
102
RTVSPost2010Prop44ColorIndex
 90
        5
102
RTVSPost2010Prop44ColorRGB
 90
      255
102
RTVSPost2010PropOp44
 70
     1
102
RTVSPost2010Prop45
280
     0
102
RTVSPost2010PropOp45
 70
     1
102
RTVSPost2010Prop46
 90
       50
102
RTVSPost2010PropOp46
 70
     1
102
RTVSPost2010Prop47
 90
       50
102
RTVSPost2010PropOp47
 70
     1
102
RTVSPost2010Prop48
 90
       50
102
RTVSPost2010PropOp48
 70
     1
102
RTVSPost2010Prop49
280
     0
102
RTVSPost2010PropOp49
 70
     1
102
RTVSPost2010Prop50
 90
       50
102
RTVSPost2010PropOp50
 70
     1
102
RTVSPost2010Prop51ColorIndex
 90
      256
102
RTVSPost2010Prop51ColorRGB
 90
-16777216
102
RTVSPost2010PropOp51
 70
     0
102
RTVSPost2010Prop52
140
1.0
102
RTVSPost2010PropOp52
 70
     0
102
RTVSPost2010Prop53
 90
        2
102
RTVSPost2010PropOp53
 70
     1
102
RTVSPost2010Prop54
  1
strokes_ogs.tif
102
RTVSPost2010PropOp54
 70
     1
102
RTVSPost2010Prop55
280
     0
102
RTVSPost2010PropOp55
 70
     1
102
RTVSPost2010Prop56
140
1.0
102
RTVSPost2010PropOp56
 70
     1
102
RTVSPost2010Prop57
140
1.0
102
RTVSPost2010PropOp57
 70
     1
102
RTVSPropertyOp0
 70
     1
102
RTVSPropertyOp1
 70
     1
102
RTVSPropertyOp2
 70
     1
102
RTVSPropertyOp3
 70
     1
102
RTVSPropertyOp4
 70
     1
102
RTVSPropertyOp5
 70
     1
102
RTVSPropertyOp6
 70
     1
102
RTVSPropertyOp7
 70
     1
102
RTVSPropertyOp8
 70
     1
102
RTVSPropertyOp9
 70
     1
102
RTVSPropertyOp10
 70
     1
102
RTVSPropertyOp11
 70
     1
102
RTVSPropertyOp12
 70
     1
102
RTVSPropertyOp13
 70
     1
102
RTVSPropertyOp14
 70
     1
102
RTVSPropertyOp15
 70
     1
102
RTVSPropertyOp16
 70
     1
102
RTVSPropertyOp17
 70
     1
102
RTVSPropertyOp18
 70
     1
102
RTVSPropertyOp19
 70
     1
102
RTVSPropertyOp20
 70
     1
102
RTVSPropertyOp21
 70
     1
102
RTVSPropertyOp22
 70
     1
102
RTVSPropertyOp23
 70
     1
102
RTVSPropertyOp24
 70
     1
102
RTVSPropertyOp25
 70
     1
102
RTVSPropertyOp26
 70
     1
102
RTVSPropertyOp27
 70
     1
102
RTVSPropertyOp28
 70
     1
102
RTVSPropertyOp29
 70
     1
102
RTVSPropertyOp30
 70
     1
102
RTVSPropertyOp31
 70
     1
102
RTVSPropertyOp32
 70
     1
102
RTVSPropertyOp33
 70
     1
102
RTVSPropertyOp34
 70
     1
102
RTVSPropertyOp35
 70
     1
102
RTVSPropertyOp36
 70
     1
102
RTVSPropertyOp37
 70
     1
102
RTVSPropertyOp38
 70
     1
102
RTVSPropertyOp39
 70
     1
102
RTVSPropertyOp40
 70
     1
102
RTVSPropertyOp41
 70
     1
102
RTVSPropertyOp42
 70
     1
102
RTVSPropertyOp43
 70
     1
102
RTVSPropertyOp44
 70
     1
102
RTVSPropertyOp45
 70
     1
102
RTVSPropertyOp46
 70
     1
102
RTVSPropertyOp47
 70
     1
102
RTVSPropertyOp48
 70
     1
102
RTVSPropertyOp49
 70
     1
102
RTVSPropertyOp50
 70
     1
102
RTVSPropertyOp51
 70
     0
102
RTVSPropertyOp52
 70
     0
102
RTVSPropertyOp53
 70
     1
102
RTVSPropertyOp54
 70
     1
102
RTVSPropertyOp55
 70
     1
102
RTVSPropertyOp56
 70
     1
102
RTVSPropertyOp57
 70
     1
102
RTVSPropertyOp58
 70
     1
102
RTVSPropertyOp59
 70
     1
102
RTVSPropertyOp60
 70
     1
102
RTVSPropertyOp61
 70
     1
102
RTVSPropertyOp62
 70
     1
  0
XRECORD
  5
1824
102
{ACAD_REACTORS
330
1823
102
}
330
1823
100
AcDbXrecord
280
     1
102
RTVSPost2010Prop28
280
     0
102
RTVSPost2010PropOp28
 70
     1
102
RTVSPost2010Prop29
280
     1
102
RTVSPost2010PropOp29
 70
     1
102
RTVSPost2010Prop30
280
     1
102
RTVSPost2010PropOp30
 70
     1
102
RTVSPost2010Prop31
280
     0
102
RTVSPost2010PropOp31
 70
     1
102
RTVSPost2010Prop32
280
     0
102
RTVSPost2010PropOp32
 70
     1
102
RTVSPost2010Prop33
280
     0
102
RTVSPost2010PropOp33
 70
     1
102
RTVSPost2010Prop34
280
     0
102
RTVSPost2010PropOp34
 70
     1
102
RTVSPost2010Prop35
280
     0
102
RTVSPost2010PropOp35
 70
     1
102
RTVSPost2010Prop36
280
     0
102
RTVSPost2010PropOp36
 70
     1
102
RTVSPost2010Prop37
 90
       50
102
RTVSPost2010PropOp37
 70
     1
102
RTVSPost2010Prop38
140
0.0
102
RTVSPost2010PropOp38
 70
     1
102
RTVSPost2010Prop39
140
1.0
102
RTVSPost2010PropOp39
 70
     1
102
RTVSPost2010Prop40
 90
        0
102
RTVSPost2010PropOp40
 70
     1
102
RTVSPost2010Prop41ColorIndex
 90
       18
102
RTVSPost2010Prop41ColorRGB
 90
        0
102
RTVSPost2010PropOp41
 70
     1
102
RTVSPost2010Prop42
 90
       50
102
RTVSPost2010PropOp42
 70
     1
102
RTVSPost2010Prop43
 90
        3
102
RTVSPost2010PropOp43
 70
     1
102
RTVSPost2010Prop44ColorIndex
 90
        5
102
RTVSPost2010Prop44ColorRGB
 90
      255
102
RTVSPost2010PropOp44
 70
     1
102
RTVSPost2010Prop45
280
     0
102
RTVSPost2010PropOp45
 70
     1
102
RTVSPost2010Prop46
 90
       50
102
RTVSPost2010PropOp46
 70
     1
102
RTVSPost2010Prop47
 90
       50
102
RTVSPost2010PropOp47
 70
     1
102
RTVSPost2010Prop48
 90
       50
102
RTVSPost2010PropOp48
 70
     1
102
RTVSPost2010Prop49
280
     0
102
RTVSPost2010PropOp49
 70
     1
102
RTVSPost2010Prop50
 90
       50
102
RTVSPost2010PropOp50
 70
     1
102
RTVSPost2010Prop51ColorIndex
 90
      256
102
RTVSPost2010Prop51ColorRGB
 90
-16777216
102
RTVSPost2010PropOp51
 70
     0
102
RTVSPost2010Prop52
140
1.0
102
RTVSPost2010PropOp52
 70
     0
102
RTVSPost2010Prop53
 90
        2
102
RTVSPost2010PropOp53
 70
     1
102
RTVSPost2010Prop54
  1
strokes_ogs.tif
102
RTVSPost2010PropOp54
 70
     1
102
RTVSPost2010Prop55
280
     0
102
RTVSPost2010PropOp55
 70
     1
102
RTVSPost2010Prop56
140
1.0
102
RTVSPost2010PropOp56
 70
     1
102
RTVSPost2010Prop57
140
1.0
102
RTVSPost2010PropOp57
 70
     1
102
RTVSPropertyOp0
 70
     1
102
RTVSPropertyOp1
 70
     1
102
RTVSPropertyOp2
 70
     1
102
RTVSPropertyOp3
 70
     1
102
RTVSPropertyOp4
 70
     1
102
RTVSPropertyOp5
 70
     1
102
RTVSPropertyOp6
 70
     1
102
RTVSPropertyOp7
 70
     1
102
RTVSPropertyOp8
 70
     1
102
RTVSPropertyOp9
 70
     1
102
RTVSPropertyOp10
 70
     1
102
RTVSPropertyOp11
 70
     1
102
RTVSPropertyOp12
 70
     1
102
RTVSPropertyOp13
 70
     1
102
RTVSPropertyOp14
 70
     1
102
RTVSPropertyOp15
 70
     1
102
RTVSPropertyOp16
 70
     1
102
RTVSPropertyOp17
 70
     1
102
RTVSPropertyOp18
 70
     1
102
RTVSPropertyOp19
 70
     1
102
RTVSPropertyOp20
 70
     1
102
RTVSPropertyOp21
 70
     1
102
RTVSPropertyOp22
 70
     1
102
RTVSPropertyOp23
 70
     1
102
RTVSPropertyOp24
 70
     1
102
RTVSPropertyOp25
 70
     1
102
RTVSPropertyOp26
 70
     1
102
RTVSPropertyOp27
 70
     1
102
RTVSPropertyOp28
 70
     1
102
RTVSPropertyOp29
 70
     1
102
RTVSPropertyOp30
 70
     1
102
RTVSPropertyOp31
 70
     1
102
RTVSPropertyOp32
 70
     1
102
RTVSPropertyOp33
 70
     1
102
RTVSPropertyOp34
 70
     1
102
RTVSPropertyOp35
 70
     1
102
RTVSPropertyOp36
 70
     1
102
RTVSPropertyOp37
 70
     1
102
RTVSPropertyOp38
 70
     1
102
RTVSPropertyOp39
 70
     1
102
RTVSPropertyOp40
 70
     1
102
RTVSPropertyOp41
 70
     1
102
RTVSPropertyOp42
 70
     1
102
RTVSPropertyOp43
 70
     1
102
RTVSPropertyOp44
 70
     1
102
RTVSPropertyOp45
 70
     1
102
RTVSPropertyOp46
 70
     1
102
RTVSPropertyOp47
 70
     1
102
RTVSPropertyOp48
 70
     1
102
RTVSPropertyOp49
 70
     1
102
RTVSPropertyOp50
 70
     1
102
RTVSPropertyOp51
 70
     0
102
RTVSPropertyOp52
 70
     0
102
RTVSPropertyOp53
 70
     1
102
RTVSPropertyOp54
 70
     1
102
RTVSPropertyOp55
 70
     1
102
RTVSPropertyOp56
 70
     1
102
RTVSPropertyOp57
 70
     1
102
RTVSPropertyOp58
 70
     1
102
RTVSPropertyOp59
 70
     1
102
RTVSPropertyOp60
 70
     1
102
RTVSPropertyOp61
 70
     1
102
RTVSPropertyOp62
 70
     1
  0
XRECORD
  5
182C
102
{ACAD_REACTORS
330
182B
102
}
330
182B
100
AcDbXrecord
280
     1
102
RTVSPost2010Prop28
280
     0
102
RTVSPost2010PropOp28
 70
     1
102
RTVSPost2010Prop29
280
     1
102
RTVSPost2010PropOp29
 70
     1
102
RTVSPost2010Prop30
280
     1
102
RTVSPost2010PropOp30
 70
     1
102
RTVSPost2010Prop31
280
     0
102
RTVSPost2010PropOp31
 70
     1
102
RTVSPost2010Prop32
280
     0
102
RTVSPost2010PropOp32
 70
     1
102
RTVSPost2010Prop33
280
     0
102
RTVSPost2010PropOp33
 70
     1
102
RTVSPost2010Prop34
280
     0
102
RTVSPost2010PropOp34
 70
     1
102
RTVSPost2010Prop35
280
     0
102
RTVSPost2010PropOp35
 70
     1
102
RTVSPost2010Prop36
280
     0
102
RTVSPost2010PropOp36
 70
     1
102
RTVSPost2010Prop37
 90
       50
102
RTVSPost2010PropOp37
 70
     1
102
RTVSPost2010Prop38
140
0.0
102
RTVSPost2010PropOp38
 70
     1
102
RTVSPost2010Prop39
140
1.0
102
RTVSPost2010PropOp39
 70
     1
102
RTVSPost2010Prop40
 90
        0
102
RTVSPost2010PropOp40
 70
     1
102
RTVSPost2010Prop41ColorIndex
 90
       18
102
RTVSPost2010Prop41ColorRGB
 90
        0
102
RTVSPost2010PropOp41
 70
     1
102
RTVSPost2010Prop42
 90
       50
102
RTVSPost2010PropOp42
 70
     1
102
RTVSPost2010Prop43
 90
        3
102
RTVSPost2010PropOp43
 70
     1
102
RTVSPost2010Prop44ColorIndex
 90
        5
102
RTVSPost2010Prop44ColorRGB
 90
      255
102
RTVSPost2010PropOp44
 70
     1
102
RTVSPost2010Prop45
280
     0
102
RTVSPost2010PropOp45
 70
     1
102
RTVSPost2010Prop46
 90
       50
102
RTVSPost2010PropOp46
 70
     1
102
RTVSPost2010Prop47
 90
       50
102
RTVSPost2010PropOp47
 70
     1
102
RTVSPost2010Prop48
 90
       50
102
RTVSPost2010PropOp48
 70
     1
102
RTVSPost2010Prop49
280
     0
102
RTVSPost2010PropOp49
 70
     1
102
RTVSPost2010Prop50
 90
       50
102
RTVSPost2010PropOp50
 70
     1
102
RTVSPost2010Prop51ColorIndex
 90
      256
102
RTVSPost2010Prop51ColorRGB
 90
-16777216
102
RTVSPost2010PropOp51
 70
     0
102
RTVSPost2010Prop52
140
1.0
102
RTVSPost2010PropOp52
 70
     0
102
RTVSPost2010Prop53
 90
        2
102
RTVSPost2010PropOp53
 70
     1
102
RTVSPost2010Prop54
  1
strokes_ogs.tif
102
RTVSPost2010PropOp54
 70
     1
102
RTVSPost2010Prop55
280
     0
102
RTVSPost2010PropOp55
 70
     1
102
RTVSPost2010Prop56
140
1.0
102
RTVSPost2010PropOp56
 70
     1
102
RTVSPost2010Prop57
140
1.0
102
RTVSPost2010PropOp57
 70
     1
102
RTVSPropertyOp0
 70
     1
102
RTVSPropertyOp1
 70
     1
102
RTVSPropertyOp2
 70
     1
102
RTVSPropertyOp3
 70
     1
102
RTVSPropertyOp4
 70
     1
102
RTVSPropertyOp5
 70
     1
102
RTVSPropertyOp6
 70
     1
102
RTVSPropertyOp7
 70
     1
102
RTVSPropertyOp8
 70
     1
102
RTVSPropertyOp9
 70
     1
102
RTVSPropertyOp10
 70
     1
102
RTVSPropertyOp11
 70
     1
102
RTVSPropertyOp12
 70
     1
102
RTVSPropertyOp13
 70
     1
102
RTVSPropertyOp14
 70
     1
102
RTVSPropertyOp15
 70
     1
102
RTVSPropertyOp16
 70
     1
102
RTVSPropertyOp17
 70
     1
102
RTVSPropertyOp18
 70
     1
102
RTVSPropertyOp19
 70
     1
102
RTVSPropertyOp20
 70
     1
102
RTVSPropertyOp21
 70
     1
102
RTVSPropertyOp22
 70
     1
102
RTVSPropertyOp23
 70
     1
102
RTVSPropertyOp24
 70
     1
102
RTVSPropertyOp25
 70
     1
102
RTVSPropertyOp26
 70
     1
102
RTVSPropertyOp27
 70
     1
102
RTVSPropertyOp28
 70
     1
102
RTVSPropertyOp29
 70
     1
102
RTVSPropertyOp30
 70
     1
102
RTVSPropertyOp31
 70
     1
102
RTVSPropertyOp32
 70
     1
102
RTVSPropertyOp33
 70
     1
102
RTVSPropertyOp34
 70
     1
102
RTVSPropertyOp35
 70
     1
102
RTVSPropertyOp36
 70
     1
102
RTVSPropertyOp37
 70
     1
102
RTVSPropertyOp38
 70
     1
102
RTVSPropertyOp39
 70
     1
102
RTVSPropertyOp40
 70
     1
102
RTVSPropertyOp41
 70
     1
102
RTVSPropertyOp42
 70
     1
102
RTVSPropertyOp43
 70
     1
102
RTVSPropertyOp44
 70
     1
102
RTVSPropertyOp45
 70
     1
102
RTVSPropertyOp46
 70
     1
102
RTVSPropertyOp47
 70
     1
102
RTVSPropertyOp48
 70
     1
102
RTVSPropertyOp49
 70
     1
102
RTVSPropertyOp50
 70
     1
102
RTVSPropertyOp51
 70
     0
102
RTVSPropertyOp52
 70
     0
102
RTVSPropertyOp53
 70
     1
102
RTVSPropertyOp54
 70
     1
102
RTVSPropertyOp55
 70
     1
102
RTVSPropertyOp56
 70
     1
102
RTVSPropertyOp57
 70
     1
102
RTVSPropertyOp58
 70
     1
102
RTVSPropertyOp59
 70
     1
102
RTVSPropertyOp60
 70
     1
102
RTVSPropertyOp61
 70
     1
102
RTVSPropertyOp62
 70
     1
  0
XRECORD
  5
1848
102
{ACAD_REACTORS
330
1847
102
}
330
1847
100
AcDbXrecord
280
     1
102
RTVSPost2010Prop28
280
     0
102
RTVSPost2010PropOp28
 70
     1
102
RTVSPost2010Prop29
280
     1
102
RTVSPost2010PropOp29
 70
     1
102
RTVSPost2010Prop30
280
     1
102
RTVSPost2010PropOp30
 70
     1
102
RTVSPost2010Prop31
280
     0
102
RTVSPost2010PropOp31
 70
     1
102
RTVSPost2010Prop32
280
     0
102
RTVSPost2010PropOp32
 70
     1
102
RTVSPost2010Prop33
280
     0
102
RTVSPost2010PropOp33
 70
     1
102
RTVSPost2010Prop34
280
     0
102
RTVSPost2010PropOp34
 70
     1
102
RTVSPost2010Prop35
280
     0
102
RTVSPost2010PropOp35
 70
     1
102
RTVSPost2010Prop36
280
     0
102
RTVSPost2010PropOp36
 70
     1
102
RTVSPost2010Prop37
 90
       50
102
RTVSPost2010PropOp37
 70
     0
102
RTVSPost2010Prop38
140
0.0
102
RTVSPost2010PropOp38
 70
     0
102
RTVSPost2010Prop39
140
1.0
102
RTVSPost2010PropOp39
 70
     0
102
RTVSPost2010Prop40
 90
        0
102
RTVSPost2010PropOp40
 70
     0
102
RTVSPost2010Prop41ColorIndex
 90
       18
102
RTVSPost2010Prop41ColorRGB
 90
        0
102
RTVSPost2010PropOp41
 70
     0
102
RTVSPost2010Prop42
 90
       50
102
RTVSPost2010PropOp42
 70
     0
102
RTVSPost2010Prop43
 90
        3
102
RTVSPost2010PropOp43
 70
     0
102
RTVSPost2010Prop44ColorIndex
 90
        5
102
RTVSPost2010Prop44ColorRGB
 90
      255
102
RTVSPost2010PropOp44
 70
     0
102
RTVSPost2010Prop45
280
     0
102
RTVSPost2010PropOp45
 70
     1
102
RTVSPost2010Prop46
 90
       50
102
RTVSPost2010PropOp46
 70
     0
102
RTVSPost2010Prop47
 90
       50
102
RTVSPost2010PropOp47
 70
     0
102
RTVSPost2010Prop48
 90
       50
102
RTVSPost2010PropOp48
 70
     0
102
RTVSPost2010Prop49
280
     0
102
RTVSPost2010PropOp49
 70
     1
102
RTVSPost2010Prop50
 90
       50
102
RTVSPost2010PropOp50
 70
     0
102
RTVSPost2010Prop51ColorIndex
 90
      256
102
RTVSPost2010Prop51ColorRGB
 90
-16777216
102
RTVSPost2010PropOp51
 70
     0
102
RTVSPost2010Prop52
140
1.0
102
RTVSPost2010PropOp52
 70
     0
102
RTVSPost2010Prop53
 90
        2
102
RTVSPost2010PropOp53
 70
     0
102
RTVSPost2010Prop54
  1
strokes_ogs.tif
102
RTVSPost2010PropOp54
 70
     0
102
RTVSPost2010Prop55
280
     0
102
RTVSPost2010PropOp55
 70
     1
102
RTVSPost2010Prop56
140
1.0
102
RTVSPost2010PropOp56
 70
     0
102
RTVSPost2010Prop57
140
1.0
102
RTVSPost2010PropOp57
 70
     0
102
RTVSPropertyOp0
 70
     0
102
RTVSPropertyOp1
 70
     0
102
RTVSPropertyOp2
 70
     0
102
RTVSPropertyOp3
 70
     0
102
RTVSPropertyOp4
 70
     0
102
RTVSPropertyOp5
 70
     0
102
RTVSPropertyOp6
 70
     0
102
RTVSPropertyOp7
 70
     0
102
RTVSPropertyOp8
 70
     0
102
RTVSPropertyOp9
 70
     0
102
RTVSPropertyOp10
 70
     0
102
RTVSPropertyOp11
 70
     0
102
RTVSPropertyOp12
 70
     0
102
RTVSPropertyOp13
 70
     0
102
RTVSPropertyOp14
 70
     2
102
RTVSPropertyOp15
 70
     0
102
RTVSPropertyOp16
 70
     0
102
RTVSPropertyOp17
 70
     0
102
RTVSPropertyOp18
 70
     0
102
RTVSPropertyOp19
 70
     0
102
RTVSPropertyOp20
 70
     0
102
RTVSPropertyOp21
 70
     0
102
RTVSPropertyOp22
 70
     0
102
RTVSPropertyOp23
 70
     0
102
RTVSPropertyOp24
 70
     0
102
RTVSPropertyOp25
 70
     0
102
RTVSPropertyOp26
 70
     0
102
RTVSPropertyOp27
 70
     0
102
RTVSPropertyOp28
 70
     1
102
RTVSPropertyOp29
 70
     1
102
RTVSPropertyOp30
 70
     1
102
RTVSPropertyOp31
 70
     1
102
RTVSPropertyOp32
 70
     1
102
RTVSPropertyOp33
 70
     1
102
RTVSPropertyOp34
 70
     1
102
RTVSPropertyOp35
 70
     1
102
RTVSPropertyOp36
 70
     1
102
RTVSPropertyOp37
 70
     0
102
RTVSPropertyOp38
 70
     0
102
RTVSPropertyOp39
 70
     0
102
RTVSPropertyOp40
 70
     0
102
RTVSPropertyOp41
 70
     0
102
RTVSPropertyOp42
 70
     0
102
RTVSPropertyOp43
 70
     0
102
RTVSPropertyOp44
 70
     0
102
RTVSPropertyOp45
 70
     1
102
RTVSPropertyOp46
 70
     0
102
RTVSPropertyOp47
 70
     0
102
RTVSPropertyOp48
 70
     0
102
RTVSPropertyOp49
 70
     1
102
RTVSPropertyOp50
 70
     0
102
RTVSPropertyOp51
 70
     0
102
RTVSPropertyOp52
 70
     0
102
RTVSPropertyOp53
 70
     0
102
RTVSPropertyOp54
 70
     0
102
RTVSPropertyOp55
 70
     1
102
RTVSPropertyOp56
 70
     0
102
RTVSPropertyOp57
 70
     0
102
RTVSPropertyOp58
 70
     0
102
RTVSPropertyOp59
 70
     0
102
RTVSPropertyOp60
 70
     0
102
RTVSPropertyOp61
 70
     0
102
RTVSPropertyOp62
 70
     0
  0
XRECORD
  5
1838
102
{ACAD_REACTORS
330
1837
102
}
330
1837
100
AcDbXrecord
280
     1
102
RTVSPost2010Prop28
280
     0
102
RTVSPost2010PropOp28
 70
     1
102
RTVSPost2010Prop29
280
     1
102
RTVSPost2010PropOp29
 70
     1
102
RTVSPost2010Prop30
280
     1
102
RTVSPost2010PropOp30
 70
     1
102
RTVSPost2010Prop31
280
     0
102
RTVSPost2010PropOp31
 70
     1
102
RTVSPost2010Prop32
280
     0
102
RTVSPost2010PropOp32
 70
     1
102
RTVSPost2010Prop33
280
     0
102
RTVSPost2010PropOp33
 70
     1
102
RTVSPost2010Prop34
280
     0
102
RTVSPost2010PropOp34
 70
     1
102
RTVSPost2010Prop35
280
     0
102
RTVSPost2010PropOp35
 70
     1
102
RTVSPost2010Prop36
280
     0
102
RTVSPost2010PropOp36
 70
     1
102
RTVSPost2010Prop37
 90
       50
102
RTVSPost2010PropOp37
 70
     1
102
RTVSPost2010Prop38
140
0.0
102
RTVSPost2010PropOp38
 70
     1
102
RTVSPost2010Prop39
140
1.0
102
RTVSPost2010PropOp39
 70
     1
102
RTVSPost2010Prop40
 90
        0
102
RTVSPost2010PropOp40
 70
     1
102
RTVSPost2010Prop41ColorIndex
 90
       18
102
RTVSPost2010Prop41ColorRGB
 90
        0
102
RTVSPost2010PropOp41
 70
     1
102
RTVSPost2010Prop42
 90
       50
102
RTVSPost2010PropOp42
 70
     1
102
RTVSPost2010Prop43
 90
        3
102
RTVSPost2010PropOp43
 70
     1
102
RTVSPost2010Prop44ColorIndex
 90
        5
102
RTVSPost2010Prop44ColorRGB
 90
      255
102
RTVSPost2010PropOp44
 70
     1
102
RTVSPost2010Prop45
280
     0
102
RTVSPost2010PropOp45
 70
     1
102
RTVSPost2010Prop46
 90
       50
102
RTVSPost2010PropOp46
 70
     1
102
RTVSPost2010Prop47
 90
       50
102
RTVSPost2010PropOp47
 70
     1
102
RTVSPost2010Prop48
 90
       50
102
RTVSPost2010PropOp48
 70
     1
102
RTVSPost2010Prop49
280
     0
102
RTVSPost2010PropOp49
 70
     1
102
RTVSPost2010Prop50
 90
       50
102
RTVSPost2010PropOp50
 70
     1
102
RTVSPost2010Prop51ColorIndex
 90
      256
102
RTVSPost2010Prop51ColorRGB
 90
-16777216
102
RTVSPost2010PropOp51
 70
     0
102
RTVSPost2010Prop52
140
1.0
102
RTVSPost2010PropOp52
 70
     0
102
RTVSPost2010Prop53
 90
        2
102
RTVSPost2010PropOp53
 70
     1
102
RTVSPost2010Prop54
  1
strokes_ogs.tif
102
RTVSPost2010PropOp54
 70
     1
102
RTVSPost2010Prop55
280
     0
102
RTVSPost2010PropOp55
 70
     1
102
RTVSPost2010Prop56
140
1.0
102
RTVSPost2010PropOp56
 70
     1
102
RTVSPost2010Prop57
140
1.0
102
RTVSPost2010PropOp57
 70
     1
102
RTVSPropertyOp0
 70
     1
102
RTVSPropertyOp1
 70
     1
102
RTVSPropertyOp2
 70
     1
102
RTVSPropertyOp3
 70
     1
102
RTVSPropertyOp4
 70
     1
102
RTVSPropertyOp5
 70
     1
102
RTVSPropertyOp6
 70
     1
102
RTVSPropertyOp7
 70
     1
102
RTVSPropertyOp8
 70
     1
102
RTVSPropertyOp9
 70
     1
102
RTVSPropertyOp10
 70
     1
102
RTVSPropertyOp11
 70
     1
102
RTVSPropertyOp12
 70
     1
102
RTVSPropertyOp13
 70
     1
102
RTVSPropertyOp14
 70
     1
102
RTVSPropertyOp15
 70
     1
102
RTVSPropertyOp16
 70
     1
102
RTVSPropertyOp17
 70
     1
102
RTVSPropertyOp18
 70
     1
102
RTVSPropertyOp19
 70
     1
102
RTVSPropertyOp20
 70
     1
102
RTVSPropertyOp21
 70
     1
102
RTVSPropertyOp22
 70
     1
102
RTVSPropertyOp23
 70
     1
102
RTVSPropertyOp24
 70
     1
102
RTVSPropertyOp25
 70
     1
102
RTVSPropertyOp26
 70
     1
102
RTVSPropertyOp27
 70
     1
102
RTVSPropertyOp28
 70
     1
102
RTVSPropertyOp29
 70
     1
102
RTVSPropertyOp30
 70
     1
102
RTVSPropertyOp31
 70
     1
102
RTVSPropertyOp32
 70
     1
102
RTVSPropertyOp33
 70
     1
102
RTVSPropertyOp34
 70
     1
102
RTVSPropertyOp35
 70
     1
102
RTVSPropertyOp36
 70
     1
102
RTVSPropertyOp37
 70
     1
102
RTVSPropertyOp38
 70
     1
102
RTVSPropertyOp39
 70
     1
102
RTVSPropertyOp40
 70
     1
102
RTVSPropertyOp41
 70
     1
102
RTVSPropertyOp42
 70
     1
102
RTVSPropertyOp43
 70
     1
102
RTVSPropertyOp44
 70
     1
102
RTVSPropertyOp45
 70
     1
102
RTVSPropertyOp46
 70
     1
102
RTVSPropertyOp47
 70
     1
102
RTVSPropertyOp48
 70
     1
102
RTVSPropertyOp49
 70
     1
102
RTVSPropertyOp50
 70
     1
102
RTVSPropertyOp51
 70
     0
102
RTVSPropertyOp52
 70
     0
102
RTVSPropertyOp53
 70
     1
102
RTVSPropertyOp54
 70
     1
102
RTVSPropertyOp55
 70
     1
102
RTVSPropertyOp56
 70
     1
102
RTVSPropertyOp57
 70
     1
102
RTVSPropertyOp58
 70
     1
102
RTVSPropertyOp59
 70
     1
102
RTVSPropertyOp60
 70
     1
102
RTVSPropertyOp61
 70
     1
102
RTVSPropertyOp62
 70
     1
  0
XRECORD
  5
184A
102
{ACAD_REACTORS
330
1849
102
}
330
1849
100
AcDbXrecord
280
     1
102
RTVSPost2010Prop28
280
     0
102
RTVSPost2010PropOp28
 70
     1
102
RTVSPost2010Prop29
280
     1
102
RTVSPost2010PropOp29
 70
     1
102
RTVSPost2010Prop30
280
     1
102
RTVSPost2010PropOp30
 70
     1
102
RTVSPost2010Prop31
280
     0
102
RTVSPost2010PropOp31
 70
     1
102
RTVSPost2010Prop32
280
     0
102
RTVSPost2010PropOp32
 70
     1
102
RTVSPost2010Prop33
280
     0
102
RTVSPost2010PropOp33
 70
     1
102
RTVSPost2010Prop34
280
     0
102
RTVSPost2010PropOp34
 70
     1
102
RTVSPost2010Prop35
280
     0
102
RTVSPost2010PropOp35
 70
     1
102
RTVSPost2010Prop36
280
     0
102
RTVSPost2010PropOp36
 70
     1
102
RTVSPost2010Prop37
 90
       50
102
RTVSPost2010PropOp37
 70
     0
102
RTVSPost2010Prop38
140
0.0
102
RTVSPost2010PropOp38
 70
     0
102
RTVSPost2010Prop39
140
1.0
102
RTVSPost2010PropOp39
 70
     0
102
RTVSPost2010Prop40
 90
        0
102
RTVSPost2010PropOp40
 70
     0
102
RTVSPost2010Prop41ColorIndex
 90
       18
102
RTVSPost2010Prop41ColorRGB
 90
        0
102
RTVSPost2010PropOp41
 70
     0
102
RTVSPost2010Prop42
 90
       50
102
RTVSPost2010PropOp42
 70
     0
102
RTVSPost2010Prop43
 90
        3
102
RTVSPost2010PropOp43
 70
     0
102
RTVSPost2010Prop44ColorIndex
 90
        5
102
RTVSPost2010Prop44ColorRGB
 90
      255
102
RTVSPost2010PropOp44
 70
     0
102
RTVSPost2010Prop45
280
     0
102
RTVSPost2010PropOp45
 70
     1
102
RTVSPost2010Prop46
 90
       50
102
RTVSPost2010PropOp46
 70
     0
102
RTVSPost2010Prop47
 90
       50
102
RTVSPost2010PropOp47
 70
     0
102
RTVSPost2010Prop48
 90
       50
102
RTVSPost2010PropOp48
 70
     0
102
RTVSPost2010Prop49
280
     0
102
RTVSPost2010PropOp49
 70
     1
102
RTVSPost2010Prop50
 90
       50
102
RTVSPost2010PropOp50
 70
     0
102
RTVSPost2010Prop51ColorIndex
 90
      256
102
RTVSPost2010Prop51ColorRGB
 90
-16777216
102
RTVSPost2010PropOp51
 70
     0
102
RTVSPost2010Prop52
140
1.0
102
RTVSPost2010PropOp52
 70
     0
102
RTVSPost2010Prop53
 90
        2
102
RTVSPost2010PropOp53
 70
     0
102
RTVSPost2010Prop54
  1
strokes_ogs.tif
102
RTVSPost2010PropOp54
 70
     0
102
RTVSPost2010Prop55
280
     0
102
RTVSPost2010PropOp55
 70
     1
102
RTVSPost2010Prop56
140
1.0
102
RTVSPost2010PropOp56
 70
     0
102
RTVSPost2010Prop57
140
1.0
102
RTVSPost2010PropOp57
 70
     0
102
RTVSPropertyOp0
 70
     0
102
RTVSPropertyOp1
 70
     0
102
RTVSPropertyOp2
 70
     0
102
RTVSPropertyOp3
 70
     0
102
RTVSPropertyOp4
 70
     0
102
RTVSPropertyOp5
 70
     0
102
RTVSPropertyOp6
 70
     0
102
RTVSPropertyOp7
 70
     0
102
RTVSPropertyOp8
 70
     0
102
RTVSPropertyOp9
 70
     0
102
RTVSPropertyOp10
 70
     0
102
RTVSPropertyOp11
 70
     0
102
RTVSPropertyOp12
 70
     0
102
RTVSPropertyOp13
 70
     0
102
RTVSPropertyOp14
 70
     2
102
RTVSPropertyOp15
 70
     0
102
RTVSPropertyOp16
 70
     0
102
RTVSPropertyOp17
 70
     0
102
RTVSPropertyOp18
 70
     0
102
RTVSPropertyOp19
 70
     0
102
RTVSPropertyOp20
 70
     0
102
RTVSPropertyOp21
 70
     0
102
RTVSPropertyOp22
 70
     0
102
RTVSPropertyOp23
 70
     0
102
RTVSPropertyOp24
 70
     0
102
RTVSPropertyOp25
 70
     0
102
RTVSPropertyOp26
 70
     0
102
RTVSPropertyOp27
 70
     0
102
RTVSPropertyOp28
 70
     1
102
RTVSPropertyOp29
 70
     1
102
RTVSPropertyOp30
 70
     1
102
RTVSPropertyOp31
 70
     1
102
RTVSPropertyOp32
 70
     1
102
RTVSPropertyOp33
 70
     1
102
RTVSPropertyOp34
 70
     1
102
RTVSPropertyOp35
 70
     1
102
RTVSPropertyOp36
 70
     1
102
RTVSPropertyOp37
 70
     0
102
RTVSPropertyOp38
 70
     0
102
RTVSPropertyOp39
 70
     0
102
RTVSPropertyOp40
 70
     0
102
RTVSPropertyOp41
 70
     0
102
RTVSPropertyOp42
 70
     0
102
RTVSPropertyOp43
 70
     0
102
RTVSPropertyOp44
 70
     0
102
RTVSPropertyOp45
 70
     1
102
RTVSPropertyOp46
 70
     0
102
RTVSPropertyOp47
 70
     0
102
RTVSPropertyOp48
 70
     0
102
RTVSPropertyOp49
 70
     1
102
RTVSPropertyOp50
 70
     0
102
RTVSPropertyOp51
 70
     0
102
RTVSPropertyOp52
 70
     0
102
RTVSPropertyOp53
 70
     0
102
RTVSPropertyOp54
 70
     0
102
RTVSPropertyOp55
 70
     1
102
RTVSPropertyOp56
 70
     0
102
RTVSPropertyOp57
 70
     0
102
RTVSPropertyOp58
 70
     0
102
RTVSPropertyOp59
 70
     0
102
RTVSPropertyOp60
 70
     0
102
RTVSPropertyOp61
 70
     0
102
RTVSPropertyOp62
 70
     0
  0
XRECORD
  5
1830
102
{ACAD_REACTORS
330
182F
102
}
330
182F
100
AcDbXrecord
280
     1
102
RTVSPost2010Prop28
280
     0
102
RTVSPost2010PropOp28
 70
     1
102
RTVSPost2010Prop29
280
     1
102
RTVSPost2010PropOp29
 70
     1
102
RTVSPost2010Prop30
280
     1
102
RTVSPost2010PropOp30
 70
     1
102
RTVSPost2010Prop31
280
     0
102
RTVSPost2010PropOp31
 70
     1
102
RTVSPost2010Prop32
280
     0
102
RTVSPost2010PropOp32
 70
     1
102
RTVSPost2010Prop33
280
     0
102
RTVSPost2010PropOp33
 70
     1
102
RTVSPost2010Prop34
280
     0
102
RTVSPost2010PropOp34
 70
     1
102
RTVSPost2010Prop35
280
     0
102
RTVSPost2010PropOp35
 70
     1
102
RTVSPost2010Prop36
280
     0
102
RTVSPost2010PropOp36
 70
     1
102
RTVSPost2010Prop37
 90
       50
102
RTVSPost2010PropOp37
 70
     1
102
RTVSPost2010Prop38
140
0.0
102
RTVSPost2010PropOp38
 70
     1
102
RTVSPost2010Prop39
140
1.0
102
RTVSPost2010PropOp39
 70
     1
102
RTVSPost2010Prop40
 90
        0
102
RTVSPost2010PropOp40
 70
     1
102
RTVSPost2010Prop41ColorIndex
 90
       18
102
RTVSPost2010Prop41ColorRGB
 90
        0
102
RTVSPost2010PropOp41
 70
     1
102
RTVSPost2010Prop42
 90
       50
102
RTVSPost2010PropOp42
 70
     1
102
RTVSPost2010Prop43
 90
        3
102
RTVSPost2010PropOp43
 70
     1
102
RTVSPost2010Prop44ColorIndex
 90
        5
102
RTVSPost2010Prop44ColorRGB
 90
      255
102
RTVSPost2010PropOp44
 70
     1
102
RTVSPost2010Prop45
280
     0
102
RTVSPost2010PropOp45
 70
     1
102
RTVSPost2010Prop46
 90
       50
102
RTVSPost2010PropOp46
 70
     1
102
RTVSPost2010Prop47
 90
       50
102
RTVSPost2010PropOp47
 70
     1
102
RTVSPost2010Prop48
 90
       50
102
RTVSPost2010PropOp48
 70
     1
102
RTVSPost2010Prop49
280
     0
102
RTVSPost2010PropOp49
 70
     1
102
RTVSPost2010Prop50
 90
       50
102
RTVSPost2010PropOp50
 70
     1
102
RTVSPost2010Prop51ColorIndex
 90
      256
102
RTVSPost2010Prop51ColorRGB
 90
-16777216
102
RTVSPost2010PropOp51
 70
     0
102
RTVSPost2010Prop52
140
1.0
102
RTVSPost2010PropOp52
 70
     0
102
RTVSPost2010Prop53
 90
        2
102
RTVSPost2010PropOp53
 70
     1
102
RTVSPost2010Prop54
  1
strokes_ogs.tif
102
RTVSPost2010PropOp54
 70
     1
102
RTVSPost2010Prop55
280
     0
102
RTVSPost2010PropOp55
 70
     1
102
RTVSPost2010Prop56
140
1.0
102
RTVSPost2010PropOp56
 70
     1
102
RTVSPost2010Prop57
140
1.0
102
RTVSPost2010PropOp57
 70
     1
102
RTVSPropertyOp0
 70
     1
102
RTVSPropertyOp1
 70
     1
102
RTVSPropertyOp2
 70
     1
102
RTVSPropertyOp3
 70
     1
102
RTVSPropertyOp4
 70
     1
102
RTVSPropertyOp5
 70
     1
102
RTVSPropertyOp6
 70
     1
102
RTVSPropertyOp7
 70
     1
102
RTVSPropertyOp8
 70
     1
102
RTVSPropertyOp9
 70
     1
102
RTVSPropertyOp10
 70
     1
102
RTVSPropertyOp11
 70
     1
102
RTVSPropertyOp12
 70
     1
102
RTVSPropertyOp13
 70
     1
102
RTVSPropertyOp14
 70
     1
102
RTVSPropertyOp15
 70
     1
102
RTVSPropertyOp16
 70
     1
102
RTVSPropertyOp17
 70
     1
102
RTVSPropertyOp18
 70
     1
102
RTVSPropertyOp19
 70
     1
102
RTVSPropertyOp20
 70
     1
102
RTVSPropertyOp21
 70
     1
102
RTVSPropertyOp22
 70
     1
102
RTVSPropertyOp23
 70
     1
102
RTVSPropertyOp24
 70
     1
102
RTVSPropertyOp25
 70
     1
102
RTVSPropertyOp26
 70
     1
102
RTVSPropertyOp27
 70
     1
102
RTVSPropertyOp28
 70
     1
102
RTVSPropertyOp29
 70
     1
102
RTVSPropertyOp30
 70
     1
102
RTVSPropertyOp31
 70
     1
102
RTVSPropertyOp32
 70
     1
102
RTVSPropertyOp33
 70
     1
102
RTVSPropertyOp34
 70
     1
102
RTVSPropertyOp35
 70
     1
102
RTVSPropertyOp36
 70
     1
102
RTVSPropertyOp37
 70
     1
102
RTVSPropertyOp38
 70
     1
102
RTVSPropertyOp39
 70
     1
102
RTVSPropertyOp40
 70
     1
102
RTVSPropertyOp41
 70
     1
102
RTVSPropertyOp42
 70
     1
102
RTVSPropertyOp43
 70
     1
102
RTVSPropertyOp44
 70
     1
102
RTVSPropertyOp45
 70
     1
102
RTVSPropertyOp46
 70
     1
102
RTVSPropertyOp47
 70
     1
102
RTVSPropertyOp48
 70
     1
102
RTVSPropertyOp49
 70
     1
102
RTVSPropertyOp50
 70
     1
102
RTVSPropertyOp51
 70
     0
102
RTVSPropertyOp52
 70
     0
102
RTVSPropertyOp53
 70
     1
102
RTVSPropertyOp54
 70
     1
102
RTVSPropertyOp55
 70
     1
102
RTVSPropertyOp56
 70
     1
102
RTVSPropertyOp57
 70
     1
102
RTVSPropertyOp58
 70
     1
102
RTVSPropertyOp59
 70
     1
102
RTVSPropertyOp60
 70
     1
102
RTVSPropertyOp61
 70
     1
102
RTVSPropertyOp62
 70
     1
  0
XRECORD
  5
1846
102
{ACAD_REACTORS
330
1845
102
}
330
1845
100
AcDbXrecord
280
     1
102
RTVSPost2010Prop28
280
     0
102
RTVSPost2010PropOp28
 70
     1
102
RTVSPost2010Prop29
280
     1
102
RTVSPost2010PropOp29
 70
     1
102
RTVSPost2010Prop30
280
     1
102
RTVSPost2010PropOp30
 70
     1
102
RTVSPost2010Prop31
280
     0
102
RTVSPost2010PropOp31
 70
     1
102
RTVSPost2010Prop32
280
     0
102
RTVSPost2010PropOp32
 70
     1
102
RTVSPost2010Prop33
280
     0
102
RTVSPost2010PropOp33
 70
     1
102
RTVSPost2010Prop34
280
     0
102
RTVSPost2010PropOp34
 70
     1
102
RTVSPost2010Prop35
280
     0
102
RTVSPost2010PropOp35
 70
     1
102
RTVSPost2010Prop36
280
     0
102
RTVSPost2010PropOp36
 70
     1
102
RTVSPost2010Prop37
 90
       50
102
RTVSPost2010PropOp37
 70
     1
102
RTVSPost2010Prop38
140
0.0
102
RTVSPost2010PropOp38
 70
     1
102
RTVSPost2010Prop39
140
1.0
102
RTVSPost2010PropOp39
 70
     1
102
RTVSPost2010Prop40
 90
        0
102
RTVSPost2010PropOp40
 70
     1
102
RTVSPost2010Prop41ColorIndex
 90
       18
102
RTVSPost2010Prop41ColorRGB
 90
        0
102
RTVSPost2010PropOp41
 70
     1
102
RTVSPost2010Prop42
 90
       50
102
RTVSPost2010PropOp42
 70
     1
102
RTVSPost2010Prop43
 90
        3
102
RTVSPost2010PropOp43
 70
     1
102
RTVSPost2010Prop44ColorIndex
 90
        5
102
RTVSPost2010Prop44ColorRGB
 90
      255
102
RTVSPost2010PropOp44
 70
     1
102
RTVSPost2010Prop45
280
     0
102
RTVSPost2010PropOp45
 70
     1
102
RTVSPost2010Prop46
 90
       50
102
RTVSPost2010PropOp46
 70
     1
102
RTVSPost2010Prop47
 90
       50
102
RTVSPost2010PropOp47
 70
     1
102
RTVSPost2010Prop48
 90
       50
102
RTVSPost2010PropOp48
 70
     1
102
RTVSPost2010Prop49
280
     0
102
RTVSPost2010PropOp49
 70
     1
102
RTVSPost2010Prop50
 90
       50
102
RTVSPost2010PropOp50
 70
     1
102
RTVSPost2010Prop51ColorIndex
 90
      256
102
RTVSPost2010Prop51ColorRGB
 90
-16777216
102
RTVSPost2010PropOp51
 70
     0
102
RTVSPost2010Prop52
140
1.0
102
RTVSPost2010PropOp52
 70
     0
102
RTVSPost2010Prop53
 90
        2
102
RTVSPost2010PropOp53
 70
     1
102
RTVSPost2010Prop54
  1
strokes_ogs.tif
102
RTVSPost2010PropOp54
 70
     1
102
RTVSPost2010Prop55
280
     0
102
RTVSPost2010PropOp55
 70
     1
102
RTVSPost2010Prop56
140
1.0
102
RTVSPost2010PropOp56
 70
     1
102
RTVSPost2010Prop57
140
1.0
102
RTVSPost2010PropOp57
 70
     1
102
RTVSPropertyOp0
 70
     1
102
RTVSPropertyOp1
 70
     1
102
RTVSPropertyOp2
 70
     1
102
RTVSPropertyOp3
 70
     1
102
RTVSPropertyOp4
 70
     1
102
RTVSPropertyOp5
 70
     1
102
RTVSPropertyOp6
 70
     1
102
RTVSPropertyOp7
 70
     1
102
RTVSPropertyOp8
 70
     1
102
RTVSPropertyOp9
 70
     1
102
RTVSPropertyOp10
 70
     1
102
RTVSPropertyOp11
 70
     1
102
RTVSPropertyOp12
 70
     1
102
RTVSPropertyOp13
 70
     1
102
RTVSPropertyOp14
 70
     1
102
RTVSPropertyOp15
 70
     1
102
RTVSPropertyOp16
 70
     1
102
RTVSPropertyOp17
 70
     1
102
RTVSPropertyOp18
 70
     1
102
RTVSPropertyOp19
 70
     1
102
RTVSPropertyOp20
 70
     1
102
RTVSPropertyOp21
 70
     1
102
RTVSPropertyOp22
 70
     1
102
RTVSPropertyOp23
 70
     1
102
RTVSPropertyOp24
 70
     1
102
RTVSPropertyOp25
 70
     1
102
RTVSPropertyOp26
 70
     1
102
RTVSPropertyOp27
 70
     1
102
RTVSPropertyOp28
 70
     1
102
RTVSPropertyOp29
 70
     1
102
RTVSPropertyOp30
 70
     1
102
RTVSPropertyOp31
 70
     1
102
RTVSPropertyOp32
 70
     1
102
RTVSPropertyOp33
 70
     1
102
RTVSPropertyOp34
 70
     1
102
RTVSPropertyOp35
 70
     1
102
RTVSPropertyOp36
 70
     1
102
RTVSPropertyOp37
 70
     1
102
RTVSPropertyOp38
 70
     1
102
RTVSPropertyOp39
 70
     1
102
RTVSPropertyOp40
 70
     1
102
RTVSPropertyOp41
 70
     1
102
RTVSPropertyOp42
 70
     1
102
RTVSPropertyOp43
 70
     1
102
RTVSPropertyOp44
 70
     1
102
RTVSPropertyOp45
 70
     1
102
RTVSPropertyOp46
 70
     1
102
RTVSPropertyOp47
 70
     1
102
RTVSPropertyOp48
 70
     1
102
RTVSPropertyOp49
 70
     1
102
RTVSPropertyOp50
 70
     1
102
RTVSPropertyOp51
 70
     0
102
RTVSPropertyOp52
 70
     0
102
RTVSPropertyOp53
 70
     1
102
RTVSPropertyOp54
 70
     1
102
RTVSPropertyOp55
 70
     1
102
RTVSPropertyOp56
 70
     1
102
RTVSPropertyOp57
 70
     1
102
RTVSPropertyOp58
 70
     1
102
RTVSPropertyOp59
 70
     1
102
RTVSPropertyOp60
 70
     1
102
RTVSPropertyOp61
 70
     1
102
RTVSPropertyOp62
 70
     1
  0
XRECORD
  5
1844
102
{ACAD_REACTORS
330
1843
102
}
330
1843
100
AcDbXrecord
280
     1
102
RTVSPost2010Prop28
280
     0
102
RTVSPost2010PropOp28
 70
     1
102
RTVSPost2010Prop29
280
     1
102
RTVSPost2010PropOp29
 70
     1
102
RTVSPost2010Prop30
280
     1
102
RTVSPost2010PropOp30
 70
     1
102
RTVSPost2010Prop31
280
     0
102
RTVSPost2010PropOp31
 70
     1
102
RTVSPost2010Prop32
280
     0
102
RTVSPost2010PropOp32
 70
     1
102
RTVSPost2010Prop33
280
     0
102
RTVSPost2010PropOp33
 70
     1
102
RTVSPost2010Prop34
280
     0
102
RTVSPost2010PropOp34
 70
     1
102
RTVSPost2010Prop35
280
     0
102
RTVSPost2010PropOp35
 70
     1
102
RTVSPost2010Prop36
280
     0
102
RTVSPost2010PropOp36
 70
     1
102
RTVSPost2010Prop37
 90
       50
102
RTVSPost2010PropOp37
 70
     1
102
RTVSPost2010Prop38
140
0.0
102
RTVSPost2010PropOp38
 70
     1
102
RTVSPost2010Prop39
140
1.0
102
RTVSPost2010PropOp39
 70
     1
102
RTVSPost2010Prop40
 90
        0
102
RTVSPost2010PropOp40
 70
     1
102
RTVSPost2010Prop41ColorIndex
 90
       18
102
RTVSPost2010Prop41ColorRGB
 90
        0
102
RTVSPost2010PropOp41
 70
     1
102
RTVSPost2010Prop42
 90
       50
102
RTVSPost2010PropOp42
 70
     1
102
RTVSPost2010Prop43
 90
        3
102
RTVSPost2010PropOp43
 70
     1
102
RTVSPost2010Prop44ColorIndex
 90
        5
102
RTVSPost2010Prop44ColorRGB
 90
      255
102
RTVSPost2010PropOp44
 70
     1
102
RTVSPost2010Prop45
280
     0
102
RTVSPost2010PropOp45
 70
     1
102
RTVSPost2010Prop46
 90
       50
102
RTVSPost2010PropOp46
 70
     1
102
RTVSPost2010Prop47
 90
       50
102
RTVSPost2010PropOp47
 70
     1
102
RTVSPost2010Prop48
 90
       50
102
RTVSPost2010PropOp48
 70
     1
102
RTVSPost2010Prop49
280
     0
102
RTVSPost2010PropOp49
 70
     1
102
RTVSPost2010Prop50
 90
       50
102
RTVSPost2010PropOp50
 70
     1
102
RTVSPost2010Prop51ColorIndex
 90
      256
102
RTVSPost2010Prop51ColorRGB
 90
-16777216
102
RTVSPost2010PropOp51
 70
     0
102
RTVSPost2010Prop52
140
1.0
102
RTVSPost2010PropOp52
 70
     0
102
RTVSPost2010Prop53
 90
        2
102
RTVSPost2010PropOp53
 70
     1
102
RTVSPost2010Prop54
  1
strokes_ogs.tif
102
RTVSPost2010PropOp54
 70
     1
102
RTVSPost2010Prop55
280
     0
102
RTVSPost2010PropOp55
 70
     1
102
RTVSPost2010Prop56
140
1.0
102
RTVSPost2010PropOp56
 70
     1
102
RTVSPost2010Prop57
140
1.0
102
RTVSPost2010PropOp57
 70
     1
102
RTVSPropertyOp0
 70
     1
102
RTVSPropertyOp1
 70
     1
102
RTVSPropertyOp2
 70
     1
102
RTVSPropertyOp3
 70
     1
102
RTVSPropertyOp4
 70
     1
102
RTVSPropertyOp5
 70
     1
102
RTVSPropertyOp6
 70
     1
102
RTVSPropertyOp7
 70
     1
102
RTVSPropertyOp8
 70
     1
102
RTVSPropertyOp9
 70
     1
102
RTVSPropertyOp10
 70
     1
102
RTVSPropertyOp11
 70
     1
102
RTVSPropertyOp12
 70
     1
102
RTVSPropertyOp13
 70
     1
102
RTVSPropertyOp14
 70
     1
102
RTVSPropertyOp15
 70
     1
102
RTVSPropertyOp16
 70
     1
102
RTVSPropertyOp17
 70
     1
102
RTVSPropertyOp18
 70
     1
102
RTVSPropertyOp19
 70
     1
102
RTVSPropertyOp20
 70
     1
102
RTVSPropertyOp21
 70
     1
102
RTVSPropertyOp22
 70
     1
102
RTVSPropertyOp23
 70
     1
102
RTVSPropertyOp24
 70
     1
102
RTVSPropertyOp25
 70
     1
102
RTVSPropertyOp26
 70
     1
102
RTVSPropertyOp27
 70
     1
102
RTVSPropertyOp28
 70
     1
102
RTVSPropertyOp29
 70
     1
102
RTVSPropertyOp30
 70
     1
102
RTVSPropertyOp31
 70
     1
102
RTVSPropertyOp32
 70
     1
102
RTVSPropertyOp33
 70
     1
102
RTVSPropertyOp34
 70
     1
102
RTVSPropertyOp35
 70
     1
102
RTVSPropertyOp36
 70
     1
102
RTVSPropertyOp37
 70
     1
102
RTVSPropertyOp38
 70
     1
102
RTVSPropertyOp39
 70
     1
102
RTVSPropertyOp40
 70
     1
102
RTVSPropertyOp41
 70
     1
102
RTVSPropertyOp42
 70
     1
102
RTVSPropertyOp43
 70
     1
102
RTVSPropertyOp44
 70
     1
102
RTVSPropertyOp45
 70
     1
102
RTVSPropertyOp46
 70
     1
102
RTVSPropertyOp47
 70
     1
102
RTVSPropertyOp48
 70
     1
102
RTVSPropertyOp49
 70
     1
102
RTVSPropertyOp50
 70
     1
102
RTVSPropertyOp51
 70
     0
102
RTVSPropertyOp52
 70
     0
102
RTVSPropertyOp53
 70
     1
102
RTVSPropertyOp54
 70
     1
102
RTVSPropertyOp55
 70
     1
102
RTVSPropertyOp56
 70
     1
102
RTVSPropertyOp57
 70
     1
102
RTVSPropertyOp58
 70
     1
102
RTVSPropertyOp59
 70
     1
102
RTVSPropertyOp60
 70
     1
102
RTVSPropertyOp61
 70
     1
102
RTVSPropertyOp62
 70
     1
  0
XRECORD
  5
183E
102
{ACAD_REACTORS
330
183D
102
}
330
183D
100
AcDbXrecord
280
     1
102
RTVSPost2010Prop28
280
     0
102
RTVSPost2010PropOp28
 70
     1
102
RTVSPost2010Prop29
280
     1
102
RTVSPost2010PropOp29
 70
     1
102
RTVSPost2010Prop30
280
     1
102
RTVSPost2010PropOp30
 70
     1
102
RTVSPost2010Prop31
280
     0
102
RTVSPost2010PropOp31
 70
     1
102
RTVSPost2010Prop32
280
     0
102
RTVSPost2010PropOp32
 70
     1
102
RTVSPost2010Prop33
280
     0
102
RTVSPost2010PropOp33
 70
     1
102
RTVSPost2010Prop34
280
     0
102
RTVSPost2010PropOp34
 70
     1
102
RTVSPost2010Prop35
280
     0
102
RTVSPost2010PropOp35
 70
     1
102
RTVSPost2010Prop36
280
     0
102
RTVSPost2010PropOp36
 70
     1
102
RTVSPost2010Prop37
 90
       50
102
RTVSPost2010PropOp37
 70
     1
102
RTVSPost2010Prop38
140
0.0
102
RTVSPost2010PropOp38
 70
     1
102
RTVSPost2010Prop39
140
1.0
102
RTVSPost2010PropOp39
 70
     1
102
RTVSPost2010Prop40
 90
        0
102
RTVSPost2010PropOp40
 70
     1
102
RTVSPost2010Prop41ColorIndex
 90
       18
102
RTVSPost2010Prop41ColorRGB
 90
        0
102
RTVSPost2010PropOp41
 70
     1
102
RTVSPost2010Prop42
 90
       50
102
RTVSPost2010PropOp42
 70
     1
102
RTVSPost2010Prop43
 90
        3
102
RTVSPost2010PropOp43
 70
     1
102
RTVSPost2010Prop44ColorIndex
 90
        5
102
RTVSPost2010Prop44ColorRGB
 90
      255
102
RTVSPost2010PropOp44
 70
     1
102
RTVSPost2010Prop45
280
     0
102
RTVSPost2010PropOp45
 70
     1
102
RTVSPost2010Prop46
 90
       50
102
RTVSPost2010PropOp46
 70
     1
102
RTVSPost2010Prop47
 90
       50
102
RTVSPost2010PropOp47
 70
     1
102
RTVSPost2010Prop48
 90
       50
102
RTVSPost2010PropOp48
 70
     1
102
RTVSPost2010Prop49
280
     0
102
RTVSPost2010PropOp49
 70
     1
102
RTVSPost2010Prop50
 90
       50
102
RTVSPost2010PropOp50
 70
     1
102
RTVSPost2010Prop51ColorIndex
 90
      256
102
RTVSPost2010Prop51ColorRGB
 90
-16777216
102
RTVSPost2010PropOp51
 70
     0
102
RTVSPost2010Prop52
140
1.0
102
RTVSPost2010PropOp52
 70
     0
102
RTVSPost2010Prop53
 90
        2
102
RTVSPost2010PropOp53
 70
     1
102
RTVSPost2010Prop54
  1
strokes_ogs.tif
102
RTVSPost2010PropOp54
 70
     1
102
RTVSPost2010Prop55
280
     0
102
RTVSPost2010PropOp55
 70
     1
102
RTVSPost2010Prop56
140
1.0
102
RTVSPost2010PropOp56
 70
     1
102
RTVSPost2010Prop57
140
1.0
102
RTVSPost2010PropOp57
 70
     1
102
RTVSPropertyOp0
 70
     1
102
RTVSPropertyOp1
 70
     1
102
RTVSPropertyOp2
 70
     1
102
RTVSPropertyOp3
 70
     1
102
RTVSPropertyOp4
 70
     1
102
RTVSPropertyOp5
 70
     1
102
RTVSPropertyOp6
 70
     1
102
RTVSPropertyOp7
 70
     1
102
RTVSPropertyOp8
 70
     1
102
RTVSPropertyOp9
 70
     1
102
RTVSPropertyOp10
 70
     1
102
RTVSPropertyOp11
 70
     1
102
RTVSPropertyOp12
 70
     1
102
RTVSPropertyOp13
 70
     1
102
RTVSPropertyOp14
 70
     1
102
RTVSPropertyOp15
 70
     1
102
RTVSPropertyOp16
 70
     1
102
RTVSPropertyOp17
 70
     1
102
RTVSPropertyOp18
 70
     1
102
RTVSPropertyOp19
 70
     1
102
RTVSPropertyOp20
 70
     1
102
RTVSPropertyOp21
 70
     1
102
RTVSPropertyOp22
 70
     1
102
RTVSPropertyOp23
 70
     1
102
RTVSPropertyOp24
 70
     1
102
RTVSPropertyOp25
 70
     1
102
RTVSPropertyOp26
 70
     1
102
RTVSPropertyOp27
 70
     1
102
RTVSPropertyOp28
 70
     1
102
RTVSPropertyOp29
 70
     1
102
RTVSPropertyOp30
 70
     1
102
RTVSPropertyOp31
 70
     1
102
RTVSPropertyOp32
 70
     1
102
RTVSPropertyOp33
 70
     1
102
RTVSPropertyOp34
 70
     1
102
RTVSPropertyOp35
 70
     1
102
RTVSPropertyOp36
 70
     1
102
RTVSPropertyOp37
 70
     1
102
RTVSPropertyOp38
 70
     1
102
RTVSPropertyOp39
 70
     1
102
RTVSPropertyOp40
 70
     1
102
RTVSPropertyOp41
 70
     1
102
RTVSPropertyOp42
 70
     1
102
RTVSPropertyOp43
 70
     1
102
RTVSPropertyOp44
 70
     1
102
RTVSPropertyOp45
 70
     1
102
RTVSPropertyOp46
 70
     1
102
RTVSPropertyOp47
 70
     1
102
RTVSPropertyOp48
 70
     1
102
RTVSPropertyOp49
 70
     1
102
RTVSPropertyOp50
 70
     1
102
RTVSPropertyOp51
 70
     0
102
RTVSPropertyOp52
 70
     0
102
RTVSPropertyOp53
 70
     1
102
RTVSPropertyOp54
 70
     1
102
RTVSPropertyOp55
 70
     1
102
RTVSPropertyOp56
 70
     1
102
RTVSPropertyOp57
 70
     1
102
RTVSPropertyOp58
 70
     1
102
RTVSPropertyOp59
 70
     1
102
RTVSPropertyOp60
 70
     1
102
RTVSPropertyOp61
 70
     1
102
RTVSPropertyOp62
 70
     1
  0
XRECORD
  5
1840
102
{ACAD_REACTORS
330
183F
102
}
330
183F
100
AcDbXrecord
280
     1
102
RTVSPost2010Prop28
280
     0
102
RTVSPost2010PropOp28
 70
     1
102
RTVSPost2010Prop29
280
     1
102
RTVSPost2010PropOp29
 70
     1
102
RTVSPost2010Prop30
280
     1
102
RTVSPost2010PropOp30
 70
     1
102
RTVSPost2010Prop31
280
     0
102
RTVSPost2010PropOp31
 70
     1
102
RTVSPost2010Prop32
280
     0
102
RTVSPost2010PropOp32
 70
     1
102
RTVSPost2010Prop33
280
     0
102
RTVSPost2010PropOp33
 70
     1
102
RTVSPost2010Prop34
280
     0
102
RTVSPost2010PropOp34
 70
     1
102
RTVSPost2010Prop35
280
     0
102
RTVSPost2010PropOp35
 70
     1
102
RTVSPost2010Prop36
280
     0
102
RTVSPost2010PropOp36
 70
     1
102
RTVSPost2010Prop37
 90
       50
102
RTVSPost2010PropOp37
 70
     1
102
RTVSPost2010Prop38
140
0.0
102
RTVSPost2010PropOp38
 70
     1
102
RTVSPost2010Prop39
140
1.0
102
RTVSPost2010PropOp39
 70
     1
102
RTVSPost2010Prop40
 90
        0
102
RTVSPost2010PropOp40
 70
     1
102
RTVSPost2010Prop41ColorIndex
 90
       18
102
RTVSPost2010Prop41ColorRGB
 90
        0
102
RTVSPost2010PropOp41
 70
     1
102
RTVSPost2010Prop42
 90
       50
102
RTVSPost2010PropOp42
 70
     1
102
RTVSPost2010Prop43
 90
        3
102
RTVSPost2010PropOp43
 70
     1
102
RTVSPost2010Prop44ColorIndex
 90
        5
102
RTVSPost2010Prop44ColorRGB
 90
      255
102
RTVSPost2010PropOp44
 70
     1
102
RTVSPost2010Prop45
280
     0
102
RTVSPost2010PropOp45
 70
     1
102
RTVSPost2010Prop46
 90
       50
102
RTVSPost2010PropOp46
 70
     1
102
RTVSPost2010Prop47
 90
       50
102
RTVSPost2010PropOp47
 70
     1
102
RTVSPost2010Prop48
 90
       50
102
RTVSPost2010PropOp48
 70
     1
102
RTVSPost2010Prop49
280
     0
102
RTVSPost2010PropOp49
 70
     1
102
RTVSPost2010Prop50
 90
       50
102
RTVSPost2010PropOp50
 70
     1
102
RTVSPost2010Prop51ColorIndex
 90
      256
102
RTVSPost2010Prop51ColorRGB
 90
-16777216
102
RTVSPost2010PropOp51
 70
     0
102
RTVSPost2010Prop52
140
1.0
102
RTVSPost2010PropOp52
 70
     0
102
RTVSPost2010Prop53
 90
        2
102
RTVSPost2010PropOp53
 70
     1
102
RTVSPost2010Prop54
  1
strokes_ogs.tif
102
RTVSPost2010PropOp54
 70
     1
102
RTVSPost2010Prop55
280
     0
102
RTVSPost2010PropOp55
 70
     1
102
RTVSPost2010Prop56
140
1.0
102
RTVSPost2010PropOp56
 70
     1
102
RTVSPost2010Prop57
140
1.0
102
RTVSPost2010PropOp57
 70
     1
102
RTVSPropertyOp0
 70
     1
102
RTVSPropertyOp1
 70
     1
102
RTVSPropertyOp2
 70
     1
102
RTVSPropertyOp3
 70
     1
102
RTVSPropertyOp4
 70
     1
102
RTVSPropertyOp5
 70
     1
102
RTVSPropertyOp6
 70
     1
102
RTVSPropertyOp7
 70
     1
102
RTVSPropertyOp8
 70
     1
102
RTVSPropertyOp9
 70
     1
102
RTVSPropertyOp10
 70
     1
102
RTVSPropertyOp11
 70
     1
102
RTVSPropertyOp12
 70
     1
102
RTVSPropertyOp13
 70
     1
102
RTVSPropertyOp14
 70
     1
102
RTVSPropertyOp15
 70
     1
102
RTVSPropertyOp16
 70
     1
102
RTVSPropertyOp17
 70
     1
102
RTVSPropertyOp18
 70
     1
102
RTVSPropertyOp19
 70
     1
102
RTVSPropertyOp20
 70
     1
102
RTVSPropertyOp21
 70
     1
102
RTVSPropertyOp22
 70
     1
102
RTVSPropertyOp23
 70
     1
102
RTVSPropertyOp24
 70
     1
102
RTVSPropertyOp25
 70
     1
102
RTVSPropertyOp26
 70
     1
102
RTVSPropertyOp27
 70
     1
102
RTVSPropertyOp28
 70
     1
102
RTVSPropertyOp29
 70
     1
102
RTVSPropertyOp30
 70
     1
102
RTVSPropertyOp31
 70
     1
102
RTVSPropertyOp32
 70
     1
102
RTVSPropertyOp33
 70
     1
102
RTVSPropertyOp34
 70
     1
102
RTVSPropertyOp35
 70
     1
102
RTVSPropertyOp36
 70
     1
102
RTVSPropertyOp37
 70
     1
102
RTVSPropertyOp38
 70
     1
102
RTVSPropertyOp39
 70
     1
102
RTVSPropertyOp40
 70
     1
102
RTVSPropertyOp41
 70
     1
102
RTVSPropertyOp42
 70
     1
102
RTVSPropertyOp43
 70
     1
102
RTVSPropertyOp44
 70
     1
102
RTVSPropertyOp45
 70
     1
102
RTVSPropertyOp46
 70
     1
102
RTVSPropertyOp47
 70
     1
102
RTVSPropertyOp48
 70
     1
102
RTVSPropertyOp49
 70
     1
102
RTVSPropertyOp50
 70
     1
102
RTVSPropertyOp51
 70
     0
102
RTVSPropertyOp52
 70
     0
102
RTVSPropertyOp53
 70
     1
102
RTVSPropertyOp54
 70
     1
102
RTVSPropertyOp55
 70
     1
102
RTVSPropertyOp56
 70
     1
102
RTVSPropertyOp57
 70
     1
102
RTVSPropertyOp58
 70
     1
102
RTVSPropertyOp59
 70
     1
102
RTVSPropertyOp60
 70
     1
102
RTVSPropertyOp61
 70
     1
102
RTVSPropertyOp62
 70
     1
  0
XRECORD
  5
1836
102
{ACAD_REACTORS
330
1835
102
}
330
1835
100
AcDbXrecord
280
     1
102
RTVSPost2010Prop28
280
     0
102
RTVSPost2010PropOp28
 70
     1
102
RTVSPost2010Prop29
280
     1
102
RTVSPost2010PropOp29
 70
     1
102
RTVSPost2010Prop30
280
     1
102
RTVSPost2010PropOp30
 70
     1
102
RTVSPost2010Prop31
280
     0
102
RTVSPost2010PropOp31
 70
     1
102
RTVSPost2010Prop32
280
     0
102
RTVSPost2010PropOp32
 70
     1
102
RTVSPost2010Prop33
280
     0
102
RTVSPost2010PropOp33
 70
     1
102
RTVSPost2010Prop34
280
     0
102
RTVSPost2010PropOp34
 70
     1
102
RTVSPost2010Prop35
280
     0
102
RTVSPost2010PropOp35
 70
     1
102
RTVSPost2010Prop36
280
     0
102
RTVSPost2010PropOp36
 70
     1
102
RTVSPost2010Prop37
 90
       50
102
RTVSPost2010PropOp37
 70
     1
102
RTVSPost2010Prop38
140
0.0
102
RTVSPost2010PropOp38
 70
     1
102
RTVSPost2010Prop39
140
1.0
102
RTVSPost2010PropOp39
 70
     1
102
RTVSPost2010Prop40
 90
        0
102
RTVSPost2010PropOp40
 70
     1
102
RTVSPost2010Prop41ColorIndex
 90
       18
102
RTVSPost2010Prop41ColorRGB
 90
        0
102
RTVSPost2010PropOp41
 70
     1
102
RTVSPost2010Prop42
 90
       50
102
RTVSPost2010PropOp42
 70
     1
102
RTVSPost2010Prop43
 90
        3
102
RTVSPost2010PropOp43
 70
     1
102
RTVSPost2010Prop44ColorIndex
 90
        5
102
RTVSPost2010Prop44ColorRGB
 90
      255
102
RTVSPost2010PropOp44
 70
     1
102
RTVSPost2010Prop45
280
     0
102
RTVSPost2010PropOp45
 70
     1
102
RTVSPost2010Prop46
 90
       50
102
RTVSPost2010PropOp46
 70
     1
102
RTVSPost2010Prop47
 90
       50
102
RTVSPost2010PropOp47
 70
     1
102
RTVSPost2010Prop48
 90
       50
102
RTVSPost2010PropOp48
 70
     1
102
RTVSPost2010Prop49
280
     0
102
RTVSPost2010PropOp49
 70
     1
102
RTVSPost2010Prop50
 90
       50
102
RTVSPost2010PropOp50
 70
     1
102
RTVSPost2010Prop51ColorIndex
 90
      256
102
RTVSPost2010Prop51ColorRGB
 90
-16777216
102
RTVSPost2010PropOp51
 70
     0
102
RTVSPost2010Prop52
140
1.0
102
RTVSPost2010PropOp52
 70
     0
102
RTVSPost2010Prop53
 90
        2
102
RTVSPost2010PropOp53
 70
     1
102
RTVSPost2010Prop54
  1
strokes_ogs.tif
102
RTVSPost2010PropOp54
 70
     1
102
RTVSPost2010Prop55
280
     0
102
RTVSPost2010PropOp55
 70
     1
102
RTVSPost2010Prop56
140
1.0
102
RTVSPost2010PropOp56
 70
     1
102
RTVSPost2010Prop57
140
1.0
102
RTVSPost2010PropOp57
 70
     1
102
RTVSPropertyOp0
 70
     1
102
RTVSPropertyOp1
 70
     1
102
RTVSPropertyOp2
 70
     1
102
RTVSPropertyOp3
 70
     1
102
RTVSPropertyOp4
 70
     1
102
RTVSPropertyOp5
 70
     1
102
RTVSPropertyOp6
 70
     1
102
RTVSPropertyOp7
 70
     1
102
RTVSPropertyOp8
 70
     1
102
RTVSPropertyOp9
 70
     1
102
RTVSPropertyOp10
 70
     1
102
RTVSPropertyOp11
 70
     1
102
RTVSPropertyOp12
 70
     1
102
RTVSPropertyOp13
 70
     1
102
RTVSPropertyOp14
 70
     1
102
RTVSPropertyOp15
 70
     1
102
RTVSPropertyOp16
 70
     1
102
RTVSPropertyOp17
 70
     1
102
RTVSPropertyOp18
 70
     1
102
RTVSPropertyOp19
 70
     1
102
RTVSPropertyOp20
 70
     1
102
RTVSPropertyOp21
 70
     1
102
RTVSPropertyOp22
 70
     1
102
RTVSPropertyOp23
 70
     1
102
RTVSPropertyOp24
 70
     1
102
RTVSPropertyOp25
 70
     1
102
RTVSPropertyOp26
 70
     1
102
RTVSPropertyOp27
 70
     1
102
RTVSPropertyOp28
 70
     1
102
RTVSPropertyOp29
 70
     1
102
RTVSPropertyOp30
 70
     1
102
RTVSPropertyOp31
 70
     1
102
RTVSPropertyOp32
 70
     1
102
RTVSPropertyOp33
 70
     1
102
RTVSPropertyOp34
 70
     1
102
RTVSPropertyOp35
 70
     1
102
RTVSPropertyOp36
 70
     1
102
RTVSPropertyOp37
 70
     1
102
RTVSPropertyOp38
 70
     1
102
RTVSPropertyOp39
 70
     1
102
RTVSPropertyOp40
 70
     1
102
RTVSPropertyOp41
 70
     1
102
RTVSPropertyOp42
 70
     1
102
RTVSPropertyOp43
 70
     1
102
RTVSPropertyOp44
 70
     1
102
RTVSPropertyOp45
 70
     1
102
RTVSPropertyOp46
 70
     1
102
RTVSPropertyOp47
 70
     1
102
RTVSPropertyOp48
 70
     1
102
RTVSPropertyOp49
 70
     1
102
RTVSPropertyOp50
 70
     1
102
RTVSPropertyOp51
 70
     0
102
RTVSPropertyOp52
 70
     0
102
RTVSPropertyOp53
 70
     1
102
RTVSPropertyOp54
 70
     1
102
RTVSPropertyOp55
 70
     1
102
RTVSPropertyOp56
 70
     1
102
RTVSPropertyOp57
 70
     1
102
RTVSPropertyOp58
 70
     1
102
RTVSPropertyOp59
 70
     1
102
RTVSPropertyOp60
 70
     1
102
RTVSPropertyOp61
 70
     1
102
RTVSPropertyOp62
 70
     1
  0
XRECORD
  5
182A
102
{ACAD_REACTORS
330
1829
102
}
330
1829
100
AcDbXrecord
280
     1
102
RTVSPost2010Prop28
280
     0
102
RTVSPost2010PropOp28
 70
     1
102
RTVSPost2010Prop29
280
     1
102
RTVSPost2010PropOp29
 70
     1
102
RTVSPost2010Prop30
280
     1
102
RTVSPost2010PropOp30
 70
     1
102
RTVSPost2010Prop31
280
     0
102
RTVSPost2010PropOp31
 70
     1
102
RTVSPost2010Prop32
280
     0
102
RTVSPost2010PropOp32
 70
     1
102
RTVSPost2010Prop33
280
     0
102
RTVSPost2010PropOp33
 70
     1
102
RTVSPost2010Prop34
280
     0
102
RTVSPost2010PropOp34
 70
     1
102
RTVSPost2010Prop35
280
     0
102
RTVSPost2010PropOp35
 70
     1
102
RTVSPost2010Prop36
280
     0
102
RTVSPost2010PropOp36
 70
     1
102
RTVSPost2010Prop37
 90
       50
102
RTVSPost2010PropOp37
 70
     1
102
RTVSPost2010Prop38
140
0.0
102
RTVSPost2010PropOp38
 70
     1
102
RTVSPost2010Prop39
140
1.0
102
RTVSPost2010PropOp39
 70
     1
102
RTVSPost2010Prop40
 90
        0
102
RTVSPost2010PropOp40
 70
     1
102
RTVSPost2010Prop41ColorIndex
 90
       18
102
RTVSPost2010Prop41ColorRGB
 90
        0
102
RTVSPost2010PropOp41
 70
     1
102
RTVSPost2010Prop42
 90
       50
102
RTVSPost2010PropOp42
 70
     1
102
RTVSPost2010Prop43
 90
        3
102
RTVSPost2010PropOp43
 70
     1
102
RTVSPost2010Prop44ColorIndex
 90
        5
102
RTVSPost2010Prop44ColorRGB
 90
      255
102
RTVSPost2010PropOp44
 70
     1
102
RTVSPost2010Prop45
280
     0
102
RTVSPost2010PropOp45
 70
     1
102
RTVSPost2010Prop46
 90
       50
102
RTVSPost2010PropOp46
 70
     1
102
RTVSPost2010Prop47
 90
       50
102
RTVSPost2010PropOp47
 70
     1
102
RTVSPost2010Prop48
 90
       50
102
RTVSPost2010PropOp48
 70
     1
102
RTVSPost2010Prop49
280
     0
102
RTVSPost2010PropOp49
 70
     1
102
RTVSPost2010Prop50
 90
       50
102
RTVSPost2010PropOp50
 70
     1
102
RTVSPost2010Prop51ColorIndex
 90
      256
102
RTVSPost2010Prop51ColorRGB
 90
-16777216
102
RTVSPost2010PropOp51
 70
     0
102
RTVSPost2010Prop52
140
1.0
102
RTVSPost2010PropOp52
 70
     0
102
RTVSPost2010Prop53
 90
        2
102
RTVSPost2010PropOp53
 70
     1
102
RTVSPost2010Prop54
  1
strokes_ogs.tif
102
RTVSPost2010PropOp54
 70
     1
102
RTVSPost2010Prop55
280
     0
102
RTVSPost2010PropOp55
 70
     1
102
RTVSPost2010Prop56
140
1.0
102
RTVSPost2010PropOp56
 70
     1
102
RTVSPost2010Prop57
140
1.0
102
RTVSPost2010PropOp57
 70
     1
102
RTVSPropertyOp0
 70
     1
102
RTVSPropertyOp1
 70
     1
102
RTVSPropertyOp2
 70
     1
102
RTVSPropertyOp3
 70
     1
102
RTVSPropertyOp4
 70
     1
102
RTVSPropertyOp5
 70
     1
102
RTVSPropertyOp6
 70
     1
102
RTVSPropertyOp7
 70
     1
102
RTVSPropertyOp8
 70
     1
102
RTVSPropertyOp9
 70
     1
102
RTVSPropertyOp10
 70
     1
102
RTVSPropertyOp11
 70
     1
102
RTVSPropertyOp12
 70
     1
102
RTVSPropertyOp13
 70
     1
102
RTVSPropertyOp14
 70
     1
102
RTVSPropertyOp15
 70
     1
102
RTVSPropertyOp16
 70
     1
102
RTVSPropertyOp17
 70
     1
102
RTVSPropertyOp18
 70
     1
102
RTVSPropertyOp19
 70
     1
102
RTVSPropertyOp20
 70
     1
102
RTVSPropertyOp21
 70
     1
102
RTVSPropertyOp22
 70
     1
102
RTVSPropertyOp23
 70
     1
102
RTVSPropertyOp24
 70
     1
102
RTVSPropertyOp25
 70
     1
102
RTVSPropertyOp26
 70
     1
102
RTVSPropertyOp27
 70
     1
102
RTVSPropertyOp28
 70
     1
102
RTVSPropertyOp29
 70
     1
102
RTVSPropertyOp30
 70
     1
102
RTVSPropertyOp31
 70
     1
102
RTVSPropertyOp32
 70
     1
102
RTVSPropertyOp33
 70
     1
102
RTVSPropertyOp34
 70
     1
102
RTVSPropertyOp35
 70
     1
102
RTVSPropertyOp36
 70
     1
102
RTVSPropertyOp37
 70
     1
102
RTVSPropertyOp38
 70
     1
102
RTVSPropertyOp39
 70
     1
102
RTVSPropertyOp40
 70
     1
102
RTVSPropertyOp41
 70
     1
102
RTVSPropertyOp42
 70
     1
102
RTVSPropertyOp43
 70
     1
102
RTVSPropertyOp44
 70
     1
102
RTVSPropertyOp45
 70
     1
102
RTVSPropertyOp46
 70
     1
102
RTVSPropertyOp47
 70
     1
102
RTVSPropertyOp48
 70
     1
102
RTVSPropertyOp49
 70
     1
102
RTVSPropertyOp50
 70
     1
102
RTVSPropertyOp51
 70
     0
102
RTVSPropertyOp52
 70
     0
102
RTVSPropertyOp53
 70
     1
102
RTVSPropertyOp54
 70
     1
102
RTVSPropertyOp55
 70
     1
102
RTVSPropertyOp56
 70
     1
102
RTVSPropertyOp57
 70
     1
102
RTVSPropertyOp58
 70
     1
102
RTVSPropertyOp59
 70
     1
102
RTVSPropertyOp60
 70
     1
102
RTVSPropertyOp61
 70
     1
102
RTVSPropertyOp62
 70
     1
  0
XRECORD
  5
1842
102
{ACAD_REACTORS
330
1841
102
}
330
1841
100
AcDbXrecord
280
     1
102
RTVSPost2010Prop28
280
     0
102
RTVSPost2010PropOp28
 70
     1
102
RTVSPost2010Prop29
280
     1
102
RTVSPost2010PropOp29
 70
     1
102
RTVSPost2010Prop30
280
     1
102
RTVSPost2010PropOp30
 70
     1
102
RTVSPost2010Prop31
280
     0
102
RTVSPost2010PropOp31
 70
     1
102
RTVSPost2010Prop32
280
     0
102
RTVSPost2010PropOp32
 70
     1
102
RTVSPost2010Prop33
280
     0
102
RTVSPost2010PropOp33
 70
     1
102
RTVSPost2010Prop34
280
     0
102
RTVSPost2010PropOp34
 70
     1
102
RTVSPost2010Prop35
280
     0
102
RTVSPost2010PropOp35
 70
     1
102
RTVSPost2010Prop36
280
     0
102
RTVSPost2010PropOp36
 70
     1
102
RTVSPost2010Prop37
 90
       50
102
RTVSPost2010PropOp37
 70
     1
102
RTVSPost2010Prop38
140
0.0
102
RTVSPost2010PropOp38
 70
     1
102
RTVSPost2010Prop39
140
1.0
102
RTVSPost2010PropOp39
 70
     1
102
RTVSPost2010Prop40
 90
        0
102
RTVSPost2010PropOp40
 70
     1
102
RTVSPost2010Prop41ColorIndex
 90
       18
102
RTVSPost2010Prop41ColorRGB
 90
        0
102
RTVSPost2010PropOp41
 70
     1
102
RTVSPost2010Prop42
 90
       50
102
RTVSPost2010PropOp42
 70
     1
102
RTVSPost2010Prop43
 90
        3
102
RTVSPost2010PropOp43
 70
     1
102
RTVSPost2010Prop44ColorIndex
 90
        5
102
RTVSPost2010Prop44ColorRGB
 90
      255
102
RTVSPost2010PropOp44
 70
     1
102
RTVSPost2010Prop45
280
     0
102
RTVSPost2010PropOp45
 70
     1
102
RTVSPost2010Prop46
 90
       50
102
RTVSPost2010PropOp46
 70
     1
102
RTVSPost2010Prop47
 90
       50
102
RTVSPost2010PropOp47
 70
     1
102
RTVSPost2010Prop48
 90
       50
102
RTVSPost2010PropOp48
 70
     1
102
RTVSPost2010Prop49
280
     0
102
RTVSPost2010PropOp49
 70
     1
102
RTVSPost2010Prop50
 90
       50
102
RTVSPost2010PropOp50
 70
     1
102
RTVSPost2010Prop51ColorIndex
 90
      256
102
RTVSPost2010Prop51ColorRGB
 90
-16777216
102
RTVSPost2010PropOp51
 70
     0
102
RTVSPost2010Prop52
140
1.0
102
RTVSPost2010PropOp52
 70
     0
102
RTVSPost2010Prop53
 90
        2
102
RTVSPost2010PropOp53
 70
     1
102
RTVSPost2010Prop54
  1
strokes_ogs.tif
102
RTVSPost2010PropOp54
 70
     1
102
RTVSPost2010Prop55
280
     0
102
RTVSPost2010PropOp55
 70
     1
102
RTVSPost2010Prop56
140
1.0
102
RTVSPost2010PropOp56
 70
     1
102
RTVSPost2010Prop57
140
1.0
102
RTVSPost2010PropOp57
 70
     1
102
RTVSPropertyOp0
 70
     1
102
RTVSPropertyOp1
 70
     1
102
RTVSPropertyOp2
 70
     1
102
RTVSPropertyOp3
 70
     1
102
RTVSPropertyOp4
 70
     1
102
RTVSPropertyOp5
 70
     1
102
RTVSPropertyOp6
 70
     1
102
RTVSPropertyOp7
 70
     1
102
RTVSPropertyOp8
 70
     1
102
RTVSPropertyOp9
 70
     1
102
RTVSPropertyOp10
 70
     1
102
RTVSPropertyOp11
 70
     1
102
RTVSPropertyOp12
 70
     1
102
RTVSPropertyOp13
 70
     1
102
RTVSPropertyOp14
 70
     1
102
RTVSPropertyOp15
 70
     1
102
RTVSPropertyOp16
 70
     1
102
RTVSPropertyOp17
 70
     1
102
RTVSPropertyOp18
 70
     1
102
RTVSPropertyOp19
 70
     1
102
RTVSPropertyOp20
 70
     1
102
RTVSPropertyOp21
 70
     1
102
RTVSPropertyOp22
 70
     1
102
RTVSPropertyOp23
 70
     1
102
RTVSPropertyOp24
 70
     1
102
RTVSPropertyOp25
 70
     1
102
RTVSPropertyOp26
 70
     1
102
RTVSPropertyOp27
 70
     1
102
RTVSPropertyOp28
 70
     1
102
RTVSPropertyOp29
 70
     1
102
RTVSPropertyOp30
 70
     1
102
RTVSPropertyOp31
 70
     1
102
RTVSPropertyOp32
 70
     1
102
RTVSPropertyOp33
 70
     1
102
RTVSPropertyOp34
 70
     1
102
RTVSPropertyOp35
 70
     1
102
RTVSPropertyOp36
 70
     1
102
RTVSPropertyOp37
 70
     1
102
RTVSPropertyOp38
 70
     1
102
RTVSPropertyOp39
 70
     1
102
RTVSPropertyOp40
 70
     1
102
RTVSPropertyOp41
 70
     1
102
RTVSPropertyOp42
 70
     1
102
RTVSPropertyOp43
 70
     1
102
RTVSPropertyOp44
 70
     1
102
RTVSPropertyOp45
 70
     1
102
RTVSPropertyOp46
 70
     1
102
RTVSPropertyOp47
 70
     1
102
RTVSPropertyOp48
 70
     1
102
RTVSPropertyOp49
 70
     1
102
RTVSPropertyOp50
 70
     1
102
RTVSPropertyOp51
 70
     0
102
RTVSPropertyOp52
 70
     0
102
RTVSPropertyOp53
 70
     1
102
RTVSPropertyOp54
 70
     1
102
RTVSPropertyOp55
 70
     1
102
RTVSPropertyOp56
 70
     1
102
RTVSPropertyOp57
 70
     1
102
RTVSPropertyOp58
 70
     1
102
RTVSPropertyOp59
 70
     1
102
RTVSPropertyOp60
 70
     1
102
RTVSPropertyOp61
 70
     1
102
RTVSPropertyOp62
 70
     1
  0
ENDSEC
  0
EOF
