  0
SECTION
  2
HEADER
  9
$ACADVER
  1
AC1018
  9
$ACADMAINTVER
 70
   104
  9
$DWGCODEPAGE
  3
ANSI_1252
  9
$LASTSAVEDBY
  1
titadi
  9
$INSBASE
 10
0.0
 20
0.0
 30
0.0
  9
$EXTMIN
 10
-83.86448498985783
 20
-31.40609624959302
 30
-0.0000000000000058
  9
$EXTMAX
 10
78.93405260557074
 20
95.32501301649608
 30
0.0000000000000104
  9
$LIMMIN
 10
-170.0
 20
-170.0
  9
$LIMMAX
 10
519.0
 20
260.0
  9
$ORTHOMODE
 70
     1
  9
$REGENMODE
 70
     1
  9
$FILLMODE
 70
     1
  9
$QTEXTMODE
 70
     0
  9
$MIRRTEXT
 70
     0
  9
$LTSCALE
 40
1.0
  9
$ATTMODE
 70
     1
  9
$TEXTSIZE
 40
3.5
  9
$TRACEWID
 40
1.0
  9
$TEXTSTYLE
  7
SIMPLEX
  9
$CLAYER
  8
1
  9
$CELTYPE
  6
BYLAYER
  9
$CECOLOR
 62
   256
  9
$CELTSCALE
 40
1.0
  9
$DISPSILH
 70
     0
  9
$DIMSCALE
 40
1.0
  9
$DIMASZ
 40
2.5
  9
$DIMEXO
 40
0.0
  9
$DIMDLI
 40
3.75
  9
$DIMRND
 40
0.0
  9
$DIMDLE
 40
0.0
  9
$DIMEXE
 40
1.25
  9
$DIMTP
 40
0.0
  9
$DIMTM
 40
0.0
  9
$DIMTXT
 40
3.5
  9
$DIMCEN
 40
0.0
  9
$DIMTSZ
 40
0.0
  9
$DIMTOL
 70
     0
  9
$DIMLIM
 70
     0
  9
$DIMTIH
 70
     0
  9
$DIMTOH
 70
     0
  9
$DIMSE1
 70
     0
  9
$DIMSE2
 70
     0
  9
$DIMTAD
 70
     1
  9
$DIMZIN
 70
     8
  9
$DIMBLK
  1

  9
$DIMASO
 70
     1
  9
$DIMSHO
 70
     1
  9
$DIMPOST
  1

  9
$DIMAPOST
  1

  9
$DIMALT
 70
     0
  9
$DIMALTD
 70
     3
  9
$DIMALTF
 40
0.039370078
  9
$DIMLFAC
 40
1.0
  9
$DIMTOFL
 70
     0
  9
$DIMTVP
 40
0.0
  9
$DIMTIX
 70
     0
  9
$DIMSOXD
 70
     0
  9
$DIMSAH
 70
     0
  9
$DIMBLK1
  1

  9
$DIMBLK2
  1

  9
$DIMSTYLE
  2
STANDARD
  9
$DIMCLRD
 70
     0
  9
$DIMCLRE
 70
     0
  9
$DIMCLRT
 70
     0
  9
$DIMTFAC
 40
1.0
  9
$DIMGAP
 40
0.625
  9
$DIMJUST
 70
     0
  9
$DIMSD1
 70
     0
  9
$DIMSD2
 70
     0
  9
$DIMTOLJ
 70
     0
  9
$DIMTZIN
 70
     8
  9
$DIMALTZ
 70
     0
  9
$DIMALTTZ
 70
     0
  9
$DIMUPT
 70
     0
  9
$DIMDEC
 70
     2
  9
$DIMTDEC
 70
     2
  9
$DIMALTU
 70
     2
  9
$DIMALTTD
 70
     3
  9
$DIMTXSTY
  7
SIMPLEX
  9
$DIMAUNIT
 70
     0
  9
$DIMADEC
 70
     2
  9
$DIMALTRND
 40
0.0
  9
$DIMAZIN
 70
     2
  9
$DIMDSEP
 70
    46
  9
$DIMATFIT
 70
     3
  9
$DIMFRAC
 70
     0
  9
$DIMLDRBLK
  1

  9
$DIMLUNIT
 70
     2
  9
$DIMLWD
 70
    -2
  9
$DIMLWE
 70
    -2
  9
$DIMTMOVE
 70
     0
  9
$LUNITS
 70
     2
  9
$LUPREC
 70
     4
  9
$SKETCHINC
 40
1.0
  9
$FILLETRAD
 40
0.0
  9
$AUNITS
 70
     0
  9
$AUPREC
 70
     0
  9
$MENU
  1
c:\tdm21\cad\caduti13\tdm13
  9
$ELEVATION
 40
0.0
  9
$PELEVATION
 40
0.0
  9
$THICKNESS
 40
0.0
  9
$LIMCHECK
 70
     0
  9
$CHAMFERA
 40
0.0
  9
$CHAMFERB
 40
0.0
  9
$CHAMFERC
 40
0.0
  9
$CHAMFERD
 40
0.0
  9
$SKPOLY
 70
     0
  9
$TDCREATE
 40
2454957.551975972
  9
$TDUCREATE
 40
2454957.510309306
  9
$TDUPDATE
 40
2457340.488275729
  9
$TDUUPDATE
 40
2457340.446609063
  9
$TDINDWG
 40
0.2130734375
  9
$TDUSRTIMER
 40
0.2130561227
  9
$USRTIMER
 70
     1
  9
$ANGBASE
 50
0.0
  9
$ANGDIR
 70
     0
  9
$PDMODE
 70
     1
  9
$PDSIZE
 40
0.0
  9
$PLINEWID
 40
0.0
  9
$SPLFRAME
 70
     0
  9
$SPLINETYPE
 70
     6
  9
$SPLINESEGS
 70
     8
  9
$HANDSEED
  5
1357
  9
$SURFTAB1
 70
     6
  9
$SURFTAB2
 70
     6
  9
$SURFTYPE
 70
     6
  9
$SURFU
 70
     6
  9
$SURFV
 70
     6
  9
$UCSBASE
  2

  9
$UCSNAME
  2

  9
$UCSORG
 10
0.0
 20
0.0
 30
0.0
  9
$UCSXDIR
 10
1.0
 20
0.0
 30
0.0
  9
$UCSYDIR
 10
0.0
 20
1.0
 30
0.0
  9
$UCSORTHOREF
  2

  9
$UCSORTHOVIEW
 70
     0
  9
$UCSORGTOP
 10
0.0
 20
0.0
 30
0.0
  9
$UCSORGBOTTOM
 10
0.0
 20
0.0
 30
0.0
  9
$UCSORGLEFT
 10
0.0
 20
0.0
 30
0.0
  9
$UCSORGRIGHT
 10
0.0
 20
0.0
 30
0.0
  9
$UCSORGFRONT
 10
0.0
 20
0.0
 30
0.0
  9
$UCSORGBACK
 10
0.0
 20
0.0
 30
0.0
  9
$PUCSBASE
  2

  9
$PUCSNAME
  2

  9
$PUCSORG
 10
0.0
 20
0.0
 30
0.0
  9
$PUCSXDIR
 10
1.0
 20
0.0
 30
0.0
  9
$PUCSYDIR
 10
0.0
 20
1.0
 30
0.0
  9
$PUCSORTHOREF
  2

  9
$PUCSORTHOVIEW
 70
     0
  9
$PUCSORGTOP
 10
0.0
 20
0.0
 30
0.0
  9
$PUCSORGBOTTOM
 10
0.0
 20
0.0
 30
0.0
  9
$PUCSORGLEFT
 10
0.0
 20
0.0
 30
0.0
  9
$PUCSORGRIGHT
 10
0.0
 20
0.0
 30
0.0
  9
$PUCSORGFRONT
 10
0.0
 20
0.0
 30
0.0
  9
$PUCSORGBACK
 10
0.0
 20
0.0
 30
0.0
  9
$USERI1
 70
     0
  9
$USERI2
 70
     0
  9
$USERI3
 70
     0
  9
$USERI4
 70
     0
  9
$USERI5
 70
     0
  9
$USERR1
 40
0.0
  9
$USERR2
 40
0.0
  9
$USERR3
 40
0.0
  9
$USERR4
 40
0.0
  9
$USERR5
 40
0.0
  9
$WORLDVIEW
 70
     1
  9
$SHADEDGE
 70
     3
  9
$SHADEDIF
 70
    70
  9
$TILEMODE
 70
     1
  9
$MAXACTVP
 70
    64
  9
$PINSBASE
 10
0.0
 20
0.0
 30
0.0
  9
$PLIMCHECK
 70
     0
  9
$PEXTMIN
 10
0.0
 20
0.0
 30
0.0
  9
$PEXTMAX
 10
0.0
 20
0.0
 30
0.0
  9
$PLIMMIN
 10
0.0
 20
0.0
  9
$PLIMMAX
 10
12.0
 20
9.0
  9
$UNITMODE
 70
     0
  9
$VISRETAIN
 70
     0
  9
$PLINEGEN
 70
     0
  9
$PSLTSCALE
 70
     1
  9
$TREEDEPTH
 70
  3020
  9
$CMLSTYLE
  2
STANDARD
  9
$CMLJUST
 70
     0
  9
$CMLSCALE
 40
20.0
  9
$PROXYGRAPHICS
 70
     1
  9
$MEASUREMENT
 70
     1
  9
$CELWEIGHT
370
    -1
  9
$ENDCAPS
280
     0
  9
$JOINSTYLE
280
     0
  9
$LWDISPLAY
290
     0
  9
$INSUNITS
 70
     4
  9
$HYPERLINKBASE
  1

  9
$STYLESHEET
  1
MONOCHROME.CTB
  9
$XEDIT
290
     1
  9
$CEPSNTYPE
380
     0
  9
$PSTYLEMODE
290
     1
  9
$FINGERPRINTGUID
  2
{46B44192-1510-48B1-B61B-CBE2ADA013A7}
  9
$VERSIONGUID
  2
{DD0A9C02-A7E9-48F5-8E69-8EBA90E961CF}
  9
$EXTNAMES
290
     1
  9
$PSVPSCALE
 40
0.0
  9
$OLESTARTUP
290
     0
  9
$SORTENTS
280
   127
  9
$INDEXCTL
280
     0
  9
$HIDETEXT
280
     1
  9
$XCLIPFRAME
290
     0
  9
$HALOGAP
280
     0
  9
$OBSCOLOR
 70
   257
  9
$OBSLTYPE
280
     0
  9
$INTERSECTIONDISPLAY
280
     0
  9
$INTERSECTIONCOLOR
 70
   257
  9
$DIMASSOC
280
     2
  9
$PROJECTNAME
  1

  0
ENDSEC
  0
SECTION
  2
CLASSES
  0
CLASS
  1
ACDBDICTIONARYWDFLT
  2
AcDbDictionaryWithDefault
  3
ObjectDBX Classes
 90
        0
 91
        1
280
     0
281
     0
  0
CLASS
  1
DICTIONARYVAR
  2
AcDbDictionaryVar
  3
ObjectDBX Classes
 90
        0
 91
       12
280
     0
281
     0
  0
CLASS
  1
TABLESTYLE
  2
AcDbTableStyle
  3
ObjectDBX Classes
 90
     4095
 91
        1
280
     0
281
     0
  0
CLASS
  1
SCALE
  2
AcDbScale
  3
ObjectDBX Classes
 90
     1153
 91
       33
280
     0
281
     0
  0
CLASS
  1
MATERIAL
  2
AcDbMaterial
  3
ObjectDBX Classes
 90
     1153
 91
        3
280
     0
281
     0
  0
CLASS
  1
VISUALSTYLE
  2
AcDbVisualStyle
  3
ObjectDBX Classes
 90
     4095
 91
       24
280
     0
281
     0
  0
CLASS
  1
MLEADERSTYLE
  2
AcDbMLeaderStyle
  3
ACDB_MLEADERSTYLE_CLASS
 90
     4095
 91
        1
280
     0
281
     0
  0
CLASS
  1
ACDBSECTIONVIEWSTYLE
  2
AcDbSectionViewStyle
  3
ObjectDBX Classes
 90
     1025
 91
        2
280
     0
281
     0
  0
CLASS
  1
ACDBDETAILVIEWSTYLE
  2
AcDbDetailViewStyle
  3
ObjectDBX Classes
 90
     1025
 91
        2
280
     0
281
     0
  0
CLASS
  1
EXACXREFPANELOBJECT
  2
ExAcXREFPanelObject
  3
EXAC_ESW
 90
     1025
 91
        0
280
     0
281
     0
  0
CLASS
  1
NPOCOLLECTION
  2
AcDbImpNonPersistentObjectsCollection
  3
ObjectDBX Classes
 90
     1153
 91
        0
280
     0
281
     0
  0
CLASS
  1
CELLSTYLEMAP
  2
AcDbCellStyleMap
  3
ObjectDBX Classes
 90
     1152
 91
        2
280
     0
281
     0
  0
CLASS
  1
SORTENTSTABLE
  2
AcDbSortentsTable
  3
ObjectDBX Classes
 90
        0
 91
        2
280
     0
281
     0
  0
CLASS
  1
DIMASSOC
  2
AcDbDimAssoc
  3
"AcDbDimAssoc|Product Desc:     AcDim ARX App For Dimension|Company:          Autodesk, Inc.|WEB Address:      www.autodesk.com"
 90
        0
 91
        0
280
     0
281
     0
  0
ENDSEC
  0
SECTION
  2
TABLES
  0
TABLE
  2
VPORT
  5
8
330
0
100
AcDbSymbolTable
 70
     1
  0
VPORT
  5
39A
330
8
100
AcDbSymbolTableRecord
100
AcDbViewportTableRecord
  2
*Active
 70
     0
 10
0.0
 20
0.0
 11
1.0
 21
1.0
 12
-2.465216192143557
 22
31.95945838345153
 13
0.0
 23
0.0
 14
5.0
 24
5.0
 15
5.0
 25
5.0
 16
0.0
 26
0.0
 36
1.0
 17
0.0
 27
0.0
 37
0.0
 40
127.7558891253836
 41
2.584345479082321
 42
50.0
 43
0.0
 44
0.0
 50
0.0
 51
0.0
 71
     0
 72
  2000
 73
     1
 74
     1
 75
     0
 76
     0
 77
     0
 78
     0
281
     0
 65
     1
110
0.0
120
0.0
130
0.0
111
1.0
121
0.0
131
0.0
112
0.0
122
1.0
132
0.0
 79
     0
146
0.0
1001
ACAD_NAV_VCDISPLAY
1070
     3
  0
ENDTAB
  0
TABLE
  2
LTYPE
  5
5
330
0
100
AcDbSymbolTable
 70
     3
  0
LTYPE
  5
12
330
5
100
AcDbSymbolTableRecord
100
AcDbLinetypeTableRecord
  2
BYBLOCK
 70
     0
  3

 72
    65
 73
     0
 40
0.0
  0
LTYPE
  5
13
330
5
100
AcDbSymbolTableRecord
100
AcDbLinetypeTableRecord
  2
BYLAYER
 70
     0
  3

 72
    65
 73
     0
 40
0.0
  0
LTYPE
  5
14
330
5
100
AcDbSymbolTableRecord
100
AcDbLinetypeTableRecord
  2
CONTINUOUS
 70
     0
  3
Solid line
 72
    65
 73
     0
 40
0.0
  0
LTYPE
  5
20
330
5
100
AcDbSymbolTableRecord
100
AcDbLinetypeTableRecord
  2
HIDDEN
 70
     0
  3
Hidden __ __ __ __ __ __ __ __ __ __ __ __ __ _
 72
    65
 73
     2
 40
9.524999999999996
 49
6.349999999999997
 74
     0
 49
-3.174999999999998
 74
     0
  0
LTYPE
  5
351
330
5
100
AcDbSymbolTableRecord
100
AcDbLinetypeTableRecord
  2
CENTER
 70
     0
  3
Dash dot __ . __ . __ . __ . __ . __ . __ . __
 72
    65
 73
     4
 40
25.4
 49
12.7
 74
     0
 49
-6.349999999999997
 74
     0
 49
0.0
 74
     0
 49
-6.349999999999997
 74
     0
  0
ENDTAB
  0
TABLE
  2
LAYER
  5
2
102
{ACAD_XDICTIONARY
360
9B8
102
}
330
0
100
AcDbSymbolTable
 70
    16
  0
LAYER
  5
F
102
{ACAD_XDICTIONARY
360
4DD
102
}
330
2
100
AcDbSymbolTableRecord
100
AcDbLayerTableRecord
  2
0
 70
     0
 62
     7
  6
CONTINUOUS
370
    -3
390
300
  0
LAYER
  5
23
102
{ACAD_XDICTIONARY
360
4DF
102
}
330
2
100
AcDbSymbolTableRecord
100
AcDbLayerTableRecord
  2
1
 70
     0
 62
     4
  6
CONTINUOUS
370
    -3
390
300
  0
LAYER
  5
24
102
{ACAD_XDICTIONARY
360
4E1
102
}
330
2
100
AcDbSymbolTableRecord
100
AcDbLayerTableRecord
  2
SK1
 70
     0
 62
     4
  6
CONTINUOUS
370
    -3
390
300
  0
LAYER
  5
25
102
{ACAD_XDICTIONARY
360
4E3
102
}
330
2
100
AcDbSymbolTableRecord
100
AcDbLayerTableRecord
  2
2
 70
     0
 62
     7
  6
CONTINUOUS
370
    -3
390
300
  0
LAYER
  5
26
102
{ACAD_XDICTIONARY
360
4E5
102
}
330
2
100
AcDbSymbolTableRecord
100
AcDbLayerTableRecord
  2
2L
 70
     0
 62
     7
  6
CONTINUOUS
370
    -3
390
300
  0
LAYER
  5
27
102
{ACAD_XDICTIONARY
360
4E7
102
}
330
2
100
AcDbSymbolTableRecord
100
AcDbLayerTableRecord
  2
SK2
 70
     0
 62
     7
  6
CONTINUOUS
370
    -3
390
300
  0
LAYER
  5
28
102
{ACAD_XDICTIONARY
360
4E9
102
}
330
2
100
AcDbSymbolTableRecord
100
AcDbLayerTableRecord
  2
3
 70
     0
 62
     1
  6
HIDDEN
370
    -3
390
300
  0
LAYER
  5
29
102
{ACAD_XDICTIONARY
360
4EB
102
}
330
2
100
AcDbSymbolTableRecord
100
AcDbLayerTableRecord
  2
SK3
 70
     0
 62
     1
  6
HIDDEN
370
    -3
390
300
  0
LAYER
  5
2A
102
{ACAD_XDICTIONARY
360
4ED
102
}
330
2
100
AcDbSymbolTableRecord
100
AcDbLayerTableRecord
  2
4
 70
     0
 62
     2
  6
CENTER
370
    -3
390
300
  0
LAYER
  5
2B
102
{ACAD_XDICTIONARY
360
4EF
102
}
330
2
100
AcDbSymbolTableRecord
100
AcDbLayerTableRecord
  2
SK4
 70
     0
 62
     2
  6
CENTER
370
    -3
390
300
  0
LAYER
  5
2C
102
{ACAD_XDICTIONARY
360
4F1
102
}
330
2
100
AcDbSymbolTableRecord
100
AcDbLayerTableRecord
  2
5
 70
     0
 62
    -7
  6
CONTINUOUS
370
    -3
390
300
  0
LAYER
  5
2D
102
{ACAD_XDICTIONARY
360
4F3
102
}
330
2
100
AcDbSymbolTableRecord
100
AcDbLayerTableRecord
  2
6
 70
     0
 62
     5
  6
CONTINUOUS
370
    -3
390
300
  0
LAYER
  5
2E
102
{ACAD_XDICTIONARY
360
4F5
102
}
330
2
100
AcDbSymbolTableRecord
100
AcDbLayerTableRecord
  2
SK6
 70
     0
 62
     5
  6
CONTINUOUS
370
    -3
390
300
  0
LAYER
  5
2F
330
2
100
AcDbSymbolTableRecord
100
AcDbLayerTableRecord
  2
DEFPOINTS
 70
     0
 62
     7
  6
CONTINUOUS
290
     0
370
    -3
390
300
  0
LAYER
  5
375
102
{ACAD_XDICTIONARY
360
4F7
102
}
330
2
100
AcDbSymbolTableRecord
100
AcDbLayerTableRecord
  2
CUT
 70
     0
 62
     1
  6
CONTINUOUS
370
    -3
390
300
  0
LAYER
  5
376
102
{ACAD_XDICTIONARY
360
4F9
102
}
330
2
100
AcDbSymbolTableRecord
100
AcDbLayerTableRecord
  2
NOCUT
 70
     0
 62
     7
  6
CONTINUOUS
370
    -3
390
300
  0
ENDTAB
  0
TABLE
  2
STYLE
  5
3
330
0
100
AcDbSymbolTable
 70
     5
  0
STYLE
  5
10
330
3
100
AcDbSymbolTableRecord
100
AcDbTextStyleTableRecord
  2
STANDARD
 70
     0
 40
0.0
 41
1.0
 50
0.0
 71
     0
 42
5.0
  3
txt
  4

  0
STYLE
  5
1D
330
3
100
AcDbSymbolTableRecord
100
AcDbTextStyleTableRecord
  2
TXT
 70
     0
 40
8.0
 41
1.0
 50
0.0
 71
     0
 42
8.0
  3
txt
  4

  0
STYLE
  5
1E
330
3
100
AcDbSymbolTableRecord
100
AcDbTextStyleTableRecord
  2
SIMPLEX
 70
     0
 40
0.0
 41
1.0
 50
0.0
 71
     0
 42
3.5
  3
simplex
  4

  0
STYLE
  5
34C
330
3
100
AcDbSymbolTableRecord
100
AcDbTextStyleTableRecord
  2

 70
     1
 40
0.0
 41
1.0
 50
0.0
 71
     0
 42
2.5
  3
ltypeshp.shx
  4

  0
STYLE
  5
6CF
330
3
100
AcDbSymbolTableRecord
100
AcDbTextStyleTableRecord
  2
SANDVIK_STYLE
 70
     0
 40
3.0
 41
1.0
 50
0.0
 71
     0
 42
3.0
  3
simplex.shx
  4

  0
ENDTAB
  0
TABLE
  2
VIEW
  5
6
330
0
100
AcDbSymbolTable
 70
     1
  0
ENDTAB
  0
TABLE
  2
UCS
  5
7
330
0
100
AcDbSymbolTable
 70
     0
  0
ENDTAB
  0
TABLE
  2
APPID
  5
9
330
0
100
AcDbSymbolTable
 70
     5
  0
APPID
  5
11
330
9
100
AcDbSymbolTableRecord
100
AcDbRegAppTableRecord
  2
ACAD
 70
     0
  0
APPID
  5
501
330
9
100
AcDbSymbolTableRecord
100
AcDbRegAppTableRecord
  2
ACAD_NAV_VCDISPLAY
 70
     0
  0
APPID
  5
53F
330
9
100
AcDbSymbolTableRecord
100
AcDbRegAppTableRecord
  2
ACAD_MLEADERVER
 70
     0
  0
APPID
  5
552
330
9
100
AcDbSymbolTableRecord
100
AcDbRegAppTableRecord
  2
ACAD_EXEMPT_FROM_CAD_STANDARDS
 70
     0
  0
APPID
  5
80D
330
9
100
AcDbSymbolTableRecord
100
AcDbRegAppTableRecord
  2
AcadAnnoMonitorAlertIconDisabled
 70
     0
  0
ENDTAB
  0
TABLE
  2
DIMSTYLE
  5
A
330
0
100
AcDbSymbolTable
 70
     2
100
AcDbDimStyleTable
 71
     2
340
10D3
340
3F
  0
DIMSTYLE
105
3F
330
A
100
AcDbSymbolTableRecord
100
AcDbDimStyleTableRecord
  2
STANDARD
 70
     0
 41
2.5
 42
0.0
 43
3.75
 44
1.25
 73
     0
 74
     0
 77
     1
 78
     8
 79
     2
140
3.5
141
0.0
143
0.039370078
147
0.625
171
     3
179
     2
271
     2
272
     2
274
     3
283
     0
284
     8
340
1E
  0
DIMSTYLE
105
10D3
102
{ACAD_REACTORS
330
10E3
330
10E0
330
10E5
330
10E4
330
10E2
330
10E1
330
F1F
330
F20
330
470
330
454
330
447
330
462
102
}
330
A
100
AcDbSymbolTableRecord
100
AcDbDimStyleTableRecord
  2
SANDVIK_DIM
 70
     0
  4
 
 40
0.0
 41
4.57
 42
0.0
 44
5.0
 73
     0
 74
     0
 77
     1
 78
     8
140
4.5
147
2.299999999999998
176
   256
177
   256
178
   256
271
     2
272
     2
279
     2
340
6CF
  0
ENDTAB
  0
TABLE
  2
BLOCK_RECORD
  5
1
330
0
100
AcDbSymbolTable
 70
    27
  0
BLOCK_RECORD
  5
18
102
{ACAD_XDICTIONARY
360
56F
102
}
330
1
100
AcDbSymbolTableRecord
100
AcDbBlockTableRecord
  2
*MODEL_SPACE
340
303
  0
BLOCK_RECORD
  5
338
330
1
100
AcDbSymbolTableRecord
100
AcDbBlockTableRecord
  2
*Paper_Space
340
33B
  0
BLOCK_RECORD
  5
43A
330
1
100
AcDbSymbolTableRecord
100
AcDbBlockTableRecord
  2
*D0
340
0
  0
BLOCK_RECORD
  5
448
330
1
100
AcDbSymbolTableRecord
100
AcDbBlockTableRecord
  2
*D1
340
0
  0
BLOCK_RECORD
  5
455
330
1
100
AcDbSymbolTableRecord
100
AcDbBlockTableRecord
  2
*D2
340
0
  0
BLOCK_RECORD
  5
463
330
1
100
AcDbSymbolTableRecord
100
AcDbBlockTableRecord
  2
*D3
340
0
  0
BLOCK_RECORD
  5
471
330
1
100
AcDbSymbolTableRecord
100
AcDbBlockTableRecord
  2
*D4
340
0
  0
BLOCK_RECORD
  5
47E
330
1
100
AcDbSymbolTableRecord
100
AcDbBlockTableRecord
  2
*D5
340
0
  0
BLOCK_RECORD
  5
48B
330
1
100
AcDbSymbolTableRecord
100
AcDbBlockTableRecord
  2
*D6
340
0
  0
BLOCK_RECORD
  5
546
330
1
100
AcDbSymbolTableRecord
100
AcDbBlockTableRecord
  2
*D7
340
0
  0
BLOCK_RECORD
  5
78F
330
1
100
AcDbSymbolTableRecord
100
AcDbBlockTableRecord
  2
*D8
340
0
  0
BLOCK_RECORD
  5
878
330
1
100
AcDbSymbolTableRecord
100
AcDbBlockTableRecord
  2
*D9
340
0
  0
BLOCK_RECORD
  5
A02
330
1
100
AcDbSymbolTableRecord
100
AcDbBlockTableRecord
  2
*D10
340
0
  0
BLOCK_RECORD
  5
A1C
330
1
100
AcDbSymbolTableRecord
100
AcDbBlockTableRecord
  2
*D11
340
0
  0
BLOCK_RECORD
  5
BBD
330
1
100
AcDbSymbolTableRecord
100
AcDbBlockTableRecord
  2
*D12
340
0
  0
BLOCK_RECORD
  5
D0C
330
1
100
AcDbSymbolTableRecord
100
AcDbBlockTableRecord
  2
*D13
340
0
  0
BLOCK_RECORD
  5
DD0
330
1
100
AcDbSymbolTableRecord
100
AcDbBlockTableRecord
  2
*D14
340
0
  0
BLOCK_RECORD
  5
EAB
330
1
100
AcDbSymbolTableRecord
100
AcDbBlockTableRecord
  2
*D15
340
0
  0
BLOCK_RECORD
  5
EB8
330
1
100
AcDbSymbolTableRecord
100
AcDbBlockTableRecord
  2
*D16
340
0
  0
BLOCK_RECORD
  5
F6D
330
1
100
AcDbSymbolTableRecord
100
AcDbBlockTableRecord
  2
*D17
340
0
  0
BLOCK_RECORD
  5
F7A
330
1
100
AcDbSymbolTableRecord
100
AcDbBlockTableRecord
  2
*D18
340
0
  0
BLOCK_RECORD
  5
101B
330
1
100
AcDbSymbolTableRecord
100
AcDbBlockTableRecord
  2
*D19
340
0
  0
BLOCK_RECORD
  5
1086
330
1
100
AcDbSymbolTableRecord
100
AcDbBlockTableRecord
  2
*D20
340
0
  0
BLOCK_RECORD
  5
1093
330
1
100
AcDbSymbolTableRecord
100
AcDbBlockTableRecord
  2
*D21
340
0
  0
BLOCK_RECORD
  5
10A0
330
1
100
AcDbSymbolTableRecord
100
AcDbBlockTableRecord
  2
*D22
340
0
  0
BLOCK_RECORD
  5
10AD
330
1
100
AcDbSymbolTableRecord
100
AcDbBlockTableRecord
  2
*D23
340
0
  0
BLOCK_RECORD
  5
10BA
330
1
100
AcDbSymbolTableRecord
100
AcDbBlockTableRecord
  2
*D24
340
0
  0
BLOCK_RECORD
  5
10C6
330
1
100
AcDbSymbolTableRecord
100
AcDbBlockTableRecord
  2
*D25
340
0
  0
BLOCK_RECORD
  5
10D4
102
{ACAD_XDICTIONARY
360
1163
102
}
330
1
100
AcDbSymbolTableRecord
100
AcDbBlockTableRecord
  2
A$C7BEB41B1
340
0
1001
ACAD
1000
DesignCenter Data
1002
{
1070
     1
1070
     4
1002
}
  0
ENDTAB
  0
ENDSEC
  0
SECTION
  2
BLOCKS
  0
BLOCK
  5
32
330
18
100
AcDbEntity
  8
0
100
AcDbBlockBegin
  2
*MODEL_SPACE
 70
     0
 10
0.0
 20
0.0
 30
0.0
  3
*MODEL_SPACE
  1

  0
ENDBLK
  5
33
330
18
100
AcDbEntity
  8
0
100
AcDbBlockEnd
  0
BLOCK
  5
339
330
338
100
AcDbEntity
 67
     1
  8
0
100
AcDbBlockBegin
  2
*Paper_Space
 70
     0
 10
0.0
 20
0.0
 30
0.0
  3
*Paper_Space
  1

  0
ENDBLK
  5
33A
330
338
100
AcDbEntity
 67
     1
  8
0
100
AcDbBlockEnd
  0
BLOCK
  5
445
330
43A
100
AcDbEntity
  8
0
100
AcDbBlockBegin
  2
*D0
 70
     1
 10
0.0
 20
0.0
 30
0.0
  3
*D0
  1

  0
LINE
  5
DC5
330
43A
100
AcDbEntity
  8
2
 62
     0
440
 16777216
370
    -2
100
AcDbLine
 10
30.56599095515973
 20
6.355980368688597
 30
0.0
 11
53.13613703544098
 21
6.355980368688589
 31
0.0
  0
LINE
  5
DC6
330
43A
100
AcDbEntity
  8
2
 62
     0
440
 16777216
370
    -2
100
AcDbLine
 10
30.56599095515972
 20
-6.344073080163031
 30
0.0
 11
53.13613703544098
 21
-6.344073080163036
 31
0.0
  0
LINE
  5
DC7
330
43A
100
AcDbEntity
  8
2
 62
     0
440
 16777216
370
    -2
100
AcDbLine
 10
51.88613703544098
 20
3.855980368688591
 30
0.0
 11
51.88613703544098
 21
-3.844073080163038
 31
0.0
  0
LINE
  5
DC8
330
43A
100
AcDbEntity
  8
2
 62
     0
440
 16777216
370
    -2
100
AcDbLine
 10
51.88613703544098
 20
-6.344073080163036
 30
0.0
 11
51.88613703544096
 21
-23.2607397468297
 31
0.0
  0
SOLID
  5
DC9
330
43A
100
AcDbEntity
  8
2
 62
     0
440
 16777216
100
AcDbTrace
 10
51.46947036877431
 20
3.855980368688591
 30
0.0
 11
52.30280370210763
 21
3.855980368688591
 31
0.0
 12
51.88613703544098
 22
6.355980368688593
 32
0.0
 13
51.88613703544098
 23
6.355980368688593
 33
0.0
  0
SOLID
  5
DCA
330
43A
100
AcDbEntity
  8
2
 62
     0
440
 16777216
100
AcDbTrace
 10
51.46947036877431
 20
-3.844073080163038
 30
0.0
 11
52.30280370210763
 21
-3.844073080163038
 31
0.0
 12
51.88613703544098
 22
-6.344073080163036
 32
0.0
 13
51.88613703544098
 23
-6.344073080163036
 33
0.0
  0
MTEXT
  5
DCB
330
43A
100
AcDbEntity
  8
2
 62
     0
440
 16777216
100
AcDbMText
 10
49.51113703544098
 20
-16.05240641349636
 30
0.0
 40
3.5
 41
0.0
 71
     5
 72
     1
  1
%%c12.7
  7
SIMPLEX
 11
0.0000000000000001
 21
1.0
 31
0.0
 73
     1
 44
1.0
  0
POINT
  5
DCC
330
43A
100
AcDbEntity
  8
DEFPOINTS
 62
     0
440
 16777216
100
AcDbPoint
 10
30.56599095515973
 20
6.355980368688597
 30
0.0
  0
POINT
  5
DCD
330
43A
100
AcDbEntity
  8
DEFPOINTS
 62
     0
440
 16777216
100
AcDbPoint
 10
30.56599095515972
 20
-6.344073080163031
 30
0.0
  0
POINT
  5
DCE
330
43A
100
AcDbEntity
  8
DEFPOINTS
 62
     0
440
 16777216
100
AcDbPoint
 10
51.88613703544098
 20
-6.344073080163036
 30
0.0
  0
ENDBLK
  5
446
330
43A
100
AcDbEntity
  8
0
100
AcDbBlockEnd
  0
BLOCK
  5
452
330
448
100
AcDbEntity
  8
0
100
AcDbBlockBegin
  2
*D1
 70
     1
 10
0.0
 20
0.0
 30
0.0
  3
*D1
  1

  0
LINE
  5
12C2
330
448
100
AcDbEntity
  8
2
440
 16777216
370
    -2
100
AcDbLine
 10
0.0
 20
0.0
 30
0.0
 11
0.0000000000000046
 21
75.4786887341952
 31
0.0
  0
LINE
  5
12C3
330
448
100
AcDbEntity
  8
2
440
 16777216
370
    -2
100
AcDbLine
 10
43.60493233800001
 20
0.0000000000000027
 30
0.0
 11
43.60493233800002
 21
75.4786887341952
 31
0.0
  0
LINE
  5
12C4
330
448
100
AcDbEntity
  8
2
440
 16777216
370
    -2
100
AcDbLine
 10
4.570000000000003
 20
70.4786887341952
 30
0.0
 11
39.03493233800002
 21
70.4786887341952
 31
0.0
  0
SOLID
  5
12C5
330
448
100
AcDbEntity
  8
2
440
 16777216
100
AcDbTrace
 10
4.570000000000003
 20
71.24035540086187
 30
0.0
 11
4.570000000000003
 21
69.71702206752853
 31
0.0
 12
0.0000000000000043
 22
70.4786887341952
 32
0.0
 13
0.0000000000000043
 23
70.4786887341952
 33
0.0
  0
SOLID
  5
12C6
330
448
100
AcDbEntity
  8
2
440
 16777216
100
AcDbTrace
 10
39.03493233800002
 20
71.24035540086187
 30
0.0
 11
39.03493233800002
 21
69.71702206752853
 31
0.0
 12
43.60493233800002
 22
70.4786887341952
 32
0.0
 13
43.60493233800002
 23
70.4786887341952
 33
0.0
  0
MTEXT
  5
12C7
330
448
100
AcDbEntity
  8
2
440
 16777216
100
AcDbMText
 10
21.80246616900001
 20
74.27868873419519
 30
0.0
 40
3.0
 41
0.0
 71
     5
 72
     1
  1
\A1;43.6
  7
SANDVIK_STYLE
 73
     1
 44
1.0
  0
POINT
  5
12C8
330
448
100
AcDbEntity
  8
DEFPOINTS
 62
     0
440
 16777216
100
AcDbPoint
 10
0.0
 20
0.0
 30
0.0
  0
POINT
  5
12C9
330
448
100
AcDbEntity
  8
DEFPOINTS
 62
     0
440
 16777216
100
AcDbPoint
 10
43.60493233800001
 20
0.0000000000000027
 30
0.0
  0
POINT
  5
12CA
330
448
100
AcDbEntity
  8
DEFPOINTS
 62
     0
440
 16777216
100
AcDbPoint
 10
43.60493233800002
 20
70.4786887341952
 30
0.0
  0
ENDBLK
  5
453
330
448
100
AcDbEntity
  8
0
100
AcDbBlockEnd
  0
BLOCK
  5
460
330
455
100
AcDbEntity
  8
0
100
AcDbBlockBegin
  2
*D2
 70
     1
 10
0.0
 20
0.0
 30
0.0
  3
*D2
  1

  0
LINE
  5
12A6
330
455
100
AcDbEntity
  8
2
440
 16777216
370
    -2
100
AcDbLine
 10
43.60493233800001
 20
0.0000000000000015
 30
0.0
 11
43.60493233800001
 21
50.15236424834402
 31
0.0
  0
LINE
  5
12A7
330
455
100
AcDbEntity
  8
2
440
 16777216
370
    -2
100
AcDbLine
 10
13.43693307887501
 20
6.352881777238785
 30
0.0
 11
13.43693307887501
 21
50.15236424834402
 31
0.0
  0
LINE
  5
12A8
330
455
100
AcDbEntity
  8
2
440
 16777216
370
    -2
100
AcDbLine
 10
39.03493233800001
 20
45.15236424834401
 30
0.0
 11
18.00693307887501
 21
45.15236424834401
 31
0.0
  0
SOLID
  5
12A9
330
455
100
AcDbEntity
  8
2
440
 16777216
100
AcDbTrace
 10
39.03493233800001
 20
45.91403091501068
 30
0.0
 11
39.03493233800001
 21
44.39069758167734
 31
0.0
 12
43.60493233800001
 22
45.15236424834401
 32
0.0
 13
43.60493233800001
 23
45.15236424834401
 33
0.0
  0
SOLID
  5
12AA
330
455
100
AcDbEntity
  8
2
440
 16777216
100
AcDbTrace
 10
18.00693307887501
 20
45.91403091501068
 30
0.0
 11
18.00693307887501
 21
44.39069758167734
 31
0.0
 12
13.43693307887501
 22
45.15236424834401
 32
0.0
 13
13.43693307887501
 23
45.15236424834401
 33
0.0
  0
MTEXT
  5
12AB
330
455
100
AcDbEntity
  8
2
440
 16777216
100
AcDbMText
 10
28.78743270843751
 20
48.95236424834401
 30
0.0
 40
3.0
 41
0.0
 71
     5
 72
     1
  1
\A1;30.163
  7
SANDVIK_STYLE
 73
     1
 44
1.0
  0
POINT
  5
12AC
330
455
100
AcDbEntity
  8
DEFPOINTS
 62
     0
440
 16777216
100
AcDbPoint
 10
43.60493233800001
 20
0.0000000000000015
 30
0.0
  0
POINT
  5
12AD
330
455
100
AcDbEntity
  8
DEFPOINTS
 62
     0
440
 16777216
100
AcDbPoint
 10
13.43693307887501
 20
6.352881777238785
 30
0.0
  0
POINT
  5
12AE
330
455
100
AcDbEntity
  8
DEFPOINTS
 62
     0
440
 16777216
100
AcDbPoint
 10
13.43693307887501
 20
45.15236424834401
 30
0.0
  0
ENDBLK
  5
461
330
455
100
AcDbEntity
  8
0
100
AcDbBlockEnd
  0
BLOCK
  5
46E
330
463
100
AcDbEntity
  8
0
100
AcDbBlockBegin
  2
*D3
 70
     1
 10
0.0
 20
0.0
 30
0.0
  3
*D3
  1

  0
LINE
  5
12B8
330
463
100
AcDbEntity
  8
SK2
440
 16777216
370
    -2
100
AcDbLine
 10
-44.65879895267574
 20
6.352674864873135
 30
0.0
 11
-83.52213772743008
 21
6.352674864873146
 31
0.0
  0
LINE
  5
12B9
330
463
100
AcDbEntity
  8
SK2
440
 16777216
370
    -2
100
AcDbLine
 10
-44.65879895267574
 20
-6.348689181637407
 30
0.0
 11
-83.52213772743008
 21
-6.348689181637396
 31
0.0
  0
LINE
  5
12BA
330
463
100
AcDbEntity
  8
SK2
440
 16777216
370
    -2
100
AcDbLine
 10
-78.52213772743008
 20
10.92267486487314
 30
0.0
 11
-78.52213772743008
 21
15.49267486487314
 31
0.0
  0
LINE
  5
12BB
330
463
100
AcDbEntity
  8
SK2
440
 16777216
370
    -2
100
AcDbLine
 10
-78.52213772743008
 20
-10.91868918163739
 30
0.0
 11
-78.52213772743008
 21
-31.37440346735168
 31
0.0
  0
SOLID
  5
12BC
330
463
100
AcDbEntity
  8
SK2
440
 16777216
100
AcDbTrace
 10
-79.28380439409675
 20
10.92267486487314
 30
0.0
 11
-77.7604710607634
 21
10.92267486487314
 31
0.0
 12
-78.52213772743008
 22
6.352674864873145
 32
0.0
 13
-78.52213772743008
 23
6.352674864873145
 33
0.0
  0
SOLID
  5
12BD
330
463
100
AcDbEntity
  8
SK2
440
 16777216
100
AcDbTrace
 10
-79.28380439409675
 20
-10.91868918163739
 30
0.0
 11
-77.7604710607634
 21
-10.91868918163739
 31
0.0
 12
-78.52213772743008
 22
-6.348689181637397
 32
0.0
 13
-78.52213772743008
 23
-6.348689181637397
 33
0.0
  0
MTEXT
  5
12BE
330
463
100
AcDbEntity
  8
SK2
440
 16777216
100
AcDbMText
 10
-82.32213772743007
 20
-23.43154632449456
 30
0.0
 40
3.0
 41
0.0
 71
     5
 72
     1
  1
\A1;%%c12.7
  7
SANDVIK_STYLE
 11
0.0000000000000001
 21
1.0
 31
0.0
 73
     1
 44
1.0
  0
POINT
  5
12BF
330
463
100
AcDbEntity
  8
DEFPOINTS
 62
     0
440
 16777216
100
AcDbPoint
 10
-44.65879895267574
 20
6.352674864873135
 30
0.0
  0
POINT
  5
12C0
330
463
100
AcDbEntity
  8
DEFPOINTS
 62
     0
440
 16777216
100
AcDbPoint
 10
-44.65879895267574
 20
-6.348689181637407
 30
0.0
  0
POINT
  5
12C1
330
463
100
AcDbEntity
  8
DEFPOINTS
 62
     0
440
 16777216
100
AcDbPoint
 10
-78.52213772743008
 20
-6.348689181637397
 30
0.0
  0
ENDBLK
  5
46F
330
463
100
AcDbEntity
  8
0
100
AcDbBlockEnd
  0
BLOCK
  5
47B
330
471
100
AcDbEntity
  8
0
100
AcDbBlockBegin
  2
*D4
 70
     1
 10
0.0
 20
0.0
 30
0.0
  3
*D4
  1

  0
LINE
  5
129D
330
471
100
AcDbEntity
  8
SK2
440
 16777216
370
    -2
100
AcDbLine
 10
-45.29506766199999
 20
-0.2669182893075721
 30
0.0
 11
-45.29506766199998
 21
95.0
 31
0.0
  0
LINE
  5
129E
330
471
100
AcDbEntity
  8
SK2
440
 16777216
370
    -2
100
AcDbLine
 10
43.60493233800001
 20
0.0000000000000027
 30
0.0
 11
43.60493233800002
 21
95.0
 31
0.0
  0
LINE
  5
129F
330
471
100
AcDbEntity
  8
SK2
440
 16777216
370
    -2
100
AcDbLine
 10
-40.72506766199997
 20
90.0
 30
0.0
 11
39.03493233800002
 21
90.0
 31
0.0
  0
SOLID
  5
12A0
330
471
100
AcDbEntity
  8
SK2
440
 16777216
100
AcDbTrace
 10
-40.72506766199997
 20
90.76166666666669
 30
0.0
 11
-40.72506766199997
 21
89.23833333333332
 31
0.0
 12
-45.29506766199998
 22
90.0
 32
0.0
 13
-45.29506766199998
 23
90.0
 33
0.0
  0
SOLID
  5
12A1
330
471
100
AcDbEntity
  8
SK2
440
 16777216
100
AcDbTrace
 10
39.03493233800002
 20
90.76166666666669
 30
0.0
 11
39.03493233800002
 21
89.23833333333332
 31
0.0
 12
43.60493233800002
 22
90.0
 32
0.0
 13
43.60493233800002
 23
90.0
 33
0.0
  0
MTEXT
  5
12A2
330
471
100
AcDbEntity
  8
SK2
440
 16777216
100
AcDbMText
 10
-0.8450676619999802
 20
93.8
 30
0.0
 40
3.0
 41
0.0
 71
     5
 72
     1
  1
\A1;88.9
  7
SANDVIK_STYLE
 73
     1
 44
1.0
  0
POINT
  5
12A3
330
471
100
AcDbEntity
  8
DEFPOINTS
 62
     0
440
 16777216
100
AcDbPoint
 10
-45.29506766199999
 20
-0.2669182893075721
 30
0.0
  0
POINT
  5
12A4
330
471
100
AcDbEntity
  8
DEFPOINTS
 62
     0
440
 16777216
100
AcDbPoint
 10
43.60493233800001
 20
0.0000000000000027
 30
0.0
  0
POINT
  5
12A5
330
471
100
AcDbEntity
  8
DEFPOINTS
 62
     0
440
 16777216
100
AcDbPoint
 10
43.60493233800002
 20
90.0
 30
0.0
  0
ENDBLK
  5
47C
330
471
100
AcDbEntity
  8
0
100
AcDbBlockEnd
  0
BLOCK
  5
488
330
47E
100
AcDbEntity
  8
0
100
AcDbBlockBegin
  2
*D5
 70
     1
 10
0.0
 20
0.0
 30
0.0
  3
*D5
  1

  0
LINE
  5
47F
330
47E
100
AcDbEntity
  8
2
 62
     0
440
 16777216
370
    -2
100
AcDbLine
 10
14.0
 20
1.5
 30
0.0
 11
14.0
 21
61.25
 31
0.0
  0
LINE
  5
480
330
47E
100
AcDbEntity
  8
2
 62
     0
440
 16777216
370
    -2
100
AcDbLine
 10
4.4
 20
3.0
 30
0.0
 11
4.4
 21
61.25
 31
0.0
  0
LINE
  5
481
330
47E
100
AcDbEntity
  8
2
 62
     0
440
 16777216
370
    -2
100
AcDbLine
 10
11.5
 20
60.0
 30
0.0
 11
6.9
 21
60.0
 31
0.0
  0
SOLID
  5
482
330
47E
100
AcDbEntity
  8
2
 62
     0
440
 16777216
100
AcDbTrace
 10
11.5
 20
59.58333333333334
 30
0.0
 11
11.5
 21
60.41666666666666
 31
0.0
 12
14.0
 22
60.0
 32
0.0
 13
14.0
 23
60.0
 33
0.0
  0
SOLID
  5
483
330
47E
100
AcDbEntity
  8
2
 62
     0
440
 16777216
100
AcDbTrace
 10
6.9
 20
60.41666666666666
 30
0.0
 11
6.9
 21
59.58333333333334
 31
0.0
 12
4.4
 22
60.0
 32
0.0
 13
4.4
 23
60.0
 33
0.0
  0
MTEXT
  5
484
330
47E
100
AcDbEntity
  8
2
 62
     0
440
 16777216
100
AcDbMText
 10
9.199999999999999
 20
62.39775
 30
0.0
 40
3.5
 41
0.0
 71
     5
 72
     1
  1
9.6
  7
SIMPLEX
 73
     1
 44
1.0
  0
POINT
  5
485
330
47E
100
AcDbEntity
  8
DEFPOINTS
 62
     0
440
 16777216
100
AcDbPoint
 10
14.0
 20
1.5
 30
0.0
  0
POINT
  5
486
330
47E
100
AcDbEntity
  8
DEFPOINTS
 62
     0
440
 16777216
100
AcDbPoint
 10
4.4
 20
3.0
 30
0.0
  0
POINT
  5
487
330
47E
100
AcDbEntity
  8
DEFPOINTS
 62
     0
440
 16777216
100
AcDbPoint
 10
4.4
 20
60.0
 30
0.0
  0
ENDBLK
  5
489
330
47E
100
AcDbEntity
  8
0
100
AcDbBlockEnd
  0
BLOCK
  5
496
330
48B
100
AcDbEntity
  8
0
100
AcDbBlockBegin
  2
*D6
 70
     1
 10
0.0
 20
0.0
 30
0.0
  3
*D6
  1

  0
LINE
  5
D83
330
48B
100
AcDbEntity
  8
2
 62
     0
440
 16777216
370
    -2
100
AcDbLine
 10
30.56599095515973
 20
6.355980368688597
 30
0.0
 11
30.56599095515973
 21
17.902364248344
 31
0.0
  0
LINE
  5
D84
330
48B
100
AcDbEntity
  8
2
 62
     0
440
 16777216
370
    -2
100
AcDbLine
 10
30.9046939964
 20
6.011051782439579
 30
0.0
 11
30.9046939964
 21
17.902364248344
 31
0.0
  0
LINE
  5
D85
330
48B
100
AcDbEntity
  8
2
 62
     0
440
 16777216
370
    -2
100
AcDbLine
 10
28.06599095515973
 20
16.652364248344
 30
0.0
 11
25.56599095515973
 21
16.652364248344
 31
0.0
  0
LINE
  5
D86
330
48B
100
AcDbEntity
  8
2
 62
     0
440
 16777216
370
    -2
100
AcDbLine
 10
33.4046939964
 20
16.652364248344
 30
0.0
 11
62.32136066306664
 21
16.652364248344
 31
0.0
  0
SOLID
  5
D87
330
48B
100
AcDbEntity
  8
2
 62
     0
440
 16777216
100
AcDbTrace
 10
28.06599095515973
 20
17.06903091501066
 30
0.0
 11
28.06599095515973
 21
16.23569758167733
 31
0.0
 12
30.56599095515973
 22
16.652364248344
 32
0.0
 13
30.56599095515973
 23
16.652364248344
 33
0.0
  0
SOLID
  5
D88
330
48B
100
AcDbEntity
  8
2
 62
     0
440
 16777216
100
AcDbTrace
 10
33.4046939964
 20
17.06903091501066
 30
0.0
 11
33.4046939964
 21
16.23569758167733
 31
0.0
 12
30.9046939964
 22
16.652364248344
 32
0.0
 13
30.9046939964
 23
16.652364248344
 33
0.0
  0
MTEXT
  5
D89
330
48B
100
AcDbEntity
  8
2
 62
     0
440
 16777216
100
AcDbMText
 10
49.11302732973332
 20
19.027364248344
 30
0.0
 40
3.5
 41
0.0
 71
     5
 72
     1
  1
0.203x45°
  7
SIMPLEX
 73
     1
 44
1.0
  0
POINT
  5
D8A
330
48B
100
AcDbEntity
  8
DEFPOINTS
 62
     0
440
 16777216
100
AcDbPoint
 10
30.56599095515973
 20
6.355980368688597
 30
0.0
  0
POINT
  5
D8B
330
48B
100
AcDbEntity
  8
DEFPOINTS
 62
     0
440
 16777216
100
AcDbPoint
 10
30.9046939964
 20
6.011051782439579
 30
0.0
  0
POINT
  5
D8C
330
48B
100
AcDbEntity
  8
DEFPOINTS
 62
     0
440
 16777216
100
AcDbPoint
 10
30.9046939964
 20
16.652364248344
 30
0.0
  0
ENDBLK
  5
497
330
48B
100
AcDbEntity
  8
0
100
AcDbBlockEnd
  0
BLOCK
  5
547
330
546
100
AcDbEntity
  8
0
100
AcDbBlockBegin
  2
*D7
 70
     1
 10
0.0
 20
0.0
 30
0.0
  3
*D7
  1

  0
LINE
  5
571
330
546
100
AcDbEntity
  8
1
 62
     0
440
 16777216
370
    -2
100
AcDbLine
 10
-26.0
 20
0.0
 30
0.0
 11
-26.0
 21
10.7444459855123
 31
0.0
  0
LINE
  5
572
330
546
100
AcDbEntity
  8
1
 62
     0
440
 16777216
370
    -2
100
AcDbLine
 10
0.0
 20
-0.0000000000000088
 30
0.0
 11
0.0000000000000007
 21
10.7444459855123
 31
0.0
  0
LINE
  5
573
330
546
100
AcDbEntity
  8
1
 62
     0
440
 16777216
370
    -2
100
AcDbLine
 10
-23.5
 20
9.4944459855123
 30
0.0
 11
-2.499999999999999
 21
9.4944459855123
 31
0.0
  0
SOLID
  5
574
330
546
100
AcDbEntity
  8
1
 62
     0
440
 16777216
100
AcDbTrace
 10
-23.5
 20
9.911112652178967
 30
0.0
 11
-23.5
 21
9.077779318845633
 31
0.0
 12
-26.0
 22
9.4944459855123
 32
0.0
 13
-26.0
 23
9.4944459855123
 33
0.0
  0
SOLID
  5
575
330
546
100
AcDbEntity
  8
1
 62
     0
440
 16777216
100
AcDbTrace
 10
-2.499999999999999
 20
9.911112652178967
 30
0.0
 11
-2.499999999999999
 21
9.077779318845633
 31
0.0
 12
0.0000000000000006
 22
9.4944459855123
 32
0.0
 13
0.0000000000000006
 23
9.4944459855123
 33
0.0
  0
MTEXT
  5
576
330
546
100
AcDbEntity
  8
1
 62
     0
440
 16777216
100
AcDbMText
 10
-13.0
 20
11.8694459855123
 30
0.0
 40
3.5
 41
0.0
 71
     5
 72
     1
  1
26
  7
SIMPLEX
 73
     1
 44
1.0
  0
POINT
  5
577
330
546
100
AcDbEntity
  8
DEFPOINTS
 62
     0
440
 16777216
100
AcDbPoint
 10
-26.0
 20
0.0
 30
0.0
  0
POINT
  5
578
330
546
100
AcDbEntity
  8
DEFPOINTS
 62
     0
440
 16777216
100
AcDbPoint
 10
0.0
 20
-0.0000000000000088
 30
0.0
  0
POINT
  5
579
330
546
100
AcDbEntity
  8
DEFPOINTS
 62
     0
440
 16777216
100
AcDbPoint
 10
0.0000000000000006
 20
9.4944459855123
 30
0.0
  0
ENDBLK
  5
548
330
546
100
AcDbEntity
  8
0
100
AcDbBlockEnd
  0
BLOCK
  5
790
330
78F
100
AcDbEntity
  8
0
100
AcDbBlockBegin
  2
*D8
 70
     1
 10
0.0
 20
0.0
 30
0.0
  3
*D8
  1

  0
LINE
  5
7B2
330
78F
100
AcDbEntity
  8
1
 62
     0
440
 16777216
370
    -2
100
AcDbLine
 10
-3.481314486157314
 20
0.0
 30
0.0
 11
-8.284913166465003
 21
0.0000000000000014
 31
0.0
  0
LINE
  5
7B3
330
78F
100
AcDbEntity
  8
1
 62
     0
440
 16777216
370
    -2
100
AcDbLine
 10
-3.179098703338353
 20
1.587497999999999
 30
0.0
 11
-8.284913166465003
 21
1.587498000000002
 31
0.0
  0
LINE
  5
7B4
330
78F
100
AcDbEntity
  8
1
 62
     0
440
 16777216
370
    -2
100
AcDbLine
 10
-7.034913166465003
 20
-2.499999999999996
 30
0.0
 11
-7.034913166465003
 21
-4.999999999999999
 31
0.0
  0
LINE
  5
7B5
330
78F
100
AcDbEntity
  8
1
 62
     0
440
 16777216
370
    -2
100
AcDbLine
 10
-7.034913166465003
 20
4.087498
 30
0.0
 11
-7.034913166465001
 21
17.67083133333333
 31
0.0
  0
SOLID
  5
7B6
330
78F
100
AcDbEntity
  8
1
 62
     0
440
 16777216
100
AcDbTrace
 10
-7.451579833131673
 20
-2.499999999999996
 30
0.0
 11
-6.618246499798338
 21
-2.499999999999999
 31
0.0
 12
-7.034913166465003
 22
0.000000000000001
 32
0.0
 13
-7.034913166465003
 23
0.000000000000001
 33
0.0
  0
SOLID
  5
7B7
330
78F
100
AcDbEntity
  8
1
 62
     0
440
 16777216
100
AcDbTrace
 10
-7.45157983313167
 20
4.087498
 30
0.0
 11
-6.618246499798338
 21
4.087498
 31
0.0
 12
-7.034913166465003
 22
1.587498000000002
 32
0.0
 13
-7.034913166465003
 23
1.587498000000002
 33
0.0
  0
MTEXT
  5
7B8
330
78F
100
AcDbEntity
  8
1
 62
     0
440
 16777216
100
AcDbMText
 10
-9.409913166465003
 20
12.12916466666667
 30
0.0
 40
3.5
 41
0.0
 71
     5
 72
     1
  1
1.59
  7
SIMPLEX
 11
0.0000000000000001
 21
1.0
 31
0.0
 73
     1
 44
1.0
  0
POINT
  5
7B9
330
78F
100
AcDbEntity
  8
DEFPOINTS
 62
     0
440
 16777216
100
AcDbPoint
 10
-3.481314486157314
 20
0.0
 30
0.0
  0
POINT
  5
7BA
330
78F
100
AcDbEntity
  8
DEFPOINTS
 62
     0
440
 16777216
100
AcDbPoint
 10
-3.179098703338353
 20
1.587497999999999
 30
0.0
  0
POINT
  5
7BB
330
78F
100
AcDbEntity
  8
DEFPOINTS
 62
     0
440
 16777216
100
AcDbPoint
 10
-7.034913166465003
 20
1.587498000000002
 30
0.0
  0
ENDBLK
  5
791
330
78F
100
AcDbEntity
  8
0
100
AcDbBlockEnd
  0
BLOCK
  5
879
330
878
100
AcDbEntity
  8
0
100
AcDbBlockBegin
  2
*D9
 70
     1
 10
0.0
 20
0.0
 30
0.0
  3
*D9
  1

  0
LINE
  5
88F
330
878
100
AcDbEntity
  8
1
 62
     0
440
 16777216
370
    -2
100
AcDbLine
 10
-26.0
 20
-0.1000520865900611
 30
0.0
 11
-26.0
 21
14.22364454022573
 31
0.0
  0
LINE
  5
890
330
878
100
AcDbEntity
  8
1
 62
     0
440
 16777216
370
    -2
100
AcDbLine
 10
0.0
 20
0.0
 30
0.0
 11
0.0000000000000009
 21
14.22364454022573
 31
0.0
  0
LINE
  5
891
330
878
100
AcDbEntity
  8
1
 62
     0
440
 16777216
370
    -2
100
AcDbLine
 10
-23.5
 20
12.97364454022573
 30
0.0
 11
-2.499999999999999
 21
12.97364454022573
 31
0.0
  0
SOLID
  5
892
330
878
100
AcDbEntity
  8
1
 62
     0
440
 16777216
100
AcDbTrace
 10
-23.5
 20
13.3903112068924
 30
0.0
 11
-23.5
 21
12.55697787355907
 31
0.0
 12
-26.0
 22
12.97364454022573
 32
0.0
 13
-26.0
 23
12.97364454022573
 33
0.0
  0
SOLID
  5
893
330
878
100
AcDbEntity
  8
1
 62
     0
440
 16777216
100
AcDbTrace
 10
-2.499999999999999
 20
13.3903112068924
 30
0.0
 11
-2.499999999999999
 21
12.55697787355907
 31
0.0
 12
0.0000000000000008
 22
12.97364454022573
 32
0.0
 13
0.0000000000000008
 23
12.97364454022573
 33
0.0
  0
MTEXT
  5
894
330
878
100
AcDbEntity
  8
1
 62
     0
440
 16777216
100
AcDbMText
 10
-13.0
 20
15.34864454022573
 30
0.0
 40
3.5
 41
0.0
 71
     5
 72
     1
  1
26
  7
SIMPLEX
 73
     1
 44
1.0
  0
POINT
  5
895
330
878
100
AcDbEntity
  8
DEFPOINTS
 62
     0
440
 16777216
100
AcDbPoint
 10
-26.0
 20
-0.1000520865900611
 30
0.0
  0
POINT
  5
896
330
878
100
AcDbEntity
  8
DEFPOINTS
 62
     0
440
 16777216
100
AcDbPoint
 10
0.0
 20
0.0
 30
0.0
  0
POINT
  5
897
330
878
100
AcDbEntity
  8
DEFPOINTS
 62
     0
440
 16777216
100
AcDbPoint
 10
0.0000000000000008
 20
12.97364454022573
 30
0.0
  0
ENDBLK
  5
87A
330
878
100
AcDbEntity
  8
0
100
AcDbBlockEnd
  0
BLOCK
  5
A03
330
A02
100
AcDbEntity
  8
0
100
AcDbBlockBegin
  2
*D10
 70
     1
 10
0.0
 20
0.0
 30
0.0
  3
*D10
  1

  0
LINE
  5
A10
330
A02
100
AcDbEntity
  8
1
 62
     0
440
 16777216
370
    -2
100
AcDbLine
 10
0.0000000000000002
 20
3.176345373299997
 30
0.0
 11
-9.224050634287893
 21
3.176345373300002
 31
0.0
  0
LINE
  5
A11
330
A02
100
AcDbEntity
  8
1
 62
     0
440
 16777216
370
    -2
100
AcDbLine
 10
0.0
 20
0.0000000000000009
 30
0.0
 11
-9.224050634287893
 21
0.0000000000000035
 31
0.0
  0
LINE
  5
A12
330
A02
100
AcDbEntity
  8
1
 62
     0
440
 16777216
370
    -2
100
AcDbLine
 10
-7.974050634287892
 20
5.676345373300002
 30
0.0
 11
-7.974050634287891
 21
8.1763453733
 31
0.0
  0
LINE
  5
A13
330
A02
100
AcDbEntity
  8
1
 62
     0
440
 16777216
370
    -2
100
AcDbLine
 10
-7.974050634287892
 20
-2.499999999999996
 30
0.0
 11
-7.974050634287896
 21
-16.25
 31
0.0
  0
SOLID
  5
A14
330
A02
100
AcDbEntity
  8
1
 62
     0
440
 16777216
100
AcDbTrace
 10
-8.390717300954557
 20
5.676345373300002
 30
0.0
 11
-7.557383967621225
 21
5.676345373300002
 31
0.0
 12
-7.974050634287892
 22
3.176345373300002
 32
0.0
 13
-7.974050634287892
 23
3.176345373300002
 33
0.0
  0
SOLID
  5
A15
330
A02
100
AcDbEntity
  8
1
 62
     0
440
 16777216
100
AcDbTrace
 10
-8.390717300954559
 20
-2.499999999999996
 30
0.0
 11
-7.557383967621227
 21
-2.499999999999996
 31
0.0
 12
-7.974050634287892
 22
0.0000000000000031
 32
0.0
 13
-7.974050634287892
 23
0.0000000000000031
 33
0.0
  0
MTEXT
  5
A16
330
A02
100
AcDbEntity
  8
1
 62
     0
440
 16777216
100
AcDbMText
 10
-10.34905063428789
 20
-10.625
 30
0.0
 40
3.5
 41
0.0
 71
     5
 72
     1
  1
3.18
  7
SIMPLEX
 11
0.0000000000000001
 21
1.0
 31
0.0
 73
     1
 44
1.0
  0
POINT
  5
A17
330
A02
100
AcDbEntity
  8
DEFPOINTS
 62
     0
440
 16777216
100
AcDbPoint
 10
0.0000000000000002
 20
3.176345373299997
 30
0.0
  0
POINT
  5
A18
330
A02
100
AcDbEntity
  8
DEFPOINTS
 62
     0
440
 16777216
100
AcDbPoint
 10
0.0
 20
0.0000000000000009
 30
0.0
  0
POINT
  5
A19
330
A02
100
AcDbEntity
  8
DEFPOINTS
 62
     0
440
 16777216
100
AcDbPoint
 10
-7.974050634287892
 20
0.0000000000000031
 30
0.0
  0
ENDBLK
  5
A04
330
A02
100
AcDbEntity
  8
0
100
AcDbBlockEnd
  0
BLOCK
  5
A1D
330
A1C
100
AcDbEntity
  8
0
100
AcDbBlockBegin
  2
*D11
 70
     1
 10
0.0
 20
0.0
 30
0.0
  3
*D11
  1

  0
LINE
  5
A33
330
A1C
100
AcDbEntity
  8
1
 62
     0
440
 16777216
370
    -2
100
AcDbLine
 10
0.0
 20
-0.0000000000000027
 30
0.0
 11
0.0000000000000014
 21
23.62775956121232
 31
0.0
  0
LINE
  5
A34
330
A1C
100
AcDbEntity
  8
1
 62
     0
440
 16777216
370
    -2
100
AcDbLine
 10
-36.00140000000001
 20
-0.0000000000000004
 30
0.0
 11
-36.00140000000001
 21
23.62775956121232
 31
0.0
  0
LINE
  5
A35
330
A1C
100
AcDbEntity
  8
1
 62
     0
440
 16777216
370
    -2
100
AcDbLine
 10
-2.499999999999996
 20
22.37775956121232
 30
0.0
 11
-33.50140000000001
 21
22.37775956121232
 31
0.0
  0
SOLID
  5
A36
330
A1C
100
AcDbEntity
  8
1
 62
     0
440
 16777216
100
AcDbTrace
 10
-2.499999999999996
 20
22.79442622787898
 30
0.0
 11
-2.499999999999996
 21
21.96109289454565
 31
0.0
 12
0.0000000000000014
 22
22.37775956121232
 32
0.0
 13
0.0000000000000014
 23
22.37775956121232
 33
0.0
  0
SOLID
  5
A37
330
A1C
100
AcDbEntity
  8
1
 62
     0
440
 16777216
100
AcDbTrace
 10
-33.50140000000001
 20
22.79442622787898
 30
0.0
 11
-33.50140000000001
 21
21.96109289454565
 31
0.0
 12
-36.00140000000001
 22
22.37775956121232
 32
0.0
 13
-36.00140000000001
 23
22.37775956121232
 33
0.0
  0
MTEXT
  5
A38
330
A1C
100
AcDbEntity
  8
1
 62
     0
440
 16777216
100
AcDbMText
 10
-18.0007
 20
24.75275956121232
 30
0.0
 40
3.5
 41
0.0
 71
     5
 72
     1
  1
36
  7
SIMPLEX
 73
     1
 44
1.0
  0
POINT
  5
A39
330
A1C
100
AcDbEntity
  8
DEFPOINTS
 62
     0
440
 16777216
100
AcDbPoint
 10
0.0
 20
-0.0000000000000027
 30
0.0
  0
POINT
  5
A3A
330
A1C
100
AcDbEntity
  8
DEFPOINTS
 62
     0
440
 16777216
100
AcDbPoint
 10
-36.00140000000001
 20
-0.0000000000000004
 30
0.0
  0
POINT
  5
A3B
330
A1C
100
AcDbEntity
  8
DEFPOINTS
 62
     0
440
 16777216
100
AcDbPoint
 10
-36.00140000000001
 20
22.37775956121232
 30
0.0
  0
ENDBLK
  5
A1E
330
A1C
100
AcDbEntity
  8
0
100
AcDbBlockEnd
  0
BLOCK
  5
BBE
330
BBD
100
AcDbEntity
  8
0
100
AcDbBlockBegin
  2
*D12
 70
     1
 10
0.0
 20
0.0
 30
0.0
  3
*D12
  1

  0
LINE
  5
BDF
330
BBD
100
AcDbEntity
  8
1
 62
     0
440
 16777216
370
    -2
100
AcDbLine
 10
-39.70140000000001
 20
-0.2001892174537221
 30
0.0
 11
-39.70140000000001
 21
14.61486758649357
 31
0.0
  0
LINE
  5
BE0
330
BBD
100
AcDbEntity
  8
1
 62
     0
440
 16777216
370
    -2
100
AcDbLine
 10
0.0
 20
0.0000000000000027
 30
0.0
 11
0.0000000000000009
 21
14.61486758649357
 31
0.0
  0
LINE
  5
BE1
330
BBD
100
AcDbEntity
  8
1
 62
     0
440
 16777216
370
    -2
100
AcDbLine
 10
-37.20140000000001
 20
13.36486758649357
 30
0.0
 11
-2.499999999999999
 21
13.36486758649357
 31
0.0
  0
SOLID
  5
BE2
330
BBD
100
AcDbEntity
  8
1
 62
     0
440
 16777216
100
AcDbTrace
 10
-37.20140000000001
 20
13.78153425316024
 30
0.0
 11
-37.20140000000001
 21
12.94820091982691
 31
0.0
 12
-39.70140000000001
 22
13.36486758649357
 32
0.0
 13
-39.70140000000001
 23
13.36486758649357
 33
0.0
  0
SOLID
  5
BE3
330
BBD
100
AcDbEntity
  8
1
 62
     0
440
 16777216
100
AcDbTrace
 10
-2.499999999999999
 20
13.78153425316024
 30
0.0
 11
-2.499999999999999
 21
12.94820091982691
 31
0.0
 12
0.0000000000000008
 22
13.36486758649357
 32
0.0
 13
0.0000000000000008
 23
13.36486758649357
 33
0.0
  0
MTEXT
  5
BE4
330
BBD
100
AcDbEntity
  8
1
 62
     0
440
 16777216
100
AcDbMText
 10
-19.8507
 20
15.73986758649357
 30
0.0
 40
3.5
 41
0.0
 71
     5
 72
     1
  1
39.7
  7
SIMPLEX
 73
     1
 44
1.0
  0
POINT
  5
BE5
330
BBD
100
AcDbEntity
  8
DEFPOINTS
 62
     0
440
 16777216
100
AcDbPoint
 10
-39.70140000000001
 20
-0.2001892174537221
 30
0.0
  0
POINT
  5
BE6
330
BBD
100
AcDbEntity
  8
DEFPOINTS
 62
     0
440
 16777216
100
AcDbPoint
 10
0.0
 20
0.0000000000000027
 30
0.0
  0
POINT
  5
BE7
330
BBD
100
AcDbEntity
  8
DEFPOINTS
 62
     0
440
 16777216
100
AcDbPoint
 10
0.0000000000000008
 20
13.36486758649357
 30
0.0
  0
ENDBLK
  5
BBF
330
BBD
100
AcDbEntity
  8
0
100
AcDbBlockEnd
  0
BLOCK
  5
D0D
330
D0C
100
AcDbEntity
  8
0
100
AcDbBlockBegin
  2
*D13
 70
     1
 10
0.0
 20
0.0
 30
0.0
  3
*D13
  1

  0
LINE
  5
D96
330
D0C
100
AcDbEntity
  8
1
 62
     0
440
 16777216
370
    -2
100
AcDbLine
 10
-46.125067662
 20
-0.2669182893075721
 30
0.0
 11
-46.125067662
 21
23.91367020935974
 31
0.0
  0
LINE
  5
D97
330
D0C
100
AcDbEntity
  8
1
 62
     0
440
 16777216
370
    -2
100
AcDbLine
 10
-0.8299999999999998
 20
0.0000000000000027
 30
0.0
 11
-0.8299999999999984
 21
23.91367020935974
 31
0.0
  0
LINE
  5
D98
330
D0C
100
AcDbEntity
  8
1
 62
     0
440
 16777216
370
    -2
100
AcDbLine
 10
-43.625067662
 20
22.66367020935974
 30
0.0
 11
-3.329999999999998
 21
22.66367020935974
 31
0.0
  0
SOLID
  5
D99
330
D0C
100
AcDbEntity
  8
1
 62
     0
440
 16777216
100
AcDbTrace
 10
-43.625067662
 20
23.08033687602641
 30
0.0
 11
-43.625067662
 21
22.24700354269307
 31
0.0
 12
-46.125067662
 22
22.66367020935974
 32
0.0
 13
-46.125067662
 23
22.66367020935974
 33
0.0
  0
SOLID
  5
D9A
330
D0C
100
AcDbEntity
  8
1
 62
     0
440
 16777216
100
AcDbTrace
 10
-3.329999999999998
 20
23.08033687602641
 30
0.0
 11
-3.329999999999998
 21
22.24700354269307
 31
0.0
 12
-0.8299999999999986
 22
22.66367020935974
 32
0.0
 13
-0.8299999999999986
 23
22.66367020935974
 33
0.0
  0
MTEXT
  5
D9B
330
D0C
100
AcDbEntity
  8
1
 62
     0
440
 16777216
100
AcDbMText
 10
-23.477533831
 20
25.03867020935974
 30
0.0
 40
3.5
 41
0.0
 71
     5
 72
     1
  1
45.3
  7
SIMPLEX
 73
     1
 44
1.0
  0
POINT
  5
D9C
330
D0C
100
AcDbEntity
  8
DEFPOINTS
 62
     0
440
 16777216
100
AcDbPoint
 10
-46.125067662
 20
-0.2669182893075721
 30
0.0
  0
POINT
  5
D9D
330
D0C
100
AcDbEntity
  8
DEFPOINTS
 62
     0
440
 16777216
100
AcDbPoint
 10
-0.8299999999999998
 20
0.0000000000000027
 30
0.0
  0
POINT
  5
D9E
330
D0C
100
AcDbEntity
  8
DEFPOINTS
 62
     0
440
 16777216
100
AcDbPoint
 10
-0.8299999999999986
 20
22.66367020935974
 30
0.0
  0
ENDBLK
  5
D0E
330
D0C
100
AcDbEntity
  8
0
100
AcDbBlockEnd
  0
BLOCK
  5
DD1
330
DD0
100
AcDbEntity
  8
0
100
AcDbBlockBegin
  2
*D14
 70
     1
 10
0.0
 20
0.0
 30
0.0
  3
*D14
  1

  0
LINE
  5
DDD
330
DD0
100
AcDbEntity
  8
1
 62
     0
440
 16777216
370
    -2
100
AcDbLine
 10
0.0
 20
0.0000000000000027
 30
0.0
 11
0.0000000000000012
 21
19.16445595036378
 31
0.0
  0
LINE
  5
DDE
330
DD0
100
AcDbEntity
  8
1
 62
     0
440
 16777216
370
    -2
100
AcDbLine
 10
-45.29506766199999
 20
0.0000000000000062
 30
0.0
 11
-45.29506766199999
 21
19.16445595036378
 31
0.0
  0
LINE
  5
DDF
330
DD0
100
AcDbEntity
  8
1
 62
     0
440
 16777216
370
    -2
100
AcDbLine
 10
-2.499999999999999
 20
17.91445595036378
 30
0.0
 11
-42.79506766199999
 21
17.91445595036378
 31
0.0
  0
SOLID
  5
DE0
330
DD0
100
AcDbEntity
  8
1
 62
     0
440
 16777216
100
AcDbTrace
 10
-2.499999999999999
 20
18.33112261703045
 30
0.0
 11
-2.499999999999999
 21
17.49778928369712
 31
0.0
 12
0.0000000000000011
 22
17.91445595036378
 32
0.0
 13
0.0000000000000011
 23
17.91445595036378
 33
0.0
  0
SOLID
  5
DE1
330
DD0
100
AcDbEntity
  8
1
 62
     0
440
 16777216
100
AcDbTrace
 10
-42.79506766199999
 20
18.33112261703045
 30
0.0
 11
-42.79506766199999
 21
17.49778928369712
 31
0.0
 12
-45.29506766199999
 22
17.91445595036378
 32
0.0
 13
-45.29506766199999
 23
17.91445595036378
 33
0.0
  0
MTEXT
  5
DE2
330
DD0
100
AcDbEntity
  8
1
 62
     0
440
 16777216
100
AcDbMText
 10
-22.647533831
 20
20.28945595036379
 30
0.0
 40
3.5
 41
0.0
 71
     5
 72
     1
  1
45.3
  7
SIMPLEX
 73
     1
 44
1.0
  0
POINT
  5
DE3
330
DD0
100
AcDbEntity
  8
DEFPOINTS
 62
     0
440
 16777216
100
AcDbPoint
 10
0.0
 20
0.0000000000000027
 30
0.0
  0
POINT
  5
DE4
330
DD0
100
AcDbEntity
  8
DEFPOINTS
 62
     0
440
 16777216
100
AcDbPoint
 10
-45.29506766199999
 20
0.0000000000000062
 30
0.0
  0
POINT
  5
DE5
330
DD0
100
AcDbEntity
  8
DEFPOINTS
 62
     0
440
 16777216
100
AcDbPoint
 10
-45.29506766199999
 20
17.91445595036378
 30
0.0
  0
ENDBLK
  5
DD2
330
DD0
100
AcDbEntity
  8
0
100
AcDbBlockEnd
  0
BLOCK
  5
EAC
330
EAB
100
AcDbEntity
  8
0
100
AcDbBlockBegin
  2
*D15
 70
     1
 10
0.0
 20
0.0
 30
0.0
  3
*D15
  1

  0
LINE
  5
EAD
330
EAB
100
AcDbEntity
  8
2
 62
     0
440
 16777216
370
    -2
100
AcDbLine
 10
36.31057999999999
 20
4.766997194009433
 30
0.0
 11
52.8647000633309
 21
4.766997194009428
 31
0.0
  0
LINE
  5
EAE
330
EAB
100
AcDbEntity
  8
2
 62
     0
440
 16777216
370
    -2
100
AcDbLine
 10
36.247052084
 20
-4.758066705289038
 30
0.0
 11
52.8647000633309
 21
-4.75806670528904
 31
0.0
  0
LINE
  5
EAF
330
EAB
100
AcDbEntity
  8
2
 62
     0
440
 16777216
370
    -2
100
AcDbLine
 10
51.6147000633309
 20
2.266997194009428
 30
0.0
 11
51.6147000633309
 21
-2.258066705289042
 31
0.0
  0
LINE
  5
EB0
330
EAB
100
AcDbEntity
  8
2
 62
     0
440
 16777216
370
    -2
100
AcDbLine
 10
51.6147000633309
 20
-4.75806670528904
 30
0.0
 11
51.6147000633309
 21
-22.34140003862238
 31
0.0
  0
SOLID
  5
EB1
330
EAB
100
AcDbEntity
  8
2
 62
     0
440
 16777216
100
AcDbTrace
 10
51.19803339666423
 20
2.266997194009428
 30
0.0
 11
52.03136672999757
 21
2.266997194009428
 31
0.0
 12
51.6147000633309
 22
4.766997194009428
 32
0.0
 13
51.6147000633309
 23
4.766997194009428
 33
0.0
  0
SOLID
  5
EB2
330
EAB
100
AcDbEntity
  8
2
 62
     0
440
 16777216
100
AcDbTrace
 10
51.19803339666423
 20
-2.258066705289042
 30
0.0
 11
52.03136672999757
 21
-2.258066705289042
 31
0.0
 12
51.6147000633309
 22
-4.75806670528904
 32
0.0
 13
51.6147000633309
 23
-4.75806670528904
 33
0.0
  0
MTEXT
  5
EB3
330
EAB
100
AcDbEntity
  8
2
 62
     0
440
 16777216
100
AcDbMText
 10
49.2397000633309
 20
-14.7997333719557
 30
0.0
 40
3.5
 41
0.0
 71
     5
 72
     1
  1
%%c9.53
  7
SIMPLEX
 11
0.0000000000000001
 21
1.0
 31
0.0
 73
     1
 44
1.0
  0
POINT
  5
EB4
330
EAB
100
AcDbEntity
  8
DEFPOINTS
 62
     0
440
 16777216
100
AcDbPoint
 10
36.31057999999999
 20
4.766997194009433
 30
0.0
  0
POINT
  5
EB5
330
EAB
100
AcDbEntity
  8
DEFPOINTS
 62
     0
440
 16777216
100
AcDbPoint
 10
36.247052084
 20
-4.758066705289038
 30
0.0
  0
POINT
  5
EB6
330
EAB
100
AcDbEntity
  8
DEFPOINTS
 62
     0
440
 16777216
100
AcDbPoint
 10
51.6147000633309
 20
-4.75806670528904
 30
0.0
  0
ENDBLK
  5
EB7
330
EAB
100
AcDbEntity
  8
0
100
AcDbBlockEnd
  0
BLOCK
  5
EB9
330
EB8
100
AcDbEntity
  8
0
100
AcDbBlockBegin
  2
*D16
 70
     1
 10
0.0
 20
0.0
 30
0.0
  3
*D16
  1

  0
LINE
  5
EBA
330
EB8
100
AcDbEntity
  8
2
 62
     0
440
 16777216
370
    -2
100
AcDbLine
 10
36.31057999999999
 20
4.766997194009433
 30
0.0
 11
36.31057999999999
 21
17.902364248344
 31
0.0
  0
LINE
  5
EBB
330
EB8
100
AcDbEntity
  8
2
 62
     0
440
 16777216
370
    -2
100
AcDbLine
 10
36.50108
 20
4.508300107579954
 30
0.0
 11
36.50108
 21
17.902364248344
 31
0.0
  0
LINE
  5
EBC
330
EB8
100
AcDbEntity
  8
2
 62
     0
440
 16777216
370
    -2
100
AcDbLine
 10
33.81057999999999
 20
16.652364248344
 30
0.0
 11
31.31057999999999
 21
16.652364248344
 31
0.0
  0
LINE
  5
EBD
330
EB8
100
AcDbEntity
  8
2
 62
     0
440
 16777216
370
    -2
100
AcDbLine
 10
39.00108
 20
16.652364248344
 30
0.0
 11
67.91774666666666
 21
16.652364248344
 31
0.0
  0
SOLID
  5
EBE
330
EB8
100
AcDbEntity
  8
2
 62
     0
440
 16777216
100
AcDbTrace
 10
33.81057999999999
 20
17.06903091501066
 30
0.0
 11
33.81057999999999
 21
16.23569758167733
 31
0.0
 12
36.31057999999999
 22
16.652364248344
 32
0.0
 13
36.31057999999999
 23
16.652364248344
 33
0.0
  0
SOLID
  5
EBF
330
EB8
100
AcDbEntity
  8
2
 62
     0
440
 16777216
100
AcDbTrace
 10
39.00108
 20
17.06903091501066
 30
0.0
 11
39.00108
 21
16.23569758167733
 31
0.0
 12
36.50108
 22
16.652364248344
 32
0.0
 13
36.50108
 23
16.652364248344
 33
0.0
  0
MTEXT
  5
EC0
330
EB8
100
AcDbEntity
  8
2
 62
     0
440
 16777216
100
AcDbMText
 10
54.70941333333333
 20
19.027364248344
 30
0.0
 40
3.5
 41
0.0
 71
     5
 72
     1
  1
0.203x45°
  7
SIMPLEX
 73
     1
 44
1.0
  0
POINT
  5
EC1
330
EB8
100
AcDbEntity
  8
DEFPOINTS
 62
     0
440
 16777216
100
AcDbPoint
 10
36.31057999999999
 20
4.766997194009433
 30
0.0
  0
POINT
  5
EC2
330
EB8
100
AcDbEntity
  8
DEFPOINTS
 62
     0
440
 16777216
100
AcDbPoint
 10
36.50108
 20
4.508300107579954
 30
0.0
  0
POINT
  5
EC3
330
EB8
100
AcDbEntity
  8
DEFPOINTS
 62
     0
440
 16777216
100
AcDbPoint
 10
36.50108
 20
16.652364248344
 30
0.0
  0
ENDBLK
  5
EC4
330
EB8
100
AcDbEntity
  8
0
100
AcDbBlockEnd
  0
BLOCK
  5
F6E
330
F6D
100
AcDbEntity
  8
0
100
AcDbBlockBegin
  2
*D17
 70
     1
 10
0.0
 20
0.0
 30
0.0
  3
*D17
  1

  0
LINE
  5
1289
330
F6D
100
AcDbEntity
  8
2
440
 16777216
370
    -2
100
AcDbLine
 10
43.35093234434999
 20
6.350682023255257
 30
0.0
 11
68.7564252519872
 21
6.35068202325525
 31
0.0
  0
LINE
  5
128A
330
F6D
100
AcDbEntity
  8
2
440
 16777216
370
    -2
100
AcDbLine
 10
43.26622845846761
 20
-6.349402858307242
 30
0.0
 11
68.7564252519872
 21
-6.349402858307249
 31
0.0
  0
LINE
  5
128B
330
F6D
100
AcDbEntity
  8
2
440
 16777216
370
    -2
100
AcDbLine
 10
63.7564252519872
 20
10.92068202325525
 30
0.0
 11
63.7564252519872
 21
15.49068202325525
 31
0.0
  0
LINE
  5
128C
330
F6D
100
AcDbEntity
  8
2
440
 16777216
370
    -2
100
AcDbLine
 10
63.7564252519872
 20
-10.91940285830725
 30
0.0
 11
63.7564252519872
 21
-31.37511714402154
 31
0.0
  0
SOLID
  5
128D
330
F6D
100
AcDbEntity
  8
2
440
 16777216
100
AcDbTrace
 10
62.99475858532054
 20
10.92068202325525
 30
0.0
 11
64.51809191865386
 21
10.92068202325525
 31
0.0
 12
63.7564252519872
 22
6.35068202325525
 32
0.0
 13
63.7564252519872
 23
6.35068202325525
 33
0.0
  0
SOLID
  5
128E
330
F6D
100
AcDbEntity
  8
2
440
 16777216
100
AcDbTrace
 10
62.99475858532054
 20
-10.91940285830725
 30
0.0
 11
64.51809191865386
 21
-10.91940285830725
 31
0.0
 12
63.7564252519872
 22
-6.349402858307247
 32
0.0
 13
63.7564252519872
 23
-6.349402858307247
 33
0.0
  0
MTEXT
  5
128F
330
F6D
100
AcDbEntity
  8
2
440
 16777216
100
AcDbMText
 10
59.95642525198721
 20
-23.43226000116438
 30
0.0
 40
3.0
 41
0.0
 71
     5
 72
     1
  1
\A1;%%c12.7
  7
SANDVIK_STYLE
 11
0.0000000000000001
 21
1.0
 31
0.0
 73
     1
 44
1.0
  0
POINT
  5
1290
330
F6D
100
AcDbEntity
  8
DEFPOINTS
 62
     0
440
 16777216
100
AcDbPoint
 10
43.35093234434999
 20
6.350682023255257
 30
0.0
  0
POINT
  5
1291
330
F6D
100
AcDbEntity
  8
DEFPOINTS
 62
     0
440
 16777216
100
AcDbPoint
 10
43.26622845846761
 20
-6.349402858307242
 30
0.0
  0
POINT
  5
1292
330
F6D
100
AcDbEntity
  8
DEFPOINTS
 62
     0
440
 16777216
100
AcDbPoint
 10
63.7564252519872
 20
-6.349402858307247
 30
0.0
  0
ENDBLK
  5
F6F
330
F6D
100
AcDbEntity
  8
0
100
AcDbBlockEnd
  0
BLOCK
  5
F7B
330
F7A
100
AcDbEntity
  8
0
100
AcDbBlockBegin
  2
*D18
 70
     1
 10
0.0
 20
0.0
 30
0.0
  3
*D18
  1

  0
LINE
  5
1293
330
F7A
100
AcDbEntity
  8
2
440
 16777216
370
    -2
100
AcDbLine
 10
43.35093234434999
 20
6.350682023255257
 30
0.0
 11
43.35093234434999
 21
27.19783769952245
 31
0.0
  0
LINE
  5
1294
330
F7A
100
AcDbEntity
  8
2
440
 16777216
370
    -2
100
AcDbLine
 10
43.60493233800001
 20
6.00575258330586
 30
0.0
 11
43.60493233800001
 21
27.19783769952246
 31
0.0
  0
LINE
  5
1295
330
F7A
100
AcDbEntity
  8
2
440
 16777216
370
    -2
100
AcDbLine
 10
38.78093234434999
 20
22.19783769952245
 30
0.0
 11
34.21093234434999
 21
22.19783769952245
 31
0.0
  0
LINE
  5
1296
330
F7A
100
AcDbEntity
  8
2
440
 16777216
370
    -2
100
AcDbLine
 10
48.17493233800001
 20
22.19783769952245
 30
0.0
 11
78.91636090942859
 21
22.19783769952245
 31
0.0
  0
SOLID
  5
1297
330
F7A
100
AcDbEntity
  8
2
440
 16777216
100
AcDbTrace
 10
38.78093234434999
 20
22.95950436618912
 30
0.0
 11
38.78093234434999
 21
21.43617103285578
 31
0.0
 12
43.35093234434999
 22
22.19783769952245
 32
0.0
 13
43.35093234434999
 23
22.19783769952245
 33
0.0
  0
SOLID
  5
1298
330
F7A
100
AcDbEntity
  8
2
440
 16777216
100
AcDbTrace
 10
48.17493233800001
 20
22.95950436618912
 30
0.0
 11
48.17493233800001
 21
21.43617103285578
 31
0.0
 12
43.60493233800001
 22
22.19783769952245
 32
0.0
 13
43.60493233800001
 23
22.19783769952245
 33
0.0
  0
MTEXT
  5
1299
330
F7A
100
AcDbEntity
  8
2
440
 16777216
100
AcDbMText
 10
65.8306466237143
 20
25.99783769952245
 30
0.0
 40
3.0
 41
0.0
 71
     5
 72
     1
  1
\A1;0.203x45°
  7
SANDVIK_STYLE
 73
     1
 44
1.0
  0
POINT
  5
129A
330
F7A
100
AcDbEntity
  8
DEFPOINTS
 62
     0
440
 16777216
100
AcDbPoint
 10
43.35093234434999
 20
6.350682023255257
 30
0.0
  0
POINT
  5
129B
330
F7A
100
AcDbEntity
  8
DEFPOINTS
 62
     0
440
 16777216
100
AcDbPoint
 10
43.60493233800001
 20
6.00575258330586
 30
0.0
  0
POINT
  5
129C
330
F7A
100
AcDbEntity
  8
DEFPOINTS
 62
     0
440
 16777216
100
AcDbPoint
 10
43.60493233800001
 20
22.19783769952245
 30
0.0
  0
ENDBLK
  5
F7C
330
F7A
100
AcDbEntity
  8
0
100
AcDbBlockEnd
  0
BLOCK
  5
101C
330
101B
100
AcDbEntity
  8
0
100
AcDbBlockBegin
  2
*D19
 70
     1
 10
0.0
 20
0.0
 30
0.0
  3
*D19
  1

  0
LINE
  5
1028
330
101B
100
AcDbEntity
  8
1
 62
     0
440
 16777216
370
    -2
100
AcDbLine
 10
0.0
 20
-0.0000000000000044
 30
0.0
 11
0.0000000000000014
 21
23.00828728887245
 31
0.0
  0
LINE
  5
1029
330
101B
100
AcDbEntity
  8
1
 62
     0
440
 16777216
370
    -2
100
AcDbLine
 10
-45.29506766199999
 20
-0.0000000000000008
 30
0.0
 11
-45.29506766199999
 21
23.00828728887245
 31
0.0
  0
LINE
  5
102A
330
101B
100
AcDbEntity
  8
1
 62
     0
440
 16777216
370
    -2
100
AcDbLine
 10
-2.499999999999996
 20
21.75828728887245
 30
0.0
 11
-42.79506766199999
 21
21.75828728887245
 31
0.0
  0
SOLID
  5
102B
330
101B
100
AcDbEntity
  8
1
 62
     0
440
 16777216
100
AcDbTrace
 10
-2.499999999999996
 20
22.17495395553912
 30
0.0
 11
-2.499999999999996
 21
21.34162062220578
 31
0.0
 12
0.0000000000000013
 22
21.75828728887245
 32
0.0
 13
0.0000000000000013
 23
21.75828728887245
 33
0.0
  0
SOLID
  5
102C
330
101B
100
AcDbEntity
  8
1
 62
     0
440
 16777216
100
AcDbTrace
 10
-42.79506766199999
 20
22.17495395553912
 30
0.0
 11
-42.79506766199999
 21
21.34162062220578
 31
0.0
 12
-45.29506766199999
 22
21.75828728887245
 32
0.0
 13
-45.29506766199999
 23
21.75828728887245
 33
0.0
  0
MTEXT
  5
102D
330
101B
100
AcDbEntity
  8
1
 62
     0
440
 16777216
100
AcDbMText
 10
-22.64753383099999
 20
24.13328728887246
 30
0.0
 40
3.5
 41
0.0
 71
     5
 72
     1
  1
45.3
  7
SIMPLEX
 73
     1
 44
1.0
  0
POINT
  5
102E
330
101B
100
AcDbEntity
  8
DEFPOINTS
 62
     0
440
 16777216
100
AcDbPoint
 10
0.0
 20
-0.0000000000000044
 30
0.0
  0
POINT
  5
102F
330
101B
100
AcDbEntity
  8
DEFPOINTS
 62
     0
440
 16777216
100
AcDbPoint
 10
-45.29506766199999
 20
-0.0000000000000008
 30
0.0
  0
POINT
  5
1030
330
101B
100
AcDbEntity
  8
DEFPOINTS
 62
     0
440
 16777216
100
AcDbPoint
 10
-45.29506766199999
 20
21.75828728887245
 30
0.0
  0
ENDBLK
  5
101D
330
101B
100
AcDbEntity
  8
0
100
AcDbBlockEnd
  0
BLOCK
  5
1087
330
1086
100
AcDbEntity
  8
0
100
AcDbBlockBegin
  2
*D20
 70
     1
 10
0.0
 20
0.0
 30
0.0
  3
*D20
  1

  0
LINE
  5
1088
330
1086
100
AcDbEntity
  8
2
440
 16777216
370
    -2
100
AcDbLine
 10
12.1
 20
1.586999999999999
 30
0.0
 11
31.26000000000001
 21
1.586999999999993
 31
0.0
  0
LINE
  5
1089
330
1086
100
AcDbEntity
  8
2
440
 16777216
370
    -2
100
AcDbLine
 10
12.01833993666911
 20
-1.586999999999995
 30
0.0
 11
31.26
 21
-1.587000000000003
 31
0.0
  0
LINE
  5
108A
330
1086
100
AcDbEntity
  8
2
440
 16777216
370
    -2
100
AcDbLine
 10
26.26
 20
6.156999999999992
 30
0.0
 11
26.26000000000001
 21
10.72699999999999
 31
0.0
  0
LINE
  5
108B
330
1086
100
AcDbEntity
  8
2
440
 16777216
370
    -2
100
AcDbLine
 10
26.26
 20
-6.157000000000002
 30
0.0
 11
26.25999999999999
 21
-26.61271428571428
 31
0.0
  0
SOLID
  5
108C
330
1086
100
AcDbEntity
  8
2
440
 16777216
100
AcDbTrace
 10
25.49833333333334
 20
6.156999999999995
 30
0.0
 11
27.02166666666667
 21
6.156999999999992
 31
0.0
 12
26.26
 22
1.586999999999995
 32
0.0
 13
26.26
 23
1.586999999999995
 33
0.0
  0
SOLID
  5
108D
330
1086
100
AcDbEntity
  8
2
440
 16777216
100
AcDbTrace
 10
25.49833333333334
 20
-6.157
 30
0.0
 11
27.02166666666667
 21
-6.157000000000002
 31
0.0
 12
26.26
 22
-1.586999999999999
 32
0.0
 13
26.26
 23
-1.586999999999999
 33
0.0
  0
MTEXT
  5
108E
330
1086
100
AcDbEntity
  8
2
440
 16777216
100
AcDbMText
 10
22.46
 20
-18.66985714285713
 30
0.0
 40
3.0
 41
0.0
 71
     5
 72
     1
  1
\A1;%%c3.18
  7
SANDVIK_STYLE
 11
0.0000000000000001
 21
1.0
 31
0.0
 73
     1
 44
1.0
  0
POINT
  5
108F
330
1086
100
AcDbEntity
  8
DEFPOINTS
 62
     0
440
 16777216
100
AcDbPoint
 10
12.1
 20
1.586999999999999
 30
0.0
  0
POINT
  5
1090
330
1086
100
AcDbEntity
  8
DEFPOINTS
 62
     0
440
 16777216
100
AcDbPoint
 10
12.01833993666911
 20
-1.586999999999995
 30
0.0
  0
POINT
  5
1091
330
1086
100
AcDbEntity
  8
DEFPOINTS
 62
     0
440
 16777216
100
AcDbPoint
 10
26.26
 20
-1.586999999999999
 30
0.0
  0
ENDBLK
  5
1092
330
1086
100
AcDbEntity
  8
0
100
AcDbBlockEnd
  0
BLOCK
  5
1094
330
1093
100
AcDbEntity
  8
0
100
AcDbBlockBegin
  2
*D21
 70
     1
 10
0.0
 20
0.0
 30
0.0
  3
*D21
  1

  0
LINE
  5
1095
330
1093
100
AcDbEntity
  8
2
440
 16777216
370
    -2
100
AcDbLine
 10
0.0
 20
0.0
 30
0.0
 11
0.0000000000000045
 21
73.01002865527427
 31
0.0
  0
LINE
  5
1096
330
1093
100
AcDbEntity
  8
2
440
 16777216
370
    -2
100
AcDbLine
 10
12.1
 20
0.0
 30
0.0
 11
12.1
 21
73.01002865527427
 31
0.0
  0
LINE
  5
1097
330
1093
100
AcDbEntity
  8
2
440
 16777216
370
    -2
100
AcDbLine
 10
-4.569999999999994
 20
68.01002865527426
 30
0.0
 11
-9.139999999999997
 21
68.01002865527426
 31
0.0
  0
LINE
  5
1098
330
1093
100
AcDbEntity
  8
2
440
 16777216
370
    -2
100
AcDbLine
 10
16.67
 20
68.01002865527426
 30
0.0
 11
33.12571428571428
 21
68.01002865527426
 31
0.0
  0
SOLID
  5
1099
330
1093
100
AcDbEntity
  8
2
440
 16777216
100
AcDbTrace
 10
-4.569999999999994
 20
68.77169532194092
 30
0.0
 11
-4.569999999999994
 21
67.24836198860758
 31
0.0
 12
0.0000000000000042
 22
68.01002865527426
 32
0.0
 13
0.0000000000000042
 23
68.01002865527426
 33
0.0
  0
SOLID
  5
109A
330
1093
100
AcDbEntity
  8
2
440
 16777216
100
AcDbTrace
 10
16.67
 20
68.77169532194092
 30
0.0
 11
16.67
 21
67.24836198860758
 31
0.0
 12
12.1
 22
68.01002865527426
 32
0.0
 13
12.1
 23
68.01002865527426
 33
0.0
  0
MTEXT
  5
109B
330
1093
100
AcDbEntity
  8
2
440
 16777216
100
AcDbMText
 10
27.18285714285715
 20
71.81002865527425
 30
0.0
 40
3.0
 41
0.0
 71
     5
 72
     1
  1
\A1;12.1
  7
SANDVIK_STYLE
 73
     1
 44
1.0
  0
POINT
  5
109C
330
1093
100
AcDbEntity
  8
DEFPOINTS
 62
     0
440
 16777216
100
AcDbPoint
 10
0.0
 20
0.0
 30
0.0
  0
POINT
  5
109D
330
1093
100
AcDbEntity
  8
DEFPOINTS
 62
     0
440
 16777216
100
AcDbPoint
 10
12.1
 20
0.0
 30
0.0
  0
POINT
  5
109E
330
1093
100
AcDbEntity
  8
DEFPOINTS
 62
     0
440
 16777216
100
AcDbPoint
 10
12.1
 20
68.01002865527426
 30
0.0
  0
ENDBLK
  5
109F
330
1093
100
AcDbEntity
  8
0
100
AcDbBlockEnd
  0
BLOCK
  5
10A1
330
10A0
100
AcDbEntity
  8
0
100
AcDbBlockBegin
  2
*D22
 70
     1
 10
0.0
 20
0.0
 30
0.0
  3
*D22
  1

  0
LINE
  5
10A2
330
10A0
100
AcDbEntity
  8
2
440
 16777216
370
    -2
100
AcDbLine
 10
12.1
 20
1.652364248344006
 30
0.0
 11
12.1
 21
50.15236424834402
 31
0.0
  0
LINE
  5
10A3
330
10A0
100
AcDbEntity
  8
2
440
 16777216
370
    -2
100
AcDbLine
 10
4.165
 20
1.690790506212522
 30
0.0
 11
4.165
 21
50.15236424834402
 31
0.0
  0
LINE
  5
10A4
330
10A0
100
AcDbEntity
  8
2
440
 16777216
370
    -2
100
AcDbLine
 10
-0.4049999999999976
 20
45.15236424834401
 30
0.0
 11
-4.974999999999996
 21
45.15236424834401
 31
0.0
  0
LINE
  5
10A5
330
10A0
100
AcDbEntity
  8
2
440
 16777216
370
    -2
100
AcDbLine
 10
16.67
 20
45.15236424834401
 30
0.0
 11
35.12571428571428
 21
45.15236424834401
 31
0.0
  0
SOLID
  5
10A6
330
10A0
100
AcDbEntity
  8
2
440
 16777216
100
AcDbTrace
 10
-0.4049999999999976
 20
45.91403091501068
 30
0.0
 11
-0.4049999999999976
 21
44.39069758167734
 31
0.0
 12
4.165
 22
45.15236424834401
 32
0.0
 13
4.165
 23
45.15236424834401
 33
0.0
  0
SOLID
  5
10A7
330
10A0
100
AcDbEntity
  8
2
440
 16777216
100
AcDbTrace
 10
16.67
 20
45.91403091501068
 30
0.0
 11
16.67
 21
44.39069758167734
 31
0.0
 12
12.1
 22
45.15236424834401
 32
0.0
 13
12.1
 23
45.15236424834401
 33
0.0
  0
MTEXT
  5
10A8
330
10A0
100
AcDbEntity
  8
2
440
 16777216
100
AcDbMText
 10
28.18285714285714
 20
48.95236424834401
 30
0.0
 40
3.0
 41
0.0
 71
     5
 72
     1
  1
\A1;7.94
  7
SANDVIK_STYLE
 73
     1
 44
1.0
  0
POINT
  5
10A9
330
10A0
100
AcDbEntity
  8
DEFPOINTS
 62
     0
440
 16777216
100
AcDbPoint
 10
12.1
 20
1.652364248344006
 30
0.0
  0
POINT
  5
10AA
330
10A0
100
AcDbEntity
  8
DEFPOINTS
 62
     0
440
 16777216
100
AcDbPoint
 10
4.165
 20
1.690790506212522
 30
0.0
  0
POINT
  5
10AB
330
10A0
100
AcDbEntity
  8
DEFPOINTS
 62
     0
440
 16777216
100
AcDbPoint
 10
4.165
 20
45.15236424834401
 30
0.0
  0
ENDBLK
  5
10AC
330
10A0
100
AcDbEntity
  8
0
100
AcDbBlockEnd
  0
BLOCK
  5
10AE
330
10AD
100
AcDbEntity
  8
0
100
AcDbBlockBegin
  2
*D23
 70
     1
 10
0.0
 20
0.0
 30
0.0
  3
*D23
  1

  0
LINE
  5
10AF
330
10AD
100
AcDbEntity
  8
SK2
440
 16777216
370
    -2
100
AcDbLine
 10
-25.841
 20
1.587497999999999
 30
0.0
 11
-55.99999999998468
 21
1.587498000000007
 31
0.0
  0
LINE
  5
10B0
330
10AD
100
AcDbEntity
  8
SK2
440
 16777216
370
    -2
100
AcDbLine
 10
-25.841
 20
-1.592502000000002
 30
0.0
 11
-55.99999999998468
 21
-1.592501999999993
 31
0.0
  0
LINE
  5
10B1
330
10AD
100
AcDbEntity
  8
SK2
440
 16777216
370
    -2
100
AcDbLine
 10
-50.99999999998468
 20
6.157498000000004
 30
0.0
 11
-50.99999999998468
 21
10.727498
 31
0.0
  0
LINE
  5
10B2
330
10AD
100
AcDbEntity
  8
SK2
440
 16777216
370
    -2
100
AcDbLine
 10
-50.99999999998468
 20
-6.162501999999995
 30
0.0
 11
-50.99999999998468
 21
-26.61821628571428
 31
0.0
  0
SOLID
  5
10B3
330
10AD
100
AcDbEntity
  8
SK2
440
 16777216
100
AcDbTrace
 10
-51.76166666665135
 20
6.157498000000004
 30
0.0
 11
-50.23833333331801
 21
6.157498000000004
 31
0.0
 12
-50.99999999998468
 22
1.587498000000006
 32
0.0
 13
-50.99999999998468
 23
1.587498000000006
 33
0.0
  0
SOLID
  5
10B4
330
10AD
100
AcDbEntity
  8
SK2
440
 16777216
100
AcDbTrace
 10
-51.76166666665135
 20
-6.162501999999995
 30
0.0
 11
-50.23833333331801
 21
-6.162501999999995
 31
0.0
 12
-50.99999999998468
 22
-1.592501999999995
 32
0.0
 13
-50.99999999998468
 23
-1.592501999999995
 33
0.0
  0
MTEXT
  5
10B5
330
10AD
100
AcDbEntity
  8
SK2
440
 16777216
100
AcDbMText
 10
-54.79999999998469
 20
-18.67535914285714
 30
0.0
 40
3.0
 41
0.0
 71
     5
 72
     1
  1
\A1;%%c3.18
  7
SANDVIK_STYLE
 11
0.0000000000000001
 21
1.0
 31
0.0
 73
     1
 44
1.0
  0
POINT
  5
10B6
330
10AD
100
AcDbEntity
  8
DEFPOINTS
 62
     0
440
 16777216
100
AcDbPoint
 10
-25.841
 20
1.587497999999999
 30
0.0
  0
POINT
  5
10B7
330
10AD
100
AcDbEntity
  8
DEFPOINTS
 62
     0
440
 16777216
100
AcDbPoint
 10
-25.841
 20
-1.592502000000002
 30
0.0
  0
POINT
  5
10B8
330
10AD
100
AcDbEntity
  8
DEFPOINTS
 62
     0
440
 16777216
100
AcDbPoint
 10
-50.99999999998468
 20
-1.592501999999995
 30
0.0
  0
ENDBLK
  5
10B9
330
10AD
100
AcDbEntity
  8
0
100
AcDbBlockEnd
  0
BLOCK
  5
10BB
330
10BA
100
AcDbEntity
  8
0
100
AcDbBlockBegin
  2
*D24
 70
     1
 10
0.0
 20
0.0
 30
0.0
  3
*D24
  1

  0
LINE
  5
10BC
330
10BA
100
AcDbEntity
  8
SK2
440
 16777216
370
    -2
100
AcDbLine
 10
-26.0
 20
0.0
 30
0.0
 11
-26.0
 21
95.0
 31
0.0
  0
LINE
  5
10BD
330
10BA
100
AcDbEntity
  8
SK2
440
 16777216
370
    -2
100
AcDbLine
 10
12.1
 20
0.0
 30
0.0
 11
12.1
 21
95.0
 31
0.0
  0
LINE
  5
10BE
330
10BA
100
AcDbEntity
  8
SK2
440
 16777216
370
    -2
100
AcDbLine
 10
-21.42999999999999
 20
90.0
 30
0.0
 11
7.530000000000002
 21
90.0
 31
0.0
  0
SOLID
  5
10BF
330
10BA
100
AcDbEntity
  8
SK2
440
 16777216
100
AcDbTrace
 10
-21.42999999999999
 20
90.76166666666669
 30
0.0
 11
-21.42999999999999
 21
89.23833333333332
 31
0.0
 12
-26.0
 22
90.0
 32
0.0
 13
-26.0
 23
90.0
 33
0.0
  0
SOLID
  5
10C0
330
10BA
100
AcDbEntity
  8
SK2
440
 16777216
100
AcDbTrace
 10
7.530000000000002
 20
90.76166666666669
 30
0.0
 11
7.530000000000002
 21
89.23833333333332
 31
0.0
 12
12.1
 22
90.0
 32
0.0
 13
12.1
 23
90.0
 33
0.0
  0
MTEXT
  5
10C1
330
10BA
100
AcDbEntity
  8
SK2
440
 16777216
100
AcDbMText
 10
-6.949999999999991
 20
93.8
 30
0.0
 40
3.0
 41
0.0
 71
     5
 72
     1
  1
\A1;38.1
  7
SANDVIK_STYLE
 73
     1
 44
1.0
  0
POINT
  5
10C2
330
10BA
100
AcDbEntity
  8
DEFPOINTS
 62
     0
440
 16777216
100
AcDbPoint
 10
-26.0
 20
0.0
 30
0.0
  0
POINT
  5
10C3
330
10BA
100
AcDbEntity
  8
DEFPOINTS
 62
     0
440
 16777216
100
AcDbPoint
 10
12.1
 20
0.0
 30
0.0
  0
POINT
  5
10C4
330
10BA
100
AcDbEntity
  8
DEFPOINTS
 62
     0
440
 16777216
100
AcDbPoint
 10
12.1
 20
90.0
 30
0.0
  0
ENDBLK
  5
10C5
330
10BA
100
AcDbEntity
  8
0
100
AcDbBlockEnd
  0
BLOCK
  5
10C7
330
10C6
100
AcDbEntity
  8
0
100
AcDbBlockBegin
  2
*D25
 70
     1
 10
0.0
 20
0.0
 30
0.0
  3
*D25
  1

  0
LINE
  5
10C8
330
10C6
100
AcDbEntity
  8
2
440
 16777216
370
    -2
100
AcDbLine
 10
12.0152
 20
1.65694821576909
 30
0.0
 11
12.0152
 21
24.98817130491938
 31
0.0
  0
LINE
  5
10C9
330
10C6
100
AcDbEntity
  8
2
440
 16777216
370
    -2
100
AcDbLine
 10
12.1
 20
0.0
 30
0.0
 11
12.1
 21
24.98817130491938
 31
0.0
  0
LINE
  5
10CA
330
10C6
100
AcDbEntity
  8
2
440
 16777216
370
    -2
100
AcDbLine
 10
7.445200000000001
 20
19.98817130491937
 30
0.0
 11
2.875200000000001
 21
19.98817130491937
 31
0.0
  0
LINE
  5
10CB
330
10C6
100
AcDbEntity
  8
2
440
 16777216
370
    -2
100
AcDbLine
 10
16.67
 20
19.98817130491937
 30
0.0
 11
46.83999999999999
 21
19.98817130491937
 31
0.0
  0
SOLID
  5
10CC
330
10C6
100
AcDbEntity
  8
2
440
 16777216
100
AcDbTrace
 10
7.445200000000001
 20
20.74983797158604
 30
0.0
 11
7.445200000000001
 21
19.22650463825271
 31
0.0
 12
12.0152
 22
19.98817130491937
 32
0.0
 13
12.0152
 23
19.98817130491937
 33
0.0
  0
SOLID
  5
10CD
330
10C6
100
AcDbEntity
  8
2
440
 16777216
100
AcDbTrace
 10
16.67
 20
20.74983797158604
 30
0.0
 11
16.67
 21
19.22650463825271
 31
0.0
 12
12.1
 22
19.98817130491937
 32
0.0
 13
12.1
 23
19.98817130491937
 33
0.0
  0
MTEXT
  5
10CE
330
10C6
100
AcDbEntity
  8
2
440
 16777216
100
AcDbMText
 10
34.03999999999999
 20
23.78817130491937
 30
0.0
 40
3.0
 41
0.0
 71
     5
 72
     1
  1
\A1;0.081x45°
  7
SANDVIK_STYLE
 73
     1
 44
1.0
  0
POINT
  5
10CF
330
10C6
100
AcDbEntity
  8
DEFPOINTS
 62
     0
440
 16777216
100
AcDbPoint
 10
12.0152
 20
1.65694821576909
 30
0.0
  0
POINT
  5
10D0
330
10C6
100
AcDbEntity
  8
DEFPOINTS
 62
     0
440
 16777216
100
AcDbPoint
 10
12.1
 20
0.0
 30
0.0
  0
POINT
  5
10D1
330
10C6
100
AcDbEntity
  8
DEFPOINTS
 62
     0
440
 16777216
100
AcDbPoint
 10
12.1
 20
19.98817130491937
 30
0.0
  0
ENDBLK
  5
10D2
330
10C6
100
AcDbEntity
  8
0
100
AcDbBlockEnd
  0
BLOCK
  5
1165
330
10D4
100
AcDbEntity
  8
0
100
AcDbBlockBegin
  2
A$C7BEB41B1
 70
     0
 10
0.0
 20
0.0
 30
0.0
  3
A$C7BEB41B1
  1

  0
LINE
  5
10D5
330
10D4
100
AcDbEntity
  8
SK4
100
AcDbLine
 10
15.40313462659208
 20
-60.43802737875506
 30
0.0
 11
55.40313462659207
 21
-60.43802737875506
 31
0.0
  0
LINE
  5
10D6
330
10D4
100
AcDbEntity
  8
4
100
AcDbLine
 10
53.40313462659207
 20
-60.43802737875506
 30
0.0
 11
69.40313462659208
 21
-60.43802737875506
 31
0.0
  0
LINE
  5
10D7
330
10D4
100
AcDbEntity
  8
SK4
100
AcDbLine
 10
53.40313462659207
 20
-60.43802737875506
 30
0.0
 11
69.40313462659208
 21
-60.43802737875506
 31
0.0
  0
LINE
  5
10D8
330
10D4
100
AcDbEntity
  8
SK1
100
AcDbLine
 10
53.40313462659207
 20
-58.85052937875506
 30
0.0
 11
27.56213462659208
 21
-58.85052937875506
 31
0.0
  0
LINE
  5
10D9
330
10D4
100
AcDbEntity
  8
SK1
100
AcDbLine
 10
27.56213462659208
 20
-58.85052937875506
 30
0.0
 11
27.40313462659208
 21
-59.00952937875508
 31
0.0
  0
LINE
  5
10DA
330
10D4
100
AcDbEntity
  8
SK1
100
AcDbLine
 10
27.40313462659208
 20
-59.00952937875508
 30
0.0
 11
27.40313462659208
 21
-59.01095206935925
 31
0.0
  0
LINE
  5
10DB
330
10D4
100
AcDbEntity
  8
SK1
100
AcDbLine
 10
27.40313462659208
 20
-59.01095206935925
 30
0.0
 11
27.40313462659208
 21
-59.13792816087514
 31
0.0
  0
LINE
  5
10DC
330
10D4
100
AcDbEntity
  8
SK1
100
AcDbLine
 10
27.40313462659208
 20
-59.13792816087514
 30
0.0
 11
27.40313462659208
 21
-61.87152937875506
 31
0.0
  0
LINE
  5
10DD
330
10D4
100
AcDbEntity
  8
SK1
100
AcDbLine
 10
27.56213462659208
 20
-58.85052937875506
 30
0.0
 11
27.56213462659208
 21
-62.03052937565956
 31
0.0
  0
LINE
  5
10DE
330
10D4
100
AcDbEntity
  8
SK1
100
AcDbLine
 10
53.40313462659207
 20
-62.03052937875506
 30
0.0
 11
27.56213462659208
 21
-62.03052937875506
 31
0.0
  0
LINE
  5
10DF
330
10D4
100
AcDbEntity
  8
SK1
100
AcDbLine
 10
27.56213462659207
 20
-62.03052937875506
 30
0.0
 11
27.40313462659208
 21
-61.87152937875506
 31
0.0
  0
DIMENSION
  5
10E0
330
10D4
100
AcDbEntity
  8
2
100
AcDbDimension
  2
*D20
 10
79.66313462659207
 20
-62.02502737875508
 30
0.0
 11
75.8631346265921
 21
-79.10788452161219
 31
0.0
 12
53.40313462659207
 22
-60.43802737875506
 32
0.0
  1
%%c3.18
 71
     5
 42
3.173999999999995
  3
SANDVIK_DIM
100
AcDbAlignedDimension
 13
65.50313462659207
 23
-58.85102737875507
 33
0.0
 14
65.42147456326119
 24
-62.02502737875506
 34
0.0
 50
90.0
100
AcDbRotatedDimension
1001
ACAD
1000
DSTYLE
1002
{
1070
   279
1070
     0
1070
   140
1040
3.0
1070
    40
1040
1.0
1002
}
  0
DIMENSION
  5
10E1
330
10D4
100
AcDbEntity
  8
2
100
AcDbDimension
  2
*D21
 10
65.50313462659207
 20
7.572001276519187
 30
0.0
 11
80.58599176944921
 21
7.572001276519187
 31
0.0
 12
53.40313462659207
 22
-60.43802737875506
 32
0.0
 70
   128
  1
<>
 71
     5
 42
12.1
  3
SANDVIK_DIM
100
AcDbAlignedDimension
 13
53.40313462659207
 23
-60.43802737875506
 33
0.0
 14
65.50313462659207
 24
-60.43802737875506
 34
0.0
100
AcDbRotatedDimension
1001
ACAD
1000
DSTYLE
1002
{
1070
    40
1040
1.0
1070
   140
1040
3.0
1070
   279
1070
     0
1002
}
  0
DIMENSION
  5
10E2
330
10D4
100
AcDbEntity
  8
2
100
AcDbDimension
  2
*D22
 10
57.56813462659208
 20
-15.28566313041105
 30
0.0
 11
81.58599176944923
 21
-15.28566313041105
 31
0.0
 12
53.40313462659207
 22
-60.43802737875506
 32
0.0
 70
   128
  1
<>
 71
     5
 42
7.934999999999997
  3
SANDVIK_DIM
100
AcDbAlignedDimension
 13
65.50313462659207
 23
-58.78566313041106
 33
0.0
 14
57.56813462659208
 24
-58.74723687254254
 34
0.0
100
AcDbRotatedDimension
1001
ACAD
1000
DSTYLE
1002
{
1070
   279
1070
     0
1070
   140
1040
3.0
1070
    40
1040
1.0
1002
}
  0
DIMENSION
  5
10E3
330
10D4
100
AcDbEntity
  8
SK2
100
AcDbDimension
  2
*D23
 10
2.403134626607395
 20
-62.03052937875506
 30
0.0
 11
-1.396865373392607
 21
-79.11338652161219
 31
0.0
 12
53.40313462659207
 22
-60.43802737875506
 32
0.0
  1
%%c<>
 71
     5
 42
3.180000000000001
  3
SANDVIK_DIM
100
AcDbAlignedDimension
 13
27.56213462659208
 23
-58.85052937875506
 33
0.0
 14
27.56213462659208
 24
-62.03052937875508
 34
0.0
 50
90.00000000029229
100
AcDbRotatedDimension
1001
ACAD
1000
DSTYLE
1002
{
1070
   279
1070
     0
1070
   140
1040
3.0
1070
    40
1040
1.0
1002
}
  0
DIMENSION
  5
10E4
330
10D4
100
AcDbEntity
  8
SK2
100
AcDbDimension
  2
*D24
 10
65.50313462659207
 20
29.56197262124494
 30
0.0
 11
46.45313462659209
 21
33.36197262124493
 31
0.0
 12
53.40313462659207
 22
-60.43802737875506
 32
0.0
  1
<>
 71
     5
 42
38.1
  3
SANDVIK_DIM
100
AcDbAlignedDimension
 13
27.40313462659208
 23
-60.43802737875506
 33
0.0
 14
65.50313462659207
 24
-60.43802737875506
 34
0.0
100
AcDbRotatedDimension
1001
ACAD
1000
DSTYLE
1002
{
1070
   279
1070
     0
1070
   140
1040
3.0
1070
    40
1040
1.0
1002
}
  0
DIMENSION
  5
10E5
330
10D4
100
AcDbEntity
  8
2
100
AcDbDimension
  2
*D25
 10
65.50313462659207
 20
-40.44985607383567
 30
0.0
 11
87.44313462659206
 21
-36.64985607383569
 31
0.0
 12
53.40313462659207
 22
-60.43802737875506
 32
0.0
  1
0.081x45°
 71
     5
 42
0.0847999999999996
  3
SANDVIK_DIM
100
AcDbAlignedDimension
 13
65.41833462659207
 23
-58.78107916298597
 33
0.0
 14
65.50313462659207
 24
-60.43802737875506
 34
0.0
100
AcDbRotatedDimension
1001
ACAD
1000
DSTYLE
1002
{
1070
    40
1040
1.0
1070
   140
1040
3.0
1070
   279
1070
     0
1002
}
  0
LINE
  5
10E6
330
10D4
100
AcDbEntity
  8
1
100
AcDbLine
 10
54.28833462659207
 20
-58.85052937875506
 30
0.0
 11
53.40313462659207
 21
-58.85052937875506
 31
0.0
  0
LINE
  5
10E7
330
10D4
100
AcDbEntity
  8
1
100
AcDbLine
 10
54.28833462659207
 20
-58.85102737875507
 30
0.0
 11
56.51196798799206
 21
-58.85102737875507
 31
0.0
  0
LINE
  5
10E8
330
10D4
100
AcDbEntity
  8
1
100
AcDbLine
 10
54.28833462659207
 20
-62.03001156185557
 30
0.0
 11
53.40313462659207
 21
-62.03052937875506
 31
0.0
  0
LINE
  5
10E9
330
10D4
100
AcDbEntity
  8
1
100
AcDbLine
 10
54.28833462659207
 20
-62.03250365340585
 30
0.0
 11
57.57047312250449
 21
-62.03001156185557
 31
0.0
  0
LINE
  5
10EA
330
10D4
100
AcDbEntity
  8
1
100
AcDbLine
 10
56.51196798799206
 20
-59.84565017800449
 30
0.0
 11
57.57030131799208
 21
-60.38808639931636
 31
0.0
  0
LINE
  5
10EB
330
10D4
100
AcDbEntity
  8
1
100
AcDbLine
 10
57.57030131799208
 20
-60.40796015208889
 30
0.0
 11
56.51196798799206
 21
-60.07924379313021
 31
0.0
  0
ARC
  5
10EC
330
10D4
100
AcDbEntity
  8
1
100
AcDbCircle
 10
59.85051403224968
 20
-67.24201838796588
 30
0.0
 40
8.465354433384712
100
AcDbArc
 50
105.6262328438791
 51
109.8963727964559
  0
LINE
  5
10ED
330
10D4
100
AcDbEntity
  8
1
100
AcDbLine
 10
56.51196798799206
 20
-61.87185736911754
 30
0.0
 11
56.77657223003017
 21
-61.92614600382803
 31
0.0
  0
LINE
  5
10EE
330
10D4
100
AcDbEntity
  8
1
100
AcDbLine
 10
56.77657223003017
 20
-61.92614600382803
 30
0.0
 11
57.04115387145082
 21
-61.96898934902092
 31
0.0
  0
LINE
  5
10EF
330
10D4
100
AcDbEntity
  8
1
100
AcDbLine
 10
57.04115387145082
 20
-61.96898934902092
 30
0.0
 11
57.30572792158017
 21
-62.00005485953639
 31
0.0
  0
LINE
  5
10F0
330
10D4
100
AcDbEntity
  8
1
100
AcDbLine
 10
57.30572792158017
 20
-62.00005485953639
 30
0.0
 11
57.57030131799208
 21
-62.01910827308346
 31
0.0
  0
LINE
  5
10F1
330
10D4
100
AcDbEntity
  8
1
100
AcDbLine
 10
56.51196798799206
 20
-59.84565017800449
 30
0.0
 11
56.51196798799206
 21
-61.87185736911754
 31
0.0
  0
LINE
  5
10F2
330
10D4
100
AcDbEntity
  8
1
100
AcDbLine
 10
57.57030131799208
 20
-59.52001761547314
 30
0.0
 11
57.57030131799208
 21
-60.38808639931636
 31
0.0
  0
LINE
  5
10F3
330
10D4
100
AcDbEntity
  8
1
100
AcDbLine
 10
56.51196798799206
 20
-59.13085389991683
 30
0.0
 11
57.04115399052023
 21
-59.3080829469306
 31
0.0
  0
LINE
  5
10F4
330
10D4
100
AcDbEntity
  8
1
100
AcDbLine
 10
57.04115399052023
 20
-59.3080829469306
 30
0.0
 11
57.57030131799208
 21
-59.52001761547314
 31
0.0
  0
LINE
  5
10F5
330
10D4
100
AcDbEntity
  8
1
100
AcDbLine
 10
56.51196798799206
 20
-58.85102737875507
 30
0.0
 11
56.51196798799206
 21
-58.8510884378499
 31
0.0
  0
LINE
  5
10F6
330
10D4
100
AcDbEntity
  8
1
100
AcDbLine
 10
56.51196798799206
 20
-58.8510884378499
 30
0.0
 11
56.51196798799206
 21
-58.86947084332707
 31
0.0
  0
LINE
  5
10F7
330
10D4
100
AcDbEntity
  8
1
100
AcDbLine
 10
56.51196798799206
 20
-58.86947084332707
 30
0.0
 11
56.51196798799206
 21
-59.13085389991683
 31
0.0
  0
LINE
  5
10F8
330
10D4
100
AcDbEntity
  8
1
100
AcDbLine
 10
57.57030131799208
 20
-59.52001761547314
 30
0.0
 11
57.57030131799208
 21
-59.08962670304582
 31
0.0
  0
LINE
  5
10F9
330
10D4
100
AcDbEntity
  8
1
100
AcDbLine
 10
57.57030131799208
 20
-60.40796015208889
 30
0.0
 11
57.57030131799208
 21
-60.38808639931636
 31
0.0
  0
LINE
  5
10FA
330
10D4
100
AcDbEntity
  8
1
100
AcDbLine
 10
57.57030131799208
 20
-62.01910827308346
 30
0.0
 11
57.57030131799208
 21
-60.40796015208889
 31
0.0
  0
LINE
  5
10FB
330
10D4
100
AcDbEntity
  8
1
100
AcDbLine
 10
57.57030131799208
 20
-62.01910827308346
 30
0.0
 11
57.57030131799208
 21
-62.0260273669561
 31
0.0
  0
LINE
  5
10FC
330
10D4
100
AcDbEntity
  8
1
 62
     1
100
AcDbLine
 10
57.57030131799208
 20
-60.38808639931636
 30
0.0
 11
57.66613173077395
 21
-60.43852737375423
 31
0.0
  0
LINE
  5
10FD
330
10D4
100
AcDbEntity
  8
1
 62
     1
100
AcDbLine
 10
57.57030131799208
 20
-59.52001761547311
 30
0.0
 11
57.73926404176425
 21
-59.5939700372104
 31
0.0
  0
LINE
  5
10FE
330
10D4
100
AcDbEntity
  8
1
 62
     1
100
AcDbLine
 10
65.50780129299207
 20
-60.26611608908806
 30
0.0
 11
65.42313462659206
 21
-60.26859828788143
 31
0.0
  0
LINE
  5
10FF
330
10D4
100
AcDbEntity
  8
1
 62
     1
100
AcDbLine
 10
65.42313462659207
 20
-60.26859828788143
 30
0.0
 11
65.42313462659206
 21
-61.16874650887321
 31
0.0
  0
LINE
  5
1100
330
10D4
100
AcDbEntity
  8
1
 62
     1
100
AcDbLine
 10
65.50780129299207
 20
-61.16699040090503
 30
0.0
 11
65.42313462659206
 21
-61.16874650887321
 31
0.0
  0
LINE
  5
1101
330
10D4
100
AcDbEntity
  8
1
 62
     1
100
AcDbLine
 10
65.5078012929921
 20
-60.26611608908806
 30
0.0
 11
65.5078012929921
 21
-61.16699040090503
 31
0.0
  0
LINE
  5
1102
330
10D4
100
AcDbEntity
  8
1
 62
     1
100
AcDbLine
 10
65.5078012929921
 20
-58.93592543552919
 30
0.0
 11
65.42313462659207
 21
-58.85267942856374
 31
0.0
  0
LINE
  5
1103
330
10D4
100
AcDbEntity
  8
1
 62
     1
100
AcDbLine
 10
65.5078012929921
 20
-59.47664786389683
 30
0.0
 11
65.5078012929921
 21
-58.93592543552919
 31
0.0
  0
LINE
  5
1104
330
10D4
100
AcDbEntity
  8
1
 62
     1
100
AcDbLine
 10
65.42313462659207
 20
-60.26859828788143
 30
0.0
 11
64.05493268381929
 21
-59.59397092253553
 31
0.0
  0
LINE
  5
1105
330
10D4
100
AcDbEntity
  8
1
 62
     1
100
AcDbLine
 10
65.5078012929921
 20
-59.47664786389683
 30
0.0
 11
65.5078012929921
 21
-60.26611608908806
 31
0.0
  0
LINE
  5
1106
330
10D4
100
AcDbEntity
  8
1
 62
     1
100
AcDbLine
 10
65.50780129299221
 20
-59.47664786389683
 30
0.0
 11
65.14458423106948
 21
-59.48564916087296
 31
0.0
  0
LINE
  5
1107
330
10D4
100
AcDbEntity
  8
1
 62
     1
100
AcDbLine
 10
65.14458423106948
 20
-59.48564916087296
 30
0.0
 11
64.78136716914676
 21
-59.50845322717079
 31
0.0
  0
LINE
  5
1108
330
10D4
100
AcDbEntity
  8
1
 62
     1
100
AcDbLine
 10
64.78136716914676
 20
-59.50845322717079
 30
0.0
 11
64.41815010722402
 21
-59.54473613530037
 31
0.0
  0
LINE
  5
1109
330
10D4
100
AcDbEntity
  8
1
 62
     1
100
AcDbLine
 10
64.41815010722402
 20
-59.54473613530037
 30
0.0
 11
64.05493304530128
 21
-59.59397011159047
 31
0.0
  0
LINE
  5
110A
330
10D4
100
AcDbEntity
  8
1
 62
     1
100
AcDbLine
 10
65.5078012929921
 20
-61.81763160911619
 30
0.0
 11
65.42313462659207
 21
-61.89040824731507
 31
0.0
  0
LINE
  5
110B
330
10D4
100
AcDbEntity
  8
1
 62
     1
100
AcDbLine
 10
65.5078012929921
 20
-61.16699040090503
 30
0.0
 11
65.5078012929921
 21
-61.8176316091162
 31
0.0
  0
LINE
  5
110C
330
10D4
100
AcDbEntity
  8
1
 62
     1
100
AcDbLine
 10
57.57030131799208
 20
-62.01910827308346
 30
0.0
 11
57.57030131799208
 21
-60.40796015208889
 31
0.0
  0
ARC
  5
110D
330
10D4
100
AcDbEntity
  8
1
 62
     1
100
AcDbCircle
 10
57.85216362777164
 20
-56.28220495465583
 30
0.0
 40
5.743823142313337
100
AcDbArc
 50
267.1872377459691
 51
269.9967994595055
  0
LINE
  5
110E
330
10D4
100
AcDbEntity
  8
1
 62
     1
100
AcDbLine
 10
57.85184277802668
 20
-62.02602736769852
 30
0.0
 11
57.85194637446882
 21
-62.02602736863472
 31
0.0
  0
LINE
  5
110F
330
10D4
100
AcDbEntity
  8
1
 62
     1
100
AcDbLine
 10
57.57030131799208
 20
-60.40796015208889
 30
0.0
 11
57.57030131799208
 21
-60.38808639931636
 31
0.0
  0
LINE
  5
1110
330
10D4
100
AcDbEntity
  8
1
 62
     1
100
AcDbLine
 10
57.57030131799208
 20
-59.08962670304582
 30
0.0
 11
57.98899314496403
 21
-58.98676252076122
 31
0.0
  0
LINE
  5
1111
330
10D4
100
AcDbEntity
  8
1
 62
     1
100
AcDbLine
 10
57.98899314496403
 20
-58.98676252076122
 30
0.0
 11
58.40767802715792
 21
-58.9118419902576
 31
0.0
  0
LINE
  5
1112
330
10D4
100
AcDbEntity
  8
1
 62
     1
100
AcDbLine
 10
58.40767802715792
 20
-58.9118419902576
 30
0.0
 11
58.61702197672664
 21
-58.88533174495137
 31
0.0
  0
LINE
  5
1113
330
10D4
100
AcDbEntity
  8
1
 62
     1
100
AcDbLine
 10
58.61702197672664
 20
-58.88533174495137
 30
0.0
 11
58.82636946297864
 21
-58.86630411583428
 31
0.0
  0
LINE
  5
1114
330
10D4
100
AcDbEntity
  8
1
 62
     1
100
AcDbLine
 10
58.82636946297864
 20
-58.86630411583428
 30
0.0
 11
59.03571299270833
 21
-58.85485137618768
 31
0.0
  0
LINE
  5
1115
330
10D4
100
AcDbEntity
  8
1
 62
     1
100
AcDbLine
 10
59.03571299270833
 20
-58.85485137618768
 30
0.0
 11
59.24504903967086
 21
-58.85102737875507
 31
0.0
  0
LINE
  5
1116
330
10D4
100
AcDbEntity
  8
1
 62
     1
100
AcDbLine
 10
59.24504903967086
 20
-58.85102737875507
 30
0.0
 11
61.00978085729032
 21
-58.85102737875507
 31
0.0
  0
LINE
  5
1117
330
10D4
100
AcDbEntity
  8
1
 62
     1
100
AcDbLine
 10
65.42313462659207
 20
-61.16874650887321
 30
0.0
 11
63.9818007461149
 21
-60.43852737376544
 31
0.0
  0
LINE
  5
1118
330
10D4
100
AcDbEntity
  8
1
 62
     1
100
AcDbLine
 10
57.57030131799208
 20
-59.52001761547314
 30
0.0
 11
57.57030131799208
 21
-59.08962670304582
 31
0.0
  0
LINE
  5
1119
330
10D4
100
AcDbEntity
  8
1
 62
     1
100
AcDbLine
 10
57.57030131799208
 20
-62.01910827308346
 30
0.0
 11
57.57047312250449
 21
-62.03001156185557
 31
0.0
  0
LINE
  5
111A
330
10D4
100
AcDbEntity
  8
1
 62
     1
100
AcDbLine
 10
57.57030131799208
 20
-59.52001761547314
 30
0.0
 11
57.57030131799208
 21
-60.38808639931636
 31
0.0
  0
LINE
  5
111B
330
10D4
100
AcDbEntity
  8
1
 62
     1
100
AcDbLine
 10
64.16761490366309
 20
-62.02602736865206
 30
0.0
 11
64.48149981236048
 21
-62.01743368026853
 31
0.0
  0
LINE
  5
111C
330
10D4
100
AcDbEntity
  8
1
 62
     1
100
AcDbLine
 10
64.48149981236048
 20
-62.01743368026853
 30
0.0
 11
64.79537319528076
 21
-61.9917503126333
 31
0.0
  0
LINE
  5
111D
330
10D4
100
AcDbEntity
  8
1
 62
     1
100
AcDbLine
 10
64.79537319528076
 20
-61.9917503126333
 30
0.0
 11
65.10924715093465
 21
-61.94925597092559
 31
0.0
  0
LINE
  5
111E
330
10D4
100
AcDbEntity
  8
1
 62
     1
100
AcDbLine
 10
65.10924715093465
 20
-61.94925597092559
 30
0.0
 11
65.42313462659207
 21
-61.89040824731507
 31
0.0
  0
LINE
  5
111F
330
10D4
100
AcDbEntity
  8
1
 62
     1
100
AcDbLine
 10
62.40288352980694
 20
-62.02602736875507
 30
0.0
 11
64.16761490366309
 21
-62.02602736875507
 31
0.0
  0
LINE
  5
1120
330
10D4
100
AcDbEntity
  8
1
 62
     1
100
AcDbLine
 10
63.28524934490751
 20
-59.28194884595747
 30
0.0
 11
63.81971065303342
 21
-59.10834348555265
 31
0.0
  0
LINE
  5
1121
330
10D4
100
AcDbEntity
  8
1
 62
     1
100
AcDbLine
 10
63.81971065303342
 20
-59.10834348555265
 30
0.0
 11
64.08696073451007
 21
-59.03687373295563
 31
0.0
  0
LINE
  5
1122
330
10D4
100
AcDbEntity
  8
1
 62
     1
100
AcDbLine
 10
64.08696073451007
 20
-59.03687373295563
 30
0.0
 11
64.35418926721232
 21
-58.97641156053254
 31
0.0
  0
LINE
  5
1123
330
10D4
100
AcDbEntity
  8
1
 62
     1
100
AcDbLine
 10
64.35418926721232
 20
-58.97641156053254
 30
0.0
 11
64.62142215984531
 21
-58.92742051258693
 31
0.0
  0
LINE
  5
1124
330
10D4
100
AcDbEntity
  8
1
 62
     1
100
AcDbLine
 10
64.62142215984531
 20
-58.92742051258693
 30
0.0
 11
64.88867065483347
 21
-58.89028975311042
 31
0.0
  0
LINE
  5
1125
330
10D4
100
AcDbEntity
  8
1
 62
     1
100
AcDbLine
 10
64.88867065483347
 20
-58.89028975311042
 30
0.0
 11
65.15589561976414
 21
-58.86531313084393
 31
0.0
  0
LINE
  5
1126
330
10D4
100
AcDbEntity
  8
1
 62
     1
100
AcDbLine
 10
65.15589561976414
 20
-58.86531313084393
 30
0.0
 11
65.42313462659207
 21
-58.85267942856374
 31
0.0
  0
LINE
  5
1127
330
10D4
100
AcDbEntity
  8
1
 62
     1
100
AcDbLine
 10
64.05493268381929
 20
-59.59397092253553
 30
0.0
 11
63.67428664705538
 21
-59.43146255414543
 31
0.0
  0
LINE
  5
1128
330
10D4
100
AcDbEntity
  8
1
 62
     1
100
AcDbLine
 10
63.67428664705538
 20
-59.43146255414543
 30
0.0
 11
63.29363894815625
 21
-59.28497860817731
 31
0.0
  0
LINE
  5
1129
330
10D4
100
AcDbEntity
  8
1
 62
     1
100
AcDbLine
 10
63.29363894815625
 20
-59.28497860817731
 30
0.0
 11
62.91298888410873
 21
-59.15685059304138
 31
0.0
  0
LINE
  5
112A
330
10D4
100
AcDbEntity
  8
1
 62
     1
100
AcDbLine
 10
62.91298888410873
 20
-59.15685059304138
 30
0.0
 11
62.53233704920933
 21
-59.04911773258696
 31
0.0
  0
LINE
  5
112B
330
10D4
100
AcDbEntity
  8
1
 62
     1
100
AcDbLine
 10
62.53233704920933
 20
-59.04911773258696
 30
0.0
 11
62.1516873666565
 21
-58.96349546709172
 31
0.0
  0
LINE
  5
112C
330
10D4
100
AcDbEntity
  8
1
 62
     1
100
AcDbLine
 10
62.1516873666565
 20
-58.96349546709172
 30
0.0
 11
61.77104006304162
 21
-58.90134581109054
 31
0.0
  0
LINE
  5
112D
330
10D4
100
AcDbEntity
  8
1
 62
     1
100
AcDbLine
 10
61.77104006304162
 20
-58.90134581109054
 30
0.0
 11
61.39039430223874
 21
-58.86365734896415
 31
0.0
  0
LINE
  5
112E
330
10D4
100
AcDbEntity
  8
1
 62
     1
100
AcDbLine
 10
61.39039430223874
 20
-58.86365734896415
 30
0.0
 11
61.00978085729032
 21
-58.85102737875507
 31
0.0
  0
LINE
  5
112F
330
10D4
100
AcDbEntity
  8
1
 62
     1
100
AcDbLine
 10
57.73926404176425
 20
-59.5939700372104
 30
0.0
 11
60.95337224377928
 21
-61.20642140657462
 31
0.0
  0
LINE
  5
1130
330
10D4
100
AcDbEntity
  8
1
 62
     1
100
AcDbLine
 10
60.95337224377928
 20
-61.20642140657462
 30
0.0
 11
61.35515486572715
 21
-61.38419315062169
 31
0.0
  0
LINE
  5
1131
330
10D4
100
AcDbEntity
  8
1
 62
     1
100
AcDbLine
 10
61.35515486572715
 20
-61.38419315062169
 30
0.0
 11
61.7569376161339
 21
-61.54520126043642
 31
0.0
  0
LINE
  5
1132
330
10D4
100
AcDbEntity
  8
1
 62
     1
100
AcDbLine
 10
61.7569376161339
 20
-61.54520126043642
 30
0.0
 11
62.15872051805606
 21
-61.6865918504196
 31
0.0
  0
LINE
  5
1133
330
10D4
100
AcDbEntity
  8
1
 62
     1
100
AcDbLine
 10
62.15872051805606
 20
-61.6865918504196
 30
0.0
 11
62.56050295925771
 21
-61.80585937358711
 31
0.0
  0
LINE
  5
1134
330
10D4
100
AcDbEntity
  8
1
 62
     1
100
AcDbLine
 10
62.56050295925771
 20
-61.80585937358711
 30
0.0
 11
62.96228538999397
 21
-61.90088908582993
 31
0.0
  0
LINE
  5
1135
330
10D4
100
AcDbEntity
  8
1
 62
     1
100
AcDbLine
 10
62.96228538999397
 20
-61.90088908582993
 30
0.0
 11
63.36406812504353
 21
-61.9699963516113
 31
0.0
  0
LINE
  5
1136
330
10D4
100
AcDbEntity
  8
1
 62
     1
100
AcDbLine
 10
63.36406812504353
 20
-61.9699963516113
 30
0.0
 11
63.76585082355309
 21
-62.0119564831159
 31
0.0
  0
LINE
  5
1137
330
10D4
100
AcDbEntity
  8
1
 62
     1
100
AcDbLine
 10
63.76585082355309
 20
-62.0119564831159
 30
0.0
 11
64.16761490366309
 21
-62.02602736865206
 31
0.0
  0
LINE
  5
1138
330
10D4
100
AcDbEntity
  8
1
 62
     1
100
AcDbLine
 10
57.66613173077395
 20
-60.43852737375423
 30
0.0
 11
58.85032516032218
 21
-61.04603945188575
 31
0.0
  0
LINE
  5
1139
330
10D4
100
AcDbEntity
  8
1
 62
     1
100
AcDbLine
 10
58.85032516032218
 20
-61.04603945188575
 30
0.0
 11
59.44241025577422
 21
-61.32049331123814
 31
0.0
  0
LINE
  5
113A
330
10D4
100
AcDbEntity
  8
1
 62
     1
100
AcDbLine
 10
59.44241025577422
 20
-61.32049331123814
 30
0.0
 11
60.03451651492547
 21
-61.56106122324452
 31
0.0
  0
LINE
  5
113B
330
10D4
100
AcDbEntity
  8
1
 62
     1
100
AcDbLine
 10
60.03451651492547
 20
-61.56106122324452
 30
0.0
 11
60.33055651947995
 21
-61.66568100737276
 31
0.0
  0
LINE
  5
113C
330
10D4
100
AcDbEntity
  8
1
 62
     1
100
AcDbLine
 10
60.33055651947995
 20
-61.66568100737276
 30
0.0
 11
60.62661173792719
 21
-61.75848835129034
 31
0.0
  0
LINE
  5
113D
330
10D4
100
AcDbEntity
  8
1
 62
     1
100
AcDbLine
 10
60.62661173792719
 20
-61.75848835129034
 30
0.0
 11
60.92266623655825
 21
-61.83858051145561
 31
0.0
  0
LINE
  5
113E
330
10D4
100
AcDbEntity
  8
1
 62
     1
100
AcDbLine
 10
60.92266623655825
 20
-61.83858051145561
 30
0.0
 11
61.21870609791972
 21
-61.90518636153538
 31
0.0
  0
LINE
  5
113F
330
10D4
100
AcDbEntity
  8
1
 62
     1
100
AcDbLine
 10
61.21870609791972
 20
-61.90518636153538
 30
0.0
 11
61.51475121896284
 21
-61.95767101202847
 31
0.0
  0
LINE
  5
1140
330
10D4
100
AcDbEntity
  8
1
 62
     1
100
AcDbLine
 10
61.51475121896284
 20
-61.95767101202847
 30
0.0
 11
61.81081211419385
 21
-61.99552579741617
 31
0.0
  0
LINE
  5
1141
330
10D4
100
AcDbEntity
  8
1
 62
     1
100
AcDbLine
 10
61.81081211419385
 20
-61.99552579741617
 30
0.0
 11
62.10685663028025
 21
-62.01838214120087
 31
0.0
  0
LINE
  5
1142
330
10D4
100
AcDbEntity
  8
1
 62
     1
100
AcDbLine
 10
62.10685663028025
 20
-62.01838214120087
 30
0.0
 11
62.40288352980692
 21
-62.02602736875061
 31
0.0
  0
LINE
  5
1143
330
10D4
100
AcDbEntity
  8
1
 62
     1
100
AcDbLine
 10
57.66613173077356
 20
-60.43852737375506
 30
0.0
 11
57.57030131799208
 21
-60.40796015208889
 31
0.0
  0
LINE
  5
1144
330
10D4
100
AcDbEntity
  8
1
 62
     1
100
AcDbLine
 10
57.85194637446883
 20
-62.02602736863472
 30
0.0
 11
58.13638116361943
 21
-62.01896871022055
 31
0.0
  0
LINE
  5
1145
330
10D4
100
AcDbEntity
  8
1
 62
     1
100
AcDbLine
 10
58.13638116361943
 20
-62.01896871022055
 30
0.0
 11
58.42080539287739
 21
-61.99786245951884
 31
0.0
  0
LINE
  5
1146
330
10D4
100
AcDbEntity
  8
1
 62
     1
100
AcDbLine
 10
58.42080539287739
 20
-61.99786245951884
 30
0.0
 11
58.70524583618891
 21
-61.96289303707621
 31
0.0
  0
LINE
  5
1147
330
10D4
100
AcDbEntity
  8
1
 62
     1
100
AcDbLine
 10
58.70524583618891
 20
-61.96289303707621
 30
0.0
 11
58.98968557755854
 21
-61.91436796351824
 31
0.0
  0
LINE
  5
1148
330
10D4
100
AcDbEntity
  8
1
 62
     1
100
AcDbLine
 10
58.98968557755854
 20
-61.91436796351824
 30
0.0
 11
59.2741096047056
 21
-61.85272655847839
 31
0.0
  0
LINE
  5
1149
330
10D4
100
AcDbEntity
  8
1
 62
     1
100
AcDbLine
 10
59.2741096047056
 20
-61.85272655847839
 30
0.0
 11
59.55854524801574
 21
-61.77851164134857
 31
0.0
  0
LINE
  5
114A
330
10D4
100
AcDbEntity
  8
1
 62
     1
100
AcDbLine
 10
59.55854524801574
 20
-61.77851164134857
 30
0.0
 11
59.84298881458943
 21
-61.69237853409223
 31
0.0
  0
LINE
  5
114B
330
10D4
100
AcDbEntity
  8
1
 62
     1
100
AcDbLine
 10
59.84298881458943
 20
-61.69237853409223
 30
0.0
 11
60.1274137230769
 21
-61.5951050738755
 31
0.0
  0
LINE
  5
114C
330
10D4
100
AcDbEntity
  8
1
 62
     1
100
AcDbLine
 10
57.57047312250449
 20
-62.03001156185557
 30
0.0
 11
57.85194637446882
 21
-62.02602736875507
 31
0.0
  0
LINE
  5
114D
330
10D4
100
AcDbEntity
  8
1
 62
     1
100
AcDbLine
 10
63.9818007461149
 20
-60.43852737376544
 30
0.0
 11
62.79760250461468
 21
-59.8310127277019
 31
0.0
  0
LINE
  5
114E
330
10D4
100
AcDbEntity
  8
1
 62
     1
100
AcDbLine
 10
62.79760250461468
 20
-59.8310127277019
 30
0.0
 11
62.20551882989746
 21
-59.55656021520084
 31
0.0
  0
LINE
  5
114F
330
10D4
100
AcDbEntity
  8
1
 62
     1
100
AcDbLine
 10
62.20551882989746
 20
-59.55656021520084
 30
0.0
 11
61.6134101574131
 21
-59.31599113799839
 31
0.0
  0
LINE
  5
1150
330
10D4
100
AcDbEntity
  8
1
 62
     1
100
AcDbLine
 10
61.6134101574131
 20
-59.31599113799839
 30
0.0
 11
61.31737096778996
 21
-59.21137233515255
 31
0.0
  0
LINE
  5
1151
330
10D4
100
AcDbEntity
  8
1
 62
     1
100
AcDbLine
 10
61.31737096778996
 20
-59.21137233515255
 30
0.0
 11
61.02132147865862
 21
-59.11856672245271
 31
0.0
  0
LINE
  5
1152
330
10D4
100
AcDbEntity
  8
1
 62
     1
100
AcDbLine
 10
61.02132147865862
 20
-59.11856672245271
 30
0.0
 11
60.72526234485392
 21
-59.03847289083556
 31
0.0
  0
LINE
  5
1153
330
10D4
100
AcDbEntity
  8
1
 62
     1
100
AcDbLine
 10
60.72526234485392
 20
-59.03847289083556
 30
0.0
 11
60.429220922544
 21
-58.97186735600104
 31
0.0
  0
LINE
  5
1154
330
10D4
100
AcDbEntity
  8
1
 62
     1
100
AcDbLine
 10
60.429220922544
 20
-58.97186735600104
 30
0.0
 11
60.13317912003909
 21
-58.91938381621596
 31
0.0
  0
LINE
  5
1155
330
10D4
100
AcDbEntity
  8
1
 62
     1
100
AcDbLine
 10
60.13317912003909
 20
-58.91938381621596
 30
0.0
 11
59.83711965952229
 21
-58.88152851336577
 31
0.0
  0
LINE
  5
1156
330
10D4
100
AcDbEntity
  8
1
 62
     1
100
AcDbLine
 10
59.83711965952229
 20
-58.88152851336577
 30
0.0
 11
59.54107111314325
 21
-58.85867213201396
 31
0.0
  0
LINE
  5
1157
330
10D4
100
AcDbEntity
  8
1
 62
     1
100
AcDbLine
 10
59.54107111314325
 20
-58.85867213201396
 30
0.0
 11
59.24504903967086
 21
-58.85102737875507
 31
0.0
  0
LINE
  5
1158
330
10D4
100
AcDbEntity
  8
1
 62
     1
100
AcDbLine
 10
63.98180074612032
 20
-60.43852737375506
 30
0.0
 11
62.42116657041428
 21
-59.96257511215976
 31
0.0
  0
LINE
  5
1159
330
10D4
100
AcDbEntity
  8
1
 62
     1
100
AcDbLine
 10
62.42116657041428
 20
-59.96257511215976
 30
0.0
 11
61.64084948256128
 21
-59.7644876593153
 31
0.0
  0
LINE
  5
115A
330
10D4
100
AcDbEntity
  8
1
 62
     1
100
AcDbLine
 10
61.64084948256128
 20
-59.7644876593153
 30
0.0
 11
60.86053239470825
 21
-59.61128344234524
 31
0.0
  0
LINE
  5
115B
330
10D4
100
AcDbEntity
  8
1
 62
     1
100
AcDbLine
 10
60.86053239470825
 20
-59.61128344234524
 30
0.0
 11
60.47037385078176
 21
-59.55483711160232
 31
0.0
  0
LINE
  5
115C
330
10D4
100
AcDbEntity
  8
1
 62
     1
100
AcDbLine
 10
60.47037385078176
 20
-59.55483711160232
 30
0.0
 11
60.08021530685525
 21
-59.51316326918469
 31
0.0
  0
LINE
  5
115D
330
10D4
100
AcDbEntity
  8
1
 62
     1
100
AcDbLine
 10
60.08021530685525
 20
-59.51316326918469
 30
0.0
 11
59.69005676292874
 21
-59.4869588664646
 31
0.0
  0
LINE
  5
115E
330
10D4
100
AcDbEntity
  8
1
 62
     1
100
AcDbLine
 10
59.69005676292874
 20
-59.4869588664646
 30
0.0
 11
59.29989821900223
 21
-59.4766618010701
 31
0.0
  0
LINE
  5
115F
330
10D4
100
AcDbEntity
  8
1
 62
     1
100
AcDbLine
 10
59.29989821900223
 20
-59.4766618010701
 30
0.0
 11
58.90973967507571
 21
-59.48244395199506
 31
0.0
  0
LINE
  5
1160
330
10D4
100
AcDbEntity
  8
1
 62
     1
100
AcDbLine
 10
58.90973967507571
 20
-59.48244395199506
 30
0.0
 11
58.51958113114921
 21
-59.50420863445518
 31
0.0
  0
LINE
  5
1161
330
10D4
100
AcDbEntity
  8
1
 62
     1
100
AcDbLine
 10
58.51958113114921
 20
-59.50420863445518
 30
0.0
 11
58.12942258722269
 21
-59.54159222156991
 31
0.0
  0
LINE
  5
1162
330
10D4
100
AcDbEntity
  8
1
 62
     1
100
AcDbLine
 10
58.12942258722269
 20
-59.54159222156991
 30
0.0
 11
57.73926404329618
 21
-59.5939700337737
 31
0.0
  0
ENDBLK
  5
1166
330
10D4
100
AcDbEntity
  8
0
100
AcDbBlockEnd
  0
ENDSEC
  0
SECTION
  2
ENTITIES
  0
LINE
  5
3C2
330
18
100
AcDbEntity
  8
SK4
100
AcDbLine
 10
-60.24849357829828
 20
0.0
 30
0.0
 11
0.0
 21
-0.0000000000000044
 31
0.0
  0
LINE
  5
3C4
330
18
100
AcDbEntity
  8
4
100
AcDbLine
 10
0.0
 20
0.0000000000000027
 30
0.0
 11
47.42906604153495
 21
0.0000000000000027
 31
0.0
  0
LINE
  5
431
330
18
100
AcDbEntity
  8
SK1
100
AcDbLine
 10
0.0
 20
6.350682023255257
 30
0.0
 11
-44.65879895267574
 21
6.350682023255257
 31
0.0
  0
LINE
  5
432
330
18
100
AcDbEntity
  8
SK1
100
AcDbLine
 10
-44.65879895267574
 20
6.352674864873135
 30
0.0
 11
-45.29506766199999
 21
5.716406155548884
 31
0.0
  0
LINE
  5
433
330
18
100
AcDbEntity
  8
SK1
100
AcDbLine
 10
-45.29506766199999
 20
5.716406155548884
 30
0.0
 11
-45.29506766199999
 21
5.710712988791064
 31
0.0
  0
LINE
  5
434
330
18
100
AcDbEntity
  8
SK1
100
AcDbLine
 10
-45.29506766199999
 20
5.710712988791064
 30
0.0
 11
-45.29506766199999
 21
5.202594033672456
 31
0.0
  0
LINE
  5
435
330
18
100
AcDbEntity
  8
SK1
100
AcDbLine
 10
-45.29506766199999
 20
5.202594033672456
 30
0.0
 11
-45.29506766199999
 21
-5.736430612287601
 31
0.0
  0
LINE
  5
436
330
18
100
AcDbEntity
  8
SK1
100
AcDbLine
 10
-44.65879895267574
 20
6.352674864873135
 30
0.0
 11
-44.65879895267574
 21
-6.348689181637407
 31
0.0
  0
LINE
  5
437
330
18
100
AcDbEntity
  8
SK1
100
AcDbLine
 10
0.0
 20
-6.350682023255237
 30
0.0
 11
-44.65879895267574
 21
-6.34868918163738
 31
0.0
  0
LINE
  5
438
330
18
100
AcDbEntity
  8
SK1
100
AcDbLine
 10
-44.65879895267574
 20
-6.348689181637407
 30
0.0
 11
-45.29506766199999
 21
-5.736430612287601
 31
0.0
  0
DIMENSION
  5
447
330
18
100
AcDbEntity
  8
2
100
AcDbDimension
  2
*D1
 10
43.60493233800002
 20
70.4786887341952
 30
0.0
 11
21.80246616900001
 21
74.27868873419519
 31
0.0
 70
    32
  1
<>
 71
     5
 42
43.60493233800001
  3
SANDVIK_DIM
100
AcDbAlignedDimension
 13
0.0
 23
0.0
 33
0.0
 14
43.60493233800001
 24
0.0000000000000027
 34
0.0
100
AcDbRotatedDimension
1001
ACAD
1000
DSTYLE
1002
{
1070
    40
1040
1.0
1070
   140
1040
3.0
1070
   279
1070
     0
1002
}
  0
DIMENSION
  5
454
330
18
100
AcDbEntity
  8
2
100
AcDbDimension
  2
*D2
 10
13.43693307887501
 20
45.15236424834401
 30
0.0
 11
28.78743270843751
 21
45.15236424834401
 31
0.0
 70
   160
  1
30.163
 71
     5
 42
30.16799925912502
  3
SANDVIK_DIM
100
AcDbAlignedDimension
 13
43.60493233800001
 23
0.0000000000000015
 33
0.0
 14
13.43693307887501
 24
6.352881777238785
 34
0.0
100
AcDbRotatedDimension
1001
ACAD
1000
DSTYLE
1002
{
1070
   279
1070
     0
1070
   140
1040
3.0
1070
    40
1040
1.0
1002
}
  0
DIMENSION
  5
462
330
18
100
AcDbEntity
  8
SK2
100
AcDbDimension
  2
*D3
 10
-78.52213772743008
 20
-6.348689181637397
 30
0.0
 11
-82.32213772743007
 21
-23.43154632449456
 31
0.0
 70
    32
  1
%%c<>
 71
     5
 42
12.70136404651054
  3
SANDVIK_DIM
100
AcDbAlignedDimension
 13
-44.65879895267574
 23
6.352674864873135
 33
0.0
 14
-44.65879895267574
 24
-6.348689181637407
 34
0.0
 50
90.00000000029237
100
AcDbRotatedDimension
1001
ACAD
1000
DSTYLE
1002
{
1070
   279
1070
     0
1070
   140
1040
3.0
1070
    40
1040
1.0
1002
}
  0
DIMENSION
  5
470
330
18
100
AcDbEntity
  8
SK2
100
AcDbDimension
  2
*D4
 10
43.60493233800002
 20
90.0
 30
0.0
 11
-0.8450676619999802
 21
93.8
 31
0.0
 70
    32
  1
<>
 71
     5
 42
88.9
  3
SANDVIK_DIM
100
AcDbAlignedDimension
 13
-45.29506766199999
 23
-0.2669182893075721
 33
0.0
 14
43.60493233800001
 24
0.0000000000000027
 34
0.0
100
AcDbRotatedDimension
1001
ACAD
1000
DSTYLE
1002
{
1070
   279
1070
     0
1070
   140
1040
3.0
1070
    40
1040
1.0
1002
}
  0
LINE
  5
732
330
18
100
AcDbEntity
  8
1
100
AcDbLine
 10
0.2904698396227286
 20
-6.350682023255237
 30
0.0
 11
0.0
 21
-6.350682023255237
 31
0.0
  0
LINE
  5
746
330
18
100
AcDbEntity
  8
1
100
AcDbLine
 10
0.2904698396227286
 20
-6.350682023255237
 30
0.0
 11
1.047980690083172
 21
-6.350682023255237
 31
0.0
  0
LINE
  5
F1C
330
18
100
AcDbEntity
  8
1
 62
     1
100
AcDbLine
 10
15.02993305237501
 20
6.352881777238789
 30
0.0
 11
13.96992028569611
 21
6.351529189416964
 31
0.0
  0
LINE
  5
F1D
330
18
100
AcDbEntity
  8
1
100
AcDbLine
 10
13.43689787257449
 20
-6.353948860300917
 30
0.0
 11
13.43693307887501
 21
2.77262813080945
 31
0.0
  0
LINE
  5
F1E
330
18
100
AcDbEntity
  8
1
 62
     1
100
AcDbLine
 10
13.43689787257449
 20
-6.353948860300917
 30
0.0
 11
13.43693307887501
 21
2.77262813080945
 31
0.0
  0
DIMENSION
  5
F1F
330
18
100
AcDbEntity
  8
2
100
AcDbDimension
  2
*D17
 10
63.7564252519872
 20
-6.349402858307247
 30
0.0
 11
59.95642525198721
 21
-23.43226000116438
 31
0.0
 70
    32
  1
%%c<>
 71
     5
 42
12.7000848815625
  3
SANDVIK_DIM
100
AcDbAlignedDimension
 13
43.35093234434999
 23
6.350682023255257
 33
0.0
 14
43.26622845846761
 24
-6.349402858307242
 34
0.0
 50
90.00000000000019
100
AcDbRotatedDimension
1001
ACAD
1000
DSTYLE
1002
{
1070
   279
1070
     0
1070
   140
1040
3.0
1070
    40
1040
1.0
1002
}
  0
DIMENSION
  5
F20
330
18
100
AcDbEntity
  8
2
100
AcDbDimension
  2
*D18
 10
43.60493233800001
 20
22.19783769952245
 30
0.0
 11
65.8306466237143
 21
25.99783769952245
 31
0.0
 70
    32
  1
0.203x45°
 71
     5
 42
0.2539999936500195
  3
SANDVIK_DIM
100
AcDbAlignedDimension
 13
43.35093234434999
 23
6.350682023255257
 33
0.0
 14
43.60493233800001
 24
6.00575258330586
 34
0.0
100
AcDbRotatedDimension
1001
ACAD
1000
DSTYLE
1002
{
1070
   279
1070
     0
1070
   140
1040
3.0
1070
    40
1040
1.0
1002
}
  0
LINE
  5
F21
330
18
100
AcDbEntity
  8
1
100
AcDbLine
 10
1.04798069008317
 20
-6.350682023255237
 30
0.0
 11
13.43689787257449
 21
-6.356011817756622
 31
0.0
  0
LINE
  5
F22
330
18
100
AcDbEntity
  8
1
 62
     1
100
AcDbLine
 10
15.02993305237501
 20
2.77262813080945
 30
0.0
 11
13.96993307887501
 21
2.994152326987403
 31
0.0
  0
LINE
  5
F23
330
18
100
AcDbEntity
  8
1
 62
     1
100
AcDbLine
 10
13.96993307887501
 20
2.994152326987403
 30
0.0
 11
13.43693307887501
 21
3.10554138313331
 31
0.0
  0
ARC
  5
F24
330
18
100
AcDbEntity
  8
1
100
AcDbCircle
 10
13.23490010868627
 20
3.439898746728216
 30
0.0
 40
9.795930483947202
100
AcDbArc
 50
269.8844543332806
 51
271.1815559244381
  0
ARC
  5
F25
330
18
100
AcDbEntity
  8
1
 62
     1
100
AcDbCircle
 10
14.20752381285694
 20
27.70972509580092
 30
0.0
 40
34.06677137851839
100
AcDbArc
 50
269.227362733763
 51
271.3833173697213
  0
ARC
  5
F26
330
18
100
AcDbEntity
  8
1
 62
     1
100
AcDbCircle
 10
2.756784179301753
 20
-28.95017165726742
 30
0.0
 40
35.69954883666929
100
AcDbArc
 50
69.8920772656942
 51
71.69364403686278
  0
ARC
  5
F27
330
18
100
AcDbEntity
  8
1
 62
     1
100
AcDbCircle
 10
2.756784179307278
 20
-28.95017165725169
 30
0.0
 40
35.69954883665262
100
AcDbArc
 50
71.69364403686336
 51
72.59238495037219
  0
LINE
  5
F28
330
18
100
AcDbEntity
  8
1
100
AcDbLine
 10
9.153719412216855
 20
6.345383664708491
 30
0.0
 11
9.153719412216851
 21
-6.356011817756622
 31
0.0
  0
LINE
  5
F29
330
18
100
AcDbEntity
  8
1
 62
     1
100
AcDbLine
 10
13.96993307887501
 20
6.352881777238778
 30
0.0
 11
13.43694941686307
 21
6.352052002699863
 31
0.0
  0
LINE
  5
F2A
330
18
100
AcDbEntity
  8
1
100
AcDbLine
 10
13.43693307887501
 20
6.352509275245266
 30
0.0
 11
13.43693307887501
 21
6.238107059617376
 31
0.0
  0
LINE
  5
F2B
330
18
100
AcDbEntity
  8
1
100
AcDbLine
 10
13.43693307887501
 20
6.238107059617376
 30
0.0
 11
13.436933078875
 21
4.573419503939589
 31
0.0
  0
LINE
  5
F2C
330
18
100
AcDbEntity
  8
1
100
AcDbLine
 10
13.43693307887501
 20
2.77262813080945
 30
0.0
 11
13.43693307887501
 21
4.573419503939589
 31
0.0
  0
LINE
  5
F2D
330
18
100
AcDbEntity
  8
1
 62
     1
100
AcDbLine
 10
13.43693307887501
 20
6.352509275245266
 30
0.0
 11
13.43693307887501
 21
6.238107059617376
 31
0.0
  0
LINE
  5
F2E
330
18
100
AcDbEntity
  8
1
 62
     1
100
AcDbLine
 10
13.43693307887501
 20
6.238107059617376
 30
0.0
 11
13.436933078875
 21
4.573419503939589
 31
0.0
  0
LINE
  5
F2F
330
18
100
AcDbEntity
  8
1
 62
     1
100
AcDbLine
 10
15.02993305237501
 20
4.573419503939589
 30
0.0
 11
17.45281531685435
 21
3.601986382496062
 31
0.0
  0
LINE
  5
F30
330
18
100
AcDbEntity
  8
1
 62
     1
100
AcDbLine
 10
17.45281531685435
 20
3.601986382496062
 30
0.0
 11
19.87570301528015
 21
2.485821750416874
 31
0.0
  0
LINE
  5
F31
330
18
100
AcDbEntity
  8
1
 62
     1
100
AcDbLine
 10
19.87570301528015
 20
2.485821750416874
 30
0.0
 11
24.72142602335748
 21
0.0028819359884542
 31
0.0
  0
LINE
  5
F32
330
18
100
AcDbEntity
  8
1
 62
     1
100
AcDbLine
 10
43.35093234435
 20
-4.270351922755138
 30
0.0
 11
43.35093234434999
 21
-6.344918151277651
 31
0.0
  0
LINE
  5
F33
330
18
100
AcDbEntity
  8
1
 62
     1
100
AcDbLine
 10
43.60493233800001
 20
6.098797306753254
 30
0.0
 11
43.35093234435
 21
6.350682023255257
 31
0.0
  0
LINE
  5
F34
330
18
100
AcDbEntity
  8
1
 62
     1
100
AcDbLine
 10
43.60493233800001
 20
3.850932625086042
 30
0.0
 11
43.60493233800001
 21
6.098797306753254
 31
0.0
  0
LINE
  5
F35
330
18
100
AcDbEntity
  8
1
 62
     1
100
AcDbLine
 10
43.60493233800001
 20
-3.804606079602038
 30
0.0
 11
43.60493233800001
 21
3.850932625086042
 31
0.0
  0
LINE
  5
F36
330
18
100
AcDbEntity
  8
1
 62
     1
100
AcDbLine
 10
43.60493233800001
 20
-3.804606079602038
 30
0.0
 11
43.60493233800001
 21
-6.093033434775646
 31
0.0
  0
LINE
  5
F37
330
18
100
AcDbEntity
  8
1
 62
     1
100
AcDbLine
 10
43.60493233800001
 20
-6.093033434775646
 30
0.0
 11
43.35093234435
 21
-6.344918151277668
 31
0.0
  0
LINE
  5
F38
330
18
100
AcDbEntity
  8
1
 62
     1
100
AcDbLine
 10
15.02993305237501
 20
6.352881777238789
 30
0.0
 11
15.49972246666341
 21
6.352881777238789
 31
0.0
  0
LINE
  5
F39
330
18
100
AcDbEntity
  8
1
 62
     1
100
AcDbLine
 10
43.35093234435
 20
-4.270351922755152
 30
0.0
 11
40.54166760044457
 21
-3.07093943880406
 31
0.0
  0
LINE
  5
F3A
330
18
100
AcDbEntity
  8
1
 62
     1
100
AcDbLine
 10
40.54166760044457
 20
-3.07093943880406
 30
0.0
 11
37.73242147100643
 21
-1.705528566772898
 31
0.0
  0
LINE
  5
F3B
330
18
100
AcDbEntity
  8
1
 62
     1
100
AcDbLine
 10
37.73242147100643
 20
-1.705528566772898
 30
0.0
 11
32.11399214488396
 21
1.223315807586159
 31
0.0
  0
LINE
  5
F3C
330
18
100
AcDbEntity
  8
1
 62
     1
100
AcDbLine
 10
32.11399214488396
 20
1.223315807586159
 30
0.0
 11
29.30473645860486
 21
2.628624016912522
 31
0.0
  0
LINE
  5
F3D
330
18
100
AcDbEntity
  8
1
 62
     1
100
AcDbLine
 10
29.30473645860486
 20
2.628624016912522
 30
0.0
 11
26.49550002489647
 21
3.892144509516653
 31
0.0
  0
LINE
  5
F3E
330
18
100
AcDbEntity
  8
1
 62
     1
100
AcDbLine
 10
26.49550002489647
 20
3.892144509516653
 30
0.0
 11
25.09087844617433
 21
4.449011841459038
 31
0.0
  0
LINE
  5
F3F
330
18
100
AcDbEntity
  8
1
 62
     1
100
AcDbLine
 10
25.09087844617433
 20
4.449011841459038
 30
0.0
 11
23.68624481181914
 21
4.945658261263231
 31
0.0
  0
LINE
  5
F40
330
18
100
AcDbEntity
  8
1
 62
     1
100
AcDbLine
 10
23.68624481181914
 20
4.945658261263231
 30
0.0
 11
22.2816170607102
 21
5.375352075008335
 31
0.0
  0
LINE
  5
F41
330
18
100
AcDbEntity
  8
1
 62
     1
100
AcDbLine
 10
22.2816170607102
 20
5.375352075008335
 30
0.0
 11
20.87700838530623
 21
5.732270076079427
 31
0.0
  0
LINE
  5
F42
330
18
100
AcDbEntity
  8
1
 62
     1
100
AcDbLine
 10
20.87700838530623
 20
5.732270076079427
 30
0.0
 11
20.87692044292312
 21
5.732290037910882
 31
0.0
  0
LINE
  5
F43
330
18
100
AcDbEntity
  8
1
 62
     1
100
AcDbLine
 10
43.60493233800001
 20
-3.804606079602038
 30
0.0
 11
43.35093234435
 21
-4.270351922755138
 31
0.0
  0
ARC
  5
F44
330
18
100
AcDbEntity
  8
1
 62
     1
100
AcDbCircle
 10
43.6740232040926
 20
-34.30535765823917
 30
0.0
 40
38.1563653565456
100
AcDbArc
 50
90.1037472635358
 51
94.31028467849669
  0
LINE
  5
F45
330
18
100
AcDbEntity
  8
1
 62
     1
100
AcDbLine
 10
13.43693307887501
 20
2.77262813080945
 30
0.0
 11
13.43693307887501
 21
4.573419503939589
 31
0.0
  0
LINE
  5
F46
330
18
100
AcDbEntity
  8
1
 62
     1
100
AcDbLine
 10
24.72142602335748
 20
0.0028819359884542
 30
0.0
 11
29.37880572623209
 21
-2.388501136688121
 31
0.0
  0
LINE
  5
F47
330
18
100
AcDbEntity
  8
1
 62
     1
100
AcDbLine
 10
29.37880572623209
 20
-2.388501136688121
 30
0.0
 11
31.70749866332939
 21
-3.472704647439513
 31
0.0
  0
LINE
  5
F48
330
18
100
AcDbEntity
  8
1
 62
     1
100
AcDbLine
 10
31.70749866332939
 20
-3.472704647439513
 30
0.0
 11
34.03619332762665
 21
-4.427768255975846
 31
0.0
  0
LINE
  5
F49
330
18
100
AcDbEntity
  8
1
 62
     1
100
AcDbLine
 10
34.03619332762665
 20
-4.427768255975846
 30
0.0
 11
36.36488922458917
 21
-5.218204959862646
 31
0.0
  0
LINE
  5
F4A
330
18
100
AcDbEntity
  8
1
 62
     1
100
AcDbLine
 10
36.36488922458917
 20
-5.218204959862646
 30
0.0
 11
37.52923746658985
 21
-5.542239545825508
 31
0.0
  0
LINE
  5
F4B
330
18
100
AcDbEntity
  8
1
 62
     1
100
AcDbLine
 10
37.52923746658985
 20
-5.542239545825508
 30
0.0
 11
38.69358590236544
 21
-5.814644608760076
 31
0.0
  0
LINE
  5
F4C
330
18
100
AcDbEntity
  8
1
 62
     1
100
AcDbLine
 10
38.69358590236544
 20
-5.814644608760076
 30
0.0
 11
39.85793435419147
 21
-6.032883902190647
 31
0.0
  0
LINE
  5
F4D
330
18
100
AcDbEntity
  8
1
 62
     1
100
AcDbLine
 10
39.85793435419147
 20
-6.032883902190647
 30
0.0
 11
41.02226044993646
 21
-6.194924314113394
 31
0.0
  0
LINE
  5
F4E
330
18
100
AcDbEntity
  8
1
 62
     1
100
AcDbLine
 10
41.02226044993646
 20
-6.194924314113394
 30
0.0
 11
42.1866039937626
 21
-6.299259901637697
 31
0.0
  0
LINE
  5
F4F
330
18
100
AcDbEntity
  8
1
 62
     1
100
AcDbLine
 10
42.1866039937626
 20
-6.299259901637697
 30
0.0
 11
43.35093234435
 21
-6.344918151277668
 31
0.0
  0
LINE
  5
F50
330
18
100
AcDbEntity
  8
1
 62
     1
100
AcDbLine
 10
24.72142602335767
 20
0.0028819359887953
 30
0.0
 11
19.87567953786633
 21
1.507550358997675
 31
0.0
  0
LINE
  5
F51
330
18
100
AcDbEntity
  8
1
 62
     1
100
AcDbLine
 10
19.87567953786633
 20
1.507550358997675
 30
0.0
 11
15.02993305237501
 21
2.77262813080945
 31
0.0
  0
LINE
  5
F52
330
18
100
AcDbEntity
  8
1
 62
     1
100
AcDbLine
 10
20.87692229416022
 20
-5.726525986143754
 30
0.0
 11
26.64652326270709
 21
-4.543040824724839
 31
0.0
  0
LINE
  5
F53
330
18
100
AcDbEntity
  8
1
 62
     1
100
AcDbLine
 10
26.64652326270709
 20
-4.543040824724839
 30
0.0
 11
29.53135688137209
 21
-4.094987196587369
 31
0.0
  0
LINE
  5
F54
330
18
100
AcDbEntity
  8
1
 62
     1
100
AcDbLine
 10
29.53135688137209
 20
-4.094987196587369
 30
0.0
 11
32.41616824356221
 21
-3.778759852980812
 31
0.0
  0
LINE
  5
F55
330
18
100
AcDbEntity
  8
1
 62
     1
100
AcDbLine
 10
15.49972246671499
 20
-6.347117905243409
 30
0.0
 11
16.84401641394649
 21
-6.307724544823797
 31
0.0
  0
LINE
  5
F56
330
18
100
AcDbEntity
  8
1
 62
     1
100
AcDbLine
 10
16.84401641394649
 20
-6.307724544823797
 30
0.0
 11
18.18831425207709
 21
-6.190028162987302
 31
0.0
  0
LINE
  5
F57
330
18
100
AcDbEntity
  8
1
 62
     1
100
AcDbLine
 10
18.18831425207709
 20
-6.190028162987302
 30
0.0
 11
19.53262012314673
 21
-5.995490613422192
 31
0.0
  0
LINE
  5
F58
330
18
100
AcDbEntity
  8
1
 62
     1
100
AcDbLine
 10
19.53262012314673
 20
-5.995490613422192
 30
0.0
 11
20.8769221357795
 21
-5.72652528839862
 31
0.0
  0
LINE
  5
F59
330
18
100
AcDbEntity
  8
1
 62
     1
100
AcDbLine
 10
15.02993305237501
 20
-6.347117905261201
 30
0.0
 11
15.49972246671499
 21
-6.347117905261201
 31
0.0
  0
LINE
  5
F5A
330
18
100
AcDbEntity
  8
1
 62
     1
100
AcDbLine
 10
20.87692044292312
 20
5.732290037910882
 30
0.0
 11
19.53262188469394
 21
6.001254115918495
 31
0.0
  0
LINE
  5
F5B
330
18
100
AcDbEntity
  8
1
 62
     1
100
AcDbLine
 10
19.53262188469394
 20
6.001254115918495
 30
0.0
 11
18.18831447694526
 21
6.195791710661792
 31
0.0
  0
LINE
  5
F5C
330
18
100
AcDbEntity
  8
1
 62
     1
100
AcDbLine
 10
18.18831447694526
 20
6.195791710661792
 30
0.0
 11
16.84400876137333
 21
6.313488229539856
 31
0.0
  0
LINE
  5
F5D
330
18
100
AcDbEntity
  8
1
 62
     1
100
AcDbLine
 10
16.84400876137333
 20
6.313488229539856
 30
0.0
 11
15.49972246666341
 21
6.352881777238789
 31
0.0
  0
LINE
  5
F5E
330
18
100
AcDbEntity
  8
1
 62
     1
100
AcDbLine
 10
40.80627261200665
 20
3.743156110902431
 30
0.0
 11
38.3150824870778
 21
3.614472477983353
 31
0.0
  0
LINE
  5
F5F
330
18
100
AcDbEntity
  8
1
 62
     1
100
AcDbLine
 10
38.3150824870778
 20
3.614472477983353
 30
0.0
 11
35.82390476902033
 21
3.604881123762053
 31
0.0
  0
LINE
  5
F60
330
18
100
AcDbEntity
  8
1
 62
     1
100
AcDbLine
 10
35.82390476902033
 20
3.604881123762053
 30
0.0
 11
33.3327436323495
 21
3.714786848693306
 31
0.0
  0
LINE
  5
F61
330
18
100
AcDbEntity
  8
1
 62
     1
100
AcDbLine
 10
33.3327436323495
 20
3.714786848693306
 30
0.0
 11
30.84159962143518
 21
3.939515877809013
 31
0.0
  0
LINE
  5
F62
330
18
100
AcDbEntity
  8
1
 62
     1
100
AcDbLine
 10
30.84159962143518
 20
3.939515877809013
 30
0.0
 11
28.35040569550502
 21
4.269524710935511
 31
0.0
  0
LINE
  5
F63
330
18
100
AcDbEntity
  8
1
 62
     1
100
AcDbLine
 10
28.35040569550502
 20
4.269524710935511
 30
0.0
 11
25.85922728758955
 21
4.690780473649835
 31
0.0
  0
LINE
  5
F64
330
18
100
AcDbEntity
  8
1
 62
     1
100
AcDbLine
 10
25.85922728758955
 20
4.690780473649835
 30
0.0
 11
20.87692049482236
 21
5.732290266552608
 31
0.0
  0
LINE
  5
F65
330
18
100
AcDbEntity
  8
1
 62
     1
100
AcDbLine
 10
32.41616824356221
 20
3.784523724958403
 30
0.0
 11
33.7830087664417
 21
4.337083079328591
 31
0.0
  0
LINE
  5
F66
330
18
100
AcDbEntity
  8
1
 62
     1
100
AcDbLine
 10
33.7830087664417
 20
4.337083079328591
 30
0.0
 11
35.14985640490076
 21
4.834048424933357
 31
0.0
  0
LINE
  5
F67
330
18
100
AcDbEntity
  8
1
 62
     1
100
AcDbLine
 10
35.14985640490076
 20
4.834048424933357
 30
0.0
 11
36.51671582659475
 21
5.269046761082575
 31
0.0
  0
LINE
  5
F68
330
18
100
AcDbEntity
  8
1
 62
     1
100
AcDbLine
 10
36.51671582659475
 20
5.269046761082575
 30
0.0
 11
37.88357590865324
 21
5.636494657392517
 31
0.0
  0
LINE
  5
F69
330
18
100
AcDbEntity
  8
1
 62
     1
100
AcDbLine
 10
37.88357590865324
 20
5.636494657392517
 30
0.0
 11
39.25042564156392
 21
5.931675876443349
 31
0.0
  0
LINE
  5
F6A
330
18
100
AcDbEntity
  8
1
 62
     1
100
AcDbLine
 10
39.25042564156392
 20
5.931675876443349
 30
0.0
 11
40.61726270160741
 21
6.150804190034079
 31
0.0
  0
LINE
  5
F6B
330
18
100
AcDbEntity
  8
1
 62
     1
100
AcDbLine
 10
40.61726270160741
 20
6.150804190034079
 30
0.0
 11
41.98409929194343
 21
6.291071435687993
 31
0.0
  0
LINE
  5
F6C
330
18
100
AcDbEntity
  8
1
 62
     1
100
AcDbLine
 10
41.98409929194343
 20
6.291071435687993
 30
0.0
 11
43.35093234434999
 21
6.350682023255257
 31
0.0
  0
LINE
  5
1016
330
18
100
AcDbEntity
  8
1
 62
     1
100
AcDbLine
 10
13.43689787257449
 20
-6.356011817756622
 30
0.0
 11
13.748145136133
 21
-6.356011817756622
 31
0.0
  0
LINE
  5
1017
330
18
100
AcDbEntity
  8
1
100
AcDbLine
 10
13.43694941686307
 20
6.352052002699863
 30
0.0
 11
0.0
 21
6.345383664708491
 31
0.0
  0
ARC
  5
1018
330
18
100
AcDbEntity
  8
1
100
AcDbCircle
 10
2.756784179307278
 20
-28.95017165725169
 30
0.0
 40
35.69954883665262
100
AcDbArc
 50
72.59238495037219
 51
79.67752601460188
  0
LINE
  5
1019
330
18
100
AcDbEntity
  8
1
100
AcDbLine
 10
13.43693307887501
 20
3.10554138313331
 30
0.0
 11
9.153719412216851
 21
4.000669202270841
 31
0.0
  0
ENDSEC
  0
SECTION
  2
OBJECTS
  0
DICTIONARY
  5
C
330
0
100
AcDbDictionary
281
     1
  3
ACAD_CIP_PREVIOUS_PRODUCT_INFO
350
4DA
  3
ACAD_COLOR
350
387
  3
ACAD_DETAILVIEWSTYLE
350
4D4
  3
ACAD_GROUP
350
D
  3
ACAD_LAYOUT
350
301
  3
ACAD_MATERIAL
350
386
  3
ACAD_MLEADERSTYLE
350
498
  3
ACAD_MLINESTYLE
350
E
  3
ACAD_PLOTSETTINGS
350
302
  3
ACAD_PLOTSTYLENAME
350
2FF
  3
ACAD_SCALELIST
350
3A0
  3
ACAD_SECTIONVIEWSTYLE
350
4D2
  3
ACAD_TABLESTYLE
350
388
  3
ACAD_VISUALSTYLE
350
4B7
  3
ACDB_RECOMPOSE_DATA
350
1315
  3
AcDbVariableDictionary
350
357
  3
AcDsDecomposeData
350
131B
  0
DICTIONARY
  5
9B8
330
2
100
AcDbDictionary
280
     1
281
     1
  3
ACAD_LAYERSTATES
360
9B9
  0
DICTIONARY
  5
4DD
330
F
100
AcDbDictionary
280
     1
281
     1
  3
ADSK_XREC_LAYER_RECONCILED
360
4DE
  0
DICTIONARY
  5
4DF
330
23
100
AcDbDictionary
280
     1
281
     1
  3
ADSK_XREC_LAYER_RECONCILED
360
4E0
  0
DICTIONARY
  5
4E1
330
24
100
AcDbDictionary
280
     1
281
     1
  3
ADSK_XREC_LAYER_RECONCILED
360
4E2
  0
DICTIONARY
  5
4E3
330
25
100
AcDbDictionary
280
     1
281
     1
  3
ADSK_XREC_LAYER_RECONCILED
360
4E4
  0
DICTIONARY
  5
4E5
330
26
100
AcDbDictionary
280
     1
281
     1
  3
ADSK_XREC_LAYER_RECONCILED
360
4E6
  0
DICTIONARY
  5
4E7
330
27
100
AcDbDictionary
280
     1
281
     1
  3
ADSK_XREC_LAYER_RECONCILED
360
4E8
  0
DICTIONARY
  5
4E9
330
28
100
AcDbDictionary
280
     1
281
     1
  3
ADSK_XREC_LAYER_RECONCILED
360
4EA
  0
DICTIONARY
  5
4EB
330
29
100
AcDbDictionary
280
     1
281
     1
  3
ADSK_XREC_LAYER_RECONCILED
360
4EC
  0
DICTIONARY
  5
4ED
330
2A
100
AcDbDictionary
280
     1
281
     1
  3
ADSK_XREC_LAYER_RECONCILED
360
4EE
  0
DICTIONARY
  5
4EF
330
2B
100
AcDbDictionary
280
     1
281
     1
  3
ADSK_XREC_LAYER_RECONCILED
360
4F0
  0
DICTIONARY
  5
4F1
330
2C
100
AcDbDictionary
280
     1
281
     1
  3
ADSK_XREC_LAYER_RECONCILED
360
4F2
  0
DICTIONARY
  5
4F3
330
2D
100
AcDbDictionary
280
     1
281
     1
  3
ADSK_XREC_LAYER_RECONCILED
360
4F4
  0
DICTIONARY
  5
4F5
330
2E
100
AcDbDictionary
280
     1
281
     1
  3
ADSK_XREC_LAYER_RECONCILED
360
4F6
  0
DICTIONARY
  5
4F7
330
375
100
AcDbDictionary
280
     1
281
     1
  3
ADSK_XREC_LAYER_RECONCILED
360
4F8
  0
DICTIONARY
  5
4F9
330
376
100
AcDbDictionary
280
     1
281
     1
  3
ADSK_XREC_LAYER_RECONCILED
360
4FA
  0
DICTIONARY
  5
56F
330
18
100
AcDbDictionary
280
     1
281
     1
  3
ACAD_SORTENTS
360
570
  0
DICTIONARY
  5
1163
330
10D4
100
AcDbDictionary
280
     1
281
     1
  3
ACAD_SORTENTS
360
1164
  0
XRECORD
  5
4DA
102
{ACAD_REACTORS
330
C
102
}
330
C
100
AcDbXrecord
280
     1
300
AMECH_PP
300
2014
300
86132PDSS_2014_0F
  0
DICTIONARY
  5
387
102
{ACAD_REACTORS
330
C
102
}
330
C
100
AcDbDictionary
281
     1
  0
DICTIONARY
  5
4D4
102
{ACAD_REACTORS
330
C
102
}
330
C
100
AcDbDictionary
281
     1
  3
Imperial24
350
6D1
  3
Metric50
350
4D5
  0
DICTIONARY
  5
D
102
{ACAD_REACTORS
330
C
102
}
330
C
100
AcDbDictionary
281
     1
  0
DICTIONARY
  5
301
102
{ACAD_REACTORS
330
C
102
}
330
C
100
AcDbDictionary
281
     1
  3
Layout1
350
33B
  3
Model
350
303
  0
DICTIONARY
  5
386
102
{ACAD_REACTORS
330
C
102
}
330
C
100
AcDbDictionary
281
     1
  3
ByBlock
350
4A7
  3
ByLayer
350
49F
  3
Global
350
4AF
  0
DICTIONARY
  5
498
102
{ACAD_REACTORS
330
C
102
}
330
C
100
AcDbDictionary
281
     1
  3
Standard
350
4D1
  0
DICTIONARY
  5
E
102
{ACAD_REACTORS
330
C
102
}
330
C
100
AcDbDictionary
281
     1
  3
STANDARD
350
1B
  0
DICTIONARY
  5
302
102
{ACAD_REACTORS
330
C
102
}
330
C
100
AcDbDictionary
281
     1
  0
ACDBDICTIONARYWDFLT
  5
2FF
102
{ACAD_REACTORS
330
C
102
}
330
C
100
AcDbDictionary
281
     1
  3
Normal
350
300
100
AcDbDictionaryWithDefault
340
300
  0
DICTIONARY
  5
3A0
102
{ACAD_REACTORS
330
C
102
}
330
C
100
AcDbDictionary
281
     1
  3
A0
350
3A1
  3
A1
350
3A2
  3
A2
350
3A3
  3
A3
350
3A4
  3
A4
350
3A5
  3
A5
350
3A6
  3
A6
350
3A7
  3
A7
350
3A8
  3
A8
350
3A9
  3
A9
350
3AA
  3
B0
350
3AB
  3
B1
350
3AC
  3
B2
350
3AD
  3
B3
350
3AE
  3
B4
350
3AF
  3
B5
350
3B0
  3
B6
350
3B1
  3
B7
350
3B2
  3
B8
350
3B3
  3
B9
350
3B4
  3
C0
350
3B5
  3
C1
350
3B6
  3
C2
350
3B7
  3
C3
350
3B8
  3
C4
350
3B9
  3
C5
350
3BA
  3
C6
350
3BB
  3
C7
350
3BC
  3
C8
350
3BD
  3
C9
350
3BE
  3
D0
350
3BF
  3
D1
350
3C0
  3
D2
350
3C1
  0
DICTIONARY
  5
4D2
102
{ACAD_REACTORS
330
C
102
}
330
C
100
AcDbDictionary
281
     1
  3
Imperial24
350
6D0
  3
Metric50
350
4D3
  0
DICTIONARY
  5
388
102
{ACAD_REACTORS
330
C
102
}
330
C
100
AcDbDictionary
281
     1
  3
Standard
350
4D0
  0
DICTIONARY
  5
4B7
102
{ACAD_REACTORS
330
C
102
}
330
C
100
AcDbDictionary
281
     1
  3
2dWireframe
350
4BD
  3
Basic
350
4BC
  3
Brighten
350
4C3
  3
ColorChange
350
4C7
  3
Conceptual
350
4C0
  3
Dim
350
4C2
  3
EdgeColorOff
350
4CF
  3
Facepattern
350
4C6
  3
Flat
350
4B8
  3
FlatWithEdges
350
4B9
  3
Gouraud
350
4BA
  3
GouraudWithEdges
350
4BB
  3
Hidden
350
4BF
  3
JitterOff
350
4CD
  3
Linepattern
350
4C5
  3
OverhangOff
350
4CE
  3
Realistic
350
4C1
  3
Shaded
350
4CC
  3
Shaded with edges
350
4CB
  3
Shades of Gray
350
4C8
  3
Sketchy
350
4C9
  3
Thicken
350
4C4
  3
Wireframe
350
4BE
  3
X-Ray
350
4CA
  0
XRECORD
  5
1315
102
{ACAD_REACTORS
330
C
102
}
330
C
100
AcDbXrecord
280
     1
 90
        1
330
4D0
  0
DICTIONARY
  5
357
102
{ACAD_REACTORS
330
C
102
}
330
C
100
AcDbDictionary
281
     1
  3
CANNOSCALE
350
499
  3
CMLEADERSTYLE
350
4FB
  3
CTABLESTYLE
350
38D
  3
CVIEWDETAILSTYLE
350
4FC
  3
CVIEWSECTIONSTYLE
350
4FD
  3
DIMASSOC
350
359
  3
HIDETEXT
350
358
  3
INDEXCTL
350
4FF
  3
PROJECTNAME
350
38E
  3
SORTENTS
350
4FE
  3
XCLIPFRAME
350
1313
  0
DICTIONARY
  5
131B
102
{ACAD_REACTORS
330
C
102
}
330
C
100
AcDbDictionary
281
     1
  3
AcDsRecords
350
131D
  3
AcDsSchemas
350
131C
1001
ACAD
1070
     2
  0
DICTIONARY
  5
9B9
102
{ACAD_REACTORS
330
9B8
102
}
330
9B8
100
AcDbDictionary
281
     1
  0
XRECORD
  5
4DE
102
{ACAD_REACTORS
330
4DD
102
}
330
4DD
100
AcDbXrecord
280
     1
290
     1
  0
XRECORD
  5
4E0
102
{ACAD_REACTORS
330
4DF
102
}
330
4DF
100
AcDbXrecord
280
     1
290
     1
  0
XRECORD
  5
4E2
102
{ACAD_REACTORS
330
4E1
102
}
330
4E1
100
AcDbXrecord
280
     1
290
     1
  0
XRECORD
  5
4E4
102
{ACAD_REACTORS
330
4E3
102
}
330
4E3
100
AcDbXrecord
280
     1
290
     1
  0
XRECORD
  5
4E6
102
{ACAD_REACTORS
330
4E5
102
}
330
4E5
100
AcDbXrecord
280
     1
290
     1
  0
XRECORD
  5
4E8
102
{ACAD_REACTORS
330
4E7
102
}
330
4E7
100
AcDbXrecord
280
     1
290
     1
  0
XRECORD
  5
4EA
102
{ACAD_REACTORS
330
4E9
102
}
330
4E9
100
AcDbXrecord
280
     1
290
     1
  0
XRECORD
  5
4EC
102
{ACAD_REACTORS
330
4EB
102
}
330
4EB
100
AcDbXrecord
280
     1
290
     1
  0
XRECORD
  5
4EE
102
{ACAD_REACTORS
330
4ED
102
}
330
4ED
100
AcDbXrecord
280
     1
290
     1
  0
XRECORD
  5
4F0
102
{ACAD_REACTORS
330
4EF
102
}
330
4EF
100
AcDbXrecord
280
     1
290
     1
  0
XRECORD
  5
4F2
102
{ACAD_REACTORS
330
4F1
102
}
330
4F1
100
AcDbXrecord
280
     1
290
     1
  0
XRECORD
  5
4F4
102
{ACAD_REACTORS
330
4F3
102
}
330
4F3
100
AcDbXrecord
280
     1
290
     1
  0
XRECORD
  5
4F6
102
{ACAD_REACTORS
330
4F5
102
}
330
4F5
100
AcDbXrecord
280
     1
290
     1
  0
XRECORD
  5
4F8
102
{ACAD_REACTORS
330
4F7
102
}
330
4F7
100
AcDbXrecord
280
     1
290
     1
  0
XRECORD
  5
4FA
102
{ACAD_REACTORS
330
4F9
102
}
330
4F9
100
AcDbXrecord
280
     1
290
     1
  0
SORTENTSTABLE
  5
570
102
{ACAD_REACTORS
330
56F
102
}
330
56F
100
AcDbSortentsTable
330
18
331
435
  5
447
331
F2F
  5
F33
331
F49
  5
F4D
331
F62
  5
F66
331
F68
  5
F6C
331
F34
  5
F38
331
F67
  5
F6B
331
F4E
  5
F52
331
F3A
  5
F3E
331
F53
  5
F57
331
F1F
  5
F1F
331
3C4
  5
3C4
331
F3F
  5
F43
331
F59
  5
F5D
331
431
  5
436
331
1018
  5
F2A
331
F24
  5
F26
331
F44
  5
F48
331
F2B
  5
F2F
331
F5E
  5
F62
331
436
  5
454
331
F30
  5
F34
331
F4A
  5
F4E
331
F63
  5
F67
331
F69
  5
FAF
331
F35
  5
F39
331
F4F
  5
F53
331
454
  5
670
331
F54
  5
F58
331
F3B
  5
F3F
331
1016
  5
F22
331
462
  5
671
331
F20
  5
F20
331
746
  5
746
331
F40
  5
F44
331
F5A
  5
F5E
331
432
  5
437
331
1019
  5
F25
331
F25
  5
F27
331
447
  5
5D0
331
F45
  5
F49
331
F2C
  5
F30
331
F5F
  5
F63
331
437
  5
462
331
F31
  5
F35
331
F4B
  5
F4F
331
F64
  5
F68
331
F6A
  5
1016
331
F36
  5
F3A
331
F50
  5
F54
331
F1C
  5
F1C
331
F55
  5
F59
331
F3C
  5
F40
331
1017
  5
F2D
331
F21
  5
F21
331
438
  5
470
331
F28
  5
F2B
331
F41
  5
F45
331
F5B
  5
F5F
331
433
  5
438
331
F26
  5
F28
331
F46
  5
F4A
331
F2D
  5
F31
331
F60
  5
F64
331
F32
  5
F36
331
F65
  5
F69
331
F4C
  5
F50
331
F6B
  5
1017
331
F37
  5
F3B
331
F38
  5
F3C
331
F51
  5
F55
331
F1D
  5
F1D
331
3C2
  5
3C2
331
F56
  5
F5A
331
F3D
  5
F41
331
F22
  5
F23
331
F29
  5
F2C
331
F42
  5
F46
331
F5C
  5
F60
331
434
  5
439
331
F27
  5
F29
331
470
  5
672
331
F47
  5
F4B
331
F2E
  5
F32
331
F48
  5
F4C
331
F61
  5
F65
331
F33
  5
F37
331
732
  5
732
331
F66
  5
F6A
331
F4D
  5
F51
331
F6C
  5
1018
331
F39
  5
F3D
331
F52
  5
F56
331
F1E
  5
F1E
331
F57
  5
F5B
331
F3E
  5
F42
331
F58
  5
F5C
331
F23
  5
F24
331
F43
  5
F47
331
F2A
  5
F2E
331
F5D
  5
F61
  0
SORTENTSTABLE
  5
1164
102
{ACAD_REACTORS
330
1163
102
}
330
1163
100
AcDbSortentsTable
330
10D4
  0
ACDBDETAILVIEWSTYLE
  5
6D1
102
{ACAD_XDICTIONARY
360
1355
102
}
102
{ACAD_REACTORS
330
4D4
102
}
330
4D4
100
AcDbModelDocViewStyle
 70
     0
  3
Imperial24
290
     0
100
AcDbDetailViewStyle
 70
     0
 71
     0
 90
        3
 71
     1
340
10
 62
   256
 40
0.24
340
0
 62
   256
 40
0.24
300

 40
0.36
280
     3
 71
     2
340
14
 90
       25
 62
   256
 71
     3
340
10
 62
   256
 40
0.24
 90
        1
 40
0.75
 90
        1
300
%<\AcVar ViewType \f "%tc1">% %<\AcVar ViewDetailId>%\PSCALE %<\AcVar ViewScale \f "%sn">%
 71
     4
340
14
 90
       25
 62
   256
340
14
 90
       25
 62
   256
280
     0
  0
ACDBDETAILVIEWSTYLE
  5
4D5
102
{ACAD_XDICTIONARY
360
1351
102
}
102
{ACAD_REACTORS
330
4D4
102
}
330
4D4
100
AcDbModelDocViewStyle
 70
     0
  3
Metric50
290
     0
100
AcDbDetailViewStyle
 70
     0
 71
     0
 90
        3
 71
     1
340
10
 62
   256
 40
5.0
340
0
 62
   256
 40
5.0
300

 40
0.0
280
     1
 71
     2
340
14
 90
       25
 62
   256
 71
     3
340
10
 62
   256
 40
5.0
 90
        0
 40
15.0
 90
        1
300
%<\AcVar ViewDetailId>% (%<\AcVar ViewScale \f "%sn">%)
 71
     4
340
14
 90
       25
 62
   256
340
14
 90
       25
 62
   256
280
     0
  0
LAYOUT
  5
33B
102
{ACAD_REACTORS
330
301
102
}
330
301
100
AcDbPlotSettings
  1

  2
Lexmark Optra PS2
  4

  6

 40
0.0
 41
0.0
 42
0.0
 43
0.0
 44
0.0
 45
0.0
 46
0.0
 47
0.0
 48
0.0
 49
0.0
140
0.0
141
0.0
142
1.0
143
1.0
 70
   688
 72
     0
 73
     0
 74
     5
  7
monochrome.ctb
 75
    16
147
1.0
 76
     0
 77
     2
 78
   300
148
0.0
149
0.0
100
AcDbLayout
  1
Layout1
 70
     1
 71
     1
 10
0.0
 20
0.0
 11
12.0
 21
9.0
 12
0.0
 22
0.0
 32
0.0
 14
0.0
 24
0.0
 34
0.0
 15
0.0
 25
0.0
 35
0.0
146
0.0
 13
0.0
 23
0.0
 33
0.0
 16
1.0
 26
0.0
 36
0.0
 17
0.0
 27
1.0
 37
0.0
 76
     0
330
338
  0
LAYOUT
  5
303
102
{ACAD_REACTORS
330
301
102
}
330
301
100
AcDbPlotSettings
  1

  2
Lexmark Optra Rx
  4
A4
  6

 40
6.805083274841307
 41
5.535083293914794
 42
6.974411010742187
 43
7.14373779296875
 44
209.9733276367186
 45
296.9259948730469
 46
0.0
 47
0.0
 48
0.0
 49
0.0
140
0.0
141
0.0
142
1.0
143
2.976565420630883
 70
 11952
 72
     1
 73
     1
 74
     0
  7
monochrome.ctb
 75
     0
147
0.335957675604539
 76
     0
 77
     2
 78
   300
148
204.1199660668592
149
172.3933209647495
100
AcDbLayout
  1
Model
 70
     1
 71
     0
 10
0.0
 20
0.0
 11
12.0
 21
9.0
 12
0.0
 22
0.0
 32
0.0
 14
0.0
 24
0.0
 34
0.0
 15
0.0
 25
0.0
 35
0.0
146
0.0
 13
0.0
 23
0.0
 33
0.0
 16
1.0
 26
0.0
 36
0.0
 17
0.0
 27
1.0
 37
0.0
 76
     0
330
18
331
39A
  0
MATERIAL
  5
4A7
102
{ACAD_XDICTIONARY
360
4A8
102
}
102
{ACAD_REACTORS
330
386
102
}
330
386
100
AcDbMaterial
  1
ByBlock
 72
     0
 43
0.0008202099737533
 43
0.0
 43
0.0
 43
0.0
 43
0.0
 43
0.0008202099737533
 43
0.0
 43
0.0
 43
0.0
 43
0.0
 43
1.0
 43
0.0
 43
0.0
 43
0.0
 43
0.0
 43
1.0
 77
     0
 47
0.0008202099737533
 47
0.0
 47
0.0
 47
0.0
 47
0.0
 47
0.0008202099737533
 47
0.0
 47
0.0
 47
0.0
 47
0.0
 47
1.0
 47
0.0
 47
0.0
 47
0.0
 47
0.0
 47
1.0
171
     0
 49
0.0008202099737533
 49
0.0
 49
0.0
 49
0.0
 49
0.0
 49
0.0008202099737533
 49
0.0
 49
0.0
 49
0.0
 49
0.0
 49
1.0
 49
0.0
 49
0.0
 49
0.0
 49
0.0
 49
1.0
175
     0
142
0.0008202099737533
142
0.0
142
0.0
142
0.0
142
0.0
142
0.0008202099737533
142
0.0
142
0.0
142
0.0
142
0.0
142
1.0
142
0.0
142
0.0
142
0.0
142
0.0
142
1.0
179
     0
144
0.0008202099737533
144
0.0
144
0.0
144
0.0
144
0.0
144
0.0008202099737533
144
0.0
144
0.0
144
0.0
144
0.0
144
1.0
144
0.0
144
0.0
144
0.0
144
0.0
144
1.0
147
0.0008202099737533
147
0.0
147
0.0
147
0.0
147
0.0
147
0.0008202099737533
147
0.0
147
0.0
147
0.0
147
0.0
147
1.0
147
0.0
147
0.0
147
0.0
147
0.0
147
1.0
  0
MATERIAL
  5
49F
102
{ACAD_XDICTIONARY
360
4A0
102
}
102
{ACAD_REACTORS
330
386
102
}
330
386
100
AcDbMaterial
  1
ByLayer
 72
     0
 43
0.0008202099737533
 43
0.0
 43
0.0
 43
0.0
 43
0.0
 43
0.0008202099737533
 43
0.0
 43
0.0
 43
0.0
 43
0.0
 43
1.0
 43
0.0
 43
0.0
 43
0.0
 43
0.0
 43
1.0
 77
     0
 47
0.0008202099737533
 47
0.0
 47
0.0
 47
0.0
 47
0.0
 47
0.0008202099737533
 47
0.0
 47
0.0
 47
0.0
 47
0.0
 47
1.0
 47
0.0
 47
0.0
 47
0.0
 47
0.0
 47
1.0
171
     0
 49
0.0008202099737533
 49
0.0
 49
0.0
 49
0.0
 49
0.0
 49
0.0008202099737533
 49
0.0
 49
0.0
 49
0.0
 49
0.0
 49
1.0
 49
0.0
 49
0.0
 49
0.0
 49
0.0
 49
1.0
175
     0
142
0.0008202099737533
142
0.0
142
0.0
142
0.0
142
0.0
142
0.0008202099737533
142
0.0
142
0.0
142
0.0
142
0.0
142
1.0
142
0.0
142
0.0
142
0.0
142
0.0
142
1.0
179
     0
144
0.0008202099737533
144
0.0
144
0.0
144
0.0
144
0.0
144
0.0008202099737533
144
0.0
144
0.0
144
0.0
144
0.0
144
1.0
144
0.0
144
0.0
144
0.0
144
0.0
144
1.0
147
0.0008202099737533
147
0.0
147
0.0
147
0.0
147
0.0
147
0.0008202099737533
147
0.0
147
0.0
147
0.0
147
0.0
147
1.0
147
0.0
147
0.0
147
0.0
147
0.0
147
1.0
  0
MATERIAL
  5
4AF
102
{ACAD_XDICTIONARY
360
4B0
102
}
102
{ACAD_REACTORS
330
386
102
}
330
386
100
AcDbMaterial
  1
Global
 72
     0
 43
0.0008202099737533
 43
0.0
 43
0.0
 43
0.0
 43
0.0
 43
0.0008202099737533
 43
0.0
 43
0.0
 43
0.0
 43
0.0
 43
1.0
 43
0.0
 43
0.0
 43
0.0
 43
0.0
 43
1.0
 77
     0
 47
0.0008202099737533
 47
0.0
 47
0.0
 47
0.0
 47
0.0
 47
0.0008202099737533
 47
0.0
 47
0.0
 47
0.0
 47
0.0
 47
1.0
 47
0.0
 47
0.0
 47
0.0
 47
0.0
 47
1.0
171
     0
 49
0.0008202099737533
 49
0.0
 49
0.0
 49
0.0
 49
0.0
 49
0.0008202099737533
 49
0.0
 49
0.0
 49
0.0
 49
0.0
 49
1.0
 49
0.0
 49
0.0
 49
0.0
 49
0.0
 49
1.0
175
     0
142
0.0008202099737533
142
0.0
142
0.0
142
0.0
142
0.0
142
0.0008202099737533
142
0.0
142
0.0
142
0.0
142
0.0
142
1.0
142
0.0
142
0.0
142
0.0
142
0.0
142
1.0
179
     0
144
0.0008202099737533
144
0.0
144
0.0
144
0.0
144
0.0
144
0.0008202099737533
144
0.0
144
0.0
144
0.0
144
0.0
144
1.0
144
0.0
144
0.0
144
0.0
144
0.0
144
1.0
147
0.0008202099737533
147
0.0
147
0.0
147
0.0
147
0.0
147
0.0008202099737533
147
0.0
147
0.0
147
0.0
147
0.0
147
1.0
147
0.0
147
0.0
147
0.0
147
0.0
147
1.0
  0
MLEADERSTYLE
  5
4D1
102
{ACAD_REACTORS
330
498
102
}
330
498
100
AcDbMLeaderStyle
170
     2
171
     1
172
     0
 90
        2
 40
0.0
 41
0.0
173
     1
 91
-1056964608
340
12
 92
       -2
290
     1
 42
2.0
291
     1
 43
0.36
  3
Standard
 44
4.0
300

342
10
174
     1
178
     6
175
     1
176
     0
 93
-1056964608
 45
4.0
292
     0
297
     0
 46
4.0
 94
-1056964608
 47
1.0
 49
1.0
140
1.0
293
     1
141
0.0
294
     1
177
     0
142
1.0
295
     0
296
     0
143
0.125
1001
ACAD_MLEADERVER
1070
     2
  0
MLINESTYLE
  5
1B
102
{ACAD_REACTORS
330
E
102
}
330
E
100
AcDbMlineStyle
  2
STANDARD
 70
     0
  3

 62
     0
 51
90.0
 52
90.0
 71
     2
 49
0.5
 62
   256
  6
BYLAYER
 49
-0.5
 62
   256
  6
BYLAYER
  0
ACDBPLACEHOLDER
  5
300
102
{ACAD_REACTORS
330
2FF
102
}
330
2FF
  0
SCALE
  5
3A1
102
{ACAD_REACTORS
330
3A0
102
}
330
3A0
100
AcDbScale
 70
     0
300
1:1
140
1.0
141
1.0
290
     1
  0
SCALE
  5
3A2
102
{ACAD_REACTORS
330
3A0
102
}
330
3A0
100
AcDbScale
 70
     0
300
1:2
140
1.0
141
2.0
290
     0
  0
SCALE
  5
3A3
102
{ACAD_REACTORS
330
3A0
102
}
330
3A0
100
AcDbScale
 70
     0
300
1:4
140
1.0
141
4.0
290
     0
  0
SCALE
  5
3A4
102
{ACAD_REACTORS
330
3A0
102
}
330
3A0
100
AcDbScale
 70
     0
300
1:5
140
1.0
141
5.0
290
     0
  0
SCALE
  5
3A5
102
{ACAD_REACTORS
330
3A0
102
}
330
3A0
100
AcDbScale
 70
     0
300
1:8
140
1.0
141
8.0
290
     0
  0
SCALE
  5
3A6
102
{ACAD_REACTORS
330
3A0
102
}
330
3A0
100
AcDbScale
 70
     0
300
1:10
140
1.0
141
10.0
290
     0
  0
SCALE
  5
3A7
102
{ACAD_REACTORS
330
3A0
102
}
330
3A0
100
AcDbScale
 70
     0
300
1:16
140
1.0
141
16.0
290
     0
  0
SCALE
  5
3A8
102
{ACAD_REACTORS
330
3A0
102
}
330
3A0
100
AcDbScale
 70
     0
300
1:20
140
1.0
141
20.0
290
     0
  0
SCALE
  5
3A9
102
{ACAD_REACTORS
330
3A0
102
}
330
3A0
100
AcDbScale
 70
     0
300
1:30
140
1.0
141
30.0
290
     0
  0
SCALE
  5
3AA
102
{ACAD_REACTORS
330
3A0
102
}
330
3A0
100
AcDbScale
 70
     0
300
1:40
140
1.0
141
40.0
290
     0
  0
SCALE
  5
3AB
102
{ACAD_REACTORS
330
3A0
102
}
330
3A0
100
AcDbScale
 70
     0
300
1:50
140
1.0
141
50.0
290
     0
  0
SCALE
  5
3AC
102
{ACAD_REACTORS
330
3A0
102
}
330
3A0
100
AcDbScale
 70
     0
300
1:100
140
1.0
141
100.0
290
     0
  0
SCALE
  5
3AD
102
{ACAD_REACTORS
330
3A0
102
}
330
3A0
100
AcDbScale
 70
     0
300
2:1
140
2.0
141
1.0
290
     0
  0
SCALE
  5
3AE
102
{ACAD_REACTORS
330
3A0
102
}
330
3A0
100
AcDbScale
 70
     0
300
4:1
140
4.0
141
1.0
290
     0
  0
SCALE
  5
3AF
102
{ACAD_REACTORS
330
3A0
102
}
330
3A0
100
AcDbScale
 70
     0
300
8:1
140
8.0
141
1.0
290
     0
  0
SCALE
  5
3B0
102
{ACAD_REACTORS
330
3A0
102
}
330
3A0
100
AcDbScale
 70
     0
300
10:1
140
10.0
141
1.0
290
     0
  0
SCALE
  5
3B1
102
{ACAD_REACTORS
330
3A0
102
}
330
3A0
100
AcDbScale
 70
     0
300
100:1
140
100.0
141
1.0
290
     0
  0
SCALE
  5
3B2
102
{ACAD_REACTORS
330
3A0
102
}
330
3A0
100
AcDbScale
 70
     0
300
1/128" = 1'-0"
140
0.0078125
141
12.0
290
     0
  0
SCALE
  5
3B3
102
{ACAD_REACTORS
330
3A0
102
}
330
3A0
100
AcDbScale
 70
     0
300
1/64" = 1'-0"
140
0.015625
141
12.0
290
     0
  0
SCALE
  5
3B4
102
{ACAD_REACTORS
330
3A0
102
}
330
3A0
100
AcDbScale
 70
     0
300
1/32" = 1'-0"
140
0.03125
141
12.0
290
     0
  0
SCALE
  5
3B5
102
{ACAD_REACTORS
330
3A0
102
}
330
3A0
100
AcDbScale
 70
     0
300
1/16" = 1'-0"
140
0.0625
141
12.0
290
     0
  0
SCALE
  5
3B6
102
{ACAD_REACTORS
330
3A0
102
}
330
3A0
100
AcDbScale
 70
     0
300
3/32" = 1'-0"
140
0.09375
141
12.0
290
     0
  0
SCALE
  5
3B7
102
{ACAD_REACTORS
330
3A0
102
}
330
3A0
100
AcDbScale
 70
     0
300
1/8" = 1'-0"
140
0.125
141
12.0
290
     0
  0
SCALE
  5
3B8
102
{ACAD_REACTORS
330
3A0
102
}
330
3A0
100
AcDbScale
 70
     0
300
3/16" = 1'-0"
140
0.1875
141
12.0
290
     0
  0
SCALE
  5
3B9
102
{ACAD_REACTORS
330
3A0
102
}
330
3A0
100
AcDbScale
 70
     0
300
1/4" = 1'-0"
140
0.25
141
12.0
290
     0
  0
SCALE
  5
3BA
102
{ACAD_REACTORS
330
3A0
102
}
330
3A0
100
AcDbScale
 70
     0
300
3/8" = 1'-0"
140
0.375
141
12.0
290
     0
  0
SCALE
  5
3BB
102
{ACAD_REACTORS
330
3A0
102
}
330
3A0
100
AcDbScale
 70
     0
300
1/2" = 1'-0"
140
0.5
141
12.0
290
     0
  0
SCALE
  5
3BC
102
{ACAD_REACTORS
330
3A0
102
}
330
3A0
100
AcDbScale
 70
     0
300
3/4" = 1'-0"
140
0.75
141
12.0
290
     0
  0
SCALE
  5
3BD
102
{ACAD_REACTORS
330
3A0
102
}
330
3A0
100
AcDbScale
 70
     0
300
1" = 1'-0"
140
1.0
141
12.0
290
     0
  0
SCALE
  5
3BE
102
{ACAD_REACTORS
330
3A0
102
}
330
3A0
100
AcDbScale
 70
     0
300
1-1/2" = 1'-0"
140
1.5
141
12.0
290
     0
  0
SCALE
  5
3BF
102
{ACAD_REACTORS
330
3A0
102
}
330
3A0
100
AcDbScale
 70
     0
300
3" = 1'-0"
140
3.0
141
12.0
290
     0
  0
SCALE
  5
3C0
102
{ACAD_REACTORS
330
3A0
102
}
330
3A0
100
AcDbScale
 70
     0
300
6" = 1'-0"
140
6.0
141
12.0
290
     0
  0
SCALE
  5
3C1
102
{ACAD_REACTORS
330
3A0
102
}
330
3A0
100
AcDbScale
 70
     0
300
1'-0" = 1'-0"
140
12.0
141
12.0
290
     0
  0
ACDBSECTIONVIEWSTYLE
  5
6D0
102
{ACAD_XDICTIONARY
360
1353
102
}
102
{ACAD_REACTORS
330
4D2
102
}
330
4D2
100
AcDbModelDocViewStyle
 70
     0
  3
Imperial24
290
     0
100
AcDbSectionViewStyle
 70
     0
 71
     0
 90
       78
 71
     1
340
10
 62
   256
 40
0.24
340
0
340
0
 62
   256
 40
0.24
300
I, O, Q, S, X, Z
 40
0.48
 90
        3
 40
0.18
 90
        1
 71
     2
340
14
 90
       25
 62
   256
340
14
 90
       50
 62
   256
 40
0.24
 40
0.0
 40
0.24
 71
     3
340
10
 62
   256
 40
0.24
 90
        1
 40
0.75
 90
        1
300
%<\AcVar ViewType \f "%tc1">% %<\AcVar ViewSectionStartId>%-%<\AcVar ViewSectionEndId>%\PSCALE %<\AcVar ViewScale \f "%sn">%
 71
     4
 62
   256
 62
   257
300
ANSI31
 40
1.0
 90
        0
290
     0
290
     0
 90
        6
 40
0.0
 40
1.570796326794896
 40
0.2617993877991494
 40
1.308996938995747
 40
-0.2617993877991494
 40
1.832595714594044
  0
ACDBSECTIONVIEWSTYLE
  5
4D3
102
{ACAD_XDICTIONARY
360
134F
102
}
102
{ACAD_REACTORS
330
4D2
102
}
330
4D2
100
AcDbModelDocViewStyle
 70
     0
  3
Metric50
290
     0
100
AcDbSectionViewStyle
 70
     0
 71
     0
 90
      102
 71
     1
340
10
 62
   256
 40
5.0
340
0
340
0
 62
   256
 40
5.0
300
I, O, Q, S, X, Z
 40
10.0
 90
        0
 40
2.5
 90
        0
 71
     2
340
14
 90
       25
 62
   256
340
14
 90
       50
 62
   256
 40
5.0
 40
2.5
 40
5.0
 71
     3
340
10
 62
   256
 40
5.0
 90
        0
 40
15.0
 90
        1
300
%<\AcVar ViewSectionStartId>%-%<\AcVar ViewSectionEndId>% (%<\AcVar ViewScale \f "%sn">%)
 71
     4
 62
   256
 62
   257
300
ANSI31
 40
1.0
 90
        0
290
     0
290
     0
 90
        6
 40
0.0
 40
1.570796326794896
 40
0.2617993877991494
 40
1.308996938995747
 40
-0.2617993877991494
 40
1.832595714594044
  0
TABLESTYLE
  5
4D0
102
{ACAD_XDICTIONARY
360
502
102
}
102
{ACAD_REACTORS
330
388
102
}
330
388
100
AcDbTableStyle
  3
Standard
 70
     0
 71
     0
 40
1.5
 41
1.5
280
     0
281
     0
  7
STANDARD
140
4.5
170
     2
 62
     0
 63
     7
283
     0
274
    -2
284
     1
 64
     0
275
    -2
285
     1
 65
     0
276
    -2
286
     1
 66
     0
277
    -2
287
     1
 67
     0
278
    -2
288
     1
 68
     0
279
    -2
289
     1
 69
     0
  7
STANDARD
140
6.0
170
     5
 62
     0
 63
     7
283
     0
274
    -2
284
     1
 64
     0
275
    -2
285
     1
 65
     0
276
    -2
286
     1
 66
     0
277
    -2
287
     1
 67
     0
278
    -2
288
     1
 68
     0
279
    -2
289
     1
 69
     0
  7
STANDARD
140
4.5
170
     5
 62
     0
 63
     7
283
     0
274
    -2
284
     1
 64
     0
275
    -2
285
     1
 65
     0
276
    -2
286
     1
 66
     0
277
    -2
287
     1
 67
     0
278
    -2
288
     1
 68
     0
279
    -2
289
     1
 69
     0
  0
VISUALSTYLE
  5
4BD
102
{ACAD_XDICTIONARY
360
1328
102
}
102
{ACAD_REACTORS
330
4B7
102
}
330
4B7
100
AcDbVisualStyle
  2

 70
     4
 71
     0
 72
     2
 73
     0
 90
        0
 40
-0.6
 41
-30.0
 62
     5
 63
     7
 74
     1
 91
        4
 64
     7
 65
   257
 75
     1
175
     1
 42
1.0
 92
        0
 66
   257
 43
1.0
 76
     1
 77
     6
 78
     2
 67
     7
 79
     5
170
     0
171
     0
290
     0
174
     0
 93
        1
 44
0.0
173
     0
291
     0
 45
0.0
1001
ACAD
1000
AcDbSavedByObjectVersion
1070
     0
  0
VISUALSTYLE
  5
4BC
102
{ACAD_XDICTIONARY
360
1326
102
}
102
{ACAD_REACTORS
330
4B7
102
}
330
4B7
100
AcDbVisualStyle
  2

 70
     7
 71
     1
 72
     0
 73
     1
 90
        0
 40
-0.6
 41
-30.0
 62
     5
 63
     7
 74
     0
 91
        4
 64
     7
 65
   257
 75
     1
175
     1
 42
1.0
 92
        8
 66
     7
 43
1.0
 76
     1
 77
     6
 78
     2
 67
     7
 79
     5
170
     0
171
     0
290
     0
174
     0
 93
        1
 44
0.0
173
     0
291
     1
 45
0.0
1001
ACAD
1000
AcDbSavedByObjectVersion
1070
     0
  0
VISUALSTYLE
  5
4C3
102
{ACAD_XDICTIONARY
360
1334
102
}
102
{ACAD_REACTORS
330
4B7
102
}
330
4B7
100
AcDbVisualStyle
  2

 70
    12
 71
     2
 72
     2
 73
     0
 90
        0
 40
-0.6
 41
-30.0
 62
     5
 63
     7
 74
     1
 91
        4
 64
     7
 65
   257
 75
     1
175
     1
 42
1.0
 92
        8
 66
     7
 43
1.0
 76
     1
 77
     6
 78
     2
 67
     7
 79
     5
170
     0
171
     0
290
     0
174
     0
 93
        1
 44
50.0
173
     0
291
     1
 45
0.0
1001
ACAD
1000
AcDbSavedByObjectVersion
1070
     0
  0
VISUALSTYLE
  5
4C7
102
{ACAD_XDICTIONARY
360
133C
102
}
102
{ACAD_REACTORS
330
4B7
102
}
330
4B7
100
AcDbVisualStyle
  2

 70
    16
 71
     2
 72
     2
 73
     3
 90
        0
 40
-0.6
 41
-30.0
 62
     5
 63
     8
 74
     1
 91
        4
 64
     7
 65
   257
 75
     1
175
     1
 42
1.0
 92
        8
 66
     8
 43
1.0
 76
     1
 77
     6
 78
     2
 67
     7
 79
     5
170
     0
171
     0
290
     0
174
     0
 93
        1
 44
0.0
173
     0
291
     1
 45
0.0
1001
ACAD
1000
AcDbSavedByObjectVersion
1070
     0
  0
VISUALSTYLE
  5
4C0
102
{ACAD_XDICTIONARY
360
132E
102
}
102
{ACAD_REACTORS
330
4B7
102
}
330
4B7
100
AcDbVisualStyle
  2

 70
     9
 71
     3
 72
     2
 73
     0
 90
        0
 40
-0.6
 41
-30.0
 62
     5
 63
     7
 74
     2
 91
        2
 64
     7
 65
   257
 75
     1
175
     1
 42
179.0
 92
        8
 66
     7
 43
1.0
 76
     1
 77
     6
 78
     2
 67
     7
 79
     3
170
     0
171
     0
290
     0
174
     0
 93
        1
 44
0.0
173
     0
291
     0
 45
0.0
1001
ACAD
1000
AcDbSavedByObjectVersion
1070
     0
  0
VISUALSTYLE
  5
4C2
102
{ACAD_XDICTIONARY
360
1332
102
}
102
{ACAD_REACTORS
330
4B7
102
}
330
4B7
100
AcDbVisualStyle
  2

 70
    11
 71
     2
 72
     2
 73
     0
 90
        0
 40
-0.6
 41
-30.0
 62
     5
 63
     7
 74
     1
 91
        4
 64
     7
 65
   257
 75
     1
175
     1
 42
1.0
 92
        8
 66
     7
 43
1.0
 76
     1
 77
     6
 78
     2
 67
     7
 79
     5
170
     0
171
     0
290
     0
174
     0
 93
        1
 44
-50.0
173
     0
291
     1
 45
0.0
1001
ACAD
1000
AcDbSavedByObjectVersion
1070
     0
  0
VISUALSTYLE
  5
4CF
102
{ACAD_XDICTIONARY
360
134C
102
}
102
{ACAD_REACTORS
330
4B7
102
}
330
4B7
100
AcDbVisualStyle
  2

 70
    22
 71
     2
 72
     2
 73
     0
 90
        0
 40
-0.6
 41
-30.0
 62
     5
 63
     7
 74
     1
 91
        4
 64
     7
 65
   257
 75
     1
175
     1
 42
1.0
 92
        8
 66
     7
 43
1.0
 76
     1
 77
     6
 78
     2
 67
     7
 79
     5
170
     0
171
     0
290
     0
174
     0
 93
        1
 44
0.0
173
     0
291
     1
 45
0.0
1001
ACAD
1000
AcDbSavedByObjectVersion
1070
     0
  0
VISUALSTYLE
  5
4C6
102
{ACAD_XDICTIONARY
360
133A
102
}
102
{ACAD_REACTORS
330
4B7
102
}
330
4B7
100
AcDbVisualStyle
  2

 70
    15
 71
     2
 72
     2
 73
     0
 90
        0
 40
-0.6
 41
-30.0
 62
     5
 63
     7
 74
     1
 91
        4
 64
     7
 65
   257
 75
     1
175
     1
 42
1.0
 92
        8
 66
     7
 43
1.0
 76
     1
 77
     6
 78
     2
 67
     7
 79
     5
170
     0
171
     0
290
     0
174
     0
 93
        1
 44
0.0
173
     0
291
     1
 45
0.0
1001
ACAD
1000
AcDbSavedByObjectVersion
1070
     0
  0
VISUALSTYLE
  5
4B8
102
{ACAD_XDICTIONARY
360
131E
102
}
102
{ACAD_REACTORS
330
4B7
102
}
330
4B7
100
AcDbVisualStyle
  2

 70
     0
 71
     2
 72
     1
 73
     1
 90
        2
 40
-0.6
 41
30.0
 62
     5
 63
     7
 74
     0
 91
        0
 64
     7
 65
   257
 75
     1
175
     1
 42
1.0
 92
        8
 66
     7
 43
1.0
 76
     1
 77
     6
 78
     2
 67
     7
 79
     5
170
     0
171
     0
290
     0
174
     0
 93
       13
 44
0.0
173
     0
291
     1
 45
0.0
1001
ACAD
1000
AcDbSavedByObjectVersion
1070
     0
  0
VISUALSTYLE
  5
4B9
102
{ACAD_XDICTIONARY
360
1320
102
}
102
{ACAD_REACTORS
330
4B7
102
}
330
4B7
100
AcDbVisualStyle
  2

 70
     1
 71
     2
 72
     1
 73
     1
 90
        2
 40
-0.6
 41
30.0
 62
     5
 63
     7
 74
     1
 91
        0
 64
     7
 65
   257
 75
     1
175
     1
 42
1.0
 92
        0
 66
   257
 43
1.0
 76
     1
 77
     6
 78
     2
 67
     7
 79
     5
170
     0
171
     0
290
     0
174
     0
 93
       13
 44
0.0
173
     0
291
     1
 45
0.0
1001
ACAD
1000
AcDbSavedByObjectVersion
1070
     0
  0
VISUALSTYLE
  5
4BA
102
{ACAD_XDICTIONARY
360
1322
102
}
102
{ACAD_REACTORS
330
4B7
102
}
330
4B7
100
AcDbVisualStyle
  2

 70
     2
 71
     2
 72
     2
 73
     1
 90
        2
 40
-0.6
 41
30.0
 62
     5
 63
     7
 74
     0
 91
        0
 64
     7
 65
   257
 75
     1
175
     1
 42
1.0
 92
        0
 66
     7
 43
1.0
 76
     1
 77
     6
 78
     2
 67
     7
 79
     5
170
     0
171
     0
290
     0
174
     0
 93
       13
 44
0.0
173
     0
291
     1
 45
0.0
1001
ACAD
1000
AcDbSavedByObjectVersion
1070
     0
  0
VISUALSTYLE
  5
4BB
102
{ACAD_XDICTIONARY
360
1324
102
}
102
{ACAD_REACTORS
330
4B7
102
}
330
4B7
100
AcDbVisualStyle
  2

 70
     3
 71
     2
 72
     2
 73
     1
 90
        2
 40
-0.6
 41
30.0
 62
     5
 63
     7
 74
     1
 91
        0
 64
     7
 65
   257
 75
     1
175
     1
 42
1.0
 92
        0
 66
   257
 43
1.0
 76
     1
 77
     6
 78
     2
 67
     7
 79
     5
170
     0
171
     0
290
     0
174
     0
 93
       13
 44
0.0
173
     0
291
     1
 45
0.0
1001
ACAD
1000
AcDbSavedByObjectVersion
1070
     0
  0
VISUALSTYLE
  5
4BF
102
{ACAD_XDICTIONARY
360
132C
102
}
102
{ACAD_REACTORS
330
4B7
102
}
330
4B7
100
AcDbVisualStyle
  2

 70
     6
 71
     1
 72
     2
 73
     2
 90
        0
 40
-0.6
 41
-30.0
 62
     5
 63
     7
 74
     2
 91
        2
 64
     7
 65
   257
 75
     2
175
     1
 42
40.0
 92
        0
 66
   257
 43
1.0
 76
     1
 77
     6
 78
     2
 67
     7
 79
     3
170
     0
171
     0
290
     0
174
     0
 93
        1
 44
0.0
173
     0
291
     0
 45
0.0
1001
ACAD
1000
AcDbSavedByObjectVersion
1070
     0
  0
VISUALSTYLE
  5
4CD
102
{ACAD_XDICTIONARY
360
1348
102
}
102
{ACAD_REACTORS
330
4B7
102
}
330
4B7
100
AcDbVisualStyle
  2

 70
    20
 71
     2
 72
     2
 73
     0
 90
        0
 40
-0.6
 41
-30.0
 62
     5
 63
     7
 74
     1
 91
        4
 64
     7
 65
   257
 75
     1
175
     1
 42
1.0
 92
       10
 66
     7
 43
1.0
 76
     1
 77
     6
 78
     2
 67
     7
 79
     5
170
     0
171
     0
290
     0
174
     0
 93
        1
 44
0.0
173
     0
291
     1
 45
0.0
1001
ACAD
1000
AcDbSavedByObjectVersion
1070
     0
  0
VISUALSTYLE
  5
4C5
102
{ACAD_XDICTIONARY
360
1338
102
}
102
{ACAD_REACTORS
330
4B7
102
}
330
4B7
100
AcDbVisualStyle
  2

 70
    14
 71
     2
 72
     2
 73
     0
 90
        0
 40
-0.6
 41
-30.0
 62
     5
 63
     7
 74
     1
 91
        4
 64
     7
 65
   257
 75
     7
175
     7
 42
1.0
 92
        8
 66
     7
 43
1.0
 76
     1
 77
     6
 78
     2
 67
     7
 79
     5
170
     0
171
     0
290
     0
174
     0
 93
        1
 44
0.0
173
     0
291
     1
 45
0.0
1001
ACAD
1000
AcDbSavedByObjectVersion
1070
     0
  0
VISUALSTYLE
  5
4CE
102
{ACAD_XDICTIONARY
360
134A
102
}
102
{ACAD_REACTORS
330
4B7
102
}
330
4B7
100
AcDbVisualStyle
  2

 70
    21
 71
     2
 72
     2
 73
     0
 90
        0
 40
-0.6
 41
-30.0
 62
     5
 63
     7
 74
     1
 91
        4
 64
     7
 65
   257
 75
     1
175
     1
 42
1.0
 92
        9
 66
     7
 43
1.0
 76
     1
 77
     6
 78
     2
 67
     7
 79
     5
170
     0
171
     0
290
     0
174
     0
 93
        1
 44
0.0
173
     0
291
     1
 45
0.0
1001
ACAD
1000
AcDbSavedByObjectVersion
1070
     0
  0
VISUALSTYLE
  5
4C1
102
{ACAD_XDICTIONARY
360
1330
102
}
102
{ACAD_REACTORS
330
4B7
102
}
330
4B7
100
AcDbVisualStyle
  2

 70
     8
 71
     2
 72
     3
 73
     0
 90
        2
 40
-0.6
 41
30.0
 62
     5
 63
     7
 74
     0
 91
        0
 64
     7
 65
   257
 75
     1
175
     1
 42
1.0
 92
        8
 66
   257
 43
1.0
 76
     1
 77
     6
 78
     2
 67
     7
 79
     3
170
     0
171
     0
290
     0
174
     0
 93
       13
 44
0.0
173
     0
291
     0
 45
0.0
1001
ACAD
1000
AcDbSavedByObjectVersion
1070
     0
  0
VISUALSTYLE
  5
4CC
102
{ACAD_XDICTIONARY
360
1346
102
}
102
{ACAD_REACTORS
330
4B7
102
}
330
4B7
100
AcDbVisualStyle
  2

 70
    27
 71
     2
 72
     2
 73
     1
 90
        2
 40
-0.6
 41
30.0
 62
     5
 63
     7
 74
     0
 91
        4
 64
     7
 65
   257
 75
     1
175
     1
 42
1.0
 92
        8
 66
   257
 43
1.0
 76
     1
 77
     6
 78
     2
 67
     8
 79
     3
170
     0
171
     0
290
     0
174
     0
 93
        5
 44
0.0
173
     0
291
     0
 45
0.0
1001
ACAD
1000
AcDbSavedByObjectVersion
1070
     0
  0
VISUALSTYLE
  5
4CB
102
{ACAD_XDICTIONARY
360
1344
102
}
102
{ACAD_REACTORS
330
4B7
102
}
330
4B7
100
AcDbVisualStyle
  2

 70
    26
 71
     2
 72
     2
 73
     1
 90
        2
 40
-0.6
 41
30.0
 62
     5
 63
     7
 74
     1
 91
       10
 64
     7
 65
   257
 75
     2
175
     1
 42
1.0
 92
        8
 66
   257
 43
1.0
 76
     1
 77
     6
 78
     2
 67
     7
 79
     3
170
     0
171
     0
290
     0
174
     0
 93
        5
 44
0.0
173
     0
291
     0
 45
0.0
1001
ACAD
1000
AcDbSavedByObjectVersion
1070
     0
  0
VISUALSTYLE
  5
4C8
102
{ACAD_XDICTIONARY
360
133E
102
}
102
{ACAD_REACTORS
330
4B7
102
}
330
4B7
100
AcDbVisualStyle
  2

 70
    23
 71
     2
 72
     2
 73
     3
 90
        0
 40
-0.6
 41
-30.0
 62
     5
 63
     7
 74
     2
 91
        2
 64
     7
 65
     7
 75
     1
175
     1
 42
40.0
 92
        8
 66
     7
 43
1.0
 76
     1
 77
     6
 78
     2
 67
     7
 79
     3
170
     0
171
     0
290
     0
174
     0
 93
        1
 44
0.0
173
     0
291
     0
 45
0.0
1001
ACAD
1000
AcDbSavedByObjectVersion
1070
     0
  0
VISUALSTYLE
  5
4C9
102
{ACAD_XDICTIONARY
360
1340
102
}
102
{ACAD_REACTORS
330
4B7
102
}
330
4B7
100
AcDbVisualStyle
  2

 70
    24
 71
     1
 72
     2
 73
     2
 90
        0
 40
-0.6
 41
-30.0
 62
     5
 63
     7
 74
     2
 91
        2
 64
     7
 65
     7
 75
     1
175
     1
 42
40.0
 92
       11
 66
     7
 43
1.0
 76
     1
 77
     6
 78
     2
 67
     7
 79
     6
170
     0
171
     0
290
     0
174
     0
 93
        1
 44
0.0
173
     0
291
     0
 45
0.0
1001
ACAD
1000
AcDbSavedByObjectVersion
1070
     0
  0
VISUALSTYLE
  5
4C4
102
{ACAD_XDICTIONARY
360
1336
102
}
102
{ACAD_REACTORS
330
4B7
102
}
330
4B7
100
AcDbVisualStyle
  2

 70
    13
 71
     2
 72
     2
 73
     0
 90
        0
 40
-0.6
 41
-30.0
 62
     5
 63
     7
 74
     1
 91
        4
 64
     7
 65
   257
 75
     1
175
     1
 42
1.0
 92
       12
 66
     7
 43
1.0
 76
     1
 77
     6
 78
     2
 67
     7
 79
     5
170
     0
171
     0
290
     0
174
     0
 93
        1
 44
0.0
173
     0
291
     1
 45
0.0
1001
ACAD
1000
AcDbSavedByObjectVersion
1070
     0
  0
VISUALSTYLE
  5
4BE
102
{ACAD_XDICTIONARY
360
132A
102
}
102
{ACAD_REACTORS
330
4B7
102
}
330
4B7
100
AcDbVisualStyle
  2

 70
     5
 71
     0
 72
     2
 73
     0
 90
        0
 40
-0.6
 41
-30.0
 62
     5
 63
     7
 74
     1
 91
        4
 64
     7
 65
   257
 75
     1
175
     1
 42
1.0
 92
        0
 66
   257
 43
1.0
 76
     1
 77
     6
 78
     2
 67
     7
 79
     3
170
     0
171
     0
290
     0
174
     0
 93
        1
 44
0.0
173
     0
291
     0
 45
0.0
1001
ACAD
1000
AcDbSavedByObjectVersion
1070
     0
  0
VISUALSTYLE
  5
4CA
102
{ACAD_XDICTIONARY
360
1342
102
}
102
{ACAD_REACTORS
330
4B7
102
}
330
4B7
100
AcDbVisualStyle
  2

 70
    25
 71
     2
 72
     2
 73
     1
 90
        1
 40
0.5
 41
-30.0
 62
     5
 63
     7
 74
     1
 91
        0
 64
     7
 65
   257
 75
     1
175
     1
 42
1.0
 92
        8
 66
     7
 43
1.0
 76
     1
 77
     6
 78
     2
 67
     7
 79
     3
170
     0
171
     0
290
     0
174
     0
 93
       13
 44
0.0
173
     0
291
     0
 45
0.0
1001
ACAD
1000
AcDbSavedByObjectVersion
1070
     0
  0
DICTIONARYVAR
  5
499
102
{ACAD_REACTORS
330
357
102
}
330
357
100
DictionaryVariables
280
     0
  1
1:1
  0
DICTIONARYVAR
  5
4FB
102
{ACAD_REACTORS
330
357
102
}
330
357
100
DictionaryVariables
280
     0
  1
STANDARD
  0
DICTIONARYVAR
  5
38D
102
{ACAD_REACTORS
330
357
102
}
330
357
100
DictionaryVariables
280
     0
  1
STANDARD
  0
DICTIONARYVAR
  5
4FC
102
{ACAD_REACTORS
330
357
102
}
330
357
100
DictionaryVariables
280
     0
  1
Metric50
  0
DICTIONARYVAR
  5
4FD
102
{ACAD_REACTORS
330
357
102
}
330
357
100
DictionaryVariables
280
     0
  1
Metric50
  0
DICTIONARYVAR
  5
359
102
{ACAD_REACTORS
330
357
102
}
330
357
100
DictionaryVariables
280
     0
  1
2
  0
DICTIONARYVAR
  5
358
102
{ACAD_REACTORS
330
357
102
}
330
357
100
DictionaryVariables
280
     0
  1
1
  0
DICTIONARYVAR
  5
4FF
102
{ACAD_REACTORS
330
357
102
}
330
357
100
DictionaryVariables
280
     0
  1
0
  0
DICTIONARYVAR
  5
38E
102
{ACAD_REACTORS
330
357
102
}
330
357
100
DictionaryVariables
280
     0
  1

  0
DICTIONARYVAR
  5
4FE
102
{ACAD_REACTORS
330
357
102
}
330
357
100
DictionaryVariables
280
     0
  1
127
  0
DICTIONARYVAR
  5
1313
102
{ACAD_REACTORS
330
357
102
}
330
357
100
DictionaryVariables
280
     0
  1
2
  0
DICTIONARY
  5
131D
102
{ACAD_REACTORS
330
131B
102
}
330
131B
100
AcDbDictionary
281
     1
  0
DICTIONARY
  5
131C
102
{ACAD_REACTORS
330
131B
102
}
330
131B
100
AcDbDictionary
281
     1
  3
8796081812704
350
1316
  3
8796081812720
350
1317
  3
8796081812736
350
1318
  3
8796081812752
350
1319
  3
8796081812768
350
131A
  0
DICTIONARY
  5
1355
330
6D1
100
AcDbDictionary
280
     1
281
     1
  3
ACAD_XREC_ROUNDTRIP
360
1356
  0
DICTIONARY
  5
1351
330
4D5
100
AcDbDictionary
280
     1
281
     1
  3
ACAD_XREC_ROUNDTRIP
360
1352
  0
DICTIONARY
  5
4A8
330
4A7
100
AcDbDictionary
280
     1
281
     1
  3
ACAD_XREC_ROUNDTRIP
360
50C
  3
BUMPTILE
360
4AA
  3
DIFFUSETILE
360
4A9
  3
OPACITYTILE
360
4AD
  3
REFLECTIONTILE
360
4AC
  3
REFRACTIONTILE
360
4AE
  3
SPECULARTILE
360
4AB
  0
DICTIONARY
  5
4A0
330
49F
100
AcDbDictionary
280
     1
281
     1
  3
ACAD_XREC_ROUNDTRIP
360
50B
  3
BUMPTILE
360
4A2
  3
DIFFUSETILE
360
4A1
  3
OPACITYTILE
360
4A5
  3
REFLECTIONTILE
360
4A4
  3
REFRACTIONTILE
360
4A6
  3
SPECULARTILE
360
4A3
  0
DICTIONARY
  5
4B0
330
4AF
100
AcDbDictionary
280
     1
281
     1
  3
ACAD_XREC_ROUNDTRIP
360
50D
  3
BUMPTILE
360
4B2
  3
DIFFUSETILE
360
4B1
  3
OPACITYTILE
360
4B5
  3
REFLECTIONTILE
360
4B4
  3
REFRACTIONTILE
360
4B6
  3
SPECULARTILE
360
4B3
  0
DICTIONARY
  5
1353
330
6D0
100
AcDbDictionary
280
     1
281
     1
  3
ACAD_XREC_ROUNDTRIP
360
1354
  0
DICTIONARY
  5
134F
330
4D3
100
AcDbDictionary
280
     1
281
     1
  3
ACAD_XREC_ROUNDTRIP
360
1350
  0
DICTIONARY
  5
502
330
4D0
100
AcDbDictionary
280
     1
281
     1
  3
ACAD_ROUNDTRIP_2008_TABLESTYLE_CELLSTYLEMAP
360
1314
  3
ACAD_XREC_ROUNDTRIP
360
134E
  0
DICTIONARY
  5
1328
330
4BD
100
AcDbDictionary
280
     1
281
     1
  3
ACAD_XREC_ROUNDTRIP
360
1329
  0
DICTIONARY
  5
1326
330
4BC
100
AcDbDictionary
280
     1
281
     1
  3
ACAD_XREC_ROUNDTRIP
360
1327
  0
DICTIONARY
  5
1334
330
4C3
100
AcDbDictionary
280
     1
281
     1
  3
ACAD_XREC_ROUNDTRIP
360
1335
  0
DICTIONARY
  5
133C
330
4C7
100
AcDbDictionary
280
     1
281
     1
  3
ACAD_XREC_ROUNDTRIP
360
133D
  0
DICTIONARY
  5
132E
330
4C0
100
AcDbDictionary
280
     1
281
     1
  3
ACAD_XREC_ROUNDTRIP
360
132F
  0
DICTIONARY
  5
1332
330
4C2
100
AcDbDictionary
280
     1
281
     1
  3
ACAD_XREC_ROUNDTRIP
360
1333
  0
DICTIONARY
  5
134C
330
4CF
100
AcDbDictionary
280
     1
281
     1
  3
ACAD_XREC_ROUNDTRIP
360
134D
  0
DICTIONARY
  5
133A
330
4C6
100
AcDbDictionary
280
     1
281
     1
  3
ACAD_XREC_ROUNDTRIP
360
133B
  0
DICTIONARY
  5
131E
330
4B8
100
AcDbDictionary
280
     1
281
     1
  3
ACAD_XREC_ROUNDTRIP
360
131F
  0
DICTIONARY
  5
1320
330
4B9
100
AcDbDictionary
280
     1
281
     1
  3
ACAD_XREC_ROUNDTRIP
360
1321
  0
DICTIONARY
  5
1322
330
4BA
100
AcDbDictionary
280
     1
281
     1
  3
ACAD_XREC_ROUNDTRIP
360
1323
  0
DICTIONARY
  5
1324
330
4BB
100
AcDbDictionary
280
     1
281
     1
  3
ACAD_XREC_ROUNDTRIP
360
1325
  0
DICTIONARY
  5
132C
330
4BF
100
AcDbDictionary
280
     1
281
     1
  3
ACAD_XREC_ROUNDTRIP
360
132D
  0
DICTIONARY
  5
1348
330
4CD
100
AcDbDictionary
280
     1
281
     1
  3
ACAD_XREC_ROUNDTRIP
360
1349
  0
DICTIONARY
  5
1338
330
4C5
100
AcDbDictionary
280
     1
281
     1
  3
ACAD_XREC_ROUNDTRIP
360
1339
  0
DICTIONARY
  5
134A
330
4CE
100
AcDbDictionary
280
     1
281
     1
  3
ACAD_XREC_ROUNDTRIP
360
134B
  0
DICTIONARY
  5
1330
330
4C1
100
AcDbDictionary
280
     1
281
     1
  3
ACAD_XREC_ROUNDTRIP
360
1331
  0
DICTIONARY
  5
1346
330
4CC
100
AcDbDictionary
280
     1
281
     1
  3
ACAD_XREC_ROUNDTRIP
360
1347
  0
DICTIONARY
  5
1344
330
4CB
100
AcDbDictionary
280
     1
281
     1
  3
ACAD_XREC_ROUNDTRIP
360
1345
  0
DICTIONARY
  5
133E
330
4C8
100
AcDbDictionary
280
     1
281
     1
  3
ACAD_XREC_ROUNDTRIP
360
133F
  0
DICTIONARY
  5
1340
330
4C9
100
AcDbDictionary
280
     1
281
     1
  3
ACAD_XREC_ROUNDTRIP
360
1341
  0
DICTIONARY
  5
1336
330
4C4
100
AcDbDictionary
280
     1
281
     1
  3
ACAD_XREC_ROUNDTRIP
360
1337
  0
DICTIONARY
  5
132A
330
4BE
100
AcDbDictionary
280
     1
281
     1
  3
ACAD_XREC_ROUNDTRIP
360
132B
  0
DICTIONARY
  5
1342
330
4CA
100
AcDbDictionary
280
     1
281
     1
  3
ACAD_XREC_ROUNDTRIP
360
1343
  0
XRECORD
  5
1316
102
{ACAD_REACTORS
330
131C
102
}
330
131C
100
AcDbXrecord
280
     1
  1
AcDb_Thumbnail_Schema
102
{ATTRRECORD
341
1317
  2
AcDbDs::TreatedAsObjectData
280
     1
291
     1
102
ATTRRECORD}
102
{ATTRRECORD
341
1318
  2
AcDbDs::Legacy
280
     1
291
     1
102
ATTRRECORD}
  2
AcDbDs::ID
280
    10
 91
        8
102
{ATTRRECORD
341
1319
  2
AcDs:Indexable
280
     1
291
     1
102
ATTRRECORD}
102
{ATTRRECORD
341
131A
  2
AcDbDs::HandleAttribute
280
     7
282
     1
102
ATTRRECORD}
  2
Thumbnail_Data
280
    15
 91
        0
  0
XRECORD
  5
1317
102
{ACAD_REACTORS
330
131C
102
}
330
131C
100
AcDbXrecord
280
     1
  1
AcDbDs::TreatedAsObjectDataSchema
  2
AcDbDs::TreatedAsObjectData
280
     1
 91
        0
  0
XRECORD
  5
1318
102
{ACAD_REACTORS
330
131C
102
}
330
131C
100
AcDbXrecord
280
     1
  1
AcDbDs::LegacySchema
  2
AcDbDs::Legacy
280
     1
 91
        0
  0
XRECORD
  5
1319
102
{ACAD_REACTORS
330
131C
102
}
330
131C
100
AcDbXrecord
280
     1
  1
AcDbDs::IndexedPropertySchema
  2
AcDs:Indexable
280
     1
 91
        0
  0
XRECORD
  5
131A
102
{ACAD_REACTORS
330
131C
102
}
330
131C
100
AcDbXrecord
280
     1
  1
AcDbDs::HandleAttributeSchema
  2
AcDbDs::HandleAttribute
280
     7
 91
        1
284
     1
  0
XRECORD
  5
1356
102
{ACAD_REACTORS
330
1355
102
}
330
1355
100
AcDbXrecord
280
     1
102
DISPLAYNAME
  1
Imperial24
102
FLAGS
 90
        0
  0
XRECORD
  5
1352
102
{ACAD_REACTORS
330
1351
102
}
330
1351
100
AcDbXrecord
280
     1
102
DISPLAYNAME
  1
Metric50
102
FLAGS
 90
        0
  0
XRECORD
  5
50C
102
{ACAD_REACTORS
330
4A8
102
}
330
4A8
100
AcDbXrecord
280
     1
102
MATERIAL
148
0.0
149
0.0
149
0.0
 93
        0
 94
      127
282
     0
 72
     0
 77
     0
171
     0
175
     0
179
     0
273
     0
  0
XRECORD
  5
4AA
102
{ACAD_REACTORS
330
4A8
102
}
330
4A8
100
AcDbXrecord
280
     1
270
     1
271
     1
  0
XRECORD
  5
4A9
102
{ACAD_REACTORS
330
4A8
102
}
330
4A8
100
AcDbXrecord
280
     1
270
     1
271
     1
  0
XRECORD
  5
4AD
102
{ACAD_REACTORS
330
4A8
102
}
330
4A8
100
AcDbXrecord
280
     1
270
     1
271
     1
  0
XRECORD
  5
4AC
102
{ACAD_REACTORS
330
4A8
102
}
330
4A8
100
AcDbXrecord
280
     1
270
     1
271
     1
  0
XRECORD
  5
4AE
102
{ACAD_REACTORS
330
4A8
102
}
330
4A8
100
AcDbXrecord
280
     1
270
     1
271
     1
  0
XRECORD
  5
4AB
102
{ACAD_REACTORS
330
4A8
102
}
330
4A8
100
AcDbXrecord
280
     1
270
     1
271
     1
  0
XRECORD
  5
50B
102
{ACAD_REACTORS
330
4A0
102
}
330
4A0
100
AcDbXrecord
280
     1
102
MATERIAL
148
0.0
149
0.0
149
0.0
 93
        0
 94
      127
282
     0
 72
     0
 77
     0
171
     0
175
     0
179
     0
273
     0
  0
XRECORD
  5
4A2
102
{ACAD_REACTORS
330
4A0
102
}
330
4A0
100
AcDbXrecord
280
     1
270
     1
271
     1
  0
XRECORD
  5
4A1
102
{ACAD_REACTORS
330
4A0
102
}
330
4A0
100
AcDbXrecord
280
     1
270
     1
271
     1
  0
XRECORD
  5
4A5
102
{ACAD_REACTORS
330
4A0
102
}
330
4A0
100
AcDbXrecord
280
     1
270
     1
271
     1
  0
XRECORD
  5
4A4
102
{ACAD_REACTORS
330
4A0
102
}
330
4A0
100
AcDbXrecord
280
     1
270
     1
271
     1
  0
XRECORD
  5
4A6
102
{ACAD_REACTORS
330
4A0
102
}
330
4A0
100
AcDbXrecord
280
     1
270
     1
271
     1
  0
XRECORD
  5
4A3
102
{ACAD_REACTORS
330
4A0
102
}
330
4A0
100
AcDbXrecord
280
     1
270
     1
271
     1
  0
XRECORD
  5
50D
102
{ACAD_REACTORS
330
4B0
102
}
330
4B0
100
AcDbXrecord
280
     1
102
MATERIAL
148
0.0
149
0.0
149
0.0
 93
        0
 94
      127
282
     0
 72
     0
 77
     0
171
     0
175
     0
179
     0
273
     0
  0
XRECORD
  5
4B2
102
{ACAD_REACTORS
330
4B0
102
}
330
4B0
100
AcDbXrecord
280
     1
270
     1
271
     1
  0
XRECORD
  5
4B1
102
{ACAD_REACTORS
330
4B0
102
}
330
4B0
100
AcDbXrecord
280
     1
270
     1
271
     1
  0
XRECORD
  5
4B5
102
{ACAD_REACTORS
330
4B0
102
}
330
4B0
100
AcDbXrecord
280
     1
270
     1
271
     1
  0
XRECORD
  5
4B4
102
{ACAD_REACTORS
330
4B0
102
}
330
4B0
100
AcDbXrecord
280
     1
270
     1
271
     1
  0
XRECORD
  5
4B6
102
{ACAD_REACTORS
330
4B0
102
}
330
4B0
100
AcDbXrecord
280
     1
270
     1
271
     1
  0
XRECORD
  5
4B3
102
{ACAD_REACTORS
330
4B0
102
}
330
4B0
100
AcDbXrecord
280
     1
270
     1
271
     1
  0
XRECORD
  5
1354
102
{ACAD_REACTORS
330
1353
102
}
330
1353
100
AcDbXrecord
280
     1
102
DISPLAYNAME
  1
Imperial24
102
FLAGS
 90
        0
  0
XRECORD
  5
1350
102
{ACAD_REACTORS
330
134F
102
}
330
134F
100
AcDbXrecord
280
     1
102
DISPLAYNAME
  1
Metric50
102
FLAGS
 90
        0
  0
CELLSTYLEMAP
  5
1314
102
{ACAD_REACTORS
330
502
102
}
330
502
100
AcDbCellStyleMap
 90
        3
300
CELLSTYLE
  1
TABLEFORMAT_BEGIN
 90
        5
170
     1
 91
        0
 92
    32768
 62
   257
 93
        1
300
CONTENTFORMAT
  1
CONTENTFORMAT_BEGIN
 90
        0
 91
        0
 92
      512
 93
        0
300

 40
0.0
140
1.0
 94
        5
 62
     0
340
10
144
6.0
309
CONTENTFORMAT_END
171
     1
301
MARGIN
  1
CELLMARGIN_BEGIN
 40
1.5
 40
1.5
 40
1.5
 40
1.5
 40
0.18
 40
0.18
309
CELLMARGIN_END
 94
        6
 95
        1
302
GRIDFORMAT
  1
GRIDFORMAT_BEGIN
 90
        0
 91
        1
 62
     0
 92
       -2
340
0
 93
        0
 40
1.125
309
GRIDFORMAT_END
 95
        2
302
GRIDFORMAT
  1
GRIDFORMAT_BEGIN
 90
        0
 91
        1
 62
     0
 92
       -2
340
0
 93
        0
 40
1.125
309
GRIDFORMAT_END
 95
        4
302
GRIDFORMAT
  1
GRIDFORMAT_BEGIN
 90
        0
 91
        1
 62
     0
 92
       -2
340
0
 93
        0
 40
1.125
309
GRIDFORMAT_END
 95
        8
302
GRIDFORMAT
  1
GRIDFORMAT_BEGIN
 90
        0
 91
        1
 62
     0
 92
       -2
340
0
 93
        0
 40
1.125
309
GRIDFORMAT_END
 95
       16
302
GRIDFORMAT
  1
GRIDFORMAT_BEGIN
 90
        0
 91
        1
 62
     0
 92
       -2
340
0
 93
        0
 40
1.125
309
GRIDFORMAT_END
 95
       32
302
GRIDFORMAT
  1
GRIDFORMAT_BEGIN
 90
        0
 91
        1
 62
     0
 92
       -2
340
0
 93
        0
 40
1.125
309
GRIDFORMAT_END
309
TABLEFORMAT_END
  1
CELLSTYLE_BEGIN
 90
        1
 91
        1
300
_TITLE
309
CELLSTYLE_END
300
CELLSTYLE
  1
TABLEFORMAT_BEGIN
 90
        5
170
     1
 91
        0
 92
        0
 62
   257
 93
        1
300
CONTENTFORMAT
  1
CONTENTFORMAT_BEGIN
 90
        0
 91
        0
 92
      512
 93
        0
300

 40
0.0
140
1.0
 94
        5
 62
     0
340
10
144
4.5
309
CONTENTFORMAT_END
171
     1
301
MARGIN
  1
CELLMARGIN_BEGIN
 40
1.5
 40
1.5
 40
1.5
 40
1.5
 40
0.18
 40
0.18
309
CELLMARGIN_END
 94
        6
 95
        1
302
GRIDFORMAT
  1
GRIDFORMAT_BEGIN
 90
        0
 91
        1
 62
     0
 92
       -2
340
0
 93
        0
 40
1.125
309
GRIDFORMAT_END
 95
        2
302
GRIDFORMAT
  1
GRIDFORMAT_BEGIN
 90
        0
 91
        1
 62
     0
 92
       -2
340
0
 93
        0
 40
1.125
309
GRIDFORMAT_END
 95
        4
302
GRIDFORMAT
  1
GRIDFORMAT_BEGIN
 90
        0
 91
        1
 62
     0
 92
       -2
340
0
 93
        0
 40
1.125
309
GRIDFORMAT_END
 95
        8
302
GRIDFORMAT
  1
GRIDFORMAT_BEGIN
 90
        0
 91
        1
 62
     0
 92
       -2
340
0
 93
        0
 40
1.125
309
GRIDFORMAT_END
 95
       16
302
GRIDFORMAT
  1
GRIDFORMAT_BEGIN
 90
        0
 91
        1
 62
     0
 92
       -2
340
0
 93
        0
 40
1.125
309
GRIDFORMAT_END
 95
       32
302
GRIDFORMAT
  1
GRIDFORMAT_BEGIN
 90
        0
 91
        1
 62
     0
 92
       -2
340
0
 93
        0
 40
1.125
309
GRIDFORMAT_END
309
TABLEFORMAT_END
  1
CELLSTYLE_BEGIN
 90
        2
 91
        1
300
_HEADER
309
CELLSTYLE_END
300
CELLSTYLE
  1
TABLEFORMAT_BEGIN
 90
        5
170
     1
 91
        0
 92
        0
 62
   257
 93
        1
300
CONTENTFORMAT
  1
CONTENTFORMAT_BEGIN
 90
        0
 91
        0
 92
      512
 93
        0
300

 40
0.0
140
1.0
 94
        2
 62
     0
340
10
144
4.5
309
CONTENTFORMAT_END
171
     1
301
MARGIN
  1
CELLMARGIN_BEGIN
 40
1.5
 40
1.5
 40
1.5
 40
1.5
 40
0.18
 40
0.18
309
CELLMARGIN_END
 94
        6
 95
        1
302
GRIDFORMAT
  1
GRIDFORMAT_BEGIN
 90
        0
 91
        1
 62
     0
 92
       -2
340
0
 93
        0
 40
1.125
309
GRIDFORMAT_END
 95
        2
302
GRIDFORMAT
  1
GRIDFORMAT_BEGIN
 90
        0
 91
        1
 62
     0
 92
       -2
340
0
 93
        0
 40
1.125
309
GRIDFORMAT_END
 95
        4
302
GRIDFORMAT
  1
GRIDFORMAT_BEGIN
 90
        0
 91
        1
 62
     0
 92
       -2
340
0
 93
        0
 40
1.125
309
GRIDFORMAT_END
 95
        8
302
GRIDFORMAT
  1
GRIDFORMAT_BEGIN
 90
        0
 91
        1
 62
     0
 92
       -2
340
0
 93
        0
 40
1.125
309
GRIDFORMAT_END
 95
       16
302
GRIDFORMAT
  1
GRIDFORMAT_BEGIN
 90
        0
 91
        1
 62
     0
 92
       -2
340
0
 93
        0
 40
1.125
309
GRIDFORMAT_END
 95
       32
302
GRIDFORMAT
  1
GRIDFORMAT_BEGIN
 90
        0
 91
        1
 62
     0
 92
       -2
340
0
 93
        0
 40
1.125
309
GRIDFORMAT_END
309
TABLEFORMAT_END
  1
CELLSTYLE_BEGIN
 90
        3
 91
        2
300
_DATA
309
CELLSTYLE_END
  0
XRECORD
  5
134E
102
{ACAD_REACTORS
330
502
102
}
330
502
100
AcDbXrecord
280
     1
102
ACAD_ROUNDTRIP_PRE2007_TABLESTYLE
 90
      512
 91
        0
  1

 92
      512
 93
        0
  2

 94
      512
 95
        0
  3

  0
XRECORD
  5
1329
102
{ACAD_REACTORS
330
1328
102
}
330
1328
100
AcDbXrecord
280
     1
102
RTVSPost2010Prop28
280
     1
102
RTVSPost2010PropOp28
 70
     1
102
RTVSPost2010Prop29
280
     1
102
RTVSPost2010PropOp29
 70
     1
102
RTVSPost2010Prop30
280
     0
102
RTVSPost2010PropOp30
 70
     1
102
RTVSPost2010Prop31
280
     0
102
RTVSPost2010PropOp31
 70
     1
102
RTVSPost2010Prop32
280
     0
102
RTVSPost2010PropOp32
 70
     1
102
RTVSPost2010Prop33
280
     0
102
RTVSPost2010PropOp33
 70
     1
102
RTVSPost2010Prop34
280
     0
102
RTVSPost2010PropOp34
 70
     1
102
RTVSPost2010Prop35
280
     0
102
RTVSPost2010PropOp35
 70
     1
102
RTVSPost2010Prop36
280
     0
102
RTVSPost2010PropOp36
 70
     1
102
RTVSPost2010Prop37
 90
       50
102
RTVSPost2010PropOp37
 70
     1
102
RTVSPost2010Prop38
140
0.0
102
RTVSPost2010PropOp38
 70
     1
102
RTVSPost2010Prop39
140
1.0
102
RTVSPost2010PropOp39
 70
     1
102
RTVSPost2010Prop40
 90
        0
102
RTVSPost2010PropOp40
 70
     1
102
RTVSPost2010Prop41ColorIndex
 90
       18
102
RTVSPost2010Prop41ColorRGB
 90
        0
102
RTVSPost2010PropOp41
 70
     1
102
RTVSPost2010Prop42
 90
       50
102
RTVSPost2010PropOp42
 70
     1
102
RTVSPost2010Prop43
 90
        3
102
RTVSPost2010PropOp43
 70
     1
102
RTVSPost2010Prop44ColorIndex
 90
        5
102
RTVSPost2010Prop44ColorRGB
 90
      255
102
RTVSPost2010PropOp44
 70
     1
102
RTVSPost2010Prop45
280
     0
102
RTVSPost2010PropOp45
 70
     1
102
RTVSPost2010Prop46
 90
       50
102
RTVSPost2010PropOp46
 70
     1
102
RTVSPost2010Prop47
 90
       50
102
RTVSPost2010PropOp47
 70
     1
102
RTVSPost2010Prop48
 90
       50
102
RTVSPost2010PropOp48
 70
     1
102
RTVSPost2010Prop49
280
     0
102
RTVSPost2010PropOp49
 70
     1
102
RTVSPost2010Prop50
 90
       50
102
RTVSPost2010PropOp50
 70
     1
102
RTVSPost2010Prop51ColorIndex
 90
      256
102
RTVSPost2010Prop51ColorRGB
 90
-16777216
102
RTVSPost2010PropOp51
 70
     0
102
RTVSPost2010Prop52
140
1.0
102
RTVSPost2010PropOp52
 70
     0
102
RTVSPost2010Prop53
 90
        2
102
RTVSPost2010PropOp53
 70
     1
102
RTVSPost2010Prop54
  1
strokes_ogs.tif
102
RTVSPost2010PropOp54
 70
     1
102
RTVSPost2010Prop55
280
     0
102
RTVSPost2010PropOp55
 70
     1
102
RTVSPost2010Prop56
140
1.0
102
RTVSPost2010PropOp56
 70
     1
102
RTVSPost2010Prop57
140
1.0
102
RTVSPost2010PropOp57
 70
     1
102
RTVSPropertyOp0
 70
     1
102
RTVSPropertyOp1
 70
     1
102
RTVSPropertyOp2
 70
     1
102
RTVSPropertyOp3
 70
     1
102
RTVSPropertyOp4
 70
     1
102
RTVSPropertyOp5
 70
     1
102
RTVSPropertyOp6
 70
     1
102
RTVSPropertyOp7
 70
     1
102
RTVSPropertyOp8
 70
     1
102
RTVSPropertyOp9
 70
     1
102
RTVSPropertyOp10
 70
     1
102
RTVSPropertyOp11
 70
     1
102
RTVSPropertyOp12
 70
     1
102
RTVSPropertyOp13
 70
     1
102
RTVSPropertyOp14
 70
     1
102
RTVSPropertyOp15
 70
     1
102
RTVSPropertyOp16
 70
     1
102
RTVSPropertyOp17
 70
     1
102
RTVSPropertyOp18
 70
     1
102
RTVSPropertyOp19
 70
     1
102
RTVSPropertyOp20
 70
     1
102
RTVSPropertyOp21
 70
     1
102
RTVSPropertyOp22
 70
     1
102
RTVSPropertyOp23
 70
     1
102
RTVSPropertyOp24
 70
     1
102
RTVSPropertyOp25
 70
     1
102
RTVSPropertyOp26
 70
     1
102
RTVSPropertyOp27
 70
     1
102
RTVSPropertyOp28
 70
     1
102
RTVSPropertyOp29
 70
     1
102
RTVSPropertyOp30
 70
     1
102
RTVSPropertyOp31
 70
     1
102
RTVSPropertyOp32
 70
     1
102
RTVSPropertyOp33
 70
     1
102
RTVSPropertyOp34
 70
     1
102
RTVSPropertyOp35
 70
     1
102
RTVSPropertyOp36
 70
     1
102
RTVSPropertyOp37
 70
     1
102
RTVSPropertyOp38
 70
     1
102
RTVSPropertyOp39
 70
     1
102
RTVSPropertyOp40
 70
     1
102
RTVSPropertyOp41
 70
     1
102
RTVSPropertyOp42
 70
     1
102
RTVSPropertyOp43
 70
     1
102
RTVSPropertyOp44
 70
     1
102
RTVSPropertyOp45
 70
     1
102
RTVSPropertyOp46
 70
     1
102
RTVSPropertyOp47
 70
     1
102
RTVSPropertyOp48
 70
     1
102
RTVSPropertyOp49
 70
     1
102
RTVSPropertyOp50
 70
     1
102
RTVSPropertyOp51
 70
     0
102
RTVSPropertyOp52
 70
     0
102
RTVSPropertyOp53
 70
     1
102
RTVSPropertyOp54
 70
     1
102
RTVSPropertyOp55
 70
     1
102
RTVSPropertyOp56
 70
     1
102
RTVSPropertyOp57
 70
     1
102
RTVSPropertyOp58
 70
     1
102
RTVSPropertyOp59
 70
     1
102
RTVSPropertyOp60
 70
     1
102
RTVSPropertyOp61
 70
     1
102
RTVSPropertyOp62
 70
     1
  0
XRECORD
  5
1327
102
{ACAD_REACTORS
330
1326
102
}
330
1326
100
AcDbXrecord
280
     1
102
RTVSPost2010Prop28
280
     0
102
RTVSPost2010PropOp28
 70
     1
102
RTVSPost2010Prop29
280
     1
102
RTVSPost2010PropOp29
 70
     1
102
RTVSPost2010Prop30
280
     1
102
RTVSPost2010PropOp30
 70
     1
102
RTVSPost2010Prop31
280
     0
102
RTVSPost2010PropOp31
 70
     1
102
RTVSPost2010Prop32
280
     0
102
RTVSPost2010PropOp32
 70
     1
102
RTVSPost2010Prop33
280
     0
102
RTVSPost2010PropOp33
 70
     1
102
RTVSPost2010Prop34
280
     0
102
RTVSPost2010PropOp34
 70
     1
102
RTVSPost2010Prop35
280
     0
102
RTVSPost2010PropOp35
 70
     1
102
RTVSPost2010Prop36
280
     0
102
RTVSPost2010PropOp36
 70
     1
102
RTVSPost2010Prop37
 90
       50
102
RTVSPost2010PropOp37
 70
     1
102
RTVSPost2010Prop38
140
0.0
102
RTVSPost2010PropOp38
 70
     1
102
RTVSPost2010Prop39
140
1.0
102
RTVSPost2010PropOp39
 70
     1
102
RTVSPost2010Prop40
 90
        0
102
RTVSPost2010PropOp40
 70
     1
102
RTVSPost2010Prop41ColorIndex
 90
       18
102
RTVSPost2010Prop41ColorRGB
 90
        0
102
RTVSPost2010PropOp41
 70
     1
102
RTVSPost2010Prop42
 90
       50
102
RTVSPost2010PropOp42
 70
     1
102
RTVSPost2010Prop43
 90
        3
102
RTVSPost2010PropOp43
 70
     1
102
RTVSPost2010Prop44ColorIndex
 90
        5
102
RTVSPost2010Prop44ColorRGB
 90
      255
102
RTVSPost2010PropOp44
 70
     1
102
RTVSPost2010Prop45
280
     0
102
RTVSPost2010PropOp45
 70
     1
102
RTVSPost2010Prop46
 90
       50
102
RTVSPost2010PropOp46
 70
     1
102
RTVSPost2010Prop47
 90
       50
102
RTVSPost2010PropOp47
 70
     1
102
RTVSPost2010Prop48
 90
       50
102
RTVSPost2010PropOp48
 70
     1
102
RTVSPost2010Prop49
280
     0
102
RTVSPost2010PropOp49
 70
     1
102
RTVSPost2010Prop50
 90
       50
102
RTVSPost2010PropOp50
 70
     1
102
RTVSPost2010Prop51ColorIndex
 90
      256
102
RTVSPost2010Prop51ColorRGB
 90
-16777216
102
RTVSPost2010PropOp51
 70
     0
102
RTVSPost2010Prop52
140
1.0
102
RTVSPost2010PropOp52
 70
     0
102
RTVSPost2010Prop53
 90
        2
102
RTVSPost2010PropOp53
 70
     1
102
RTVSPost2010Prop54
  1
strokes_ogs.tif
102
RTVSPost2010PropOp54
 70
     1
102
RTVSPost2010Prop55
280
     0
102
RTVSPost2010PropOp55
 70
     1
102
RTVSPost2010Prop56
140
1.0
102
RTVSPost2010PropOp56
 70
     1
102
RTVSPost2010Prop57
140
1.0
102
RTVSPost2010PropOp57
 70
     1
102
RTVSPropertyOp0
 70
     1
102
RTVSPropertyOp1
 70
     1
102
RTVSPropertyOp2
 70
     1
102
RTVSPropertyOp3
 70
     1
102
RTVSPropertyOp4
 70
     1
102
RTVSPropertyOp5
 70
     1
102
RTVSPropertyOp6
 70
     1
102
RTVSPropertyOp7
 70
     1
102
RTVSPropertyOp8
 70
     1
102
RTVSPropertyOp9
 70
     1
102
RTVSPropertyOp10
 70
     1
102
RTVSPropertyOp11
 70
     1
102
RTVSPropertyOp12
 70
     1
102
RTVSPropertyOp13
 70
     1
102
RTVSPropertyOp14
 70
     1
102
RTVSPropertyOp15
 70
     1
102
RTVSPropertyOp16
 70
     1
102
RTVSPropertyOp17
 70
     1
102
RTVSPropertyOp18
 70
     1
102
RTVSPropertyOp19
 70
     1
102
RTVSPropertyOp20
 70
     1
102
RTVSPropertyOp21
 70
     1
102
RTVSPropertyOp22
 70
     1
102
RTVSPropertyOp23
 70
     1
102
RTVSPropertyOp24
 70
     1
102
RTVSPropertyOp25
 70
     1
102
RTVSPropertyOp26
 70
     1
102
RTVSPropertyOp27
 70
     1
102
RTVSPropertyOp28
 70
     1
102
RTVSPropertyOp29
 70
     1
102
RTVSPropertyOp30
 70
     1
102
RTVSPropertyOp31
 70
     1
102
RTVSPropertyOp32
 70
     1
102
RTVSPropertyOp33
 70
     1
102
RTVSPropertyOp34
 70
     1
102
RTVSPropertyOp35
 70
     1
102
RTVSPropertyOp36
 70
     1
102
RTVSPropertyOp37
 70
     1
102
RTVSPropertyOp38
 70
     1
102
RTVSPropertyOp39
 70
     1
102
RTVSPropertyOp40
 70
     1
102
RTVSPropertyOp41
 70
     1
102
RTVSPropertyOp42
 70
     1
102
RTVSPropertyOp43
 70
     1
102
RTVSPropertyOp44
 70
     1
102
RTVSPropertyOp45
 70
     1
102
RTVSPropertyOp46
 70
     1
102
RTVSPropertyOp47
 70
     1
102
RTVSPropertyOp48
 70
     1
102
RTVSPropertyOp49
 70
     1
102
RTVSPropertyOp50
 70
     1
102
RTVSPropertyOp51
 70
     0
102
RTVSPropertyOp52
 70
     0
102
RTVSPropertyOp53
 70
     1
102
RTVSPropertyOp54
 70
     1
102
RTVSPropertyOp55
 70
     1
102
RTVSPropertyOp56
 70
     1
102
RTVSPropertyOp57
 70
     1
102
RTVSPropertyOp58
 70
     1
102
RTVSPropertyOp59
 70
     1
102
RTVSPropertyOp60
 70
     1
102
RTVSPropertyOp61
 70
     1
102
RTVSPropertyOp62
 70
     1
  0
XRECORD
  5
1335
102
{ACAD_REACTORS
330
1334
102
}
330
1334
100
AcDbXrecord
280
     1
102
RTVSPost2010Prop28
280
     0
102
RTVSPost2010PropOp28
 70
     1
102
RTVSPost2010Prop29
280
     1
102
RTVSPost2010PropOp29
 70
     1
102
RTVSPost2010Prop30
280
     1
102
RTVSPost2010PropOp30
 70
     1
102
RTVSPost2010Prop31
280
     0
102
RTVSPost2010PropOp31
 70
     1
102
RTVSPost2010Prop32
280
     0
102
RTVSPost2010PropOp32
 70
     1
102
RTVSPost2010Prop33
280
     0
102
RTVSPost2010PropOp33
 70
     1
102
RTVSPost2010Prop34
280
     0
102
RTVSPost2010PropOp34
 70
     1
102
RTVSPost2010Prop35
280
     0
102
RTVSPost2010PropOp35
 70
     1
102
RTVSPost2010Prop36
280
     0
102
RTVSPost2010PropOp36
 70
     1
102
RTVSPost2010Prop37
 90
       50
102
RTVSPost2010PropOp37
 70
     1
102
RTVSPost2010Prop38
140
0.0
102
RTVSPost2010PropOp38
 70
     1
102
RTVSPost2010Prop39
140
1.0
102
RTVSPost2010PropOp39
 70
     1
102
RTVSPost2010Prop40
 90
        0
102
RTVSPost2010PropOp40
 70
     1
102
RTVSPost2010Prop41ColorIndex
 90
       18
102
RTVSPost2010Prop41ColorRGB
 90
        0
102
RTVSPost2010PropOp41
 70
     1
102
RTVSPost2010Prop42
 90
       50
102
RTVSPost2010PropOp42
 70
     1
102
RTVSPost2010Prop43
 90
        3
102
RTVSPost2010PropOp43
 70
     1
102
RTVSPost2010Prop44ColorIndex
 90
        5
102
RTVSPost2010Prop44ColorRGB
 90
      255
102
RTVSPost2010PropOp44
 70
     1
102
RTVSPost2010Prop45
280
     0
102
RTVSPost2010PropOp45
 70
     1
102
RTVSPost2010Prop46
 90
       50
102
RTVSPost2010PropOp46
 70
     1
102
RTVSPost2010Prop47
 90
       50
102
RTVSPost2010PropOp47
 70
     1
102
RTVSPost2010Prop48
 90
       50
102
RTVSPost2010PropOp48
 70
     1
102
RTVSPost2010Prop49
280
     0
102
RTVSPost2010PropOp49
 70
     1
102
RTVSPost2010Prop50
 90
       50
102
RTVSPost2010PropOp50
 70
     1
102
RTVSPost2010Prop51ColorIndex
 90
      256
102
RTVSPost2010Prop51ColorRGB
 90
-16777216
102
RTVSPost2010PropOp51
 70
     0
102
RTVSPost2010Prop52
140
1.0
102
RTVSPost2010PropOp52
 70
     0
102
RTVSPost2010Prop53
 90
        2
102
RTVSPost2010PropOp53
 70
     1
102
RTVSPost2010Prop54
  1
strokes_ogs.tif
102
RTVSPost2010PropOp54
 70
     1
102
RTVSPost2010Prop55
280
     0
102
RTVSPost2010PropOp55
 70
     1
102
RTVSPost2010Prop56
140
1.0
102
RTVSPost2010PropOp56
 70
     1
102
RTVSPost2010Prop57
140
1.0
102
RTVSPost2010PropOp57
 70
     1
102
RTVSPropertyOp0
 70
     1
102
RTVSPropertyOp1
 70
     1
102
RTVSPropertyOp2
 70
     1
102
RTVSPropertyOp3
 70
     1
102
RTVSPropertyOp4
 70
     1
102
RTVSPropertyOp5
 70
     1
102
RTVSPropertyOp6
 70
     1
102
RTVSPropertyOp7
 70
     1
102
RTVSPropertyOp8
 70
     1
102
RTVSPropertyOp9
 70
     1
102
RTVSPropertyOp10
 70
     1
102
RTVSPropertyOp11
 70
     1
102
RTVSPropertyOp12
 70
     1
102
RTVSPropertyOp13
 70
     1
102
RTVSPropertyOp14
 70
     1
102
RTVSPropertyOp15
 70
     1
102
RTVSPropertyOp16
 70
     1
102
RTVSPropertyOp17
 70
     1
102
RTVSPropertyOp18
 70
     1
102
RTVSPropertyOp19
 70
     1
102
RTVSPropertyOp20
 70
     1
102
RTVSPropertyOp21
 70
     1
102
RTVSPropertyOp22
 70
     1
102
RTVSPropertyOp23
 70
     1
102
RTVSPropertyOp24
 70
     1
102
RTVSPropertyOp25
 70
     1
102
RTVSPropertyOp26
 70
     1
102
RTVSPropertyOp27
 70
     1
102
RTVSPropertyOp28
 70
     1
102
RTVSPropertyOp29
 70
     1
102
RTVSPropertyOp30
 70
     1
102
RTVSPropertyOp31
 70
     1
102
RTVSPropertyOp32
 70
     1
102
RTVSPropertyOp33
 70
     1
102
RTVSPropertyOp34
 70
     1
102
RTVSPropertyOp35
 70
     1
102
RTVSPropertyOp36
 70
     1
102
RTVSPropertyOp37
 70
     1
102
RTVSPropertyOp38
 70
     1
102
RTVSPropertyOp39
 70
     1
102
RTVSPropertyOp40
 70
     1
102
RTVSPropertyOp41
 70
     1
102
RTVSPropertyOp42
 70
     1
102
RTVSPropertyOp43
 70
     1
102
RTVSPropertyOp44
 70
     1
102
RTVSPropertyOp45
 70
     1
102
RTVSPropertyOp46
 70
     1
102
RTVSPropertyOp47
 70
     1
102
RTVSPropertyOp48
 70
     1
102
RTVSPropertyOp49
 70
     1
102
RTVSPropertyOp50
 70
     1
102
RTVSPropertyOp51
 70
     0
102
RTVSPropertyOp52
 70
     0
102
RTVSPropertyOp53
 70
     1
102
RTVSPropertyOp54
 70
     1
102
RTVSPropertyOp55
 70
     1
102
RTVSPropertyOp56
 70
     1
102
RTVSPropertyOp57
 70
     1
102
RTVSPropertyOp58
 70
     1
102
RTVSPropertyOp59
 70
     1
102
RTVSPropertyOp60
 70
     1
102
RTVSPropertyOp61
 70
     1
102
RTVSPropertyOp62
 70
     1
  0
XRECORD
  5
133D
102
{ACAD_REACTORS
330
133C
102
}
330
133C
100
AcDbXrecord
280
     1
102
RTVSPost2010Prop28
280
     0
102
RTVSPost2010PropOp28
 70
     1
102
RTVSPost2010Prop29
280
     1
102
RTVSPost2010PropOp29
 70
     1
102
RTVSPost2010Prop30
280
     1
102
RTVSPost2010PropOp30
 70
     1
102
RTVSPost2010Prop31
280
     0
102
RTVSPost2010PropOp31
 70
     1
102
RTVSPost2010Prop32
280
     0
102
RTVSPost2010PropOp32
 70
     1
102
RTVSPost2010Prop33
280
     0
102
RTVSPost2010PropOp33
 70
     1
102
RTVSPost2010Prop34
280
     0
102
RTVSPost2010PropOp34
 70
     1
102
RTVSPost2010Prop35
280
     0
102
RTVSPost2010PropOp35
 70
     1
102
RTVSPost2010Prop36
280
     0
102
RTVSPost2010PropOp36
 70
     1
102
RTVSPost2010Prop37
 90
       50
102
RTVSPost2010PropOp37
 70
     1
102
RTVSPost2010Prop38
140
0.0
102
RTVSPost2010PropOp38
 70
     1
102
RTVSPost2010Prop39
140
1.0
102
RTVSPost2010PropOp39
 70
     1
102
RTVSPost2010Prop40
 90
        0
102
RTVSPost2010PropOp40
 70
     1
102
RTVSPost2010Prop41ColorIndex
 90
       18
102
RTVSPost2010Prop41ColorRGB
 90
        0
102
RTVSPost2010PropOp41
 70
     1
102
RTVSPost2010Prop42
 90
       50
102
RTVSPost2010PropOp42
 70
     1
102
RTVSPost2010Prop43
 90
        3
102
RTVSPost2010PropOp43
 70
     1
102
RTVSPost2010Prop44ColorIndex
 90
        5
102
RTVSPost2010Prop44ColorRGB
 90
      255
102
RTVSPost2010PropOp44
 70
     1
102
RTVSPost2010Prop45
280
     0
102
RTVSPost2010PropOp45
 70
     1
102
RTVSPost2010Prop46
 90
       50
102
RTVSPost2010PropOp46
 70
     1
102
RTVSPost2010Prop47
 90
       50
102
RTVSPost2010PropOp47
 70
     1
102
RTVSPost2010Prop48
 90
       50
102
RTVSPost2010PropOp48
 70
     1
102
RTVSPost2010Prop49
280
     0
102
RTVSPost2010PropOp49
 70
     1
102
RTVSPost2010Prop50
 90
       50
102
RTVSPost2010PropOp50
 70
     1
102
RTVSPost2010Prop51ColorIndex
 90
      256
102
RTVSPost2010Prop51ColorRGB
 90
-16777216
102
RTVSPost2010PropOp51
 70
     0
102
RTVSPost2010Prop52
140
1.0
102
RTVSPost2010PropOp52
 70
     0
102
RTVSPost2010Prop53
 90
        2
102
RTVSPost2010PropOp53
 70
     1
102
RTVSPost2010Prop54
  1
strokes_ogs.tif
102
RTVSPost2010PropOp54
 70
     1
102
RTVSPost2010Prop55
280
     0
102
RTVSPost2010PropOp55
 70
     1
102
RTVSPost2010Prop56
140
1.0
102
RTVSPost2010PropOp56
 70
     1
102
RTVSPost2010Prop57
140
1.0
102
RTVSPost2010PropOp57
 70
     1
102
RTVSPropertyOp0
 70
     1
102
RTVSPropertyOp1
 70
     1
102
RTVSPropertyOp2
 70
     1
102
RTVSPropertyOp3
 70
     1
102
RTVSPropertyOp4
 70
     1
102
RTVSPropertyOp5
 70
     1
102
RTVSPropertyOp6
 70
     1
102
RTVSPropertyOp7
 70
     1
102
RTVSPropertyOp8
 70
     1
102
RTVSPropertyOp9
 70
     1
102
RTVSPropertyOp10
 70
     1
102
RTVSPropertyOp11
 70
     1
102
RTVSPropertyOp12
 70
     1
102
RTVSPropertyOp13
 70
     1
102
RTVSPropertyOp14
 70
     1
102
RTVSPropertyOp15
 70
     1
102
RTVSPropertyOp16
 70
     1
102
RTVSPropertyOp17
 70
     1
102
RTVSPropertyOp18
 70
     1
102
RTVSPropertyOp19
 70
     1
102
RTVSPropertyOp20
 70
     1
102
RTVSPropertyOp21
 70
     1
102
RTVSPropertyOp22
 70
     1
102
RTVSPropertyOp23
 70
     1
102
RTVSPropertyOp24
 70
     1
102
RTVSPropertyOp25
 70
     1
102
RTVSPropertyOp26
 70
     1
102
RTVSPropertyOp27
 70
     1
102
RTVSPropertyOp28
 70
     1
102
RTVSPropertyOp29
 70
     1
102
RTVSPropertyOp30
 70
     1
102
RTVSPropertyOp31
 70
     1
102
RTVSPropertyOp32
 70
     1
102
RTVSPropertyOp33
 70
     1
102
RTVSPropertyOp34
 70
     1
102
RTVSPropertyOp35
 70
     1
102
RTVSPropertyOp36
 70
     1
102
RTVSPropertyOp37
 70
     1
102
RTVSPropertyOp38
 70
     1
102
RTVSPropertyOp39
 70
     1
102
RTVSPropertyOp40
 70
     1
102
RTVSPropertyOp41
 70
     1
102
RTVSPropertyOp42
 70
     1
102
RTVSPropertyOp43
 70
     1
102
RTVSPropertyOp44
 70
     1
102
RTVSPropertyOp45
 70
     1
102
RTVSPropertyOp46
 70
     1
102
RTVSPropertyOp47
 70
     1
102
RTVSPropertyOp48
 70
     1
102
RTVSPropertyOp49
 70
     1
102
RTVSPropertyOp50
 70
     1
102
RTVSPropertyOp51
 70
     0
102
RTVSPropertyOp52
 70
     0
102
RTVSPropertyOp53
 70
     1
102
RTVSPropertyOp54
 70
     1
102
RTVSPropertyOp55
 70
     1
102
RTVSPropertyOp56
 70
     1
102
RTVSPropertyOp57
 70
     1
102
RTVSPropertyOp58
 70
     1
102
RTVSPropertyOp59
 70
     1
102
RTVSPropertyOp60
 70
     1
102
RTVSPropertyOp61
 70
     1
102
RTVSPropertyOp62
 70
     1
  0
XRECORD
  5
132F
102
{ACAD_REACTORS
330
132E
102
}
330
132E
100
AcDbXrecord
280
     1
102
RTVSPost2010Prop28
280
     0
102
RTVSPost2010PropOp28
 70
     1
102
RTVSPost2010Prop29
280
     1
102
RTVSPost2010PropOp29
 70
     1
102
RTVSPost2010Prop30
280
     1
102
RTVSPost2010PropOp30
 70
     1
102
RTVSPost2010Prop31
280
     0
102
RTVSPost2010PropOp31
 70
     1
102
RTVSPost2010Prop32
280
     0
102
RTVSPost2010PropOp32
 70
     1
102
RTVSPost2010Prop33
280
     0
102
RTVSPost2010PropOp33
 70
     1
102
RTVSPost2010Prop34
280
     0
102
RTVSPost2010PropOp34
 70
     1
102
RTVSPost2010Prop35
280
     0
102
RTVSPost2010PropOp35
 70
     1
102
RTVSPost2010Prop36
280
     0
102
RTVSPost2010PropOp36
 70
     1
102
RTVSPost2010Prop37
 90
       50
102
RTVSPost2010PropOp37
 70
     1
102
RTVSPost2010Prop38
140
0.0
102
RTVSPost2010PropOp38
 70
     1
102
RTVSPost2010Prop39
140
1.0
102
RTVSPost2010PropOp39
 70
     1
102
RTVSPost2010Prop40
 90
        0
102
RTVSPost2010PropOp40
 70
     1
102
RTVSPost2010Prop41ColorIndex
 90
       18
102
RTVSPost2010Prop41ColorRGB
 90
        0
102
RTVSPost2010PropOp41
 70
     1
102
RTVSPost2010Prop42
 90
       50
102
RTVSPost2010PropOp42
 70
     1
102
RTVSPost2010Prop43
 90
        3
102
RTVSPost2010PropOp43
 70
     1
102
RTVSPost2010Prop44ColorIndex
 90
        5
102
RTVSPost2010Prop44ColorRGB
 90
      255
102
RTVSPost2010PropOp44
 70
     1
102
RTVSPost2010Prop45
280
     0
102
RTVSPost2010PropOp45
 70
     1
102
RTVSPost2010Prop46
 90
       50
102
RTVSPost2010PropOp46
 70
     1
102
RTVSPost2010Prop47
 90
       50
102
RTVSPost2010PropOp47
 70
     1
102
RTVSPost2010Prop48
 90
       50
102
RTVSPost2010PropOp48
 70
     1
102
RTVSPost2010Prop49
280
     0
102
RTVSPost2010PropOp49
 70
     1
102
RTVSPost2010Prop50
 90
       50
102
RTVSPost2010PropOp50
 70
     1
102
RTVSPost2010Prop51ColorIndex
 90
      256
102
RTVSPost2010Prop51ColorRGB
 90
-16777216
102
RTVSPost2010PropOp51
 70
     0
102
RTVSPost2010Prop52
140
1.0
102
RTVSPost2010PropOp52
 70
     0
102
RTVSPost2010Prop53
 90
        2
102
RTVSPost2010PropOp53
 70
     1
102
RTVSPost2010Prop54
  1
strokes_ogs.tif
102
RTVSPost2010PropOp54
 70
     1
102
RTVSPost2010Prop55
280
     0
102
RTVSPost2010PropOp55
 70
     1
102
RTVSPost2010Prop56
140
1.0
102
RTVSPost2010PropOp56
 70
     1
102
RTVSPost2010Prop57
140
1.0
102
RTVSPost2010PropOp57
 70
     1
102
RTVSPropertyOp0
 70
     1
102
RTVSPropertyOp1
 70
     1
102
RTVSPropertyOp2
 70
     1
102
RTVSPropertyOp3
 70
     1
102
RTVSPropertyOp4
 70
     1
102
RTVSPropertyOp5
 70
     1
102
RTVSPropertyOp6
 70
     1
102
RTVSPropertyOp7
 70
     1
102
RTVSPropertyOp8
 70
     1
102
RTVSPropertyOp9
 70
     1
102
RTVSPropertyOp10
 70
     1
102
RTVSPropertyOp11
 70
     1
102
RTVSPropertyOp12
 70
     1
102
RTVSPropertyOp13
 70
     1
102
RTVSPropertyOp14
 70
     1
102
RTVSPropertyOp15
 70
     1
102
RTVSPropertyOp16
 70
     1
102
RTVSPropertyOp17
 70
     1
102
RTVSPropertyOp18
 70
     1
102
RTVSPropertyOp19
 70
     1
102
RTVSPropertyOp20
 70
     1
102
RTVSPropertyOp21
 70
     1
102
RTVSPropertyOp22
 70
     1
102
RTVSPropertyOp23
 70
     1
102
RTVSPropertyOp24
 70
     1
102
RTVSPropertyOp25
 70
     1
102
RTVSPropertyOp26
 70
     1
102
RTVSPropertyOp27
 70
     1
102
RTVSPropertyOp28
 70
     1
102
RTVSPropertyOp29
 70
     1
102
RTVSPropertyOp30
 70
     1
102
RTVSPropertyOp31
 70
     1
102
RTVSPropertyOp32
 70
     1
102
RTVSPropertyOp33
 70
     1
102
RTVSPropertyOp34
 70
     1
102
RTVSPropertyOp35
 70
     1
102
RTVSPropertyOp36
 70
     1
102
RTVSPropertyOp37
 70
     1
102
RTVSPropertyOp38
 70
     1
102
RTVSPropertyOp39
 70
     1
102
RTVSPropertyOp40
 70
     1
102
RTVSPropertyOp41
 70
     1
102
RTVSPropertyOp42
 70
     1
102
RTVSPropertyOp43
 70
     1
102
RTVSPropertyOp44
 70
     1
102
RTVSPropertyOp45
 70
     1
102
RTVSPropertyOp46
 70
     1
102
RTVSPropertyOp47
 70
     1
102
RTVSPropertyOp48
 70
     1
102
RTVSPropertyOp49
 70
     1
102
RTVSPropertyOp50
 70
     1
102
RTVSPropertyOp51
 70
     0
102
RTVSPropertyOp52
 70
     0
102
RTVSPropertyOp53
 70
     1
102
RTVSPropertyOp54
 70
     1
102
RTVSPropertyOp55
 70
     1
102
RTVSPropertyOp56
 70
     1
102
RTVSPropertyOp57
 70
     1
102
RTVSPropertyOp58
 70
     1
102
RTVSPropertyOp59
 70
     1
102
RTVSPropertyOp60
 70
     1
102
RTVSPropertyOp61
 70
     1
102
RTVSPropertyOp62
 70
     1
  0
XRECORD
  5
1333
102
{ACAD_REACTORS
330
1332
102
}
330
1332
100
AcDbXrecord
280
     1
102
RTVSPost2010Prop28
280
     0
102
RTVSPost2010PropOp28
 70
     1
102
RTVSPost2010Prop29
280
     1
102
RTVSPost2010PropOp29
 70
     1
102
RTVSPost2010Prop30
280
     1
102
RTVSPost2010PropOp30
 70
     1
102
RTVSPost2010Prop31
280
     0
102
RTVSPost2010PropOp31
 70
     1
102
RTVSPost2010Prop32
280
     0
102
RTVSPost2010PropOp32
 70
     1
102
RTVSPost2010Prop33
280
     0
102
RTVSPost2010PropOp33
 70
     1
102
RTVSPost2010Prop34
280
     0
102
RTVSPost2010PropOp34
 70
     1
102
RTVSPost2010Prop35
280
     0
102
RTVSPost2010PropOp35
 70
     1
102
RTVSPost2010Prop36
280
     0
102
RTVSPost2010PropOp36
 70
     1
102
RTVSPost2010Prop37
 90
       50
102
RTVSPost2010PropOp37
 70
     1
102
RTVSPost2010Prop38
140
0.0
102
RTVSPost2010PropOp38
 70
     1
102
RTVSPost2010Prop39
140
1.0
102
RTVSPost2010PropOp39
 70
     1
102
RTVSPost2010Prop40
 90
        0
102
RTVSPost2010PropOp40
 70
     1
102
RTVSPost2010Prop41ColorIndex
 90
       18
102
RTVSPost2010Prop41ColorRGB
 90
        0
102
RTVSPost2010PropOp41
 70
     1
102
RTVSPost2010Prop42
 90
       50
102
RTVSPost2010PropOp42
 70
     1
102
RTVSPost2010Prop43
 90
        3
102
RTVSPost2010PropOp43
 70
     1
102
RTVSPost2010Prop44ColorIndex
 90
        5
102
RTVSPost2010Prop44ColorRGB
 90
      255
102
RTVSPost2010PropOp44
 70
     1
102
RTVSPost2010Prop45
280
     0
102
RTVSPost2010PropOp45
 70
     1
102
RTVSPost2010Prop46
 90
       50
102
RTVSPost2010PropOp46
 70
     1
102
RTVSPost2010Prop47
 90
       50
102
RTVSPost2010PropOp47
 70
     1
102
RTVSPost2010Prop48
 90
       50
102
RTVSPost2010PropOp48
 70
     1
102
RTVSPost2010Prop49
280
     0
102
RTVSPost2010PropOp49
 70
     1
102
RTVSPost2010Prop50
 90
       50
102
RTVSPost2010PropOp50
 70
     1
102
RTVSPost2010Prop51ColorIndex
 90
      256
102
RTVSPost2010Prop51ColorRGB
 90
-16777216
102
RTVSPost2010PropOp51
 70
     0
102
RTVSPost2010Prop52
140
1.0
102
RTVSPost2010PropOp52
 70
     0
102
RTVSPost2010Prop53
 90
        2
102
RTVSPost2010PropOp53
 70
     1
102
RTVSPost2010Prop54
  1
strokes_ogs.tif
102
RTVSPost2010PropOp54
 70
     1
102
RTVSPost2010Prop55
280
     0
102
RTVSPost2010PropOp55
 70
     1
102
RTVSPost2010Prop56
140
1.0
102
RTVSPost2010PropOp56
 70
     1
102
RTVSPost2010Prop57
140
1.0
102
RTVSPost2010PropOp57
 70
     1
102
RTVSPropertyOp0
 70
     1
102
RTVSPropertyOp1
 70
     1
102
RTVSPropertyOp2
 70
     1
102
RTVSPropertyOp3
 70
     1
102
RTVSPropertyOp4
 70
     1
102
RTVSPropertyOp5
 70
     1
102
RTVSPropertyOp6
 70
     1
102
RTVSPropertyOp7
 70
     1
102
RTVSPropertyOp8
 70
     1
102
RTVSPropertyOp9
 70
     1
102
RTVSPropertyOp10
 70
     1
102
RTVSPropertyOp11
 70
     1
102
RTVSPropertyOp12
 70
     1
102
RTVSPropertyOp13
 70
     1
102
RTVSPropertyOp14
 70
     1
102
RTVSPropertyOp15
 70
     1
102
RTVSPropertyOp16
 70
     1
102
RTVSPropertyOp17
 70
     1
102
RTVSPropertyOp18
 70
     1
102
RTVSPropertyOp19
 70
     1
102
RTVSPropertyOp20
 70
     1
102
RTVSPropertyOp21
 70
     1
102
RTVSPropertyOp22
 70
     1
102
RTVSPropertyOp23
 70
     1
102
RTVSPropertyOp24
 70
     1
102
RTVSPropertyOp25
 70
     1
102
RTVSPropertyOp26
 70
     1
102
RTVSPropertyOp27
 70
     1
102
RTVSPropertyOp28
 70
     1
102
RTVSPropertyOp29
 70
     1
102
RTVSPropertyOp30
 70
     1
102
RTVSPropertyOp31
 70
     1
102
RTVSPropertyOp32
 70
     1
102
RTVSPropertyOp33
 70
     1
102
RTVSPropertyOp34
 70
     1
102
RTVSPropertyOp35
 70
     1
102
RTVSPropertyOp36
 70
     1
102
RTVSPropertyOp37
 70
     1
102
RTVSPropertyOp38
 70
     1
102
RTVSPropertyOp39
 70
     1
102
RTVSPropertyOp40
 70
     1
102
RTVSPropertyOp41
 70
     1
102
RTVSPropertyOp42
 70
     1
102
RTVSPropertyOp43
 70
     1
102
RTVSPropertyOp44
 70
     1
102
RTVSPropertyOp45
 70
     1
102
RTVSPropertyOp46
 70
     1
102
RTVSPropertyOp47
 70
     1
102
RTVSPropertyOp48
 70
     1
102
RTVSPropertyOp49
 70
     1
102
RTVSPropertyOp50
 70
     1
102
RTVSPropertyOp51
 70
     0
102
RTVSPropertyOp52
 70
     0
102
RTVSPropertyOp53
 70
     1
102
RTVSPropertyOp54
 70
     1
102
RTVSPropertyOp55
 70
     1
102
RTVSPropertyOp56
 70
     1
102
RTVSPropertyOp57
 70
     1
102
RTVSPropertyOp58
 70
     1
102
RTVSPropertyOp59
 70
     1
102
RTVSPropertyOp60
 70
     1
102
RTVSPropertyOp61
 70
     1
102
RTVSPropertyOp62
 70
     1
  0
XRECORD
  5
134D
102
{ACAD_REACTORS
330
134C
102
}
330
134C
100
AcDbXrecord
280
     1
102
RTVSPost2010Prop28
280
     0
102
RTVSPost2010PropOp28
 70
     1
102
RTVSPost2010Prop29
280
     1
102
RTVSPost2010PropOp29
 70
     1
102
RTVSPost2010Prop30
280
     1
102
RTVSPost2010PropOp30
 70
     1
102
RTVSPost2010Prop31
280
     0
102
RTVSPost2010PropOp31
 70
     1
102
RTVSPost2010Prop32
280
     0
102
RTVSPost2010PropOp32
 70
     1
102
RTVSPost2010Prop33
280
     0
102
RTVSPost2010PropOp33
 70
     1
102
RTVSPost2010Prop34
280
     0
102
RTVSPost2010PropOp34
 70
     1
102
RTVSPost2010Prop35
280
     0
102
RTVSPost2010PropOp35
 70
     1
102
RTVSPost2010Prop36
280
     0
102
RTVSPost2010PropOp36
 70
     1
102
RTVSPost2010Prop37
 90
       50
102
RTVSPost2010PropOp37
 70
     0
102
RTVSPost2010Prop38
140
0.0
102
RTVSPost2010PropOp38
 70
     0
102
RTVSPost2010Prop39
140
1.0
102
RTVSPost2010PropOp39
 70
     0
102
RTVSPost2010Prop40
 90
        0
102
RTVSPost2010PropOp40
 70
     0
102
RTVSPost2010Prop41ColorIndex
 90
       18
102
RTVSPost2010Prop41ColorRGB
 90
        0
102
RTVSPost2010PropOp41
 70
     0
102
RTVSPost2010Prop42
 90
       50
102
RTVSPost2010PropOp42
 70
     0
102
RTVSPost2010Prop43
 90
        3
102
RTVSPost2010PropOp43
 70
     0
102
RTVSPost2010Prop44ColorIndex
 90
        5
102
RTVSPost2010Prop44ColorRGB
 90
      255
102
RTVSPost2010PropOp44
 70
     0
102
RTVSPost2010Prop45
280
     0
102
RTVSPost2010PropOp45
 70
     1
102
RTVSPost2010Prop46
 90
       50
102
RTVSPost2010PropOp46
 70
     0
102
RTVSPost2010Prop47
 90
       50
102
RTVSPost2010PropOp47
 70
     0
102
RTVSPost2010Prop48
 90
       50
102
RTVSPost2010PropOp48
 70
     0
102
RTVSPost2010Prop49
280
     0
102
RTVSPost2010PropOp49
 70
     1
102
RTVSPost2010Prop50
 90
       50
102
RTVSPost2010PropOp50
 70
     0
102
RTVSPost2010Prop51ColorIndex
 90
      256
102
RTVSPost2010Prop51ColorRGB
 90
-16777216
102
RTVSPost2010PropOp51
 70
     0
102
RTVSPost2010Prop52
140
1.0
102
RTVSPost2010PropOp52
 70
     0
102
RTVSPost2010Prop53
 90
        2
102
RTVSPost2010PropOp53
 70
     0
102
RTVSPost2010Prop54
  1
strokes_ogs.tif
102
RTVSPost2010PropOp54
 70
     0
102
RTVSPost2010Prop55
280
     0
102
RTVSPost2010PropOp55
 70
     1
102
RTVSPost2010Prop56
140
1.0
102
RTVSPost2010PropOp56
 70
     0
102
RTVSPost2010Prop57
140
1.0
102
RTVSPost2010PropOp57
 70
     0
102
RTVSPropertyOp0
 70
     0
102
RTVSPropertyOp1
 70
     0
102
RTVSPropertyOp2
 70
     0
102
RTVSPropertyOp3
 70
     0
102
RTVSPropertyOp4
 70
     0
102
RTVSPropertyOp5
 70
     0
102
RTVSPropertyOp6
 70
     0
102
RTVSPropertyOp7
 70
     0
102
RTVSPropertyOp8
 70
     0
102
RTVSPropertyOp9
 70
     0
102
RTVSPropertyOp10
 70
     0
102
RTVSPropertyOp11
 70
     0
102
RTVSPropertyOp12
 70
     0
102
RTVSPropertyOp13
 70
     0
102
RTVSPropertyOp14
 70
     2
102
RTVSPropertyOp15
 70
     0
102
RTVSPropertyOp16
 70
     0
102
RTVSPropertyOp17
 70
     0
102
RTVSPropertyOp18
 70
     0
102
RTVSPropertyOp19
 70
     0
102
RTVSPropertyOp20
 70
     0
102
RTVSPropertyOp21
 70
     0
102
RTVSPropertyOp22
 70
     0
102
RTVSPropertyOp23
 70
     0
102
RTVSPropertyOp24
 70
     0
102
RTVSPropertyOp25
 70
     0
102
RTVSPropertyOp26
 70
     0
102
RTVSPropertyOp27
 70
     0
102
RTVSPropertyOp28
 70
     1
102
RTVSPropertyOp29
 70
     1
102
RTVSPropertyOp30
 70
     1
102
RTVSPropertyOp31
 70
     1
102
RTVSPropertyOp32
 70
     1
102
RTVSPropertyOp33
 70
     1
102
RTVSPropertyOp34
 70
     1
102
RTVSPropertyOp35
 70
     1
102
RTVSPropertyOp36
 70
     1
102
RTVSPropertyOp37
 70
     0
102
RTVSPropertyOp38
 70
     0
102
RTVSPropertyOp39
 70
     0
102
RTVSPropertyOp40
 70
     0
102
RTVSPropertyOp41
 70
     0
102
RTVSPropertyOp42
 70
     0
102
RTVSPropertyOp43
 70
     0
102
RTVSPropertyOp44
 70
     0
102
RTVSPropertyOp45
 70
     1
102
RTVSPropertyOp46
 70
     0
102
RTVSPropertyOp47
 70
     0
102
RTVSPropertyOp48
 70
     0
102
RTVSPropertyOp49
 70
     1
102
RTVSPropertyOp50
 70
     0
102
RTVSPropertyOp51
 70
     0
102
RTVSPropertyOp52
 70
     0
102
RTVSPropertyOp53
 70
     0
102
RTVSPropertyOp54
 70
     0
102
RTVSPropertyOp55
 70
     1
102
RTVSPropertyOp56
 70
     0
102
RTVSPropertyOp57
 70
     0
102
RTVSPropertyOp58
 70
     0
102
RTVSPropertyOp59
 70
     0
102
RTVSPropertyOp60
 70
     0
102
RTVSPropertyOp61
 70
     0
102
RTVSPropertyOp62
 70
     0
  0
XRECORD
  5
133B
102
{ACAD_REACTORS
330
133A
102
}
330
133A
100
AcDbXrecord
280
     1
102
RTVSPost2010Prop28
280
     0
102
RTVSPost2010PropOp28
 70
     1
102
RTVSPost2010Prop29
280
     1
102
RTVSPost2010PropOp29
 70
     1
102
RTVSPost2010Prop30
280
     1
102
RTVSPost2010PropOp30
 70
     1
102
RTVSPost2010Prop31
280
     0
102
RTVSPost2010PropOp31
 70
     1
102
RTVSPost2010Prop32
280
     0
102
RTVSPost2010PropOp32
 70
     1
102
RTVSPost2010Prop33
280
     0
102
RTVSPost2010PropOp33
 70
     1
102
RTVSPost2010Prop34
280
     0
102
RTVSPost2010PropOp34
 70
     1
102
RTVSPost2010Prop35
280
     0
102
RTVSPost2010PropOp35
 70
     1
102
RTVSPost2010Prop36
280
     0
102
RTVSPost2010PropOp36
 70
     1
102
RTVSPost2010Prop37
 90
       50
102
RTVSPost2010PropOp37
 70
     1
102
RTVSPost2010Prop38
140
0.0
102
RTVSPost2010PropOp38
 70
     1
102
RTVSPost2010Prop39
140
1.0
102
RTVSPost2010PropOp39
 70
     1
102
RTVSPost2010Prop40
 90
        0
102
RTVSPost2010PropOp40
 70
     1
102
RTVSPost2010Prop41ColorIndex
 90
       18
102
RTVSPost2010Prop41ColorRGB
 90
        0
102
RTVSPost2010PropOp41
 70
     1
102
RTVSPost2010Prop42
 90
       50
102
RTVSPost2010PropOp42
 70
     1
102
RTVSPost2010Prop43
 90
        3
102
RTVSPost2010PropOp43
 70
     1
102
RTVSPost2010Prop44ColorIndex
 90
        5
102
RTVSPost2010Prop44ColorRGB
 90
      255
102
RTVSPost2010PropOp44
 70
     1
102
RTVSPost2010Prop45
280
     0
102
RTVSPost2010PropOp45
 70
     1
102
RTVSPost2010Prop46
 90
       50
102
RTVSPost2010PropOp46
 70
     1
102
RTVSPost2010Prop47
 90
       50
102
RTVSPost2010PropOp47
 70
     1
102
RTVSPost2010Prop48
 90
       50
102
RTVSPost2010PropOp48
 70
     1
102
RTVSPost2010Prop49
280
     0
102
RTVSPost2010PropOp49
 70
     1
102
RTVSPost2010Prop50
 90
       50
102
RTVSPost2010PropOp50
 70
     1
102
RTVSPost2010Prop51ColorIndex
 90
      256
102
RTVSPost2010Prop51ColorRGB
 90
-16777216
102
RTVSPost2010PropOp51
 70
     0
102
RTVSPost2010Prop52
140
1.0
102
RTVSPost2010PropOp52
 70
     0
102
RTVSPost2010Prop53
 90
        2
102
RTVSPost2010PropOp53
 70
     1
102
RTVSPost2010Prop54
  1
strokes_ogs.tif
102
RTVSPost2010PropOp54
 70
     1
102
RTVSPost2010Prop55
280
     0
102
RTVSPost2010PropOp55
 70
     1
102
RTVSPost2010Prop56
140
1.0
102
RTVSPost2010PropOp56
 70
     1
102
RTVSPost2010Prop57
140
1.0
102
RTVSPost2010PropOp57
 70
     1
102
RTVSPropertyOp0
 70
     1
102
RTVSPropertyOp1
 70
     1
102
RTVSPropertyOp2
 70
     1
102
RTVSPropertyOp3
 70
     1
102
RTVSPropertyOp4
 70
     1
102
RTVSPropertyOp5
 70
     1
102
RTVSPropertyOp6
 70
     1
102
RTVSPropertyOp7
 70
     1
102
RTVSPropertyOp8
 70
     1
102
RTVSPropertyOp9
 70
     1
102
RTVSPropertyOp10
 70
     1
102
RTVSPropertyOp11
 70
     1
102
RTVSPropertyOp12
 70
     1
102
RTVSPropertyOp13
 70
     1
102
RTVSPropertyOp14
 70
     1
102
RTVSPropertyOp15
 70
     1
102
RTVSPropertyOp16
 70
     1
102
RTVSPropertyOp17
 70
     1
102
RTVSPropertyOp18
 70
     1
102
RTVSPropertyOp19
 70
     1
102
RTVSPropertyOp20
 70
     1
102
RTVSPropertyOp21
 70
     1
102
RTVSPropertyOp22
 70
     1
102
RTVSPropertyOp23
 70
     1
102
RTVSPropertyOp24
 70
     1
102
RTVSPropertyOp25
 70
     1
102
RTVSPropertyOp26
 70
     1
102
RTVSPropertyOp27
 70
     1
102
RTVSPropertyOp28
 70
     1
102
RTVSPropertyOp29
 70
     1
102
RTVSPropertyOp30
 70
     1
102
RTVSPropertyOp31
 70
     1
102
RTVSPropertyOp32
 70
     1
102
RTVSPropertyOp33
 70
     1
102
RTVSPropertyOp34
 70
     1
102
RTVSPropertyOp35
 70
     1
102
RTVSPropertyOp36
 70
     1
102
RTVSPropertyOp37
 70
     1
102
RTVSPropertyOp38
 70
     1
102
RTVSPropertyOp39
 70
     1
102
RTVSPropertyOp40
 70
     1
102
RTVSPropertyOp41
 70
     1
102
RTVSPropertyOp42
 70
     1
102
RTVSPropertyOp43
 70
     1
102
RTVSPropertyOp44
 70
     1
102
RTVSPropertyOp45
 70
     1
102
RTVSPropertyOp46
 70
     1
102
RTVSPropertyOp47
 70
     1
102
RTVSPropertyOp48
 70
     1
102
RTVSPropertyOp49
 70
     1
102
RTVSPropertyOp50
 70
     1
102
RTVSPropertyOp51
 70
     0
102
RTVSPropertyOp52
 70
     0
102
RTVSPropertyOp53
 70
     1
102
RTVSPropertyOp54
 70
     1
102
RTVSPropertyOp55
 70
     1
102
RTVSPropertyOp56
 70
     1
102
RTVSPropertyOp57
 70
     1
102
RTVSPropertyOp58
 70
     1
102
RTVSPropertyOp59
 70
     1
102
RTVSPropertyOp60
 70
     1
102
RTVSPropertyOp61
 70
     1
102
RTVSPropertyOp62
 70
     1
  0
XRECORD
  5
131F
102
{ACAD_REACTORS
330
131E
102
}
330
131E
100
AcDbXrecord
280
     1
102
RTVSPost2010Prop28
280
     0
102
RTVSPost2010PropOp28
 70
     1
102
RTVSPost2010Prop29
280
     1
102
RTVSPost2010PropOp29
 70
     1
102
RTVSPost2010Prop30
280
     1
102
RTVSPost2010PropOp30
 70
     1
102
RTVSPost2010Prop31
280
     0
102
RTVSPost2010PropOp31
 70
     1
102
RTVSPost2010Prop32
280
     0
102
RTVSPost2010PropOp32
 70
     1
102
RTVSPost2010Prop33
280
     0
102
RTVSPost2010PropOp33
 70
     1
102
RTVSPost2010Prop34
280
     0
102
RTVSPost2010PropOp34
 70
     1
102
RTVSPost2010Prop35
280
     0
102
RTVSPost2010PropOp35
 70
     1
102
RTVSPost2010Prop36
280
     0
102
RTVSPost2010PropOp36
 70
     1
102
RTVSPost2010Prop37
 90
       50
102
RTVSPost2010PropOp37
 70
     1
102
RTVSPost2010Prop38
140
0.0
102
RTVSPost2010PropOp38
 70
     1
102
RTVSPost2010Prop39
140
1.0
102
RTVSPost2010PropOp39
 70
     1
102
RTVSPost2010Prop40
 90
        0
102
RTVSPost2010PropOp40
 70
     1
102
RTVSPost2010Prop41ColorIndex
 90
       18
102
RTVSPost2010Prop41ColorRGB
 90
        0
102
RTVSPost2010PropOp41
 70
     1
102
RTVSPost2010Prop42
 90
       50
102
RTVSPost2010PropOp42
 70
     1
102
RTVSPost2010Prop43
 90
        3
102
RTVSPost2010PropOp43
 70
     1
102
RTVSPost2010Prop44ColorIndex
 90
        5
102
RTVSPost2010Prop44ColorRGB
 90
      255
102
RTVSPost2010PropOp44
 70
     1
102
RTVSPost2010Prop45
280
     0
102
RTVSPost2010PropOp45
 70
     1
102
RTVSPost2010Prop46
 90
       50
102
RTVSPost2010PropOp46
 70
     1
102
RTVSPost2010Prop47
 90
       50
102
RTVSPost2010PropOp47
 70
     1
102
RTVSPost2010Prop48
 90
       50
102
RTVSPost2010PropOp48
 70
     1
102
RTVSPost2010Prop49
280
     0
102
RTVSPost2010PropOp49
 70
     1
102
RTVSPost2010Prop50
 90
       50
102
RTVSPost2010PropOp50
 70
     1
102
RTVSPost2010Prop51ColorIndex
 90
      256
102
RTVSPost2010Prop51ColorRGB
 90
-16777216
102
RTVSPost2010PropOp51
 70
     0
102
RTVSPost2010Prop52
140
1.0
102
RTVSPost2010PropOp52
 70
     0
102
RTVSPost2010Prop53
 90
        2
102
RTVSPost2010PropOp53
 70
     1
102
RTVSPost2010Prop54
  1
strokes_ogs.tif
102
RTVSPost2010PropOp54
 70
     1
102
RTVSPost2010Prop55
280
     0
102
RTVSPost2010PropOp55
 70
     1
102
RTVSPost2010Prop56
140
1.0
102
RTVSPost2010PropOp56
 70
     1
102
RTVSPost2010Prop57
140
1.0
102
RTVSPost2010PropOp57
 70
     1
102
RTVSPropertyOp0
 70
     1
102
RTVSPropertyOp1
 70
     1
102
RTVSPropertyOp2
 70
     1
102
RTVSPropertyOp3
 70
     1
102
RTVSPropertyOp4
 70
     1
102
RTVSPropertyOp5
 70
     1
102
RTVSPropertyOp6
 70
     1
102
RTVSPropertyOp7
 70
     1
102
RTVSPropertyOp8
 70
     1
102
RTVSPropertyOp9
 70
     1
102
RTVSPropertyOp10
 70
     1
102
RTVSPropertyOp11
 70
     1
102
RTVSPropertyOp12
 70
     1
102
RTVSPropertyOp13
 70
     1
102
RTVSPropertyOp14
 70
     1
102
RTVSPropertyOp15
 70
     1
102
RTVSPropertyOp16
 70
     1
102
RTVSPropertyOp17
 70
     1
102
RTVSPropertyOp18
 70
     1
102
RTVSPropertyOp19
 70
     1
102
RTVSPropertyOp20
 70
     1
102
RTVSPropertyOp21
 70
     1
102
RTVSPropertyOp22
 70
     1
102
RTVSPropertyOp23
 70
     1
102
RTVSPropertyOp24
 70
     1
102
RTVSPropertyOp25
 70
     1
102
RTVSPropertyOp26
 70
     1
102
RTVSPropertyOp27
 70
     1
102
RTVSPropertyOp28
 70
     1
102
RTVSPropertyOp29
 70
     1
102
RTVSPropertyOp30
 70
     1
102
RTVSPropertyOp31
 70
     1
102
RTVSPropertyOp32
 70
     1
102
RTVSPropertyOp33
 70
     1
102
RTVSPropertyOp34
 70
     1
102
RTVSPropertyOp35
 70
     1
102
RTVSPropertyOp36
 70
     1
102
RTVSPropertyOp37
 70
     1
102
RTVSPropertyOp38
 70
     1
102
RTVSPropertyOp39
 70
     1
102
RTVSPropertyOp40
 70
     1
102
RTVSPropertyOp41
 70
     1
102
RTVSPropertyOp42
 70
     1
102
RTVSPropertyOp43
 70
     1
102
RTVSPropertyOp44
 70
     1
102
RTVSPropertyOp45
 70
     1
102
RTVSPropertyOp46
 70
     1
102
RTVSPropertyOp47
 70
     1
102
RTVSPropertyOp48
 70
     1
102
RTVSPropertyOp49
 70
     1
102
RTVSPropertyOp50
 70
     1
102
RTVSPropertyOp51
 70
     0
102
RTVSPropertyOp52
 70
     0
102
RTVSPropertyOp53
 70
     1
102
RTVSPropertyOp54
 70
     1
102
RTVSPropertyOp55
 70
     1
102
RTVSPropertyOp56
 70
     1
102
RTVSPropertyOp57
 70
     1
102
RTVSPropertyOp58
 70
     1
102
RTVSPropertyOp59
 70
     1
102
RTVSPropertyOp60
 70
     1
102
RTVSPropertyOp61
 70
     1
102
RTVSPropertyOp62
 70
     1
  0
XRECORD
  5
1321
102
{ACAD_REACTORS
330
1320
102
}
330
1320
100
AcDbXrecord
280
     1
102
RTVSPost2010Prop28
280
     0
102
RTVSPost2010PropOp28
 70
     1
102
RTVSPost2010Prop29
280
     1
102
RTVSPost2010PropOp29
 70
     1
102
RTVSPost2010Prop30
280
     1
102
RTVSPost2010PropOp30
 70
     1
102
RTVSPost2010Prop31
280
     0
102
RTVSPost2010PropOp31
 70
     1
102
RTVSPost2010Prop32
280
     0
102
RTVSPost2010PropOp32
 70
     1
102
RTVSPost2010Prop33
280
     0
102
RTVSPost2010PropOp33
 70
     1
102
RTVSPost2010Prop34
280
     0
102
RTVSPost2010PropOp34
 70
     1
102
RTVSPost2010Prop35
280
     0
102
RTVSPost2010PropOp35
 70
     1
102
RTVSPost2010Prop36
280
     0
102
RTVSPost2010PropOp36
 70
     1
102
RTVSPost2010Prop37
 90
       50
102
RTVSPost2010PropOp37
 70
     1
102
RTVSPost2010Prop38
140
0.0
102
RTVSPost2010PropOp38
 70
     1
102
RTVSPost2010Prop39
140
1.0
102
RTVSPost2010PropOp39
 70
     1
102
RTVSPost2010Prop40
 90
        0
102
RTVSPost2010PropOp40
 70
     1
102
RTVSPost2010Prop41ColorIndex
 90
       18
102
RTVSPost2010Prop41ColorRGB
 90
        0
102
RTVSPost2010PropOp41
 70
     1
102
RTVSPost2010Prop42
 90
       50
102
RTVSPost2010PropOp42
 70
     1
102
RTVSPost2010Prop43
 90
        3
102
RTVSPost2010PropOp43
 70
     1
102
RTVSPost2010Prop44ColorIndex
 90
        5
102
RTVSPost2010Prop44ColorRGB
 90
      255
102
RTVSPost2010PropOp44
 70
     1
102
RTVSPost2010Prop45
280
     0
102
RTVSPost2010PropOp45
 70
     1
102
RTVSPost2010Prop46
 90
       50
102
RTVSPost2010PropOp46
 70
     1
102
RTVSPost2010Prop47
 90
       50
102
RTVSPost2010PropOp47
 70
     1
102
RTVSPost2010Prop48
 90
       50
102
RTVSPost2010PropOp48
 70
     1
102
RTVSPost2010Prop49
280
     0
102
RTVSPost2010PropOp49
 70
     1
102
RTVSPost2010Prop50
 90
       50
102
RTVSPost2010PropOp50
 70
     1
102
RTVSPost2010Prop51ColorIndex
 90
      256
102
RTVSPost2010Prop51ColorRGB
 90
-16777216
102
RTVSPost2010PropOp51
 70
     0
102
RTVSPost2010Prop52
140
1.0
102
RTVSPost2010PropOp52
 70
     0
102
RTVSPost2010Prop53
 90
        2
102
RTVSPost2010PropOp53
 70
     1
102
RTVSPost2010Prop54
  1
strokes_ogs.tif
102
RTVSPost2010PropOp54
 70
     1
102
RTVSPost2010Prop55
280
     0
102
RTVSPost2010PropOp55
 70
     1
102
RTVSPost2010Prop56
140
1.0
102
RTVSPost2010PropOp56
 70
     1
102
RTVSPost2010Prop57
140
1.0
102
RTVSPost2010PropOp57
 70
     1
102
RTVSPropertyOp0
 70
     1
102
RTVSPropertyOp1
 70
     1
102
RTVSPropertyOp2
 70
     1
102
RTVSPropertyOp3
 70
     1
102
RTVSPropertyOp4
 70
     1
102
RTVSPropertyOp5
 70
     1
102
RTVSPropertyOp6
 70
     1
102
RTVSPropertyOp7
 70
     1
102
RTVSPropertyOp8
 70
     1
102
RTVSPropertyOp9
 70
     1
102
RTVSPropertyOp10
 70
     1
102
RTVSPropertyOp11
 70
     1
102
RTVSPropertyOp12
 70
     1
102
RTVSPropertyOp13
 70
     1
102
RTVSPropertyOp14
 70
     1
102
RTVSPropertyOp15
 70
     1
102
RTVSPropertyOp16
 70
     1
102
RTVSPropertyOp17
 70
     1
102
RTVSPropertyOp18
 70
     1
102
RTVSPropertyOp19
 70
     1
102
RTVSPropertyOp20
 70
     1
102
RTVSPropertyOp21
 70
     1
102
RTVSPropertyOp22
 70
     1
102
RTVSPropertyOp23
 70
     1
102
RTVSPropertyOp24
 70
     1
102
RTVSPropertyOp25
 70
     1
102
RTVSPropertyOp26
 70
     1
102
RTVSPropertyOp27
 70
     1
102
RTVSPropertyOp28
 70
     1
102
RTVSPropertyOp29
 70
     1
102
RTVSPropertyOp30
 70
     1
102
RTVSPropertyOp31
 70
     1
102
RTVSPropertyOp32
 70
     1
102
RTVSPropertyOp33
 70
     1
102
RTVSPropertyOp34
 70
     1
102
RTVSPropertyOp35
 70
     1
102
RTVSPropertyOp36
 70
     1
102
RTVSPropertyOp37
 70
     1
102
RTVSPropertyOp38
 70
     1
102
RTVSPropertyOp39
 70
     1
102
RTVSPropertyOp40
 70
     1
102
RTVSPropertyOp41
 70
     1
102
RTVSPropertyOp42
 70
     1
102
RTVSPropertyOp43
 70
     1
102
RTVSPropertyOp44
 70
     1
102
RTVSPropertyOp45
 70
     1
102
RTVSPropertyOp46
 70
     1
102
RTVSPropertyOp47
 70
     1
102
RTVSPropertyOp48
 70
     1
102
RTVSPropertyOp49
 70
     1
102
RTVSPropertyOp50
 70
     1
102
RTVSPropertyOp51
 70
     0
102
RTVSPropertyOp52
 70
     0
102
RTVSPropertyOp53
 70
     1
102
RTVSPropertyOp54
 70
     1
102
RTVSPropertyOp55
 70
     1
102
RTVSPropertyOp56
 70
     1
102
RTVSPropertyOp57
 70
     1
102
RTVSPropertyOp58
 70
     1
102
RTVSPropertyOp59
 70
     1
102
RTVSPropertyOp60
 70
     1
102
RTVSPropertyOp61
 70
     1
102
RTVSPropertyOp62
 70
     1
  0
XRECORD
  5
1323
102
{ACAD_REACTORS
330
1322
102
}
330
1322
100
AcDbXrecord
280
     1
102
RTVSPost2010Prop28
280
     0
102
RTVSPost2010PropOp28
 70
     1
102
RTVSPost2010Prop29
280
     1
102
RTVSPost2010PropOp29
 70
     1
102
RTVSPost2010Prop30
280
     1
102
RTVSPost2010PropOp30
 70
     1
102
RTVSPost2010Prop31
280
     0
102
RTVSPost2010PropOp31
 70
     1
102
RTVSPost2010Prop32
280
     0
102
RTVSPost2010PropOp32
 70
     1
102
RTVSPost2010Prop33
280
     0
102
RTVSPost2010PropOp33
 70
     1
102
RTVSPost2010Prop34
280
     0
102
RTVSPost2010PropOp34
 70
     1
102
RTVSPost2010Prop35
280
     0
102
RTVSPost2010PropOp35
 70
     1
102
RTVSPost2010Prop36
280
     0
102
RTVSPost2010PropOp36
 70
     1
102
RTVSPost2010Prop37
 90
       50
102
RTVSPost2010PropOp37
 70
     1
102
RTVSPost2010Prop38
140
0.0
102
RTVSPost2010PropOp38
 70
     1
102
RTVSPost2010Prop39
140
1.0
102
RTVSPost2010PropOp39
 70
     1
102
RTVSPost2010Prop40
 90
        0
102
RTVSPost2010PropOp40
 70
     1
102
RTVSPost2010Prop41ColorIndex
 90
       18
102
RTVSPost2010Prop41ColorRGB
 90
        0
102
RTVSPost2010PropOp41
 70
     1
102
RTVSPost2010Prop42
 90
       50
102
RTVSPost2010PropOp42
 70
     1
102
RTVSPost2010Prop43
 90
        3
102
RTVSPost2010PropOp43
 70
     1
102
RTVSPost2010Prop44ColorIndex
 90
        5
102
RTVSPost2010Prop44ColorRGB
 90
      255
102
RTVSPost2010PropOp44
 70
     1
102
RTVSPost2010Prop45
280
     0
102
RTVSPost2010PropOp45
 70
     1
102
RTVSPost2010Prop46
 90
       50
102
RTVSPost2010PropOp46
 70
     1
102
RTVSPost2010Prop47
 90
       50
102
RTVSPost2010PropOp47
 70
     1
102
RTVSPost2010Prop48
 90
       50
102
RTVSPost2010PropOp48
 70
     1
102
RTVSPost2010Prop49
280
     0
102
RTVSPost2010PropOp49
 70
     1
102
RTVSPost2010Prop50
 90
       50
102
RTVSPost2010PropOp50
 70
     1
102
RTVSPost2010Prop51ColorIndex
 90
      256
102
RTVSPost2010Prop51ColorRGB
 90
-16777216
102
RTVSPost2010PropOp51
 70
     0
102
RTVSPost2010Prop52
140
1.0
102
RTVSPost2010PropOp52
 70
     0
102
RTVSPost2010Prop53
 90
        2
102
RTVSPost2010PropOp53
 70
     1
102
RTVSPost2010Prop54
  1
strokes_ogs.tif
102
RTVSPost2010PropOp54
 70
     1
102
RTVSPost2010Prop55
280
     0
102
RTVSPost2010PropOp55
 70
     1
102
RTVSPost2010Prop56
140
1.0
102
RTVSPost2010PropOp56
 70
     1
102
RTVSPost2010Prop57
140
1.0
102
RTVSPost2010PropOp57
 70
     1
102
RTVSPropertyOp0
 70
     1
102
RTVSPropertyOp1
 70
     1
102
RTVSPropertyOp2
 70
     1
102
RTVSPropertyOp3
 70
     1
102
RTVSPropertyOp4
 70
     1
102
RTVSPropertyOp5
 70
     1
102
RTVSPropertyOp6
 70
     1
102
RTVSPropertyOp7
 70
     1
102
RTVSPropertyOp8
 70
     1
102
RTVSPropertyOp9
 70
     1
102
RTVSPropertyOp10
 70
     1
102
RTVSPropertyOp11
 70
     1
102
RTVSPropertyOp12
 70
     1
102
RTVSPropertyOp13
 70
     1
102
RTVSPropertyOp14
 70
     1
102
RTVSPropertyOp15
 70
     1
102
RTVSPropertyOp16
 70
     1
102
RTVSPropertyOp17
 70
     1
102
RTVSPropertyOp18
 70
     1
102
RTVSPropertyOp19
 70
     1
102
RTVSPropertyOp20
 70
     1
102
RTVSPropertyOp21
 70
     1
102
RTVSPropertyOp22
 70
     1
102
RTVSPropertyOp23
 70
     1
102
RTVSPropertyOp24
 70
     1
102
RTVSPropertyOp25
 70
     1
102
RTVSPropertyOp26
 70
     1
102
RTVSPropertyOp27
 70
     1
102
RTVSPropertyOp28
 70
     1
102
RTVSPropertyOp29
 70
     1
102
RTVSPropertyOp30
 70
     1
102
RTVSPropertyOp31
 70
     1
102
RTVSPropertyOp32
 70
     1
102
RTVSPropertyOp33
 70
     1
102
RTVSPropertyOp34
 70
     1
102
RTVSPropertyOp35
 70
     1
102
RTVSPropertyOp36
 70
     1
102
RTVSPropertyOp37
 70
     1
102
RTVSPropertyOp38
 70
     1
102
RTVSPropertyOp39
 70
     1
102
RTVSPropertyOp40
 70
     1
102
RTVSPropertyOp41
 70
     1
102
RTVSPropertyOp42
 70
     1
102
RTVSPropertyOp43
 70
     1
102
RTVSPropertyOp44
 70
     1
102
RTVSPropertyOp45
 70
     1
102
RTVSPropertyOp46
 70
     1
102
RTVSPropertyOp47
 70
     1
102
RTVSPropertyOp48
 70
     1
102
RTVSPropertyOp49
 70
     1
102
RTVSPropertyOp50
 70
     1
102
RTVSPropertyOp51
 70
     0
102
RTVSPropertyOp52
 70
     0
102
RTVSPropertyOp53
 70
     1
102
RTVSPropertyOp54
 70
     1
102
RTVSPropertyOp55
 70
     1
102
RTVSPropertyOp56
 70
     1
102
RTVSPropertyOp57
 70
     1
102
RTVSPropertyOp58
 70
     1
102
RTVSPropertyOp59
 70
     1
102
RTVSPropertyOp60
 70
     1
102
RTVSPropertyOp61
 70
     1
102
RTVSPropertyOp62
 70
     1
  0
XRECORD
  5
1325
102
{ACAD_REACTORS
330
1324
102
}
330
1324
100
AcDbXrecord
280
     1
102
RTVSPost2010Prop28
280
     0
102
RTVSPost2010PropOp28
 70
     1
102
RTVSPost2010Prop29
280
     1
102
RTVSPost2010PropOp29
 70
     1
102
RTVSPost2010Prop30
280
     1
102
RTVSPost2010PropOp30
 70
     1
102
RTVSPost2010Prop31
280
     0
102
RTVSPost2010PropOp31
 70
     1
102
RTVSPost2010Prop32
280
     0
102
RTVSPost2010PropOp32
 70
     1
102
RTVSPost2010Prop33
280
     0
102
RTVSPost2010PropOp33
 70
     1
102
RTVSPost2010Prop34
280
     0
102
RTVSPost2010PropOp34
 70
     1
102
RTVSPost2010Prop35
280
     0
102
RTVSPost2010PropOp35
 70
     1
102
RTVSPost2010Prop36
280
     0
102
RTVSPost2010PropOp36
 70
     1
102
RTVSPost2010Prop37
 90
       50
102
RTVSPost2010PropOp37
 70
     1
102
RTVSPost2010Prop38
140
0.0
102
RTVSPost2010PropOp38
 70
     1
102
RTVSPost2010Prop39
140
1.0
102
RTVSPost2010PropOp39
 70
     1
102
RTVSPost2010Prop40
 90
        0
102
RTVSPost2010PropOp40
 70
     1
102
RTVSPost2010Prop41ColorIndex
 90
       18
102
RTVSPost2010Prop41ColorRGB
 90
        0
102
RTVSPost2010PropOp41
 70
     1
102
RTVSPost2010Prop42
 90
       50
102
RTVSPost2010PropOp42
 70
     1
102
RTVSPost2010Prop43
 90
        3
102
RTVSPost2010PropOp43
 70
     1
102
RTVSPost2010Prop44ColorIndex
 90
        5
102
RTVSPost2010Prop44ColorRGB
 90
      255
102
RTVSPost2010PropOp44
 70
     1
102
RTVSPost2010Prop45
280
     0
102
RTVSPost2010PropOp45
 70
     1
102
RTVSPost2010Prop46
 90
       50
102
RTVSPost2010PropOp46
 70
     1
102
RTVSPost2010Prop47
 90
       50
102
RTVSPost2010PropOp47
 70
     1
102
RTVSPost2010Prop48
 90
       50
102
RTVSPost2010PropOp48
 70
     1
102
RTVSPost2010Prop49
280
     0
102
RTVSPost2010PropOp49
 70
     1
102
RTVSPost2010Prop50
 90
       50
102
RTVSPost2010PropOp50
 70
     1
102
RTVSPost2010Prop51ColorIndex
 90
      256
102
RTVSPost2010Prop51ColorRGB
 90
-16777216
102
RTVSPost2010PropOp51
 70
     0
102
RTVSPost2010Prop52
140
1.0
102
RTVSPost2010PropOp52
 70
     0
102
RTVSPost2010Prop53
 90
        2
102
RTVSPost2010PropOp53
 70
     1
102
RTVSPost2010Prop54
  1
strokes_ogs.tif
102
RTVSPost2010PropOp54
 70
     1
102
RTVSPost2010Prop55
280
     0
102
RTVSPost2010PropOp55
 70
     1
102
RTVSPost2010Prop56
140
1.0
102
RTVSPost2010PropOp56
 70
     1
102
RTVSPost2010Prop57
140
1.0
102
RTVSPost2010PropOp57
 70
     1
102
RTVSPropertyOp0
 70
     1
102
RTVSPropertyOp1
 70
     1
102
RTVSPropertyOp2
 70
     1
102
RTVSPropertyOp3
 70
     1
102
RTVSPropertyOp4
 70
     1
102
RTVSPropertyOp5
 70
     1
102
RTVSPropertyOp6
 70
     1
102
RTVSPropertyOp7
 70
     1
102
RTVSPropertyOp8
 70
     1
102
RTVSPropertyOp9
 70
     1
102
RTVSPropertyOp10
 70
     1
102
RTVSPropertyOp11
 70
     1
102
RTVSPropertyOp12
 70
     1
102
RTVSPropertyOp13
 70
     1
102
RTVSPropertyOp14
 70
     1
102
RTVSPropertyOp15
 70
     1
102
RTVSPropertyOp16
 70
     1
102
RTVSPropertyOp17
 70
     1
102
RTVSPropertyOp18
 70
     1
102
RTVSPropertyOp19
 70
     1
102
RTVSPropertyOp20
 70
     1
102
RTVSPropertyOp21
 70
     1
102
RTVSPropertyOp22
 70
     1
102
RTVSPropertyOp23
 70
     1
102
RTVSPropertyOp24
 70
     1
102
RTVSPropertyOp25
 70
     1
102
RTVSPropertyOp26
 70
     1
102
RTVSPropertyOp27
 70
     1
102
RTVSPropertyOp28
 70
     1
102
RTVSPropertyOp29
 70
     1
102
RTVSPropertyOp30
 70
     1
102
RTVSPropertyOp31
 70
     1
102
RTVSPropertyOp32
 70
     1
102
RTVSPropertyOp33
 70
     1
102
RTVSPropertyOp34
 70
     1
102
RTVSPropertyOp35
 70
     1
102
RTVSPropertyOp36
 70
     1
102
RTVSPropertyOp37
 70
     1
102
RTVSPropertyOp38
 70
     1
102
RTVSPropertyOp39
 70
     1
102
RTVSPropertyOp40
 70
     1
102
RTVSPropertyOp41
 70
     1
102
RTVSPropertyOp42
 70
     1
102
RTVSPropertyOp43
 70
     1
102
RTVSPropertyOp44
 70
     1
102
RTVSPropertyOp45
 70
     1
102
RTVSPropertyOp46
 70
     1
102
RTVSPropertyOp47
 70
     1
102
RTVSPropertyOp48
 70
     1
102
RTVSPropertyOp49
 70
     1
102
RTVSPropertyOp50
 70
     1
102
RTVSPropertyOp51
 70
     0
102
RTVSPropertyOp52
 70
     0
102
RTVSPropertyOp53
 70
     1
102
RTVSPropertyOp54
 70
     1
102
RTVSPropertyOp55
 70
     1
102
RTVSPropertyOp56
 70
     1
102
RTVSPropertyOp57
 70
     1
102
RTVSPropertyOp58
 70
     1
102
RTVSPropertyOp59
 70
     1
102
RTVSPropertyOp60
 70
     1
102
RTVSPropertyOp61
 70
     1
102
RTVSPropertyOp62
 70
     1
  0
XRECORD
  5
132D
102
{ACAD_REACTORS
330
132C
102
}
330
132C
100
AcDbXrecord
280
     1
102
RTVSPost2010Prop28
280
     0
102
RTVSPost2010PropOp28
 70
     1
102
RTVSPost2010Prop29
280
     1
102
RTVSPost2010PropOp29
 70
     1
102
RTVSPost2010Prop30
280
     1
102
RTVSPost2010PropOp30
 70
     1
102
RTVSPost2010Prop31
280
     0
102
RTVSPost2010PropOp31
 70
     1
102
RTVSPost2010Prop32
280
     0
102
RTVSPost2010PropOp32
 70
     1
102
RTVSPost2010Prop33
280
     0
102
RTVSPost2010PropOp33
 70
     1
102
RTVSPost2010Prop34
280
     0
102
RTVSPost2010PropOp34
 70
     1
102
RTVSPost2010Prop35
280
     0
102
RTVSPost2010PropOp35
 70
     1
102
RTVSPost2010Prop36
280
     0
102
RTVSPost2010PropOp36
 70
     1
102
RTVSPost2010Prop37
 90
       50
102
RTVSPost2010PropOp37
 70
     1
102
RTVSPost2010Prop38
140
0.0
102
RTVSPost2010PropOp38
 70
     1
102
RTVSPost2010Prop39
140
1.0
102
RTVSPost2010PropOp39
 70
     1
102
RTVSPost2010Prop40
 90
        0
102
RTVSPost2010PropOp40
 70
     1
102
RTVSPost2010Prop41ColorIndex
 90
       18
102
RTVSPost2010Prop41ColorRGB
 90
        0
102
RTVSPost2010PropOp41
 70
     1
102
RTVSPost2010Prop42
 90
       50
102
RTVSPost2010PropOp42
 70
     1
102
RTVSPost2010Prop43
 90
        3
102
RTVSPost2010PropOp43
 70
     1
102
RTVSPost2010Prop44ColorIndex
 90
        5
102
RTVSPost2010Prop44ColorRGB
 90
      255
102
RTVSPost2010PropOp44
 70
     1
102
RTVSPost2010Prop45
280
     0
102
RTVSPost2010PropOp45
 70
     1
102
RTVSPost2010Prop46
 90
       50
102
RTVSPost2010PropOp46
 70
     1
102
RTVSPost2010Prop47
 90
       50
102
RTVSPost2010PropOp47
 70
     1
102
RTVSPost2010Prop48
 90
       50
102
RTVSPost2010PropOp48
 70
     1
102
RTVSPost2010Prop49
280
     0
102
RTVSPost2010PropOp49
 70
     1
102
RTVSPost2010Prop50
 90
       50
102
RTVSPost2010PropOp50
 70
     1
102
RTVSPost2010Prop51ColorIndex
 90
      256
102
RTVSPost2010Prop51ColorRGB
 90
-16777216
102
RTVSPost2010PropOp51
 70
     0
102
RTVSPost2010Prop52
140
1.0
102
RTVSPost2010PropOp52
 70
     0
102
RTVSPost2010Prop53
 90
        2
102
RTVSPost2010PropOp53
 70
     1
102
RTVSPost2010Prop54
  1
strokes_ogs.tif
102
RTVSPost2010PropOp54
 70
     1
102
RTVSPost2010Prop55
280
     0
102
RTVSPost2010PropOp55
 70
     1
102
RTVSPost2010Prop56
140
1.0
102
RTVSPost2010PropOp56
 70
     1
102
RTVSPost2010Prop57
140
1.0
102
RTVSPost2010PropOp57
 70
     1
102
RTVSPropertyOp0
 70
     1
102
RTVSPropertyOp1
 70
     1
102
RTVSPropertyOp2
 70
     1
102
RTVSPropertyOp3
 70
     1
102
RTVSPropertyOp4
 70
     1
102
RTVSPropertyOp5
 70
     1
102
RTVSPropertyOp6
 70
     1
102
RTVSPropertyOp7
 70
     1
102
RTVSPropertyOp8
 70
     1
102
RTVSPropertyOp9
 70
     1
102
RTVSPropertyOp10
 70
     1
102
RTVSPropertyOp11
 70
     1
102
RTVSPropertyOp12
 70
     1
102
RTVSPropertyOp13
 70
     1
102
RTVSPropertyOp14
 70
     1
102
RTVSPropertyOp15
 70
     1
102
RTVSPropertyOp16
 70
     1
102
RTVSPropertyOp17
 70
     1
102
RTVSPropertyOp18
 70
     1
102
RTVSPropertyOp19
 70
     1
102
RTVSPropertyOp20
 70
     1
102
RTVSPropertyOp21
 70
     1
102
RTVSPropertyOp22
 70
     1
102
RTVSPropertyOp23
 70
     1
102
RTVSPropertyOp24
 70
     1
102
RTVSPropertyOp25
 70
     1
102
RTVSPropertyOp26
 70
     1
102
RTVSPropertyOp27
 70
     1
102
RTVSPropertyOp28
 70
     1
102
RTVSPropertyOp29
 70
     1
102
RTVSPropertyOp30
 70
     1
102
RTVSPropertyOp31
 70
     1
102
RTVSPropertyOp32
 70
     1
102
RTVSPropertyOp33
 70
     1
102
RTVSPropertyOp34
 70
     1
102
RTVSPropertyOp35
 70
     1
102
RTVSPropertyOp36
 70
     1
102
RTVSPropertyOp37
 70
     1
102
RTVSPropertyOp38
 70
     1
102
RTVSPropertyOp39
 70
     1
102
RTVSPropertyOp40
 70
     1
102
RTVSPropertyOp41
 70
     1
102
RTVSPropertyOp42
 70
     1
102
RTVSPropertyOp43
 70
     1
102
RTVSPropertyOp44
 70
     1
102
RTVSPropertyOp45
 70
     1
102
RTVSPropertyOp46
 70
     1
102
RTVSPropertyOp47
 70
     1
102
RTVSPropertyOp48
 70
     1
102
RTVSPropertyOp49
 70
     1
102
RTVSPropertyOp50
 70
     1
102
RTVSPropertyOp51
 70
     0
102
RTVSPropertyOp52
 70
     0
102
RTVSPropertyOp53
 70
     1
102
RTVSPropertyOp54
 70
     1
102
RTVSPropertyOp55
 70
     1
102
RTVSPropertyOp56
 70
     1
102
RTVSPropertyOp57
 70
     1
102
RTVSPropertyOp58
 70
     1
102
RTVSPropertyOp59
 70
     1
102
RTVSPropertyOp60
 70
     1
102
RTVSPropertyOp61
 70
     1
102
RTVSPropertyOp62
 70
     1
  0
XRECORD
  5
1349
102
{ACAD_REACTORS
330
1348
102
}
330
1348
100
AcDbXrecord
280
     1
102
RTVSPost2010Prop28
280
     0
102
RTVSPost2010PropOp28
 70
     1
102
RTVSPost2010Prop29
280
     1
102
RTVSPost2010PropOp29
 70
     1
102
RTVSPost2010Prop30
280
     1
102
RTVSPost2010PropOp30
 70
     1
102
RTVSPost2010Prop31
280
     0
102
RTVSPost2010PropOp31
 70
     1
102
RTVSPost2010Prop32
280
     0
102
RTVSPost2010PropOp32
 70
     1
102
RTVSPost2010Prop33
280
     0
102
RTVSPost2010PropOp33
 70
     1
102
RTVSPost2010Prop34
280
     0
102
RTVSPost2010PropOp34
 70
     1
102
RTVSPost2010Prop35
280
     0
102
RTVSPost2010PropOp35
 70
     1
102
RTVSPost2010Prop36
280
     0
102
RTVSPost2010PropOp36
 70
     1
102
RTVSPost2010Prop37
 90
       50
102
RTVSPost2010PropOp37
 70
     0
102
RTVSPost2010Prop38
140
0.0
102
RTVSPost2010PropOp38
 70
     0
102
RTVSPost2010Prop39
140
1.0
102
RTVSPost2010PropOp39
 70
     0
102
RTVSPost2010Prop40
 90
        0
102
RTVSPost2010PropOp40
 70
     0
102
RTVSPost2010Prop41ColorIndex
 90
       18
102
RTVSPost2010Prop41ColorRGB
 90
        0
102
RTVSPost2010PropOp41
 70
     0
102
RTVSPost2010Prop42
 90
       50
102
RTVSPost2010PropOp42
 70
     0
102
RTVSPost2010Prop43
 90
        3
102
RTVSPost2010PropOp43
 70
     0
102
RTVSPost2010Prop44ColorIndex
 90
        5
102
RTVSPost2010Prop44ColorRGB
 90
      255
102
RTVSPost2010PropOp44
 70
     0
102
RTVSPost2010Prop45
280
     0
102
RTVSPost2010PropOp45
 70
     1
102
RTVSPost2010Prop46
 90
       50
102
RTVSPost2010PropOp46
 70
     0
102
RTVSPost2010Prop47
 90
       50
102
RTVSPost2010PropOp47
 70
     0
102
RTVSPost2010Prop48
 90
       50
102
RTVSPost2010PropOp48
 70
     0
102
RTVSPost2010Prop49
280
     0
102
RTVSPost2010PropOp49
 70
     1
102
RTVSPost2010Prop50
 90
       50
102
RTVSPost2010PropOp50
 70
     0
102
RTVSPost2010Prop51ColorIndex
 90
      256
102
RTVSPost2010Prop51ColorRGB
 90
-16777216
102
RTVSPost2010PropOp51
 70
     0
102
RTVSPost2010Prop52
140
1.0
102
RTVSPost2010PropOp52
 70
     0
102
RTVSPost2010Prop53
 90
        2
102
RTVSPost2010PropOp53
 70
     0
102
RTVSPost2010Prop54
  1
strokes_ogs.tif
102
RTVSPost2010PropOp54
 70
     0
102
RTVSPost2010Prop55
280
     0
102
RTVSPost2010PropOp55
 70
     1
102
RTVSPost2010Prop56
140
1.0
102
RTVSPost2010PropOp56
 70
     0
102
RTVSPost2010Prop57
140
1.0
102
RTVSPost2010PropOp57
 70
     0
102
RTVSPropertyOp0
 70
     0
102
RTVSPropertyOp1
 70
     0
102
RTVSPropertyOp2
 70
     0
102
RTVSPropertyOp3
 70
     0
102
RTVSPropertyOp4
 70
     0
102
RTVSPropertyOp5
 70
     0
102
RTVSPropertyOp6
 70
     0
102
RTVSPropertyOp7
 70
     0
102
RTVSPropertyOp8
 70
     0
102
RTVSPropertyOp9
 70
     0
102
RTVSPropertyOp10
 70
     0
102
RTVSPropertyOp11
 70
     0
102
RTVSPropertyOp12
 70
     0
102
RTVSPropertyOp13
 70
     0
102
RTVSPropertyOp14
 70
     2
102
RTVSPropertyOp15
 70
     0
102
RTVSPropertyOp16
 70
     0
102
RTVSPropertyOp17
 70
     0
102
RTVSPropertyOp18
 70
     0
102
RTVSPropertyOp19
 70
     0
102
RTVSPropertyOp20
 70
     0
102
RTVSPropertyOp21
 70
     0
102
RTVSPropertyOp22
 70
     0
102
RTVSPropertyOp23
 70
     0
102
RTVSPropertyOp24
 70
     0
102
RTVSPropertyOp25
 70
     0
102
RTVSPropertyOp26
 70
     0
102
RTVSPropertyOp27
 70
     0
102
RTVSPropertyOp28
 70
     1
102
RTVSPropertyOp29
 70
     1
102
RTVSPropertyOp30
 70
     1
102
RTVSPropertyOp31
 70
     1
102
RTVSPropertyOp32
 70
     1
102
RTVSPropertyOp33
 70
     1
102
RTVSPropertyOp34
 70
     1
102
RTVSPropertyOp35
 70
     1
102
RTVSPropertyOp36
 70
     1
102
RTVSPropertyOp37
 70
     0
102
RTVSPropertyOp38
 70
     0
102
RTVSPropertyOp39
 70
     0
102
RTVSPropertyOp40
 70
     0
102
RTVSPropertyOp41
 70
     0
102
RTVSPropertyOp42
 70
     0
102
RTVSPropertyOp43
 70
     0
102
RTVSPropertyOp44
 70
     0
102
RTVSPropertyOp45
 70
     1
102
RTVSPropertyOp46
 70
     0
102
RTVSPropertyOp47
 70
     0
102
RTVSPropertyOp48
 70
     0
102
RTVSPropertyOp49
 70
     1
102
RTVSPropertyOp50
 70
     0
102
RTVSPropertyOp51
 70
     0
102
RTVSPropertyOp52
 70
     0
102
RTVSPropertyOp53
 70
     0
102
RTVSPropertyOp54
 70
     0
102
RTVSPropertyOp55
 70
     1
102
RTVSPropertyOp56
 70
     0
102
RTVSPropertyOp57
 70
     0
102
RTVSPropertyOp58
 70
     0
102
RTVSPropertyOp59
 70
     0
102
RTVSPropertyOp60
 70
     0
102
RTVSPropertyOp61
 70
     0
102
RTVSPropertyOp62
 70
     0
  0
XRECORD
  5
1339
102
{ACAD_REACTORS
330
1338
102
}
330
1338
100
AcDbXrecord
280
     1
102
RTVSPost2010Prop28
280
     0
102
RTVSPost2010PropOp28
 70
     1
102
RTVSPost2010Prop29
280
     1
102
RTVSPost2010PropOp29
 70
     1
102
RTVSPost2010Prop30
280
     1
102
RTVSPost2010PropOp30
 70
     1
102
RTVSPost2010Prop31
280
     0
102
RTVSPost2010PropOp31
 70
     1
102
RTVSPost2010Prop32
280
     0
102
RTVSPost2010PropOp32
 70
     1
102
RTVSPost2010Prop33
280
     0
102
RTVSPost2010PropOp33
 70
     1
102
RTVSPost2010Prop34
280
     0
102
RTVSPost2010PropOp34
 70
     1
102
RTVSPost2010Prop35
280
     0
102
RTVSPost2010PropOp35
 70
     1
102
RTVSPost2010Prop36
280
     0
102
RTVSPost2010PropOp36
 70
     1
102
RTVSPost2010Prop37
 90
       50
102
RTVSPost2010PropOp37
 70
     1
102
RTVSPost2010Prop38
140
0.0
102
RTVSPost2010PropOp38
 70
     1
102
RTVSPost2010Prop39
140
1.0
102
RTVSPost2010PropOp39
 70
     1
102
RTVSPost2010Prop40
 90
        0
102
RTVSPost2010PropOp40
 70
     1
102
RTVSPost2010Prop41ColorIndex
 90
       18
102
RTVSPost2010Prop41ColorRGB
 90
        0
102
RTVSPost2010PropOp41
 70
     1
102
RTVSPost2010Prop42
 90
       50
102
RTVSPost2010PropOp42
 70
     1
102
RTVSPost2010Prop43
 90
        3
102
RTVSPost2010PropOp43
 70
     1
102
RTVSPost2010Prop44ColorIndex
 90
        5
102
RTVSPost2010Prop44ColorRGB
 90
      255
102
RTVSPost2010PropOp44
 70
     1
102
RTVSPost2010Prop45
280
     0
102
RTVSPost2010PropOp45
 70
     1
102
RTVSPost2010Prop46
 90
       50
102
RTVSPost2010PropOp46
 70
     1
102
RTVSPost2010Prop47
 90
       50
102
RTVSPost2010PropOp47
 70
     1
102
RTVSPost2010Prop48
 90
       50
102
RTVSPost2010PropOp48
 70
     1
102
RTVSPost2010Prop49
280
     0
102
RTVSPost2010PropOp49
 70
     1
102
RTVSPost2010Prop50
 90
       50
102
RTVSPost2010PropOp50
 70
     1
102
RTVSPost2010Prop51ColorIndex
 90
      256
102
RTVSPost2010Prop51ColorRGB
 90
-16777216
102
RTVSPost2010PropOp51
 70
     0
102
RTVSPost2010Prop52
140
1.0
102
RTVSPost2010PropOp52
 70
     0
102
RTVSPost2010Prop53
 90
        2
102
RTVSPost2010PropOp53
 70
     1
102
RTVSPost2010Prop54
  1
strokes_ogs.tif
102
RTVSPost2010PropOp54
 70
     1
102
RTVSPost2010Prop55
280
     0
102
RTVSPost2010PropOp55
 70
     1
102
RTVSPost2010Prop56
140
1.0
102
RTVSPost2010PropOp56
 70
     1
102
RTVSPost2010Prop57
140
1.0
102
RTVSPost2010PropOp57
 70
     1
102
RTVSPropertyOp0
 70
     1
102
RTVSPropertyOp1
 70
     1
102
RTVSPropertyOp2
 70
     1
102
RTVSPropertyOp3
 70
     1
102
RTVSPropertyOp4
 70
     1
102
RTVSPropertyOp5
 70
     1
102
RTVSPropertyOp6
 70
     1
102
RTVSPropertyOp7
 70
     1
102
RTVSPropertyOp8
 70
     1
102
RTVSPropertyOp9
 70
     1
102
RTVSPropertyOp10
 70
     1
102
RTVSPropertyOp11
 70
     1
102
RTVSPropertyOp12
 70
     1
102
RTVSPropertyOp13
 70
     1
102
RTVSPropertyOp14
 70
     1
102
RTVSPropertyOp15
 70
     1
102
RTVSPropertyOp16
 70
     1
102
RTVSPropertyOp17
 70
     1
102
RTVSPropertyOp18
 70
     1
102
RTVSPropertyOp19
 70
     1
102
RTVSPropertyOp20
 70
     1
102
RTVSPropertyOp21
 70
     1
102
RTVSPropertyOp22
 70
     1
102
RTVSPropertyOp23
 70
     1
102
RTVSPropertyOp24
 70
     1
102
RTVSPropertyOp25
 70
     1
102
RTVSPropertyOp26
 70
     1
102
RTVSPropertyOp27
 70
     1
102
RTVSPropertyOp28
 70
     1
102
RTVSPropertyOp29
 70
     1
102
RTVSPropertyOp30
 70
     1
102
RTVSPropertyOp31
 70
     1
102
RTVSPropertyOp32
 70
     1
102
RTVSPropertyOp33
 70
     1
102
RTVSPropertyOp34
 70
     1
102
RTVSPropertyOp35
 70
     1
102
RTVSPropertyOp36
 70
     1
102
RTVSPropertyOp37
 70
     1
102
RTVSPropertyOp38
 70
     1
102
RTVSPropertyOp39
 70
     1
102
RTVSPropertyOp40
 70
     1
102
RTVSPropertyOp41
 70
     1
102
RTVSPropertyOp42
 70
     1
102
RTVSPropertyOp43
 70
     1
102
RTVSPropertyOp44
 70
     1
102
RTVSPropertyOp45
 70
     1
102
RTVSPropertyOp46
 70
     1
102
RTVSPropertyOp47
 70
     1
102
RTVSPropertyOp48
 70
     1
102
RTVSPropertyOp49
 70
     1
102
RTVSPropertyOp50
 70
     1
102
RTVSPropertyOp51
 70
     0
102
RTVSPropertyOp52
 70
     0
102
RTVSPropertyOp53
 70
     1
102
RTVSPropertyOp54
 70
     1
102
RTVSPropertyOp55
 70
     1
102
RTVSPropertyOp56
 70
     1
102
RTVSPropertyOp57
 70
     1
102
RTVSPropertyOp58
 70
     1
102
RTVSPropertyOp59
 70
     1
102
RTVSPropertyOp60
 70
     1
102
RTVSPropertyOp61
 70
     1
102
RTVSPropertyOp62
 70
     1
  0
XRECORD
  5
134B
102
{ACAD_REACTORS
330
134A
102
}
330
134A
100
AcDbXrecord
280
     1
102
RTVSPost2010Prop28
280
     0
102
RTVSPost2010PropOp28
 70
     1
102
RTVSPost2010Prop29
280
     1
102
RTVSPost2010PropOp29
 70
     1
102
RTVSPost2010Prop30
280
     1
102
RTVSPost2010PropOp30
 70
     1
102
RTVSPost2010Prop31
280
     0
102
RTVSPost2010PropOp31
 70
     1
102
RTVSPost2010Prop32
280
     0
102
RTVSPost2010PropOp32
 70
     1
102
RTVSPost2010Prop33
280
     0
102
RTVSPost2010PropOp33
 70
     1
102
RTVSPost2010Prop34
280
     0
102
RTVSPost2010PropOp34
 70
     1
102
RTVSPost2010Prop35
280
     0
102
RTVSPost2010PropOp35
 70
     1
102
RTVSPost2010Prop36
280
     0
102
RTVSPost2010PropOp36
 70
     1
102
RTVSPost2010Prop37
 90
       50
102
RTVSPost2010PropOp37
 70
     0
102
RTVSPost2010Prop38
140
0.0
102
RTVSPost2010PropOp38
 70
     0
102
RTVSPost2010Prop39
140
1.0
102
RTVSPost2010PropOp39
 70
     0
102
RTVSPost2010Prop40
 90
        0
102
RTVSPost2010PropOp40
 70
     0
102
RTVSPost2010Prop41ColorIndex
 90
       18
102
RTVSPost2010Prop41ColorRGB
 90
        0
102
RTVSPost2010PropOp41
 70
     0
102
RTVSPost2010Prop42
 90
       50
102
RTVSPost2010PropOp42
 70
     0
102
RTVSPost2010Prop43
 90
        3
102
RTVSPost2010PropOp43
 70
     0
102
RTVSPost2010Prop44ColorIndex
 90
        5
102
RTVSPost2010Prop44ColorRGB
 90
      255
102
RTVSPost2010PropOp44
 70
     0
102
RTVSPost2010Prop45
280
     0
102
RTVSPost2010PropOp45
 70
     1
102
RTVSPost2010Prop46
 90
       50
102
RTVSPost2010PropOp46
 70
     0
102
RTVSPost2010Prop47
 90
       50
102
RTVSPost2010PropOp47
 70
     0
102
RTVSPost2010Prop48
 90
       50
102
RTVSPost2010PropOp48
 70
     0
102
RTVSPost2010Prop49
280
     0
102
RTVSPost2010PropOp49
 70
     1
102
RTVSPost2010Prop50
 90
       50
102
RTVSPost2010PropOp50
 70
     0
102
RTVSPost2010Prop51ColorIndex
 90
      256
102
RTVSPost2010Prop51ColorRGB
 90
-16777216
102
RTVSPost2010PropOp51
 70
     0
102
RTVSPost2010Prop52
140
1.0
102
RTVSPost2010PropOp52
 70
     0
102
RTVSPost2010Prop53
 90
        2
102
RTVSPost2010PropOp53
 70
     0
102
RTVSPost2010Prop54
  1
strokes_ogs.tif
102
RTVSPost2010PropOp54
 70
     0
102
RTVSPost2010Prop55
280
     0
102
RTVSPost2010PropOp55
 70
     1
102
RTVSPost2010Prop56
140
1.0
102
RTVSPost2010PropOp56
 70
     0
102
RTVSPost2010Prop57
140
1.0
102
RTVSPost2010PropOp57
 70
     0
102
RTVSPropertyOp0
 70
     0
102
RTVSPropertyOp1
 70
     0
102
RTVSPropertyOp2
 70
     0
102
RTVSPropertyOp3
 70
     0
102
RTVSPropertyOp4
 70
     0
102
RTVSPropertyOp5
 70
     0
102
RTVSPropertyOp6
 70
     0
102
RTVSPropertyOp7
 70
     0
102
RTVSPropertyOp8
 70
     0
102
RTVSPropertyOp9
 70
     0
102
RTVSPropertyOp10
 70
     0
102
RTVSPropertyOp11
 70
     0
102
RTVSPropertyOp12
 70
     0
102
RTVSPropertyOp13
 70
     0
102
RTVSPropertyOp14
 70
     2
102
RTVSPropertyOp15
 70
     0
102
RTVSPropertyOp16
 70
     0
102
RTVSPropertyOp17
 70
     0
102
RTVSPropertyOp18
 70
     0
102
RTVSPropertyOp19
 70
     0
102
RTVSPropertyOp20
 70
     0
102
RTVSPropertyOp21
 70
     0
102
RTVSPropertyOp22
 70
     0
102
RTVSPropertyOp23
 70
     0
102
RTVSPropertyOp24
 70
     0
102
RTVSPropertyOp25
 70
     0
102
RTVSPropertyOp26
 70
     0
102
RTVSPropertyOp27
 70
     0
102
RTVSPropertyOp28
 70
     1
102
RTVSPropertyOp29
 70
     1
102
RTVSPropertyOp30
 70
     1
102
RTVSPropertyOp31
 70
     1
102
RTVSPropertyOp32
 70
     1
102
RTVSPropertyOp33
 70
     1
102
RTVSPropertyOp34
 70
     1
102
RTVSPropertyOp35
 70
     1
102
RTVSPropertyOp36
 70
     1
102
RTVSPropertyOp37
 70
     0
102
RTVSPropertyOp38
 70
     0
102
RTVSPropertyOp39
 70
     0
102
RTVSPropertyOp40
 70
     0
102
RTVSPropertyOp41
 70
     0
102
RTVSPropertyOp42
 70
     0
102
RTVSPropertyOp43
 70
     0
102
RTVSPropertyOp44
 70
     0
102
RTVSPropertyOp45
 70
     1
102
RTVSPropertyOp46
 70
     0
102
RTVSPropertyOp47
 70
     0
102
RTVSPropertyOp48
 70
     0
102
RTVSPropertyOp49
 70
     1
102
RTVSPropertyOp50
 70
     0
102
RTVSPropertyOp51
 70
     0
102
RTVSPropertyOp52
 70
     0
102
RTVSPropertyOp53
 70
     0
102
RTVSPropertyOp54
 70
     0
102
RTVSPropertyOp55
 70
     1
102
RTVSPropertyOp56
 70
     0
102
RTVSPropertyOp57
 70
     0
102
RTVSPropertyOp58
 70
     0
102
RTVSPropertyOp59
 70
     0
102
RTVSPropertyOp60
 70
     0
102
RTVSPropertyOp61
 70
     0
102
RTVSPropertyOp62
 70
     0
  0
XRECORD
  5
1331
102
{ACAD_REACTORS
330
1330
102
}
330
1330
100
AcDbXrecord
280
     1
102
RTVSPost2010Prop28
280
     0
102
RTVSPost2010PropOp28
 70
     1
102
RTVSPost2010Prop29
280
     1
102
RTVSPost2010PropOp29
 70
     1
102
RTVSPost2010Prop30
280
     1
102
RTVSPost2010PropOp30
 70
     1
102
RTVSPost2010Prop31
280
     0
102
RTVSPost2010PropOp31
 70
     1
102
RTVSPost2010Prop32
280
     0
102
RTVSPost2010PropOp32
 70
     1
102
RTVSPost2010Prop33
280
     0
102
RTVSPost2010PropOp33
 70
     1
102
RTVSPost2010Prop34
280
     0
102
RTVSPost2010PropOp34
 70
     1
102
RTVSPost2010Prop35
280
     0
102
RTVSPost2010PropOp35
 70
     1
102
RTVSPost2010Prop36
280
     0
102
RTVSPost2010PropOp36
 70
     1
102
RTVSPost2010Prop37
 90
       50
102
RTVSPost2010PropOp37
 70
     1
102
RTVSPost2010Prop38
140
0.0
102
RTVSPost2010PropOp38
 70
     1
102
RTVSPost2010Prop39
140
1.0
102
RTVSPost2010PropOp39
 70
     1
102
RTVSPost2010Prop40
 90
        0
102
RTVSPost2010PropOp40
 70
     1
102
RTVSPost2010Prop41ColorIndex
 90
       18
102
RTVSPost2010Prop41ColorRGB
 90
        0
102
RTVSPost2010PropOp41
 70
     1
102
RTVSPost2010Prop42
 90
       50
102
RTVSPost2010PropOp42
 70
     1
102
RTVSPost2010Prop43
 90
        3
102
RTVSPost2010PropOp43
 70
     1
102
RTVSPost2010Prop44ColorIndex
 90
        5
102
RTVSPost2010Prop44ColorRGB
 90
      255
102
RTVSPost2010PropOp44
 70
     1
102
RTVSPost2010Prop45
280
     0
102
RTVSPost2010PropOp45
 70
     1
102
RTVSPost2010Prop46
 90
       50
102
RTVSPost2010PropOp46
 70
     1
102
RTVSPost2010Prop47
 90
       50
102
RTVSPost2010PropOp47
 70
     1
102
RTVSPost2010Prop48
 90
       50
102
RTVSPost2010PropOp48
 70
     1
102
RTVSPost2010Prop49
280
     0
102
RTVSPost2010PropOp49
 70
     1
102
RTVSPost2010Prop50
 90
       50
102
RTVSPost2010PropOp50
 70
     1
102
RTVSPost2010Prop51ColorIndex
 90
      256
102
RTVSPost2010Prop51ColorRGB
 90
-16777216
102
RTVSPost2010PropOp51
 70
     0
102
RTVSPost2010Prop52
140
1.0
102
RTVSPost2010PropOp52
 70
     0
102
RTVSPost2010Prop53
 90
        2
102
RTVSPost2010PropOp53
 70
     1
102
RTVSPost2010Prop54
  1
strokes_ogs.tif
102
RTVSPost2010PropOp54
 70
     1
102
RTVSPost2010Prop55
280
     0
102
RTVSPost2010PropOp55
 70
     1
102
RTVSPost2010Prop56
140
1.0
102
RTVSPost2010PropOp56
 70
     1
102
RTVSPost2010Prop57
140
1.0
102
RTVSPost2010PropOp57
 70
     1
102
RTVSPropertyOp0
 70
     1
102
RTVSPropertyOp1
 70
     1
102
RTVSPropertyOp2
 70
     1
102
RTVSPropertyOp3
 70
     1
102
RTVSPropertyOp4
 70
     1
102
RTVSPropertyOp5
 70
     1
102
RTVSPropertyOp6
 70
     1
102
RTVSPropertyOp7
 70
     1
102
RTVSPropertyOp8
 70
     1
102
RTVSPropertyOp9
 70
     1
102
RTVSPropertyOp10
 70
     1
102
RTVSPropertyOp11
 70
     1
102
RTVSPropertyOp12
 70
     1
102
RTVSPropertyOp13
 70
     1
102
RTVSPropertyOp14
 70
     1
102
RTVSPropertyOp15
 70
     1
102
RTVSPropertyOp16
 70
     1
102
RTVSPropertyOp17
 70
     1
102
RTVSPropertyOp18
 70
     1
102
RTVSPropertyOp19
 70
     1
102
RTVSPropertyOp20
 70
     1
102
RTVSPropertyOp21
 70
     1
102
RTVSPropertyOp22
 70
     1
102
RTVSPropertyOp23
 70
     1
102
RTVSPropertyOp24
 70
     1
102
RTVSPropertyOp25
 70
     1
102
RTVSPropertyOp26
 70
     1
102
RTVSPropertyOp27
 70
     1
102
RTVSPropertyOp28
 70
     1
102
RTVSPropertyOp29
 70
     1
102
RTVSPropertyOp30
 70
     1
102
RTVSPropertyOp31
 70
     1
102
RTVSPropertyOp32
 70
     1
102
RTVSPropertyOp33
 70
     1
102
RTVSPropertyOp34
 70
     1
102
RTVSPropertyOp35
 70
     1
102
RTVSPropertyOp36
 70
     1
102
RTVSPropertyOp37
 70
     1
102
RTVSPropertyOp38
 70
     1
102
RTVSPropertyOp39
 70
     1
102
RTVSPropertyOp40
 70
     1
102
RTVSPropertyOp41
 70
     1
102
RTVSPropertyOp42
 70
     1
102
RTVSPropertyOp43
 70
     1
102
RTVSPropertyOp44
 70
     1
102
RTVSPropertyOp45
 70
     1
102
RTVSPropertyOp46
 70
     1
102
RTVSPropertyOp47
 70
     1
102
RTVSPropertyOp48
 70
     1
102
RTVSPropertyOp49
 70
     1
102
RTVSPropertyOp50
 70
     1
102
RTVSPropertyOp51
 70
     0
102
RTVSPropertyOp52
 70
     0
102
RTVSPropertyOp53
 70
     1
102
RTVSPropertyOp54
 70
     1
102
RTVSPropertyOp55
 70
     1
102
RTVSPropertyOp56
 70
     1
102
RTVSPropertyOp57
 70
     1
102
RTVSPropertyOp58
 70
     1
102
RTVSPropertyOp59
 70
     1
102
RTVSPropertyOp60
 70
     1
102
RTVSPropertyOp61
 70
     1
102
RTVSPropertyOp62
 70
     1
  0
XRECORD
  5
1347
102
{ACAD_REACTORS
330
1346
102
}
330
1346
100
AcDbXrecord
280
     1
102
RTVSPost2010Prop28
280
     0
102
RTVSPost2010PropOp28
 70
     1
102
RTVSPost2010Prop29
280
     1
102
RTVSPost2010PropOp29
 70
     1
102
RTVSPost2010Prop30
280
     1
102
RTVSPost2010PropOp30
 70
     1
102
RTVSPost2010Prop31
280
     0
102
RTVSPost2010PropOp31
 70
     1
102
RTVSPost2010Prop32
280
     0
102
RTVSPost2010PropOp32
 70
     1
102
RTVSPost2010Prop33
280
     0
102
RTVSPost2010PropOp33
 70
     1
102
RTVSPost2010Prop34
280
     0
102
RTVSPost2010PropOp34
 70
     1
102
RTVSPost2010Prop35
280
     0
102
RTVSPost2010PropOp35
 70
     1
102
RTVSPost2010Prop36
280
     0
102
RTVSPost2010PropOp36
 70
     1
102
RTVSPost2010Prop37
 90
       50
102
RTVSPost2010PropOp37
 70
     1
102
RTVSPost2010Prop38
140
0.0
102
RTVSPost2010PropOp38
 70
     1
102
RTVSPost2010Prop39
140
1.0
102
RTVSPost2010PropOp39
 70
     1
102
RTVSPost2010Prop40
 90
        0
102
RTVSPost2010PropOp40
 70
     1
102
RTVSPost2010Prop41ColorIndex
 90
       18
102
RTVSPost2010Prop41ColorRGB
 90
        0
102
RTVSPost2010PropOp41
 70
     1
102
RTVSPost2010Prop42
 90
       50
102
RTVSPost2010PropOp42
 70
     1
102
RTVSPost2010Prop43
 90
        3
102
RTVSPost2010PropOp43
 70
     1
102
RTVSPost2010Prop44ColorIndex
 90
        5
102
RTVSPost2010Prop44ColorRGB
 90
      255
102
RTVSPost2010PropOp44
 70
     1
102
RTVSPost2010Prop45
280
     0
102
RTVSPost2010PropOp45
 70
     1
102
RTVSPost2010Prop46
 90
       50
102
RTVSPost2010PropOp46
 70
     1
102
RTVSPost2010Prop47
 90
       50
102
RTVSPost2010PropOp47
 70
     1
102
RTVSPost2010Prop48
 90
       50
102
RTVSPost2010PropOp48
 70
     1
102
RTVSPost2010Prop49
280
     0
102
RTVSPost2010PropOp49
 70
     1
102
RTVSPost2010Prop50
 90
       50
102
RTVSPost2010PropOp50
 70
     1
102
RTVSPost2010Prop51ColorIndex
 90
      256
102
RTVSPost2010Prop51ColorRGB
 90
-16777216
102
RTVSPost2010PropOp51
 70
     0
102
RTVSPost2010Prop52
140
1.0
102
RTVSPost2010PropOp52
 70
     0
102
RTVSPost2010Prop53
 90
        2
102
RTVSPost2010PropOp53
 70
     1
102
RTVSPost2010Prop54
  1
strokes_ogs.tif
102
RTVSPost2010PropOp54
 70
     1
102
RTVSPost2010Prop55
280
     0
102
RTVSPost2010PropOp55
 70
     1
102
RTVSPost2010Prop56
140
1.0
102
RTVSPost2010PropOp56
 70
     1
102
RTVSPost2010Prop57
140
1.0
102
RTVSPost2010PropOp57
 70
     1
102
RTVSPropertyOp0
 70
     1
102
RTVSPropertyOp1
 70
     1
102
RTVSPropertyOp2
 70
     1
102
RTVSPropertyOp3
 70
     1
102
RTVSPropertyOp4
 70
     1
102
RTVSPropertyOp5
 70
     1
102
RTVSPropertyOp6
 70
     1
102
RTVSPropertyOp7
 70
     1
102
RTVSPropertyOp8
 70
     1
102
RTVSPropertyOp9
 70
     1
102
RTVSPropertyOp10
 70
     1
102
RTVSPropertyOp11
 70
     1
102
RTVSPropertyOp12
 70
     1
102
RTVSPropertyOp13
 70
     1
102
RTVSPropertyOp14
 70
     1
102
RTVSPropertyOp15
 70
     1
102
RTVSPropertyOp16
 70
     1
102
RTVSPropertyOp17
 70
     1
102
RTVSPropertyOp18
 70
     1
102
RTVSPropertyOp19
 70
     1
102
RTVSPropertyOp20
 70
     1
102
RTVSPropertyOp21
 70
     1
102
RTVSPropertyOp22
 70
     1
102
RTVSPropertyOp23
 70
     1
102
RTVSPropertyOp24
 70
     1
102
RTVSPropertyOp25
 70
     1
102
RTVSPropertyOp26
 70
     1
102
RTVSPropertyOp27
 70
     1
102
RTVSPropertyOp28
 70
     1
102
RTVSPropertyOp29
 70
     1
102
RTVSPropertyOp30
 70
     1
102
RTVSPropertyOp31
 70
     1
102
RTVSPropertyOp32
 70
     1
102
RTVSPropertyOp33
 70
     1
102
RTVSPropertyOp34
 70
     1
102
RTVSPropertyOp35
 70
     1
102
RTVSPropertyOp36
 70
     1
102
RTVSPropertyOp37
 70
     1
102
RTVSPropertyOp38
 70
     1
102
RTVSPropertyOp39
 70
     1
102
RTVSPropertyOp40
 70
     1
102
RTVSPropertyOp41
 70
     1
102
RTVSPropertyOp42
 70
     1
102
RTVSPropertyOp43
 70
     1
102
RTVSPropertyOp44
 70
     1
102
RTVSPropertyOp45
 70
     1
102
RTVSPropertyOp46
 70
     1
102
RTVSPropertyOp47
 70
     1
102
RTVSPropertyOp48
 70
     1
102
RTVSPropertyOp49
 70
     1
102
RTVSPropertyOp50
 70
     1
102
RTVSPropertyOp51
 70
     0
102
RTVSPropertyOp52
 70
     0
102
RTVSPropertyOp53
 70
     1
102
RTVSPropertyOp54
 70
     1
102
RTVSPropertyOp55
 70
     1
102
RTVSPropertyOp56
 70
     1
102
RTVSPropertyOp57
 70
     1
102
RTVSPropertyOp58
 70
     1
102
RTVSPropertyOp59
 70
     1
102
RTVSPropertyOp60
 70
     1
102
RTVSPropertyOp61
 70
     1
102
RTVSPropertyOp62
 70
     1
  0
XRECORD
  5
1345
102
{ACAD_REACTORS
330
1344
102
}
330
1344
100
AcDbXrecord
280
     1
102
RTVSPost2010Prop28
280
     0
102
RTVSPost2010PropOp28
 70
     1
102
RTVSPost2010Prop29
280
     1
102
RTVSPost2010PropOp29
 70
     1
102
RTVSPost2010Prop30
280
     1
102
RTVSPost2010PropOp30
 70
     1
102
RTVSPost2010Prop31
280
     0
102
RTVSPost2010PropOp31
 70
     1
102
RTVSPost2010Prop32
280
     0
102
RTVSPost2010PropOp32
 70
     1
102
RTVSPost2010Prop33
280
     0
102
RTVSPost2010PropOp33
 70
     1
102
RTVSPost2010Prop34
280
     0
102
RTVSPost2010PropOp34
 70
     1
102
RTVSPost2010Prop35
280
     0
102
RTVSPost2010PropOp35
 70
     1
102
RTVSPost2010Prop36
280
     0
102
RTVSPost2010PropOp36
 70
     1
102
RTVSPost2010Prop37
 90
       50
102
RTVSPost2010PropOp37
 70
     1
102
RTVSPost2010Prop38
140
0.0
102
RTVSPost2010PropOp38
 70
     1
102
RTVSPost2010Prop39
140
1.0
102
RTVSPost2010PropOp39
 70
     1
102
RTVSPost2010Prop40
 90
        0
102
RTVSPost2010PropOp40
 70
     1
102
RTVSPost2010Prop41ColorIndex
 90
       18
102
RTVSPost2010Prop41ColorRGB
 90
        0
102
RTVSPost2010PropOp41
 70
     1
102
RTVSPost2010Prop42
 90
       50
102
RTVSPost2010PropOp42
 70
     1
102
RTVSPost2010Prop43
 90
        3
102
RTVSPost2010PropOp43
 70
     1
102
RTVSPost2010Prop44ColorIndex
 90
        5
102
RTVSPost2010Prop44ColorRGB
 90
      255
102
RTVSPost2010PropOp44
 70
     1
102
RTVSPost2010Prop45
280
     0
102
RTVSPost2010PropOp45
 70
     1
102
RTVSPost2010Prop46
 90
       50
102
RTVSPost2010PropOp46
 70
     1
102
RTVSPost2010Prop47
 90
       50
102
RTVSPost2010PropOp47
 70
     1
102
RTVSPost2010Prop48
 90
       50
102
RTVSPost2010PropOp48
 70
     1
102
RTVSPost2010Prop49
280
     0
102
RTVSPost2010PropOp49
 70
     1
102
RTVSPost2010Prop50
 90
       50
102
RTVSPost2010PropOp50
 70
     1
102
RTVSPost2010Prop51ColorIndex
 90
      256
102
RTVSPost2010Prop51ColorRGB
 90
-16777216
102
RTVSPost2010PropOp51
 70
     0
102
RTVSPost2010Prop52
140
1.0
102
RTVSPost2010PropOp52
 70
     0
102
RTVSPost2010Prop53
 90
        2
102
RTVSPost2010PropOp53
 70
     1
102
RTVSPost2010Prop54
  1
strokes_ogs.tif
102
RTVSPost2010PropOp54
 70
     1
102
RTVSPost2010Prop55
280
     0
102
RTVSPost2010PropOp55
 70
     1
102
RTVSPost2010Prop56
140
1.0
102
RTVSPost2010PropOp56
 70
     1
102
RTVSPost2010Prop57
140
1.0
102
RTVSPost2010PropOp57
 70
     1
102
RTVSPropertyOp0
 70
     1
102
RTVSPropertyOp1
 70
     1
102
RTVSPropertyOp2
 70
     1
102
RTVSPropertyOp3
 70
     1
102
RTVSPropertyOp4
 70
     1
102
RTVSPropertyOp5
 70
     1
102
RTVSPropertyOp6
 70
     1
102
RTVSPropertyOp7
 70
     1
102
RTVSPropertyOp8
 70
     1
102
RTVSPropertyOp9
 70
     1
102
RTVSPropertyOp10
 70
     1
102
RTVSPropertyOp11
 70
     1
102
RTVSPropertyOp12
 70
     1
102
RTVSPropertyOp13
 70
     1
102
RTVSPropertyOp14
 70
     1
102
RTVSPropertyOp15
 70
     1
102
RTVSPropertyOp16
 70
     1
102
RTVSPropertyOp17
 70
     1
102
RTVSPropertyOp18
 70
     1
102
RTVSPropertyOp19
 70
     1
102
RTVSPropertyOp20
 70
     1
102
RTVSPropertyOp21
 70
     1
102
RTVSPropertyOp22
 70
     1
102
RTVSPropertyOp23
 70
     1
102
RTVSPropertyOp24
 70
     1
102
RTVSPropertyOp25
 70
     1
102
RTVSPropertyOp26
 70
     1
102
RTVSPropertyOp27
 70
     1
102
RTVSPropertyOp28
 70
     1
102
RTVSPropertyOp29
 70
     1
102
RTVSPropertyOp30
 70
     1
102
RTVSPropertyOp31
 70
     1
102
RTVSPropertyOp32
 70
     1
102
RTVSPropertyOp33
 70
     1
102
RTVSPropertyOp34
 70
     1
102
RTVSPropertyOp35
 70
     1
102
RTVSPropertyOp36
 70
     1
102
RTVSPropertyOp37
 70
     1
102
RTVSPropertyOp38
 70
     1
102
RTVSPropertyOp39
 70
     1
102
RTVSPropertyOp40
 70
     1
102
RTVSPropertyOp41
 70
     1
102
RTVSPropertyOp42
 70
     1
102
RTVSPropertyOp43
 70
     1
102
RTVSPropertyOp44
 70
     1
102
RTVSPropertyOp45
 70
     1
102
RTVSPropertyOp46
 70
     1
102
RTVSPropertyOp47
 70
     1
102
RTVSPropertyOp48
 70
     1
102
RTVSPropertyOp49
 70
     1
102
RTVSPropertyOp50
 70
     1
102
RTVSPropertyOp51
 70
     0
102
RTVSPropertyOp52
 70
     0
102
RTVSPropertyOp53
 70
     1
102
RTVSPropertyOp54
 70
     1
102
RTVSPropertyOp55
 70
     1
102
RTVSPropertyOp56
 70
     1
102
RTVSPropertyOp57
 70
     1
102
RTVSPropertyOp58
 70
     1
102
RTVSPropertyOp59
 70
     1
102
RTVSPropertyOp60
 70
     1
102
RTVSPropertyOp61
 70
     1
102
RTVSPropertyOp62
 70
     1
  0
XRECORD
  5
133F
102
{ACAD_REACTORS
330
133E
102
}
330
133E
100
AcDbXrecord
280
     1
102
RTVSPost2010Prop28
280
     0
102
RTVSPost2010PropOp28
 70
     1
102
RTVSPost2010Prop29
280
     1
102
RTVSPost2010PropOp29
 70
     1
102
RTVSPost2010Prop30
280
     1
102
RTVSPost2010PropOp30
 70
     1
102
RTVSPost2010Prop31
280
     0
102
RTVSPost2010PropOp31
 70
     1
102
RTVSPost2010Prop32
280
     0
102
RTVSPost2010PropOp32
 70
     1
102
RTVSPost2010Prop33
280
     0
102
RTVSPost2010PropOp33
 70
     1
102
RTVSPost2010Prop34
280
     0
102
RTVSPost2010PropOp34
 70
     1
102
RTVSPost2010Prop35
280
     0
102
RTVSPost2010PropOp35
 70
     1
102
RTVSPost2010Prop36
280
     0
102
RTVSPost2010PropOp36
 70
     1
102
RTVSPost2010Prop37
 90
       50
102
RTVSPost2010PropOp37
 70
     1
102
RTVSPost2010Prop38
140
0.0
102
RTVSPost2010PropOp38
 70
     1
102
RTVSPost2010Prop39
140
1.0
102
RTVSPost2010PropOp39
 70
     1
102
RTVSPost2010Prop40
 90
        0
102
RTVSPost2010PropOp40
 70
     1
102
RTVSPost2010Prop41ColorIndex
 90
       18
102
RTVSPost2010Prop41ColorRGB
 90
        0
102
RTVSPost2010PropOp41
 70
     1
102
RTVSPost2010Prop42
 90
       50
102
RTVSPost2010PropOp42
 70
     1
102
RTVSPost2010Prop43
 90
        3
102
RTVSPost2010PropOp43
 70
     1
102
RTVSPost2010Prop44ColorIndex
 90
        5
102
RTVSPost2010Prop44ColorRGB
 90
      255
102
RTVSPost2010PropOp44
 70
     1
102
RTVSPost2010Prop45
280
     0
102
RTVSPost2010PropOp45
 70
     1
102
RTVSPost2010Prop46
 90
       50
102
RTVSPost2010PropOp46
 70
     1
102
RTVSPost2010Prop47
 90
       50
102
RTVSPost2010PropOp47
 70
     1
102
RTVSPost2010Prop48
 90
       50
102
RTVSPost2010PropOp48
 70
     1
102
RTVSPost2010Prop49
280
     0
102
RTVSPost2010PropOp49
 70
     1
102
RTVSPost2010Prop50
 90
       50
102
RTVSPost2010PropOp50
 70
     1
102
RTVSPost2010Prop51ColorIndex
 90
      256
102
RTVSPost2010Prop51ColorRGB
 90
-16777216
102
RTVSPost2010PropOp51
 70
     0
102
RTVSPost2010Prop52
140
1.0
102
RTVSPost2010PropOp52
 70
     0
102
RTVSPost2010Prop53
 90
        2
102
RTVSPost2010PropOp53
 70
     1
102
RTVSPost2010Prop54
  1
strokes_ogs.tif
102
RTVSPost2010PropOp54
 70
     1
102
RTVSPost2010Prop55
280
     0
102
RTVSPost2010PropOp55
 70
     1
102
RTVSPost2010Prop56
140
1.0
102
RTVSPost2010PropOp56
 70
     1
102
RTVSPost2010Prop57
140
1.0
102
RTVSPost2010PropOp57
 70
     1
102
RTVSPropertyOp0
 70
     1
102
RTVSPropertyOp1
 70
     1
102
RTVSPropertyOp2
 70
     1
102
RTVSPropertyOp3
 70
     1
102
RTVSPropertyOp4
 70
     1
102
RTVSPropertyOp5
 70
     1
102
RTVSPropertyOp6
 70
     1
102
RTVSPropertyOp7
 70
     1
102
RTVSPropertyOp8
 70
     1
102
RTVSPropertyOp9
 70
     1
102
RTVSPropertyOp10
 70
     1
102
RTVSPropertyOp11
 70
     1
102
RTVSPropertyOp12
 70
     1
102
RTVSPropertyOp13
 70
     1
102
RTVSPropertyOp14
 70
     1
102
RTVSPropertyOp15
 70
     1
102
RTVSPropertyOp16
 70
     1
102
RTVSPropertyOp17
 70
     1
102
RTVSPropertyOp18
 70
     1
102
RTVSPropertyOp19
 70
     1
102
RTVSPropertyOp20
 70
     1
102
RTVSPropertyOp21
 70
     1
102
RTVSPropertyOp22
 70
     1
102
RTVSPropertyOp23
 70
     1
102
RTVSPropertyOp24
 70
     1
102
RTVSPropertyOp25
 70
     1
102
RTVSPropertyOp26
 70
     1
102
RTVSPropertyOp27
 70
     1
102
RTVSPropertyOp28
 70
     1
102
RTVSPropertyOp29
 70
     1
102
RTVSPropertyOp30
 70
     1
102
RTVSPropertyOp31
 70
     1
102
RTVSPropertyOp32
 70
     1
102
RTVSPropertyOp33
 70
     1
102
RTVSPropertyOp34
 70
     1
102
RTVSPropertyOp35
 70
     1
102
RTVSPropertyOp36
 70
     1
102
RTVSPropertyOp37
 70
     1
102
RTVSPropertyOp38
 70
     1
102
RTVSPropertyOp39
 70
     1
102
RTVSPropertyOp40
 70
     1
102
RTVSPropertyOp41
 70
     1
102
RTVSPropertyOp42
 70
     1
102
RTVSPropertyOp43
 70
     1
102
RTVSPropertyOp44
 70
     1
102
RTVSPropertyOp45
 70
     1
102
RTVSPropertyOp46
 70
     1
102
RTVSPropertyOp47
 70
     1
102
RTVSPropertyOp48
 70
     1
102
RTVSPropertyOp49
 70
     1
102
RTVSPropertyOp50
 70
     1
102
RTVSPropertyOp51
 70
     0
102
RTVSPropertyOp52
 70
     0
102
RTVSPropertyOp53
 70
     1
102
RTVSPropertyOp54
 70
     1
102
RTVSPropertyOp55
 70
     1
102
RTVSPropertyOp56
 70
     1
102
RTVSPropertyOp57
 70
     1
102
RTVSPropertyOp58
 70
     1
102
RTVSPropertyOp59
 70
     1
102
RTVSPropertyOp60
 70
     1
102
RTVSPropertyOp61
 70
     1
102
RTVSPropertyOp62
 70
     1
  0
XRECORD
  5
1341
102
{ACAD_REACTORS
330
1340
102
}
330
1340
100
AcDbXrecord
280
     1
102
RTVSPost2010Prop28
280
     0
102
RTVSPost2010PropOp28
 70
     1
102
RTVSPost2010Prop29
280
     1
102
RTVSPost2010PropOp29
 70
     1
102
RTVSPost2010Prop30
280
     1
102
RTVSPost2010PropOp30
 70
     1
102
RTVSPost2010Prop31
280
     0
102
RTVSPost2010PropOp31
 70
     1
102
RTVSPost2010Prop32
280
     0
102
RTVSPost2010PropOp32
 70
     1
102
RTVSPost2010Prop33
280
     0
102
RTVSPost2010PropOp33
 70
     1
102
RTVSPost2010Prop34
280
     0
102
RTVSPost2010PropOp34
 70
     1
102
RTVSPost2010Prop35
280
     0
102
RTVSPost2010PropOp35
 70
     1
102
RTVSPost2010Prop36
280
     0
102
RTVSPost2010PropOp36
 70
     1
102
RTVSPost2010Prop37
 90
       50
102
RTVSPost2010PropOp37
 70
     1
102
RTVSPost2010Prop38
140
0.0
102
RTVSPost2010PropOp38
 70
     1
102
RTVSPost2010Prop39
140
1.0
102
RTVSPost2010PropOp39
 70
     1
102
RTVSPost2010Prop40
 90
        0
102
RTVSPost2010PropOp40
 70
     1
102
RTVSPost2010Prop41ColorIndex
 90
       18
102
RTVSPost2010Prop41ColorRGB
 90
        0
102
RTVSPost2010PropOp41
 70
     1
102
RTVSPost2010Prop42
 90
       50
102
RTVSPost2010PropOp42
 70
     1
102
RTVSPost2010Prop43
 90
        3
102
RTVSPost2010PropOp43
 70
     1
102
RTVSPost2010Prop44ColorIndex
 90
        5
102
RTVSPost2010Prop44ColorRGB
 90
      255
102
RTVSPost2010PropOp44
 70
     1
102
RTVSPost2010Prop45
280
     0
102
RTVSPost2010PropOp45
 70
     1
102
RTVSPost2010Prop46
 90
       50
102
RTVSPost2010PropOp46
 70
     1
102
RTVSPost2010Prop47
 90
       50
102
RTVSPost2010PropOp47
 70
     1
102
RTVSPost2010Prop48
 90
       50
102
RTVSPost2010PropOp48
 70
     1
102
RTVSPost2010Prop49
280
     0
102
RTVSPost2010PropOp49
 70
     1
102
RTVSPost2010Prop50
 90
       50
102
RTVSPost2010PropOp50
 70
     1
102
RTVSPost2010Prop51ColorIndex
 90
      256
102
RTVSPost2010Prop51ColorRGB
 90
-16777216
102
RTVSPost2010PropOp51
 70
     0
102
RTVSPost2010Prop52
140
1.0
102
RTVSPost2010PropOp52
 70
     0
102
RTVSPost2010Prop53
 90
        2
102
RTVSPost2010PropOp53
 70
     1
102
RTVSPost2010Prop54
  1
strokes_ogs.tif
102
RTVSPost2010PropOp54
 70
     1
102
RTVSPost2010Prop55
280
     0
102
RTVSPost2010PropOp55
 70
     1
102
RTVSPost2010Prop56
140
1.0
102
RTVSPost2010PropOp56
 70
     1
102
RTVSPost2010Prop57
140
1.0
102
RTVSPost2010PropOp57
 70
     1
102
RTVSPropertyOp0
 70
     1
102
RTVSPropertyOp1
 70
     1
102
RTVSPropertyOp2
 70
     1
102
RTVSPropertyOp3
 70
     1
102
RTVSPropertyOp4
 70
     1
102
RTVSPropertyOp5
 70
     1
102
RTVSPropertyOp6
 70
     1
102
RTVSPropertyOp7
 70
     1
102
RTVSPropertyOp8
 70
     1
102
RTVSPropertyOp9
 70
     1
102
RTVSPropertyOp10
 70
     1
102
RTVSPropertyOp11
 70
     1
102
RTVSPropertyOp12
 70
     1
102
RTVSPropertyOp13
 70
     1
102
RTVSPropertyOp14
 70
     1
102
RTVSPropertyOp15
 70
     1
102
RTVSPropertyOp16
 70
     1
102
RTVSPropertyOp17
 70
     1
102
RTVSPropertyOp18
 70
     1
102
RTVSPropertyOp19
 70
     1
102
RTVSPropertyOp20
 70
     1
102
RTVSPropertyOp21
 70
     1
102
RTVSPropertyOp22
 70
     1
102
RTVSPropertyOp23
 70
     1
102
RTVSPropertyOp24
 70
     1
102
RTVSPropertyOp25
 70
     1
102
RTVSPropertyOp26
 70
     1
102
RTVSPropertyOp27
 70
     1
102
RTVSPropertyOp28
 70
     1
102
RTVSPropertyOp29
 70
     1
102
RTVSPropertyOp30
 70
     1
102
RTVSPropertyOp31
 70
     1
102
RTVSPropertyOp32
 70
     1
102
RTVSPropertyOp33
 70
     1
102
RTVSPropertyOp34
 70
     1
102
RTVSPropertyOp35
 70
     1
102
RTVSPropertyOp36
 70
     1
102
RTVSPropertyOp37
 70
     1
102
RTVSPropertyOp38
 70
     1
102
RTVSPropertyOp39
 70
     1
102
RTVSPropertyOp40
 70
     1
102
RTVSPropertyOp41
 70
     1
102
RTVSPropertyOp42
 70
     1
102
RTVSPropertyOp43
 70
     1
102
RTVSPropertyOp44
 70
     1
102
RTVSPropertyOp45
 70
     1
102
RTVSPropertyOp46
 70
     1
102
RTVSPropertyOp47
 70
     1
102
RTVSPropertyOp48
 70
     1
102
RTVSPropertyOp49
 70
     1
102
RTVSPropertyOp50
 70
     1
102
RTVSPropertyOp51
 70
     0
102
RTVSPropertyOp52
 70
     0
102
RTVSPropertyOp53
 70
     1
102
RTVSPropertyOp54
 70
     1
102
RTVSPropertyOp55
 70
     1
102
RTVSPropertyOp56
 70
     1
102
RTVSPropertyOp57
 70
     1
102
RTVSPropertyOp58
 70
     1
102
RTVSPropertyOp59
 70
     1
102
RTVSPropertyOp60
 70
     1
102
RTVSPropertyOp61
 70
     1
102
RTVSPropertyOp62
 70
     1
  0
XRECORD
  5
1337
102
{ACAD_REACTORS
330
1336
102
}
330
1336
100
AcDbXrecord
280
     1
102
RTVSPost2010Prop28
280
     0
102
RTVSPost2010PropOp28
 70
     1
102
RTVSPost2010Prop29
280
     1
102
RTVSPost2010PropOp29
 70
     1
102
RTVSPost2010Prop30
280
     1
102
RTVSPost2010PropOp30
 70
     1
102
RTVSPost2010Prop31
280
     0
102
RTVSPost2010PropOp31
 70
     1
102
RTVSPost2010Prop32
280
     0
102
RTVSPost2010PropOp32
 70
     1
102
RTVSPost2010Prop33
280
     0
102
RTVSPost2010PropOp33
 70
     1
102
RTVSPost2010Prop34
280
     0
102
RTVSPost2010PropOp34
 70
     1
102
RTVSPost2010Prop35
280
     0
102
RTVSPost2010PropOp35
 70
     1
102
RTVSPost2010Prop36
280
     0
102
RTVSPost2010PropOp36
 70
     1
102
RTVSPost2010Prop37
 90
       50
102
RTVSPost2010PropOp37
 70
     1
102
RTVSPost2010Prop38
140
0.0
102
RTVSPost2010PropOp38
 70
     1
102
RTVSPost2010Prop39
140
1.0
102
RTVSPost2010PropOp39
 70
     1
102
RTVSPost2010Prop40
 90
        0
102
RTVSPost2010PropOp40
 70
     1
102
RTVSPost2010Prop41ColorIndex
 90
       18
102
RTVSPost2010Prop41ColorRGB
 90
        0
102
RTVSPost2010PropOp41
 70
     1
102
RTVSPost2010Prop42
 90
       50
102
RTVSPost2010PropOp42
 70
     1
102
RTVSPost2010Prop43
 90
        3
102
RTVSPost2010PropOp43
 70
     1
102
RTVSPost2010Prop44ColorIndex
 90
        5
102
RTVSPost2010Prop44ColorRGB
 90
      255
102
RTVSPost2010PropOp44
 70
     1
102
RTVSPost2010Prop45
280
     0
102
RTVSPost2010PropOp45
 70
     1
102
RTVSPost2010Prop46
 90
       50
102
RTVSPost2010PropOp46
 70
     1
102
RTVSPost2010Prop47
 90
       50
102
RTVSPost2010PropOp47
 70
     1
102
RTVSPost2010Prop48
 90
       50
102
RTVSPost2010PropOp48
 70
     1
102
RTVSPost2010Prop49
280
     0
102
RTVSPost2010PropOp49
 70
     1
102
RTVSPost2010Prop50
 90
       50
102
RTVSPost2010PropOp50
 70
     1
102
RTVSPost2010Prop51ColorIndex
 90
      256
102
RTVSPost2010Prop51ColorRGB
 90
-16777216
102
RTVSPost2010PropOp51
 70
     0
102
RTVSPost2010Prop52
140
1.0
102
RTVSPost2010PropOp52
 70
     0
102
RTVSPost2010Prop53
 90
        2
102
RTVSPost2010PropOp53
 70
     1
102
RTVSPost2010Prop54
  1
strokes_ogs.tif
102
RTVSPost2010PropOp54
 70
     1
102
RTVSPost2010Prop55
280
     0
102
RTVSPost2010PropOp55
 70
     1
102
RTVSPost2010Prop56
140
1.0
102
RTVSPost2010PropOp56
 70
     1
102
RTVSPost2010Prop57
140
1.0
102
RTVSPost2010PropOp57
 70
     1
102
RTVSPropertyOp0
 70
     1
102
RTVSPropertyOp1
 70
     1
102
RTVSPropertyOp2
 70
     1
102
RTVSPropertyOp3
 70
     1
102
RTVSPropertyOp4
 70
     1
102
RTVSPropertyOp5
 70
     1
102
RTVSPropertyOp6
 70
     1
102
RTVSPropertyOp7
 70
     1
102
RTVSPropertyOp8
 70
     1
102
RTVSPropertyOp9
 70
     1
102
RTVSPropertyOp10
 70
     1
102
RTVSPropertyOp11
 70
     1
102
RTVSPropertyOp12
 70
     1
102
RTVSPropertyOp13
 70
     1
102
RTVSPropertyOp14
 70
     1
102
RTVSPropertyOp15
 70
     1
102
RTVSPropertyOp16
 70
     1
102
RTVSPropertyOp17
 70
     1
102
RTVSPropertyOp18
 70
     1
102
RTVSPropertyOp19
 70
     1
102
RTVSPropertyOp20
 70
     1
102
RTVSPropertyOp21
 70
     1
102
RTVSPropertyOp22
 70
     1
102
RTVSPropertyOp23
 70
     1
102
RTVSPropertyOp24
 70
     1
102
RTVSPropertyOp25
 70
     1
102
RTVSPropertyOp26
 70
     1
102
RTVSPropertyOp27
 70
     1
102
RTVSPropertyOp28
 70
     1
102
RTVSPropertyOp29
 70
     1
102
RTVSPropertyOp30
 70
     1
102
RTVSPropertyOp31
 70
     1
102
RTVSPropertyOp32
 70
     1
102
RTVSPropertyOp33
 70
     1
102
RTVSPropertyOp34
 70
     1
102
RTVSPropertyOp35
 70
     1
102
RTVSPropertyOp36
 70
     1
102
RTVSPropertyOp37
 70
     1
102
RTVSPropertyOp38
 70
     1
102
RTVSPropertyOp39
 70
     1
102
RTVSPropertyOp40
 70
     1
102
RTVSPropertyOp41
 70
     1
102
RTVSPropertyOp42
 70
     1
102
RTVSPropertyOp43
 70
     1
102
RTVSPropertyOp44
 70
     1
102
RTVSPropertyOp45
 70
     1
102
RTVSPropertyOp46
 70
     1
102
RTVSPropertyOp47
 70
     1
102
RTVSPropertyOp48
 70
     1
102
RTVSPropertyOp49
 70
     1
102
RTVSPropertyOp50
 70
     1
102
RTVSPropertyOp51
 70
     0
102
RTVSPropertyOp52
 70
     0
102
RTVSPropertyOp53
 70
     1
102
RTVSPropertyOp54
 70
     1
102
RTVSPropertyOp55
 70
     1
102
RTVSPropertyOp56
 70
     1
102
RTVSPropertyOp57
 70
     1
102
RTVSPropertyOp58
 70
     1
102
RTVSPropertyOp59
 70
     1
102
RTVSPropertyOp60
 70
     1
102
RTVSPropertyOp61
 70
     1
102
RTVSPropertyOp62
 70
     1
  0
XRECORD
  5
132B
102
{ACAD_REACTORS
330
132A
102
}
330
132A
100
AcDbXrecord
280
     1
102
RTVSPost2010Prop28
280
     0
102
RTVSPost2010PropOp28
 70
     1
102
RTVSPost2010Prop29
280
     1
102
RTVSPost2010PropOp29
 70
     1
102
RTVSPost2010Prop30
280
     1
102
RTVSPost2010PropOp30
 70
     1
102
RTVSPost2010Prop31
280
     0
102
RTVSPost2010PropOp31
 70
     1
102
RTVSPost2010Prop32
280
     0
102
RTVSPost2010PropOp32
 70
     1
102
RTVSPost2010Prop33
280
     0
102
RTVSPost2010PropOp33
 70
     1
102
RTVSPost2010Prop34
280
     0
102
RTVSPost2010PropOp34
 70
     1
102
RTVSPost2010Prop35
280
     0
102
RTVSPost2010PropOp35
 70
     1
102
RTVSPost2010Prop36
280
     0
102
RTVSPost2010PropOp36
 70
     1
102
RTVSPost2010Prop37
 90
       50
102
RTVSPost2010PropOp37
 70
     1
102
RTVSPost2010Prop38
140
0.0
102
RTVSPost2010PropOp38
 70
     1
102
RTVSPost2010Prop39
140
1.0
102
RTVSPost2010PropOp39
 70
     1
102
RTVSPost2010Prop40
 90
        0
102
RTVSPost2010PropOp40
 70
     1
102
RTVSPost2010Prop41ColorIndex
 90
       18
102
RTVSPost2010Prop41ColorRGB
 90
        0
102
RTVSPost2010PropOp41
 70
     1
102
RTVSPost2010Prop42
 90
       50
102
RTVSPost2010PropOp42
 70
     1
102
RTVSPost2010Prop43
 90
        3
102
RTVSPost2010PropOp43
 70
     1
102
RTVSPost2010Prop44ColorIndex
 90
        5
102
RTVSPost2010Prop44ColorRGB
 90
      255
102
RTVSPost2010PropOp44
 70
     1
102
RTVSPost2010Prop45
280
     0
102
RTVSPost2010PropOp45
 70
     1
102
RTVSPost2010Prop46
 90
       50
102
RTVSPost2010PropOp46
 70
     1
102
RTVSPost2010Prop47
 90
       50
102
RTVSPost2010PropOp47
 70
     1
102
RTVSPost2010Prop48
 90
       50
102
RTVSPost2010PropOp48
 70
     1
102
RTVSPost2010Prop49
280
     0
102
RTVSPost2010PropOp49
 70
     1
102
RTVSPost2010Prop50
 90
       50
102
RTVSPost2010PropOp50
 70
     1
102
RTVSPost2010Prop51ColorIndex
 90
      256
102
RTVSPost2010Prop51ColorRGB
 90
-16777216
102
RTVSPost2010PropOp51
 70
     0
102
RTVSPost2010Prop52
140
1.0
102
RTVSPost2010PropOp52
 70
     0
102
RTVSPost2010Prop53
 90
        2
102
RTVSPost2010PropOp53
 70
     1
102
RTVSPost2010Prop54
  1
strokes_ogs.tif
102
RTVSPost2010PropOp54
 70
     1
102
RTVSPost2010Prop55
280
     0
102
RTVSPost2010PropOp55
 70
     1
102
RTVSPost2010Prop56
140
1.0
102
RTVSPost2010PropOp56
 70
     1
102
RTVSPost2010Prop57
140
1.0
102
RTVSPost2010PropOp57
 70
     1
102
RTVSPropertyOp0
 70
     1
102
RTVSPropertyOp1
 70
     1
102
RTVSPropertyOp2
 70
     1
102
RTVSPropertyOp3
 70
     1
102
RTVSPropertyOp4
 70
     1
102
RTVSPropertyOp5
 70
     1
102
RTVSPropertyOp6
 70
     1
102
RTVSPropertyOp7
 70
     1
102
RTVSPropertyOp8
 70
     1
102
RTVSPropertyOp9
 70
     1
102
RTVSPropertyOp10
 70
     1
102
RTVSPropertyOp11
 70
     1
102
RTVSPropertyOp12
 70
     1
102
RTVSPropertyOp13
 70
     1
102
RTVSPropertyOp14
 70
     1
102
RTVSPropertyOp15
 70
     1
102
RTVSPropertyOp16
 70
     1
102
RTVSPropertyOp17
 70
     1
102
RTVSPropertyOp18
 70
     1
102
RTVSPropertyOp19
 70
     1
102
RTVSPropertyOp20
 70
     1
102
RTVSPropertyOp21
 70
     1
102
RTVSPropertyOp22
 70
     1
102
RTVSPropertyOp23
 70
     1
102
RTVSPropertyOp24
 70
     1
102
RTVSPropertyOp25
 70
     1
102
RTVSPropertyOp26
 70
     1
102
RTVSPropertyOp27
 70
     1
102
RTVSPropertyOp28
 70
     1
102
RTVSPropertyOp29
 70
     1
102
RTVSPropertyOp30
 70
     1
102
RTVSPropertyOp31
 70
     1
102
RTVSPropertyOp32
 70
     1
102
RTVSPropertyOp33
 70
     1
102
RTVSPropertyOp34
 70
     1
102
RTVSPropertyOp35
 70
     1
102
RTVSPropertyOp36
 70
     1
102
RTVSPropertyOp37
 70
     1
102
RTVSPropertyOp38
 70
     1
102
RTVSPropertyOp39
 70
     1
102
RTVSPropertyOp40
 70
     1
102
RTVSPropertyOp41
 70
     1
102
RTVSPropertyOp42
 70
     1
102
RTVSPropertyOp43
 70
     1
102
RTVSPropertyOp44
 70
     1
102
RTVSPropertyOp45
 70
     1
102
RTVSPropertyOp46
 70
     1
102
RTVSPropertyOp47
 70
     1
102
RTVSPropertyOp48
 70
     1
102
RTVSPropertyOp49
 70
     1
102
RTVSPropertyOp50
 70
     1
102
RTVSPropertyOp51
 70
     0
102
RTVSPropertyOp52
 70
     0
102
RTVSPropertyOp53
 70
     1
102
RTVSPropertyOp54
 70
     1
102
RTVSPropertyOp55
 70
     1
102
RTVSPropertyOp56
 70
     1
102
RTVSPropertyOp57
 70
     1
102
RTVSPropertyOp58
 70
     1
102
RTVSPropertyOp59
 70
     1
102
RTVSPropertyOp60
 70
     1
102
RTVSPropertyOp61
 70
     1
102
RTVSPropertyOp62
 70
     1
  0
XRECORD
  5
1343
102
{ACAD_REACTORS
330
1342
102
}
330
1342
100
AcDbXrecord
280
     1
102
RTVSPost2010Prop28
280
     0
102
RTVSPost2010PropOp28
 70
     1
102
RTVSPost2010Prop29
280
     1
102
RTVSPost2010PropOp29
 70
     1
102
RTVSPost2010Prop30
280
     1
102
RTVSPost2010PropOp30
 70
     1
102
RTVSPost2010Prop31
280
     0
102
RTVSPost2010PropOp31
 70
     1
102
RTVSPost2010Prop32
280
     0
102
RTVSPost2010PropOp32
 70
     1
102
RTVSPost2010Prop33
280
     0
102
RTVSPost2010PropOp33
 70
     1
102
RTVSPost2010Prop34
280
     0
102
RTVSPost2010PropOp34
 70
     1
102
RTVSPost2010Prop35
280
     0
102
RTVSPost2010PropOp35
 70
     1
102
RTVSPost2010Prop36
280
     0
102
RTVSPost2010PropOp36
 70
     1
102
RTVSPost2010Prop37
 90
       50
102
RTVSPost2010PropOp37
 70
     1
102
RTVSPost2010Prop38
140
0.0
102
RTVSPost2010PropOp38
 70
     1
102
RTVSPost2010Prop39
140
1.0
102
RTVSPost2010PropOp39
 70
     1
102
RTVSPost2010Prop40
 90
        0
102
RTVSPost2010PropOp40
 70
     1
102
RTVSPost2010Prop41ColorIndex
 90
       18
102
RTVSPost2010Prop41ColorRGB
 90
        0
102
RTVSPost2010PropOp41
 70
     1
102
RTVSPost2010Prop42
 90
       50
102
RTVSPost2010PropOp42
 70
     1
102
RTVSPost2010Prop43
 90
        3
102
RTVSPost2010PropOp43
 70
     1
102
RTVSPost2010Prop44ColorIndex
 90
        5
102
RTVSPost2010Prop44ColorRGB
 90
      255
102
RTVSPost2010PropOp44
 70
     1
102
RTVSPost2010Prop45
280
     0
102
RTVSPost2010PropOp45
 70
     1
102
RTVSPost2010Prop46
 90
       50
102
RTVSPost2010PropOp46
 70
     1
102
RTVSPost2010Prop47
 90
       50
102
RTVSPost2010PropOp47
 70
     1
102
RTVSPost2010Prop48
 90
       50
102
RTVSPost2010PropOp48
 70
     1
102
RTVSPost2010Prop49
280
     0
102
RTVSPost2010PropOp49
 70
     1
102
RTVSPost2010Prop50
 90
       50
102
RTVSPost2010PropOp50
 70
     1
102
RTVSPost2010Prop51ColorIndex
 90
      256
102
RTVSPost2010Prop51ColorRGB
 90
-16777216
102
RTVSPost2010PropOp51
 70
     0
102
RTVSPost2010Prop52
140
1.0
102
RTVSPost2010PropOp52
 70
     0
102
RTVSPost2010Prop53
 90
        2
102
RTVSPost2010PropOp53
 70
     1
102
RTVSPost2010Prop54
  1
strokes_ogs.tif
102
RTVSPost2010PropOp54
 70
     1
102
RTVSPost2010Prop55
280
     0
102
RTVSPost2010PropOp55
 70
     1
102
RTVSPost2010Prop56
140
1.0
102
RTVSPost2010PropOp56
 70
     1
102
RTVSPost2010Prop57
140
1.0
102
RTVSPost2010PropOp57
 70
     1
102
RTVSPropertyOp0
 70
     1
102
RTVSPropertyOp1
 70
     1
102
RTVSPropertyOp2
 70
     1
102
RTVSPropertyOp3
 70
     1
102
RTVSPropertyOp4
 70
     1
102
RTVSPropertyOp5
 70
     1
102
RTVSPropertyOp6
 70
     1
102
RTVSPropertyOp7
 70
     1
102
RTVSPropertyOp8
 70
     1
102
RTVSPropertyOp9
 70
     1
102
RTVSPropertyOp10
 70
     1
102
RTVSPropertyOp11
 70
     1
102
RTVSPropertyOp12
 70
     1
102
RTVSPropertyOp13
 70
     1
102
RTVSPropertyOp14
 70
     1
102
RTVSPropertyOp15
 70
     1
102
RTVSPropertyOp16
 70
     1
102
RTVSPropertyOp17
 70
     1
102
RTVSPropertyOp18
 70
     1
102
RTVSPropertyOp19
 70
     1
102
RTVSPropertyOp20
 70
     1
102
RTVSPropertyOp21
 70
     1
102
RTVSPropertyOp22
 70
     1
102
RTVSPropertyOp23
 70
     1
102
RTVSPropertyOp24
 70
     1
102
RTVSPropertyOp25
 70
     1
102
RTVSPropertyOp26
 70
     1
102
RTVSPropertyOp27
 70
     1
102
RTVSPropertyOp28
 70
     1
102
RTVSPropertyOp29
 70
     1
102
RTVSPropertyOp30
 70
     1
102
RTVSPropertyOp31
 70
     1
102
RTVSPropertyOp32
 70
     1
102
RTVSPropertyOp33
 70
     1
102
RTVSPropertyOp34
 70
     1
102
RTVSPropertyOp35
 70
     1
102
RTVSPropertyOp36
 70
     1
102
RTVSPropertyOp37
 70
     1
102
RTVSPropertyOp38
 70
     1
102
RTVSPropertyOp39
 70
     1
102
RTVSPropertyOp40
 70
     1
102
RTVSPropertyOp41
 70
     1
102
RTVSPropertyOp42
 70
     1
102
RTVSPropertyOp43
 70
     1
102
RTVSPropertyOp44
 70
     1
102
RTVSPropertyOp45
 70
     1
102
RTVSPropertyOp46
 70
     1
102
RTVSPropertyOp47
 70
     1
102
RTVSPropertyOp48
 70
     1
102
RTVSPropertyOp49
 70
     1
102
RTVSPropertyOp50
 70
     1
102
RTVSPropertyOp51
 70
     0
102
RTVSPropertyOp52
 70
     0
102
RTVSPropertyOp53
 70
     1
102
RTVSPropertyOp54
 70
     1
102
RTVSPropertyOp55
 70
     1
102
RTVSPropertyOp56
 70
     1
102
RTVSPropertyOp57
 70
     1
102
RTVSPropertyOp58
 70
     1
102
RTVSPropertyOp59
 70
     1
102
RTVSPropertyOp60
 70
     1
102
RTVSPropertyOp61
 70
     1
102
RTVSPropertyOp62
 70
     1
  0
ENDSEC
  0
EOF
