0
SECTION
2
HEADER
9
$ACADVER
1
AC1015
9
$DWGCODEPAGE
3
ANSI_1252
9
$HANDSEED
5
237
9
$ANGBASE
50
0
9
$ANGDIR
70
0
9
$ATTMODE
70
1
9
$AUNITS
70
0
9
$AUPREC
70
0
9
$CECOLOR
62
256
9
$CELTSCALE
40
1
9
$CELTYPE
6
ByLayer
9
$CELWEIGHT
370
18
9
$CLAYER
8
0
9
$CMLJUST
70
0
9
$CMLSCALE
40
1
9
$CMLSTYLE
2
Standard
9
$DIMSTYLE
2
Standard
9
$TEXTSIZE
40
0.2
9
$TEXTSTYLE
7
Standard
9
$LUNITS
70
2
9
$LUPREC
70
4
9
$EXTNAMES
290
1
9
$INSUNITS
70
4
9
$LTSCALE
40
1
9
$LWDISPLAY
290
1
9
$PDMODE
70
0
9
$PDSIZE
40
0
9
$PLINEGEN
70
0
0
ENDSEC
0
SECTION
2
CLASSES
0
CLASS
1
RASTERVARIABLES
2
AcDbRasterVariables
3
ISM
90
0
280
0
281
0
0
ENDSEC
0
SECTION
2
TABLES
0
TABLE
2
VPORT
5
22d
100
AcDbSymbolTable
0
VPORT
5
1
100
AcDbSymbolTableRecord
100
AcDbViewportTableRecord
2
*Active
70
0
10
0
20
0
11
1
21
1
12
-1
22
1
13
0
23
0
14
0.5
24
0.5
15
10
25
10
16
0
26
0
36
1
17
0
27
0
37
0
0
ENDTAB
0
TABLE
2
LTYPE
5
22e
100
AcDbSymbolTable
0
LTYPE
5
14
100
AcDbSymbolTableRecord
100
AcDbLinetypeTableRecord
70
0
2
ByBlock
3

72
65
73
0
40
0
0
LTYPE
5
15
100
AcDbSymbolTableRecord
100
AcDbLinetypeTableRecord
70
0
2
ByLayer
3

72
65
73
0
40
0
0
LTYPE
5
16
100
AcDbSymbolTableRecord
100
AcDbLinetypeTableRecord
70
0
2
CONTINUOUS
3
Solid line
72
65
73
0
40
0
0
LTYPE
5
6A
100
AcDbSymbolTableRecord
100
AcDbLinetypeTableRecord
70
0
2
CENTER
3
____ _ ____ _ ____ _ ____
72
65
73
4
40
47.5
49
22
74
0
49
-8.5
74
0
49
8.5
74
0
49
-8.5
74
0
0
LTYPE
5
6B
100
AcDbSymbolTableRecord
100
AcDbLinetypeTableRecord
70
0
2
DASHED
3
__ __ __ __ __ __ __ __ __
72
65
73
2
40
25.72
49
12.86
74
0
49
-12.86
74
0
0
ENDTAB
0
TABLE
2
LAYER
5
22f
100
AcDbSymbolTable
0
LAYER
5
10
100
AcDbSymbolTableRecord
100
AcDbLayerTableRecord
2
0
70
0
62
7
6
CONTINUOUS
290
1
370
-3
390
0
0
LAYER
5
6D
100
AcDbSymbolTableRecord
100
AcDbLayerTableRecord
2
81
70
0
62
-3
6
CONTINUOUS
290
1
370
-3
390
0
0
LAYER
5
6F
100
AcDbSymbolTableRecord
100
AcDbLayerTableRecord
2
80
70
0
62
-6
6
CONTINUOUS
290
1
370
-3
390
0
0
LAYER
5
71
100
AcDbSymbolTableRecord
100
AcDbLayerTableRecord
2
1
70
0
62
4
6
CONTINUOUS
290
1
370
-3
390
0
0
LAYER
5
11B
100
AcDbSymbolTableRecord
100
AcDbLayerTableRecord
2
4
70
0
62
-2
6
CENTER
290
1
370
-3
390
0
0
LAYER
5
123
100
AcDbSymbolTableRecord
100
AcDbLayerTableRecord
2
3
70
0
62
1
6
DASHED
290
1
370
-3
390
0
0
LAYER
5
1B3
100
AcDbSymbolTableRecord
100
AcDbLayerTableRecord
2
2
70
0
62
7
6
CONTINUOUS
290
1
370
-3
390
0
0
LAYER
5
216
100
AcDbSymbolTableRecord
100
AcDbLayerTableRecord
2
SK3
70
0
62
1
6
DASHED
290
1
370
-3
390
0
0
LAYER
5
217
100
AcDbSymbolTableRecord
100
AcDbLayerTableRecord
2
SK1
70
0
62
4
6
CONTINUOUS
290
1
370
-3
390
0
0
LAYER
5
218
100
AcDbSymbolTableRecord
100
AcDbLayerTableRecord
2
SK4
70
0
62
2
6
CENTER
290
1
370
-3
390
0
0
LAYER
5
219
100
AcDbSymbolTableRecord
100
AcDbLayerTableRecord
2
SK6
70
0
62
5
6
CONTINUOUS
290
1
370
-3
390
0
0
LAYER
5
21a
100
AcDbSymbolTableRecord
100
AcDbLayerTableRecord
2
SK2
70
0
62
7
6
CONTINUOUS
290
1
370
-3
390
0
0
ENDTAB
0
TABLE
2
STYLE
5
230
100
AcDbSymbolTable
0
STYLE
5
11
100
AcDbSymbolTableRecord
100
AcDbTextStyleTableRecord
2
Standard
3
txt
70
0
71
0
40
0
41
1
42
0
50
0
0
STYLE
5
145
100
AcDbSymbolTableRecord
100
AcDbTextStyleTableRecord
2
iso_b_vert
3
simplex.shx
70
0
71
0
40
0
41
1
42
0
50
0
0
STYLE
5
146
100
AcDbSymbolTableRecord
100
AcDbTextStyleTableRecord
2
DWGDirectTextStyle
3
simplex
70
0
71
0
40
0
41
1
42
0
50
0
0
ENDTAB
0
TABLE
2
DIMSTYLE
5
231
100
AcDbSymbolTable
100
AcDbDimStyleTable
0
DIMSTYLE
105
27
100
AcDbSymbolTableRecord
100
AcDbDimStyleTableRecord
2
Standard
70
0
3
<>
41
0.18
42
0.0625
44
0.18
140
0.18
147
0.09
73
0
74
0
77
1
271
2
275
0
278
52
280
0
340
11
0
ENDTAB
0
TABLE
2
VIEW
5
232
100
AcDbSymbolTable
0
ENDTAB
0
TABLE
2
UCS
5
233
100
AcDbSymbolTable
0
ENDTAB
0
TABLE
2
APPID
5
234
100
AcDbSymbolTable
0
APPID
5
12
100
AcDbSymbolTableRecord
100
AcDbRegAppTableRecord
2
ACAD
70
0
0
ENDTAB
0
TABLE
2
BLOCK_RECORD
5
235
100
AcDbSymbolTable
0
BLOCK_RECORD
5
1F
100
AcDbSymbolTableRecord
100
AcDbBlockTableRecord
2
*Model_Space
340
0
70
0
0
BLOCK_RECORD
5
1B
100
AcDbSymbolTableRecord
100
AcDbBlockTableRecord
2
*Paper_Space
340
0
70
0
0
BLOCK_RECORD
5
23
100
AcDbSymbolTableRecord
100
AcDbBlockTableRecord
2
*Paper_Space0
340
0
70
0
0
BLOCK_RECORD
5
148
100
AcDbSymbolTableRecord
100
AcDbBlockTableRecord
2
DimnDraft3D1
340
0
70
0
0
BLOCK_RECORD
5
153
100
AcDbSymbolTableRecord
100
AcDbBlockTableRecord
2
DimnDraft3D2
340
0
70
0
0
BLOCK_RECORD
5
15D
100
AcDbSymbolTableRecord
100
AcDbBlockTableRecord
2
DimnDraft3D3
340
0
70
0
0
BLOCK_RECORD
5
167
100
AcDbSymbolTableRecord
100
AcDbBlockTableRecord
2
DimnDraft3D4
340
0
70
0
0
BLOCK_RECORD
5
171
100
AcDbSymbolTableRecord
100
AcDbBlockTableRecord
2
DimnDraft3D5
340
0
70
0
0
BLOCK_RECORD
5
17B
100
AcDbSymbolTableRecord
100
AcDbBlockTableRecord
2
DimnDraft3D6
340
0
70
0
0
BLOCK_RECORD
5
185
100
AcDbSymbolTableRecord
100
AcDbBlockTableRecord
2
DimnDraft3D7
340
0
70
0
0
BLOCK_RECORD
5
193
100
AcDbSymbolTableRecord
100
AcDbBlockTableRecord
2
_CLOSED
340
0
70
0
0
BLOCK_RECORD
5
19A
100
AcDbSymbolTableRecord
100
AcDbBlockTableRecord
2
DimnDraft3D8
340
0
70
0
0
BLOCK_RECORD
5
1A8
100
AcDbSymbolTableRecord
100
AcDbBlockTableRecord
2
DimnDraft3D9
340
0
70
0
0
BLOCK_RECORD
5
1B1
100
AcDbSymbolTableRecord
100
AcDbBlockTableRecord
2
DimnDraft3D10
340
0
70
0
0
ENDTAB
0
ENDSEC
0
SECTION
2
BLOCKS
0
BLOCK
5
20
100
AcDbEntity
8
0
100
AcDbBlockBegin
2
*Model_Space
70
0
10
0
20
0
30
0
3
*Model_Space
0
ENDBLK
5
21
100
AcDbEntity
8
0
100
AcDbBlockEnd
0
BLOCK
5
1C
100
AcDbEntity
8
0
100
AcDbBlockBegin
2
*Paper_Space
70
0
10
0
20
0
30
0
3
*Paper_Space
0
ENDBLK
5
1D
100
AcDbEntity
8
0
100
AcDbBlockEnd
0
BLOCK
5
24
100
AcDbEntity
8
0
100
AcDbBlockBegin
2
*Paper_Space0
70
0
10
0
20
0
30
0
3
*Paper_Space0
0
ENDBLK
5
25
100
AcDbEntity
8
0
100
AcDbBlockEnd
0
BLOCK
5
150
100
AcDbEntity
8
0
100
AcDbBlockBegin
2
DimnDraft3D1
70
0
10
0
20
0
30
0
3
DimnDraft3D1
0
MTEXT
5
149
100
AcDbEntity
8
SK2
62
256
6
ByLayer
370
18
48
1
60
0
100
AcDbMText
10
51.284716
20
76.034325
30
0
210
0
220
0
230
1
1
\W0.7025;109.6
40
3.000007
41
0
44
1.084337
50
0
71
7
72
5
7
iso_b_vert
0
LINE
5
14B
100
AcDbEntity
8
SK2
62
256
6
ByLayer
370
13
48
1
60
0
100
AcDbLine
10
1.3E-05
20
50.852471
30
0
11
1.3E-05
21
78.459209
31
0
39
0
210
0
220
0
230
1
0
LINE
5
14C
100
AcDbEntity
8
SK2
62
256
6
ByLayer
370
13
48
1
60
0
100
AcDbLine
10
109.6
20
14.973398
30
0
11
109.6
21
78.459209
31
0
39
0
210
0
220
0
230
1
0
LINE
5
14D
100
AcDbEntity
8
SK2
62
256
6
ByLayer
370
13
48
1
60
0
100
AcDbLine
10
1.3E-05
20
75.284209
30
0
11
109.6
21
75.284209
31
0
39
0
210
0
220
0
230
1
0
SOLID
5
14E
100
AcDbEntity
8
SK2
62
256
6
ByLayer
370
13
48
1
60
0
100
AcDbTrace
10
1.3E-05
20
75.284209
30
0
11
3.175012
21
75.78708
31
0
12
3.175015
22
74.781338
32
0
13
1.3E-05
23
75.284209
33
0
39
0
210
0
220
0
230
1
0
SOLID
5
14F
100
AcDbEntity
8
SK2
62
256
6
ByLayer
370
13
48
1
60
0
100
AcDbTrace
10
109.6
20
75.284209
30
0
11
106.425002
21
74.781338
31
0
12
106.424998
22
75.78708
32
0
13
109.6
23
75.284209
33
0
39
0
210
0
220
0
230
1
0
ENDBLK
5
151
100
AcDbEntity
8
0
100
AcDbBlockEnd
0
BLOCK
5
15A
100
AcDbEntity
8
0
100
AcDbBlockBegin
2
DimnDraft3D2
70
0
10
0
20
0
30
0
3
DimnDraft3D2
0
MTEXT
5
154
100
AcDbEntity
8
SK2
62
256
6
ByLayer
370
18
48
1
60
0
100
AcDbMText
10
99.433571
20
31.787737
30
0
210
0
220
0
230
1
1
\W0.5560;19
40
3.000007
41
0
44
1.084337
50
0
71
7
72
5
7
iso_b_vert
0
LINE
5
155
100
AcDbEntity
8
SK2
62
256
6
ByLayer
370
13
48
1
60
0
100
AcDbLine
10
90.6
20
17.6375
30
0
11
90.6
21
34.212621
31
0
39
0
210
0
220
0
230
1
0
LINE
5
156
100
AcDbEntity
8
SK2
62
256
6
ByLayer
370
13
48
1
60
0
100
AcDbLine
10
109.6
20
14.973398
30
0
11
109.6
21
34.212621
31
0
39
0
210
0
220
0
230
1
0
LINE
5
157
100
AcDbEntity
8
SK2
62
256
6
ByLayer
370
13
48
1
60
0
100
AcDbLine
10
90.6
20
31.037621
30
0
11
109.6
21
31.037621
31
0
39
0
210
0
220
0
230
1
0
SOLID
5
158
100
AcDbEntity
8
SK2
62
256
6
ByLayer
370
13
48
1
60
0
100
AcDbTrace
10
90.6
20
31.037621
30
0
11
93.774998
21
31.540492
31
0
12
93.775002
22
30.53475
32
0
13
90.6
23
31.037621
33
0
39
0
210
0
220
0
230
1
0
SOLID
5
159
100
AcDbEntity
8
SK2
62
256
6
ByLayer
370
13
48
1
60
0
100
AcDbTrace
10
109.6
20
31.037621
30
0
11
106.425002
21
30.53475
31
0
12
106.424998
22
31.540492
32
0
13
109.6
23
31.037621
33
0
39
0
210
0
220
0
230
1
0
ENDBLK
5
15B
100
AcDbEntity
8
0
100
AcDbBlockEnd
0
BLOCK
5
164
100
AcDbEntity
8
0
100
AcDbBlockBegin
2
DimnDraft3D3
70
0
10
0
20
0
30
0
3
DimnDraft3D3
0
MTEXT
5
15E
100
AcDbEntity
8
SK2
62
256
6
ByLayer
370
18
48
1
60
0
100
AcDbMText
10
89.202053
20
42.754088
30
0
210
0
220
0
230
1
1
\W0.7152;35.3
40
3.000007
41
0
44
1.084337
50
0
71
7
72
5
7
iso_b_vert
0
LINE
5
15F
100
AcDbEntity
8
SK2
62
256
6
ByLayer
370
13
48
1
60
0
100
AcDbLine
10
109.6
20
14.973398
30
0
11
109.6
21
45.178972
31
0
39
0
210
0
220
0
230
1
0
LINE
5
160
100
AcDbEntity
8
SK2
62
256
6
ByLayer
370
13
48
1
60
0
100
AcDbLine
10
74.3432
20
18.5039
30
0
11
74.3432
21
45.178972
31
0
39
0
210
0
220
0
230
1
0
LINE
5
161
100
AcDbEntity
8
SK2
62
256
6
ByLayer
370
13
48
1
60
0
100
AcDbLine
10
109.6
20
42.003972
30
0
11
74.3432
21
42.003972
31
0
39
0
210
0
220
0
230
1
0
SOLID
5
162
100
AcDbEntity
8
SK2
62
256
6
ByLayer
370
13
48
1
60
0
100
AcDbTrace
10
109.6
20
42.003972
30
0
11
106.425002
21
41.501102
31
0
12
106.424998
22
42.506843
32
0
13
109.6
23
42.003972
33
0
39
0
210
0
220
0
230
1
0
SOLID
5
163
100
AcDbEntity
8
SK2
62
256
6
ByLayer
370
13
48
1
60
0
100
AcDbTrace
10
74.3432
20
42.003972
30
0
11
77.518198
21
42.506843
31
0
12
77.518202
22
41.501102
32
0
13
74.3432
23
42.003972
33
0
39
0
210
0
220
0
230
1
0
ENDBLK
5
165
100
AcDbEntity
8
0
100
AcDbBlockEnd
0
BLOCK
5
16E
100
AcDbEntity
8
0
100
AcDbBlockBegin
2
DimnDraft3D4
70
0
10
0
20
0
30
0
3
DimnDraft3D4
0
MTEXT
5
168
100
AcDbEntity
8
SK2
62
256
6
ByLayer
370
18
48
1
60
0
100
AcDbMText
10
66.48046
20
64.353799
30
0
210
0
220
0
230
1
1
\W0.7152;80.7
40
3.000007
41
0
44
1.084337
50
0
71
7
72
5
7
iso_b_vert
0
LINE
5
169
100
AcDbEntity
8
SK2
62
256
6
ByLayer
370
13
48
1
60
0
100
AcDbLine
10
109.6
20
14.973398
30
0
11
109.6
21
66.778683
31
0
39
0
210
0
220
0
230
1
0
LINE
5
16A
100
AcDbEntity
8
SK2
62
256
6
ByLayer
370
13
48
1
60
0
100
AcDbLine
10
28.900013
20
50.802568
30
0
11
28.900013
21
66.778683
31
0
39
0
210
0
220
0
230
1
0
LINE
5
16B
100
AcDbEntity
8
SK2
62
256
6
ByLayer
370
13
48
1
60
0
100
AcDbLine
10
109.6
20
63.603683
30
0
11
28.900013
21
63.603683
31
0
39
0
210
0
220
0
230
1
0
SOLID
5
16C
100
AcDbEntity
8
SK2
62
256
6
ByLayer
370
13
48
1
60
0
100
AcDbTrace
10
109.6
20
63.603683
30
0
11
106.425002
21
63.100812
31
0
12
106.424998
22
64.106553
32
0
13
109.6
23
63.603683
33
0
39
0
210
0
220
0
230
1
0
SOLID
5
16D
100
AcDbEntity
8
SK2
62
256
6
ByLayer
370
13
48
1
60
0
100
AcDbTrace
10
28.900013
20
63.603683
30
0
11
32.075012
21
64.106553
31
0
12
32.075015
22
63.100812
32
0
13
28.900013
23
63.603683
33
0
39
0
210
0
220
0
230
1
0
ENDBLK
5
16F
100
AcDbEntity
8
0
100
AcDbBlockEnd
0
BLOCK
5
178
100
AcDbEntity
8
0
100
AcDbBlockBegin
2
DimnDraft3D5
70
0
10
0
20
0
30
0
3
DimnDraft3D5
0
MTEXT
5
172
100
AcDbEntity
8
SK2
62
256
6
ByLayer
370
18
48
1
60
0
100
AcDbMText
10
125.302653
20
12.608756
30
0
210
0
220
0
230
1
1
\W0.9037;%%c4-%%c10
40
3.000007
41
0
44
1.084337
50
90
71
7
72
5
7
iso_b_vert
0
LINE
5
173
100
AcDbEntity
8
SK2
62
256
6
ByLayer
370
13
48
1
60
0
100
AcDbLine
10
111.1875
20
8
30
0
11
129.227769
21
8
31
0
39
0
210
0
220
0
230
1
0
LINE
5
174
100
AcDbEntity
8
SK2
62
256
6
ByLayer
370
13
48
1
60
0
100
AcDbLine
10
111.1875
20
-8
30
0
11
129.227769
21
-8
31
0
39
0
210
0
220
0
230
1
0
LINE
5
175
100
AcDbEntity
8
SK2
62
256
6
ByLayer
370
13
48
1
60
0
100
AcDbLine
10
126.052769
20
-8
30
0
11
126.052769
21
25.315293
31
0
39
0
210
0
220
0
230
1
0
SOLID
5
176
100
AcDbEntity
8
SK2
62
256
6
ByLayer
370
13
48
1
60
0
100
AcDbTrace
10
126.052769
20
8
30
0
11
126.55564
21
4.825002
31
0
12
125.549898
22
4.824998
32
0
13
126.052769
23
8
33
0
39
0
210
0
220
0
230
1
0
SOLID
5
177
100
AcDbEntity
8
SK2
62
256
6
ByLayer
370
13
48
1
60
0
100
AcDbTrace
10
126.052769
20
-8
30
0
11
125.549898
21
-4.825002
31
0
12
126.55564
22
-4.824998
32
0
13
126.052769
23
-8
33
0
39
0
210
0
220
0
230
1
0
ENDBLK
5
179
100
AcDbEntity
8
0
100
AcDbBlockEnd
0
BLOCK
5
182
100
AcDbEntity
8
0
100
AcDbBlockBegin
2
DimnDraft3D6
70
0
10
0
20
0
30
0
3
DimnDraft3D6
0
MTEXT
5
17C
100
AcDbEntity
8
SK2
62
256
6
ByLayer
370
18
48
1
60
0
100
AcDbMText
10
137.64444
20
-5.013169
30
0
210
0
220
0
230
1
1
\W0.8098;%%c 33.7
40
3.000007
41
0
44
1.084337
50
90
71
7
72
5
7
iso_b_vert
0
LINE
5
17D
100
AcDbEntity
8
SK2
62
256
6
ByLayer
370
13
48
1
60
0
100
AcDbLine
10
114.1875
20
-16.85
30
0
11
141.569556
21
-16.85
31
0
39
0
210
0
220
0
230
1
0
LINE
5
17E
100
AcDbEntity
8
SK2
62
256
6
ByLayer
370
13
48
1
60
0
100
AcDbLine
10
114.1875
20
16.85
30
0
11
141.569556
21
16.85
31
0
39
0
210
0
220
0
230
1
0
LINE
5
17F
100
AcDbEntity
8
SK2
62
256
6
ByLayer
370
13
48
1
60
0
100
AcDbLine
10
138.394556
20
-16.85
30
0
11
138.394556
21
16.85
31
0
39
0
210
0
220
0
230
1
0
SOLID
5
180
100
AcDbEntity
8
SK2
62
256
6
ByLayer
370
13
48
1
60
0
100
AcDbTrace
10
138.394556
20
-16.85
30
0
11
137.891685
21
-13.675002
31
0
12
138.897426
22
-13.674998
32
0
13
138.394556
23
-16.85
33
0
39
0
210
0
220
0
230
1
0
SOLID
5
181
100
AcDbEntity
8
SK2
62
256
6
ByLayer
370
13
48
1
60
0
100
AcDbTrace
10
138.394556
20
16.85
30
0
11
138.897426
21
13.675002
31
0
12
137.891685
22
13.674998
32
0
13
138.394556
23
16.85
33
0
39
0
210
0
220
0
230
1
0
ENDBLK
5
183
100
AcDbEntity
8
0
100
AcDbBlockEnd
0
BLOCK
5
190
100
AcDbEntity
8
0
100
AcDbBlockBegin
2
DimnDraft3D7
70
0
10
0
20
0
30
0
3
DimnDraft3D7
0
MTEXT
5
186
100
AcDbEntity
8
SK2
62
256
6
ByLayer
370
18
48
1
60
0
100
AcDbMText
10
-27.849987
20
76.081756
30
0
210
0
220
0
230
1
1
\W0.7295;49.9
40
3
41
0
44
1.084337
50
0
71
7
72
5
7
iso_b_vert
0
LINE
5
187
100
AcDbEntity
8
SK2
62
256
6
ByLayer
370
13
48
1
60
0
100
AcDbLine
10
-49.999987
20
35.097502
30
0
11
-49.999987
21
78.331642
31
0
39
0
210
0
220
0
230
1
0
LINE
5
188
100
AcDbEntity
8
SK2
62
256
6
ByLayer
370
13
48
1
60
0
100
AcDbLine
10
1.3E-05
20
50.764971
30
0
11
1.3E-05
21
78.331642
31
0
39
0
210
0
220
0
230
1
0
LINE
5
189
100
AcDbEntity
8
SK2
62
256
6
ByLayer
370
13
48
1
60
0
100
AcDbLine
10
-49.999987
20
75.331642
30
0
11
1.3E-05
21
75.331642
31
0
39
0
210
0
220
0
230
1
0
LINE
5
18A
100
AcDbEntity
8
SK2
62
256
6
ByLayer
370
13
48
1
60
0
100
AcDbLine
10
-49.999987
20
75.331642
30
0
11
-46.999988
21
75.831642
31
0
39
0
210
0
220
0
230
1
0
LINE
5
18B
100
AcDbEntity
8
SK2
62
256
6
ByLayer
370
13
48
1
60
0
100
AcDbLine
10
-49.999987
20
75.331642
30
0
11
-46.999985
21
74.831642
31
0
39
0
210
0
220
0
230
1
0
LINE
5
18C
100
AcDbEntity
8
SK2
62
256
6
ByLayer
370
13
48
1
60
0
100
AcDbLine
10
-46.999988
20
75.831642
30
0
11
-46.999985
21
74.831642
31
0
39
0
210
0
220
0
230
1
0
LINE
5
18D
100
AcDbEntity
8
SK2
62
256
6
ByLayer
370
13
48
1
60
0
100
AcDbLine
10
1.3E-05
20
75.331642
30
0
11
-2.999985
21
74.831642
31
0
39
0
210
0
220
0
230
1
0
LINE
5
18E
100
AcDbEntity
8
SK2
62
256
6
ByLayer
370
13
48
1
60
0
100
AcDbLine
10
1.3E-05
20
75.331642
30
0
11
-2.999988
21
75.831642
31
0
39
0
210
0
220
0
230
1
0
LINE
5
18F
100
AcDbEntity
8
SK2
62
256
6
ByLayer
370
13
48
1
60
0
100
AcDbLine
10
-2.999985
20
74.831642
30
0
11
-2.999988
21
75.831642
31
0
39
0
210
0
220
0
230
1
0
ENDBLK
5
191
100
AcDbEntity
8
0
100
AcDbBlockEnd
0
BLOCK
5
194
100
AcDbEntity
8
0
100
AcDbBlockBegin
2
_CLOSED
70
0
10
0
20
0
30
0
3
_CLOSED
0
LINE
5
196
100
AcDbEntity
8
0
62
256
6
ByLayer
370
-2
48
1
60
0
100
AcDbLine
10
-1
20
0.166667
30
0
11
0
21
0
31
0
39
0
210
0
220
0
230
1
0
LINE
5
197
100
AcDbEntity
8
0
62
256
6
ByLayer
370
-2
48
1
60
0
100
AcDbLine
10
0
20
0
30
0
11
-1
21
-0.166667
31
0
39
0
210
0
220
0
230
1
0
LINE
5
198
100
AcDbEntity
8
0
62
256
6
ByLayer
370
-2
48
1
60
0
100
AcDbLine
10
-1
20
0.166667
30
0
11
-1
21
-0.166667
31
0
39
0
210
0
220
0
230
1
0
LINE
5
199
100
AcDbEntity
8
0
62
256
6
ByLayer
370
-2
48
1
60
0
100
AcDbLine
10
0
20
0
30
0
11
-1
21
0
31
0
39
0
210
0
220
0
230
1
0
ENDBLK
5
195
100
AcDbEntity
8
0
100
AcDbBlockEnd
0
BLOCK
5
1A5
100
AcDbEntity
8
0
100
AcDbBlockBegin
2
DimnDraft3D8
70
0
10
0
20
0
30
0
3
DimnDraft3D8
0
MTEXT
5
19B
100
AcDbEntity
8
SK2
62
256
6
ByLayer
370
18
48
1
60
0
100
AcDbMText
10
-66.875064
20
-4.05
30
0
210
0
220
0
230
1
1
\W0.7826;%%c 100
40
3
41
0
44
1.084337
50
90
71
7
72
5
7
iso_b_vert
0
LINE
5
19C
100
AcDbEntity
8
SK2
62
256
6
ByLayer
370
13
48
1
60
0
100
AcDbLine
10
-0.764958
20
-50
30
0
11
-69.12495
21
-50
31
0
39
0
210
0
220
0
230
1
0
LINE
5
19D
100
AcDbEntity
8
SK2
62
256
6
ByLayer
370
13
48
1
60
0
100
AcDbLine
10
-0.764958
20
50
30
0
11
-69.12495
21
50
31
0
39
0
210
0
220
0
230
1
0
LINE
5
19E
100
AcDbEntity
8
SK2
62
256
6
ByLayer
370
13
48
1
60
0
100
AcDbLine
10
-66.12495
20
-50
30
0
11
-66.12495
21
50
31
0
39
0
210
0
220
0
230
1
0
LINE
5
19F
100
AcDbEntity
8
SK2
62
256
6
ByLayer
370
13
48
1
60
0
100
AcDbLine
10
-66.12495
20
-50
30
0
11
-66.653931
21
-47.000002
31
0
39
0
210
0
220
0
230
1
0
LINE
5
1A0
100
AcDbEntity
8
SK2
62
256
6
ByLayer
370
13
48
1
60
0
100
AcDbLine
10
-66.12495
20
-50
30
0
11
-65.595969
21
-46.999998
31
0
39
0
210
0
220
0
230
1
0
LINE
5
1A1
100
AcDbEntity
8
SK2
62
256
6
ByLayer
370
13
48
1
60
0
100
AcDbLine
10
-66.653931
20
-47.000002
30
0
11
-65.595969
21
-46.999998
31
0
39
0
210
0
220
0
230
1
0
LINE
5
1A2
100
AcDbEntity
8
SK2
62
256
6
ByLayer
370
13
48
1
60
0
100
AcDbLine
10
-66.12495
20
50
30
0
11
-65.595969
21
47.000002
31
0
39
0
210
0
220
0
230
1
0
LINE
5
1A3
100
AcDbEntity
8
SK2
62
256
6
ByLayer
370
13
48
1
60
0
100
AcDbLine
10
-66.12495
20
50
30
0
11
-66.653931
21
46.999998
31
0
39
0
210
0
220
0
230
1
0
LINE
5
1A4
100
AcDbEntity
8
SK2
62
256
6
ByLayer
370
13
48
1
60
0
100
AcDbLine
10
-65.595969
20
47.000002
30
0
11
-66.653931
21
46.999998
31
0
39
0
210
0
220
0
230
1
0
ENDBLK
5
1A6
100
AcDbEntity
8
0
100
AcDbBlockEnd
0
BLOCK
5
1AE
100
AcDbEntity
8
0
100
AcDbBlockBegin
2
DimnDraft3D9
70
0
10
0
20
0
30
0
3
DimnDraft3D9
0
MTEXT
5
1A9
100
AcDbEntity
8
SK2
62
256
6
ByLayer
370
18
48
1
60
0
100
AcDbMText
10
65.666089
20
2.857901
30
0
210
0
220
0
230
1
1
\W0.6337;35
40
3.000007
41
0
44
1.084337
50
90
71
7
72
5
7
iso_b_vert
0
MTEXT
5
1AA
100
AcDbEntity
8
SK2
62
256
6
ByLayer
370
18
48
1
60
0
100
AcDbMText
10
65.666089
20
-3.418675
30
0
210
0
220
0
230
1
1
%%c
40
3.000007
41
0
44
1.084337
50
90
71
7
72
5
7
iso_b_vert
0
LINE
5
1AB
100
AcDbEntity
8
SK2
62
256
6
ByLayer
370
13
48
1
60
0
100
AcDbLine
10
67.166207
20
-17.2974
30
0
11
67.166207
21
17.2974
31
0
39
0
210
0
220
0
230
1
0
SOLID
5
1AC
100
AcDbEntity
8
SK2
62
256
6
ByLayer
370
13
48
1
60
0
100
AcDbTrace
10
67.166207
20
-17.2974
30
0
11
66.663336
21
-14.122402
31
0
12
67.669078
22
-14.122398
32
0
13
67.166207
23
-17.2974
33
0
39
0
210
0
220
0
230
1
0
SOLID
5
1AD
100
AcDbEntity
8
SK2
62
256
6
ByLayer
370
13
48
1
60
0
100
AcDbTrace
10
67.166207
20
17.2974
30
0
11
67.669078
21
14.122402
31
0
12
66.663336
22
14.122398
32
0
13
67.166207
23
17.2974
33
0
39
0
210
0
220
0
230
1
0
ENDBLK
5
1AF
100
AcDbEntity
8
0
100
AcDbBlockEnd
0
BLOCK
5
1B9
100
AcDbEntity
8
0
100
AcDbBlockBegin
2
DimnDraft3D10
70
0
10
0
20
0
30
0
3
DimnDraft3D10
0
MTEXT
5
1B2
100
AcDbEntity
8
2
62
256
6
ByLayer
370
18
48
1
60
0
100
AcDbMText
10
47.658194
20
-58.310566
30
0
210
0
220
0
230
1
1
\W0.6758;101.6
40
3.000007
41
0
44
1.084337
50
0
71
7
72
5
7
iso_b_vert
0
LINE
5
1B4
100
AcDbEntity
8
2
62
256
6
ByLayer
370
13
48
1
60
0
100
AcDbLine
10
1.3E-05
20
-50.852471
30
0
11
1.3E-05
21
-62.235682
31
0
39
0
210
0
220
0
230
1
0
LINE
5
1B5
100
AcDbEntity
8
2
62
256
6
ByLayer
370
13
48
1
60
0
100
AcDbLine
10
101.6006
20
-12.7508
30
0
11
101.6006
21
-62.235682
31
0
39
0
210
0
220
0
230
1
0
LINE
5
1B6
100
AcDbEntity
8
2
62
256
6
ByLayer
370
13
48
1
60
0
100
AcDbLine
10
1.3E-05
20
-59.060682
30
0
11
101.6006
21
-59.060682
31
0
39
0
210
0
220
0
230
1
0
SOLID
5
1B7
100
AcDbEntity
8
2
62
256
6
ByLayer
370
13
48
1
60
0
100
AcDbTrace
10
1.3E-05
20
-59.060682
30
0
11
3.175012
21
-58.557812
31
0
12
3.175015
22
-59.563553
32
0
13
1.3E-05
23
-59.060682
33
0
39
0
210
0
220
0
230
1
0
SOLID
5
1B8
100
AcDbEntity
8
2
62
256
6
ByLayer
370
13
48
1
60
0
100
AcDbTrace
10
101.6006
20
-59.060682
30
0
11
98.425602
21
-59.563553
31
0
12
98.425598
22
-58.557812
32
0
13
101.6006
23
-59.060682
33
0
39
0
210
0
220
0
230
1
0
ENDBLK
5
1BA
100
AcDbEntity
8
0
100
AcDbBlockEnd
0
ENDSEC
0
SECTION
2
ENTITIES
0
ARC
5
12B
100
AcDbEntity
8
1
62
256
6
ByLayer
370
18
48
1
60
0
100
AcDbCircle
39
0
10
91.4
20
-16.05
30
0
40
0.8
210
0
220
0
230
1
100
AcDbArc
50
180
51
270
0
ARC
5
12C
100
AcDbEntity
8
1
62
256
6
ByLayer
370
18
48
1
60
0
100
AcDbCircle
39
0
10
91.4
20
16.05
30
0
40
0.8
210
0
220
0
230
1
100
AcDbArc
50
90
51
180
0
ARC
5
12D
100
AcDbEntity
8
SK1
62
256
6
ByLayer
370
18
48
1
60
0
100
AcDbCircle
39
0
10
-47.999987
20
33.597502
30
0
40
2
210
0
220
0
230
1
100
AcDbArc
50
92.862405
51
180
0
ARC
5
12E
100
AcDbEntity
8
SK1
62
256
6
ByLayer
370
18
48
1
60
0
100
AcDbCircle
39
0
10
-47.999987
20
-33.597502
30
0
40
2
210
0
220
0
230
1
100
AcDbArc
50
180
51
267.137595
0
ARC
5
12F
100
AcDbEntity
8
1
62
256
6
ByLayer
370
18
48
1
60
0
100
AcDbCircle
39
0
10
-21.515062
20
46.375019
30
0
40
0.4
210
0
220
0
230
-1
100
AcDbArc
50
180
51
270
0
ARC
5
130
100
AcDbEntity
8
1
62
256
6
ByLayer
370
18
48
1
60
0
100
AcDbCircle
39
0
10
-18.485062
20
46.375019
30
0
40
0.4
210
0
220
0
230
-1
100
AcDbArc
50
270
51
0
0
ARC
5
131
100
AcDbEntity
8
1
62
256
6
ByLayer
370
13
48
0.05
60
0
100
AcDbCircle
39
0
10
-0.874846
20
-38.681918
30
0
40
1
210
0
220
0
230
1
100
AcDbArc
50
352
51
28.971593
0
ARC
5
132
100
AcDbEntity
8
SK1
62
256
6
ByLayer
370
18
48
1
60
0
100
AcDbCircle
39
0
10
-0.874846
20
-38.681918
30
0
40
1
210
0
220
0
230
1
100
AcDbArc
50
28.971593
51
90
0
ARC
5
133
100
AcDbEntity
8
1
62
256
6
ByLayer
370
18
48
1
60
0
100
AcDbCircle
39
0
10
18.485062
20
-46.375019
30
0
40
0.4
210
0
220
0
230
1
100
AcDbArc
50
90
51
180
0
ARC
5
134
100
AcDbEntity
8
1
62
256
6
ByLayer
370
18
48
1
60
0
100
AcDbCircle
39
0
10
21.515062
20
-46.375019
30
0
40
0.4
210
0
220
0
230
1
100
AcDbArc
50
0
51
90
0
ARC
5
135
100
AcDbEntity
8
SK1
62
256
6
ByLayer
370
18
48
1
60
0
100
AcDbCircle
39
0
10
0.874846
20
38.681918
30
0
40
1
210
0
220
0
230
-1
100
AcDbArc
50
208.971593
51
270
0
ARC
5
136
100
AcDbEntity
8
1
62
256
6
ByLayer
370
13
48
0.05
60
0
100
AcDbCircle
39
0
10
0.874846
20
38.681918
30
0
40
1
210
0
220
0
230
-1
100
AcDbArc
50
172
51
208.971593
0
ARC
5
137
100
AcDbEntity
8
1
62
256
6
ByLayer
370
18
48
1
60
0
100
AcDbCircle
39
0
10
14.646813
20
41.350019
30
0
40
10
210
0
220
0
230
1
100
AcDbArc
50
194.146235
51
270
0
ARC
5
138
100
AcDbEntity
8
1
62
256
6
ByLayer
370
18
48
1
60
0
100
AcDbCircle
39
0
10
33.900013
20
22.2975
30
0
40
5
210
0
220
0
230
1
100
AcDbArc
50
180
51
270
0
ARC
5
139
100
AcDbEntity
8
1
62
256
6
ByLayer
370
18
48
1
60
0
100
AcDbCircle
39
0
10
33.900013
20
-22.2975
30
0
40
5
210
0
220
0
230
1
100
AcDbArc
50
90
51
180
0
ARC
5
13A
100
AcDbEntity
8
SK3
62
256
6
ByLayer
370
13
48
0.05
60
0
100
AcDbCircle
39
0
10
101.5
20
11.75
30
0
40
1
210
0
220
0
230
1
100
AcDbArc
50
0
51
180
0
ARC
5
13B
100
AcDbEntity
8
SK3
62
256
6
ByLayer
370
13
48
0.05
60
0
100
AcDbCircle
39
0
10
101.5
20
-11.75
30
0
40
1
210
0
220
0
230
1
100
AcDbArc
50
180
51
0
0
POINT
5
6C
100
AcDbEntity
8
81
62
256
6
ByLayer
370
13
48
1
60
0
100
AcDbPoint
10
101.6
20
0
30
0
39
0
210
0
220
0
230
1
50
360
0
POINT
5
6E
100
AcDbEntity
8
80
62
256
6
ByLayer
370
13
48
1
60
0
100
AcDbPoint
10
0
20
0
30
0
39
0
210
0
220
0
230
1
50
360
0
SPLINE
5
13C
100
AcDbEntity
8
1
62
256
6
ByLayer
370
18
48
1
60
0
100
AcDbSpline
70
4
71
3
72
76
73
72
40
0
40
0
40
0
40
0
40
0.0147409513365277
40
0.0294824549507341
40
0.0442241932298954
40
0.0589658819922399
40
0.0737072713347978
40
0.0884481464874706
40
0.102486516472748
40
0.116525320974623
40
0.130564241791381
40
0.144602991927686
40
0.158641316314635
40
0.172680075013254
40
0.186719349000459
40
0.200758765307005
40
0.214797983183957
40
0.22883669482065
40
0.242875840806604
40
0.256915581536494
40
0.270955492761787
40
0.284995180607727
40
0.299034282237534
40
0.313243834189409
40
0.327454075590363
40
0.341664522922169
40
0.355874718796574
40
0.370084232563049
40
0.384450134606364
40
0.398816804373136
40
0.413183714293445
40
0.427550353989775
40
0.441916230811375
40
0.456282279612163
40
0.47064912190087
40
0.485016224839531
40
0.499383059679057
40
0.5137491022318
40
0.528115132971947
40
0.542481948620945
40
0.556849034678591
40
0.571215866823039
40
0.585581911398837
40
0.600210558457626
40
0.614839989924821
40
0.629469704329444
40
0.644099176343801
40
0.658727857411718
40
0.672881814239216
40
0.687036611295436
40
0.701191864677484
40
0.715347160471949
40
0.729502055405942
40
0.743656077489238
40
0.757809390199902
40
0.771963413756244
40
0.786117833942697
40
0.800272302392909
40
0.81442643733003
40
0.828579824298373
40
0.842732451545517
40
0.856885656518967
40
0.871039190757846
40
0.88519277230052
40
0.899346086438874
40
0.913498786465686
40
0.930798552368974
40
0.948098954036627
40
0.965399626848535
40
0.982700140321238
40
1
40
1
40
1
40
1
41
1
10
107.6
20
7.67609926981161
30
0
41
1
10
107.619430925131
20
7.60223430136471
30
0
41
1
10
107.657866241732
20
7.45439223829245
30
0
41
1
10
107.714252112409
20
7.23229840033221
30
0
41
1
10
107.769328936008
20
7.00987294967554
30
0
41
1
10
107.823068239917
20
6.78712094803629
30
0
41
1
10
107.875437499232
20
6.56404745199282
30
0
41
1
10
107.925596526083
20
6.34420272553103
30
0
41
1
10
107.973593081054
20
6.12760303675905
30
0
41
1
10
108.019477959747
20
5.91426493532682
30
0
41
1
10
108.064011808802
20
5.70063866063833
30
0
41
1
10
108.107166793286
20
5.48673205717549
30
0
41
1
10
108.148916307593
20
5.27254750112539
30
0
41
1
10
108.18923334797
20
5.05808586906905
30
0
41
1
10
108.228092750994
20
4.8433495311281
30
0
41
1
10
108.265468489249
20
4.62834751959876
30
0
41
1
10
108.301333900917
20
4.41309130963649
30
0
41
1
10
108.335663496763
20
4.19758618819886
30
0
41
1
10
108.368431334123
20
3.98183528018396
30
0
41
1
10
108.399615175061
20
3.76584340953233
30
0
41
1
10
108.429192083156
20
3.5496227470553
30
0
41
1
10
108.457138452048
20
3.33318858311954
30
0
41
1
10
108.483537857002
20
3.11567479501727
30
0
41
1
10
108.508343434076
20
2.8970839810351
30
0
41
1
10
108.531513293031
20
2.67742095948227
30
0
41
1
10
108.552929629627
20
2.45757664972219
30
0
41
1
10
108.572573315814
20
2.23757060299859
30
0
41
1
10
108.590491358245
20
2.0166091336306
30
0
41
1
10
108.606641636058
20
1.79469842523453
30
0
41
1
10
108.620989517493
20
1.57184665857046
30
0
41
1
10
108.633464750594
20
1.34887836129895
30
0
41
1
10
108.644055243324
20
1.1258166827093
30
0
41
1
10
108.652749292905
20
0.902677470922445
30
0
41
1
10
108.659534827844
20
0.679471000392092
30
0
41
1
10
108.664409425668
20
0.456208265883303
30
0
41
1
10
108.667370380743
20
0.232907872391036
30
0
41
1
10
108.668414743316
20
0.0095944277271834
30
0
41
1
10
108.667539538754
20
-0.213714201528037
30
0
41
1
10
108.664741501522
20
-0.437006911466636
30
0
41
1
10
108.66002736354
20
-0.660272773624033
30
0
41
1
10
108.653403556275
20
-0.883494279472685
30
0
41
1
10
108.644876629018
20
-1.10664717833367
30
0
41
1
10
108.634389227362
20
-1.33107324072482
30
0
41
1
10
108.621906565824
20
-1.5567599706567
30
0
41
1
10
108.607403708188
20
-1.78369479950253
30
0
41
1
10
108.590971515002
20
-2.01050233993125
30
0
41
1
10
108.57262611883
20
-2.23715920384534
30
0
41
1
10
108.552602030232
20
-2.46119913715227
30
0
41
1
10
108.530984242874
20
-2.68261965361578
30
0
41
1
10
108.507863094349
20
-2.90142170616127
30
0
41
1
10
108.483020781327
20
-3.12004195527062
30
0
41
1
10
108.456479032581
20
-3.33846285799414
30
0
41
1
10
108.428259665066
20
-3.55666687518914
30
0
41
1
10
108.398383753613
20
-3.7746398411472
30
0
41
1
10
108.366871823674
20
-3.99237768892337
30
0
41
1
10
108.333749964931
20
-4.20987848070992
30
0
41
1
10
108.299043254052
20
-4.42713801587095
30
0
41
1
10
108.262778281675
20
-4.64414341099185
30
0
41
1
10
108.224981630455
20
-4.86088178453736
30
0
41
1
10
108.185679258016
20
-5.07734243066411
30
0
41
1
10
108.144896207109
20
-5.29352403091863
30
0
41
1
10
108.102660207068
20
-5.50942718211968
30
0
41
1
10
108.058998000576
20
-5.72505142252029
30
0
41
1
10
108.013938047495
20
-5.9403884229429
30
0
41
1
10
107.967508796596
20
-6.15542988258586
30
0
41
1
10
107.916196550656
20
-6.38608921617915
30
0
41
1
10
107.85966488418
20
-6.6322869312301
30
0
41
1
10
107.797568026928
20
-6.89393438334731
30
0
41
1
10
107.733606384765
20
-7.15513587138164
30
0
41
1
10
107.667826023271
20
-7.4158832762126
30
0
41
1
10
107.622805475326
20
-7.58941189649997
30
0
41
1
10
107.6
20
-7.67609926981146
30
0
0
SPLINE
5
13D
100
AcDbEntity
8
1
62
256
6
ByLayer
370
18
48
1
60
0
100
AcDbSpline
70
4
71
3
72
79
73
75
40
0
40
0
40
0
40
0
40
0.0145240974131169
40
0.0290485729858156
40
0.0435731458417557
40
0.0580975665626361
40
0.0726216179698177
40
0.0871591482998435
40
0.101697143224199
40
0.11623526071843
40
0.130773194078843
40
0.145310672772963
40
0.1598356171549
40
0.174361116856251
40
0.188886767929677
40
0.203412203333116
40
0.217937093785729
40
0.232481481719659
40
0.247026519377873
40
0.261571741173928
40
0.276116717012954
40
0.290661053096233
40
0.305186850261761
40
0.319713376482467
40
0.334240118841161
40
0.348766593824659
40
0.363292348014899
40
0.377843132625165
40
0.392394711031309
40
0.406946536464123
40
0.42149808133594
40
0.436048837819114
40
0.448812902083575
40
0.46157733534759
40
0.47434176576773
40
0.487105826154066
40
0.499869903268684
40
0.512634352159559
40
0.525398801992933
40
0.538162880392813
40
0.550974466713908
40
0.563786423443456
40
0.576598384891803
40
0.589409977647811
40
0.602143569879949
40
0.614877512667428
40
0.62761146331595
40
0.640345066267986
40
0.653089620269556
40
0.665834506062327
40
0.678579402342323
40
0.691323970645025
40
0.704057352443564
40
0.716791040596132
40
0.729524740997108
40
0.742258139498423
40
0.755000942967685
40
0.767744025666788
40
0.780487121640523
40
0.793229943211949
40
0.807785604069374
40
0.822342089431701
40
0.836899127964664
40
0.851456409734314
40
0.866013587082924
40
0.8805702754963
40
0.895126054461881
40
0.910107270931485
40
0.92508916171226
40
0.940071515298903
40
0.955054081692577
40
0.970036573340143
40
0.985018666066584
40
1
40
1
40
1
40
1
41
1
10
107.6
20
-9.15233142186085
30
0
41
1
10
107.619144985087
20
-9.18872059888592
30
0
41
1
10
107.657020839787
20
-9.26155298308035
30
0
41
1
10
107.71260457043
20
-9.37096157204097
30
0
41
1
10
107.766917934598
20
-9.48053014079518
30
0
41
1
10
107.819933791569
20
-9.59025644463733
30
0
41
1
10
107.871637912559
20
-9.70017361644617
30
0
41
1
10
107.921999856464
20
-9.81028257819513
30
0
41
1
10
107.970988874233
20
-9.92058363690797
30
0
41
1
10
108.018559577644
20
-10.0310408887862
30
0
41
1
10
108.064681004469
20
-10.1416503626931
30
0
41
1
10
108.109310249555
20
-10.2523779857362
30
0
41
1
10
108.152418830021
20
-10.3632233400615
30
0
41
1
10
108.193980091955
20
-10.4741851946559
30
0
41
1
10
108.233977716911
20
-10.5852919438022
30
0
41
1
10
108.272381810781
20
-10.6965375933964
30
0
41
1
10
108.309179856298
20
-10.8079681044436
30
0
41
1
10
108.344340211977
20
-10.9195821789262
30
0
41
1
10
108.377835031849
20
-11.0313775304238
30
0
41
1
10
108.409622900216
20
-11.1432989785496
30
0
41
1
10
108.439676969977
20
-11.25533831073
30
0
41
1
10
108.467959239703
20
-11.367442213415
30
0
41
1
10
108.494446173494
20
-11.4796076004113
30
0
41
1
10
108.519120617946
20
-11.5918304500269
30
0
41
1
10
108.541973671307
20
-11.7041514711818
30
0
41
1
10
108.562984182889
20
-11.8165604168775
30
0
41
1
10
108.582142695578
20
-11.9291145969246
30
0
41
1
10
108.599424651647
20
-12.0418099490412
30
0
41
1
10
108.614813916033
20
-12.154641580656
30
0
41
1
10
108.628287911267
20
-12.2675364312722
30
0
41
1
10
108.639833395367
20
-12.3804825673395
30
0
41
1
10
108.649043980105
20
-12.4888468693324
30
0
41
1
10
108.65617775754
20
-12.5926175332794
30
0
41
1
10
108.661488055876
20
-12.6917862020562
30
0
41
1
10
108.665289179995
20
-12.7909721879985
30
9E-16
41
1
10
108.667577688871
20
-12.8901688662826
30
9E-16
41
1
10
108.668349911551
20
-12.9893714412707
30
9E-16
41
1
10
108.667607207178
20
-13.0885750791725
30
9E-16
41
1
10
108.665350772753
20
-13.1877729986857
30
9E-16
41
1
10
108.661577028642
20
-13.2870815263753
30
9E-16
41
1
10
108.656280302888
20
-13.3864957872625
30
9E-16
41
1
10
108.649459919637
20
-13.4860109449082
30
9E-16
41
1
10
108.641128252486
20
-13.5854973450684
30
9E-16
41
1
10
108.631310969586
20
-13.6847465942202
30
9E-16
41
1
10
108.620024181485
20
-13.7837543064862
30
9E-16
41
1
10
108.607288419991
20
-13.8825164903799
30
9E-16
41
1
10
108.593090557384
20
-13.9812288366325
30
9E-16
41
1
10
108.577435878849
20
-14.0799136624514
30
9E-16
41
1
10
108.560332402667
20
-14.1785667785196
30
9E-16
41
1
10
108.541792151308
20
-14.2771843543493
30
9E-16
41
1
10
108.521833516034
20
-14.3757327137385
30
9E-16
41
1
10
108.500476133219
20
-14.4741777517033
30
9E-16
41
1
10
108.477734460434
20
-14.5725159984745
30
9E-16
41
1
10
108.453626166065
20
-14.6707444419315
30
9E-16
41
1
10
108.428160906291
20
-14.7688872708546
30
9E-16
41
1
10
108.401348294462
20
-14.8669641641172
30
9E-16
41
1
10
108.373202995297
20
-14.9649722045745
30
9E-16
41
1
10
108.343742191124
20
-15.062908929758
30
9E-16
41
1
10
108.312991175807
20
-15.1607464856765
30
9E-16
41
1
10
108.279449961325
20
-15.2631159409624
30
9E-16
41
1
10
108.242918391367
20
-15.3699985947138
30
9E-16
41
1
10
108.203195762277
20
-15.4813736955465
30
9E-16
41
1
10
108.161894169335
20
-15.5926093638766
30
9E-16
41
1
10
108.11904411861
20
-15.703700296955
30
9E-16
41
1
10
108.074676156167
20
-15.8146412077107
30
9E-16
41
1
10
108.028820906809
20
-15.9254268164361
30
9E-16
41
1
10
107.981046205316
20
-16.0371330529584
30
9E-16
41
1
10
107.931331514099
20
-16.1497558067733
30
9E-16
41
1
10
107.879659543778
20
-16.2632916966738
30
9E-16
41
1
10
107.82653754902
20
-16.3766637198794
30
1.1E-15
41
1
10
107.77199871417
20
-16.4898690245813
30
1.1E-15
41
1
10
107.716077251077
20
-16.6029047510435
30
1.1E-15
41
1
10
107.658803184355
20
-16.7157680398701
30
1.1E-15
41
1
10
107.619747900728
20
-16.7908959341042
30
1E-15
41
1
10
107.6
20
-16.8284306916723
30
1E-15
0
SPLINE
5
13E
100
AcDbEntity
8
1
62
256
6
ByLayer
370
18
48
1
60
0
100
AcDbSpline
70
4
71
3
72
80
73
76
40
0
40
0
40
0
40
0
40
0.0149813331260067
40
0.0299634250449987
40
0.0449459158850933
40
0.0599284814712925
40
0.0749108342504706
40
0.089892724223807
40
0.104873939886009
40
0.119429718067116
40
0.133986405695969
40
0.148543582260029
40
0.163100863245125
40
0.177657900993546
40
0.192214385571361
40
0.206770045644319
40
0.219512866528979
40
0.232255961815933
40
0.244999043828256
40
0.257741846610753
40
0.27047524442581
40
0.283208944140513
40
0.295942631606807
40
0.308676012719089
40
0.321420580334931
40
0.334165475928049
40
0.346910361033944
40
0.359654914348654
40
0.372388516614421
40
0.385122466576655
40
0.397856408677847
40
0.410590000223717
40
0.423186330165788
40
0.435783369272384
40
0.448380755907928
40
0.460978134058035
40
0.473575153582302
40
0.486171470468756
40
0.498535710755146
40
0.510900623372064
40
0.523265875308622
40
0.535631130841062
40
0.547996051756397
40
0.560360297575366
40
0.572724378656617
40
0.585089102842967
40
0.59745416079875
40
0.60981923304208
40
0.622183990200556
40
0.634548093264378
40
0.649384711413948
40
0.664222099023089
40
0.67905977246783
40
0.693897215538908
40
0.708733880207368
40
0.72341224783977
40
0.73809127336736
40
0.752770552107315
40
0.767449641736673
40
0.782128063134278
40
0.796652952400292
40
0.811178386533487
40
0.825704036308582
40
0.840229534739292
40
0.854754477934298
40
0.869278928213151
40
0.883803831901292
40
0.898328919186376
40
0.912853884215947
40
0.927378385944075
40
0.941902436568493
40
0.95642685650659
40
0.970951428579737
40
0.985475903369649
40
1
40
1
40
1
40
1
41
1
10
107.6
20
9.15233142186084
30
0
41
1
10
107.619747900727
20
9.18986617942896
30
0
41
1
10
107.658803184355
20
9.26499407366302
30
0
41
1
10
107.716077251077
20
9.37785736248965
30
0
41
1
10
107.77199871417
20
9.49089308895187
30
0
41
1
10
107.82653754902
20
9.60409839365376
30
0
41
1
10
107.879659543778
20
9.71747041685934
30
0
41
1
10
107.931331514099
20
9.83100630675983
30
0
41
1
10
107.981046205316
20
9.94362906057474
30
0
41
1
10
108.028820906809
20
10.055335297097
30
0
41
1
10
108.074676156167
20
10.1661209058225
30
0
41
1
10
108.11904411861
20
10.2770618165782
30
0
41
1
10
108.161894169335
20
10.3881527496566
30
0
41
1
10
108.203195762277
20
10.4993884179866
30
0
41
1
10
108.242918391368
20
10.6107635188194
30
0
41
1
10
108.279449961325
20
10.7176461725708
30
0
41
1
10
108.312991175807
20
10.8200156278567
30
0
41
1
10
108.343742191124
20
10.9178531837752
30
0
41
1
10
108.373202995297
20
11.0157899089586
30
0
41
1
10
108.401348294462
20
11.113797949416
30
0
41
1
10
108.428160906291
20
11.2118748426786
30
0
41
1
10
108.453626166066
20
11.3100176716016
30
0
41
1
10
108.477734460432
20
11.4082461150587
30
0
41
1
10
108.500476133224
20
11.5065843618298
30
0
41
1
10
108.521833516018
20
11.6050293997949
30
0
41
1
10
108.54179215137
20
11.703577759183
30
0
41
1
10
108.560332402435
20
11.8021953350166
30
0
41
1
10
108.577435879715
20
11.9008484510702
30
0
41
1
10
108.593090554156
20
11.9995332769439
30
0
41
1
10
108.607288432036
20
12.0982456229919
30
0
41
1
10
108.620024136534
20
12.1970078076492
30
0
41
1
10
108.631247665483
20
12.2954587486022
30
0
41
1
10
108.640966498561
20
12.3935945750192
30
0
41
1
10
108.649193891138
20
12.4914113223844
30
0
41
1
10
108.655961084272
20
12.5892587666138
30
0
41
1
10
108.661263408749
20
12.6871287497164
30
0
41
1
10
108.665096322423
20
12.7850131077491
30
-9E-16
41
1
10
108.667440813407
20
12.8823051915869
30
-9E-16
41
1
10
108.66832387365
20
12.9790019793247
30
-9E-16
41
1
10
108.667779134178
20
13.0751007771978
30
-9E-16
41
1
10
108.665814064745
20
13.1711975653199
30
-9E-16
41
1
10
108.662430630951
20
13.2672845047065
30
-9E-16
41
1
10
108.657630809572
20
13.3633537550329
30
-9E-16
41
1
10
108.651416379397
20
13.4593996854323
30
-9E-16
41
1
10
108.643788945013
20
13.5554196419916
30
-9E-16
41
1
10
108.634756438772
20
13.6514112162297
30
-9E-16
41
1
10
108.624326530182
20
13.7473699320788
30
-9E-16
41
1
10
108.61250716434
20
13.8432884433036
30
-9E-16
41
1
10
108.59930630084
20
13.939159420513
30
-9E-16
41
1
10
108.583759876039
20
14.0413650692332
30
-9E-16
41
1
10
108.565538019838
20
14.1498903302585
30
-9E-16
41
1
10
108.544298406585
20
14.2647154387577
30
-9E-16
41
1
10
108.521134434182
20
14.3794496246239
30
-9E-16
41
1
10
108.496068504703
20
14.4940819112925
30
-9E-16
41
1
10
108.469217781989
20
14.6081975459504
30
-9E-16
41
1
10
108.440626379025
20
14.7217937231489
30
-9E-16
41
1
10
108.410344223975
20
14.8348689213524
30
-9E-16
41
1
10
108.378295577314
20
14.9478241915153
30
-9E-16
41
1
10
108.344508023873
20
15.0606510845946
30
-9E-16
41
1
10
108.309131723042
20
15.172951259237
30
-9E-16
41
1
10
108.272213173324
20
15.2847237567411
30
-9E-16
41
1
10
108.233801871375
20
15.3959687808174
30
-9E-16
41
1
10
108.193797165016
20
15.5070748884036
30
-9E-16
41
1
10
108.152228952189
20
15.6180360882101
30
-9E-16
41
1
10
108.109126436482
20
15.7288476474134
30
-9E-16
41
1
10
108.064517852592
20
15.8395084886525
30
-9E-16
41
1
10
108.018433179362
20
15.9500183565932
30
-9E-16
41
1
10
107.970901906289
20
16.0603762689426
30
-9E-16
41
1
10
107.921954912543
20
16.1705782662004
30
-9E-16
41
1
10
107.871622458168
20
16.2806213511284
30
-9E-16
41
1
10
107.819933791589
20
16.3905056689248
30
-1.1E-15
41
1
10
107.766917934593
20
16.5002319727303
30
-1.1E-15
41
1
10
107.712604570431
20
16.6098005414943
30
-1.1E-15
41
1
10
107.657020839787
20
16.7192091304522
30
-1.1E-15
41
1
10
107.619144985087
20
16.7920415146472
30
-1E-15
41
1
10
107.6
20
16.8284306916723
30
-1E-15
0
SPLINE
5
13F
100
AcDbEntity
8
1
62
256
6
ByLayer
370
18
48
1
60
0
100
AcDbSpline
70
4
71
3
72
10
73
6
40
0
40
0
40
0
40
0
40
0.312322774025291
40
0.312322774025291
40
1
40
1
40
1
40
1
41
1
10
18.0850618793412
20
35.9069642984473
30
0
41
1
10
17.9488948160308
20
36.2200555590839
30
0
41
1
10
17.8120803774926
20
36.5328644470961
30
0
41
1
10
17.3720560956874
20
37.5335547196825
30
0
41
1
10
17.0664818191815
20
38.2203959318764
30
0
41
1
10
16.7582401178414
20
38.9060436875042
30
0
0
SPLINE
5
140
100
AcDbEntity
8
1
62
256
6
ByLayer
370
18
48
1
60
0
100
AcDbSpline
70
4
71
3
72
10
73
6
40
0
40
0
40
0
40
0
40
0.687677225974709
40
0.687677225974709
40
1
40
1
40
1
40
1
41
1
10
23.2418836408409
20
38.9060436875042
30
0
41
1
10
22.9336419395008
20
38.2203959318764
30
0
41
1
10
22.6280676629949
20
37.5335547196825
30
0
41
1
10
22.1880433811897
20
36.5328644470961
30
0
41
1
10
22.0512289426516
20
36.2200555590839
30
0
41
1
10
21.9150618793412
20
35.9069642984473
30
0
0
SPLINE
5
141
100
AcDbEntity
8
1
62
256
6
ByLayer
370
18
48
1
60
0
100
AcDbSpline
70
4
71
3
72
8
73
4
40
0
40
0
40
0
40
0
40
1
40
1
40
1
40
1
41
1
10
21.5150618793412
20
33.6285508236283
30
0
41
1
10
21.8323240399639
20
33.6285508236283
30
0
41
1
10
21.8812547347524
20
33.9506265973154
30
0
41
1
10
21.9150618793412
20
34.1733734306669
30
0
0
SPLINE
5
142
100
AcDbEntity
8
1
62
256
6
ByLayer
370
18
48
1
60
0
100
AcDbSpline
70
4
71
3
72
9
73
5
40
0
40
0
40
0
40
0
40
0.485042025267648
40
1
40
1
40
1
40
1
41
1
10
18.4850618793412
20
33.6285508233936
30
0
41
1
10
18.9749543248615
20
33.6285508233936
30
0
41
1
10
19.9849543248616
20
33.6285508234013
30
0
41
1
10
20.9949543248618
20
33.6285508233936
30
0
41
1
10
21.5150618793415
20
33.6285508233936
30
0
0
SPLINE
5
143
100
AcDbEntity
8
1
62
256
6
ByLayer
370
18
48
1
60
0
100
AcDbSpline
70
4
71
3
72
8
73
4
40
0
40
0
40
0
40
0
40
1
40
1
40
1
40
1
41
1
10
18.0850618793412
20
34.1733734306669
30
0
41
1
10
18.11886902393
20
33.9506265973154
30
0
41
1
10
18.1677997187184
20
33.6285508236283
30
0
41
1
10
18.4850618793412
20
33.6285508236283
30
0
0
LINE
5
70
100
AcDbEntity
8
1
62
256
6
ByLayer
370
18
48
1
60
0
100
AcDbLine
10
98.6
20
7.676099
30
0
11
107.6
21
7.676099
31
0
39
0
210
0
220
0
230
1
0
LINE
5
72
100
AcDbEntity
8
1
62
256
6
ByLayer
370
18
48
1
60
0
100
AcDbLine
10
107.6
20
9.152331
30
0
11
107.6
21
7.676099
31
0
39
0
210
0
220
0
230
1
0
LINE
5
73
100
AcDbEntity
8
1
62
256
6
ByLayer
370
18
48
1
60
0
100
AcDbLine
10
98.6
20
-9.152331
30
0
11
107.6
21
-9.152331
31
0
39
0
210
0
220
0
230
1
0
LINE
5
74
100
AcDbEntity
8
1
62
256
6
ByLayer
370
18
48
1
60
0
100
AcDbLine
10
107.6
20
-7.676099
30
0
11
107.6
21
-9.152331
31
0
39
0
210
0
220
0
230
1
0
LINE
5
75
100
AcDbEntity
8
1
62
256
6
ByLayer
370
18
48
1
60
0
100
AcDbLine
10
98.6
20
-7.676099
30
0
11
107.6
21
-7.676099
31
0
39
0
210
0
220
0
230
1
0
LINE
5
76
100
AcDbEntity
8
1
62
256
6
ByLayer
370
18
48
1
60
0
100
AcDbLine
10
98.6
20
7.676099
30
0
11
98.6
21
-7.676099
31
0
39
0
210
0
220
0
230
1
0
LINE
5
77
100
AcDbEntity
8
1
62
256
6
ByLayer
370
18
48
1
60
0
100
AcDbLine
10
98.6
20
9.152331
30
0
11
107.6
21
9.152331
31
0
39
0
210
0
220
0
230
1
0
LINE
5
78
100
AcDbEntity
8
1
62
256
6
ByLayer
370
18
48
1
60
0
100
AcDbLine
10
98.6
20
16.828431
30
0
11
98.6
21
9.152331
31
0
39
0
210
0
220
0
230
1
0
LINE
5
79
100
AcDbEntity
8
1
62
256
6
ByLayer
370
18
48
1
60
0
100
AcDbLine
10
98.6
20
-9.152331
30
0
11
98.6
21
-16.828431
31
0
39
0
210
0
220
0
230
1
0
LINE
5
7A
100
AcDbEntity
8
1
62
256
6
ByLayer
370
18
48
1
60
0
100
AcDbLine
10
85.991652
20
12.97051
30
0
11
87.77599
21
12.97051
31
0
39
0
210
0
220
0
230
1
0
LINE
5
7B
100
AcDbEntity
8
1
62
256
6
ByLayer
370
18
48
0.05
60
1
100
AcDbLine
10
76.4514
20
12.97051
30
0
11
79.915948
21
12.97051
31
0
39
0
210
0
220
0
230
1
0
LINE
5
7C
100
AcDbEntity
8
1
62
256
6
ByLayer
370
18
48
0.05
60
1
100
AcDbLine
10
79.915948
20
-12.97051
30
0
11
76.4514
21
-12.97051
31
0
39
0
210
0
220
0
230
1
0
LINE
5
7D
100
AcDbEntity
8
1
62
256
6
ByLayer
370
18
48
1
60
0
100
AcDbLine
10
87.77599
20
-12.97051
30
0
11
85.991652
21
-12.97051
31
0
39
0
210
0
220
0
230
1
0
LINE
5
7E
100
AcDbEntity
8
SK3
62
256
6
ByLayer
370
13
48
0.05
60
1
100
AcDbLine
10
81.618936
20
6.8072
30
0
11
77.8084
21
6.8072
31
0
39
0
210
0
220
0
230
1
0
LINE
5
80
100
AcDbEntity
8
SK3
62
256
6
ByLayer
370
13
48
0.05
60
1
100
AcDbLine
10
77.8084
20
-6.8072
30
0
11
81.618936
21
-6.8072
31
0
39
0
210
0
220
0
230
1
0
LINE
5
81
100
AcDbEntity
8
1
62
256
6
ByLayer
370
18
48
1
60
0
100
AcDbLine
10
87.77599
20
12.97051
30
0
11
88.3132
21
12.4333
31
0
39
0
210
0
220
0
230
1
0
LINE
5
82
100
AcDbEntity
8
1
62
256
6
ByLayer
370
18
48
1
60
0
100
AcDbLine
10
88.3132
20
-12.4333
30
0
11
87.77599
21
-12.97051
31
0
39
0
210
0
220
0
230
1
0
LINE
5
83
100
AcDbEntity
8
1
62
256
6
ByLayer
370
18
48
1
60
0
100
AcDbLine
10
79.1434
20
15.4813
30
0
11
79.6514
21
14.9733
31
0
39
0
210
0
220
0
230
1
0
LINE
5
84
100
AcDbEntity
8
1
62
256
6
ByLayer
370
18
48
1
60
0
100
AcDbLine
10
79.6514
20
-14.9733
30
0
11
79.1434
21
-15.4813
31
0
39
0
210
0
220
0
230
1
0
LINE
5
85
100
AcDbEntity
8
1
62
256
6
ByLayer
370
18
48
0.05
60
1
100
AcDbLine
10
74.3432
20
15.4813
30
0
11
75.9434
21
15.4813
31
0
39
0
210
0
220
0
230
1
0
LINE
5
86
100
AcDbEntity
8
1
62
256
6
ByLayer
370
18
48
0.05
60
1
100
AcDbLine
10
75.9434
20
-15.4813
30
0
11
74.3432
21
-15.4813
31
0
39
0
210
0
220
0
230
1
0
LINE
5
87
100
AcDbEntity
8
1
62
256
6
ByLayer
370
18
48
1
60
0
100
AcDbLine
10
73.9622
20
17.2974
30
0
11
74.3432
21
16.9164
31
0
39
0
210
0
220
0
230
1
0
LINE
5
88
100
AcDbEntity
8
1
62
256
6
ByLayer
370
18
48
1
60
0
100
AcDbLine
10
74.3432
20
-16.9164
30
0
11
73.9622
21
-17.2974
31
0
39
0
210
0
220
0
230
1
0
LINE
5
89
100
AcDbEntity
8
1
62
256
6
ByLayer
370
18
48
0.05
60
1
100
AcDbLine
10
57.3992
20
17.2974
30
0
11
78.8622
21
17.2974
31
0
39
0
210
0
220
0
230
1
0
LINE
5
8A
100
AcDbEntity
8
1
62
256
6
ByLayer
370
18
48
0.05
60
1
100
AcDbLine
10
78.8622
20
-17.2974
30
0
11
57.3992
21
-17.2974
31
0
39
0
210
0
220
0
230
1
0
LINE
5
8B
100
AcDbEntity
8
1
62
256
6
ByLayer
370
18
48
1
60
0
100
AcDbLine
10
80.4138
20
11.1125
30
0
11
79.915948
21
12.97051
31
0
39
0
210
0
220
0
230
1
0
LINE
5
8C
100
AcDbEntity
8
1
62
256
6
ByLayer
370
18
48
1
60
0
100
AcDbLine
10
85.4938
20
11.1125
30
0
11
80.4138
21
11.1125
31
0
39
0
210
0
220
0
230
1
0
LINE
5
8D
100
AcDbEntity
8
1
62
256
6
ByLayer
370
18
48
1
60
0
100
AcDbLine
10
85.991652
20
12.97051
30
0
11
85.4938
21
11.1125
31
0
39
0
210
0
220
0
230
1
0
LINE
5
8E
100
AcDbEntity
8
1
62
256
6
ByLayer
370
18
48
1
60
0
100
AcDbLine
10
79.915948
20
-12.97051
30
0
11
80.4138
21
-11.1125
31
0
39
0
210
0
220
0
230
1
0
LINE
5
8F
100
AcDbEntity
8
1
62
256
6
ByLayer
370
18
48
1
60
0
100
AcDbLine
10
80.4138
20
-11.1125
30
0
11
85.4938
21
-11.1125
31
0
39
0
210
0
220
0
230
1
0
LINE
5
90
100
AcDbEntity
8
1
62
256
6
ByLayer
370
18
48
1
60
0
100
AcDbLine
10
85.4938
20
-11.1125
30
0
11
85.991652
21
-12.97051
31
0
39
0
210
0
220
0
230
1
0
LINE
5
91
100
AcDbEntity
8
SK3
62
256
6
ByLayer
370
13
48
0.05
60
1
100
AcDbLine
10
95.6
20
-11.75
30
0
11
105.6
21
-11.75
31
0
39
0
210
0
220
0
230
1
0
LINE
5
92
100
AcDbEntity
8
SK3
62
256
6
ByLayer
370
13
48
0.05
60
1
100
AcDbLine
10
105.6
20
11.75
30
0
11
95.6
21
11.75
31
0
39
0
210
0
220
0
230
1
0
LINE
5
93
100
AcDbEntity
8
1
62
256
6
ByLayer
370
18
48
0.05
60
1
100
AcDbLine
10
112.6
20
-16.85
30
0
11
96.4
21
-16.85
31
0
39
0
210
0
220
0
230
1
0
LINE
5
94
100
AcDbEntity
8
1
62
256
6
ByLayer
370
18
48
0.05
60
1
100
AcDbLine
10
96.4
20
16.85
30
0
11
112.6
21
16.85
31
0
39
0
210
0
220
0
230
1
0
LINE
5
95
100
AcDbEntity
8
1
62
256
6
ByLayer
370
18
48
1
60
0
100
AcDbLine
10
107.6
20
16.85
30
0
11
109.6
21
13.385898
31
0
39
0
210
0
220
0
230
1
0
LINE
5
96
100
AcDbEntity
8
1
62
256
6
ByLayer
370
18
48
1
60
0
100
AcDbLine
10
109.6
20
-13.385898
30
0
11
107.6
21
-16.85
31
0
39
0
210
0
220
0
230
1
0
LINE
5
97
100
AcDbEntity
8
1
62
256
6
ByLayer
370
18
48
1
60
0
100
AcDbLine
10
73.9622
20
-17.2974
30
0
11
73.9622
21
17.2974
31
0
39
0
210
0
220
0
230
1
0
LINE
5
98
100
AcDbEntity
8
1
62
256
6
ByLayer
370
18
48
1
60
0
100
AcDbLine
10
74.3432
20
-16.9164
30
0
11
74.3432
21
16.9164
31
0
39
0
210
0
220
0
230
1
0
LINE
5
99
100
AcDbEntity
8
1
62
256
6
ByLayer
370
18
48
1
60
0
100
AcDbLine
10
79.6514
20
14.9733
30
0
11
79.6514
21
-14.9733
31
0
39
0
210
0
220
0
230
1
0
LINE
5
9A
100
AcDbEntity
8
1
62
256
6
ByLayer
370
18
48
1
60
0
100
AcDbLine
10
79.1434
20
-15.4813
30
0
11
79.1434
21
15.4813
31
0
39
0
210
0
220
0
230
1
0
LINE
5
9B
100
AcDbEntity
8
1
62
256
6
ByLayer
370
18
48
1
60
0
100
AcDbLine
10
88.3132
20
-12.4333
30
0
11
88.3132
21
12.4333
31
0
39
0
210
0
220
0
230
1
0
LINE
5
9C
100
AcDbEntity
8
1
62
256
6
ByLayer
370
18
48
1
60
0
100
AcDbLine
10
87.77599
20
-12.97051
30
0
11
87.77599
21
12.97051
31
0
39
0
210
0
220
0
230
1
0
LINE
5
9D
100
AcDbEntity
8
1
62
256
6
ByLayer
370
18
48
0.05
60
1
100
AcDbLine
10
30
20
-17.2975
30
0
11
45.4
21
-17.2975
31
0
39
0
210
0
220
0
230
1
0
LINE
5
9E
100
AcDbEntity
8
1
62
256
6
ByLayer
370
18
48
0.05
60
1
100
AcDbLine
10
30
20
17.2975
30
0
11
45.4
21
17.2975
31
0
39
0
210
0
220
0
230
1
0
LINE
5
9F
100
AcDbEntity
8
1
62
256
6
ByLayer
370
18
48
1
60
0
100
AcDbLine
10
90.6
20
-16.05
30
0
11
90.6
21
16.05
31
0
39
0
210
0
220
0
230
1
0
LINE
5
A0
100
AcDbEntity
8
1
62
256
6
ByLayer
370
18
48
1
60
0
100
AcDbLine
10
109.6
20
-13.385898
30
0
11
109.6
21
13.385898
31
0
39
0
210
0
220
0
230
1
0
LINE
5
A1
100
AcDbEntity
8
SK3
62
256
6
ByLayer
370
13
48
0.05
60
1
100
AcDbLine
10
95.6
20
-12.4333
30
0
11
105.4306
21
-12.4333
31
0
39
0
210
0
220
0
230
1
0
LINE
5
A2
100
AcDbEntity
8
SK3
62
256
6
ByLayer
370
13
48
0.05
60
1
100
AcDbLine
10
95.6
20
12.4333
30
0
11
105.4306
21
12.4333
31
0
39
0
210
0
220
0
230
1
0
LINE
5
A3
100
AcDbEntity
8
1
62
256
6
ByLayer
370
18
48
1
60
0
100
AcDbLine
10
1.3E-05
20
-49.264971
30
0
11
1.3E-05
21
0
31
0
39
0
210
0
220
0
230
1
0
LINE
5
A4
100
AcDbEntity
8
1
62
256
6
ByLayer
370
18
48
1
60
0
100
AcDbLine
10
1.3E-05
20
49.264971
30
0
11
1.3E-05
21
0
31
0
39
0
210
0
220
0
230
1
0
LINE
5
A5
100
AcDbEntity
8
SK1
62
256
6
ByLayer
370
13
48
0.05
60
0
100
AcDbLine
10
-9.999987
20
-41.40822
30
0
11
-9.999987
21
0
31
0
39
0
210
0
220
0
230
1
0
LINE
5
A7
100
AcDbEntity
8
SK1
62
256
6
ByLayer
370
18
48
1
60
0
100
AcDbLine
10
-2.499938
20
-37.875002
30
0
11
-9.999987
21
-37.5
31
0
39
0
210
0
220
0
230
1
0
LINE
5
A8
100
AcDbEntity
8
SK1
62
256
6
ByLayer
370
13
48
0.05
60
0
100
AcDbLine
10
-9.999987
20
42.086628
30
0
11
-9.999987
21
0
31
0
39
0
210
0
220
0
230
1
0
LINE
5
A9
100
AcDbEntity
8
SK1
62
256
6
ByLayer
370
18
48
1
60
0
100
AcDbLine
10
-2.499938
20
37.875002
30
0
11
-9.999987
21
37.5
31
0
39
0
210
0
220
0
230
1
0
LINE
5
AA
100
AcDbEntity
8
SK1
62
256
6
ByLayer
370
18
48
1
60
0
100
AcDbLine
10
-9.999987
20
37.5
30
0
11
-48.099862
21
35.595006
31
0
39
0
210
0
220
0
230
1
0
LINE
5
AB
100
AcDbEntity
8
SK1
62
256
6
ByLayer
370
18
48
1
60
0
100
AcDbLine
10
-9.999987
20
-37.5
30
0
11
-48.099862
21
-35.595006
31
0
39
0
210
0
220
0
230
1
0
LINE
5
AC
100
AcDbEntity
8
1
62
256
6
ByLayer
370
18
48
1
60
0
100
AcDbLine
10
0.735042
20
50
30
0
11
16.75824
21
50
31
0
39
0
210
0
220
0
230
1
0
LINE
5
AD
100
AcDbEntity
8
1
62
256
6
ByLayer
370
18
48
0.05
60
1
100
AcDbLine
10
28.900013
20
22.2975
30
0
11
28.900013
21
49.215068
31
0
39
0
210
0
220
0
230
1
0
LINE
5
AE
100
AcDbEntity
8
1
62
256
6
ByLayer
370
18
48
0.05
60
1
100
AcDbLine
10
28.215081
20
50
30
0
11
23.241884
21
50
31
0
39
0
210
0
220
0
230
1
0
LINE
5
AF
100
AcDbEntity
8
1
62
256
6
ByLayer
370
18
48
1
60
0
100
AcDbLine
10
0.735042
20
-50
30
0
11
16.75824
21
-50
31
0
39
0
210
0
220
0
230
1
0
LINE
5
B0
100
AcDbEntity
8
1
62
256
6
ByLayer
370
18
48
1
60
0
100
AcDbLine
10
16.75824
20
49.965019
30
0
11
18.085062
21
47.666897
31
0
39
0
210
0
220
0
230
1
0
LINE
5
B1
100
AcDbEntity
8
1
62
256
6
ByLayer
370
18
48
1
60
0
100
AcDbLine
10
18.485062
20
45.975019
30
0
11
21.515062
21
45.975019
31
0
39
0
210
0
220
0
230
1
0
LINE
5
B2
100
AcDbEntity
8
1
62
256
6
ByLayer
370
18
48
1
60
0
100
AcDbLine
10
21.915062
20
47.666897
30
0
11
23.241884
21
49.965019
31
0
39
0
210
0
220
0
230
1
0
LINE
5
B3
100
AcDbEntity
8
1
62
256
6
ByLayer
370
18
48
1
60
0
100
AcDbLine
10
28.115081
20
50
30
0
11
28.900013
21
49.215068
31
0
39
0
210
0
220
0
230
1
0
LINE
5
B4
100
AcDbEntity
8
1
62
256
6
ByLayer
370
18
48
1
60
0
100
AcDbLine
10
0.735042
20
50
30
0
11
1.3E-05
21
49.264971
31
0
39
0
210
0
220
0
230
1
0
LINE
5
B5
100
AcDbEntity
8
SK1
62
256
6
ByLayer
370
18
48
1
60
0
100
AcDbLine
10
-1.753528
20
-37.681918
30
0
11
-2.499938
21
-37.881918
31
0
39
0
210
0
220
0
230
1
0
LINE
5
B6
100
AcDbEntity
8
SK1
62
256
6
ByLayer
370
18
48
1
60
0
100
AcDbLine
10
-1.753528
20
-37.681918
30
0
11
-0.874846
21
-37.681918
31
0
39
0
210
0
220
0
230
1
0
LINE
5
B7
100
AcDbEntity
8
1
62
256
6
ByLayer
370
13
48
0.05
60
0
100
AcDbLine
10
6.2E-05
20
-39.641918
30
0
11
0.115422
21
-38.821091
31
0
39
0
210
0
220
0
230
1
0
LINE
5
B8
100
AcDbEntity
8
SK1
62
256
6
ByLayer
370
18
48
1
60
0
100
AcDbLine
10
-2.499938
20
1.9E-05
30
0
11
-2.499938
21
37.875002
31
0
39
0
210
0
220
0
230
1
0
LINE
5
B9
100
AcDbEntity
8
SK1
62
256
6
ByLayer
370
13
48
1
60
0
100
AcDbLine
10
-1.753528
20
1.9E-05
30
0
11
-1.753528
21
37.681957
31
0
39
0
210
0
220
0
230
1
0
LINE
5
BA
100
AcDbEntity
8
1
62
256
6
ByLayer
370
13
48
1
60
0
100
AcDbLine
10
0.700062
20
1.9E-05
30
0
11
0.700062
21
49.965019
31
0
39
0
210
0
220
0
230
1
0
LINE
5
BB
100
AcDbEntity
8
1
62
256
6
ByLayer
370
18
48
0.05
60
1
100
AcDbLine
10
28.150062
20
38.906044
30
0
11
28.850062
21
38.206044
31
0
39
0
210
0
220
0
230
1
0
LINE
5
BC
100
AcDbEntity
8
1
62
256
6
ByLayer
370
18
48
1
60
0
100
AcDbLine
10
28.115081
20
-50
30
0
11
28.900013
21
-49.215068
31
0
39
0
210
0
220
0
230
1
0
LINE
5
BD
100
AcDbEntity
8
1
62
256
6
ByLayer
370
18
48
1
60
0
100
AcDbLine
10
21.915062
20
-47.666897
30
0
11
23.241884
21
-49.965019
31
0
39
0
210
0
220
0
230
1
0
LINE
5
BE
100
AcDbEntity
8
1
62
256
6
ByLayer
370
18
48
1
60
0
100
AcDbLine
10
18.485062
20
-45.975019
30
0
11
21.515062
21
-45.975019
31
0
39
0
210
0
220
0
230
1
0
LINE
5
BF
100
AcDbEntity
8
1
62
256
6
ByLayer
370
18
48
1
60
0
100
AcDbLine
10
16.75824
20
-49.965019
30
0
11
18.085062
21
-47.666897
31
0
39
0
210
0
220
0
230
1
0
LINE
5
C0
100
AcDbEntity
8
1
62
256
6
ByLayer
370
18
48
0.05
60
1
100
AcDbLine
10
28.215081
20
-50
30
0
11
23.241884
21
-50
31
0
39
0
210
0
220
0
230
1
0
LINE
5
C1
100
AcDbEntity
8
1
62
256
6
ByLayer
370
18
48
0.05
60
1
100
AcDbLine
10
28.900013
20
-22.2975
30
0
11
28.900013
21
-49.215068
31
0
39
0
210
0
220
0
230
1
0
LINE
5
C2
100
AcDbEntity
8
1
62
256
6
ByLayer
370
18
48
1
60
0
100
AcDbLine
10
0.735042
20
-50
30
0
11
1.3E-05
21
-49.264971
31
0
39
0
210
0
220
0
230
1
0
LINE
5
C3
100
AcDbEntity
8
1
62
256
6
ByLayer
370
13
48
1
60
0
100
AcDbLine
10
0.700062
20
-1.9E-05
30
0
11
0.700062
21
-49.965019
31
0
39
0
210
0
220
0
230
1
0
LINE
5
C4
100
AcDbEntity
8
SK1
62
256
6
ByLayer
370
13
48
1
60
0
100
AcDbLine
10
-1.753528
20
-1.9E-05
30
0
11
-1.753528
21
-37.681957
31
0
39
0
210
0
220
0
230
1
0
LINE
5
C5
100
AcDbEntity
8
SK1
62
256
6
ByLayer
370
18
48
1
60
0
100
AcDbLine
10
-2.499938
20
-1.9E-05
30
0
11
-2.499938
21
-37.875002
31
0
39
0
210
0
220
0
230
1
0
LINE
5
C6
100
AcDbEntity
8
1
62
256
6
ByLayer
370
13
48
0.05
60
0
100
AcDbLine
10
6.2E-05
20
39.641918
30
0
11
0.115422
21
38.821091
31
0
39
0
210
0
220
0
230
1
0
LINE
5
C7
100
AcDbEntity
8
SK1
62
256
6
ByLayer
370
18
48
1
60
0
100
AcDbLine
10
-1.753528
20
37.681918
30
0
11
-0.874846
21
37.681918
31
0
39
0
210
0
220
0
230
1
0
LINE
5
C8
100
AcDbEntity
8
SK1
62
256
6
ByLayer
370
18
48
1
60
0
100
AcDbLine
10
-1.753528
20
37.681918
30
0
11
-2.499938
21
37.881918
31
0
39
0
210
0
220
0
230
1
0
LINE
5
C9
100
AcDbEntity
8
80
62
256
6
ByLayer
370
13
48
1
60
0
100
AcDbLine
10
0
20
0
30
0
11
-7.999987
21
0
31
0
39
0
210
0
220
0
230
1
0
LINE
5
CA
100
AcDbEntity
8
1
62
256
6
ByLayer
370
18
48
1
60
0
100
AcDbLine
10
16.75824
20
50
30
0
11
16.75824
21
38.906044
31
0
39
0
210
0
220
0
230
1
0
LINE
5
CB
100
AcDbEntity
8
1
62
256
6
ByLayer
370
18
48
1
60
0
100
AcDbLine
10
21.915062
20
34.176911
30
0
11
21.915062
21
47.666897
31
0
39
0
210
0
220
0
230
1
0
LINE
5
CC
100
AcDbEntity
8
1
62
256
6
ByLayer
370
18
48
1
60
0
100
AcDbLine
10
23.241884
20
50
30
0
11
23.241884
21
38.906044
31
0
39
0
210
0
220
0
230
1
0
LINE
5
CD
100
AcDbEntity
8
1
62
256
6
ByLayer
370
18
48
0.05
60
1
100
AcDbLine
10
14.646813
20
31.350019
30
0
11
28.950062
21
31.350019
31
0
39
0
210
0
220
0
230
1
0
LINE
5
CE
100
AcDbEntity
8
1
62
256
6
ByLayer
370
18
48
1
60
0
100
AcDbLine
10
16.75824
20
38.906044
30
0
11
4.950062
21
38.906044
31
0
39
0
210
0
220
0
230
1
0
LINE
5
CF
100
AcDbEntity
8
1
62
256
6
ByLayer
370
18
48
0.05
60
1
100
AcDbLine
10
28.250062
20
38.906044
30
0
11
23.241884
21
38.906044
31
0
39
0
210
0
220
0
230
1
0
LINE
5
D0
100
AcDbEntity
8
SK1
62
256
6
ByLayer
370
18
48
1
60
0
100
AcDbLine
10
-49.999987
20
-33.597502
30
0
11
-49.999987
21
0
31
0
39
0
210
0
220
0
230
1
0
LINE
5
D1
100
AcDbEntity
8
SK1
62
256
6
ByLayer
370
18
48
1
60
0
100
AcDbLine
10
-49.999987
20
33.597502
30
0
11
-49.999987
21
0
31
0
39
0
210
0
220
0
230
1
0
LINE
5
D2
100
AcDbEntity
8
SK3
62
256
6
ByLayer
370
13
48
0.05
60
1
100
AcDbLine
10
5.000013
20
-44
30
0
11
29.000013
21
-44
31
0
39
0
210
0
220
0
230
1
0
LINE
5
D3
100
AcDbEntity
8
SK3
62
256
6
ByLayer
370
13
48
0.05
60
1
100
AcDbLine
10
5.000013
20
44
30
0
11
29.000013
21
44
31
0
39
0
210
0
220
0
230
1
0
LINE
5
D4
100
AcDbEntity
8
1
62
256
6
ByLayer
370
18
48
1
60
0
100
AcDbLine
10
18.085062
20
47.666897
30
0
11
18.085062
21
34.176911
31
0
39
0
210
0
220
0
230
1
0
LINE
5
D5
100
AcDbEntity
8
1
62
256
6
ByLayer
370
18
48
1
60
0
100
AcDbLine
10
16.75824
20
-50
30
0
11
16.75824
21
31.350019
31
0
39
0
210
0
220
0
230
1
0
LINE
5
D6
100
AcDbEntity
8
1
62
256
6
ByLayer
370
18
48
1
60
0
100
AcDbLine
10
18.085062
20
-47.666897
30
0
11
18.085062
21
31.350019
31
0
39
0
210
0
220
0
230
1
0
LINE
5
D7
100
AcDbEntity
8
1
62
256
6
ByLayer
370
18
48
1
60
0
100
AcDbLine
10
21.915062
20
31.350019
30
0
11
21.915062
21
-47.666897
31
0
39
0
210
0
220
0
230
1
0
LINE
5
D8
100
AcDbEntity
8
1
62
256
6
ByLayer
370
18
48
1
60
0
100
AcDbLine
10
23.241884
20
-50
30
0
11
23.241884
21
31.350019
31
0
39
0
210
0
220
0
230
1
0
LINE
5
D9
100
AcDbEntity
8
1
62
256
6
ByLayer
370
13
48
1
60
0
100
AcDbLine
10
28.150062
20
-49.965019
30
0
11
28.150062
21
31.350019
31
0
39
0
210
0
220
0
230
1
0
LINE
5
DA
100
AcDbEntity
8
1
62
256
6
ByLayer
370
18
48
0.05
60
1
100
AcDbLine
10
34.000013
20
17.2975
30
0
11
45.4
21
17.2975
31
0
39
0
210
0
220
0
230
1
0
LINE
5
DB
100
AcDbEntity
8
1
62
256
6
ByLayer
370
18
48
0.05
60
1
100
AcDbLine
10
34.000013
20
-17.2975
30
0
11
45.4
21
-17.2975
31
0
39
0
210
0
220
0
230
1
0
LINE
5
DC
100
AcDbEntity
8
1
62
256
6
ByLayer
370
18
48
0.05
60
1
100
AcDbLine
10
45.100062
20
-49.965019
30
0
11
45.100062
21
31.350019
31
0
39
0
210
0
220
0
230
1
0
LINE
5
DD
100
AcDbEntity
8
1
62
256
6
ByLayer
370
18
48
0.05
60
1
100
AcDbLine
10
55.800062
20
-49.965019
30
0
11
55.800062
21
31.350019
31
0
39
0
210
0
220
0
230
1
0
LINE
5
DE
100
AcDbEntity
8
1
62
256
6
ByLayer
370
18
48
0.05
60
1
100
AcDbLine
10
56.200062
20
-49.965019
30
0
11
56.200062
21
31.350019
31
0
39
0
210
0
220
0
230
1
0
LINE
5
DF
100
AcDbEntity
8
1
62
256
6
ByLayer
370
18
48
1
60
0
100
AcDbLine
10
45.100062
20
16.8975
30
0
11
44.700062
21
17.2975
31
0
39
0
210
0
220
0
230
1
0
LINE
5
E0
100
AcDbEntity
8
1
62
256
6
ByLayer
370
18
48
1
60
0
100
AcDbLine
10
44.700062
20
-17.2975
30
0
11
45.100062
21
-16.8975
31
0
39
0
210
0
220
0
230
1
0
LINE
5
E1
100
AcDbEntity
8
1
62
256
6
ByLayer
370
18
48
1
60
0
100
AcDbLine
10
54.800062
20
17.297409
30
0
11
45.500058
21
17.297493
31
0
39
0
210
0
220
0
230
1
0
LINE
5
E2
100
AcDbEntity
8
1
62
256
6
ByLayer
370
18
48
1
60
0
100
AcDbLine
10
54.800053
20
-17.297409
30
0
11
45.500062
21
-17.297493
31
0
39
0
210
0
220
0
230
1
0
LINE
5
E3
100
AcDbEntity
8
1
62
256
6
ByLayer
370
18
48
1
60
0
100
AcDbLine
10
45.500058
20
17.297493
30
0
11
45.100062
21
16.897496
31
0
39
0
210
0
220
0
230
1
0
LINE
5
E4
100
AcDbEntity
8
1
62
256
6
ByLayer
370
18
48
1
60
0
100
AcDbLine
10
45.100062
20
-16.8975
30
0
11
45.500062
21
-17.297493
31
0
39
0
210
0
220
0
230
1
0
LINE
5
E5
100
AcDbEntity
8
1
62
256
6
ByLayer
370
18
48
0.05
60
1
100
AcDbLine
10
0
20
16.25
30
0
11
109.4
21
16.25
31
0
39
0
210
0
220
0
230
1
0
LINE
5
E6
100
AcDbEntity
8
1
62
256
6
ByLayer
370
18
48
1
60
0
100
AcDbLine
10
56.200062
20
-16.25
30
0
11
55.800062
21
-16.25
31
0
39
0
210
0
220
0
230
1
0
LINE
5
E7
100
AcDbEntity
8
1
62
256
6
ByLayer
370
18
48
1
60
0
100
AcDbLine
10
55.800062
20
16.297391
30
0
11
54.800062
21
17.297409
31
0
39
0
210
0
220
0
230
1
0
LINE
5
E8
100
AcDbEntity
8
1
62
256
6
ByLayer
370
18
48
1
60
0
100
AcDbLine
10
54.800053
20
-17.297409
30
0
11
55.800062
21
-16.2974
31
0
39
0
210
0
220
0
230
1
0
LINE
5
E9
100
AcDbEntity
8
1
62
256
6
ByLayer
370
18
48
1
60
0
100
AcDbLine
10
56.600062
20
17.2974
30
0
11
56.200062
21
16.8974
31
0
39
0
210
0
220
0
230
1
0
LINE
5
EA
100
AcDbEntity
8
1
62
256
6
ByLayer
370
18
48
1
60
0
100
AcDbLine
10
56.200062
20
-16.8974
30
0
11
56.600062
21
-17.2974
31
0
39
0
210
0
220
0
230
1
0
LINE
5
EB
100
AcDbEntity
8
1
62
256
6
ByLayer
370
18
48
1
60
0
100
AcDbLine
10
54.800062
20
17.297409
30
0
11
54.800053
21
-17.297409
31
0
39
0
210
0
220
0
230
1
0
LINE
5
EC
100
AcDbEntity
8
SK3
62
256
6
ByLayer
370
13
48
0.05
60
0
100
AcDbLine
10
103.7
20
-10.88
30
0
11
108.688306
21
-8
31
0
39
0
210
0
220
0
230
1
0
LINE
5
ED
100
AcDbEntity
8
SK3
62
256
6
ByLayer
370
13
48
0.05
60
0
100
AcDbLine
10
103.7
20
9
30
0
11
102.5
21
9
31
0
39
0
210
0
220
0
230
1
0
LINE
5
EE
100
AcDbEntity
8
SK3
62
256
6
ByLayer
370
13
48
0.05
60
0
100
AcDbLine
10
78.918936
20
6.8072
30
0
11
75.1084
21
6.8072
31
0
39
0
210
0
220
0
230
1
0
LINE
5
EF
100
AcDbEntity
8
SK3
62
256
6
ByLayer
370
13
48
0.05
60
0
100
AcDbLine
10
78.918936
20
-6.8072
30
0
11
100.49577
21
-9.839626
31
0
39
0
210
0
220
0
230
1
0
LINE
5
F0
100
AcDbEntity
8
SK3
62
256
6
ByLayer
370
13
48
0.05
60
0
100
AcDbLine
10
100.3306
20
12.4333
30
0
11
101.6006
21
11.1633
31
0
39
0
210
0
220
0
230
1
0
LINE
5
F1
100
AcDbEntity
8
SK3
62
256
6
ByLayer
370
13
48
0.05
60
0
100
AcDbLine
10
102.5
20
11.75
30
0
11
102.5
21
-11.75
31
0
39
0
210
0
220
0
230
1
0
LINE
5
F2
100
AcDbEntity
8
SK3
62
256
6
ByLayer
370
13
48
0.05
60
0
100
AcDbLine
10
103.7
20
-10.88
30
0
11
103.7
21
10.88
31
0
39
0
210
0
220
0
230
1
0
LINE
5
F3
100
AcDbEntity
8
SK3
62
256
6
ByLayer
370
13
48
0.05
60
0
100
AcDbLine
10
101.6006
20
-11.1633
30
0
11
100.3306
21
-12.4333
31
0
39
0
210
0
220
0
230
1
0
LINE
5
F4
100
AcDbEntity
8
SK3
62
256
6
ByLayer
370
13
48
0.05
60
0
100
AcDbLine
10
108.688306
20
8
30
0
11
108.688306
21
-8
31
0
39
0
210
0
220
0
230
1
0
LINE
5
F5
100
AcDbEntity
8
SK3
62
256
6
ByLayer
370
13
48
0.05
60
0
100
AcDbLine
10
100.49577
20
9.839626
30
0
11
78.918936
21
6.8072
31
0
39
0
210
0
220
0
230
1
0
LINE
5
F6
100
AcDbEntity
8
SK3
62
256
6
ByLayer
370
13
48
0.05
60
0
100
AcDbLine
10
100.49577
20
-9.839626
30
0
11
101.6006
21
-10.4775
31
0
39
0
210
0
220
0
230
1
0
LINE
5
F7
100
AcDbEntity
8
SK3
62
256
6
ByLayer
370
13
48
0.05
60
0
100
AcDbLine
10
102.5
20
-9
30
0
11
103.7
21
-9
31
0
39
0
210
0
220
0
230
1
0
LINE
5
F8
100
AcDbEntity
8
SK3
62
256
6
ByLayer
370
13
48
0.05
60
0
100
AcDbLine
10
108.688306
20
8
30
0
11
103.7
21
10.88
31
0
39
0
210
0
220
0
230
1
0
LINE
5
F9
100
AcDbEntity
8
SK3
62
256
6
ByLayer
370
13
48
0.05
60
0
100
AcDbLine
10
90.5
20
-12.4333
30
0
11
100.3306
21
-12.4333
31
0
39
0
210
0
220
0
230
1
0
LINE
5
FA
100
AcDbEntity
8
SK3
62
256
6
ByLayer
370
13
48
0.05
60
0
100
AcDbLine
10
75.1084
20
-6.8072
30
0
11
78.918936
21
-6.8072
31
0
39
0
210
0
220
0
230
1
0
LINE
5
FB
100
AcDbEntity
8
SK3
62
256
6
ByLayer
370
13
48
0.05
60
0
100
AcDbLine
10
101.6006
20
-11.1633
30
0
11
101.6006
21
11.1633
31
0
39
0
210
0
220
0
230
1
0
LINE
5
FC
100
AcDbEntity
8
SK3
62
256
6
ByLayer
370
13
48
0.05
60
0
100
AcDbLine
10
75.1084
20
-6.8072
30
0
11
75.1084
21
6.8072
31
0
39
0
210
0
220
0
230
1
0
LINE
5
FD
100
AcDbEntity
8
81
62
256
6
ByLayer
370
13
48
1
60
0
100
AcDbLine
10
101.6
20
0
30
0
11
107.6
21
0
31
0
39
0
210
0
220
0
230
1
0
LINE
5
FE
100
AcDbEntity
8
1
62
256
6
ByLayer
370
18
48
1
60
0
100
AcDbLine
10
107.6
20
16.85
30
0
11
91.4
21
16.85
31
0
39
0
210
0
220
0
230
1
0
LINE
5
FF
100
AcDbEntity
8
1
62
256
6
ByLayer
370
18
48
1
60
0
100
AcDbLine
10
91.4
20
-16.85
30
0
11
107.6
21
-16.85
31
0
39
0
210
0
220
0
230
1
0
LINE
5
100
100
AcDbEntity
8
1
62
256
6
ByLayer
370
18
48
1
60
0
100
AcDbLine
10
79.1434
20
15.4813
30
0
11
74.3434
21
15.4813
31
0
39
0
210
0
220
0
230
1
0
LINE
5
101
100
AcDbEntity
8
1
62
256
6
ByLayer
370
18
48
1
60
0
100
AcDbLine
10
79.915948
20
12.97051
30
0
11
79.650948
21
12.97051
31
0
39
0
210
0
220
0
230
1
0
LINE
5
102
100
AcDbEntity
8
1
62
256
6
ByLayer
370
18
48
1
60
0
100
AcDbLine
10
79.1434
20
-15.4813
30
0
11
74.3434
21
-15.4813
31
0
39
0
210
0
220
0
230
1
0
LINE
5
103
100
AcDbEntity
8
1
62
256
6
ByLayer
370
18
48
1
60
0
100
AcDbLine
10
79.915948
20
-12.97051
30
0
11
79.650948
21
-12.97051
31
0
39
0
210
0
220
0
230
1
0
LINE
5
104
100
AcDbEntity
8
1
62
256
6
ByLayer
370
18
48
1
60
0
100
AcDbLine
10
73.9622
20
17.2974
30
0
11
56.600062
21
17.2974
31
0
39
0
210
0
220
0
230
1
0
LINE
5
105
100
AcDbEntity
8
1
62
256
6
ByLayer
370
18
48
1
60
0
100
AcDbLine
10
23.241884
20
50
30
0
11
28.115081
21
50
31
0
39
0
210
0
220
0
230
1
0
LINE
5
106
100
AcDbEntity
8
1
62
256
6
ByLayer
370
18
48
1
60
0
100
AcDbLine
10
23.241884
20
-50
30
0
11
28.115081
21
-50
31
0
39
0
210
0
220
0
230
1
0
LINE
5
107
100
AcDbEntity
8
1
62
256
6
ByLayer
370
18
48
1
60
0
100
AcDbLine
10
28.900013
20
49.215068
30
0
11
28.900013
21
-49.215068
31
0
39
0
210
0
220
0
230
1
0
LINE
5
108
100
AcDbEntity
8
1
62
256
6
ByLayer
370
18
48
1
60
0
100
AcDbLine
10
44.700062
20
17.2975
30
0
11
33.900013
21
17.2975
31
0
39
0
210
0
220
0
230
1
0
LINE
5
109
100
AcDbEntity
8
1
62
256
6
ByLayer
370
18
48
1
60
0
100
AcDbLine
10
44.700062
20
-17.2975
30
0
11
33.900013
21
-17.2975
31
0
39
0
210
0
220
0
230
1
0
LINE
5
10A
100
AcDbEntity
8
1
62
256
6
ByLayer
370
18
48
1
60
0
100
AcDbLine
10
55.800062
20
16.297391
30
0
11
55.800062
21
-16.25
31
0
39
0
210
0
220
0
230
1
0
LINE
5
10B
100
AcDbEntity
8
1
62
256
6
ByLayer
370
18
48
1
60
0
100
AcDbLine
10
56.200062
20
16.8974
30
0
11
56.200062
21
-16.930697
31
0
39
0
210
0
220
0
230
1
0
LINE
5
10C
100
AcDbEntity
8
1
62
256
6
ByLayer
370
18
48
1
60
0
100
AcDbLine
10
56.600062
20
-17.2974
30
0
11
73.9622
21
-17.2974
31
0
39
0
210
0
220
0
230
1
0
LINE
5
10D
100
AcDbEntity
8
1
62
256
6
ByLayer
370
18
48
1
60
0
100
AcDbLine
10
56.200062
20
16.25
30
0
11
55.800062
21
16.25
31
0
39
0
210
0
220
0
230
1
0
LINE
5
10E
100
AcDbEntity
8
SK3
62
256
6
ByLayer
370
13
48
0.05
60
0
100
AcDbLine
10
101.6006
20
11.1633
30
0
11
90.6006
21
11.1633
31
0
39
0
210
0
220
0
230
1
0
LINE
5
10F
100
AcDbEntity
8
1
62
256
6
ByLayer
370
18
48
1
60
0
100
AcDbLine
10
88.3132
20
12.4333
30
0
11
90.6002
21
12.4333
31
0
39
0
210
0
220
0
230
1
0
LINE
5
110
100
AcDbEntity
8
1
62
256
6
ByLayer
370
18
48
1
60
0
100
AcDbLine
10
88.3132
20
-12.4333
30
0
11
90.6002
21
-12.4333
31
0
39
0
210
0
220
0
230
1
0
LINE
5
111
100
AcDbEntity
8
SK3
62
256
6
ByLayer
370
13
48
0.05
60
0
100
AcDbLine
10
90.6002
20
12.4333
30
0
11
100.3312
21
12.4333
31
0
39
0
210
0
220
0
230
1
0
LINE
5
112
100
AcDbEntity
8
1
62
256
6
ByLayer
370
13
48
1
60
0
100
AcDbLine
10
90.6006
20
11.1633
30
0
11
88.3136
21
11.1633
31
0
39
0
210
0
220
0
230
1
0
LINE
5
113
100
AcDbEntity
8
1
62
256
6
ByLayer
370
13
48
1
60
0
100
AcDbLine
10
90.6006
20
-11.1633
30
0
11
88.3136
21
-11.1633
31
0
39
0
210
0
220
0
230
1
0
LINE
5
114
100
AcDbEntity
8
SK3
62
256
6
ByLayer
370
13
48
0.05
60
0
100
AcDbLine
10
101.6006
20
-11.1633
30
0
11
90.6006
21
-11.1633
31
0
39
0
210
0
220
0
230
1
0
LINE
5
115
100
AcDbEntity
8
SK3
62
256
6
ByLayer
370
13
48
0.05
60
0
100
AcDbLine
10
5.000013
20
-50
30
0
11
5.000013
21
-44
31
0
39
0
210
0
220
0
230
1
0
LINE
5
116
100
AcDbEntity
8
SK3
62
256
6
ByLayer
370
13
48
0.05
60
0
100
AcDbLine
10
5.000013
20
50
30
0
11
5.000013
21
44
31
0
39
0
210
0
220
0
230
1
0
LINE
5
117
100
AcDbEntity
8
SK3
62
256
6
ByLayer
370
13
48
0.05
60
0
100
AcDbLine
10
5.000013
20
-44
30
0
11
29.000013
21
-44
31
0
39
0
210
0
220
0
230
1
0
LINE
5
118
100
AcDbEntity
8
SK3
62
256
6
ByLayer
370
13
48
0.05
60
0
100
AcDbLine
10
5.000013
20
44
30
0
11
29.000013
21
44
31
0
39
0
210
0
220
0
230
1
0
LINE
5
119
100
AcDbEntity
8
1
62
256
6
ByLayer
370
18
48
1
60
0
100
AcDbLine
10
45.100062
20
16.897496
30
0
11
45.100062
21
-16.8975
31
0
39
0
210
0
220
0
230
1
0
LINE
5
11A
100
AcDbEntity
8
4
62
256
6
ByLayer
370
13
48
0.05
60
0
100
AcDbLine
10
0
20
0
30
0
11
101.6006
21
0
31
0
39
0
210
0
220
0
230
1
0
LINE
5
11C
100
AcDbEntity
8
SK4
62
256
6
ByLayer
370
13
48
0.05
60
0
100
AcDbLine
10
116.652703
20
0
30
0
11
-58.642754
21
0
31
0
39
0
210
0
220
0
230
1
0
LINE
5
11E
100
AcDbEntity
8
1
62
256
6
ByLayer
370
18
48
1
60
0
100
AcDbLine
10
23.241884
20
38.906044
30
0
11
28.150062
21
38.906044
31
0
39
0
210
0
220
0
230
1
0
LINE
5
11F
100
AcDbEntity
8
1
62
256
6
ByLayer
370
18
48
1
60
0
100
AcDbLine
10
28.150062
20
38.906044
30
0
11
28.934994
21
38.121112
31
0
39
0
210
0
220
0
230
1
0
LINE
5
120
100
AcDbEntity
8
1
62
256
6
ByLayer
370
18
48
1
60
0
100
AcDbLine
10
14.646813
20
31.350019
30
0
11
28.900013
21
31.350019
31
0
39
0
210
0
220
0
230
1
0
LINE
5
121
100
AcDbEntity
8
1
62
256
6
ByLayer
370
13
48
1
60
0
100
AcDbLine
10
28.150062
20
49.965019
30
0
11
28.150062
21
38.906044
31
0
39
0
210
0
220
0
230
1
0
LINE
5
122
100
AcDbEntity
8
3
62
256
6
ByLayer
370
13
48
0.05
60
0
100
AcDbLine
10
90.6002
20
12.4333
30
0
11
100.3312
21
12.4333
31
0
39
0
210
0
220
0
230
1
0
LINE
5
124
100
AcDbEntity
8
3
62
256
6
ByLayer
370
13
48
0.05
60
0
100
AcDbLine
10
90.5
20
-12.4333
30
0
11
100.3306
21
-12.4333
31
0
39
0
210
0
220
0
230
1
0
LINE
5
125
100
AcDbEntity
8
3
62
256
6
ByLayer
370
13
48
0.05
60
0
100
AcDbLine
10
100.3306
20
12.4333
30
0
11
101.6006
21
11.1633
31
0
39
0
210
0
220
0
230
1
0
LINE
5
126
100
AcDbEntity
8
3
62
256
6
ByLayer
370
13
48
0.05
60
0
100
AcDbLine
10
101.6006
20
-11.1633
30
0
11
100.3306
21
-12.4333
31
0
39
0
210
0
220
0
230
1
0
LINE
5
127
100
AcDbEntity
8
3
62
256
6
ByLayer
370
13
48
0.05
60
0
100
AcDbLine
10
101.6006
20
9.9949
30
0
11
101.6006
21
11.1633
31
0
39
0
210
0
220
0
230
1
0
LINE
5
128
100
AcDbEntity
8
3
62
256
6
ByLayer
370
13
48
0.05
60
0
100
AcDbLine
10
101.6006
20
-11.1633
30
0
11
101.6006
21
-9.9949
31
0
39
0
210
0
220
0
230
1
0
LINE
5
129
100
AcDbEntity
8
SK3
62
256
6
ByLayer
370
13
48
0.05
60
0
100
AcDbLine
10
109.6
20
8
30
0
11
108.688306
21
8
31
0
39
0
210
0
220
0
230
1
0
LINE
5
12A
100
AcDbEntity
8
SK3
62
256
6
ByLayer
370
13
48
0.05
60
0
100
AcDbLine
10
108.688306
20
-8
30
0
11
109.6
21
-8
31
0
39
0
210
0
220
0
230
1
0
MTEXT
5
144
100
AcDbEntity
8
SK6
62
256
6
ByLayer
370
18
48
1
60
0
100
AcDbMText
10
39.728963
20
-38.158531
30
0
210
0
220
0
230
1
1
\W0.7200;970-HA10Q-20-115
40
3.5
41
0
44
1.084337
50
0
71
7
72
5
7
iso_b_vert
0
DIMENSION
5
152
100
AcDbEntity
8
SK2
62
256
6
ByLayer
370
13
48
1
60
0
100
AcDbDimension
2
DimnDraft3D1
10
109.6
20
75.284209
30
0
11
50.534714
21
75.284209
31
0
70
32
71
5
72
1
41
1
210
0
220
0
230
1
3
Standard
100
AcDbAlignedDimension
13
1.3E-05
23
50.852471
33
0
14
109.6
24
14.973398
34
0
50
0
100
AcDbRotatedDimension
1001
ACAD
1000
DSTYLE
1002
{
1070
   279
1070
     0
1070
   172
1070
     1
1070
   173
1070
     1
1070
   340
1005
145
1070
   271
1070
     3
1070
   272
1070
     3
1070
    77
1070
     1
1070
    73
1070
     0
1070
   171
1070
     4
1070
   274
1070
     4
1070
   177
1070
     7
1070
   176
1070
     7
1070
   178
1070
     7
1070
    78
1070
     8
1070
    48
1040
-0.005
1070
    41
1041
3.175
1070
   147
1041
1.500003
1070
    42
1041
1.5875
1070
    44
1041
3.175
1070
   140
1041
3.000007
1070
   343
1005
0
1070
   344
1005
0
1002
}
0
DIMENSION
5
15C
100
AcDbEntity
8
SK2
62
256
6
ByLayer
370
13
48
1
60
0
100
AcDbDimension
2
DimnDraft3D2
10
109.6
20
31.037621
30
0
11
98.683569
21
31.037621
31
0
70
32
71
5
72
1
41
1
210
0
220
0
230
1
3
Standard
100
AcDbAlignedDimension
13
90.6
23
17.6375
33
0
14
109.6
24
14.973398
34
0
50
0
100
AcDbRotatedDimension
1001
ACAD
1000
DSTYLE
1002
{
1070
   279
1070
     0
1070
   172
1070
     1
1070
   173
1070
     1
1070
   340
1005
145
1070
   271
1070
     3
1070
   272
1070
     3
1070
    77
1070
     1
1070
    73
1070
     0
1070
   171
1070
     4
1070
   274
1070
     4
1070
   177
1070
     7
1070
   176
1070
     7
1070
   178
1070
     7
1070
    78
1070
     8
1070
    48
1040
-0.005
1070
    41
1041
3.175
1070
   147
1041
1.500003
1070
    42
1041
1.5875
1070
    44
1041
3.175
1070
   140
1041
3.000007
1070
   343
1005
0
1070
   344
1005
0
1002
}
0
DIMENSION
5
166
100
AcDbEntity
8
SK2
62
256
6
ByLayer
370
13
48
1
60
0
100
AcDbDimension
2
DimnDraft3D3
10
74.3432
20
42.003972
30
0
11
88.452051
21
42.003972
31
0
70
32
71
5
72
1
41
1
210
0
220
0
230
1
3
Standard
100
AcDbAlignedDimension
13
109.6
23
14.973398
33
0
14
74.3432
24
18.5039
34
0
50
0
100
AcDbRotatedDimension
1001
ACAD
1000
DSTYLE
1002
{
1070
   279
1070
     0
1070
   172
1070
     1
1070
   173
1070
     1
1070
   340
1005
145
1070
   271
1070
     1
1070
   272
1070
     3
1070
    77
1070
     1
1070
    73
1070
     0
1070
   171
1070
     4
1070
   274
1070
     4
1070
   177
1070
     7
1070
   176
1070
     7
1070
   178
1070
     7
1070
    78
1070
     8
1070
    48
1040
-0.005
1070
    41
1041
3.175
1070
   147
1041
1.500003
1070
    42
1041
1.5875
1070
    44
1041
3.175
1070
   140
1041
3.000007
1070
   343
1005
0
1070
   344
1005
0
1002
}
0
DIMENSION
5
170
100
AcDbEntity
8
SK2
62
256
6
ByLayer
370
13
48
1
60
0
100
AcDbDimension
2
DimnDraft3D4
10
28.900013
20
63.603683
30
0
11
65.730458
21
63.603683
31
0
70
32
71
5
72
1
41
1
210
0
220
0
230
1
3
Standard
100
AcDbAlignedDimension
13
109.6
23
14.973398
33
0
14
28.900013
24
50.802568
34
0
50
0
100
AcDbRotatedDimension
1001
ACAD
1000
DSTYLE
1002
{
1070
   279
1070
     0
1070
   172
1070
     1
1070
   173
1070
     1
1070
   340
1005
145
1070
   271
1070
     1
1070
   272
1070
     3
1070
    77
1070
     1
1070
    73
1070
     0
1070
   171
1070
     4
1070
   274
1070
     4
1070
   177
1070
     7
1070
   176
1070
     7
1070
   178
1070
     7
1070
    78
1070
     8
1070
    48
1040
-0.005
1070
    41
1041
3.175
1070
   147
1041
1.500003
1070
    42
1041
1.5875
1070
    44
1041
3.175
1070
   140
1041
3.000007
1070
   343
1005
0
1070
   344
1005
0
1002
}
0
DIMENSION
5
17A
100
AcDbEntity
8
SK2
62
256
6
ByLayer
370
13
48
1
60
0
100
AcDbDimension
2
DimnDraft3D5
10
126.052769
20
-8
30
0
11
126.052769
21
11.858755
31
0
70
32
71
5
72
1
41
1
210
0
220
0
230
1
3
Standard
100
AcDbAlignedDimension
13
111.1875
23
8
33
0
14
111.1875
24
-8
34
0
50
90
100
AcDbRotatedDimension
1001
ACAD
1000
DSTYLE
1002
{
1070
    74
1070
     0
1070
   279
1070
     0
1070
   172
1070
     1
1070
   173
1070
     1
1070
   340
1005
145
1070
   271
1070
     3
1070
   272
1070
     3
1070
    77
1070
     1
1070
    73
1070
     0
1070
   171
1070
     4
1070
   274
1070
     4
1070
   177
1070
     7
1070
   176
1070
     7
1070
   178
1070
     7
1070
    78
1070
     8
1070
    48
1040
-0.005
1070
    41
1041
3.175
1070
   147
1041
1.500003
1070
    42
1041
1.5875
1070
    44
1041
3.175
1070
   140
1041
3.000007
1070
   343
1005
0
1070
   344
1005
0
1002
}
0
DIMENSION
5
184
100
AcDbEntity
8
SK2
62
256
6
ByLayer
370
13
48
1
60
0
100
AcDbDimension
2
DimnDraft3D6
10
138.394556
20
16.85
30
0
11
138.394556
21
-5.763171
31
0
70
32
71
5
72
1
41
1
210
0
220
0
230
1
3
Standard
100
AcDbAlignedDimension
13
114.1875
23
-16.85
33
0
14
114.1875
24
16.85
34
0
50
90
100
AcDbRotatedDimension
1001
ACAD
1000
DSTYLE
1002
{
1070
    74
1070
     0
1070
   279
1070
     0
1070
   172
1070
     1
1070
   173
1070
     1
1070
   340
1005
145
1070
   271
1070
     0
1070
   272
1070
     3
1070
    77
1070
     1
1070
    73
1070
     0
1070
   171
1070
     4
1070
   274
1070
     4
1070
   177
1070
     7
1070
   176
1070
     7
1070
   178
1070
     7
1070
    78
1070
     8
1070
    48
1040
-0.005
1070
    41
1041
3.175
1070
   147
1041
1.500003
1070
    42
1041
1.5875
1070
    44
1041
3.175
1070
   140
1041
3.000007
1070
   343
1005
0
1070
   344
1005
0
1002
}
0
DIMENSION
5
192
100
AcDbEntity
8
SK2
62
256
6
ByLayer
370
13
48
1
60
0
100
AcDbDimension
2
DimnDraft3D7
10
1.3E-05
20
75.331642
30
0
11
-28.599987
21
75.331642
31
0
70
32
71
5
72
1
41
1
210
0
220
0
230
1
3
Standard
100
AcDbAlignedDimension
13
-49.999987
23
35.097502
33
0
14
1.3E-05
24
50.764971
34
0
50
0
100
AcDbRotatedDimension
1001
ACAD
1000
DSTYLE
1002
{
1070
   279
1070
     0
1070
   173
1070
     1
1070
   340
1005
145
1070
   271
1070
     0
1070
   272
1070
     2
1070
    77
1070
     1
1070
    73
1070
     0
1070
   171
1070
     4
1070
   274
1070
     4
1070
   177
1070
     7
1070
   176
1070
     7
1070
   178
1070
     7
1070
    41
1041
3.0
1070
   147
1041
1.5
1070
    42
1041
1.5
1070
    44
1041
3.0
1070
   140
1041
3.0
1070
   343
1005
193
1070
   344
1005
193
1002
}
0
DIMENSION
5
1A7
100
AcDbEntity
8
SK2
62
256
6
ByLayer
370
13
48
1
60
0
100
AcDbDimension
2
DimnDraft3D8
10
-66.12495
20
50
30
0
11
-66.12495
21
-4.8
31
0
70
32
71
5
72
1
41
1
210
0
220
0
230
1
3
Standard
100
AcDbAlignedDimension
13
-0.764958
23
-50
33
0
14
-0.764958
24
50
34
0
50
90
100
AcDbRotatedDimension
1001
ACAD
1000
DSTYLE
1002
{
1070
    74
1070
     0
1070
   279
1070
     0
1070
   173
1070
     1
1070
   340
1005
145
1070
   271
1070
     0
1070
   272
1070
     2
1070
    77
1070
     1
1070
    73
1070
     0
1070
   171
1070
     4
1070
   274
1070
     4
1070
   177
1070
     7
1070
   176
1070
     7
1070
   178
1070
     7
1070
    41
1041
3.0
1070
   147
1041
1.5
1070
    42
1041
1.5
1070
    44
1041
3.0
1070
   140
1041
3.0
1070
   343
1005
193
1070
   344
1005
193
1002
}
0
DIMENSION
5
1B0
100
AcDbEntity
8
SK2
62
256
6
ByLayer
370
13
48
1
60
0
100
AcDbDimension
2
DimnDraft3D9
10
65.666204
20
-5.692118
30
0
11
64.916202
21
2.107899
31
0
70
33
71
5
72
1
41
1
210
0
220
0
230
1
3
Standard
100
AcDbAlignedDimension
13
56.600062
23
-17.2974
33
0
14
56.600062
24
17.2974
34
0
1001
ACAD
1000
DSTYLE
1002
{
1070
   279
1070
     0
1070
    74
1070
     0
1070
   173
1070
     1
1070
   340
1005
145
1070
   271
1070
     0
1070
   272
1070
     3
1070
    77
1070
     1
1070
    73
1070
     0
1070
   171
1070
     4
1070
   274
1070
     4
1070
   177
1070
     7
1070
   176
1070
     7
1070
   178
1070
     7
1070
    78
1070
     8
1070
    48
1040
-0.005
1070
    41
1041
3.175
1070
   147
1041
1.500003
1070
    42
1041
1.5875
1070
    44
1041
3.175
1070
   140
1041
3.000007
1070
   343
1005
0
1070
   344
1005
0
1002
}
0
DIMENSION
5
1BB
100
AcDbEntity
8
2
62
256
6
ByLayer
370
13
48
1
60
0
100
AcDbDimension
2
DimnDraft3D10
10
101.6006
20
-59.060682
30
0
11
46.908193
21
-59.060682
31
0
70
32
71
5
72
1
41
1
210
0
220
0
230
1
3
Standard
100
AcDbAlignedDimension
13
1.3E-05
23
-50.852471
33
0
14
101.6006
24
-12.7508
34
0
50
0
100
AcDbRotatedDimension
1001
ACAD
1000
DSTYLE
1002
{
1070
   279
1070
     0
1070
   172
1070
     1
1070
   173
1070
     1
1070
   340
1005
145
1070
   271
1070
     1
1070
   272
1070
     3
1070
    77
1070
     1
1070
    73
1070
     0
1070
   171
1070
     4
1070
   274
1070
     4
1070
   177
1070
     7
1070
   176
1070
     7
1070
   178
1070
     7
1070
    78
1070
     8
1070
    48
1040
-0.005
1070
    41
1041
3.175
1070
   147
1041
1.500003
1070
    42
1041
1.5875
1070
    44
1041
3.175
1070
   140
1041
3.000007
1070
   343
1005
0
1070
   344
1005
0
1002
}
0
ENDSEC
0
SECTION
2
OBJECTS
0
DICTIONARY
5
229
330
0
100
AcDbDictionary
280
0
281
1
3
ACAD_GROUP
350
22a
3
ACAD_GROUP
350
22b
3
ACAD_MLINESTYLE
350
22c
0
DICTIONARY
5
22a
330
0
100
AcDbDictionary
280
0
281
1
0
DICTIONARY
5
22b
330
0
100
AcDbDictionary
280
0
281
1
3
<112027500MOD000_01>
350
1C4
0
DICTIONARY
5
22c
330
0
100
AcDbDictionary
280
0
281
1
3
Standard
350
18
0
GROUP
5
1C4
330
22b
100
AcDbGroup
300

70
0
71
1
340
6C
340
6E
340
70
340
72
340
73
340
74
340
75
340
76
340
77
340
78
340
79
340
7A
340
7B
340
7C
340
7D
340
7E
340
80
340
81
340
82
340
83
340
84
340
85
340
86
340
87
340
88
340
89
340
8A
340
8B
340
8C
340
8D
340
8E
340
8F
340
90
340
91
340
92
340
93
340
94
340
95
340
96
340
97
340
98
340
99
340
9A
340
9B
340
9C
340
9D
340
9E
340
9F
340
A0
340
A1
340
A2
340
A3
340
A4
340
A5
340
A7
340
A8
340
A9
340
AA
340
AB
340
AC
340
AD
340
AE
340
AF
340
B0
340
B1
340
B2
340
B3
340
B4
340
B5
340
B6
340
B7
340
B8
340
B9
340
BA
340
BB
340
BC
340
BD
340
BE
340
BF
340
C0
340
C1
340
C2
340
C3
340
C4
340
C5
340
C6
340
C7
340
C8
340
C9
340
CA
340
CB
340
CC
340
CD
340
CE
340
CF
340
D0
340
D1
340
D2
340
D3
340
D4
340
D5
340
D6
340
D7
340
D8
340
D9
340
DA
340
DB
340
DC
340
DD
340
DE
340
DF
340
E0
340
E1
340
E2
340
E3
340
E4
340
E5
340
E6
340
E7
340
E8
340
E9
340
EA
340
EB
340
EC
340
ED
340
EE
340
EF
340
F0
340
F1
340
F2
340
F3
340
F4
340
F5
340
F6
340
F7
340
F8
340
F9
340
FA
340
FB
340
FC
340
FD
340
FE
340
FF
340
100
340
101
340
102
340
103
340
104
340
105
340
106
340
107
340
108
340
109
340
10A
340
10B
340
10C
340
10D
340
10E
340
10F
340
110
340
111
340
112
340
113
340
114
340
115
340
116
340
117
340
118
340
119
340
11A
340
11C
340
11E
340
11F
340
120
340
121
340
122
340
124
340
125
340
126
340
127
340
128
340
129
340
12A
340
12B
340
12C
340
12D
340
12E
340
12F
340
130
340
131
340
132
340
133
340
134
340
135
340
136
340
137
340
138
340
139
340
13A
340
13B
340
13C
340
13D
340
13E
340
13F
340
140
340
141
340
142
340
143
340
144
340
152
340
15C
340
166
340
170
340
17A
340
184
340
192
340
1A7
340
1B0
340
1BB
0
MLINESTYLE
5
18
330
22c
100
AcDbMlineStyle
2
Standard
70
0
3

62
256
51
90
52
90
71
2
49
-0.5
62
256
6
ByLayer
49
0.5
62
256
6
ByLayer
0
RASTERVARIABLES
5
215
330

100
AcDbRasterVariables
90
0
70
1
71
1
72
1
0
ENDSEC
0
EOF
